0
SECTION
2
HEADER
9
$ACADVER
1
AC1015
9
$DWGCODEPAGE
3
ANSI_1252
9
$HANDSEED
5
304
9
$ANGBASE
50
0
9
$ANGDIR
70
0
9
$ATTMODE
70
1
9
$AUNITS
70
0
9
$AUPREC
70
0
9
$CECOLOR
62
256
9
$CELTSCALE
40
1
9
$CELTYPE
6
ByLayer
9
$CELWEIGHT
370
18
9
$CLAYER
8
0
9
$CMLJUST
70
0
9
$CMLSCALE
40
1
9
$CMLSTYLE
2
Standard
9
$DIMSTYLE
2
Standard
9
$TEXTSIZE
40
0.2
9
$TEXTSTYLE
7
Standard
9
$LUNITS
70
2
9
$LUPREC
70
4
9
$EXTNAMES
290
1
9
$INSUNITS
70
4
9
$LTSCALE
40
1
9
$LWDISPLAY
290
1
9
$PDMODE
70
0
9
$PDSIZE
40
0
9
$PLINEGEN
70
0
0
ENDSEC
0
SECTION
2
CLASSES
0
CLASS
1
RASTERVARIABLES
2
AcDbRasterVariables
3
ISM
90
0
280
0
281
0
0
ENDSEC
0
SECTION
2
TABLES
0
TABLE
2
VPORT
5
2fa
100
AcDbSymbolTable
0
VPORT
5
1
100
AcDbSymbolTableRecord
100
AcDbViewportTableRecord
2
*Active
70
0
10
0
20
0
11
1
21
1
12
-1
22
1
13
0
23
0
14
0.5
24
0.5
15
10
25
10
16
0
26
0
36
1
17
0
27
0
37
0
0
ENDTAB
0
TABLE
2
LTYPE
5
2fb
100
AcDbSymbolTable
0
LTYPE
5
14
100
AcDbSymbolTableRecord
100
AcDbLinetypeTableRecord
70
0
2
ByBlock
3

72
65
73
0
40
0
0
LTYPE
5
15
100
AcDbSymbolTableRecord
100
AcDbLinetypeTableRecord
70
0
2
ByLayer
3

72
65
73
0
40
0
0
LTYPE
5
16
100
AcDbSymbolTableRecord
100
AcDbLinetypeTableRecord
70
0
2
CONTINUOUS
3
Solid line
72
65
73
0
40
0
0
LTYPE
5
6A
100
AcDbSymbolTableRecord
100
AcDbLinetypeTableRecord
70
0
2
CENTER
3
____ _ ____ _ ____ _ ____
72
65
73
4
40
47.5
49
22
74
0
49
-8.5
74
0
49
8.5
74
0
49
-8.5
74
0
0
LTYPE
5
6B
100
AcDbSymbolTableRecord
100
AcDbLinetypeTableRecord
70
0
2
DASHED
3
__ __ __ __ __ __ __ __ __
72
65
73
2
40
25.72
49
12.86
74
0
49
-12.86
74
0
0
ENDTAB
0
TABLE
2
LAYER
5
2fc
100
AcDbSymbolTable
0
LAYER
5
10
100
AcDbSymbolTableRecord
100
AcDbLayerTableRecord
2
0
70
0
62
7
6
CONTINUOUS
290
1
370
-3
390
0
0
LAYER
5
6D
100
AcDbSymbolTableRecord
100
AcDbLayerTableRecord
2
80
70
0
62
-6
6
CONTINUOUS
290
1
370
-3
390
0
0
LAYER
5
6F
100
AcDbSymbolTableRecord
100
AcDbLayerTableRecord
2
81
70
0
62
-3
6
CONTINUOUS
290
1
370
-3
390
0
0
LAYER
5
71
100
AcDbSymbolTableRecord
100
AcDbLayerTableRecord
2
1
70
0
62
4
6
CONTINUOUS
290
1
370
-3
390
0
0
LAYER
5
257
100
AcDbSymbolTableRecord
100
AcDbLayerTableRecord
2
2
70
0
62
7
6
CONTINUOUS
290
1
370
-3
390
0
0
LAYER
5
2e7
100
AcDbSymbolTableRecord
100
AcDbLayerTableRecord
2
SK1
70
0
62
4
6
CONTINUOUS
290
1
370
-3
390
0
0
LAYER
5
2e8
100
AcDbSymbolTableRecord
100
AcDbLayerTableRecord
2
SK6
70
0
62
5
6
CONTINUOUS
290
1
370
-3
390
0
0
LAYER
5
2e9
100
AcDbSymbolTableRecord
100
AcDbLayerTableRecord
2
SK2
70
0
62
7
6
CONTINUOUS
290
1
370
-3
390
0
0
ENDTAB
0
TABLE
2
STYLE
5
2fd
100
AcDbSymbolTable
0
STYLE
5
11
100
AcDbSymbolTableRecord
100
AcDbTextStyleTableRecord
2
Standard
3
txt
70
0
71
0
40
0
41
1
42
0
50
0
0
STYLE
5
23C
100
AcDbSymbolTableRecord
100
AcDbTextStyleTableRecord
2
iso_b_vert
3
simplex.shx
70
0
71
0
40
0
41
1
42
0
50
0
0
STYLE
5
23D
100
AcDbSymbolTableRecord
100
AcDbTextStyleTableRecord
2
DWGDirectTextStyle
3
simplex
70
0
71
0
40
0
41
1
42
0
50
0
0
ENDTAB
0
TABLE
2
DIMSTYLE
5
2fe
100
AcDbSymbolTable
100
AcDbDimStyleTable
0
DIMSTYLE
105
27
100
AcDbSymbolTableRecord
100
AcDbDimStyleTableRecord
2
Standard
70
0
3
<>
41
0.18
42
0.0625
44
0.18
140
0.18
147
0.09
73
0
74
0
77
1
271
2
275
0
278
52
280
0
340
11
0
ENDTAB
0
TABLE
2
VIEW
5
2ff
100
AcDbSymbolTable
0
ENDTAB
0
TABLE
2
UCS
5
300
100
AcDbSymbolTable
0
ENDTAB
0
TABLE
2
APPID
5
301
100
AcDbSymbolTable
0
APPID
5
12
100
AcDbSymbolTableRecord
100
AcDbRegAppTableRecord
2
ACAD
70
0
0
ENDTAB
0
TABLE
2
BLOCK_RECORD
5
302
100
AcDbSymbolTable
0
BLOCK_RECORD
5
1F
100
AcDbSymbolTableRecord
100
AcDbBlockTableRecord
2
*Model_Space
340
0
70
0
0
BLOCK_RECORD
5
1B
100
AcDbSymbolTableRecord
100
AcDbBlockTableRecord
2
*Paper_Space
340
0
70
0
0
BLOCK_RECORD
5
23
100
AcDbSymbolTableRecord
100
AcDbBlockTableRecord
2
*Paper_Space0
340
0
70
0
0
BLOCK_RECORD
5
23F
100
AcDbSymbolTableRecord
100
AcDbBlockTableRecord
2
DimnDraft3D1
340
0
70
0
0
BLOCK_RECORD
5
24E
100
AcDbSymbolTableRecord
100
AcDbBlockTableRecord
2
_CLOSED
340
0
70
0
0
BLOCK_RECORD
5
255
100
AcDbSymbolTableRecord
100
AcDbBlockTableRecord
2
DimnDraft3D2
340
0
70
0
0
BLOCK_RECORD
5
264
100
AcDbSymbolTableRecord
100
AcDbBlockTableRecord
2
DimnDraft3D3
340
0
70
0
0
BLOCK_RECORD
5
272
100
AcDbSymbolTableRecord
100
AcDbBlockTableRecord
2
DimnDraft3D4
340
0
70
0
0
BLOCK_RECORD
5
280
100
AcDbSymbolTableRecord
100
AcDbBlockTableRecord
2
DimnDraft3D5
340
0
70
0
0
ENDTAB
0
ENDSEC
0
SECTION
2
BLOCKS
0
BLOCK
5
20
100
AcDbEntity
8
0
100
AcDbBlockBegin
2
*Model_Space
70
0
10
0
20
0
30
0
3
*Model_Space
0
ENDBLK
5
21
100
AcDbEntity
8
0
100
AcDbBlockEnd
0
BLOCK
5
1C
100
AcDbEntity
8
0
100
AcDbBlockBegin
2
*Paper_Space
70
0
10
0
20
0
30
0
3
*Paper_Space
0
ENDBLK
5
1D
100
AcDbEntity
8
0
100
AcDbBlockEnd
0
BLOCK
5
24
100
AcDbEntity
8
0
100
AcDbBlockBegin
2
*Paper_Space0
70
0
10
0
20
0
30
0
3
*Paper_Space0
0
ENDBLK
5
25
100
AcDbEntity
8
0
100
AcDbBlockEnd
0
BLOCK
5
24B
100
AcDbEntity
8
0
100
AcDbBlockBegin
2
DimnDraft3D1
70
0
10
0
20
0
30
0
3
DimnDraft3D1
0
MTEXT
5
240
100
AcDbEntity
8
SK2
62
256
6
ByLayer
370
18
48
1
60
0
100
AcDbMText
10
28.784211
20
43.475
30
0
210
0
220
0
230
1
1
\W0.6740;60
40
3.5
41
0
44
1.084337
50
0
71
7
72
5
7
iso_b_vert
0
LINE
5
242
100
AcDbEntity
8
SK2
62
256
6
ByLayer
370
13
48
1
60
0
100
AcDbLine
10
0
20
2
30
0
11
0
21
44.6
31
0
39
0
210
0
220
0
230
1
0
LINE
5
243
100
AcDbEntity
8
SK2
62
256
6
ByLayer
370
13
48
1
60
0
100
AcDbLine
10
60
20
-25
30
0
11
60
21
44.6
31
0
39
0
210
0
220
0
230
1
0
LINE
5
244
100
AcDbEntity
8
SK2
62
256
6
ByLayer
370
13
48
1
60
0
100
AcDbLine
10
0
20
42.6
30
0
11
60
21
42.6
31
0
39
0
210
0
220
0
230
1
0
LINE
5
245
100
AcDbEntity
8
SK2
62
256
6
ByLayer
370
13
48
1
60
0
100
AcDbLine
10
0
20
42.6
30
0
11
3.174998
21
43.017997
31
0
39
0
210
0
220
0
230
1
0
LINE
5
246
100
AcDbEntity
8
SK2
62
256
6
ByLayer
370
13
48
1
60
0
100
AcDbLine
10
0
20
42.6
30
0
11
3.175002
21
42.182003
31
0
39
0
210
0
220
0
230
1
0
LINE
5
247
100
AcDbEntity
8
SK2
62
256
6
ByLayer
370
13
48
1
60
0
100
AcDbLine
10
3.174998
20
43.017997
30
0
11
3.175002
21
42.182003
31
0
39
0
210
0
220
0
230
1
0
LINE
5
248
100
AcDbEntity
8
SK2
62
256
6
ByLayer
370
13
48
1
60
0
100
AcDbLine
10
60
20
42.6
30
0
11
56.825002
21
42.182003
31
0
39
0
210
0
220
0
230
1
0
LINE
5
249
100
AcDbEntity
8
SK2
62
256
6
ByLayer
370
13
48
1
60
0
100
AcDbLine
10
60
20
42.6
30
0
11
56.824998
21
43.017997
31
0
39
0
210
0
220
0
230
1
0
LINE
5
24A
100
AcDbEntity
8
SK2
62
256
6
ByLayer
370
13
48
1
60
0
100
AcDbLine
10
56.825002
20
42.182003
30
0
11
56.824998
21
43.017997
31
0
39
0
210
0
220
0
230
1
0
ENDBLK
5
24C
100
AcDbEntity
8
0
100
AcDbBlockEnd
0
BLOCK
5
24F
100
AcDbEntity
8
0
100
AcDbBlockBegin
2
_CLOSED
70
0
10
0
20
0
30
0
3
_CLOSED
0
LINE
5
251
100
AcDbEntity
8
0
62
256
6
ByLayer
370
-2
48
1
60
0
100
AcDbLine
10
-1
20
0.166667
30
0
11
0
21
0
31
0
39
0
210
0
220
0
230
1
0
LINE
5
252
100
AcDbEntity
8
0
62
256
6
ByLayer
370
-2
48
1
60
0
100
AcDbLine
10
0
20
0
30
0
11
-1
21
-0.166667
31
0
39
0
210
0
220
0
230
1
0
LINE
5
253
100
AcDbEntity
8
0
62
256
6
ByLayer
370
-2
48
1
60
0
100
AcDbLine
10
-1
20
0.166667
30
0
11
-1
21
-0.166667
31
0
39
0
210
0
220
0
230
1
0
LINE
5
254
100
AcDbEntity
8
0
62
256
6
ByLayer
370
-2
48
1
60
0
100
AcDbLine
10
0
20
0
30
0
11
-1
21
0
31
0
39
0
210
0
220
0
230
1
0
ENDBLK
5
250
100
AcDbEntity
8
0
100
AcDbBlockEnd
0
BLOCK
5
261
100
AcDbEntity
8
0
100
AcDbBlockBegin
2
DimnDraft3D2
70
0
10
0
20
0
30
0
3
DimnDraft3D2
0
MTEXT
5
256
100
AcDbEntity
8
2
62
256
6
ByLayer
370
18
48
1
60
0
100
AcDbMText
10
46.284211
20
-39.233569
30
0
210
0
220
0
230
1
1
\W0.6740;25
40
3.5
41
0
44
1.084337
50
0
71
7
72
5
7
iso_b_vert
0
LINE
5
258
100
AcDbEntity
8
2
62
256
6
ByLayer
370
13
48
1
60
0
100
AcDbLine
10
60
20
-29
30
0
11
60
21
-42.108569
31
0
39
0
210
0
220
0
230
1
0
LINE
5
259
100
AcDbEntity
8
2
62
256
6
ByLayer
370
13
48
1
60
0
100
AcDbLine
10
35
20
-22
30
0
11
35
21
-42.108569
31
0
39
0
210
0
220
0
230
1
0
LINE
5
25A
100
AcDbEntity
8
2
62
256
6
ByLayer
370
13
48
1
60
0
100
AcDbLine
10
60
20
-40.108569
30
0
11
35
21
-40.108569
31
0
39
0
210
0
220
0
230
1
0
LINE
5
25B
100
AcDbEntity
8
2
62
256
6
ByLayer
370
13
48
1
60
0
100
AcDbLine
10
60
20
-40.108569
30
0
11
56.825002
21
-40.526566
31
0
39
0
210
0
220
0
230
1
0
LINE
5
25C
100
AcDbEntity
8
2
62
256
6
ByLayer
370
13
48
1
60
0
100
AcDbLine
10
60
20
-40.108569
30
0
11
56.824998
21
-39.690573
31
0
39
0
210
0
220
0
230
1
0
LINE
5
25D
100
AcDbEntity
8
2
62
256
6
ByLayer
370
13
48
1
60
0
100
AcDbLine
10
56.825002
20
-40.526566
30
0
11
56.824998
21
-39.690573
31
0
39
0
210
0
220
0
230
1
0
LINE
5
25E
100
AcDbEntity
8
2
62
256
6
ByLayer
370
13
48
1
60
0
100
AcDbLine
10
35
20
-40.108569
30
0
11
38.174998
21
-39.690573
31
0
39
0
210
0
220
0
230
1
0
LINE
5
25F
100
AcDbEntity
8
2
62
256
6
ByLayer
370
13
48
1
60
0
100
AcDbLine
10
35
20
-40.108569
30
0
11
38.175002
21
-40.526566
31
0
39
0
210
0
220
0
230
1
0
LINE
5
260
100
AcDbEntity
8
2
62
256
6
ByLayer
370
13
48
1
60
0
100
AcDbLine
10
38.174998
20
-39.690573
30
0
11
38.175002
21
-40.526566
31
0
39
0
210
0
220
0
230
1
0
ENDBLK
5
262
100
AcDbEntity
8
0
100
AcDbBlockEnd
0
BLOCK
5
26F
100
AcDbEntity
8
0
100
AcDbBlockBegin
2
DimnDraft3D3
70
0
10
0
20
0
30
0
3
DimnDraft3D3
0
MTEXT
5
265
100
AcDbEntity
8
SK2
62
256
6
ByLayer
370
18
48
1
60
0
100
AcDbMText
10
-34.475
20
-1.4
30
0
210
0
220
0
230
1
1
\W0.7361;40
40
3.5
41
0
44
1.084337
50
90
71
7
72
5
7
iso_b_vert
0
LINE
5
266
100
AcDbEntity
8
SK2
62
256
6
ByLayer
370
13
48
1
60
0
100
AcDbLine
10
-2
20
-20
30
0
11
-35.6
21
-20
31
0
39
0
210
0
220
0
230
1
0
LINE
5
267
100
AcDbEntity
8
SK2
62
256
6
ByLayer
370
13
48
1
60
0
100
AcDbLine
10
-2
20
20
30
0
11
-35.6
21
20
31
0
39
0
210
0
220
0
230
1
0
LINE
5
268
100
AcDbEntity
8
SK2
62
256
6
ByLayer
370
13
48
1
60
0
100
AcDbLine
10
-33.6
20
-20
30
0
11
-33.6
21
20
31
0
39
0
210
0
220
0
230
1
0
LINE
5
269
100
AcDbEntity
8
SK2
62
256
6
ByLayer
370
13
48
1
60
0
100
AcDbLine
10
-33.6
20
-20
30
0
11
-34.017997
21
-16.825002
31
0
39
0
210
0
220
0
230
1
0
LINE
5
26A
100
AcDbEntity
8
SK2
62
256
6
ByLayer
370
13
48
1
60
0
100
AcDbLine
10
-33.6
20
-20
30
0
11
-33.182003
21
-16.824998
31
0
39
0
210
0
220
0
230
1
0
LINE
5
26B
100
AcDbEntity
8
SK2
62
256
6
ByLayer
370
13
48
1
60
0
100
AcDbLine
10
-34.017997
20
-16.825002
30
0
11
-33.182003
21
-16.824998
31
0
39
0
210
0
220
0
230
1
0
LINE
5
26C
100
AcDbEntity
8
SK2
62
256
6
ByLayer
370
13
48
1
60
0
100
AcDbLine
10
-33.6
20
20
30
0
11
-33.182003
21
16.825002
31
0
39
0
210
0
220
0
230
1
0
LINE
5
26D
100
AcDbEntity
8
SK2
62
256
6
ByLayer
370
13
48
1
60
0
100
AcDbLine
10
-33.6
20
20
30
0
11
-34.017997
21
16.824998
31
0
39
0
210
0
220
0
230
1
0
LINE
5
26E
100
AcDbEntity
8
SK2
62
256
6
ByLayer
370
13
48
1
60
0
100
AcDbLine
10
-33.182003
20
16.825002
30
0
11
-34.017997
21
16.824998
31
0
39
0
210
0
220
0
230
1
0
ENDBLK
5
270
100
AcDbEntity
8
0
100
AcDbBlockEnd
0
BLOCK
5
27D
100
AcDbEntity
8
0
100
AcDbBlockBegin
2
DimnDraft3D4
70
0
10
0
20
0
30
0
3
DimnDraft3D4
0
MTEXT
5
273
100
AcDbEntity
8
2
62
256
6
ByLayer
370
18
48
1
60
0
100
AcDbMText
10
84.225
20
-14.715789
30
0
210
0
220
0
230
1
1
\W0.6740;27
40
3.5
41
0
44
1.084337
50
90
71
7
72
5
7
iso_b_vert
0
LINE
5
274
100
AcDbEntity
8
2
62
256
6
ByLayer
370
13
48
1
60
0
100
AcDbLine
10
53
20
0
30
0
11
87.1
21
0
31
0
39
0
210
0
220
0
230
1
0
LINE
5
275
100
AcDbEntity
8
2
62
256
6
ByLayer
370
13
48
1
60
0
100
AcDbLine
10
62
20
-27
30
0
11
87.1
21
-27
31
0
39
0
210
0
220
0
230
1
0
LINE
5
276
100
AcDbEntity
8
2
62
256
6
ByLayer
370
13
48
1
60
0
100
AcDbLine
10
85.1
20
0
30
0
11
85.1
21
-27
31
0
39
0
210
0
220
0
230
1
0
LINE
5
277
100
AcDbEntity
8
2
62
256
6
ByLayer
370
13
48
1
60
0
100
AcDbLine
10
85.1
20
0
30
0
11
85.517997
21
-3.174998
31
0
39
0
210
0
220
0
230
1
0
LINE
5
278
100
AcDbEntity
8
2
62
256
6
ByLayer
370
13
48
1
60
0
100
AcDbLine
10
85.1
20
0
30
0
11
84.682003
21
-3.175002
31
0
39
0
210
0
220
0
230
1
0
LINE
5
279
100
AcDbEntity
8
2
62
256
6
ByLayer
370
13
48
1
60
0
100
AcDbLine
10
85.517997
20
-3.174998
30
0
11
84.682003
21
-3.175002
31
0
39
0
210
0
220
0
230
1
0
LINE
5
27A
100
AcDbEntity
8
2
62
256
6
ByLayer
370
13
48
1
60
0
100
AcDbLine
10
85.1
20
-27
30
0
11
84.682003
21
-23.825002
31
0
39
0
210
0
220
0
230
1
0
LINE
5
27B
100
AcDbEntity
8
2
62
256
6
ByLayer
370
13
48
1
60
0
100
AcDbLine
10
85.1
20
-27
30
0
11
85.517997
21
-23.824998
31
0
39
0
210
0
220
0
230
1
0
LINE
5
27C
100
AcDbEntity
8
2
62
256
6
ByLayer
370
13
48
1
60
0
100
AcDbLine
10
84.682003
20
-23.825002
30
0
11
85.517997
21
-23.824998
31
0
39
0
210
0
220
0
230
1
0
ENDBLK
5
27E
100
AcDbEntity
8
0
100
AcDbBlockEnd
0
BLOCK
5
28B
100
AcDbEntity
8
0
100
AcDbBlockBegin
2
DimnDraft3D5
70
0
10
0
20
0
30
0
3
DimnDraft3D5
0
MTEXT
5
281
100
AcDbEntity
8
2
62
256
6
ByLayer
370
18
48
1
60
0
100
AcDbMText
10
77.225
20
-37.945789
30
0
210
0
220
0
230
1
1
\W0.5404;3
40
3.5
41
0
44
1.084337
50
90
71
7
72
5
7
iso_b_vert
0
LINE
5
282
100
AcDbEntity
8
2
62
256
6
ByLayer
370
13
48
1
60
0
100
AcDbLine
10
62
20
-27
30
0
11
80.1
21
-27
31
0
39
0
210
0
220
0
230
1
0
LINE
5
283
100
AcDbEntity
8
2
62
256
6
ByLayer
370
13
48
1
60
0
100
AcDbLine
10
62
20
-24
30
0
11
80.1
21
-24
31
0
39
0
210
0
220
0
230
1
0
LINE
5
284
100
AcDbEntity
8
2
62
256
6
ByLayer
370
13
48
1
60
0
100
AcDbLine
10
78.1
20
-15.25
30
0
11
78.1
21
-38.820789
31
0
39
0
210
0
220
0
230
1
0
LINE
5
285
100
AcDbEntity
8
2
62
256
6
ByLayer
370
13
48
1
60
0
100
AcDbLine
10
78.1
20
-27
30
0
11
78.517997
21
-30.174998
31
0
39
0
210
0
220
0
230
1
0
LINE
5
286
100
AcDbEntity
8
2
62
256
6
ByLayer
370
13
48
1
60
0
100
AcDbLine
10
78.1
20
-27
30
0
11
77.682003
21
-30.175002
31
0
39
0
210
0
220
0
230
1
0
LINE
5
287
100
AcDbEntity
8
2
62
256
6
ByLayer
370
13
48
1
60
0
100
AcDbLine
10
78.517997
20
-30.174998
30
0
11
77.682003
21
-30.175002
31
0
39
0
210
0
220
0
230
1
0
LINE
5
288
100
AcDbEntity
8
2
62
256
6
ByLayer
370
13
48
1
60
0
100
AcDbLine
10
78.1
20
-24
30
0
11
77.682003
21
-20.825002
31
0
39
0
210
0
220
0
230
1
0
LINE
5
289
100
AcDbEntity
8
2
62
256
6
ByLayer
370
13
48
1
60
0
100
AcDbLine
10
78.1
20
-24
30
0
11
78.517997
21
-20.824998
31
0
39
0
210
0
220
0
230
1
0
LINE
5
28A
100
AcDbEntity
8
2
62
256
6
ByLayer
370
13
48
1
60
0
100
AcDbLine
10
77.682003
20
-20.825002
30
0
11
78.517997
21
-20.824998
31
0
39
0
210
0
220
0
230
1
0
ENDBLK
5
28C
100
AcDbEntity
8
0
100
AcDbBlockEnd
0
ENDSEC
0
SECTION
2
ENTITIES
0
ARC
5
11F
100
AcDbEntity
8
1
62
256
6
ByLayer
370
13
48
1
60
0
100
AcDbCircle
39
0
10
-20.279208
20
-21.2
30
0
40
1.2
210
0
220
0
230
-1
100
AcDbArc
50
90
51
165
0
ARC
5
120
100
AcDbEntity
8
1
62
256
6
ByLayer
370
13
48
1
60
0
100
AcDbCircle
39
0
10
-35
20
-22.725
30
0
40
1.6
210
0
220
0
230
-1
100
AcDbArc
50
359.934615
51
0
0
ARC
5
121
100
AcDbEntity
8
1
62
256
6
ByLayer
370
13
48
1
60
0
100
AcDbCircle
39
0
10
-24.080057
20
14.5
30
0
40
4.00000000000001
210
0
220
0
230
-1
100
AcDbArc
50
270
51
359.5
0
ARC
5
122
100
AcDbEntity
8
1
62
256
6
ByLayer
370
18
48
1
60
0
100
AcDbCircle
39
0
10
50.2
20
-24.45
30
0
40
0.2
210
0
220
0
230
1
100
AcDbArc
50
120
51
141.318614
0
ARC
5
123
100
AcDbEntity
8
1
62
256
6
ByLayer
370
18
48
1
60
0
100
AcDbCircle
39
0
10
50.2
20
-26.55
30
0
40
0.2
210
0
220
0
230
1
100
AcDbArc
50
218.681386
51
240
0
ELLIPSE
5
124
100
AcDbEntity
8
1
62
256
6
ByLayer
370
13
48
1
60
0
100
AcDbEllipse
10
55.439369
20
-25.5
30
0
11
-3.67381906146869E-17
21
0.600000000000254
31
0
210
0
220
0
230
-1
40
0.087165
41
-2.67003429781556
42
-0.471558355774233
0
ELLIPSE
5
125
100
AcDbEntity
8
1
62
256
6
ByLayer
370
13
48
1
60
0
100
AcDbEllipse
10
-0.948929
20
0
30
0
11
9.3674178797816
21
-19.7417491527503
31
0
210
0
220
0
230
-1
40
0.341999
41
-1.0963195274999
42
-0.152726244898374
0
ELLIPSE
5
126
100
AcDbEntity
8
1
62
256
6
ByLayer
370
13
48
1
60
0
100
AcDbEllipse
10
16.948929
20
0
30
0
11
9.36741787978115
21
-19.7417491527495
31
0
210
0
220
0
230
-1
40
0.341999
41
2.04527312608987
42
2.98886640869142
0
ELLIPSE
5
127
100
AcDbEntity
8
1
62
256
6
ByLayer
370
13
48
1
60
0
100
AcDbEllipse
10
54.839209
20
-25.5
30
0
11
1.2688385464326
21
1.28233778961872E-15
31
0
210
0
220
0
230
-1
40
0.472873
41
1.09923797102148
42
-1.09923797102148
0
ELLIPSE
5
128
100
AcDbEntity
8
1
62
256
6
ByLayer
370
13
48
1
60
0
100
AcDbEllipse
10
20.174537
20
0
30
0
11
-1.22460635382219E-15
21
19.999999999997
31
0
210
0
220
0
230
-1
40
0.008727
41
-2.57062395621731
42
-0.655771127125736
0
ELLIPSE
5
129
100
AcDbEntity
8
1
62
256
6
ByLayer
370
13
48
1
60
0
100
AcDbEllipse
10
16.948929
20
0
30
0
11
9.36741787978185
21
19.7417491527505
31
0
210
0
220
0
230
-1
40
0.341999
41
-2.98886640869144
42
-2.0452731260899
0
ELLIPSE
5
12A
100
AcDbEntity
8
1
62
256
6
ByLayer
370
13
48
1
60
0
100
AcDbEllipse
10
-0.948929
20
0
30
0
11
9.36741787978091
21
19.7417491527495
31
0
210
0
220
0
230
-1
40
0.341999
41
0.152726244898375
42
1.09631952749993
0
ELLIPSE
5
12B
100
AcDbEntity
8
1
62
256
6
ByLayer
370
13
48
1
60
0
100
AcDbEllipse
10
52.308132
20
-26.769586
30
0
11
0.979582052390509
21
0.301726209244302
31
0
210
0
220
0
230
-1
40
0.270086
41
-2.24185105457416
42
-2.0527307451663
0
ELLIPSE
5
12C
100
AcDbEntity
8
1
62
256
6
ByLayer
370
13
48
1
60
0
100
AcDbEllipse
10
52.308132
20
-24.230414
30
0
11
0.998914191452241
21
-0.226032306454737
31
0
210
0
220
0
230
-1
40
0.206112
41
1.9950690947001
42
2.24548541562281
0
ELLIPSE
5
12D
100
AcDbEntity
8
1
62
256
6
ByLayer
370
13
48
1
60
0
100
AcDbEllipse
10
52.308132
20
-26.769586
30
0
11
0.998914191597382
21
0.226032306466013
31
0
210
0
220
0
230
-1
40
0.206112
41
-2.24548541564999
42
-1.99506909475687
0
ELLIPSE
5
12E
100
AcDbEntity
8
1
62
256
6
ByLayer
370
13
48
1
60
0
100
AcDbEllipse
10
59.37413
20
-25.5
30
0
11
-7.38495814331257
21
9.04366666501288E-16
31
0
210
0
220
0
230
1
40
0.121869
41
1.16456723893879
42
1.18682389135614
0
ELLIPSE
5
12F
100
AcDbEntity
8
1
62
256
6
ByLayer
370
13
48
1
60
0
100
AcDbEllipse
10
59.37413
20
-25.5
30
0
11
-7.38495814331257
21
9.04366666501288E-16
31
0
210
0
220
0
230
1
40
0.121869
41
-1.18682389135614
42
-1.16456723893881
0
ELLIPSE
5
130
100
AcDbEntity
8
1
62
256
6
ByLayer
370
13
48
1
60
0
100
AcDbEllipse
10
58.458781
20
-24.318834
30
0
11
0.0322705528359684
21
-0.237820544570188
31
0
210
0
220
0
230
1
40
0.009402
41
-1.50161815253463
42
-0.684082575265842
0
ELLIPSE
5
131
100
AcDbEntity
8
1
62
256
6
ByLayer
370
13
48
1
60
0
100
AcDbEllipse
10
57.228622
20
-24.440299
30
0
11
-0.0129780832447759
21
-0.239648845929397
31
0
210
0
220
0
230
1
40
0.707925
41
0.878821726711969
42
1.55967335367816
0
ELLIPSE
5
132
100
AcDbEntity
8
1
62
256
6
ByLayer
370
13
48
1
60
0
100
AcDbEllipse
10
58.458781
20
-26.681166
30
0
11
0.0322705528359686
21
0.237820544570188
31
0
210
0
220
0
230
1
40
0.009402
41
0.684082575265842
42
1.50161815253483
0
ELLIPSE
5
133
100
AcDbEntity
8
1
62
256
6
ByLayer
370
13
48
1
60
0
100
AcDbEllipse
10
57.228622
20
-26.559701
30
0
11
-0.0129780832447762
21
0.239648845929397
31
0
210
0
220
0
230
1
40
0.707925
41
-1.55967335367816
42
-0.878821726711969
0
ELLIPSE
5
134
100
AcDbEntity
8
1
62
256
6
ByLayer
370
13
48
1
60
0
100
AcDbEllipse
10
59.37413
20
-25.5
30
0
11
7.34839763104859
21
1.48197047067542E-08
31
0
210
0
220
0
230
-1
40
0.08165
41
1.95476877509276
42
2.0016205031638
0
ELLIPSE
5
135
100
AcDbEntity
8
1
62
256
6
ByLayer
370
13
48
1
60
0
100
AcDbEllipse
10
56.986644
20
-25.5
30
0
11
1.63150681036031
21
-2.32430490349792E-10
31
0
210
0
220
0
230
-1
40
0.367758
41
-2.17407423425181
42
-2.00162049217313
0
ELLIPSE
5
136
100
AcDbEntity
8
1
62
256
6
ByLayer
370
13
48
1
60
0
100
AcDbEllipse
10
59.374131
20
-25.5
30
0
11
7.3483978157542
21
-2.46811443158019E-08
31
0
210
0
220
0
230
-1
40
0.08165
41
-2.00162051149969
42
-1.95476878443
0
ELLIPSE
5
137
100
AcDbEntity
8
1
62
256
6
ByLayer
370
13
48
1
60
0
100
AcDbEllipse
10
56.986644
20
-25.5
30
0
11
1.63150681132094
21
5.15810126836746E-10
31
0
210
0
220
0
230
-1
40
0.367758
41
2.00162049247917
42
2.17407423447419
0
ELLIPSE
5
138
100
AcDbEntity
8
1
62
256
6
ByLayer
370
13
48
1
60
0
100
AcDbEllipse
10
57.123829
20
-26.561383
30
0
11
0.1082392992065
21
-0.214206101937563
31
0
210
0
220
0
230
1
40
0.678671
41
1.29279293091366
42
1.84879976311947
0
ELLIPSE
5
139
100
AcDbEntity
8
1
62
256
6
ByLayer
370
13
48
1
60
0
100
AcDbEllipse
10
57.123829
20
-24.438617
30
0
11
0.1082392992065
21
0.214206101937563
31
0
210
0
220
0
230
1
40
0.678671
41
-1.8487997631195
42
-1.29279293091362
0
ELLIPSE
5
13A
100
AcDbEntity
8
1
62
256
6
ByLayer
370
13
48
1
60
0
100
AcDbEllipse
10
56.859452
20
-26.321836
30
0
11
0.219354463278089
21
0.119931728245622
31
0
210
0
220
0
230
1
40
0.441633
41
0.600579851753451
42
1.30662817391546
0
ELLIPSE
5
13B
100
AcDbEntity
8
1
62
256
6
ByLayer
370
13
48
1
60
0
100
AcDbEllipse
10
56.859452
20
-24.678164
30
0
11
-0.219354463278086
21
0.119931728245626
31
0
210
0
220
0
230
1
40
0.441633
41
1.83496447967433
42
2.54101280183636
0
ELLIPSE
5
13C
100
AcDbEntity
8
1
62
256
6
ByLayer
370
13
48
1
60
0
100
AcDbEllipse
10
56.295115
20
-26.226897
30
0
11
-0.0433548151255266
21
-0.195244359727577
31
0
210
0
220
0
230
1
40
0.334809
41
-2.68611088405472
42
-1.49658713340602
0
ELLIPSE
5
13D
100
AcDbEntity
8
1
62
256
6
ByLayer
370
13
48
1
60
0
100
AcDbEllipse
10
56.295115
20
-24.773103
30
0
11
-0.0433548151255279
21
0.195244359727577
31
0
210
0
220
0
230
1
40
0.334809
41
1.49658713340599
42
2.68611088405472
0
ELLIPSE
5
13E
100
AcDbEntity
8
1
62
256
6
ByLayer
370
13
48
1
60
0
100
AcDbEllipse
10
56.91824
20
-25.5
30
0
11
1.65588067611228
21
-9.32408943328818E-10
31
0
210
0
220
0
230
-1
40
0.483127
41
2.00162049111429
42
2.17407423343807
0
ELLIPSE
5
13F
100
AcDbEntity
8
1
62
256
6
ByLayer
370
13
48
1
60
0
100
AcDbEllipse
10
56.91824
20
-25.5
30
0
11
1.65588067650134
21
7.64353403821761E-10
31
0
210
0
220
0
230
-1
40
0.483127
41
-2.17407423354916
42
-2.00162049125656
0
ELLIPSE
5
140
100
AcDbEntity
8
1
62
256
6
ByLayer
370
13
48
1
60
0
100
AcDbEllipse
10
57.125564
20
-24.438978
30
0
11
0.00742724597932567
21
-0.239885047506431
31
0
210
0
220
0
230
1
40
0.70617
41
0.846393084122536
42
1.49951821957463
0
ELLIPSE
5
141
100
AcDbEntity
8
1
62
256
6
ByLayer
370
13
48
1
60
0
100
AcDbEllipse
10
57.125564
20
-26.561022
30
0
11
0.00742724597932589
21
0.239885047506431
31
0
210
0
220
0
230
1
40
0.70617
41
-1.49951821957463
42
-0.846393084122572
0
ELLIPSE
5
142
100
AcDbEntity
8
1
62
256
6
ByLayer
370
13
48
1
60
0
100
AcDbEllipse
10
56.047188
20
-26.158784
30
0
11
-0.0631638165780187
21
-0.189763885592856
31
0
210
0
220
0
230
1
40
0.326425
41
-2.50339446299674
42
-1.46256868006916
0
ELLIPSE
5
143
100
AcDbEntity
8
1
62
256
6
ByLayer
370
13
48
1
60
0
100
AcDbEllipse
10
56.047188
20
-24.841216
30
0
11
-0.0631638165785347
21
0.189763885592684
31
0
210
0
220
0
230
1
40
0.326425
41
1.46256868006819
42
2.50339446299207
0
ELLIPSE
5
144
100
AcDbEntity
8
1
62
256
6
ByLayer
370
13
48
1
60
0
100
AcDbEllipse
10
56.850683
20
-26.334465
30
0
11
0.195064510201759
21
-0.227925068519783
31
0
210
0
220
0
230
1
40
0.863833
41
1.64869430110505
42
2.31141389753817
0
ELLIPSE
5
145
100
AcDbEntity
8
1
62
256
6
ByLayer
370
13
48
1
60
0
100
AcDbEllipse
10
56.850683
20
-24.665535
30
0
11
-0.195064510201764
21
-0.227925068519779
31
0
210
0
220
0
230
1
40
0.863833
41
0.830178756051654
42
1.49289835248475
0
ELLIPSE
5
146
100
AcDbEntity
8
1
62
256
6
ByLayer
370
13
48
1
60
0
100
AcDbEllipse
10
55.950966
20
-26.197967
30
0
11
0.182866340278506
21
-0.0809932194269721
31
0
210
0
220
0
230
1
40
0.14582
41
-2.77286095187729
42
-1.88885149068662
0
ELLIPSE
5
147
100
AcDbEntity
8
1
62
256
6
ByLayer
370
13
48
1
60
0
100
AcDbEllipse
10
55.950966
20
-24.802033
30
0
11
0.182866340278443
21
0.0809932194271139
31
0
210
0
220
0
230
1
40
0.14582
41
1.88885149068662
42
2.77286095187507
0
ELLIPSE
5
148
100
AcDbEntity
8
1
62
256
6
ByLayer
370
13
48
1
60
0
100
AcDbEllipse
10
56.902412
20
-24.793067
30
0
11
-0.299757884748935
21
0.0120503332254432
31
0
210
0
220
0
230
1
40
0.786325
41
1.677914350623
42
2.2522099004542
0
ELLIPSE
5
149
100
AcDbEntity
8
1
62
256
6
ByLayer
370
13
48
1
60
0
100
AcDbEllipse
10
56.902412
20
-26.206933
30
0
11
0.299757884748933
21
0.0120503332254948
31
0
210
0
220
0
230
1
40
0.786325
41
0.889382753135441
42
1.4636783029667
0
ELLIPSE
5
14A
100
AcDbEntity
8
1
62
256
6
ByLayer
370
13
48
1
60
0
100
AcDbEllipse
10
55.692326
20
-24.374098
30
0
11
0.0570319130279923
21
-0.138734858259803
31
0
210
0
220
0
230
1
40
0.776494
41
-1.87977830526732
42
-1.56980601158798
0
ELLIPSE
5
14B
100
AcDbEntity
8
1
62
256
6
ByLayer
370
13
48
1
60
0
100
AcDbEllipse
10
55.692326
20
-26.625902
30
0
11
-0.0570319130268966
21
-0.138734858260253
31
0
210
0
220
0
230
1
40
0.776494
41
-1.57178664200835
42
-1.26181434832865
0
ELLIPSE
5
14C
100
AcDbEntity
8
1
62
256
6
ByLayer
370
13
48
1
60
0
100
AcDbEllipse
10
56.08147
20
-25.979243
30
0
11
-0.105329348464612
21
0.280901634655301
31
0
210
0
220
0
230
1
40
0.319781
41
-1.09012327608123
42
-0.203695114400057
0
ELLIPSE
5
14D
100
AcDbEntity
8
1
62
256
6
ByLayer
370
13
48
1
60
0
100
AcDbEllipse
10
56.08147
20
-25.020757
30
0
11
-0.105329348464631
21
-0.280901634655294
31
0
210
0
220
0
230
1
40
0.319781
41
0.20369511439998
42
1.09012327608119
0
ELLIPSE
5
14E
100
AcDbEntity
8
1
62
256
6
ByLayer
370
13
48
1
60
0
100
AcDbEllipse
10
57.009329
20
-25.788572
30
0
11
-0.263738087060282
21
0.142976296755033
31
0
210
0
220
0
230
1
40
0.337339
41
-2.1274266519526
42
-1.51944467242793
0
ELLIPSE
5
14F
100
AcDbEntity
8
1
62
256
6
ByLayer
370
13
48
1
60
0
100
AcDbEllipse
10
57.009329
20
-25.211428
30
0
11
-0.26373808706239
21
-0.142976296751144
31
0
210
0
220
0
230
1
40
0.337339
41
1.51944467242558
42
2.12742665190393
0
ELLIPSE
5
150
100
AcDbEntity
8
1
62
256
6
ByLayer
370
13
48
1
60
0
100
AcDbEllipse
10
55.689927
20
-26.625438
30
0
11
4.24912383924225E-17
21
0.15
31
0
210
0
220
0
230
1
40
0.795546
41
1.23482044578598
42
1.5707963267949
0
ELLIPSE
5
151
100
AcDbEntity
8
1
62
256
6
ByLayer
370
13
48
1
60
0
100
AcDbEllipse
10
55.689927
20
-24.374562
30
0
11
4.24912383924225E-17
21
0.15
31
0
210
0
220
0
230
1
40
0.795546
41
1.5707963267949
42
1.90677220780382
0
ELLIPSE
5
152
100
AcDbEntity
8
1
62
256
6
ByLayer
370
13
48
1
60
0
100
AcDbEllipse
10
55.433293
20
-26.625438
30
0
11
-2.75536429610035E-17
21
-0.15
31
0
210
0
220
0
230
1
40
0.34202
41
-1.75278811305915
42
-1.5707963267949
0
ELLIPSE
5
153
100
AcDbEntity
8
1
62
256
6
ByLayer
370
13
48
1
60
0
100
AcDbEllipse
10
55.433293
20
-24.374562
30
0
11
4.24912383924225E-17
21
0.15
31
0
210
0
220
0
230
1
40
0.34202
41
1.5707963267949
42
1.75278811305915
0
ELLIPSE
5
154
100
AcDbEntity
8
1
62
256
6
ByLayer
370
13
48
1
60
0
100
AcDbEllipse
10
55.939982
20
-25.066549
30
0
11
-0.0205626710087509
21
-0.198940133107892
31
0
210
0
220
0
230
1
40
0.702979
41
-1.10867675839078
42
-0.337059544638764
0
ELLIPSE
5
155
100
AcDbEntity
8
1
62
256
6
ByLayer
370
13
48
1
60
0
100
AcDbEllipse
10
55.939982
20
-25.933451
30
0
11
-0.0205626710087514
21
0.198940133107892
31
0
210
0
220
0
230
1
40
0.702979
41
0.337059544638764
42
1.10867675839078
0
ELLIPSE
5
156
100
AcDbEntity
8
1
62
256
6
ByLayer
370
13
48
1
60
0
100
AcDbEllipse
10
56.072352
20
-25.017337
30
0
11
0.1054031629799
21
0.280873945452106
31
0
210
0
220
0
230
1
40
0.321796
41
-2.93702761420039
42
-2.05551827773613
0
ELLIPSE
5
157
100
AcDbEntity
8
1
62
256
6
ByLayer
370
13
48
1
60
0
100
AcDbEllipse
10
56.072352
20
-25.982663
30
0
11
-0.105403162979924
21
0.280873945452097
31
0
210
0
220
0
230
1
40
0.321796
41
-1.08607437585372
42
-0.204565039389365
0
ELLIPSE
5
158
100
AcDbEntity
8
1
62
256
6
ByLayer
370
13
48
1
60
0
100
AcDbEllipse
10
59.147654
20
-26.691357
30
0
11
-0.00560126668057228
21
0.239934628204378
31
0
210
0
220
0
230
1
40
0.172043
41
0.73209745514099
42
1.49800588930574
0
ELLIPSE
5
159
100
AcDbEntity
8
1
62
256
6
ByLayer
370
13
48
1
60
0
100
AcDbEllipse
10
59.147654
20
-24.308643
30
0
11
-0.00560126668057245
21
-0.239934628204378
31
0
210
0
220
0
230
1
40
0.172043
41
-1.49800588930574
42
-0.732097455141114
0
ELLIPSE
5
15A
100
AcDbEntity
8
1
62
256
6
ByLayer
370
13
48
1
60
0
100
AcDbEllipse
10
55.931197
20
-25.066064
30
0
11
5.665498452323E-17
21
0.2
31
0
210
0
220
0
230
1
40
0.803713
41
1.90677220780379
42
2.72521072930057
0
ELLIPSE
5
15B
100
AcDbEntity
8
1
62
256
6
ByLayer
370
13
48
1
60
0
100
AcDbEllipse
10
55.931197
20
-25.933936
30
0
11
5.665498452323E-17
21
0.2
31
0
210
0
220
0
230
1
40
0.803713
41
0.416381924289224
42
1.234820445786
0
ELLIPSE
5
15C
100
AcDbEntity
8
1
62
256
6
ByLayer
370
13
48
1
60
0
100
AcDbEllipse
10
55.533999
20
-25.933936
30
0
11
-3.67381906146713E-17
21
-0.2
31
0
210
0
220
0
230
1
40
0.34202
41
-2.72521072930067
42
-1.90677220780379
0
ELLIPSE
5
15D
100
AcDbEntity
8
1
62
256
6
ByLayer
370
13
48
1
60
0
100
AcDbEllipse
10
55.533999
20
-25.066064
30
0
11
5.665498452323E-17
21
0.2
31
0
210
0
220
0
230
1
40
0.34202
41
1.90677220780379
42
2.72521072930067
0
ELLIPSE
5
15E
100
AcDbEntity
8
1
62
256
6
ByLayer
370
13
48
1
60
0
100
AcDbEllipse
10
59.752853
20
-24.578833
30
0
11
-0.0533981556875966
21
-0.0845496124719871
31
0
210
0
220
0
230
1
40
0.139768
41
0.740023965274873
42
1.57717485146101
0
ELLIPSE
5
15F
100
AcDbEntity
8
1
62
256
6
ByLayer
370
13
48
1
60
0
100
AcDbEllipse
10
59.913527
20
-24.72831
30
0
11
-0.0833341889559589
21
-0.0552757899179427
31
0
210
0
220
0
230
1
40
0.125151
41
1.00888984397374
42
1.63388084261207
0
ELLIPSE
5
160
100
AcDbEntity
8
1
62
256
6
ByLayer
370
13
48
1
60
0
100
AcDbEllipse
10
59.752853
20
-26.421167
30
0
11
-0.0533981556875965
21
0.0845496124719871
31
0
210
0
220
0
230
1
40
0.139768
41
-1.57717485146108
42
-0.740023965275252
0
ELLIPSE
5
161
100
AcDbEntity
8
1
62
256
6
ByLayer
370
13
48
1
60
0
100
AcDbEllipse
10
59.258678
20
-26.089076
30
0
11
0.0148293336171642
21
0.399725019062444
31
0
210
0
220
0
230
1
40
0.406503
41
-2.33595515067485
42
-1.55571667185632
0
ELLIPSE
5
162
100
AcDbEntity
8
1
62
256
6
ByLayer
370
13
48
1
60
0
100
AcDbEllipse
10
59.913527
20
-26.27169
30
0
11
-0.0833341889559589
21
0.0552757899179428
31
0
210
0
220
0
230
1
40
0.125151
41
-1.63388084261207
42
-1.00888984397362
0
ELLIPSE
5
163
100
AcDbEntity
8
1
62
256
6
ByLayer
370
13
48
1
60
0
100
AcDbEllipse
10
59.258678
20
-24.910924
30
0
11
0.014829333617164
21
-0.399725019062444
31
0
210
0
220
0
230
1
40
0.406503
41
1.5557166718563
42
2.33595515067484
0
ELLIPSE
5
164
100
AcDbEntity
8
1
62
256
6
ByLayer
370
13
48
1
60
0
100
AcDbEllipse
10
59.620403
20
-26.503257
30
0
11
-0.0518341759381039
21
0.0855173561612945
31
0
210
0
220
0
230
1
40
0.13986
41
-1.57460332353076
42
-0.73631195470061
0
ELLIPSE
5
165
100
AcDbEntity
8
1
62
256
6
ByLayer
370
13
48
1
60
0
100
AcDbEllipse
10
59.620403
20
-24.496743
30
0
11
-0.0518341759381039
21
-0.0855173561612945
31
0
210
0
220
0
230
1
40
0.13986
41
0.736311954700279
42
1.57460332353076
0
ELLIPSE
5
166
100
AcDbEntity
8
1
62
256
6
ByLayer
370
13
48
1
60
0
100
AcDbEllipse
10
59.523358
20
-26.58063
30
0
11
-0.0777628762498878
21
0.0628723713354654
31
0
210
0
220
0
230
1
40
0.13045
41
-1.6218279290307
42
-1.15581636427943
0
ELLIPSE
5
167
100
AcDbEntity
8
1
62
256
6
ByLayer
370
13
48
1
60
0
100
AcDbEllipse
10
59.523358
20
-24.41937
30
0
11
-0.0777628762498878
21
-0.0628723713354653
31
0
210
0
220
0
230
1
40
0.13045
41
1.15581636427943
42
1.62182792903077
0
ELLIPSE
5
168
100
AcDbEntity
8
1
62
256
6
ByLayer
370
13
48
1
60
0
100
AcDbEllipse
10
58.758781
20
-26.695151
30
0
11
-0.00824662055120453
21
0.239858277425409
31
0
210
0
220
0
230
1
40
0.002403
41
-1.50102444918698
42
-0.709373157675865
0
ELLIPSE
5
169
100
AcDbEntity
8
1
62
256
6
ByLayer
370
13
48
1
60
0
100
AcDbEllipse
10
58.758781
20
-24.304849
30
0
11
-0.0082466205512047
21
-0.239858277425409
31
0
210
0
220
0
230
1
40
0.002403
41
0.709373157667507
42
1.50102444918783
0
ELLIPSE
5
16A
100
AcDbEntity
8
1
62
256
6
ByLayer
370
13
48
1
60
0
100
AcDbEllipse
10
55.782996
20
-23.419859
30
0
11
5.665498452323E-16
21
2
31
0
210
0
220
0
230
1
40
0.34202
41
2.72521072930059
42
2.79252680319092
0
ELLIPSE
5
16B
100
AcDbEntity
8
1
62
256
6
ByLayer
370
13
48
1
60
0
100
AcDbEllipse
10
55.782996
20
-27.580141
30
0
11
-3.67381906146713E-16
21
-2
31
0
210
0
220
0
230
1
40
0.34202
41
-2.79252680319092
42
-2.72521072930059
0
ELLIPSE
5
16C
100
AcDbEntity
8
1
62
256
6
ByLayer
370
13
48
1
60
0
100
AcDbEllipse
10
59.935862
20
-26.23707
30
0
11
-0.0846493904271157
21
0.0532398412874958
31
0
210
0
220
0
230
1
40
0.065231
41
-1.67414184501559
42
-1.04577954889681
0
ELLIPSE
5
16D
100
AcDbEntity
8
1
62
256
6
ByLayer
370
13
48
1
60
0
100
AcDbEllipse
10
59.935862
20
-24.76293
30
0
11
-0.0846493904271157
21
-0.0532398412874957
31
0
210
0
220
0
230
1
40
0.065231
41
1.045779548897
42
1.67414184501559
0
ELLIPSE
5
16E
100
AcDbEntity
8
1
62
256
6
ByLayer
370
13
48
1
60
0
100
AcDbEllipse
10
55.527689
20
-25.5
30
0
11
5.94877337493915E-17
21
0.21
31
0
210
0
220
0
230
1
40
0.34202
41
-2.79252680319093
42
-0.349065850398866
0
ELLIPSE
5
16F
100
AcDbEntity
8
1
62
256
6
ByLayer
370
13
48
1
60
0
100
AcDbEllipse
10
52.308132
20
-24.230414
30
0
11
0.979582052654586
21
-0.301726209270757
31
0
210
0
220
0
230
-1
40
0.270086
41
2.05273074526979
42
2.24185105463813
0
ELLIPSE
5
170
100
AcDbEntity
8
1
62
256
6
ByLayer
370
18
48
1
60
0
100
AcDbEllipse
10
59.506337
20
-26.973303
30
0
11
0.239997043584158
21
-0.0169489928997806
31
0
210
0
220
0
230
-1
40
0.070266
41
1.44395567047386
42
1.73995037724786
0
ELLIPSE
5
171
100
AcDbEntity
8
1
62
256
6
ByLayer
370
18
48
1
60
0
100
AcDbEllipse
10
60.048748
20
-26.23707
30
0
11
1.1330996904646E-16
21
0.4
31
0
210
0
220
0
230
1
40
0.121869
41
1.5707963267949
42
1.64009079051255
0
ELLIPSE
5
172
100
AcDbEntity
8
1
62
256
6
ByLayer
370
18
48
1
60
0
100
AcDbEllipse
10
60.048748
20
-24.76293
30
0
11
1.1330996904646E-16
21
0.4
31
0
210
0
220
0
230
1
40
0.121869
41
1.50150186307724
42
1.5707963267949
0
ELLIPSE
5
173
100
AcDbEntity
8
1
62
256
6
ByLayer
370
18
48
1
60
0
100
AcDbEllipse
10
56.542652
20
-24.05
30
0
11
0.201946432116473
21
0
31
0
210
0
220
0
230
1
40
0.990362
41
-1.5707963267949
42
-1.04299365512072
0
ELLIPSE
5
174
100
AcDbEntity
8
1
62
256
6
ByLayer
370
18
48
1
60
0
100
AcDbEllipse
10
57.136306
20
-26.841309
30
0
11
0.251841921993892
21
-0.0177818623390236
31
0
210
0
220
0
230
-1
40
0.06924
41
0.774400198845208
42
1.56101782173505
0
ELLIPSE
5
175
100
AcDbEntity
8
1
62
256
6
ByLayer
370
18
48
1
60
0
100
AcDbEllipse
10
56.553398
20
-26.95
30
0
11
-0.201490790302156
21
2.46746902040712E-17
31
0
210
0
220
0
230
1
40
0.992601
41
-2.09761674342106
42
-1.5707963267949
0
ELLIPSE
5
176
100
AcDbEntity
8
1
62
256
6
ByLayer
370
18
48
1
60
0
100
AcDbEllipse
10
57.136306
20
-24.158691
30
0
11
0.25184192196283
21
0.0177818623353406
31
0
210
0
220
0
230
-1
40
0.06924
41
-1.56101782182201
42
-0.774400198844609
0
ELLIPSE
5
177
100
AcDbEntity
8
1
62
256
6
ByLayer
370
18
48
1
60
0
100
AcDbEllipse
10
59.506337
20
-24.026697
30
0
11
0.23999704538239
21
0.0169489930221342
31
0
210
0
220
0
230
-1
40
0.070266
41
-1.7399503762442
42
-1.44395567170327
0
ELLIPSE
5
178
100
AcDbEntity
8
1
62
256
6
ByLayer
370
18
48
1
60
0
100
AcDbEllipse
10
56.79757
20
-24.365831
30
0
11
0.058624730201206
21
-0.191752852286547
31
0
210
-1.59644179966719E-15
220
4.38574520942052E-19
230
1
40
0.997435
41
2.91526219766618
42
-2.91526219766616
0
ELLIPSE
5
179
100
AcDbEntity
8
1
62
256
6
ByLayer
370
18
48
1
60
0
100
AcDbEllipse
10
56.809275
20
-26.634987
30
0
11
0.00297293931671267
21
0.200467814146891
31
0
210
-1.59612295829283E-15
220
-1.26268957575375E-19
230
1
40
0.997557
41
2.63386280411413
42
3.08674247812914
0
POINT
5
6C
100
AcDbEntity
8
80
62
256
6
ByLayer
370
18
48
1
60
0
100
AcDbPoint
10
0
20
0
30
0
39
0
210
0
220
0
230
1
50
360
0
POINT
5
6E
100
AcDbEntity
8
81
62
256
6
ByLayer
370
18
48
1
60
0
100
AcDbPoint
10
60
20
-27
30
0
39
0
210
0
220
0
230
1
50
360
0
SPLINE
5
17A
100
AcDbEntity
8
SK1
62
256
6
ByLayer
370
13
48
1
60
0
100
AcDbSpline
70
4
71
2
72
6
73
3
40
0
40
0
40
0
40
1
40
1
40
1
41
1
10
-22.5
20
-13.4936171029659
30
0
41
1
10
-11.9999999937702
20
-13.7572106057466
30
0
41
1
10
-1.5
20
-14.0208013164368
30
0
0
SPLINE
5
17B
100
AcDbEntity
8
SK1
62
256
6
ByLayer
370
13
48
1
60
0
100
AcDbSpline
70
4
71
2
72
6
73
3
40
0
40
0
40
0
40
1
40
1
40
1
41
1
10
-1.49999999999997
20
14.0208011084547
30
0
41
1
10
-11.9999999937704
20
13.757210398744
30
0
41
1
10
-22.5
20
13.4936168969067
30
0
0
SPLINE
5
17C
100
AcDbEntity
8
SK1
62
256
6
ByLayer
370
13
48
1
60
0
100
AcDbSpline
70
4
71
2
72
6
73
3
40
0
40
0
40
0
40
1
40
1
40
1
41
1
10
-23.9999999999999
20
-12.6317666961722
30
0
41
1
10
-23.2499989213512
20
-13.0645642295314
30
0
41
1
10
-22.5
20
-13.4973544658104
30
0
0
SPLINE
5
17D
100
AcDbEntity
8
SK1
62
256
6
ByLayer
370
13
48
1
60
0
100
AcDbSpline
70
4
71
2
72
6
73
3
40
0
40
0
40
0
40
1
40
1
40
1
41
1
10
-22.5
20
13.4973543128463
30
0
41
1
10
-23.2499989214096
20
13.0645640769691
30
0
41
1
10
-23.9999999999999
20
12.6317665440291
30
0
0
SPLINE
5
17E
100
AcDbEntity
8
SK1
62
256
6
ByLayer
370
13
48
1
60
0
100
AcDbSpline
70
4
71
3
72
13
73
9
40
0
40
0
40
0
40
0
40
0.239503433743688
40
0.368423147407379
40
0.500068568291174
40
0.631702599546681
40
0.760590896708256
40
1
40
1
40
1
40
1
41
1
10
-1.29503997793927
20
13.8302939701715
30
0
41
1
10
-1.32110931868488
20
13.8298918808819
30
0
41
1
10
-1.35883875168662
20
13.8360616243459
30
0
41
1
10
-1.40627575244344
20
13.8590955459825
30
0
41
1
10
-1.43886250823775
20
13.8842521059516
30
0
41
1
10
-1.46563495916615
20
13.9155205133761
30
0
41
1
10
-1.49103211526616
20
13.9617198002386
30
0
41
1
10
-1.49909125765834
20
13.9990778949978
30
0
41
1
10
-1.49999999999997
20
14.0251256210924
30
0
0
SPLINE
5
17F
100
AcDbEntity
8
SK1
62
256
6
ByLayer
370
13
48
1
60
0
100
AcDbSpline
70
4
71
3
72
13
73
9
40
0
40
0
40
0
40
0
40
0.239409102954441
40
0.368297400007618
40
0.499931431229603
40
0.631576852162313
40
0.760496565943135
40
1
40
1
40
1
40
1
41
1
10
-1.5
20
-14.0251257319826
30
0
41
1
10
-1.49909125765302
20
-13.9990780059591
30
0
41
1
10
-1.49103211526082
20
-13.9617199113056
30
0
41
1
10
-1.46563495915862
20
-13.9155206245876
30
0
41
1
10
-1.43886250822769
20
-13.8842522172587
30
0
41
1
10
-1.40627575243266
20
-13.859095657368
30
0
41
1
10
-1.35883875167471
20
-13.8360617358029
30
0
41
1
10
-1.32110931867842
20
-13.829891992355
30
0
41
1
10
-1.29503997793927
20
-13.8302940816453
30
0
0
SPLINE
5
180
100
AcDbEntity
8
SK1
62
256
6
ByLayer
370
13
48
1
60
0
100
AcDbSpline
70
4
71
2
72
6
73
3
40
0
40
0
40
0
40
1
40
1
40
1
41
1
10
-0.194976888875232
20
13.7071940401201
30
0
41
1
10
-0.745008433404507
20
13.6935133023982
30
0
41
1
10
-1.29503997793924
20
13.6798325485488
30
0
0
SPLINE
5
181
100
AcDbEntity
8
SK1
62
256
6
ByLayer
370
13
48
1
60
0
100
AcDbSpline
70
4
71
2
72
6
73
3
40
0
40
0
40
0
40
1
40
1
40
1
41
1
10
-1.29503997793924
20
-13.6798328570319
30
0
41
1
10
-0.745008433404507
20
-13.6935136106344
30
0
41
1
10
-0.19497688887526
20
-13.7071943481093
30
0
0
SPLINE
5
182
100
AcDbEntity
8
SK1
62
256
6
ByLayer
370
13
48
1
60
0
100
AcDbSpline
70
4
71
2
72
6
73
3
40
0
40
0
40
0
40
1
40
1
40
1
41
1
10
-0.19497688887526
20
-13.8101782617655
30
0
41
1
10
-0.12013928304745
20
-13.855188244108
30
0
41
1
10
-0.0625565596670299
20
-13.9146491544819
30
0
0
SPLINE
5
183
100
AcDbEntity
8
SK1
62
256
6
ByLayer
370
13
48
1
60
0
100
AcDbSpline
70
4
71
2
72
6
73
3
40
0
40
0
40
0
40
1
40
1
40
1
41
1
10
-0.0625342436547385
20
13.9146715009651
30
0
41
1
10
-0.120123408897257
20
13.8551971845182
30
0
41
1
10
-0.19497688887526
20
13.8101828913628
30
0
0
SPLINE
5
184
100
AcDbEntity
8
SK1
62
256
6
ByLayer
370
13
48
1
60
0
100
AcDbSpline
70
4
71
3
72
12
73
8
40
0
40
0
40
0
40
0
40
0.012720333093916
40
0.012720333093916
40
0.214135679385806
40
0.214135679385806
40
1
40
1
40
1
40
1
41
1
10
-0.0602985645292051
20
-13.9145218345508
30
0
41
1
10
-0.0593964688641222
20
-13.9153952655453
30
0
41
1
10
-0.058525612605024
20
-13.9162544311284
30
0
41
1
10
-0.0444522050676142
20
-13.9303614107991
30
0
41
1
10
-0.0368502956181089
20
-13.9409878066088
30
0
41
1
10
-0.0066660044781202
20
-13.9874572658669
30
0
41
1
10
-0.0026467346096695
20
-14.0109326065333
30
0
41
1
10
-0.0008056134833794
20
-14.0306701435937
30
0
0
SPLINE
5
185
100
AcDbEntity
8
SK1
62
256
6
ByLayer
370
13
48
1
60
0
100
AcDbSpline
70
4
71
3
72
24
73
20
40
0
40
0
40
0
40
0
40
0.149902947479357
40
0.149902947479357
40
0.186299155545209
40
0.186299155545209
40
0.216969792232477
40
0.216969792232477
40
0.238433941599
40
0.238433941599
40
0.259993458473987
40
0.259993458473987
40
0.286592900540769
40
0.286592900540769
40
0.331875395552213
40
0.331875395552213
40
0.468295706211135
40
0.468295706211135
40
1
40
1
40
1
40
1
41
1
10
-0.19497688887526
20
4.730917794373
30
0
41
1
10
-0.181128639318672
20
4.70485294421499
30
0
41
1
10
-0.16555498597927
20
4.67911324054299
30
0
41
1
10
-0.139453347875815
20
4.65553412275415
30
0
41
1
10
-0.133886398748302
20
4.65132394610131
30
0
41
1
10
-0.122723847834322
20
4.64544541083976
30
0
41
1
10
-0.117159205014815
20
4.64344689792534
30
0
41
1
10
-0.107249640667163
20
4.64239014803749
30
0
41
1
10
-0.10295030737862
20
4.64265340392652
30
0
41
1
10
-0.0945615278815524
20
4.64485826345845
30
0
41
1
10
-0.090376736564906
20
4.64684052419469
30
0
41
1
10
-0.0818344550554571
20
4.65265022074234
30
0
41
1
10
-0.0775208680996116
20
4.65684844226126
30
0
41
1
10
-0.0672962948694931
20
4.66919372450627
30
0
41
1
10
-0.0620832687965844
20
4.67822452773999
30
0
41
1
10
-0.0444091532070274
20
4.71486493319256
30
0
41
1
10
-0.0368050460396603
20
4.74476717390465
30
0
41
1
10
-0.0066400789125396
20
4.88740421441824
30
0
41
1
10
-0.0026194263266177
20
5.00103667819735
30
0
41
1
10
-0.0007958230308702
20
5.11194031590927
30
0
0
SPLINE
5
186
100
AcDbEntity
8
SK1
62
256
6
ByLayer
370
13
48
1
60
0
100
AcDbSpline
70
4
71
3
72
26
73
22
40
0
40
0
40
0
40
0
40
0.0030618374287483
40
0.0030618374287483
40
0.278228155397169
40
0.278228155397169
40
0.416208740322981
40
0.416208740322981
40
0.470531175333477
40
0.470531175333477
40
0.525818474938583
40
0.525818474938583
40
0.564225314473185
40
0.564225314473185
40
0.602508119243335
40
0.602508119243335
40
0.661187136900667
40
0.661187136900667
40
0.773666005626391
40
0.773666005626391
40
1
40
1
40
1
40
1
41
1
10
-0.0221432172669722
20
13.9648695564012
30
0
41
1
10
-0.0221987745295849
20
13.9647667397209
30
0
41
1
10
-0.0222544696115961
20
13.9646638211855
30
0
41
1
10
-0.0273529447491114
20
13.9552563801813
30
0
41
1
10
-0.0336340177946965
20
13.9449990153134
30
0
41
1
10
-0.0486543039072842
20
13.9265181986993
30
0
41
1
10
-0.0546590793255177
20
13.9197432543169
30
0
41
1
10
-0.0662151571644358
20
13.9089569124684
30
0
41
1
10
-0.0699040228827528
20
13.9057108150204
30
0
41
1
10
-0.0783744152138013
20
13.8988832775962
30
0
41
1
10
-0.0833138176527939
20
13.8951957613211
30
0
41
1
10
-0.0924761808931294
20
13.8890712921332
30
0
41
1
10
-0.0965506606431745
20
13.8865414290508
30
0
41
1
10
-0.104642622438064
20
13.881906202505
30
0
41
1
10
-0.108747508353758
20
13.8797469100553
30
0
41
1
10
-0.118606717837366
20
13.8749467969174
30
0
41
1
10
-0.124260780250665
20
13.8725549463967
30
0
41
1
10
-0.139312709767665
20
13.8668249226595
30
0
41
1
10
-0.147870724773639
20
13.8643852431076
30
0
41
1
10
-0.171058905452725
20
13.8588876379668
30
0
41
1
10
-0.183642464411946
20
13.8575503148104
30
0
41
1
10
-0.19497688887526
20
13.8569757097873
30
0
0
SPLINE
5
187
100
AcDbEntity
8
SK1
62
256
6
ByLayer
370
13
48
1
60
0
100
AcDbSpline
70
4
71
3
72
18
73
14
40
0
40
0
40
0
40
0
40
0.0450404095727355
40
0.116876180366029
40
0.188711951159322
40
0.260547721952615
40
0.404219263539202
40
0.547890805125788
40
0.691562346712375
40
0.835233888298962
40
0.907069659092255
40
0.978905429885548
40
1
40
1
40
1
40
1
41
1
10
-0.19497688887526
20
13.8569757097873
30
0
41
1
10
-0.19497688887526
20
13.8536747842007
30
0
41
1
10
-0.19497688887526
20
13.8227683771156
30
0
41
1
10
-0.194976888875232
20
13.6872372258342
30
0
41
1
10
-0.19497688887526
20
13.4249208368688
30
0
41
1
10
-0.19497688887526
20
12.9441507808103
30
0
41
1
10
-0.19497688887526
20
12.1164723003589
30
0
41
1
10
-0.19497688887526
20
10.7996941469075
30
0
41
1
10
-0.194976888875232
20
9.18432423990018
30
0
41
1
10
-0.19497688887526
20
7.60327005928423
30
0
41
1
10
-0.194976888875288
20
6.20093257911884
30
0
41
1
10
-0.19497688887526
20
5.34600773233791
30
0
41
1
10
-0.19497688887526
20
4.8454712205988
30
0
41
1
10
-0.19497688887526
20
4.7309177943601
30
0
0
SPLINE
5
188
100
AcDbEntity
8
SK1
62
256
6
ByLayer
370
13
48
1
60
0
100
AcDbSpline
70
4
71
3
72
18
73
14
40
0
40
0
40
0
40
0
40
0.0095919733918041
40
0.0846426356133562
40
0.159693297834908
40
0.23474396005646
40
0.384845284499565
40
0.534946608942669
40
0.685047933385773
40
0.835149257828877
40
0.910199920050429
40
0.985250582271981
40
1
40
1
40
1
40
1
41
1
10
-1.29503997793924
20
-3.72039904787675
30
0
41
1
10
-1.29503997793924
20
-3.77241114920633
30
0
41
1
10
-1.29503997793924
20
-4.22989754380635
30
0
41
1
10
-1.29503997793924
20
-5.06796043045176
30
0
41
1
10
-1.29503997793924
20
-6.18418927877326
30
0
41
1
10
-1.29503997793924
20
-7.5844483741455
30
0
41
1
10
-1.29503997793924
20
-9.16312231847044
30
0
41
1
10
-1.29503997793927
20
-10.7763306191778
30
0
41
1
10
-1.29503997793924
20
-12.0913768621482
30
0
41
1
10
-1.29503997793927
20
-12.9178759353221
30
0
41
1
10
-1.29503997793924
20
-13.3979947415187
30
0
41
1
10
-1.29503997793924
20
-13.5897580461523
30
0
41
1
10
-1.29503997793924
20
-13.6685920576973
30
0
41
1
10
-1.29503997793921
20
-13.6808330478991
30
0
0
SPLINE
5
189
100
AcDbEntity
8
SK1
62
256
6
ByLayer
370
13
48
1
60
0
100
AcDbSpline
70
4
71
3
72
9
73
5
40
0
40
0
40
0
40
0
40
0.51933187664087
40
1
40
1
40
1
40
1
41
1
10
-1.29503997793924
20
-13.6808326862447
30
0
41
1
10
-1.29503997793924
20
-13.7308786999063
30
0
41
1
10
-1.29503997793924
20
-13.8044806886961
30
0
41
1
10
-1.29503997793927
20
-13.830206287862
30
0
41
1
10
-1.29503997793927
20
-13.8302936862448
30
0
0
SPLINE
5
18A
100
AcDbEntity
8
SK1
62
256
6
ByLayer
370
13
48
1
60
0
100
AcDbSpline
70
4
71
3
72
26
73
22
40
0
40
0
40
0
40
0
40
0.455772887626473
40
0.455772887626473
40
0.606056662529129
40
0.606056662529129
40
0.681417972285914
40
0.681417972285914
40
0.711020241595653
40
0.711020241595653
40
0.74114695356765
40
0.74114695356765
40
0.762126917909165
40
0.762126917909165
40
0.783038171074374
40
0.783038171074374
40
0.815137685908782
40
0.815137685908782
40
0.876717535013234
40
0.876717535013234
40
1
40
1
40
1
40
1
41
1
10
-0.00062210052144
20
-5.1070182736253
30
0
41
1
10
-0.0021374688203935
20
-5.01231723385038
30
0
41
1
10
-0.0070926985841595
20
-4.91622083167809
30
0
41
1
10
-0.0273692006632587
20
-4.7874107733544
30
0
41
1
10
-0.0336555723151264
20
-4.75502934026736
30
0
41
1
10
-0.0486945340234968
20
-4.70761501775644
30
0
41
1
10
-0.0547078517412558
20
-4.69172787892896
30
0
41
1
10
-0.0662767852369086
20
-4.67145788372
30
0
41
1
10
-0.069963525637661
20
-4.66589172921806
30
0
41
1
10
-0.0784259962192095
20
-4.65584477065147
30
0
41
1
10
-0.083359071631719
20
-4.65126946065388
30
0
41
1
10
-0.0925141923161164
20
-4.64577580632616
30
0
41
1
10
-0.0965905676794137
20
-4.64414189642679
30
0
41
1
10
-0.104684456721287
20
-4.64248855073888
30
0
41
1
10
-0.108789384283369
20
-4.64243416838272
30
0
41
1
10
-0.118656856542344
20
-4.64385112926169
30
0
41
1
10
-0.124317740339421
20
-4.64611203095956
30
0
41
1
10
-0.139394947865611
20
-4.65464906509149
30
0
41
1
10
-0.147967471093438
20
-4.66273672062394
30
0
41
1
10
-0.171116437536171
20
-4.68895436394956
30
0
41
1
10
-0.183668733047483
20
-4.70963290725945
30
0
41
1
10
-0.19497688887526
20
-4.73091688957623
30
0
0
SPLINE
5
18B
100
AcDbEntity
8
SK1
62
256
6
ByLayer
370
13
48
1
60
0
100
AcDbSpline
70
4
71
3
72
19
73
15
40
0
40
0
40
0
40
0
40
0.0657328530074261
40
0.131624785512218
40
0.19751671801701
40
0.263408650521802
40
0.395192515531385
40
0.526976380540969
40
0.658760245550552
40
0.790544110560136
40
0.856436043064928
40
0.92232797556972
40
0.988219908074511
40
1
40
1
40
1
40
1
41
1
10
-1.5
20
14.0207885516947
30
0
41
1
10
-1.49999999999997
20
14.0323059939018
30
0
41
1
10
-1.49999999999997
20
14.0089215999959
30
0
41
1
10
-1.49999999999994
20
13.8526757395093
30
0
41
1
10
-1.49999999999997
20
13.5878913365204
30
0
41
1
10
-1.49999999999994
20
13.1031838925468
30
0
41
1
10
-1.49999999999994
20
12.2683613692996
30
0
41
1
10
-1.49999999999997
20
10.9411047485551
30
0
41
1
10
-1.49999999999994
20
9.31264880772019
30
0
41
1
10
-1.49999999999997
20
7.71718805595961
30
0
41
1
10
-1.49999999999997
20
6.3022710896997
30
0
41
1
10
-1.49999999999997
20
5.17209546861974
30
0
41
1
10
-1.49999999999997
20
4.30166905260069
30
0
41
1
10
-1.49999999999997
20
3.81517906515157
30
0
41
1
10
-1.49999999999997
20
3.74104084360107
30
0
0
SPLINE
5
18C
100
AcDbEntity
8
SK1
62
256
6
ByLayer
370
13
48
1
60
0
100
AcDbSpline
70
4
71
3
72
19
73
15
40
0
40
0
40
0
40
0
40
0.0117801951395947
40
0.0776720574176936
40
0.143563919695792
40
0.209455781973891
40
0.341239506530089
40
0.473023231086287
40
0.604806955642485
40
0.736590680198682
40
0.802482542476781
40
0.86837440475488
40
0.934266267032979
40
1
40
1
40
1
40
1
41
1
10
-1.49999999999997
20
-3.74103849234587
30
0
41
1
10
-1.49999999999997
20
-3.81517744639797
30
0
41
1
10
-1.49999999999997
20
-4.30166817802069
30
0
41
1
10
-1.49999999999997
20
-5.17209555078492
30
0
41
1
10
-1.49999999999997
20
-6.30227096604654
30
0
41
1
10
-1.49999999999997
20
-7.71718790760852
30
0
41
1
10
-1.49999999999997
20
-9.31264866297749
30
0
41
1
10
-1.5
20
-10.9411050943729
30
0
41
1
10
-1.49999999999997
20
-12.2683610406491
30
0
41
1
10
-1.49999999999997
20
-13.1031845097078
30
0
41
1
10
-1.49999999999997
20
-13.5878912371465
30
0
41
1
10
-1.49999999999997
20
-13.8526759849257
30
0
41
1
10
-1.49999999999997
20
-14.0089228501516
30
0
41
1
10
-1.5
20
-14.032306410967
30
0
41
1
10
-1.5
20
-14.0207881247437
30
0
0
SPLINE
5
18D
100
AcDbEntity
8
SK1
62
256
6
ByLayer
370
13
48
1
60
0
100
AcDbSpline
70
4
71
3
72
37
73
33
40
0
40
0
40
0
40
0
40
0.0163670391783269
40
0.0448160442686608
40
0.0732650493589948
40
0.101714054449329
40
0.158612064629996
40
0.215510074810664
40
0.272408084991332
40
0.329306095172
40
0.357755100262334
40
0.386204105352668
40
0.414653110443002
40
0.443102115533335
40
0.471551120623669
40
0.485775623168836
40
0.500000125714003
40
0.51422462825917
40
0.528449130804337
40
0.556898135894671
40
0.585347140985005
40
0.613796146075339
40
0.642245151165673
40
0.670694156256007
40
0.727592166436675
40
0.784490176617342
40
0.84138818679801
40
0.898286196978678
40
0.926735202069012
40
0.955184207159346
40
0.983633212249679
40
1
40
1
40
1
40
1
41
1
10
-22.5
20
13.4958460156845
30
0
41
1
10
-22.5
20
13.4916054346621
30
0
41
1
10
-22.5
20
13.460792386246
30
0
41
1
10
-22.5
20
13.3308793310681
30
0
41
1
10
-22.5
20
13.0738790940806
30
0
41
1
10
-22.5
20
12.6015902509941
30
0
41
1
10
-22.4999999999999
20
11.7893001827952
30
0
41
1
10
-22.5
20
10.4950928592068
30
0
41
1
10
-22.5
20
8.90791053296306
30
0
41
1
10
-22.5
20
7.35788839712234
30
0
41
1
10
-22.5
20
5.98264738368812
30
0
41
1
10
-22.4999999999999
20
4.89022224945151
30
0
41
1
10
-22.5
20
3.73751327283387
30
0
41
1
10
-22.4999999999999
20
2.52988151772905
30
0
41
1
10
-22.5
20
1.48826017841211
30
0
41
1
10
-22.5
20
0.637225663005552
30
0
41
1
10
-22.5
20
1.013000883E-07
30
0
41
1
10
-22.4999999999999
20
-0.637225639727546
30
0
41
1
10
-22.5
20
-1.48826022368621
30
0
41
1
10
-22.5
20
-2.52988134516511
30
0
41
1
10
-22.5
20
-3.73751305004356
30
0
41
1
10
-22.4999999999999
20
-4.89022238185544
30
0
41
1
10
-22.5
20
-5.98264719956148
30
0
41
1
10
-22.4999999999999
20
-7.35788825135677
30
0
41
1
10
-22.5
20
-8.90791043028705
30
0
41
1
10
-22.5
20
-10.4950931885591
30
0
41
1
10
-22.5
20
-11.7892998835215
30
0
41
1
10
-22.5
20
-12.6015908597962
30
0
41
1
10
-22.5
20
-13.0738789920944
30
0
41
1
10
-22.4999999999999
20
-13.3308795934982
30
0
41
1
10
-22.5
20
-13.4607923950634
30
0
41
1
10
-22.5
20
-13.4916053179324
30
0
41
1
10
-22.5
20
-13.4958459844338
30
0
0
SPLINE
5
18E
100
AcDbEntity
8
SK1
62
256
6
ByLayer
370
13
48
1
60
0
100
AcDbSpline
70
4
71
3
72
37
73
33
40
0
40
0
40
0
40
0
40
0.0168497842887844
40
0.0452703260570386
40
0.0736908678252928
40
0.102111409593547
40
0.158952493130055
40
0.215793576666564
40
0.272634660203072
40
0.32947574373958
40
0.357896285507834
40
0.386316827276089
40
0.414737369044343
40
0.443157910812597
40
0.471578452580851
40
0.485788723464978
40
0.499998994349105
40
0.514209265233232
40
0.528419536117359
40
0.556840077885614
40
0.585260619653868
40
0.613681161422122
40
0.642101703190376
40
0.67052224495863
40
0.727363328495139
40
0.784204412031647
40
0.841045495568155
40
0.897886579104664
40
0.926307120872918
40
0.954727662641172
40
0.983148204409426
40
1
40
1
40
1
40
1
41
1
10
-23.9999999999999
20
12.6306002500526
30
0
41
1
10
-23.9999999999999
20
12.626856761266
30
0
41
1
10
-23.9999999999999
20
12.5980248028476
30
0
41
1
10
-23.9999999999999
20
12.4743689830171
30
0
41
1
10
-23.9999999999999
20
12.230146179188
30
0
41
1
10
-23.9999999999999
20
11.7782420302007
30
0
41
1
10
-23.9999999999999
20
11.0029381899705
30
0
41
1
10
-23.9999999999999
20
9.76298011868084
30
0
41
1
10
-23.9999999999999
20
8.24354697090368
30
0
41
1
10
-23.9999999999999
20
6.76811071589083
30
0
41
1
10
-23.9999999999999
20
5.45799637564639
30
0
41
1
10
-23.9999999999999
20
4.42753733029451
30
0
41
1
10
-23.9999999999999
20
3.35000222974918
30
0
41
1
10
-23.9999999999999
20
2.23771741989384
30
0
41
1
10
-23.9999999999999
20
1.30515932004803
30
0
41
1
10
-23.9999999999999
20
0.551100854739047
30
0
41
1
10
-23.9999999999999
20
2.454146113E-07
30
0
41
1
10
-23.9999999999999
20
-0.551100895559728
30
0
41
1
10
-23.9999999999999
20
-1.3051594341712
30
0
41
1
10
-23.9999999999999
20
-2.23771697460674
30
0
41
1
10
-23.9999999999999
20
-3.35000208235886
30
0
41
1
10
-23.9999999999999
20
-4.42753754516354
30
0
41
1
10
-23.9999999999999
20
-5.45799609225452
30
0
41
1
10
-23.9999999999999
20
-6.76811057436945
30
0
41
1
10
-23.9999999999999
20
-8.24354693727881
30
0
41
1
10
-23.9999999999999
20
-9.76298042100547
30
0
41
1
10
-23.9999999999999
20
-11.0029379389178
30
0
41
1
10
-23.9999999999999
20
-11.7782426252819
30
0
41
1
10
-23.9999999999999
20
-12.2301460729138
30
0
41
1
10
-23.9999999999999
20
-12.4743692733744
30
0
41
1
10
-23.9999999999999
20
-12.5980286199026
30
0
41
1
10
-24
20
-12.6268595449103
30
0
41
1
10
-24
20
-12.6306017496892
30
0
0
SPLINE
5
18F
100
AcDbEntity
8
1
62
256
6
ByLayer
370
13
48
1
60
0
100
AcDbSpline
70
4
71
3
72
8
73
4
40
0
40
0
40
0
40
0
40
1
40
1
40
1
40
1
41
1
10
22.9948149816536
20
-26.6749999999995
30
0
41
1
10
22.9946910826059
20
-26.6749999999995
30
0
41
1
10
23.0687277260489
20
-26.6749999999996
30
0
41
1
10
23.22105967115
20
-26.6749999999996
30
0
0
SPLINE
5
190
100
AcDbEntity
8
SK1
62
256
6
ByLayer
370
13
48
1
60
0
100
AcDbSpline
70
4
71
3
72
9
73
5
40
0
40
0
40
0
40
0
40
0.482295533506645
40
1
40
1
40
1
40
1
41
1
10
-1.29503997793927
20
13.8302937157819
30
0
41
1
10
-1.2950399779393
20
13.8303672174012
30
0
41
1
10
-1.29503997793927
20
13.8047114729478
30
0
41
1
10
-1.29503997793927
20
13.7308788347792
30
0
41
1
10
-1.2950399779393
20
13.6808333668966
30
0
0
SPLINE
5
191
100
AcDbEntity
8
SK1
62
256
6
ByLayer
370
13
48
1
60
0
100
AcDbSpline
70
4
71
3
72
18
73
14
40
0
40
0
40
0
40
0
40
0.0147492644780606
40
0.0897999484417548
40
0.164850632405449
40
0.314952000332838
40
0.465053368260226
40
0.615154736187615
40
0.765256104115003
40
0.840306788078698
40
0.915357472042392
40
0.990408156006086
40
1
40
1
40
1
40
1
41
1
10
-1.29503997793921
20
13.6808323668964
30
0
41
1
10
-1.29503997793924
20
13.6685915094305
30
0
41
1
10
-1.29503997793924
20
13.5897577054968
30
0
41
1
10
-1.29503997793927
20
13.3979948418576
30
0
41
1
10
-1.29503997793927
20
12.9178753212492
30
0
41
1
10
-1.29503997793924
20
12.0913771799458
30
0
41
1
10
-1.29503997793927
20
10.776330279443
30
0
41
1
10
-1.29503997793924
20
9.16312244767201
30
0
41
1
10
-1.29503997793924
20
7.58444852154136
30
0
41
1
10
-1.29503997793927
20
6.18418942476774
30
0
41
1
10
-1.29503997793924
20
5.06796032972639
30
0
41
1
10
-1.29503997793927
20
4.22989838674079
30
0
41
1
10
-1.29503997793927
20
3.77241274608161
30
0
41
1
10
-1.29503997793927
20
3.72040136699599
30
0
0
SPLINE
5
192
100
AcDbEntity
8
SK1
62
256
6
ByLayer
370
13
48
1
60
0
100
AcDbSpline
70
4
71
3
72
17
73
13
40
0
40
0
40
0
40
0
40
0.0221027139569842
40
0.0973714432969105
40
0.172640172636837
40
0.32317763131669
40
0.473715089996542
40
0.624252548676395
40
0.774790007356248
40
0.850058736696174
40
0.9253274660361
40
1
40
1
40
1
40
1
41
1
10
-0.19497688887526
20
-4.73091688957623
30
0
41
1
10
-0.19497688887526
20
-4.84547062718647
30
0
41
1
10
-0.19497688887526
20
-5.3460074976023
30
0
41
1
10
-0.19497688887526
20
-6.20093243629219
30
0
41
1
10
-0.19497688887526
20
-7.60326991175293
30
0
41
1
10
-0.19497688887526
20
-9.18432410849502
30
0
41
1
10
-0.194976888875288
20
-10.7996944875049
30
0
41
1
10
-0.19497688887526
20
-12.1164719810225
30
0
41
1
10
-0.19497688887526
20
-12.944151395321
30
0
41
1
10
-0.19497688887526
20
-13.4249207366667
30
0
41
1
10
-0.19497688887526
20
-13.6865448825721
30
0
41
1
10
-0.19497688887526
20
-13.7896027599689
30
0
41
1
10
-0.194976888875288
20
-13.8212248895475
30
0
0
SPLINE
5
193
100
AcDbEntity
8
SK1
62
256
6
ByLayer
370
13
48
1
60
0
100
AcDbSpline
70
4
71
3
72
12
73
8
40
0
40
0
40
0
40
0
40
0.5
40
0.5
40
0.75
40
0.75
40
1
40
1
40
1
40
1
41
1
10
-1.29503997793924
20
3.72040136697808
30
0
41
1
10
-1.22199541772699
20
4.06681496076186
30
0
41
1
10
-1.13721610602147
20
4.40140649757265
30
0
41
1
10
-0.894136394993239
20
4.86361722008454
30
0
41
1
10
-0.786658716765515
20
5.06086826310133
30
0
41
1
10
-0.390435375656864
20
5.08086576639033
30
0
41
1
10
-0.276930368305074
20
4.88516870907208
30
0
41
1
10
-0.194976888876312
20
4.73091779436129
30
0
0
SPLINE
5
194
100
AcDbEntity
8
SK1
62
256
6
ByLayer
370
13
48
1
60
0
100
AcDbSpline
70
4
71
3
72
24
73
20
40
0
40
0
40
0
40
0
40
0.0901614988591806
40
0.0901614988591806
40
0.181733106332518
40
0.181733106332518
40
0.214503724484232
40
0.214503724484232
40
0.24780673881022
40
0.24780673881022
40
0.277183737236165
40
0.277183737236165
40
0.31579231580702
40
0.31579231580702
40
0.38568032620674
40
0.38568032620674
40
0.612470727241754
40
0.612470727241754
40
1
40
1
40
1
40
1
41
1
10
-0.19497688887526
20
-4.73091688957623
30
0
41
1
10
-0.224294196666875
20
-4.78609733368683
30
0
41
1
10
-0.25684598235344
20
-4.84001817084299
30
0
41
1
10
-0.333661237776283
20
-4.94138447783672
30
0
41
1
10
-0.378650482073397
20
-4.99058361471549
30
0
41
1
10
-0.456090783661807
20
-5.03969320338214
30
0
41
1
10
-0.478643661901543
20
-5.05102586014945
30
0
41
1
10
-0.526953963628813
20
-5.06693427154829
30
0
41
1
10
-0.553477954712378
20
-5.07144010608235
30
0
41
1
10
-0.602851607658749
20
-5.07087702435211
30
0
41
1
10
-0.626321651452344
20
-5.0668779596667
30
0
41
1
10
-0.676891450438205
20
-5.05106404795424
30
0
41
1
10
-0.703710994176504
20
-5.0371626405518
30
0
41
1
10
-0.771332556850325
20
-4.99203579100424
30
0
41
1
10
-0.807956751921068
20
-4.95539214890414
30
0
41
1
10
-0.943771067614563
20
-4.79352739495096
30
0
41
1
10
-1.01135146346508
20
-4.6482036401961
30
0
41
1
10
-1.16985849982024
20
-4.25259336743031
30
0
41
1
10
-1.23839317197044
20
-3.98904637452009
30
0
41
1
10
-1.29503997793924
20
-3.72039904785879
30
0
0
SPLINE
5
195
100
AcDbEntity
8
SK1
62
256
6
ByLayer
370
13
48
1
60
0
100
AcDbSpline
70
4
71
3
72
8
73
4
40
0
40
0
40
0
40
0
40
1
40
1
40
1
40
1
41
1
10
-1.3154350650949
20
3.6258692732776
30
0
41
1
10
-1.30850489189839
20
3.65726626185167
30
0
41
1
10
-1.30170669836534
20
3.68878446662464
30
0
41
1
10
-1.29503997793921
20
3.72040136697774
30
0
0
SPLINE
5
196
100
AcDbEntity
8
SK1
62
256
6
ByLayer
370
13
48
1
60
0
100
AcDbSpline
70
4
71
3
72
28
73
24
40
0
40
0
40
0
40
0
40
0.37703444436108
40
0.37703444436108
40
0.471241277231858
40
0.471241277231858
40
0.490342212885714
40
0.490342212885714
40
0.509783225476931
40
0.509783225476931
40
0.519844552637954
40
0.519844552637954
40
0.529977226778517
40
0.529977226778517
40
0.541821348727231
40
0.541821348727231
40
0.561608872108549
40
0.561608872108549
40
0.621907896445847
40
0.621907896445847
40
0.896808121713672
40
0.896808121713672
40
1
40
1
40
1
40
1
41
1
10
-1.49999999999997
20
3.74104084360681
30
0
41
1
10
-1.49948391269606
20
3.63417013990122
30
0
41
1
10
-1.49801334499241
20
3.52538029256513
30
0
41
1
10
-1.47899240365126
20
3.38918061262726
30
0
41
1
10
-1.47445369516234
20
3.36127936627472
30
0
41
1
10
-1.46372014141696
20
3.32987528051694
30
0
41
1
10
-1.46166223189101
20
3.32459698992886
30
0
41
1
10
-1.45678851564165
20
3.31460755237455
30
0
41
1
10
-1.45388890946967
20
3.30975830347654
30
0
41
1
10
-1.44864641825052
20
3.3040513421559
30
0
41
1
10
-1.44665905392475
20
3.30237734709235
30
0
41
1
10
-1.44252686345209
20
3.30004911866362
30
0
41
1
10
-1.44033108267632
20
3.29938429897752
30
0
41
1
10
-1.43573980986432
20
3.2990864777222
30
0
41
1
10
-1.43330601221785
20
3.29961641656962
30
0
41
1
10
-1.42730008788573
20
3.3021587454756
30
0
41
1
10
-1.42390702769751
20
3.30489947938372
30
0
41
1
10
-1.41154657890982
20
3.31753145864474
30
0
41
1
10
-1.40444427735477
20
3.33065622406949
30
0
41
1
10
-1.36890632117962
20
3.404593134886
30
0
41
1
10
-1.35116259655311
20
3.47601320611784
30
0
41
1
10
-1.32746963298658
20
3.57256952640205
30
0
41
1
10
-1.32133005289856
20
3.59916216804837
30
0
41
1
10
-1.31543506509195
20
3.62586927327698
30
0
0
SPLINE
5
197
100
AcDbEntity
8
SK1
62
256
6
ByLayer
370
13
48
1
60
0
100
AcDbSpline
70
4
71
3
72
8
73
4
40
0
40
0
40
0
40
0
40
1
40
1
40
1
40
1
41
1
10
-1.2950399779393
20
-3.72039904785848
30
0
41
1
10
-1.30170669741992
20
-3.68878214845094
30
0
41
1
10
-1.30850489094848
20
-3.65726394513967
30
0
41
1
10
-1.3154350650949
20
-3.625866958676
30
0
0
SPLINE
5
198
100
AcDbEntity
8
SK1
62
256
6
ByLayer
370
13
48
1
60
0
100
AcDbSpline
70
4
71
3
72
10
73
6
40
0
40
0
40
0
40
0
40
0.5
40
0.5
40
1
40
1
40
1
40
1
41
1
10
-1.49999999999997
20
-3.74103849235164
30
0
41
1
10
-1.72822660488518
20
-2.57299403469318
30
0
41
1
10
-1.93450947320383
20
-1.30949470645609
30
0
41
1
10
-1.93607546443383
20
1.29428834739895
30
0
41
1
10
-1.72898991428966
20
2.56908970224484
30
0
41
1
10
-1.49999999999997
20
3.74104084360684
30
0
0
SPLINE
5
199
100
AcDbEntity
8
SK1
62
256
6
ByLayer
370
13
48
1
60
0
100
AcDbSpline
70
4
71
3
72
32
73
28
40
0
40
0
40
0
40
0
40
0.234209043903793
40
0.234209043903793
40
0.348206763259761
40
0.348206763259761
40
0.387972400413589
40
0.387972400413589
40
0.426398401700596
40
0.426398401700596
40
0.446201405560016
40
0.446201405560016
40
0.460607225948095
40
0.460607225948095
40
0.470823768377914
40
0.470823768377914
40
0.48110940991903
40
0.48110940991903
40
0.493204164542107
40
0.493204164542107
40
0.513632814858351
40
0.513632814858351
40
0.575937702185722
40
0.575937702185722
40
0.849388942629955
40
0.849388942629955
40
1
40
1
40
1
40
1
41
1
10
-1.3154350650949
20
-3.6258669586758
30
0
41
1
10
-1.32892168642002
20
-3.5647661467425
30
0
41
1
10
-1.34349959231662
20
-3.50405028802456
30
0
41
1
10
-1.36961730758037
20
-3.41684163113933
30
0
41
1
10
-1.3788499779462
20
-3.3886544681433
30
0
41
1
10
-1.39378799795966
20
-3.35290064218242
30
0
41
1
10
-1.39789768863875
20
-3.34384914889253
30
0
41
1
10
-1.40678360062634
20
-3.32697307753071
30
0
41
1
10
-1.41153323216869
20
-3.31901123641686
30
0
41
1
10
-1.41993003827378
20
-3.30877228637016
30
0
41
1
10
-1.42303023860245
20
-3.30558367021931
30
0
41
1
10
-1.42895868263372
20
-3.30140692198549
30
0
41
1
10
-1.43168019086241
20
-3.300037899074
30
0
41
1
10
-1.43660796064447
20
-3.29908976692252
30
0
41
1
10
-1.43877831496025
20
-3.2991191545137
30
0
41
1
10
-1.44306627714508
20
-3.30026702950508
30
0
41
1
10
-1.44523383162019
20
-3.30141564585168
30
0
41
1
10
-1.4495668376656
20
-3.30483928988477
30
0
41
1
10
-1.4517348694869
20
-3.30730216548554
30
0
41
1
10
-1.45688629366666
20
-3.31457428371098
30
0
41
1
10
-1.45955294606353
20
-3.31993077203117
30
0
41
1
10
-1.46877475888485
20
-3.34195438712018
30
0
41
1
10
-1.47296281845922
20
-3.36016321690116
30
0
41
1
10
-1.49173289900708
20
-3.45605620516821
30
0
41
1
10
-1.49494782483987
20
-3.53530191306484
30
0
41
1
10
-1.49909354148042
20
-3.6558094148711
30
0
41
1
10
-1.49979467204838
20
-3.69851944650478
30
0
41
1
10
-1.49999999999997
20
-3.74103849235172
30
0
0
SPLINE
5
19A
100
AcDbEntity
8
1
62
256
6
ByLayer
370
13
48
1
60
0
100
AcDbSpline
70
4
71
3
72
16
73
12
40
0
40
0
40
0
40
0
40
0.464304267159292
40
0.464304267159292
40
0.647533485141979
40
0.647533485141979
40
0.833383675860569
40
0.833383675860569
40
0.950238074309972
40
0.950238074309972
40
1
40
1
40
1
40
1
41
1
10
6.66339745962148
20
-6.1697300194858
30
0
41
1
10
6.68070356543032
20
-6.10699311212753
30
0
41
1
10
6.7044558320473
20
-6.04466199750306
30
0
41
1
10
6.753327065527
20
-5.96658891111889
30
0
41
1
10
6.76920288341015
20
-5.94525308185382
30
0
41
1
10
6.80605435144597
20
-5.90694983484838
30
0
41
1
10
6.82759190740032
20
-5.88959453036605
30
0
41
1
10
6.8671306515522
20
-5.86981268651925
30
0
41
1
10
6.88386474465545
20
-5.8641686994946
30
0
41
1
10
6.90829201976595
20
-5.86046107106327
30
0
41
1
10
6.9157596768884
20
-5.85988980456955
30
0
41
1
10
6.92320508075679
20
-5.85988980456955
30
0
0
SPLINE
5
19B
100
AcDbEntity
8
1
62
256
6
ByLayer
370
13
48
1
60
0
100
AcDbSpline
70
4
71
3
72
8
73
4
40
0
40
0
40
0
40
0
40
1
40
1
40
1
40
1
41
1
10
20.0802091056663
20
-16.8275568017388
30
0
41
1
10
20.0836915804869
20
-17.083882355738
30
0
41
1
10
20.1480692570133
20
-17.328041137457
30
0
41
1
10
20.2792076144254
20
-17.5467702565825
30
0
0
SPLINE
5
19C
100
AcDbEntity
8
1
62
256
6
ByLayer
370
13
48
1
60
0
100
AcDbSpline
70
4
71
3
72
16
73
12
40
0
40
0
40
0
40
0
40
0.11469125818834
40
0.11469125818834
40
0.256006982052469
40
0.256006982052469
40
0.478481509698412
40
0.478481509698412
40
0.904237458570218
40
0.904237458570218
40
1
40
1
40
1
40
1
41
1
10
9.07679491924321
20
19.1222825906925
30
0
41
1
10
9.09376079941597
20
19.1222825906925
30
0
41
1
10
9.110937467876
20
19.1213397893257
30
0
41
1
10
9.14653890153824
20
19.1175632573669
30
0
41
1
10
9.16492831263216
20
19.1143205262483
30
0
41
1
10
9.20694798227839
20
19.1044641374227
30
0
41
1
10
9.2285963506522
20
19.0968571256394
30
0
41
1
10
9.28185513895588
20
19.073267836184
30
0
41
1
10
9.30640600056216
20
19.0554522237108
30
0
41
1
10
9.32912053427449
20
19.0329978954363
30
0
41
1
10
9.33300496589212
20
19.0288038685173
30
0
41
1
10
9.33660254037855
20
19.0245744101321
30
0
0
SPLINE
5
19D
100
AcDbEntity
8
1
62
256
6
ByLayer
370
13
48
1
60
0
100
AcDbSpline
70
4
71
3
72
16
73
12
40
0
40
0
40
0
40
0
40
0.114691258188305
40
0.114691258188305
40
0.256006982052434
40
0.256006982052434
40
0.478481509698406
40
0.478481509698406
40
0.904237458570172
40
0.904237458570172
40
1
40
1
40
1
40
1
41
1
10
9.07679491924324
20
-5.85988980456955
30
0
41
1
10
9.09376079941597
20
-5.85988980456955
30
0
41
1
10
9.110937467876
20
-5.86296835504277
30
0
41
1
10
9.14653890153824
20
-5.87527238052328
30
0
41
1
10
9.16492831263218
20
-5.88582364044464
30
0
41
1
10
9.20694798227839
20
-5.91775860341636
30
0
41
1
10
9.22859635065223
20
-5.94228809980612
30
0
41
1
10
9.28185513895588
20
-6.01773563791662
30
0
41
1
10
9.30640600056219
20
-6.07398601286505
30
0
41
1
10
9.32912053427452
20
-6.14371014971246
30
0
41
1
10
9.33300496589214
20
-6.15668833929726
30
0
41
1
10
9.33660254037855
20
-6.16973001948585
30
0
0
SPLINE
5
19E
100
AcDbEntity
8
1
62
256
6
ByLayer
370
13
48
1
60
0
100
AcDbSpline
70
4
71
3
72
16
73
12
40
0
40
0
40
0
40
0
40
0.464304267159365
40
0.464304267159365
40
0.647533485142054
40
0.647533485142054
40
0.833383675860603
40
0.833383675860603
40
0.95023807430998
40
0.95023807430998
40
1
40
1
40
1
40
1
41
1
10
6.66339745962148
20
19.0245744101322
30
0
41
1
10
6.68070356543029
20
19.0449201888241
30
0
41
1
10
6.7044558320473
20
19.0647708693881
30
0
41
1
10
6.753327065527
20
19.0892734034402
30
0
41
1
10
6.76920288341017
20
19.0959253431034
30
0
41
1
10
6.80605435144597
20
19.107808584962
30
0
41
1
10
6.82759190740032
20
19.1131587398643
30
0
41
1
10
6.8671306515522
20
19.119240656951
30
0
41
1
10
6.88386474465545
20
19.1209710216544
30
0
41
1
10
6.90829201976592
20
19.1221075563676
30
0
41
1
10
6.91575967688837
20
19.1222825906925
30
0
41
1
10
6.92320508075676
20
19.1222825906925
30
0
0
SPLINE
5
19F
100
AcDbEntity
8
1
62
256
6
ByLayer
370
13
48
1
60
0
100
AcDbSpline
70
4
71
3
72
8
73
4
40
0
40
0
40
0
40
0
40
1
40
1
40
1
40
1
41
1
10
22.7235398333316
20
-24.6906428273334
30
0
41
1
10
22.8830692234211
20
-25.3437111270517
30
0
41
1
10
23.0491916833969
20
-26.0049922938069
30
0
41
1
10
23.22105967115
20
-26.6749999999996
30
0
0
SPLINE
5
1A0
100
AcDbEntity
8
1
62
256
6
ByLayer
370
13
48
1
60
0
100
AcDbSpline
70
4
71
3
72
20
73
16
40
0
40
0
40
0
40
0
40
0.0220405538088275
40
0.0220405538088275
40
0.177711887505457
40
0.177711887505457
40
0.339043280184448
40
0.339043280184448
40
0.501645291610739
40
0.501645291610739
40
0.663394862320526
40
0.663394862320526
40
0.831375695552475
40
0.831375695552475
40
1
40
1
40
1
40
1
41
1
10
34.9999999999999
20
-24.3249999999996
30
0
41
1
10
34.97409056961
20
-24.3249999999996
30
0
41
1
10
34.9481971832057
20
-24.3243703262376
30
0
41
1
10
34.7417352563614
20
-24.3143403532376
30
0
41
1
10
34.5612775824287
20
-24.2739553420042
30
0
41
1
10
34.225441673801
20
-24.137123830053
30
0
41
1
10
34.0668772614149
20
-24.0366292321335
30
0
41
1
10
33.8026594676475
20
-23.8010742714344
30
0
41
1
10
33.6941593070837
20
-23.6628002159148
30
0
41
1
10
33.5370166068149
20
-23.3914484093058
30
0
41
1
10
33.4857108829965
20
-23.2554358209578
30
0
41
1
10
33.4222812398246
20
-23.0188873398876
30
0
41
1
10
33.4100105271683
20
-22.9171013995065
30
0
41
1
10
33.3992613304031
20
-22.7763199677167
30
0
41
1
10
33.4000109538526
20
-22.7355115704397
30
0
41
1
10
33.4000010418517
20
-22.7268259037355
30
0
0
SPLINE
5
1A1
100
AcDbEntity
8
1
62
256
6
ByLayer
370
13
48
1
60
0
100
AcDbSpline
70
4
71
3
72
16
73
12
40
0
40
0
40
0
40
0
40
0.464304267159315
40
0.464304267159315
40
0.647533485142001
40
0.647533485142001
40
0.833383675860556
40
0.833383675860556
40
0.950238074309882
40
0.950238074309882
40
1
40
1
40
1
40
1
41
1
10
9.33660254037852
20
6.16973001948602
30
0
41
1
10
9.31929643456968
20
6.10699311212773
30
0
41
1
10
9.2955441679527
20
6.04466199750323
30
0
41
1
10
9.24667293447297
20
5.96658891111906
30
0
41
1
10
9.23079711658983
20
5.94525308185393
30
0
41
1
10
9.19394564855398
20
5.90694983484849
30
0
41
1
10
9.17240809259965
20
5.88959453036617
30
0
41
1
10
9.13286934844774
20
5.86981268651937
30
0
41
1
10
9.11613525534449
20
5.86416869949471
30
0
41
1
10
9.09170798023402
20
5.86046107106338
30
0
41
1
10
9.0842403231116
20
5.85988980456969
30
0
41
1
10
9.07679491924321
20
5.85988980456969
30
0
0
SPLINE
5
1A2
100
AcDbEntity
8
1
62
256
6
ByLayer
370
13
48
1
60
0
100
AcDbSpline
70
4
71
3
72
16
73
12
40
0
40
0
40
0
40
0
40
0.114691258187966
40
0.114691258187966
40
0.256006982052167
40
0.256006982052167
40
0.478481509698237
40
0.478481509698237
40
0.904237458570238
40
0.904237458570238
40
1
40
1
40
1
40
1
41
1
10
6.92320508075679
20
-19.1222825906924
30
0
41
1
10
6.90623920058403
20
-19.1222825906924
30
0
41
1
10
6.889062532124
20
-19.1213397893256
30
0
41
1
10
6.85346109846176
20
-19.1175632573668
30
0
41
1
10
6.83507168736782
20
-19.1143205262482
30
0
41
1
10
6.79305201772158
20
-19.1044641374226
30
0
41
1
10
6.77140364934777
20
-19.0968571256393
30
0
41
1
10
6.7181448610441
20
-19.073267836184
30
0
41
1
10
6.69359399943784
20
-19.0554522237108
30
0
41
1
10
6.6708794657255
20
-19.0329978954362
30
0
41
1
10
6.66699503410789
20
-19.0288038685173
30
0
41
1
10
6.66339745962145
20
-19.0245744101321
30
0
0
SPLINE
5
1A3
100
AcDbEntity
8
1
62
256
6
ByLayer
370
13
48
1
60
0
100
AcDbSpline
70
4
71
3
72
10
73
6
40
0
40
0
40
0
40
0
40
0.5
40
0.5
40
1
40
1
40
1
40
1
41
1
10
21.4383186059725
20
-19.3622610803758
30
0
41
1
10
21.3330897572653
20
-18.9010893713453
30
0
41
1
10
21.0705288998468
20
-18.5410848337927
30
0
41
1
10
20.6126305737681
20
-17.9792895618758
30
0
41
1
10
20.4116829008521
20
-17.7677292748131
30
0
41
1
10
20.2792076144247
20
-17.5467702565824
30
0
0
SPLINE
5
1A4
100
AcDbEntity
8
1
62
256
6
ByLayer
370
13
48
1
60
0
100
AcDbSpline
70
4
71
3
72
16
73
12
40
0
40
0
40
0
40
0
40
0.114691258187939
40
0.114691258187939
40
0.256006982052139
40
0.256006982052139
40
0.478481509698222
40
0.478481509698222
40
0.904237458570159
40
0.904237458570159
40
1
40
1
40
1
40
1
41
1
10
6.92320508075679
20
5.85988980456972
30
0
41
1
10
6.906239200584
20
5.85988980456972
30
0
41
1
10
6.889062532124
20
5.86296835504297
30
0
41
1
10
6.85346109846174
20
5.87527238052348
30
0
41
1
10
6.83507168736779
20
5.88582364044481
30
0
41
1
10
6.79305201772155
20
5.91775860341653
30
0
41
1
10
6.77140364934777
20
5.94228809980632
30
0
41
1
10
6.7181448610441
20
6.01773563791676
30
0
41
1
10
6.69359399943784
20
6.07398601286519
30
0
41
1
10
6.67087946572548
20
6.1437101497126
30
0
41
1
10
6.66699503410786
20
6.15668833929738
30
0
41
1
10
6.66339745962142
20
6.16973001948597
30
0
0
SPLINE
5
1A5
100
AcDbEntity
8
1
62
256
6
ByLayer
370
13
48
1
60
0
100
AcDbSpline
70
4
71
3
72
16
73
12
40
0
40
0
40
0
40
0
40
0.464304267159294
40
0.464304267159294
40
0.647533485142027
40
0.647533485142027
40
0.833383675860623
40
0.833383675860623
40
0.950238074309986
40
0.950238074309986
40
1
40
1
40
1
40
1
41
1
10
9.33660254037855
20
-19.0245744101321
30
0
41
1
10
9.31929643456968
20
-19.0449201888241
30
0
41
1
10
9.29554416795273
20
-19.0647708693881
30
0
41
1
10
9.246672934473
20
-19.0892734034402
30
0
41
1
10
9.23079711658983
20
-19.0959253431034
30
0
41
1
10
9.19394564855401
20
-19.107808584962
30
0
41
1
10
9.17240809259965
20
-19.1131587398643
30
0
41
1
10
9.13286934844774
20
-19.119240656951
30
0
41
1
10
9.11613525534446
20
-19.1209710216543
30
0
41
1
10
9.09170798023402
20
-19.1221075563676
30
0
41
1
10
9.0842403231116
20
-19.1222825906924
30
0
41
1
10
9.07679491924324
20
-19.1222825906924
30
0
0
SPLINE
5
1A6
100
AcDbEntity
8
1
62
256
6
ByLayer
370
13
48
1
60
0
100
AcDbSpline
70
4
71
3
72
8
73
4
40
0
40
0
40
0
40
0
40
1
40
1
40
1
40
1
41
1
10
22.7235398333316
20
-24.6906428273334
30
0
41
1
10
23.0521841557205
20
-25.3491274584424
30
0
41
1
10
23.3905680432955
20
-26.0097425817945
30
0
41
1
10
23.7333933339443
20
-26.6749999999995
30
0
0
SPLINE
5
1A7
100
AcDbEntity
8
1
62
256
6
ByLayer
370
13
48
1
60
0
100
AcDbSpline
70
4
71
3
72
8
73
4
40
0
40
0
40
0
40
0
40
1
40
1
40
1
40
1
41
1
10
21.4383186059722
20
-19.3622610803763
30
0
41
1
10
21.8400103232234
20
-21.1226990023439
30
0
41
1
10
22.2749419702516
20
-22.9025882065212
30
0
41
1
10
22.7235398333316
20
-24.6906428273334
30
0
0
SPLINE
5
1A8
100
AcDbEntity
8
1
62
256
6
ByLayer
370
13
48
1
60
0
100
AcDbSpline
70
4
71
3
72
10
73
6
40
0
40
0
40
0
40
0
40
0.499999999999999
40
0.499999999999999
40
1
40
1
40
1
40
1
41
1
10
30.5792866909756
20
-24.3249999999995
30
0
41
1
10
30.5792866909756
20
-23.7223432423712
30
0
41
1
10
31.1249642299158
20
-23.2710231677233
30
0
41
1
10
32.2129372155262
20
-22.8152221105674
30
0
41
1
10
32.81114976828
20
-22.739583488344
30
0
41
1
10
33.4000010418518
20
-22.7268259037355
30
0
0
SPLINE
5
1A9
100
AcDbEntity
8
1
62
256
6
ByLayer
370
13
48
1
60
0
100
AcDbSpline
70
4
71
3
72
10
73
6
40
0
40
0
40
0
40
0
40
0.664993946719532
40
0.664993946719532
40
1
40
1
40
1
40
1
41
1
10
57.031795236158
20
-26.1487363109571
30
0
41
1
10
57.0544008183665
20
-26.1279097292379
30
0
41
1
10
57.071972629713
20
-26.1020653977737
30
0
41
1
10
57.0836688596485
20
-26.0537893475429
30
0
41
1
10
57.0849134160383
20
-26.0356089155524
30
0
41
1
10
57.0838678419132
20
-26.0162732843469
30
0
0
SPLINE
5
1AA
100
AcDbEntity
8
1
62
256
6
ByLayer
370
13
48
1
60
0
100
AcDbSpline
70
4
71
3
72
12
73
8
40
0
40
0
40
0
40
0
40
0.274450233641753
40
0.274450233641753
40
0.728710906931613
40
0.728710906931613
40
1
40
1
40
1
40
1
41
1
10
58.1146869282979
20
-26.3193842198351
30
0
41
1
10
58.0122143236957
20
-26.2889049344261
30
0
41
1
10
57.909497462749
20
-26.2585576137444
30
0
41
1
10
57.6439453836002
20
-26.1804224140219
30
0
41
1
10
57.4820473482734
20
-26.1331292282363
30
0
41
1
10
57.246079380226
20
-26.0640519317748
30
0
41
1
10
57.1617198878049
20
-26.0394840952044
30
0
41
1
10
57.0838678419132
20
-26.0162732843469
30
0
0
SPLINE
5
1AB
100
AcDbEntity
8
1
62
256
6
ByLayer
370
13
48
1
60
0
100
AcDbSpline
70
4
71
3
72
16
73
12
40
0
40
0
40
0
40
0
40
0.0442199247554627
40
0.0442199247554627
40
0.048439955548864
40
0.048439955548864
40
0.216895358525141
40
0.216895358525141
40
0.889245809546153
40
0.889245809546153
40
1
40
1
40
1
40
1
41
1
10
58.8219297662852
20
-26.3912955122488
30
0
41
1
10
58.8113300785451
20
-26.391665245278
30
0
41
1
10
58.8007291289449
20
-26.3919965677045
30
0
41
1
10
58.7891179461187
20
-26.3924033575065
30
0
41
1
10
58.7881063966876
20
-26.3924389247096
30
0
41
1
10
58.7467182945273
20
-26.3938990834113
30
0
41
1
10
58.7063476610928
20
-26.3957952769958
30
0
41
1
10
58.5067119730518
20
-26.4025387130351
30
0
41
1
10
58.3453726295508
20
-26.3815925254051
30
0
41
1
10
58.1656324617667
20
-26.3341118723989
30
0
41
1
10
58.1400997197492
20
-26.3269429593314
30
0
41
1
10
58.1146869282979
20
-26.3193842198352
30
0
0
SPLINE
5
1AC
100
AcDbEntity
8
1
62
256
6
ByLayer
370
13
48
1
60
0
100
AcDbSpline
70
4
71
3
72
12
73
8
40
0
40
0
40
0
40
0
40
0.609383607480292
40
0.609383607480292
40
0.614539779329414
40
0.614539779329414
40
1
40
1
40
1
40
1
41
1
10
59.3656057053218
20
-26.3702937355132
30
0
41
1
10
59.2600213620049
20
-26.3746467476632
30
0
41
1
10
59.1496097970342
20
-26.3789762006415
30
0
41
1
10
59.0373081383666
20
-26.383247712772
30
0
41
1
10
59.0363601843113
20
-26.3832837679088
30
0
41
1
10
58.9647049543389
20
-26.386009066924
30
0
41
1
10
58.8932165299022
20
-26.3888089228606
30
0
41
1
10
58.8219297662852
20
-26.3912955122488
30
0
0
SPLINE
5
1AD
100
AcDbEntity
8
1
62
256
6
ByLayer
370
13
48
1
60
0
100
AcDbSpline
70
4
71
3
72
12
73
8
40
0
40
0
40
0
40
0
40
0.178891096392299
40
0.178891096392299
40
0.986291642516443
40
0.986291642516443
40
1
40
1
40
1
40
1
41
1
10
59.7213895076228
20
-26.3536987770376
30
0
41
1
10
59.7003115269679
20
-26.3545351180848
30
0
41
1
10
59.6792221384665
20
-26.3553781384347
30
0
41
1
10
59.5629014296376
20
-26.3600668305062
30
0
41
1
10
59.4679540502601
20
-26.3657104928001
30
0
41
1
10
59.3689156735317
20
-26.3701542689344
30
0
41
1
10
59.3672607449414
20
-26.37022550184
30
0
41
1
10
59.3656057053218
20
-26.3702937355132
30
0
0
SPLINE
5
1AE
100
AcDbEntity
8
1
62
256
6
ByLayer
370
13
48
1
60
0
100
AcDbSpline
70
4
71
3
72
8
73
4
40
0
40
0
40
0
40
0
40
1
40
1
40
1
40
1
41
1
10
59.5900286630425
20
-26.4350239663355
30
0
41
1
10
59.634090020669
20
-26.4083609984287
30
0
41
1
10
59.6778395366007
20
-26.3811841798811
30
0
41
1
10
59.7213895076228
20
-26.3536987770376
30
0
0
SPLINE
5
1AF
100
AcDbEntity
8
1
62
256
6
ByLayer
370
13
48
1
60
0
100
AcDbSpline
70
4
71
3
72
8
73
4
40
0
40
0
40
0
40
0
40
1
40
1
40
1
40
1
41
1
10
59.1158957172693
20
-26.5135442121619
30
0
41
1
10
59.2755545267195
20
-26.513027799944
30
0
41
1
10
59.4354150796997
20
-26.4788350507719
30
0
41
1
10
59.5900286630425
20
-26.4350239663355
30
0
0
SPLINE
5
1B0
100
AcDbEntity
8
1
62
256
6
ByLayer
370
13
48
1
60
0
100
AcDbSpline
70
4
71
3
72
8
73
4
40
0
40
0
40
0
40
0
40
1
40
1
40
1
40
1
41
1
10
58.7528986418119
20
-26.5131405318691
30
0
41
1
10
58.8744062234275
20
-26.5090903763062
30
0
41
1
10
58.9966210532666
20
-26.5139300029259
30
0
41
1
10
59.1158957172706
20
-26.5135442121638
30
0
0
SPLINE
5
1B1
100
AcDbEntity
8
1
62
256
6
ByLayer
370
13
48
1
60
0
100
AcDbSpline
70
4
71
3
72
8
73
4
40
0
40
0
40
0
40
0
40
1
40
1
40
1
40
1
41
1
10
58.4823771357602
20
-26.4966632769218
30
0
41
1
10
58.5716495580756
20
-26.5103648582544
30
0
41
1
10
58.6625883571386
20
-26.5161508024796
30
0
41
1
10
58.7528986418104
20
-26.5131405318695
30
0
0
SPLINE
5
1B2
100
AcDbEntity
8
1
62
256
6
ByLayer
370
13
48
1
60
0
100
AcDbSpline
70
4
71
3
72
14
73
10
40
0
40
0
40
0
40
0
40
0.102691686735347
40
0.102691686735347
40
0.53816841361549
40
0.53816841361549
40
0.926474667639871
40
0.926474667639871
40
1
40
1
40
1
40
1
41
1
10
57.3509720530679
20
-26.3997161884495
30
0
41
1
10
57.380893999408
20
-26.3964733053308
30
0
41
1
10
57.4122711139629
20
-26.3942683386647
30
0
41
1
10
57.5807977171794
20
-26.3875856117881
30
0
41
1
10
57.742161843352
20
-26.39790023917
30
0
41
1
10
58.0640413220708
20
-26.4324660546539
30
0
41
1
10
58.2272620626367
20
-26.4559450447093
30
0
41
1
10
58.4201021624027
20
-26.4870419880046
30
0
41
1
10
58.4512578164011
20
-26.4918870663725
30
0
41
1
10
58.4823771357602
20
-26.4966632769217
30
0
0
SPLINE
5
1B3
100
AcDbEntity
8
1
62
256
6
ByLayer
370
13
48
1
60
0
100
AcDbSpline
70
4
71
3
72
8
73
4
40
0
40
0
40
0
40
0
40
1
40
1
40
1
40
1
41
1
10
57.2573483090605
20
-26.4059807254673
30
0
41
1
10
57.2886707932501
20
-26.4053143773061
30
0
41
1
10
57.3198681643654
20
-26.4030871682131
30
0
41
1
10
57.3509720530679
20
-26.3997161884495
30
0
0
SPLINE
5
1B4
100
AcDbEntity
8
1
62
256
6
ByLayer
370
13
48
1
60
0
100
AcDbSpline
70
4
71
3
72
10
73
6
40
0
40
0
40
0
40
0
40
0.436659189793396
40
0.436659189793396
40
1
40
1
40
1
40
1
41
1
10
57.0305156049706
20
-26.1937288291373
30
0
41
1
10
57.0626760675876
20
-26.2255132220168
30
0
41
1
10
57.0951835994715
20
-26.2569513132945
30
0
41
1
10
57.1705662077347
20
-26.3279669604641
30
0
41
1
10
57.2138220700955
20
-26.367174534857
30
0
41
1
10
57.2573483090634
20
-26.405980725468
30
0
0
SPLINE
5
1B5
100
AcDbEntity
8
1
62
256
6
ByLayer
370
13
48
1
60
0
100
AcDbSpline
70
4
71
3
72
10
73
6
40
0
40
0
40
0
40
0
40
0.73561768390405
40
0.73561768390405
40
1
40
1
40
1
40
1
41
1
10
57.0305156049706
20
-26.1937288291373
30
0
41
1
10
57.0246851208416
20
-26.1879665240225
30
0
41
1
10
57.0191348692197
20
-26.1816539877759
30
0
41
1
10
57.0131625911601
20
-26.1728770110706
30
0
41
1
10
57.0117118978094
20
-26.170495246386
30
0
41
1
10
57.0104895579181
20
-26.1681459458917
30
0
0
SPLINE
5
1B6
100
AcDbEntity
8
1
62
256
6
ByLayer
370
13
48
1
60
0
100
AcDbSpline
70
4
71
3
72
8
73
4
40
0
40
0
40
0
40
0
40
1
40
1
40
1
40
1
41
1
10
57.0104895579211
20
-26.1681459458883
30
0
41
1
10
57.0176603296031
20
-26.161683352543
30
0
41
1
10
57.0247646325939
20
-26.1552136243176
30
0
41
1
10
57.031795236158
20
-26.1487363109571
30
0
0
SPLINE
5
1B7
100
AcDbEntity
8
1
62
256
6
ByLayer
370
13
48
1
60
0
100
AcDbSpline
70
4
71
3
72
12
73
8
40
0
40
0
40
0
40
0
40
0.233793069268613
40
0.233793069268613
40
0.849542984529965
40
0.849542984529965
40
1
40
1
40
1
40
1
41
1
10
57.010489557929
20
-24.8318540541034
30
0
41
1
10
57.0115678802707
20
-24.8297815510058
30
0
41
1
10
57.0128235703367
20
-24.8276841848607
30
0
41
1
10
57.0177801949082
20
-24.8202108278762
30
0
41
1
10
57.0222297367628
20
-24.8148705552539
30
0
41
1
10
57.0281198492317
20
-24.80867441669
30
0
41
1
10
57.0293089587678
20
-24.8074637070966
30
0
41
1
10
57.0305156049706
20
-24.8062711708625
30
0
0
SPLINE
5
1B8
100
AcDbEntity
8
1
62
256
6
ByLayer
370
13
48
1
60
0
100
AcDbSpline
70
4
71
3
72
10
73
6
40
0
40
0
40
0
40
0
40
0.436659189793399
40
0.436659189793399
40
1
40
1
40
1
40
1
41
1
10
57.0305156049706
20
-24.8062711708625
30
0
41
1
10
57.0626760675876
20
-24.774486777983
30
0
41
1
10
57.0951835994715
20
-24.7430486867053
30
0
41
1
10
57.1705662077347
20
-24.6720330395356
30
0
41
1
10
57.2138220700955
20
-24.6328254651428
30
0
41
1
10
57.2573483090634
20
-24.5940192745318
30
0
0
SPLINE
5
1B9
100
AcDbEntity
8
1
62
256
6
ByLayer
370
13
48
1
60
0
100
AcDbSpline
70
4
71
3
72
8
73
4
40
0
40
0
40
0
40
0
40
1
40
1
40
1
40
1
41
1
10
57.2573483090605
20
-24.5940192745325
30
0
41
1
10
57.2886707932501
20
-24.5946856226937
30
0
41
1
10
57.3198681643654
20
-24.5969128317866
30
0
41
1
10
57.3509720530679
20
-24.6002838115502
30
0
0
SPLINE
5
1BA
100
AcDbEntity
8
1
62
256
6
ByLayer
370
13
48
1
60
0
100
AcDbSpline
70
4
71
3
72
14
73
10
40
0
40
0
40
0
40
0
40
0.102691686735347
40
0.102691686735347
40
0.53816841361549
40
0.53816841361549
40
0.926474667639871
40
0.926474667639871
40
1
40
1
40
1
40
1
41
1
10
57.3509720530679
20
-24.6002838115502
30
0
41
1
10
57.380893999408
20
-24.6035266946689
30
0
41
1
10
57.4122711139629
20
-24.605731661335
30
0
41
1
10
57.5807977171794
20
-24.6124143882117
30
0
41
1
10
57.742161843352
20
-24.6020997608297
30
0
41
1
10
58.0640413220708
20
-24.5675339453458
30
0
41
1
10
58.2272620626367
20
-24.5440549552904
30
0
41
1
10
58.4201021624027
20
-24.5129580119951
30
0
41
1
10
58.4512578164011
20
-24.5081129336272
30
0
41
1
10
58.4823771357602
20
-24.5033367230781
30
0
0
SPLINE
5
1BB
100
AcDbEntity
8
1
62
256
6
ByLayer
370
13
48
1
60
0
100
AcDbSpline
70
4
71
3
72
8
73
4
40
0
40
0
40
0
40
0
40
1
40
1
40
1
40
1
41
1
10
58.4823771357602
20
-24.503336723078
30
0
41
1
10
58.5716495580756
20
-24.4896351417453
30
0
41
1
10
58.6625883571386
20
-24.4838491975201
30
0
41
1
10
58.7528986418104
20
-24.4868594681302
30
0
0
SPLINE
5
1BC
100
AcDbEntity
8
1
62
256
6
ByLayer
370
13
48
1
60
0
100
AcDbSpline
70
4
71
3
72
8
73
4
40
0
40
0
40
0
40
0
40
1
40
1
40
1
40
1
41
1
10
58.7528986418119
20
-24.4868594681307
30
0
41
1
10
58.8744062234275
20
-24.4909096236935
30
0
41
1
10
58.9966210532666
20
-24.4860699970738
30
0
41
1
10
59.1158957172706
20
-24.486455787836
30
0
0
SPLINE
5
1BD
100
AcDbEntity
8
1
62
256
6
ByLayer
370
13
48
1
60
0
100
AcDbSpline
70
4
71
3
72
8
73
4
40
0
40
0
40
0
40
0
40
1
40
1
40
1
40
1
41
1
10
59.1158957172693
20
-24.4864557878378
30
0
41
1
10
59.2755545267195
20
-24.4869722000558
30
0
41
1
10
59.4354150796997
20
-24.5211649492278
30
0
41
1
10
59.5900286630425
20
-24.5649760336642
30
0
0
SPLINE
5
1BE
100
AcDbEntity
8
1
62
256
6
ByLayer
370
13
48
1
60
0
100
AcDbSpline
70
4
71
3
72
8
73
4
40
0
40
0
40
0
40
0
40
1
40
1
40
1
40
1
41
1
10
59.5900286630425
20
-24.5649760336642
30
0
41
1
10
59.634090020669
20
-24.5916390015711
30
0
41
1
10
59.6778395366007
20
-24.6188158201186
30
0
41
1
10
59.7213895076228
20
-24.6463012229621
30
0
0
SPLINE
5
1BF
100
AcDbEntity
8
1
62
256
6
ByLayer
370
13
48
1
60
0
100
AcDbSpline
70
4
71
3
72
12
73
8
40
0
40
0
40
0
40
0
40
0.178891096392299
40
0.178891096392299
40
0.986291642516443
40
0.986291642516443
40
1
40
1
40
1
40
1
41
1
10
59.7213895076228
20
-24.6463012229621
30
0
41
1
10
59.7003115269679
20
-24.645464881915
30
0
41
1
10
59.6792221384665
20
-24.6446218615651
30
0
41
1
10
59.5629014296376
20
-24.6399331694935
30
0
41
1
10
59.4679540502601
20
-24.6342895071996
30
0
41
1
10
59.3689156735317
20
-24.6298457310653
30
0
41
1
10
59.3672607449414
20
-24.6297744981597
30
0
41
1
10
59.3656057053218
20
-24.6297062644865
30
0
0
SPLINE
5
1C0
100
AcDbEntity
8
1
62
256
6
ByLayer
370
13
48
1
60
0
100
AcDbSpline
70
4
71
3
72
12
73
8
40
0
40
0
40
0
40
0
40
0.609383607480292
40
0.609383607480292
40
0.614539779329414
40
0.614539779329414
40
1
40
1
40
1
40
1
41
1
10
59.3656057053218
20
-24.6297062644865
30
0
41
1
10
59.2600213620049
20
-24.6253532523365
30
0
41
1
10
59.1496097970342
20
-24.6210237993583
30
0
41
1
10
59.0373081383666
20
-24.6167522872277
30
0
41
1
10
59.0363601843113
20
-24.6167162320909
30
0
41
1
10
58.9647049543389
20
-24.6139909330757
30
0
41
1
10
58.8932165299022
20
-24.6111910771392
30
0
41
1
10
58.8219297662852
20
-24.6087044877509
30
0
0
SPLINE
5
1C1
100
AcDbEntity
8
1
62
256
6
ByLayer
370
13
48
1
60
0
100
AcDbSpline
70
4
71
3
72
16
73
12
40
0
40
0
40
0
40
0
40
0.0442199247554627
40
0.0442199247554627
40
0.048439955548864
40
0.048439955548864
40
0.216895358525141
40
0.216895358525141
40
0.889245809546153
40
0.889245809546153
40
1
40
1
40
1
40
1
41
1
10
58.8219297662852
20
-24.6087044877509
30
0
41
1
10
58.8113300785451
20
-24.6083347547217
30
0
41
1
10
58.8007291289449
20
-24.6080034322952
30
0
41
1
10
58.7891179461187
20
-24.6075966424932
30
0
41
1
10
58.7881063966876
20
-24.6075610752902
30
0
41
1
10
58.7467182945273
20
-24.6061009165885
30
0
41
1
10
58.7063476610928
20
-24.604204723004
30
0
41
1
10
58.5067119730518
20
-24.5974612869647
30
0
41
1
10
58.3453726295508
20
-24.6184074745947
30
0
41
1
10
58.1656324617667
20
-24.6658881276009
30
0
41
1
10
58.1400997197492
20
-24.6730570406684
30
0
41
1
10
58.1146869282979
20
-24.6806157801646
30
0
0
SPLINE
5
1C2
100
AcDbEntity
8
1
62
256
6
ByLayer
370
13
48
1
60
0
100
AcDbSpline
70
4
71
3
72
12
73
8
40
0
40
0
40
0
40
0
40
0.274450233641753
40
0.274450233641753
40
0.728710906931611
40
0.728710906931611
40
1
40
1
40
1
40
1
41
1
10
58.1146869282979
20
-24.6806157801646
30
0
41
1
10
58.0122143236957
20
-24.7110950655736
30
0
41
1
10
57.909497462749
20
-24.7414423862553
30
0
41
1
10
57.6439453836002
20
-24.8195775859778
30
0
41
1
10
57.4820473482734
20
-24.8668707717634
30
0
41
1
10
57.246079380226
20
-24.9359480682249
30
0
41
1
10
57.1617198878049
20
-24.9605159047954
30
0
41
1
10
57.0838678419132
20
-24.9837267156528
30
0
0
SPLINE
5
1C3
100
AcDbEntity
8
1
62
256
6
ByLayer
370
13
48
1
60
0
100
AcDbSpline
70
4
71
3
72
10
73
6
40
0
40
0
40
0
40
0
40
0.659159716151023
40
0.659159716151023
40
1
40
1
40
1
40
1
41
1
10
57.0838678419132
20
-24.9837267156528
30
0
41
1
10
57.0859020371366
20
-24.9461086762459
30
0
41
1
10
57.0777349617729
20
-24.9137408361742
30
0
41
1
10
57.0536893544428
20
-24.8742206936552
30
0
41
1
10
57.0434984870353
20
-24.8620459245333
30
0
41
1
10
57.031795236158
20
-24.8512636890426
30
0
0
SPLINE
5
1C4
100
AcDbEntity
8
1
62
256
6
ByLayer
370
13
48
1
60
0
100
AcDbSpline
70
4
71
3
72
8
73
4
40
0
40
0
40
0
40
0
40
1
40
1
40
1
40
1
41
1
10
57.031795236158
20
-24.8512636890426
30
0
41
1
10
57.0247646325939
20
-24.8447863756821
30
0
41
1
10
57.0176603296031
20
-24.8383166474568
30
0
41
1
10
57.0104895579211
20
-24.8318540541114
30
0
0
SPLINE
5
1C5
100
AcDbEntity
8
1
62
256
6
ByLayer
370
13
48
1
60
0
100
AcDbSpline
70
4
71
3
72
8
73
4
40
0
40
0
40
0
40
0
40
1
40
1
40
1
40
1
41
1
10
57.1169741247547
20
-26.5648446992159
30
0
41
1
10
57.0355486668608
20
-26.4954493196159
30
0
41
1
10
56.9571073551695
20
-26.4225205419943
30
0
41
1
10
56.8804455603128
20
-26.3478961953477
30
0
0
SPLINE
5
1C6
100
AcDbEntity
8
1
62
256
6
ByLayer
370
13
48
1
60
0
100
AcDbSpline
70
4
71
3
72
8
73
4
40
0
40
0
40
0
40
0
40
1
40
1
40
1
40
1
41
1
10
57.1169741247547
20
-24.4351553007838
30
0
41
1
10
57.0355486668608
20
-24.5045506803839
30
0
41
1
10
56.9571073551695
20
-24.5774794580055
30
0
41
1
10
56.8804455603128
20
-24.6521038046521
30
0
0
SPLINE
5
1C7
100
AcDbEntity
8
1
62
256
6
ByLayer
370
13
48
1
60
0
100
AcDbSpline
70
4
71
3
72
12
73
8
40
0
40
0
40
0
40
0
40
0.46817896742225
40
0.46817896742225
40
0.899165978787896
40
0.899165978787896
40
1
40
1
40
1
40
1
41
1
10
58.4587805434613
20
-24.3355758146487
30
0
41
1
10
58.277506035505
20
-24.3640995117533
30
0
41
1
10
58.0936117660435
20
-24.3988817297959
30
0
41
1
10
57.7658158689767
20
-24.4425346372708
30
0
41
1
10
57.6153724323278
20
-24.4566016801371
30
0
41
1
10
57.4560286247614
20
-24.4553474778721
30
0
41
1
10
57.4264524991725
20
-24.4542479039905
30
0
41
1
10
57.3981203716814
20
-24.4521519715685
30
0
0
SPLINE
5
1C8
100
AcDbEntity
8
1
62
256
6
ByLayer
370
13
48
1
60
0
100
AcDbSpline
70
4
71
3
72
12
73
8
40
0
40
0
40
0
40
0
40
0.46817896742225
40
0.46817896742225
40
0.899165978787896
40
0.899165978787896
40
1
40
1
40
1
40
1
41
1
10
58.4587805434613
20
-26.664424185351
30
0
41
1
10
58.277506035505
20
-26.6359004882464
30
0
41
1
10
58.0936117660435
20
-26.6011182702038
30
0
41
1
10
57.7658158689767
20
-26.557465362729
30
0
41
1
10
57.6153724323278
20
-26.5433983198626
30
0
41
1
10
57.4560286247614
20
-26.5446525221277
30
0
41
1
10
57.4264524991725
20
-26.5457520960092
30
0
41
1
10
57.3981203716814
20
-26.5478480284313
30
0
0
SPLINE
5
1C9
100
AcDbEntity
8
1
62
256
6
ByLayer
370
13
48
1
60
0
100
AcDbSpline
70
4
71
3
72
10
73
6
40
0
40
0
40
0
40
0
40
0.132191617121101
40
0.132191617121101
40
1
40
1
40
1
40
1
41
1
10
57.2573483090604
20
-26.4059807254673
30
0
41
1
10
57.2564468305523
20
-26.4069459406577
30
0
41
1
10
57.25552642843
20
-26.4079366369628
30
0
41
1
10
57.248454107713
20
-26.4155876604871
30
0
41
1
10
57.2414978788606
20
-26.4233291937066
30
0
41
1
10
57.2339180002563
20
-26.431958608995
30
0
0
SPLINE
5
1CA
100
AcDbEntity
8
1
62
256
6
ByLayer
370
13
48
1
60
0
100
AcDbSpline
70
4
71
3
72
14
73
10
40
0
40
0
40
0
40
0
40
0.447953066725052
40
0.447953066725052
40
0.912809598186729
40
0.912809598186729
40
0.983423615312508
40
0.983423615312508
40
1
40
1
40
1
40
1
41
1
10
57.2339180002563
20
-26.4319586089956
30
0
41
1
10
57.2203040290404
20
-26.4474576186458
30
0
41
1
10
57.2040154112901
20
-26.4659907513417
30
0
41
1
10
57.1683740707567
20
-26.506505079702
30
0
41
1
10
57.1483538761323
20
-26.5292431727843
30
0
41
1
10
57.1253006224606
20
-26.5553996929225
30
0
41
1
10
57.1222095971505
20
-26.5589062950434
30
0
41
1
10
57.1184037038145
20
-26.5632232403093
30
0
41
1
10
57.1176888999301
20
-26.5640339722495
30
0
41
1
10
57.1169741247485
20
-26.5648446992148
30
0
0
SPLINE
5
1CB
100
AcDbEntity
8
1
62
256
6
ByLayer
370
13
48
1
60
0
100
AcDbSpline
70
4
71
3
72
14
73
10
40
0
40
0
40
0
40
0
40
0.447953066725053
40
0.447953066725053
40
0.912809598186729
40
0.912809598186729
40
0.983423615312508
40
0.983423615312508
40
1
40
1
40
1
40
1
41
1
10
57.2339180002563
20
-24.5680413910041
30
0
41
1
10
57.2203040290404
20
-24.5525423813539
30
0
41
1
10
57.2040154112901
20
-24.5340092486581
30
0
41
1
10
57.1683740707567
20
-24.4934949202977
30
0
41
1
10
57.1483538761323
20
-24.4707568272154
30
0
41
1
10
57.1253006224606
20
-24.4446003070772
30
0
41
1
10
57.1222095971505
20
-24.4410937049564
30
0
41
1
10
57.1184037038145
20
-24.4367767596904
30
0
41
1
10
57.1176888999301
20
-24.4359660277503
30
0
41
1
10
57.1169741247485
20
-24.4351553007849
30
0
0
SPLINE
5
1CC
100
AcDbEntity
8
1
62
256
6
ByLayer
370
13
48
1
60
0
100
AcDbSpline
70
4
71
3
72
10
73
6
40
0
40
0
40
0
40
0
40
0.132191617121101
40
0.132191617121101
40
1
40
1
40
1
40
1
41
1
10
57.2573483090604
20
-24.5940192745325
30
0
41
1
10
57.2564468305523
20
-24.593054059342
30
0
41
1
10
57.25552642843
20
-24.5920633630369
30
0
41
1
10
57.248454107713
20
-24.5844123395126
30
0
41
1
10
57.2414978788606
20
-24.5766708062931
30
0
41
1
10
57.2339180002563
20
-24.5680413910047
30
0
0
SPLINE
5
1CD
100
AcDbEntity
8
1
62
256
6
ByLayer
370
13
48
1
60
0
100
AcDbSpline
70
4
71
3
72
12
73
8
40
0
40
0
40
0
40
0
40
0.559278359968975
40
0.559278359968975
40
0.982064699130975
40
0.982064699130975
40
1
40
1
40
1
40
1
41
1
10
56.8655988415542
20
-26.1970076234222
30
0
41
1
10
56.8639058993619
20
-26.1648080621544
30
0
41
1
10
56.8615176185074
20
-26.135633087518
30
0
41
1
10
56.8565061637906
20
-26.0946350461351
30
0
41
1
10
56.8540306406306
20
-26.0798924597157
30
0
41
1
10
56.8512781291035
20
-26.0685192129116
30
0
41
1
10
56.8511665651818
20
-26.0680661052063
30
0
41
1
10
56.8510546870628
20
-26.0676195138537
30
0
0
SPLINE
5
1CE
100
AcDbEntity
8
1
62
256
6
ByLayer
370
13
48
1
60
0
100
AcDbSpline
70
4
71
3
72
10
73
6
40
0
40
0
40
0
40
0
40
0.709641074204652
40
0.709641074204652
40
1
40
1
40
1
40
1
41
1
10
56.8804455603128
20
-26.3478961953477
30
0
41
1
10
56.8753414889782
20
-26.3110319885919
30
0
41
1
10
56.8711861437205
20
-26.2733941765534
30
0
41
1
10
56.8672412502849
20
-26.2243929024851
30
0
41
1
10
56.8663022439904
20
-26.2103862549868
30
0
41
1
10
56.8655988415525
20
-26.1970076234221
30
0
0
SPLINE
5
1CF
100
AcDbEntity
8
1
62
256
6
ByLayer
370
13
48
1
60
0
100
AcDbSpline
70
4
71
3
72
12
73
8
40
0
40
0
40
0
40
0
40
0.135507654329451
40
0.135507654329451
40
0.742115377580087
40
0.742115377580087
40
1
40
1
40
1
40
1
41
1
10
56.8804455603128
20
-24.6521038046521
30
0
41
1
10
56.8794577311546
20
-24.6592384107227
30
0
41
1
10
56.8785068164279
20
-24.666382672982
30
0
41
1
10
56.8735694178171
20
-24.7050350454403
30
0
41
1
10
56.8702919601627
20
-24.7367056490604
30
0
41
1
10
56.8670296012879
20
-24.7787994893875
30
0
41
1
10
56.8662219824782
20
-24.7911403095503
30
0
41
1
10
56.8655988415537
20
-24.8029923765775
30
0
0
SPLINE
5
1D0
100
AcDbEntity
8
1
62
256
6
ByLayer
370
13
48
1
60
0
100
AcDbSpline
70
4
71
3
72
14
73
10
40
0
40
0
40
0
40
0
40
0.0177509856471946
40
0.0177509856471946
40
0.340726860481444
40
0.340726860481444
40
0.792711195890233
40
0.792711195890233
40
1
40
1
40
1
40
1
41
1
10
56.8510546870628
20
-24.9323804861461
30
0
41
1
10
56.8511665651505
20
-24.9319338947936
30
0
41
1
10
56.8512781289784
20
-24.9314807870889
30
0
41
1
10
56.8534062656342
20
-24.9226874300444
30
0
41
1
10
56.855323964045
20
-24.9121526240238
30
0
41
1
10
56.8595178404373
20
-24.8825410382397
30
0
41
1
10
56.8616827821098
20
-24.8613706218627
30
0
41
1
10
56.8642384176627
20
-24.826653122272
30
0
41
1
10
56.8649648606851
20
-24.8150506180987
30
0
41
1
10
56.8655988415542
20
-24.8029923765775
30
0
0
SPLINE
5
1D1
100
AcDbEntity
8
1
62
256
6
ByLayer
370
13
48
1
60
0
100
AcDbSpline
70
4
71
3
72
18
73
14
40
0
40
0
40
0
40
0
40
0.10212592206704
40
0.10212592206704
40
0.219798180864097
40
0.219798180864097
40
0.395678331134856
40
0.395678331134856
40
0.733655817510089
40
0.733655817510089
40
0.802063348489368
40
0.802063348489368
40
1
40
1
40
1
40
1
41
1
10
56.4559779585026
20
-26.326755677451
30
0
41
1
10
56.4564416368178
20
-26.3134760472197
30
0
41
1
10
56.45608929913
20
-26.3001169525712
30
0
41
1
10
56.4536446728814
20
-26.2718846307219
30
0
41
1
10
56.4512850832915
20
-26.2569521064426
30
0
41
1
10
56.4431564052165
20
-26.2212015586245
30
0
41
1
10
56.436209646695
20
-26.2007733452544
30
0
41
1
10
56.4118798067115
20
-26.1465335593216
30
0
41
1
10
56.3902866995539
20
-26.1161518198649
30
0
41
1
10
56.3616240935597
20
-26.0871939333326
30
0
41
1
10
56.3566229893451
20
-26.0824945864557
30
0
41
1
10
56.3368310070575
20
-26.0651641154966
30
0
41
1
10
56.3212866355731
20
-26.0542191462932
30
0
41
1
10
56.3052940680713
20
-26.0451731223788
30
0
0
SPLINE
5
1D2
100
AcDbEntity
8
1
62
256
6
ByLayer
370
13
48
1
60
0
100
AcDbSpline
70
4
71
3
72
14
73
10
40
0
40
0
40
0
40
0
40
0.447954004797037
40
0.447954004797037
40
0.912810038934036
40
0.912810038934036
40
0.983423779130199
40
0.983423779130199
40
1
40
1
40
1
40
1
41
1
10
57.2933275812136
20
-26.5495304559491
30
0
41
1
10
57.2727755286919
20
-26.5513153960274
30
0
41
1
10
57.2481939779358
20
-26.5534502100752
30
0
41
1
10
57.1944355442363
20
-26.5581186183362
30
0
41
1
10
57.1642532997474
20
-26.5607395039344
30
0
41
1
10
57.1295181484127
20
-26.5637555302519
30
0
41
1
10
57.1248611889835
20
-26.5641598862849
30
0
41
1
10
57.1191276857054
20
-26.5646577116979
30
0
41
1
10
57.1180508939064
20
-26.564751206329
30
0
41
1
10
57.1169741247543
20
-26.564844699216
30
0
0
SPLINE
5
1D3
100
AcDbEntity
8
1
62
256
6
ByLayer
370
13
48
1
60
0
100
AcDbSpline
70
4
71
3
72
14
73
10
40
0
40
0
40
0
40
0
40
0.447954004797037
40
0.447954004797037
40
0.912810038934036
40
0.912810038934036
40
0.983423779130199
40
0.983423779130199
40
1
40
1
40
1
40
1
41
1
10
57.2933275812136
20
-24.4504695440506
30
0
41
1
10
57.2727755286919
20
-24.4486846039723
30
0
41
1
10
57.2481939779358
20
-24.4465497899245
30
0
41
1
10
57.1944355442363
20
-24.4418813816636
30
0
41
1
10
57.1642532997474
20
-24.4392604960654
30
0
41
1
10
57.1295181484127
20
-24.4362444697479
30
0
41
1
10
57.1248611889835
20
-24.4358401137149
30
0
41
1
10
57.1191276857054
20
-24.4353422883018
30
0
41
1
10
57.1180508939064
20
-24.4352487936707
30
0
41
1
10
57.1169741247543
20
-24.4351553007838
30
0
0
SPLINE
5
1D4
100
AcDbEntity
8
1
62
256
6
ByLayer
370
13
48
1
60
0
100
AcDbSpline
70
4
71
3
72
12
73
8
40
0
40
0
40
0
40
0
40
0.356479833160399
40
0.356479833160399
40
0.824168720346733
40
0.824168720346733
40
1
40
1
40
1
40
1
41
1
10
56.8643787537961
20
-24.9436896872598
30
0
41
1
10
56.8767763033464
20
-24.9502026864514
30
0
41
1
10
56.8880463981537
20
-24.9577987637905
30
0
41
1
10
56.9095864832785
20
-24.9783151088321
30
0
41
1
10
56.9185295226104
20
-24.9924948935568
30
0
41
1
10
56.92407326674
20
-25.015200440075
30
0
41
1
10
56.9249217874923
20
-25.0218159823498
30
0
41
1
10
56.9250392603487
20
-25.0287110476952
30
0
0
SPLINE
5
1D5
100
AcDbEntity
8
1
62
256
6
ByLayer
370
13
48
1
60
0
100
AcDbSpline
70
4
71
3
72
12
73
8
40
0
40
0
40
0
40
0
40
0.443558069836982
40
0.443558069836982
40
0.507222026557664
40
0.507222026557664
40
1
40
1
40
1
40
1
41
1
10
56.9250392603487
20
-25.0287110476952
30
0
41
1
10
56.925625933741
20
-25.0631458226603
30
0
41
1
10
56.9334575781989
20
-25.1040741850545
30
0
41
1
10
56.9513800260717
20
-25.1526159305866
30
0
41
1
10
56.9538277204397
20
-25.1588406550521
30
0
41
1
10
56.976282853545
20
-25.2126034618303
30
0
41
1
10
57.006340828125
20
-25.2625008733966
30
0
41
1
10
57.0439598709927
20
-25.307618515785
30
0
0
SPLINE
5
1D6
100
AcDbEntity
8
1
62
256
6
ByLayer
370
13
48
1
60
0
100
AcDbSpline
70
4
71
3
72
18
73
14
40
0
40
0
40
0
40
0
40
0.262962488711577
40
0.262962488711577
40
0.43136352889061
40
0.43136352889061
40
0.488169625072958
40
0.488169625072958
40
0.652801403480982
40
0.652801403480982
40
0.712254155913291
40
0.712254155913291
40
1
40
1
40
1
40
1
41
1
10
57.0439598709927
20
-25.307618515785
30
0
41
1
10
57.0671201854563
20
-25.335395373086
30
0
41
1
10
57.0885389915202
20
-25.3661566550824
30
0
41
1
10
57.113950371308
20
-25.4220894838633
30
0
41
1
10
57.1214580237961
20
-25.4457924278391
30
0
41
1
10
57.1259784141927
20
-25.4782878333405
30
0
41
1
10
57.1266641796623
20
-25.4866563003372
30
0
41
1
10
57.1274106952605
20
-25.5189215057644
30
0
41
1
10
57.12374714007
20
-25.5432293424189
30
0
41
1
10
57.1143596854291
20
-25.5741657882316
30
0
41
1
10
57.1114227244078
20
-25.5823043815642
30
0
41
1
10
57.0925277493289
20
-25.6281138424875
30
0
41
1
10
57.0692256559174
20
-25.6620794732649
30
0
41
1
10
57.0439598709999
20
-25.6923814842061
30
0
0
SPLINE
5
1D7
100
AcDbEntity
8
1
62
256
6
ByLayer
370
13
48
1
60
0
100
AcDbSpline
70
4
71
3
72
12
73
8
40
0
40
0
40
0
40
0
40
0.0695374380305743
40
0.0695374380305743
40
0.564718845075643
40
0.564718845075643
40
1
40
1
40
1
40
1
41
1
10
57.0439598709999
20
-25.6923814842061
30
0
41
1
10
57.0385610813285
20
-25.6988564140061
30
0
41
1
10
57.0333230650435
20
-25.7054109635301
30
0
41
1
10
56.9927993674551
20
-25.7583263081585
30
0
41
1
10
56.9653523725795
20
-25.8087888540874
30
0
41
1
10
56.9331669750443
20
-25.8974117671847
30
0
41
1
10
56.9256153955241
20
-25.937472717622
30
0
41
1
10
56.9250392603487
20
-25.9712889523045
30
0
0
SPLINE
5
1D8
100
AcDbEntity
8
1
62
256
6
ByLayer
370
13
48
1
60
0
100
AcDbSpline
70
4
71
3
72
10
73
6
40
0
40
0
40
0
40
0
40
0.323499890762715
40
0.323499890762715
40
1
40
1
40
1
40
1
41
1
10
56.9250392603487
20
-25.9712889523045
30
0
41
1
10
56.9248229895013
20
-25.9839829623968
30
0
41
1
10
56.9221009308091
20
-25.9957465266667
30
0
41
1
10
56.9072698303882
20
-26.0276860745182
30
0
41
1
10
56.8876680100065
20
-26.0440754024251
30
0
41
1
10
56.8643787537961
20
-26.0563103127399
30
0
0
SPLINE
5
1D9
100
AcDbEntity
8
1
62
256
6
ByLayer
370
13
48
1
60
0
100
AcDbSpline
70
4
71
3
72
12
73
8
40
0
40
0
40
0
40
0
40
0.833271550695841
40
0.833271550695841
40
0.924873187913958
40
0.924873187913958
40
1
40
1
40
1
40
1
41
1
10
56.0610166945645
20
-25.9940882031481
30
0
41
1
10
56.0544754484441
20
-25.9595708997962
30
0
41
1
10
56.0449923927373
20
-25.9168966793299
30
0
41
1
10
56.040181068922
20
-25.8635669341888
30
0
41
1
10
56.0397613475273
20
-25.8581473055585
30
0
41
1
10
56.0391308505303
20
-25.8481631661793
30
0
41
1
10
56.0388959908553
20
-25.8436188918927
30
0
41
1
10
56.0387159227923
20
-25.8390329632429
30
0
0
SPLINE
5
1DA
100
AcDbEntity
8
1
62
256
6
ByLayer
370
13
48
1
60
0
100
AcDbSpline
70
4
71
3
72
8
73
4
40
0
40
0
40
0
40
0
40
1
40
1
40
1
40
1
41
1
10
56.0387159227923
20
-25.8390329632429
30
0
41
1
10
56.059987312203
20
-25.8328942415295
30
0
41
1
10
56.0815114137464
20
-25.8271522119493
30
0
41
1
10
56.1032105368037
20
-25.8217756253576
30
0
0
SPLINE
5
1DB
100
AcDbEntity
8
1
62
256
6
ByLayer
370
13
48
1
60
0
100
AcDbSpline
70
4
71
3
72
8
73
4
40
0
40
0
40
0
40
0
40
1
40
1
40
1
40
1
41
1
10
56.1032105368034
20
-25.8217756253559
30
0
41
1
10
56.1062783445423
20
-25.8210154870816
30
0
41
1
10
56.1093468504694
20
-25.8202554427515
30
0
41
1
10
56.1124160421628
20
-25.8194954910671
30
0
0
SPLINE
5
1DC
100
AcDbEntity
8
1
62
256
6
ByLayer
370
13
48
1
60
0
100
AcDbSpline
70
4
71
3
72
26
73
22
40
0
40
0
40
0
40
0
40
0.0783346115779722
40
0.0783346115779722
40
0.229067417424992
40
0.229067417424992
40
0.361148737487712
40
0.361148737487712
40
0.451044286208709
40
0.451044286208709
40
0.480076288213215
40
0.480076288213215
40
0.580804987892491
40
0.580804987892491
40
0.598553408472289
40
0.598553408472289
40
0.721865021031447
40
0.721865021031447
40
0.852573440596253
40
0.852573440596253
40
1
40
1
40
1
40
1
41
1
10
56.1124160421628
20
-25.8194954910671
30
0
41
1
10
56.1363716105935
20
-25.8135639376159
30
0
41
1
10
56.1598327503349
20
-25.8061586706428
30
0
41
1
10
56.2253859658397
20
-25.7799008296078
30
0
41
1
10
56.2659116446279
20
-25.7563010498236
30
0
41
1
10
56.3301656555828
20
-25.6993484326081
30
0
41
1
10
56.3562012292316
20
-25.6666292496864
30
0
41
1
10
56.3871009177856
20
-25.6042269467145
30
0
41
1
10
56.3963228169934
20
-25.5762181158148
30
0
41
1
10
56.4026526489823
20
-25.5381476115942
30
0
41
1
10
56.4037565534503
20
-25.5286470667844
30
0
41
1
10
56.406535622122
20
-25.4866487424098
30
0
41
1
10
56.4029896944569
20
-25.4530994502487
30
0
41
1
10
56.3928135335291
20
-25.4165606236644
30
0
41
1
10
56.3911033398723
20
-25.4110584618828
30
0
41
1
10
56.3765578244499
20
-25.3686791181927
30
0
41
1
10
56.3563208175635
20
-25.3345999946106
30
0
41
1
10
56.3056247831178
20
-25.2756980780515
30
0
41
1
10
56.273851925294
20
-25.250414714149
30
0
41
1
10
56.2004676930902
20
-25.2079441245458
30
0
41
1
10
56.1571805456305
20
-25.1915884890854
30
0
41
1
10
56.1124160421628
20
-25.1805045089327
30
0
0
SPLINE
5
1DD
100
AcDbEntity
8
1
62
256
6
ByLayer
370
13
48
1
60
0
100
AcDbSpline
70
4
71
3
72
8
73
4
40
0
40
0
40
0
40
0
40
1
40
1
40
1
40
1
41
1
10
56.1124160421628
20
-25.1805045089327
30
0
41
1
10
56.1093468504694
20
-25.1797445572482
30
0
41
1
10
56.1062783445423
20
-25.1789845129181
30
0
41
1
10
56.1032105368034
20
-25.1782243746438
30
0
0
SPLINE
5
1DE
100
AcDbEntity
8
1
62
256
6
ByLayer
370
13
48
1
60
0
100
AcDbSpline
70
4
71
3
72
8
73
4
40
0
40
0
40
0
40
0
40
1
40
1
40
1
40
1
41
1
10
56.1032105368034
20
-25.1782243746438
30
0
41
1
10
56.0815114137461
20
-25.172847788052
30
0
41
1
10
56.0599873122031
20
-25.1671057584685
30
0
41
1
10
56.0387159227924
20
-25.160967036755
30
0
0
SPLINE
5
1DF
100
AcDbEntity
8
1
62
256
6
ByLayer
370
13
48
1
60
0
100
AcDbSpline
70
4
71
3
72
10
73
6
40
0
40
0
40
0
40
0
40
0.0748872813144652
40
0.0748872813144652
40
1
40
1
40
1
40
1
41
1
10
56.0387159227923
20
-25.1609670367568
30
0
41
1
10
56.0388959908553
20
-25.1563811081071
30
0
41
1
10
56.0391308505303
20
-25.1518368338204
30
0
41
1
10
56.0428644178648
20
-25.0927144956872
30
0
41
1
10
56.0537561749332
20
-25.044224612788
30
0
41
1
10
56.0610166945643
20
-25.005911796853
30
0
0
SPLINE
5
1E0
100
AcDbEntity
8
1
62
256
6
ByLayer
370
13
48
1
60
0
100
AcDbSpline
70
4
71
3
72
20
73
16
40
0
40
0
40
0
40
0
40
0.114266316237489
40
0.114266316237489
40
0.331231960429442
40
0.331231960429442
40
0.599155656755157
40
0.599155656755157
40
0.722874848940947
40
0.722874848940947
40
0.871512516236653
40
0.871512516236653
40
0.967654963824484
40
0.967654963824484
40
1
40
1
40
1
40
1
41
1
10
56.3052940680729
20
-24.9548268776214
30
0
41
1
10
56.3145383163395
20
-24.9495979679495
30
0
41
1
10
56.3236231348747
20
-24.9437409175789
30
0
41
1
10
56.3492280670811
20
-24.9249682151514
30
0
41
1
10
56.365276744252
20
-24.9103163055361
30
0
41
1
10
56.3980286906964
20
-24.872427118395
30
0
41
1
10
56.4143711478299
20
-24.8475318277619
30
0
41
1
10
56.4331414661541
20
-24.8062303621544
30
0
41
1
10
56.4383907764822
20
-24.7922856633344
30
0
41
1
10
56.447858461063
20
-24.7603462150163
30
0
41
1
10
56.4517121178798
20
-24.741882314626
30
0
41
1
10
56.4553663096761
20
-24.7108205811756
30
0
41
1
10
56.4561297476895
20
-24.6983453571316
30
0
41
1
10
56.4561906263781
20
-24.6816675033306
30
0
41
1
10
56.4561249332387
20
-24.6774536419886
30
0
41
1
10
56.4559779585028
20
-24.6732443225488
30
0
0
SPLINE
5
1E1
100
AcDbEntity
8
1
62
256
6
ByLayer
370
13
48
1
60
0
100
AcDbSpline
70
4
71
3
72
16
73
12
40
0
40
0
40
0
40
0
40
0.249954056036558
40
0.249954056036558
40
0.699484194384015
40
0.699484194384015
40
0.851133931227642
40
0.851133931227642
40
0.935108677236773
40
0.935108677236773
40
1
40
1
40
1
40
1
41
1
10
56.2267110292774
20
-26.2268974965045
30
0
41
1
10
56.2427048966234
20
-26.2304490006952
30
0
41
1
10
56.2585947536486
20
-26.234631905269
30
0
41
1
10
56.3021970348682
20
-26.2485674865996
30
0
41
1
10
56.3302297071818
20
-26.2597714076045
30
0
41
1
10
56.3625570510524
20
-26.283219319487
30
0
41
1
10
56.3704121947257
20
-26.2900650624512
30
0
41
1
10
56.3801629147231
20
-26.3028211492217
30
0
41
1
10
56.3831940821262
20
-26.307907753161
30
0
41
1
10
56.3866841498694
20
-26.3176298067032
30
0
41
1
10
56.3875739298376
20
-26.3222200449414
30
0
41
1
10
56.3875739298376
20
-26.326755677451
30
0
0
SPLINE
5
1E2
100
AcDbEntity
8
1
62
256
6
ByLayer
370
13
48
1
60
0
100
AcDbSpline
70
4
71
3
72
20
73
16
40
0
40
0
40
0
40
0
40
0.0199906994069362
40
0.0199906994069362
40
0.0825919577440876
40
0.0825919577440876
40
0.195169299288357
40
0.195169299288357
40
0.306011529795777
40
0.306011529795777
40
0.591177675589546
40
0.591177675589546
40
0.85412822131223
40
0.85412822131223
40
1
40
1
40
1
40
1
41
1
10
56.3875739298377
20
-24.6732443225488
30
0
41
1
10
56.3875739298377
20
-24.6746558473501
30
0
41
1
10
56.3874914943693
20
-24.6760698732453
30
0
41
1
10
56.3868329759386
20
-24.681802870228
30
0
41
1
10
56.3855574593884
20
-24.6860718491902
30
0
41
1
10
56.3806296077618
20
-24.6970378588876
30
0
41
1
10
56.3758782533064
20
-24.7032863595625
30
0
41
1
10
56.3654630806491
20
-24.7141451041686
30
0
41
1
10
56.359676381482
20
-24.7189174098232
30
0
41
1
10
56.3382455610535
20
-24.7342830738215
30
0
41
1
10
56.3211325656859
20
-24.7426612867127
30
0
41
1
10
56.2877211729543
20
-24.7562475648145
30
0
41
1
10
56.2712362948113
20
-24.7616193506469
30
0
41
1
10
56.2453568251732
20
-24.7687358047044
30
0
41
1
10
56.2360536989462
20
-24.7710279251729
30
0
41
1
10
56.2267110292773
20
-24.7731025034953
30
0
0
SPLINE
5
1E3
100
AcDbEntity
8
1
62
256
6
ByLayer
370
13
48
1
60
0
100
AcDbSpline
70
4
71
3
72
14
73
10
40
0
40
0
40
0
40
0
40
0.0177534078899156
40
0.0177534078899156
40
0.340744812432132
40
0.340744812432132
40
0.785966596962005
40
0.785966596962005
40
1
40
1
40
1
40
1
41
1
10
56.8510546870628
20
-24.9323804861461
30
0
41
1
10
56.8520935591131
20
-24.9321193181416
30
0
41
1
10
56.8531321595046
20
-24.931851656369
30
0
41
1
10
56.8729966272014
20
-24.9266051557524
30
0
41
1
10
56.8917885884792
20
-24.9194399402448
30
0
41
1
10
56.9347600859257
20
-24.8978226896955
30
0
41
1
10
56.9587945413718
20
-24.8813851019799
30
0
41
1
10
56.9910000960522
20
-24.8526738137018
30
0
41
1
10
57.0010527060187
20
-24.84255827921
30
0
41
1
10
57.010489557929
20
-24.8318540541034
30
0
0
SPLINE
5
1E4
100
AcDbEntity
8
1
62
256
6
ByLayer
370
13
48
1
60
0
100
AcDbSpline
70
4
71
3
72
12
73
8
40
0
40
0
40
0
40
0
40
0.559301985460886
40
0.559301985460886
40
0.982067221682947
40
0.982067221682947
40
1
40
1
40
1
40
1
41
1
10
57.010489557929
20
-26.1681459458964
30
0
41
1
10
56.9860762799805
20
-26.1404539544106
30
0
41
1
10
56.9571861880885
20
-26.1165461082716
30
0
41
1
10
56.9034740589433
20
-26.0852512885933
30
0
41
1
10
56.8788250511787
20
-26.0749342174857
30
0
41
1
10
56.8531321595027
20
-26.068148343632
30
0
41
1
10
56.8520935591125
20
-26.0678806818586
30
0
41
1
10
56.8510546870628
20
-26.0676195138537
30
0
0
SPLINE
5
1E5
100
AcDbEntity
8
1
62
256
6
ByLayer
370
13
48
1
60
0
100
AcDbSpline
70
4
71
3
72
8
73
4
40
0
40
0
40
0
40
0
40
1
40
1
40
1
40
1
41
1
10
55.6639115680548
20
-26.6339172375212
30
0
41
1
10
55.7472851478713
20
-26.4951344673784
30
0
41
1
10
55.816569163954
20
-26.3469659249435
30
0
41
1
10
55.8825621452742
20
-26.1979670943812
30
0
0
SPLINE
5
1E6
100
AcDbEntity
8
1
62
256
6
ByLayer
370
13
48
1
60
0
100
AcDbSpline
70
4
71
3
72
16
73
12
40
0
40
0
40
0
40
0
40
0.0745951303882249
40
0.0745951303882249
40
0.27553513169183
40
0.27553513169183
40
0.501427420118119
40
0.501427420118119
40
0.725494997757322
40
0.725494997757322
40
1
40
1
40
1
40
1
41
1
10
55.8825621452742
20
-26.1979670943812
30
0
41
1
10
55.8837736749443
20
-26.1952317049441
30
0
41
1
10
55.8851163296951
20
-26.1925572078749
30
0
41
1
10
55.8905147865576
20
-26.1830767358222
30
0
41
1
10
55.895461783055
20
-26.1767105424776
30
0
41
1
10
55.9076198241713
20
-26.1655631329548
30
0
41
1
10
55.9152342937161
20
-26.1609241671942
30
0
41
1
10
55.931205119136
20
-26.1550310189243
30
0
41
1
10
55.9397662566659
20
-26.1536400991377
30
0
41
1
10
55.9585207140202
20
-26.1535642009222
30
0
41
1
10
55.9689309570329
20
-26.1555045458585
30
0
41
1
10
55.9787842780359
20
-26.1587842708631
30
0
0
SPLINE
5
1E7
100
AcDbEntity
8
1
62
256
6
ByLayer
370
13
48
1
60
0
100
AcDbSpline
70
4
71
3
72
16
73
12
40
0
40
0
40
0
40
0
40
0.108772443208259
40
0.108772443208259
40
0.369799377627614
40
0.369799377627614
40
0.571154122074464
40
0.571154122074464
40
0.786314444449857
40
0.786314444449857
40
1
40
1
40
1
40
1
41
1
10
55.9787842780347
20
-24.8412157291374
30
0
41
1
10
55.974842530994
20
-24.8425277584854
30
0
41
1
10
55.9708295616293
20
-24.8436227135308
30
0
41
1
10
55.9571495011343
20
-24.8464561410264
30
0
41
1
10
55.9470910912765
20
-24.8470160849208
30
0
41
1
10
55.9298590002818
20
-24.8445065950911
30
0
41
1
10
55.9223925092281
20
-24.8421859946965
30
0
41
1
10
55.9083165495633
20
-24.8348649951487
30
0
41
1
10
55.9016145563071
20
-24.8295801783689
30
0
41
1
10
55.8905405846473
20
-24.8171023139174
30
0
41
1
10
55.8859929686991
20
-24.8097790123652
30
0
41
1
10
55.8825621452759
20
-24.8020329056175
30
0
0
SPLINE
5
1E8
100
AcDbEntity
8
1
62
256
6
ByLayer
370
13
48
1
60
0
100
AcDbSpline
70
4
71
3
72
8
73
4
40
0
40
0
40
0
40
0
40
1
40
1
40
1
40
1
41
1
10
55.8825621452735
20
-24.8020329056199
30
0
41
1
10
55.8165691639542
20
-24.6530340750598
30
0
41
1
10
55.7472851478721
20
-24.5048655326272
30
0
41
1
10
55.6639115680571
20
-24.3660827624861
30
0
0
SPLINE
5
1E9
100
AcDbEntity
8
1
62
256
6
ByLayer
370
13
48
1
60
0
100
AcDbSpline
70
4
71
3
72
10
73
6
40
0
40
0
40
0
40
0
40
0.140418403423082
40
0.140418403423082
40
1
40
1
40
1
40
1
41
1
10
57.2950622867786
20
-26.549169449934
30
0
41
1
10
57.2949786281127
20
-26.5491668597205
30
0
41
1
10
57.2948949964083
20
-26.5491666556348
30
0
41
1
10
57.2943060068435
20
-26.5491831719814
30
0
41
1
10
57.2937967459171
20
-26.5492933847364
30
0
41
1
10
57.2933275812036
20
-26.5495304557446
30
0
0
SPLINE
5
1EA
100
AcDbEntity
8
1
62
256
6
ByLayer
370
13
48
1
60
0
100
AcDbSpline
70
4
71
3
72
8
73
4
40
0
40
0
40
0
40
0
40
1
40
1
40
1
40
1
41
1
10
57.3981203716814
20
-26.5478480284313
30
0
41
1
10
57.3638409048776
20
-26.549704418651
30
0
41
1
10
57.3294607622627
20
-26.5502344847972
30
0
41
1
10
57.2950622867787
20
-26.549169449934
30
0
0
SPLINE
5
1EB
100
AcDbEntity
8
1
62
256
6
ByLayer
370
13
48
1
60
0
100
AcDbSpline
70
4
71
3
72
8
73
4
40
0
40
0
40
0
40
0
40
1
40
1
40
1
40
1
41
1
10
57.3981203716814
20
-24.4521519715685
30
0
41
1
10
57.3638409048776
20
-24.4502955813487
30
0
41
1
10
57.3294607622627
20
-24.4497655152026
30
0
41
1
10
57.2950622867787
20
-24.4508305500657
30
0
0
SPLINE
5
1EC
100
AcDbEntity
8
1
62
256
6
ByLayer
370
13
48
1
60
0
100
AcDbSpline
70
4
71
3
72
10
73
6
40
0
40
0
40
0
40
0
40
0.140418403423082
40
0.140418403423082
40
1
40
1
40
1
40
1
41
1
10
57.2950622867786
20
-24.4508305500657
30
0
41
1
10
57.2949786281127
20
-24.4508331402792
30
0
41
1
10
57.2948949964083
20
-24.4508333443649
30
0
41
1
10
57.2943060068435
20
-24.4508168280183
30
0
41
1
10
57.2937967459171
20
-24.4507066152633
30
0
41
1
10
57.2933275812036
20
-24.4504695442551
30
0
0
SPLINE
5
1ED
100
AcDbEntity
8
1
62
256
6
ByLayer
370
13
48
1
60
0
100
AcDbSpline
70
4
71
3
72
8
73
4
40
0
40
0
40
0
40
0
40
1
40
1
40
1
40
1
41
1
10
56.8643787537961
20
-26.0563103127399
30
0
41
1
10
56.859967111299
20
-26.0600859171018
30
0
41
1
10
56.8555251065502
20
-26.0638555577374
30
0
41
1
10
56.8510546870628
20
-26.0676195138537
30
0
0
SPLINE
5
1EE
100
AcDbEntity
8
1
62
256
6
ByLayer
370
13
48
1
60
0
100
AcDbSpline
70
4
71
3
72
8
73
4
40
0
40
0
40
0
40
0
40
1
40
1
40
1
40
1
41
1
10
56.8510546870628
20
-24.9323804861461
30
0
41
1
10
56.8555251065502
20
-24.9361444422623
30
0
41
1
10
56.859967111299
20
-24.939914082898
30
0
41
1
10
56.8643787537961
20
-24.9436896872598
30
0
0
SPLINE
5
1EF
100
AcDbEntity
8
1
62
256
6
ByLayer
370
13
48
1
60
0
100
AcDbSpline
70
4
71
3
72
12
73
8
40
0
40
0
40
0
40
0
40
0.473871515909109
40
0.473871515909109
40
0.928528687587425
40
0.928528687587425
40
1
40
1
40
1
40
1
41
1
10
57.18962014135
20
-25.2114277736804
30
0
41
1
10
57.1605769079864
20
-25.1729785205614
30
0
41
1
10
57.138076503972
20
-25.1320708637637
30
0
41
1
10
57.1054858788087
20
-25.0585283835132
30
0
41
1
10
57.0944900899473
20
-25.0248133486183
30
0
41
1
10
57.0859581625813
20
-24.9922594476796
30
0
41
1
10
57.084884631021
20
-24.9879167218484
30
0
41
1
10
57.0838678419132
20
-24.9837267156528
30
0
0
SPLINE
5
1F0
100
AcDbEntity
8
1
62
256
6
ByLayer
370
13
48
1
60
0
100
AcDbSpline
70
4
71
3
72
12
73
8
40
0
40
0
40
0
40
0
40
0.152393412067187
40
0.152393412067187
40
0.68049007519868
40
0.68049007519868
40
1
40
1
40
1
40
1
41
1
10
57.1896201413457
20
-25.2114277736854
30
0
41
1
10
57.2346105972806
20
-25.2024736954455
30
0
41
1
10
57.2812734171468
20
-25.1929834299363
30
0
41
1
10
57.4939294786754
20
-25.1489175551784
30
0
41
1
10
57.6774173301441
20
-25.1088319095363
30
0
41
1
10
57.978376870561
20
-25.0398993350045
30
0
41
1
10
58.0952214954585
20
-25.0123944665233
30
0
41
1
10
58.2112677608008
20
-24.9841589254891
30
0
0
SPLINE
5
1F1
100
AcDbEntity
8
1
62
256
6
ByLayer
370
13
48
1
60
0
100
AcDbSpline
70
4
71
3
72
12
73
8
40
0
40
0
40
0
40
0
40
0.453713856043948
40
0.453713856043948
40
0.935255270278036
40
0.935255270278036
40
1
40
1
40
1
40
1
41
1
10
57.0838678419132
20
-26.0162732843469
30
0
41
1
10
57.0902549278144
20
-25.9899532448314
30
0
41
1
10
57.0997841086873
20
-25.9576855385582
30
0
41
1
10
57.1293410835708
20
-25.8854599986053
30
0
41
1
10
57.1503116579037
20
-25.8441812682374
30
0
41
1
10
57.1817069341031
20
-25.7992580890006
30
0
41
1
10
57.1855997151618
20
-25.7938947185575
30
0
41
1
10
57.1896201413555
20
-25.788572226312
30
0
0
SPLINE
5
1F2
100
AcDbEntity
8
1
62
256
6
ByLayer
370
13
48
1
60
0
100
AcDbSpline
70
4
71
3
72
12
73
8
40
0
40
0
40
0
40
0
40
0.152393412053729
40
0.152393412053729
40
0.680490075193607
40
0.680490075193607
40
1
40
1
40
1
40
1
41
1
10
57.1896201413597
20
-25.7885722263171
30
0
41
1
10
57.2346105972902
20
-25.7975263045562
30
0
41
1
10
57.2812734171518
20
-25.8070165700645
30
0
41
1
10
57.4939294786754
20
-25.8510824448214
30
0
41
1
10
57.6774173301441
20
-25.8911680904634
30
0
41
1
10
57.978376870561
20
-25.9601006649952
30
0
41
1
10
58.0952214954585
20
-25.9876055334765
30
0
41
1
10
58.2112677608008
20
-26.0158410745106
30
0
0
SPLINE
5
1F3
100
AcDbEntity
8
1
62
256
6
ByLayer
370
13
48
1
60
0
100
AcDbSpline
70
4
71
3
72
16
73
12
40
0
40
0
40
0
40
0
40
0.257384746008501
40
0.257384746008501
40
0.483485531381172
40
0.483485531381172
40
0.71945910330869
40
0.71945910330869
40
0.925748185145375
40
0.925748185145375
40
1
40
1
40
1
40
1
41
1
10
56.0610166945645
20
-25.9940882031481
30
0
41
1
10
56.0316687367362
20
-25.9915861532452
30
0
41
1
10
56.0016686457385
20
-25.9930316735146
30
0
41
1
10
55.9476222628196
20
-26.0030255811652
30
0
41
1
10
55.9228412392242
20
-26.0107769362004
30
0
41
1
10
55.8759336807441
20
-26.0321780148551
30
0
41
1
10
55.8535298246701
20
-26.0462768998188
30
0
41
1
10
55.8168300974004
20
-26.0773137419916
30
0
41
1
10
55.8015959942175
20
-26.0939052091306
30
0
41
1
10
55.7843415664157
20
-26.1184150272252
30
0
41
1
10
55.7800684610182
20
-26.1251384780967
30
0
41
1
10
55.7761342837701
20
-26.1320289653287
30
0
0
SPLINE
5
1F4
100
AcDbEntity
8
1
62
256
6
ByLayer
370
13
48
1
60
0
100
AcDbSpline
70
4
71
3
72
16
73
12
40
0
40
0
40
0
40
0
40
0.215940694014332
40
0.215940694014332
40
0.440749342864023
40
0.440749342864023
40
0.6480631149087
40
0.6480631149087
40
0.900502256755734
40
0.900502256755734
40
1
40
1
40
1
40
1
41
1
10
55.7761342837701
20
-24.8679710346725
30
0
41
1
10
55.7874887091377
20
-24.8878576635884
30
0
41
1
10
55.8017703058923
20
-24.9064361598136
30
0
41
1
10
55.8355311178213
20
-24.9399193928967
30
0
41
1
10
55.8554935542142
20
-24.9549357614887
30
0
41
1
10
55.8971485157203
20
-24.9784750870558
30
0
41
1
10
55.9188925805651
20
-24.987589647721
30
0
41
1
10
55.9687388690062
20
-25.0021464515233
30
0
41
1
10
55.9977360562636
20
-25.0065221205435
30
0
41
1
10
56.0380565109324
20
-25.0072707033974
30
0
41
1
10
56.0495709364867
20
-25.0068876009637
30
0
41
1
10
56.0610166945642
20
-25.005911796853
30
0
0
SPLINE
5
1F5
100
AcDbEntity
8
1
62
256
6
ByLayer
370
13
48
1
60
0
100
AcDbSpline
70
4
71
3
72
14
73
10
40
0
40
0
40
0
40
0
40
0.0140696667047013
40
0.0140696667047013
40
0.158297294424887
40
0.158297294424887
40
0.557403345933072
40
0.557403345933072
40
1
40
1
40
1
40
1
41
1
10
56.0387159227632
20
-25.1609670367588
30
0
41
1
10
56.0375460584102
20
-25.1611302068006
30
0
41
1
10
56.036375468005
20
-25.1612893370034
30
0
41
1
10
56.0230171191251
20
-25.1630656762816
30
0
41
1
10
56.0107456069811
20
-25.1642969270918
30
0
41
1
10
55.9650925286651
20
-25.1674390259888
30
0
41
1
10
55.9314247709742
20
-25.1668145658748
30
0
41
1
10
55.8656728605842
20
-25.1597035542508
30
0
41
1
10
55.8330791217041
20
-25.1524710109448
30
0
41
1
10
55.8056329534176
20
-25.1423064434264
30
0
0
SPLINE
5
1F6
100
AcDbEntity
8
1
62
256
6
ByLayer
370
13
48
1
60
0
100
AcDbSpline
70
4
71
3
72
8
73
4
40
0
40
0
40
0
40
0
40
1
40
1
40
1
40
1
41
1
10
55.8056329534175
20
-25.142306443405
30
0
41
1
10
55.796339183532
20
-25.1388645366697
30
0
41
1
10
55.7875722949159
20
-25.1354048260507
30
0
41
1
10
55.7794417210372
20
-25.1320021197186
30
0
0
SPLINE
5
1F7
100
AcDbEntity
8
1
62
256
6
ByLayer
370
13
48
1
60
0
100
AcDbSpline
70
4
71
3
72
10
73
6
40
0
40
0
40
0
40
0
40
0.782589980152529
40
0.782589980152529
40
1
40
1
40
1
40
1
41
1
10
55.7761342837701
20
-24.8679710346725
30
0
41
1
10
55.7750264075113
20
-24.9278868040868
30
0
41
1
10
55.7733409185196
20
-24.9972283883655
30
0
41
1
10
55.7768419616687
20
-25.0902982850525
30
0
41
1
10
55.7779402791545
20
-25.1110249027804
30
0
41
1
10
55.7794417210385
20
-25.1320021197165
30
0
0
SPLINE
5
1F8
100
AcDbEntity
8
1
62
256
6
ByLayer
370
13
48
1
60
0
100
AcDbSpline
70
4
71
3
72
10
73
6
40
0
40
0
40
0
40
0
40
0.217410019846355
40
0.217410019846355
40
1
40
1
40
1
40
1
41
1
10
55.7794417210371
20
-25.867997880282
30
0
41
1
10
55.777940279153
20
-25.8889750972181
30
0
41
1
10
55.7768419616687
20
-25.9097017149472
30
0
41
1
10
55.7733409185196
20
-26.0027716116348
30
0
41
1
10
55.7750264075113
20
-26.0721131959141
30
0
41
1
10
55.7761342837701
20
-26.1320289653287
30
0
0
SPLINE
5
1F9
100
AcDbEntity
8
1
62
256
6
ByLayer
370
13
48
1
60
0
100
AcDbSpline
70
4
71
3
72
8
73
4
40
0
40
0
40
0
40
0
40
1
40
1
40
1
40
1
41
1
10
55.7794417210371
20
-25.867997880282
30
0
41
1
10
55.7875722949159
20
-25.8645951739498
30
0
41
1
10
55.796339183532
20
-25.8611354633301
30
0
41
1
10
55.8056329534175
20
-25.8576935565949
30
0
0
SPLINE
5
1FA
100
AcDbEntity
8
1
62
256
6
ByLayer
370
13
48
1
60
0
100
AcDbSpline
70
4
71
3
72
14
73
10
40
0
40
0
40
0
40
0
40
0.362290872375782
40
0.362290872375782
40
0.75921727113372
40
0.75921727113372
40
0.985981513552925
40
0.985981513552925
40
1
40
1
40
1
40
1
41
1
10
55.8056329534176
20
-25.8576935565734
30
0
41
1
10
55.8281812464505
20
-25.8493428955789
30
0
41
1
10
55.8541207849953
20
-25.8429736241296
30
0
41
1
10
55.9118571823039
20
-25.8344830133914
30
0
41
1
10
55.9447419197083
20
-25.8327066008655
30
0
41
1
10
55.9968158183066
20
-25.8344356382935
30
0
41
1
10
56.0161285437686
20
-25.8360183087435
30
0
41
1
10
56.0363754679909
20
-25.8387106630088
30
0
41
1
10
56.0375460583942
20
-25.8388697931997
30
0
41
1
10
56.0387159227443
20
-25.8390329632371
30
0
0
SPLINE
5
1FB
100
AcDbEntity
8
1
62
256
6
ByLayer
370
13
48
1
60
0
100
AcDbSpline
70
4
71
3
72
12
73
8
40
0
40
0
40
0
40
0
40
0.027753964396557
40
0.027753964396557
40
0.667826589987148
40
0.667826589987148
40
1
40
1
40
1
40
1
41
1
10
55.6639115680571
20
-24.3660827624861
30
0
41
1
10
55.66302249383
20
-24.3665946871149
30
0
41
1
10
55.6621362973346
20
-24.3671065367085
30
0
41
1
10
55.641139438886
20
-24.3792800928329
30
0
41
1
10
55.6223677783528
20
-24.3911474247194
30
0
41
1
10
55.5985834198732
20
-24.4077783083682
30
0
41
1
10
55.5911418620728
20
-24.4133204733209
30
0
41
1
10
55.5846560826642
20
-24.4185200609353
30
0
0
SPLINE
5
1FC
100
AcDbEntity
8
1
62
256
6
ByLayer
370
13
48
1
60
0
100
AcDbSpline
70
4
71
3
72
10
73
6
40
0
40
0
40
0
40
0
40
0.820434354426583
40
0.820434354426583
40
1
40
1
40
1
40
1
41
1
10
55.5772670677278
20
-24.424015668654
30
0
41
1
10
55.6373176229179
20
-24.5427324181904
30
0
41
1
10
55.6907218307757
20
-24.6648162505155
30
0
41
1
10
55.7537878651402
20
-24.8141877093672
30
0
41
1
10
55.765006782063
20
-24.8410617225016
30
0
41
1
10
55.7761342837706
20
-24.8679710346722
30
0
0
SPLINE
5
1FD
100
AcDbEntity
8
1
62
256
6
ByLayer
370
13
48
1
60
0
100
AcDbSpline
70
4
71
3
72
8
73
4
40
0
40
0
40
0
40
0
40
1
40
1
40
1
40
1
41
1
10
55.5846560826642
20
-24.4185200609353
30
0
41
1
10
55.5821308679729
20
-24.4205445015154
30
0
41
1
10
55.5796628452491
20
-24.4223801985339
30
0
41
1
10
55.5772670677278
20
-24.424015668654
30
0
0
SPLINE
5
1FE
100
AcDbEntity
8
1
62
256
6
ByLayer
370
13
48
1
60
0
100
AcDbSpline
70
4
71
3
72
12
73
8
40
0
40
0
40
0
40
0
40
0.0278313206712517
40
0.0278313206712517
40
0.611473023609022
40
0.611473023609022
40
1
40
1
40
1
40
1
41
1
10
55.6639115680654
20
-26.6339172375034
30
0
41
1
10
55.6630224938381
20
-26.6334053128776
30
0
41
1
10
55.6621362973421
20
-26.6328934632879
30
0
41
1
10
55.6428803330612
20
-26.6217292426223
30
0
41
1
10
55.6256423082254
20
-26.6109187529853
30
0
41
1
10
55.6010972420243
20
-26.5940822902433
30
0
41
1
10
55.5922210960019
20
-26.5875447382466
30
0
41
1
10
55.584656082664
20
-26.5814799390643
30
0
0
SPLINE
5
1FF
100
AcDbEntity
8
1
62
256
6
ByLayer
370
13
48
1
60
0
100
AcDbSpline
70
4
71
3
72
8
73
4
40
0
40
0
40
0
40
0
40
1
40
1
40
1
40
1
41
1
10
55.584656082664
20
-26.5814799390643
30
0
41
1
10
55.5821308679729
20
-26.5794554984842
30
0
41
1
10
55.5796628452491
20
-26.5776198014658
30
0
41
1
10
55.5772670677278
20
-26.5759843313458
30
0
0
SPLINE
5
200
100
AcDbEntity
8
1
62
256
6
ByLayer
370
13
48
1
60
0
100
AcDbSpline
70
4
71
3
72
10
73
6
40
0
40
0
40
0
40
0
40
0.819881036339605
40
0.819881036339605
40
1
40
1
40
1
40
1
41
1
10
55.7761342837701
20
-26.1320289653287
30
0
41
1
10
55.7253430321445
20
-26.2548559647256
30
0
41
1
10
55.6729973133249
20
-26.3771935301972
30
0
41
1
10
55.6032770273131
20
-26.5236422096646
30
0
41
1
10
55.5904566776892
20
-26.5499091748829
30
0
41
1
10
55.5772670677279
20
-26.5759843313458
30
0
0
SPLINE
5
201
100
AcDbEntity
8
1
62
256
6
ByLayer
370
13
48
1
60
0
100
AcDbSpline
70
4
71
3
72
12
73
8
40
0
40
0
40
0
40
0
40
0.0277499781510944
40
0.0277499781510944
40
0.667808133384293
40
0.667808133384293
40
1
40
1
40
1
40
1
41
1
10
55.663911568057
20
-24.3660827624861
30
0
41
1
10
55.6629034320478
20
-24.3661611799299
30
0
41
1
10
55.6618982158727
20
-24.3662395951406
30
0
41
1
10
55.6380665525594
20
-24.3681043677515
30
0
41
1
10
55.61651808857
20
-24.3699193486594
30
0
41
1
10
55.5888224267558
20
-24.3724591528697
30
0
41
1
10
55.580073554872
20
-24.3733048712674
30
0
41
1
10
55.5723583203581
20
-24.3740977768681
30
0
0
SPLINE
5
202
100
AcDbEntity
8
1
62
256
6
ByLayer
370
13
48
1
60
0
100
AcDbSpline
70
4
71
3
72
12
73
8
40
0
40
0
40
0
40
0
40
0.0278272716373759
40
0.0278272716373759
40
0.611453167879501
40
0.611453167879501
40
1
40
1
40
1
40
1
41
1
10
55.6639115680571
20
-26.6339172375136
30
0
41
1
10
55.6629034319402
20
-26.6338388216492
30
0
41
1
10
55.6618982154425
20
-26.6337604111762
30
0
41
1
10
55.6400426145075
20
-26.6320502262532
30
0
41
1
10
55.6202762805606
20
-26.6303966595152
30
0
41
1
10
55.5917749645618
20
-26.627824783171
30
0
41
1
10
55.5813573467759
20
-26.6268270658482
30
0
41
1
10
55.5723583203581
20
-26.6259022231316
30
0
0
SPLINE
5
203
100
AcDbEntity
8
1
62
256
6
ByLayer
370
13
48
1
60
0
100
AcDbSpline
70
4
71
3
72
26
73
22
40
0
40
0
40
0
40
0
40
0.102035501666901
40
0.102035501666901
40
0.129284389714829
40
0.129284389714829
40
0.254161410871578
40
0.254161410871578
40
0.386333886983898
40
0.386333886983898
40
0.523125606178389
40
0.523125606178389
40
0.658908540792033
40
0.658908540792033
40
0.795133361230144
40
0.795133361230144
40
0.895568684120736
40
0.895568684120736
40
0.931575554525879
40
0.931575554525879
40
1
40
1
40
1
40
1
41
1
10
55.9964890019636
20
-25.3026645496348
30
0
41
1
10
56.0131393767336
20
-25.3079841234694
30
0
41
1
10
56.0291034127914
20
-25.3156550932708
30
0
41
1
10
56.0463800184522
20
-25.3278720373239
30
0
41
1
10
56.04992822141
20
-25.3306310478253
30
0
41
1
10
56.0686371526018
20
-25.3465700376583
30
0
41
1
10
56.0810099307052
20
-25.362598290587
30
0
41
1
10
56.1005417637306
20
-25.3988739209839
30
0
41
1
10
56.1077186636934
20
-25.4198861104083
30
0
41
1
10
56.116817379671
20
-25.4642649527195
30
0
41
1
10
56.1186673668159
20
-25.4883255343375
30
0
41
1
10
56.1168386014334
20
-25.5351292011225
30
0
41
1
10
56.1131780830524
20
-25.5585218607744
30
0
41
1
10
56.100271409133
20
-25.6016592445897
30
0
41
1
10
56.0908281262292
20
-25.6220284975206
30
0
41
1
10
56.068731185536
20
-25.652503296625
30
0
41
1
10
56.0572851116735
20
-25.6641967965665
30
0
41
1
10
56.0391386222023
20
-25.6773146373364
30
0
41
1
10
56.0340445533438
20
-25.6805566278108
30
0
41
1
10
56.0187059419968
20
-25.6891056025423
30
0
41
1
10
56.0077600338148
20
-25.6937345052238
30
0
41
1
10
55.9964890019636
20
-25.6973354503649
30
0
0
SPLINE
5
204
100
AcDbEntity
8
1
62
256
6
ByLayer
370
13
48
1
60
0
100
AcDbSpline
70
4
71
3
72
14
73
10
40
0
40
0
40
0
40
0
40
0.27475847941734
40
0.27475847941734
40
0.512436463803127
40
0.512436463803127
40
0.749993769781322
40
0.749993769781322
40
1
40
1
40
1
40
1
41
1
10
57.1896201413547
20
-25.7885722263114
30
0
41
1
10
57.2118015893238
20
-25.7404351427235
30
0
41
1
10
57.2306589366166
20
-25.6889104453592
30
0
41
1
10
57.253462576975
20
-25.5891040181781
30
0
41
1
10
57.2590594822314
20
-25.5405550900569
30
0
41
1
10
57.2578279543455
20
-25.4445252259541
30
0
41
1
10
57.2510126304754
20
-25.3962474359845
30
0
41
1
10
57.2272786525577
20
-25.3019245959617
30
0
41
1
10
57.2098376614737
20
-25.255302837987
30
0
41
1
10
57.1896201413508
20
-25.2114277736798
30
0
0
SPLINE
5
205
100
AcDbEntity
8
1
62
256
6
ByLayer
370
13
48
1
60
0
100
AcDbSpline
70
4
71
3
72
8
73
4
40
0
40
0
40
0
40
0
40
1
40
1
40
1
40
1
41
1
10
55.5705951003268
20
-26.6254379281352
30
0
41
1
10
55.5711929686635
20
-26.6254379281352
30
0
41
1
10
55.5717967952489
20
-26.6255881269813
30
0
41
1
10
55.5723583203562
20
-26.625902223117
30
0
0
SPLINE
5
206
100
AcDbEntity
8
1
62
256
6
ByLayer
370
13
48
1
60
0
100
AcDbSpline
70
4
71
3
72
8
73
4
40
0
40
0
40
0
40
0
40
1
40
1
40
1
40
1
41
1
10
55.5723583203562
20
-24.3740977768694
30
0
41
1
10
55.5717967952486
20
-24.3744118730058
30
0
41
1
10
55.5711929686639
20
-24.3745620718645
30
0
41
1
10
55.5705951003268
20
-24.3745620718645
30
0
0
SPLINE
5
207
100
AcDbEntity
8
1
62
256
6
ByLayer
370
13
48
1
60
0
100
AcDbSpline
70
4
71
3
72
10
73
6
40
0
40
0
40
0
40
0
40
0.84896187346875
40
0.84896187346875
40
1
40
1
40
1
40
1
41
1
10
59.9256851850747
20
-24.7352342528895
30
0
41
1
10
59.8912977154034
20
-24.6833914497462
30
0
41
1
10
59.843874742716
20
-24.6399358019811
30
0
41
1
10
59.7838155264513
20
-24.5979302278616
30
0
41
1
10
59.7744787017949
20
-24.5917362922221
30
0
41
1
10
59.7650107000385
20
-24.5857566807602
30
0
0
SPLINE
5
208
100
AcDbEntity
8
1
62
256
6
ByLayer
370
13
48
1
60
0
100
AcDbSpline
70
4
71
3
72
8
73
4
40
0
40
0
40
0
40
0
40
1
40
1
40
1
40
1
41
1
10
59.7650107000385
20
-24.5857566807602
30
0
41
1
10
59.7210937227593
20
-24.5580204733251
30
0
41
1
10
59.6769798114245
20
-24.5305908253662
30
0
41
1
10
59.632560747957
20
-24.5036673369175
30
0
0
SPLINE
5
209
100
AcDbEntity
8
1
62
256
6
ByLayer
370
13
48
1
60
0
100
AcDbSpline
70
4
71
3
72
10
73
6
40
0
40
0
40
0
40
0
40
0.657586553479613
40
0.657586553479613
40
1
40
1
40
1
40
1
41
1
10
59.632560747957
20
-24.5036673369175
30
0
41
1
10
59.6092305437702
20
-24.4895263255162
30
0
41
1
10
59.5864384919004
20
-24.4742029059564
30
0
41
1
10
59.5548281900598
20
-24.4472941054107
30
0
41
1
10
59.5444660370969
20
-24.4373646658892
30
0
41
1
10
59.535515563742
20
-24.4262943891192
30
0
0
SPLINE
5
20A
100
AcDbEntity
8
1
62
256
6
ByLayer
370
13
48
1
60
0
100
AcDbSpline
70
4
71
3
72
10
73
6
40
0
40
0
40
0
40
0
40
0.657586553479614
40
0.657586553479614
40
1
40
1
40
1
40
1
41
1
10
59.632560747957
20
-26.4963326630823
30
0
41
1
10
59.6092305437702
20
-26.5104736744835
30
0
41
1
10
59.5864384919004
20
-26.5257970940433
30
0
41
1
10
59.5548281900598
20
-26.5527058945891
30
0
41
1
10
59.5444660370969
20
-26.5626353341105
30
0
41
1
10
59.535515563742
20
-26.5737056108805
30
0
0
SPLINE
5
20B
100
AcDbEntity
8
1
62
256
6
ByLayer
370
13
48
1
60
0
100
AcDbSpline
70
4
71
3
72
8
73
4
40
0
40
0
40
0
40
0
40
1
40
1
40
1
40
1
41
1
10
59.7650107000385
20
-26.4142433192396
30
0
41
1
10
59.7210937227593
20
-26.4419795266747
30
0
41
1
10
59.6769798114245
20
-26.4694091746335
30
0
41
1
10
59.632560747957
20
-26.4963326630823
30
0
0
SPLINE
5
20C
100
AcDbEntity
8
1
62
256
6
ByLayer
370
13
48
1
60
0
100
AcDbSpline
70
4
71
3
72
10
73
6
40
0
40
0
40
0
40
0
40
0.84896187346875
40
0.84896187346875
40
1
40
1
40
1
40
1
41
1
10
59.9256851850747
20
-26.2647657471103
30
0
41
1
10
59.8912977154034
20
-26.3166085502535
30
0
41
1
10
59.843874742716
20
-26.3600641980187
30
0
41
1
10
59.7838155264513
20
-26.4020697721382
30
0
41
1
10
59.7744787017949
20
-26.4082637077777
30
0
41
1
10
59.7650107000385
20
-26.4142433192396
30
0
0
SPLINE
5
20D
100
AcDbEntity
8
1
62
256
6
ByLayer
370
13
48
1
60
0
100
AcDbSpline
70
4
71
3
72
14
73
10
40
0
40
0
40
0
40
0
40
0.0140322366304758
40
0.0140322366304758
40
0.158091565624719
40
0.158091565624719
40
0.557043656612004
40
0.557043656612004
40
1
40
1
40
1
40
1
41
1
10
56.0387159228241
20
-25.1609670367486
30
0
41
1
10
56.0379360645915
20
-25.1617277696409
30
0
41
1
10
56.0371559091054
20
-25.1624850537707
30
0
41
1
10
56.0282316685991
20
-25.1710835651133
30
0
41
1
10
56.0199670064645
20
-25.1785038459878
30
0
41
1
10
55.9889415558847
20
-25.2043673979609
30
0
41
1
10
55.9655368582111
20
-25.2198053070195
30
0
41
1
10
55.9187541033905
20
-25.2424891446818
30
0
41
1
10
55.8949133424734
20
-25.2490099070337
30
0
41
1
10
55.8743263124385
20
-25.2495141354523
30
0
0
SPLINE
5
20E
100
AcDbEntity
8
1
62
256
6
ByLayer
370
13
48
1
60
0
100
AcDbSpline
70
4
71
3
72
14
73
10
40
0
40
0
40
0
40
0
40
0.362636115875106
40
0.362636115875106
40
0.759502173372961
40
0.759502173372961
40
0.986017775516147
40
0.986017775516147
40
1
40
1
40
1
40
1
41
1
10
55.8743263124385
20
-25.7504858645474
30
0
41
1
10
55.8912406290799
20
-25.7509001389289
30
0
41
1
10
55.9102969105352
20
-25.7553333287586
30
0
41
1
10
55.9517568775429
20
-25.7724121105697
30
0
41
1
10
55.9748386743135
20
-25.7860125947447
30
0
41
1
10
56.0105592323138
20
-25.8132263585058
30
0
41
1
10
56.023626747303
20
-25.82447959032
30
0
41
1
10
56.0371559091053
20
-25.837514946229
30
0
41
1
10
56.0379360645915
20
-25.8382722303589
30
0
41
1
10
56.0387159228241
20
-25.8390329632512
30
0
0
SPLINE
5
20F
100
AcDbEntity
8
1
62
256
6
ByLayer
370
13
48
1
60
0
100
AcDbSpline
70
4
71
3
72
8
73
4
40
0
40
0
40
0
40
0
40
1
40
1
40
1
40
1
41
1
10
55.8743263124398
20
-25.2495141354547
30
0
41
1
10
55.9107270135585
20
-25.2675286793668
30
0
41
1
10
55.9486103280918
20
-25.284119884111
30
0
41
1
10
55.9875073723823
20
-25.2992443482016
30
0
0
SPLINE
5
210
100
AcDbEntity
8
1
62
256
6
ByLayer
370
13
48
1
60
0
100
AcDbSpline
70
4
71
3
72
10
73
6
40
0
40
0
40
0
40
0
40
0.638823417468865
40
0.638823417468865
40
1
40
1
40
1
40
1
41
1
10
59.5900286630425
20
-26.4350239663355
30
0
41
1
10
59.566841990865
20
-26.4547106579255
30
0
41
1
10
59.5449724664755
20
-26.4765022876986
30
0
41
1
10
59.5161775948407
20
-26.5150198729895
30
0
41
1
10
59.5068123576004
20
-26.5299982956348
30
0
41
1
10
59.4995116901682
20
-26.5459979598173
30
0
0
SPLINE
5
211
100
AcDbEntity
8
1
62
256
6
ByLayer
370
13
48
1
60
0
100
AcDbSpline
70
4
71
3
72
16
73
12
40
0
40
0
40
0
40
0
40
0.0355702320992689
40
0.0355702320992689
40
0.09050817101665
40
0.09050817101665
40
0.198049233530909
40
0.198049233530909
40
0.436780146594192
40
0.436780146594192
40
1
40
1
40
1
40
1
41
1
10
59.4647600217563
20
-26.6263220355864
30
0
41
1
10
59.4651586810189
20
-26.6253552596237
30
0
41
1
10
59.4655584542086
20
-26.6243889211319
30
0
41
1
10
59.4665771815565
20
-26.6219268549542
30
0
41
1
10
59.4671970808021
20
-26.6204315089404
30
0
41
1
10
59.4690334070427
20
-26.6160112009544
30
0
41
1
10
59.4702528942054
20
-26.6130877962549
30
0
41
1
10
59.4741930527674
20
-26.6036898385928
30
0
41
1
10
59.4769343827304
20
-26.5972280597342
30
0
41
1
10
59.4861946238307
20
-26.5756594360557
30
0
41
1
10
59.4928248586496
20
-26.5606523814508
30
0
41
1
10
59.4995116901683
20
-26.5459979598173
30
0
0
SPLINE
5
212
100
AcDbEntity
8
1
62
256
6
ByLayer
370
13
48
1
60
0
100
AcDbSpline
70
4
71
3
72
8
73
4
40
0
40
0
40
0
40
0
40
1
40
1
40
1
40
1
41
1
10
59.4647600217523
20
-26.6263220355883
30
0
41
1
10
59.3478492133727
20
-26.6570735908759
30
0
41
1
10
59.2265101800571
20
-26.6720572868027
30
0
41
1
10
59.1060768987951
20
-26.6748687981323
30
0
0
SPLINE
5
213
100
AcDbEntity
8
1
62
256
6
ByLayer
370
13
48
1
60
0
100
AcDbSpline
70
4
71
3
72
16
73
12
40
0
40
0
40
0
40
0
40
0.0355702320992689
40
0.0355702320992689
40
0.09050817101665
40
0.09050817101665
40
0.198049233530909
40
0.198049233530909
40
0.436780146594192
40
0.436780146594192
40
1
40
1
40
1
40
1
41
1
10
59.4647600217563
20
-24.3736779644134
30
0
41
1
10
59.4651586810189
20
-24.374644740376
30
0
41
1
10
59.4655584542086
20
-24.3756110788678
30
0
41
1
10
59.4665771815565
20
-24.3780731450456
30
0
41
1
10
59.4671970808021
20
-24.3795684910593
30
0
41
1
10
59.4690334070427
20
-24.3839887990454
30
0
41
1
10
59.4702528942054
20
-24.3869122037449
30
0
41
1
10
59.4741930527674
20
-24.396310161407
30
0
41
1
10
59.4769343827304
20
-24.4027719402655
30
0
41
1
10
59.4861946238307
20
-24.424340563944
30
0
41
1
10
59.4928248586496
20
-24.4393476185489
30
0
41
1
10
59.4995116901683
20
-24.4540020401824
30
0
0
SPLINE
5
214
100
AcDbEntity
8
1
62
256
6
ByLayer
370
13
48
1
60
0
100
AcDbSpline
70
4
71
3
72
8
73
4
40
0
40
0
40
0
40
0
40
1
40
1
40
1
40
1
41
1
10
55.9875073723823
20
-25.7007556517982
30
0
41
1
10
55.9486103280918
20
-25.7158801158887
30
0
41
1
10
55.9107270135585
20
-25.732471320633
30
0
41
1
10
55.8743263124398
20
-25.750485864545
30
0
0
SPLINE
5
215
100
AcDbEntity
8
1
62
256
6
ByLayer
370
13
48
1
60
0
100
AcDbSpline
70
4
71
3
72
10
73
6
40
0
40
0
40
0
40
0
40
0.638823417468865
40
0.638823417468865
40
1
40
1
40
1
40
1
41
1
10
59.5900286630425
20
-24.5649760336642
30
0
41
1
10
59.566841990865
20
-24.5452893420743
30
0
41
1
10
59.5449724664755
20
-24.5234977123011
30
0
41
1
10
59.5161775948407
20
-24.4849801270102
30
0
41
1
10
59.5068123576004
20
-24.4700017043649
30
0
41
1
10
59.4995116901682
20
-24.4540020401824
30
0
0
SPLINE
5
216
100
AcDbEntity
8
1
62
256
6
ByLayer
370
13
48
1
60
0
100
AcDbSpline
70
4
71
3
72
8
73
4
40
0
40
0
40
0
40
0
40
1
40
1
40
1
40
1
41
1
10
59.4647600217523
20
-24.3736779644115
30
0
41
1
10
59.3478492133727
20
-24.3429264091238
30
0
41
1
10
59.2265101800571
20
-24.3279427131971
30
0
41
1
10
59.1060768987951
20
-24.3251312018675
30
0
0
SPLINE
5
217
100
AcDbEntity
8
1
62
256
6
ByLayer
370
13
48
1
60
0
100
AcDbSpline
70
4
71
3
72
8
73
4
40
0
40
0
40
0
40
0
40
1
40
1
40
1
40
1
41
1
10
55.9875073723823
20
-25.2992443482016
30
0
41
1
10
55.990499776207
20
-25.3003844320355
30
0
41
1
10
55.9934936621595
20
-25.3015244996309
30
0
41
1
10
55.9964890019636
20
-25.3026645496348
30
0
0
SPLINE
5
218
100
AcDbEntity
8
1
62
256
6
ByLayer
370
13
48
1
60
0
100
AcDbSpline
70
4
71
3
72
8
73
4
40
0
40
0
40
0
40
0
40
1
40
1
40
1
40
1
41
1
10
55.9964890019636
20
-25.6973354503649
30
0
41
1
10
55.9934936621595
20
-25.6984755003689
30
0
41
1
10
55.990499776207
20
-25.6996155679643
30
0
41
1
10
55.9875073723823
20
-25.7007556517982
30
0
0
SPLINE
5
219
100
AcDbEntity
8
1
62
256
6
ByLayer
370
13
48
1
60
0
100
AcDbSpline
70
4
71
3
72
8
73
4
40
0
40
0
40
0
40
0
40
1
40
1
40
1
40
1
41
1
10
55.8661840397672
20
-25.2489756444471
30
0
41
1
10
55.8686096513477
20
-25.2489756444471
30
0
41
1
10
55.8713428169147
20
-25.249151640098
30
0
41
1
10
55.8743263124381
20
-25.2495141354524
30
0
0
SPLINE
5
21A
100
AcDbEntity
8
1
62
256
6
ByLayer
370
13
48
1
60
0
100
AcDbSpline
70
4
71
3
72
16
73
12
40
0
40
0
40
0
40
0
40
0.0355303527441481
40
0.0355303527441481
40
0.0917680599187357
40
0.0917680599187357
40
0.200182520092063
40
0.200182520092063
40
0.439533504711995
40
0.439533504711995
40
1
40
1
40
1
40
1
41
1
10
59.4647600217524
20
-26.6263220355883
30
0
41
1
10
59.4655855998636
20
-26.6256883080064
30
0
41
1
10
59.4664120929671
20
-26.6250550739893
30
0
41
1
10
59.4685507889318
20
-26.6234171544558
30
0
41
1
10
59.4698640688781
20
-26.6224128406858
30
0
41
1
10
59.4737129338245
20
-26.6194739771003
30
0
41
1
10
59.4762525536656
20
-26.617540518408
30
0
41
1
10
59.4844114693382
20
-26.6113492612903
30
0
41
1
10
59.4900517136001
20
-26.6071009405137
30
0
41
1
10
59.5089188273347
20
-26.5930044717438
30
0
41
1
10
59.5222466489562
20
-26.5832317389364
30
0
41
1
10
59.535515563742
20
-26.5737056108805
30
0
0
SPLINE
5
21B
100
AcDbEntity
8
1
62
256
6
ByLayer
370
13
48
1
60
0
100
AcDbSpline
70
4
71
3
72
8
73
4
40
0
40
0
40
0
40
0
40
1
40
1
40
1
40
1
41
1
10
55.8743263124385
20
-25.7504858645474
30
0
41
1
10
55.871342816915
20
-25.7508483599018
30
0
41
1
10
55.8686096513474
20
-25.7510243555528
30
0
41
1
10
55.8661840397669
20
-25.7510243555528
30
0
0
SPLINE
5
21C
100
AcDbEntity
8
1
62
256
6
ByLayer
370
13
48
1
60
0
100
AcDbSpline
70
4
71
3
72
16
73
12
40
0
40
0
40
0
40
0
40
0.0355303527441481
40
0.0355303527441481
40
0.0917680599187357
40
0.0917680599187357
40
0.200182520092063
40
0.200182520092063
40
0.439533504711995
40
0.439533504711995
40
1
40
1
40
1
40
1
41
1
10
59.4647600217524
20
-24.3736779644115
30
0
41
1
10
59.4655855998636
20
-24.3743116919934
30
0
41
1
10
59.4664120929671
20
-24.3749449260104
30
0
41
1
10
59.4685507889318
20
-24.3765828455439
30
0
41
1
10
59.4698640688781
20
-24.377587159314
30
0
41
1
10
59.4737129338245
20
-24.3805260228995
30
0
41
1
10
59.4762525536656
20
-24.3824594815917
30
0
41
1
10
59.4844114693382
20
-24.3886507387094
30
0
41
1
10
59.4900517136001
20
-24.392899059486
30
0
41
1
10
59.5089188273347
20
-24.4069955282559
30
0
41
1
10
59.5222466489562
20
-24.4167682610633
30
0
41
1
10
59.535515563742
20
-24.4262943891192
30
0
0
SPLINE
5
21D
100
AcDbEntity
8
1
62
256
6
ByLayer
370
13
48
1
60
0
100
AcDbSpline
70
4
71
3
72
8
73
4
40
0
40
0
40
0
40
0
40
1
40
1
40
1
40
1
41
1
10
59.1060768987951
20
-26.6748687981323
30
0
41
1
10
58.9916360304015
20
-26.6776921713631
30
0
41
1
10
58.8749005955276
20
-26.6739389632706
30
0
41
1
10
58.7587805434613
20
-26.6784092273822
30
0
0
SPLINE
5
21E
100
AcDbEntity
8
1
62
256
6
ByLayer
370
13
48
1
60
0
100
AcDbSpline
70
4
71
3
72
8
73
4
40
0
40
0
40
0
40
0
40
1
40
1
40
1
40
1
41
1
10
59.1060768987951
20
-24.3251312018675
30
0
41
1
10
58.9916360304015
20
-24.3223078286366
30
0
41
1
10
58.8749005955276
20
-24.3260610367291
30
0
41
1
10
58.7587805434613
20
-24.3215907726175
30
0
0
SPLINE
5
21F
100
AcDbEntity
8
1
62
256
6
ByLayer
370
13
48
1
60
0
100
AcDbSpline
70
4
71
3
72
10
73
6
40
0
40
0
40
0
40
0
40
0.155061591761428
40
0.155061591761428
40
1
40
1
40
1
40
1
41
1
10
59.7213895076228
20
-24.6463012229621
30
0
41
1
10
59.7304066184319
20
-24.6511070680178
30
0
41
1
10
59.7393274149503
20
-24.6560980303297
30
0
41
1
10
59.7954797246053
20
-24.6892192237273
30
0
41
1
10
59.8409287471059
20
-24.7234820606993
30
0
41
1
10
59.8749811562301
20
-24.7665870890603
30
0
0
SPLINE
5
220
100
AcDbEntity
8
1
62
256
6
ByLayer
370
13
48
1
60
0
100
AcDbSpline
70
4
71
3
72
10
73
6
40
0
40
0
40
0
40
0
40
0.155061591761428
40
0.155061591761428
40
1
40
1
40
1
40
1
41
1
10
59.7213895076228
20
-26.3536987770376
30
0
41
1
10
59.7304066184319
20
-26.3488929319819
30
0
41
1
10
59.7393274149503
20
-26.3439019696701
30
0
41
1
10
59.7954797246053
20
-26.3107807762725
30
0
41
1
10
59.8409287471059
20
-26.2765179393005
30
0
41
1
10
59.8749811562301
20
-26.2334129109394
30
0
0
SPLINE
5
221
100
AcDbEntity
8
1
62
256
6
ByLayer
370
13
48
1
60
0
100
AcDbSpline
70
4
71
3
72
10
73
6
40
0
40
0
40
0
40
0
40
0.596085739020476
40
0.596085739020476
40
1
40
1
40
1
40
1
41
1
10
59.8964383490931
20
-24.7943932095381
30
0
41
1
10
59.9128939358857
20
-24.8161686778151
30
0
41
1
10
59.9267245821227
20
-24.840597099409
30
0
41
1
10
59.94081187438
20
-24.8842694800439
30
0
41
1
10
59.944038381206
20
-24.9030190147406
30
0
41
1
10
59.9441651422481
20
-24.9216103813396
30
0
0
SPLINE
5
222
100
AcDbEntity
8
1
62
256
6
ByLayer
370
13
48
1
60
0
100
AcDbSpline
70
4
71
3
72
10
73
6
40
0
40
0
40
0
40
0
40
0.596085739020476
40
0.596085739020476
40
1
40
1
40
1
40
1
41
1
10
59.8964383490931
20
-26.2056067904616
30
0
41
1
10
59.9128939358857
20
-26.1838313221846
30
0
41
1
10
59.9267245821227
20
-26.1594029005907
30
0
41
1
10
59.94081187438
20
-26.1157305199558
30
0
41
1
10
59.944038381206
20
-26.0969809852591
30
0
41
1
10
59.9441651422481
20
-26.0783896186602
30
0
0
SPLINE
5
223
100
AcDbEntity
8
1
62
256
6
ByLayer
370
13
48
1
60
0
100
AcDbSpline
70
4
71
3
72
8
73
4
40
0
40
0
40
0
40
0
40
1
40
1
40
1
40
1
41
1
10
59.8749811562301
20
-26.2334129109394
30
0
41
1
10
59.8822263780105
20
-26.2242415924232
30
0
41
1
10
59.8893737130963
20
-26.2149553332378
30
0
41
1
10
59.8964383490931
20
-26.2056067904616
30
0
0
SPLINE
5
224
100
AcDbEntity
8
1
62
256
6
ByLayer
370
13
48
1
60
0
100
AcDbSpline
70
4
71
3
72
8
73
4
40
0
40
0
40
0
40
0
40
1
40
1
40
1
40
1
41
1
10
59.8749811562301
20
-24.7665870890603
30
0
41
1
10
59.8822263780105
20
-24.7757584075766
30
0
41
1
10
59.8893737130963
20
-24.7850446667619
30
0
41
1
10
59.8964383490931
20
-24.7943932095381
30
0
0
SPLINE
5
225
100
AcDbEntity
8
1
62
256
6
ByLayer
370
13
48
1
60
0
100
AcDbSpline
70
4
71
3
72
12
73
8
40
0
40
0
40
0
40
0
40
0.0075770979405842
40
0.0075770979405842
40
0.524912447401083
40
0.524912447401083
40
1
40
1
40
1
40
1
41
1
10
59.4213727254144
20
-26.0890756224229
30
0
41
1
10
59.4226938848631
20
-26.0891246359029
30
0
41
1
10
59.4240151186687
20
-26.0891713047737
30
0
41
1
10
59.515463818229
20
-26.0922377930208
30
0
41
1
10
59.6056735270381
20
-26.0874737396071
30
0
41
1
10
59.7786115881781
20
-26.0834174108894
30
0
41
1
10
59.8613940232688
20
-26.0810975498714
30
0
41
1
10
59.9441651422334
20
-26.0783896186555
30
0
0
SPLINE
5
226
100
AcDbEntity
8
1
62
256
6
ByLayer
370
13
48
1
60
0
100
AcDbSpline
70
4
71
3
72
12
73
8
40
0
40
0
40
0
40
0
40
0.0075770979405842
40
0.0075770979405842
40
0.524912447401083
40
0.524912447401083
40
1
40
1
40
1
40
1
41
1
10
59.4213727254144
20
-24.9109243775769
30
0
41
1
10
59.4226938848631
20
-24.9108753640969
30
0
41
1
10
59.4240151186687
20
-24.9108286952261
30
0
41
1
10
59.515463818229
20
-24.9077622069789
30
0
41
1
10
59.6056735270381
20
-24.9125262603926
30
0
41
1
10
59.7786115881781
20
-24.9165825891104
30
0
41
1
10
59.8613940232688
20
-24.9189024501283
30
0
41
1
10
59.9441651422334
20
-24.9216103813443
30
0
0
SPLINE
5
227
100
AcDbEntity
8
1
62
256
6
ByLayer
370
13
48
1
60
0
100
AcDbSpline
70
4
71
3
72
8
73
4
40
0
40
0
40
0
40
0
40
1
40
1
40
1
40
1
41
1
10
58.7587805434613
20
-26.6784092273822
30
0
41
1
10
58.6587308196864
20
-26.6818490590907
30
0
41
1
10
58.5579761895169
20
-26.6778843275054
30
0
41
1
10
58.4587805434613
20
-26.664424185351
30
0
0
SPLINE
5
228
100
AcDbEntity
8
1
62
256
6
ByLayer
370
13
48
1
60
0
100
AcDbSpline
70
4
71
3
72
8
73
4
40
0
40
0
40
0
40
0
40
1
40
1
40
1
40
1
41
1
10
58.7587805434613
20
-24.3215907726175
30
0
41
1
10
58.6587308196864
20
-24.3181509409091
30
0
41
1
10
58.5579761895169
20
-24.3221156724944
30
0
41
1
10
58.4587805434613
20
-24.3355758146487
30
0
0
SPLINE
5
229
100
AcDbEntity
8
1
62
256
6
ByLayer
370
13
48
1
60
0
100
AcDbSpline
70
4
71
3
72
16
73
12
40
0
40
0
40
0
40
0
40
0.113631665737173
40
0.113631665737173
40
0.758132216188134
40
0.758132216188134
40
0.942823120099093
40
0.942823120099093
40
0.947778003019258
40
0.947778003019258
40
1
40
1
40
1
40
1
41
1
10
58.2112677608008
20
-24.9841589254891
30
0
41
1
10
58.2332807942052
20
-24.9771548566282
30
0
41
1
10
58.2554088133189
20
-24.9705022088567
30
0
41
1
10
58.4026697940168
20
-24.9288144307203
30
0
41
1
10
58.5333481685156
20
-24.9060720412508
30
0
41
1
10
58.7009734748332
20
-24.9075565740161
30
0
41
1
10
58.7386296238166
20
-24.9093628094534
30
0
41
1
10
58.77730048355
20
-24.9107409642208
30
0
41
1
10
58.7783108496887
20
-24.9107769815542
30
0
41
1
10
58.7899699703881
20
-24.911192624761
30
0
41
1
10
58.80061882194
20
-24.911569538127
30
0
41
1
10
58.8112677608008
20
-24.9119439585289
30
0
0
SPLINE
5
22A
100
AcDbEntity
8
1
62
256
6
ByLayer
370
13
48
1
60
0
100
AcDbSpline
70
4
71
3
72
16
73
12
40
0
40
0
40
0
40
0
40
0.113631665737173
40
0.113631665737173
40
0.758132216188134
40
0.758132216188134
40
0.942823120099093
40
0.942823120099093
40
0.947778003019258
40
0.947778003019258
40
1
40
1
40
1
40
1
41
1
10
58.2112677608008
20
-26.0158410745106
30
0
41
1
10
58.2332807942052
20
-26.0228451433716
30
0
41
1
10
58.2554088133189
20
-26.029497791143
30
0
41
1
10
58.4026697940168
20
-26.0711855692795
30
0
41
1
10
58.5333481685156
20
-26.0939279587489
30
0
41
1
10
58.7009734748332
20
-26.0924434259836
30
0
41
1
10
58.7386296238166
20
-26.0906371905464
30
0
41
1
10
58.77730048355
20
-26.089259035779
30
0
41
1
10
58.7783108496887
20
-26.0892230184455
30
0
41
1
10
58.7899699703881
20
-26.0888073752388
30
0
41
1
10
58.80061882194
20
-26.0884304618728
30
0
41
1
10
58.8112677608008
20
-26.0880560414708
30
0
0
SPLINE
5
22B
100
AcDbEntity
8
1
62
256
6
ByLayer
370
13
48
1
60
0
100
AcDbSpline
70
4
71
3
72
10
73
6
40
0
40
0
40
0
40
0
40
0.411878619131049
40
0.411878619131049
40
1
40
1
40
1
40
1
41
1
10
59.9970257408783
20
-26.0783896186556
30
0
41
1
10
59.9970257408783
20
-26.1014981245595
30
0
41
1
10
59.9938567437525
20
-26.1247801424886
30
0
41
1
10
59.9795589487909
20
-26.1788475536442
30
0
41
1
10
59.9654981180154
20
-26.2093262690557
30
0
41
1
10
59.9480487400853
20
-26.2370701384849
30
0
0
SPLINE
5
22C
100
AcDbEntity
8
1
62
256
6
ByLayer
370
13
48
1
60
0
100
AcDbSpline
70
4
71
3
72
10
73
6
40
0
40
0
40
0
40
0
40
0.411878619131049
40
0.411878619131049
40
1
40
1
40
1
40
1
41
1
10
59.9970257408783
20
-24.9216103813441
30
0
41
1
10
59.9970257408783
20
-24.8985018754403
30
0
41
1
10
59.9938567437525
20
-24.8752198575112
30
0
41
1
10
59.9795589487909
20
-24.8211524463555
30
0
41
1
10
59.9654981180154
20
-24.7906737309441
30
0
41
1
10
59.9480487400853
20
-24.7629298615149
30
0
0
SPLINE
5
22D
100
AcDbEntity
8
1
62
256
6
ByLayer
370
13
48
1
60
0
100
AcDbSpline
70
4
71
3
72
8
73
4
40
0
40
0
40
0
40
0
40
1
40
1
40
1
40
1
41
1
10
59.9480487400851
20
-24.7629298615149
30
0
41
1
10
59.9406964490065
20
-24.7535779634927
30
0
41
1
10
59.9332455329699
20
-24.7443294855101
30
0
41
1
10
59.9256851850747
20
-24.7352342528895
30
0
0
SPLINE
5
22E
100
AcDbEntity
8
1
62
256
6
ByLayer
370
13
48
1
60
0
100
AcDbSpline
70
4
71
3
72
8
73
4
40
0
40
0
40
0
40
0
40
1
40
1
40
1
40
1
41
1
10
59.9480487400851
20
-26.2370701384848
30
0
41
1
10
59.9406964490065
20
-26.246422036507
30
0
41
1
10
59.9332455329699
20
-26.2556705144897
30
0
41
1
10
59.9256851850747
20
-26.2647657471103
30
0
0
SPLINE
5
22F
100
AcDbEntity
8
1
62
256
6
ByLayer
370
13
48
1
60
0
100
AcDbSpline
70
4
71
3
72
12
73
8
40
0
40
0
40
0
40
0
40
0.390105015408732
40
0.390105015408732
40
0.395238792462735
40
0.395238792462735
40
1
40
1
40
1
40
1
41
1
10
58.8112677608008
20
-26.0880560414708
30
0
41
1
10
58.8930131894969
20
-26.0859482964434
30
0
41
1
10
58.9750694911571
20
-26.0855375442182
30
0
41
1
10
59.0568134956408
20
-26.0852520424255
30
0
41
1
10
59.0578786372164
20
-26.0852484357164
30
0
41
1
10
59.1833815366521
20
-26.0848368638382
30
0
41
1
10
59.306145891386
20
-26.0859407825702
30
0
41
1
10
59.4213727254144
20
-26.0890756224229
30
0
0
SPLINE
5
230
100
AcDbEntity
8
1
62
256
6
ByLayer
370
13
48
1
60
0
100
AcDbSpline
70
4
71
3
72
12
73
8
40
0
40
0
40
0
40
0
40
0.390105015408732
40
0.390105015408732
40
0.395238792462735
40
0.395238792462735
40
1
40
1
40
1
40
1
41
1
10
58.8112677608008
20
-24.9119439585289
30
0
41
1
10
58.8930131894969
20
-24.9140517035564
30
0
41
1
10
58.9750694911571
20
-24.9144624557816
30
0
41
1
10
59.0568134956408
20
-24.9147479575742
30
0
41
1
10
59.0578786372164
20
-24.9147515642833
30
0
41
1
10
59.1833815366521
20
-24.9151631361615
30
0
41
1
10
59.306145891386
20
-24.9140592174296
30
0
41
1
10
59.4213727254144
20
-24.9109243775769
30
0
0
SPLINE
5
231
100
AcDbEntity
8
1
62
256
6
ByLayer
370
18
48
1
60
0
100
AcDbSpline
70
4
71
3
72
16
73
12
40
0
40
0
40
0
40
0
40
0.210601603648632
40
0.210601603648632
40
0.421213120937357
40
0.421213120937357
40
0.631488126460197
40
0.631488126460197
40
0.839116239420829
40
0.839116239420829
40
1
40
1
40
1
40
1
41
1
10
60.0046912194301
20
-24.1944437461469
30
0
41
1
10
60.004885104101
20
-24.1715216376432
30
0
41
1
10
60.0011366843306
20
-24.1482847151601
30
0
41
1
10
59.9864049129777
20
-24.1050246352939
30
0
41
1
10
59.9752157349576
20
-24.0844002652529
30
0
41
1
10
59.9470242400575
20
-24.0486547877768
30
0
41
1
10
59.92963219728
20
-24.0330255938252
30
0
41
1
10
59.8913444393929
20
-24.0091236592203
30
0
41
1
10
59.869954321154
20
-24.0004299636861
30
0
41
1
10
59.8309045828753
20
-23.9920592694609
30
0
41
1
10
59.8131262908525
20
-23.9907181472799
30
0
41
1
10
59.7956316353027
20
-23.9917962023392
30
0
0
SPLINE
5
232
100
AcDbEntity
8
1
62
256
6
ByLayer
370
18
48
1
60
0
100
AcDbSpline
70
4
71
3
72
10
73
6
40
0
40
0
40
0
40
0
40
0.584711417492912
40
0.584711417492912
40
1
40
1
40
1
40
1
41
1
10
51.6351939284819
20
-26.7499999999999
30
0
41
1
10
51.6376165600087
20
-26.7499999999999
30
0
41
1
10
51.6400566535847
20
-26.7499999999999
30
0
41
1
10
51.6442589248979
20
-26.7499999999999
30
0
41
1
10
51.6460127381757
20
-26.7499999999999
30
0
41
1
10
51.6477750315741
20
-26.7499999999999
30
0
0
SPLINE
5
233
100
AcDbEntity
8
1
62
256
6
ByLayer
370
18
48
1
60
0
100
AcDbSpline
70
4
71
3
72
16
73
12
40
0
40
0
40
0
40
0
40
0.202092460849674
40
0.202092460849674
40
0.404032245588857
40
0.404032245588857
40
0.608298678109005
40
0.608298678109005
40
0.816163444624768
40
0.816163444624768
40
1
40
1
40
1
40
1
41
1
10
59.7956316353027
20
-27.0082037976605
30
0
41
1
10
59.8174897444444
20
-27.0095507373061
30
0
41
1
10
59.8398491383955
20
-27.0070859153374
30
0
41
1
10
59.8818390291393
20
-26.9950357473643
30
0
41
1
10
59.9020457535964
20
-26.9852960338302
30
0
41
1
10
59.9378824730738
20
-26.9599275820914
30
0
41
1
10
59.9539463831898
20
-26.9438922526708
30
0
41
1
10
59.9798894042432
20
-26.9075964874665
30
0
41
1
10
59.9900129368112
20
-26.8867713964388
30
0
41
1
10
60.0020260177163
20
-26.8459157034025
30
0
41
1
10
60.0048610089749
20
-26.8256297044806
30
0
41
1
10
60.0046912194301
20
-26.8055562538528
30
0
0
SPLINE
5
234
100
AcDbEntity
8
1
62
256
6
ByLayer
370
18
48
1
60
0
100
AcDbSpline
70
4
71
3
72
10
73
6
40
0
40
0
40
0
40
0
40
0.629562107774395
40
0.629562107774395
40
1
40
1
40
1
40
1
41
1
10
50.2
20
-26.7499999999999
30
0
41
1
10
50.1782969300919
20
-26.7499999999999
30
0
41
1
10
50.156172793229
20
-26.7463589368065
30
0
41
1
10
50.1231987911384
20
-26.7351217868949
30
0
41
1
10
50.1112516429095
20
-26.7297012198197
30
0
41
1
10
50.0999999999999
20
-26.723205080757
30
0
0
SPLINE
5
235
100
AcDbEntity
8
1
62
256
6
ByLayer
370
18
48
1
60
0
100
AcDbSpline
70
4
71
3
72
10
73
6
40
0
40
0
40
0
40
0
40
0.62956174027551
40
0.62956174027551
40
1
40
1
40
1
40
1
41
1
10
50.1
20
-24.276794919243
30
0
41
1
10
50.118944038489
20
-24.2658575735218
30
0
41
1
10
50.1400004695306
20
-24.2579691588872
30
0
41
1
10
50.1741148019193
20
-24.2512594713555
30
0
41
1
10
50.1871096425299
20
-24.2499999999998
30
0
41
1
10
50.2
20
-24.2499999999998
30
0
0
SPLINE
5
236
100
AcDbEntity
8
1
62
256
6
ByLayer
370
18
48
1
60
0
100
AcDbSpline
70
4
71
3
72
10
73
6
40
0
40
0
40
0
40
0
40
0.76746257010027
40
0.76746257010027
40
1
40
1
40
1
40
1
41
1
10
51.6477750315741
20
-24.2499999999999
30
0
41
1
10
51.6445183560327
20
-24.2499999999999
30
0
41
1
10
51.6412905642182
20
-24.2499999999999
30
0
41
1
10
51.637123695827
20
-24.2499999999999
30
0
41
1
10
51.6361574346188
20
-24.2499999999999
30
0
41
1
10
51.6351939284819
20
-24.2499999999999
30
0
0
SPLINE
5
237
100
AcDbEntity
8
1
62
256
6
ByLayer
370
18
48
1
60
0
100
AcDbSpline
70
4
71
3
72
14
73
10
40
0
40
0
40
0
40
0
40
0.209562190252725
40
0.209562190252725
40
0.419048660097219
40
0.419048660097219
40
0.628042586344193
40
0.628042586344193
40
1
40
1
40
1
40
1
41
1
10
58.4587805434613
20
-24.0902146883914
30
0
41
1
10
58.3766126081607
20
-24.0959887327804
30
0
41
1
10
58.294096633241
20
-24.1013083242861
30
0
41
1
10
58.1317767669575
20
-24.1108149052047
30
0
41
1
10
58.051417699214
20
-24.1150347230177
30
0
41
1
10
57.89577107806
20
-24.1222234908231
30
0
41
1
10
57.8199400027966
20
-24.1252199068607
30
0
41
1
10
57.6197346270461
20
-24.1316938703119
30
0
41
1
10
57.5007351939601
20
-24.1338178717158
30
0
41
1
10
57.3981203716826
20
-24.1338002634991
30
0
0
SPLINE
5
238
100
AcDbEntity
8
1
62
256
6
ByLayer
370
18
48
1
60
0
100
AcDbSpline
70
4
71
3
72
8
73
4
40
0
40
0
40
0
40
0
40
1
40
1
40
1
40
1
41
1
10
59.1060768987951
20
-24.0425879870359
30
0
41
1
10
58.991741836253
20
-24.0520426090802
30
0
41
1
10
58.8750917668497
20
-24.0609599739496
30
0
41
1
10
58.7587805434613
20
-24.0691333102313
30
0
0
SPLINE
5
239
100
AcDbEntity
8
1
62
256
6
ByLayer
370
18
48
1
60
0
100
AcDbSpline
70
4
71
3
72
14
73
10
40
0
40
0
40
0
40
0
40
0.208995027535852
40
0.208995027535852
40
0.417850725206471
40
0.417850725206471
40
0.626704295977397
40
0.626704295977397
40
1
40
1
40
1
40
1
41
1
10
57.3981203716814
20
-26.8661997365016
30
0
41
1
10
57.4562077150717
20
-26.8661897689891
30
0
41
1
10
57.5193237323134
20
-26.8668559535971
30
0
41
1
10
57.6529850333382
20
-26.8695144526692
30
0
41
1
10
57.7239830856551
20
-26.8715149962071
30
0
41
1
10
57.8714347232616
20
-26.8767769876469
30
0
41
1
10
57.9483929364638
20
-26.8800564212269
30
0
41
1
10
58.1664550970089
20
-26.8907627880221
30
0
41
1
10
58.3134966889726
20
-26.8995760320177
30
0
41
1
10
58.4587805434602
20
-26.9097853116077
30
0
0
SPLINE
5
23A
100
AcDbEntity
8
1
62
256
6
ByLayer
370
18
48
1
60
0
100
AcDbSpline
70
4
71
3
72
8
73
4
40
0
40
0
40
0
40
0
40
1
40
1
40
1
40
1
41
1
10
58.7587805434613
20
-26.9308666897684
30
0
41
1
10
58.8750917668497
20
-26.9390400260502
30
0
41
1
10
58.991741836253
20
-26.9479573909196
30
0
41
1
10
59.1060768987951
20
-26.9574120129638
30
0
0
LINE
5
70
100
AcDbEntity
8
1
62
256
6
ByLayer
370
13
48
1
60
0
100
AcDbLine
10
0.3
20
20
30
0
11
0
21
19.7
31
0
39
0
210
0
220
0
230
1
0
LINE
5
72
100
AcDbEntity
8
1
62
256
6
ByLayer
370
13
48
1
60
0
100
AcDbLine
10
0
20
-19.7
30
0
11
0.3
21
-20
31
0
39
0
210
0
220
0
230
1
0
LINE
5
73
100
AcDbEntity
8
1
62
256
6
ByLayer
370
13
48
1
60
0
100
AcDbLine
10
21.438319
20
-20.889417
30
0
11
22.988561
21
-26.675
31
0
39
0
210
0
220
0
230
1
0
LINE
5
74
100
AcDbEntity
8
1
62
256
6
ByLayer
370
13
48
1
60
0
100
AcDbLine
10
0.3
20
-20
30
0
11
20.279208
21
-20
31
0
39
0
210
0
220
0
230
1
0
LINE
5
75
100
AcDbEntity
8
1
62
256
6
ByLayer
370
13
48
1
60
0
100
AcDbLine
10
20.031907
20
20
30
0
11
0.3
21
20
31
0
39
0
210
0
220
0
230
1
0
LINE
5
76
100
AcDbEntity
8
80
62
256
6
ByLayer
370
18
48
1
60
0
100
AcDbLine
10
0
20
0
30
0
11
-5
21
0
31
0
39
0
210
0
220
0
230
1
0
LINE
5
77
100
AcDbEntity
8
81
62
256
6
ByLayer
370
18
48
1
60
0
100
AcDbLine
10
60
20
-27
30
0
11
65
21
-27
31
0
39
0
210
0
220
0
230
1
0
LINE
5
78
100
AcDbEntity
8
1
62
256
6
ByLayer
370
13
48
1
60
0
100
AcDbLine
10
0.3
20
20
30
0
11
0.3
21
-20
31
0
39
0
210
0
220
0
230
1
0
LINE
5
79
100
AcDbEntity
8
1
62
256
6
ByLayer
370
13
48
1
60
0
100
AcDbLine
10
20.06811
20
15.851559
30
0
11
20.031907
21
20
31
0
39
0
210
0
220
0
230
1
0
LINE
5
7A
100
AcDbEntity
8
1
62
256
6
ByLayer
370
13
48
1
60
0
100
AcDbLine
10
0
20
19.7
30
0
11
0
21
-19.7
31
0
39
0
210
0
220
0
230
1
0
LINE
5
7B
100
AcDbEntity
8
1
62
256
6
ByLayer
370
13
48
1
60
0
100
AcDbLine
10
20.279208
20
-20
30
0
11
20.279208
21
-17.54677
31
0
39
0
210
0
220
0
230
1
0
LINE
5
7C
100
AcDbEntity
8
1
62
256
6
ByLayer
370
13
48
1
60
0
100
AcDbLine
10
20.080209
20
14.465094
30
0
11
20.080209
21
-16.827557
31
0
39
0
210
0
220
0
230
1
0
LINE
5
7D
100
AcDbEntity
8
1
62
256
6
ByLayer
370
13
48
1
60
0
100
AcDbLine
10
9.336603
20
6.16973
30
0
11
9.336603
21
19.024574
31
0
39
0
210
0
220
0
230
1
0
LINE
5
7E
100
AcDbEntity
8
1
62
256
6
ByLayer
370
13
48
1
60
0
100
AcDbLine
10
9.076795
20
5.85989
30
0
11
9.076795
21
19.122283
31
0
39
0
210
0
220
0
230
1
0
LINE
5
7F
100
AcDbEntity
8
1
62
256
6
ByLayer
370
13
48
1
60
0
100
AcDbLine
10
6.923205
20
-19.122283
30
0
11
6.923205
21
-5.85989
31
0
39
0
210
0
220
0
230
1
0
LINE
5
80
100
AcDbEntity
8
1
62
256
6
ByLayer
370
13
48
1
60
0
100
AcDbLine
10
6.663397
20
-19.024574
30
0
11
6.663397
21
-6.16973
31
0
39
0
210
0
220
0
230
1
0
LINE
5
81
100
AcDbEntity
8
1
62
256
6
ByLayer
370
13
48
1
60
0
100
AcDbLine
10
9.336603
20
-19.024574
30
0
11
9.336603
21
-6.16973
31
0
39
0
210
0
220
0
230
1
0
LINE
5
82
100
AcDbEntity
8
SK1
62
256
6
ByLayer
370
13
48
1
60
0
100
AcDbLine
10
-1.315435
20
-3.625867
30
0
11
-1.315435
21
3.625869
31
0
39
0
210
0
220
0
230
1
0
LINE
5
84
100
AcDbEntity
8
1
62
256
6
ByLayer
370
13
48
1
60
0
100
AcDbLine
10
9.076795
20
-19.122283
30
0
11
9.076795
21
-5.85989
31
0
39
0
210
0
220
0
230
1
0
LINE
5
85
100
AcDbEntity
8
1
62
256
6
ByLayer
370
13
48
1
60
0
100
AcDbLine
10
6.923205
20
5.85989
30
0
11
6.923205
21
19.122283
31
0
39
0
210
0
220
0
230
1
0
LINE
5
86
100
AcDbEntity
8
1
62
256
6
ByLayer
370
13
48
1
60
0
100
AcDbLine
10
6.663397
20
6.16973
30
0
11
6.663397
21
19.024574
31
0
39
0
210
0
220
0
230
1
0
LINE
5
87
100
AcDbEntity
8
1
62
256
6
ByLayer
370
13
48
1
60
0
100
AcDbLine
10
24.080057
20
-26.675
30
0
11
24.080057
21
10.5
31
0
39
0
210
0
220
0
230
1
0
LINE
5
88
100
AcDbEntity
8
1
62
256
6
ByLayer
370
13
48
1
60
0
100
AcDbLine
10
21.438319
20
-19.362261
30
0
11
21.438319
21
-20.889417
31
0
39
0
210
0
220
0
230
1
0
LINE
5
89
100
AcDbEntity
8
1
62
256
6
ByLayer
370
13
48
1
60
0
100
AcDbLine
10
30.579287
20
-24.325
30
0
11
35
21
-24.325
31
0
39
0
210
0
220
0
230
1
0
LINE
5
8A
100
AcDbEntity
8
1
62
256
6
ByLayer
370
13
48
1
60
0
100
AcDbLine
10
38.6
20
-26.675
30
0
11
38.6
21
-24.325
31
0
39
0
210
0
220
0
230
1
0
LINE
5
8B
100
AcDbEntity
8
1
62
256
6
ByLayer
370
13
48
1
60
0
100
AcDbLine
10
46.290738
20
-24.325
30
0
11
46.290738
21
-26.675
31
0
39
0
210
0
220
0
230
1
0
LINE
5
8C
100
AcDbEntity
8
1
62
256
6
ByLayer
370
13
48
1
60
0
100
AcDbLine
10
51.290738
20
-26.675
30
0
11
51.290738
21
-24.325
31
0
39
0
210
0
220
0
230
1
0
LINE
5
8D
100
AcDbEntity
8
1
62
256
6
ByLayer
370
13
48
1
60
0
100
AcDbLine
10
24.080057
20
10.5
30
0
11
31.548567
21
10.5
31
0
39
0
210
0
220
0
230
1
0
LINE
5
8E
100
AcDbEntity
8
1
62
256
6
ByLayer
370
13
48
1
60
0
100
AcDbLine
10
46.290738
20
-26.675
30
0
11
38.6
21
-26.675
31
0
39
0
210
0
220
0
230
1
0
LINE
5
8F
100
AcDbEntity
8
1
62
256
6
ByLayer
370
13
48
1
60
0
100
AcDbLine
10
9.076795
20
5.85989
30
0
11
6.923205
21
5.85989
31
0
39
0
210
0
220
0
230
1
0
LINE
5
90
100
AcDbEntity
8
1
62
256
6
ByLayer
370
13
48
1
60
0
100
AcDbLine
10
38.6
20
-24.325
30
0
11
46.290738
21
-24.325
31
0
39
0
210
0
220
0
230
1
0
LINE
5
91
100
AcDbEntity
8
1
62
256
6
ByLayer
370
13
48
1
60
0
100
AcDbLine
10
55.415611
20
-26.491569
30
0
11
55.35928
21
-26.675
31
0
39
0
210
0
220
0
230
1
0
LINE
5
92
100
AcDbEntity
8
1
62
256
6
ByLayer
370
13
48
1
60
0
100
AcDbLine
10
20.06811
20
15.851559
30
0
11
20.080209
21
14.465094
31
0
39
0
210
0
220
0
230
1
0
LINE
5
93
100
AcDbEntity
8
1
62
256
6
ByLayer
370
13
48
1
60
0
100
AcDbLine
10
30.579287
20
-24.325
30
0
11
30.579287
21
-26.675
31
0
39
0
210
0
220
0
230
1
0
LINE
5
94
100
AcDbEntity
8
1
62
256
6
ByLayer
370
13
48
1
60
0
100
AcDbLine
10
38.6
20
-26.675
30
0
11
30.579287
21
-26.675
31
0
39
0
210
0
220
0
230
1
0
LINE
5
95
100
AcDbEntity
8
1
62
256
6
ByLayer
370
13
48
1
60
0
100
AcDbLine
10
23.22106
20
-26.675
30
0
11
23.733393
21
-26.675
31
0
39
0
210
0
220
0
230
1
0
LINE
5
96
100
AcDbEntity
8
1
62
256
6
ByLayer
370
13
48
1
60
0
100
AcDbLine
10
30.579287
20
-26.675
30
0
11
24.080057
21
-26.675
31
0
39
0
210
0
220
0
230
1
0
LINE
5
97
100
AcDbEntity
8
1
62
256
6
ByLayer
370
13
48
1
60
0
100
AcDbLine
10
55.415611
20
-26.491569
30
0
11
55.415611
21
-26.034517
31
0
39
0
210
0
220
0
230
1
0
LINE
5
98
100
AcDbEntity
8
1
62
256
6
ByLayer
370
13
48
1
60
0
100
AcDbLine
10
46.290738
20
-26.675
30
0
11
51.290738
21
-26.675
31
0
39
0
210
0
220
0
230
1
0
LINE
5
99
100
AcDbEntity
8
1
62
256
6
ByLayer
370
13
48
1
60
0
100
AcDbLine
10
55.35928
20
-24.325
30
0
11
55.415611
21
-24.508431
31
0
39
0
210
0
220
0
230
1
0
LINE
5
9A
100
AcDbEntity
8
1
62
256
6
ByLayer
370
13
48
1
60
0
100
AcDbLine
10
33.4
20
0
30
0
11
31.548567
21
10.5
31
0
39
0
210
0
220
0
230
1
0
LINE
5
9B
100
AcDbEntity
8
1
62
256
6
ByLayer
370
13
48
1
60
0
100
AcDbLine
10
9.076795
20
-19.122283
30
0
11
6.923205
21
-19.122283
31
0
39
0
210
0
220
0
230
1
0
LINE
5
9C
100
AcDbEntity
8
1
62
256
6
ByLayer
370
13
48
1
60
0
100
AcDbLine
10
33.4
20
-22.725
30
0
11
33.4
21
0
31
0
39
0
210
0
220
0
230
1
0
LINE
5
9D
100
AcDbEntity
8
1
62
256
6
ByLayer
370
13
48
1
60
0
100
AcDbLine
10
38.6
20
-24.325
30
0
11
35
21
-24.325
31
0
39
0
210
0
220
0
230
1
0
LINE
5
9E
100
AcDbEntity
8
1
62
256
6
ByLayer
370
13
48
1
60
0
100
AcDbLine
10
55.415611
20
-24.965483
30
0
11
55.415611
21
-24.508431
31
0
39
0
210
0
220
0
230
1
0
LINE
5
9F
100
AcDbEntity
8
1
62
256
6
ByLayer
370
13
48
1
60
0
100
AcDbLine
10
23.733393
20
-26.675
30
0
11
24.080057
21
-26.675
31
0
39
0
210
0
220
0
230
1
0
LINE
5
A0
100
AcDbEntity
8
1
62
256
6
ByLayer
370
13
48
1
60
0
100
AcDbLine
10
46.290738
20
-24.325
30
0
11
51.290738
21
-24.325
31
0
39
0
210
0
220
0
230
1
0
LINE
5
A1
100
AcDbEntity
8
1
62
256
6
ByLayer
370
13
48
1
60
0
100
AcDbLine
10
51.290738
20
-26.675
30
0
11
55.35928
21
-26.675
31
0
39
0
210
0
220
0
230
1
0
LINE
5
A2
100
AcDbEntity
8
1
62
256
6
ByLayer
370
13
48
1
60
0
100
AcDbLine
10
6.923205
20
19.122283
30
0
11
9.076795
21
19.122283
31
0
39
0
210
0
220
0
230
1
0
LINE
5
A3
100
AcDbEntity
8
1
62
256
6
ByLayer
370
13
48
1
60
0
100
AcDbLine
10
51.290738
20
-24.325
30
0
11
55.35928
21
-24.325
31
0
39
0
210
0
220
0
230
1
0
LINE
5
A4
100
AcDbEntity
8
1
62
256
6
ByLayer
370
13
48
1
60
0
100
AcDbLine
10
6.923205
20
-5.85989
30
0
11
9.076795
21
-5.85989
31
0
39
0
210
0
220
0
230
1
0
LINE
5
A5
100
AcDbEntity
8
1
62
256
6
ByLayer
370
13
48
1
60
0
100
AcDbLine
10
51.589581
20
-26.75
30
0
11
51.545758
21
-26.674998
31
0
39
0
210
0
220
0
230
1
0
LINE
5
A6
100
AcDbEntity
8
1
62
256
6
ByLayer
370
13
48
1
60
0
100
AcDbLine
10
50.665685
20
-26.674997
30
0
11
50.665685
21
-26.75
31
0
39
0
210
0
220
0
230
1
0
LINE
5
A7
100
AcDbEntity
8
1
62
256
6
ByLayer
370
13
48
1
60
0
100
AcDbLine
10
50.665685
20
-24.325003
30
0
11
50.665685
21
-24.25
31
0
39
0
210
0
220
0
230
1
0
LINE
5
A8
100
AcDbEntity
8
1
62
256
6
ByLayer
370
13
48
1
60
0
100
AcDbLine
10
50.1
20
-24.276795
30
0
11
50.1
21
-24.325035
31
0
39
0
210
0
220
0
230
1
0
LINE
5
A9
100
AcDbEntity
8
1
62
256
6
ByLayer
370
13
48
1
60
0
100
AcDbLine
10
50.1
20
-26.674965
30
0
11
50.1
21
-26.723205
31
0
39
0
210
0
220
0
230
1
0
LINE
5
AA
100
AcDbEntity
8
1
62
256
6
ByLayer
370
13
48
1
60
0
100
AcDbLine
10
56.455978
20
-26.75
30
0
11
56.455978
21
-26.326756
31
0
39
0
210
0
220
0
230
1
0
LINE
5
AB
100
AcDbEntity
8
1
62
256
6
ByLayer
370
13
48
1
60
0
100
AcDbLine
10
56.607676
20
-26.334465
30
0
11
56.880446
21
-26.347896
31
0
39
0
210
0
220
0
230
1
0
LINE
5
AC
100
AcDbEntity
8
1
62
256
6
ByLayer
370
13
48
1
60
0
100
AcDbLine
10
57.137538
20
-26.858919
30
0
11
57.116974
21
-26.564845
31
0
39
0
210
0
220
0
230
1
0
LINE
5
AD
100
AcDbEntity
8
1
62
256
6
ByLayer
370
13
48
1
60
0
100
AcDbLine
10
57.137538
20
-24.141081
30
0
11
57.116974
21
-24.435155
31
0
39
0
210
0
220
0
230
1
0
LINE
5
AE
100
AcDbEntity
8
1
62
256
6
ByLayer
370
13
48
1
60
0
100
AcDbLine
10
56.880446
20
-24.652104
30
0
11
56.607676
21
-24.665535
31
0
39
0
210
0
220
0
230
1
0
LINE
5
AF
100
AcDbEntity
8
1
62
256
6
ByLayer
370
13
48
1
60
0
100
AcDbLine
10
56.455978
20
-24.673244
30
0
11
56.455978
21
-24.25
31
0
39
0
210
0
220
0
230
1
0
LINE
5
B0
100
AcDbEntity
8
1
62
256
6
ByLayer
370
13
48
1
60
0
100
AcDbLine
10
57.39812
20
-26.547848
30
0
11
57.39812
21
-26.8662
31
0
39
0
210
0
220
0
230
1
0
LINE
5
B1
100
AcDbEntity
8
1
62
256
6
ByLayer
370
13
48
1
60
0
100
AcDbLine
10
58.458781
20
-26.664424
30
0
11
58.458781
21
-26.909785
31
0
39
0
210
0
220
0
230
1
0
LINE
5
B2
100
AcDbEntity
8
1
62
256
6
ByLayer
370
13
48
1
60
0
100
AcDbLine
10
58.458781
20
-24.335576
30
0
11
58.458781
21
-24.090215
31
0
39
0
210
0
220
0
230
1
0
LINE
5
B3
100
AcDbEntity
8
1
62
256
6
ByLayer
370
13
48
1
60
0
100
AcDbLine
10
57.39812
20
-24.452152
30
0
11
57.39812
21
-24.1338
31
0
39
0
210
0
220
0
230
1
0
LINE
5
B4
100
AcDbEntity
8
1
62
256
6
ByLayer
370
13
48
1
60
0
100
AcDbLine
10
56.880446
20
-26.347896
30
0
11
57.030516
21
-26.193729
31
0
39
0
210
0
220
0
230
1
0
LINE
5
B5
100
AcDbEntity
8
1
62
256
6
ByLayer
370
13
48
1
60
0
100
AcDbLine
10
57.030516
20
-24.806271
30
0
11
56.880446
21
-24.652104
31
0
39
0
210
0
220
0
230
1
0
LINE
5
B6
100
AcDbEntity
8
1
62
256
6
ByLayer
370
13
48
1
60
0
100
AcDbLine
10
56.607676
20
-26.334465
30
0
11
56.621372
21
-26.05631
31
0
39
0
210
0
220
0
230
1
0
LINE
5
B7
100
AcDbEntity
8
1
62
256
6
ByLayer
370
13
48
1
60
0
100
AcDbLine
10
56.851055
20
-26.06762
30
0
11
56.621372
21
-26.05631
31
0
39
0
210
0
220
0
230
1
0
LINE
5
B8
100
AcDbEntity
8
1
62
256
6
ByLayer
370
13
48
1
60
0
100
AcDbLine
10
56.621372
20
-24.94369
30
0
11
56.851055
21
-24.93238
31
0
39
0
210
0
220
0
230
1
0
LINE
5
B9
100
AcDbEntity
8
1
62
256
6
ByLayer
370
13
48
1
60
0
100
AcDbLine
10
56.621372
20
-24.94369
30
0
11
56.607676
21
-24.665535
31
0
39
0
210
0
220
0
230
1
0
LINE
5
BA
100
AcDbEntity
8
1
62
256
6
ByLayer
370
13
48
1
60
0
100
AcDbLine
10
57.293328
20
-26.54953
30
0
11
57.315472
21
-26.866214
31
0
39
0
210
0
220
0
230
1
0
LINE
5
BB
100
AcDbEntity
8
1
62
256
6
ByLayer
370
13
48
1
60
0
100
AcDbLine
10
57.293328
20
-24.45047
30
0
11
57.315472
21
-24.133786
31
0
39
0
210
0
220
0
230
1
0
LINE
5
BC
100
AcDbEntity
8
1
62
256
6
ByLayer
370
13
48
1
60
0
100
AcDbLine
10
56.864379
20
-24.94369
30
0
11
56.621372
21
-24.94369
31
0
39
0
210
0
220
0
230
1
0
LINE
5
BD
100
AcDbEntity
8
1
62
256
6
ByLayer
370
13
48
1
60
0
100
AcDbLine
10
56.864379
20
-26.05631
30
0
11
56.621372
21
-26.05631
31
0
39
0
210
0
220
0
230
1
0
LINE
5
BE
100
AcDbEntity
8
1
62
256
6
ByLayer
370
13
48
1
60
0
100
AcDbLine
10
56.387574
20
-26.326756
30
0
11
56.455978
21
-26.326756
31
0
39
0
210
0
220
0
230
1
0
LINE
5
BF
100
AcDbEntity
8
1
62
256
6
ByLayer
370
13
48
1
60
0
100
AcDbLine
10
56.387574
20
-24.673244
30
0
11
56.455978
21
-24.673244
31
0
39
0
210
0
220
0
230
1
0
LINE
5
C0
100
AcDbEntity
8
1
62
256
6
ByLayer
370
13
48
1
60
0
100
AcDbLine
10
56.387574
20
-24.25
30
0
11
56.387574
21
-24.673244
31
0
39
0
210
0
220
0
230
1
0
LINE
5
C1
100
AcDbEntity
8
1
62
256
6
ByLayer
370
13
48
1
60
0
100
AcDbLine
10
56.387574
20
-26.326756
30
0
11
56.387574
21
-26.75
31
0
39
0
210
0
220
0
230
1
0
LINE
5
C2
100
AcDbEntity
8
1
62
256
6
ByLayer
370
13
48
1
60
0
100
AcDbLine
10
55.663912
20
-26.75
30
0
11
55.663912
21
-26.633917
31
0
39
0
210
0
220
0
230
1
0
LINE
5
C3
100
AcDbEntity
8
1
62
256
6
ByLayer
370
13
48
1
60
0
100
AcDbLine
10
55.663912
20
-24.366083
30
0
11
55.663912
21
-24.25
31
0
39
0
210
0
220
0
230
1
0
LINE
5
C4
100
AcDbEntity
8
1
62
256
6
ByLayer
370
13
48
1
60
0
100
AcDbLine
10
58.114687
20
-24.680616
30
0
11
58.211268
21
-24.984159
31
0
39
0
210
0
220
0
230
1
0
LINE
5
C5
100
AcDbEntity
8
1
62
256
6
ByLayer
370
13
48
1
60
0
100
AcDbLine
10
58.114687
20
-26.319384
30
0
11
58.211268
21
-26.015841
31
0
39
0
210
0
220
0
230
1
0
LINE
5
C6
100
AcDbEntity
8
1
62
256
6
ByLayer
370
13
48
1
60
0
100
AcDbLine
10
55.46942
20
-25.132002
30
0
11
55.779442
21
-25.132002
31
0
39
0
210
0
220
0
230
1
0
LINE
5
C7
100
AcDbEntity
8
1
62
256
6
ByLayer
370
13
48
1
60
0
100
AcDbLine
10
55.415611
20
-24.68149
30
0
11
55.46942
21
-25.132002
31
0
39
0
210
0
220
0
230
1
0
LINE
5
C8
100
AcDbEntity
8
1
62
256
6
ByLayer
370
13
48
1
60
0
100
AcDbLine
10
55.577267
20
-24.424016
30
0
11
55.384859
21
-24.424016
31
0
39
0
210
0
220
0
230
1
0
LINE
5
C9
100
AcDbEntity
8
1
62
256
6
ByLayer
370
13
48
1
60
0
100
AcDbLine
10
55.577267
20
-26.575984
30
0
11
55.384859
21
-26.575984
31
0
39
0
210
0
220
0
230
1
0
LINE
5
CA
100
AcDbEntity
8
1
62
256
6
ByLayer
370
13
48
1
60
0
100
AcDbLine
10
55.415611
20
-26.31851
30
0
11
55.46942
21
-25.867998
31
0
39
0
210
0
220
0
230
1
0
LINE
5
CB
100
AcDbEntity
8
1
62
256
6
ByLayer
370
13
48
1
60
0
100
AcDbLine
10
55.46942
20
-25.867998
30
0
11
55.779442
21
-25.867998
31
0
39
0
210
0
220
0
230
1
0
LINE
5
CC
100
AcDbEntity
8
1
62
256
6
ByLayer
370
13
48
1
60
0
100
AcDbLine
10
55.572358
20
-24.25
30
0
11
55.572358
21
-24.374098
31
0
39
0
210
0
220
0
230
1
0
LINE
5
CD
100
AcDbEntity
8
1
62
256
6
ByLayer
370
13
48
1
60
0
100
AcDbLine
10
55.572358
20
-26.625902
30
0
11
55.572358
21
-26.75
31
0
39
0
210
0
220
0
230
1
0
LINE
5
CE
100
AcDbEntity
8
1
62
256
6
ByLayer
370
13
48
1
60
0
100
AcDbLine
10
58.211268
20
-24.984159
30
0
11
58.211268
21
-26.015841
31
0
39
0
210
0
220
0
230
1
0
LINE
5
CF
100
AcDbEntity
8
1
62
256
6
ByLayer
370
13
48
1
60
0
100
AcDbLine
10
55.38199
20
-26.75
30
0
11
55.38199
21
-26.625438
31
0
39
0
210
0
220
0
230
1
0
LINE
5
D0
100
AcDbEntity
8
1
62
256
6
ByLayer
370
13
48
1
60
0
100
AcDbLine
10
55.38199
20
-26.625438
30
0
11
55.570595
21
-26.625438
31
0
39
0
210
0
220
0
230
1
0
LINE
5
D1
100
AcDbEntity
8
1
62
256
6
ByLayer
370
13
48
1
60
0
100
AcDbLine
10
55.38199
20
-24.374562
30
0
11
55.570595
21
-24.374562
31
0
39
0
210
0
220
0
230
1
0
LINE
5
D2
100
AcDbEntity
8
1
62
256
6
ByLayer
370
13
48
1
60
0
100
AcDbLine
10
55.38199
20
-24.25
30
0
11
55.38199
21
-24.374562
31
0
39
0
210
0
220
0
230
1
0
LINE
5
D3
100
AcDbEntity
8
1
62
256
6
ByLayer
370
13
48
1
60
0
100
AcDbLine
10
60.000117
20
-24.735234
30
0
11
59.925685
21
-24.735234
31
0
39
0
210
0
220
0
230
1
0
LINE
5
D4
100
AcDbEntity
8
1
62
256
6
ByLayer
370
13
48
1
60
0
100
AcDbLine
10
59.535516
20
-24.426294
30
0
11
59.535516
21
-24.007825
31
0
39
0
210
0
220
0
230
1
0
LINE
5
D5
100
AcDbEntity
8
1
62
256
6
ByLayer
370
13
48
1
60
0
100
AcDbLine
10
59.535516
20
-26.573706
30
0
11
59.535516
21
-26.992175
31
0
39
0
210
0
220
0
230
1
0
LINE
5
D6
100
AcDbEntity
8
1
62
256
6
ByLayer
370
13
48
1
60
0
100
AcDbLine
10
60.000117
20
-26.264766
30
0
11
59.925685
21
-26.264766
31
0
39
0
210
0
220
0
230
1
0
LINE
5
D7
100
AcDbEntity
8
1
62
256
6
ByLayer
370
13
48
1
60
0
100
AcDbLine
10
59.106077
20
-26.674869
30
0
11
59.106077
21
-26.957412
31
0
39
0
210
0
220
0
230
1
0
LINE
5
D8
100
AcDbEntity
8
1
62
256
6
ByLayer
370
13
48
1
60
0
100
AcDbLine
10
59.46476
20
-26.987072
30
0
11
59.46476
21
-26.626322
31
0
39
0
210
0
220
0
230
1
0
LINE
5
D9
100
AcDbEntity
8
1
62
256
6
ByLayer
370
13
48
1
60
0
100
AcDbLine
10
59.46476
20
-24.012928
30
0
11
59.46476
21
-24.373678
31
0
39
0
210
0
220
0
230
1
0
LINE
5
DA
100
AcDbEntity
8
1
62
256
6
ByLayer
370
13
48
1
60
0
100
AcDbLine
10
59.106077
20
-24.325131
30
0
11
59.106077
21
-24.042588
31
0
39
0
210
0
220
0
230
1
0
LINE
5
DB
100
AcDbEntity
8
1
62
256
6
ByLayer
370
13
48
1
60
0
100
AcDbLine
10
55.506333
20
-25.751024
30
0
11
55.866184
21
-25.751024
31
0
39
0
210
0
220
0
230
1
0
LINE
5
DC
100
AcDbEntity
8
1
62
256
6
ByLayer
370
13
48
1
60
0
100
AcDbLine
10
55.506333
20
-25.248976
30
0
11
55.866184
21
-25.248976
31
0
39
0
210
0
220
0
230
1
0
LINE
5
DD
100
AcDbEntity
8
1
62
256
6
ByLayer
370
13
48
1
60
0
100
AcDbLine
10
58.758781
20
-26.678409
30
0
11
58.758781
21
-26.930867
31
0
39
0
210
0
220
0
230
1
0
LINE
5
DE
100
AcDbEntity
8
1
62
256
6
ByLayer
370
13
48
1
60
0
100
AcDbLine
10
58.758781
20
-24.321591
30
0
11
58.758781
21
-24.069133
31
0
39
0
210
0
220
0
230
1
0
LINE
5
DF
100
AcDbEntity
8
1
62
256
6
ByLayer
370
13
48
1
60
0
100
AcDbLine
10
51.966112
20
-26.675001
30
0
11
51.966112
21
-26.75
31
0
39
0
210
0
220
0
230
1
0
LINE
5
E0
100
AcDbEntity
8
1
62
256
6
ByLayer
370
13
48
1
60
0
100
AcDbLine
10
55.374468
20
-26.625438
30
0
11
55.38199
21
-26.625438
31
0
39
0
210
0
220
0
230
1
0
LINE
5
E1
100
AcDbEntity
8
1
62
256
6
ByLayer
370
13
48
1
60
0
100
AcDbLine
10
55.374468
20
-24.374562
30
0
11
55.38199
21
-24.374562
31
0
39
0
210
0
220
0
230
1
0
LINE
5
E2
100
AcDbEntity
8
1
62
256
6
ByLayer
370
13
48
1
60
0
100
AcDbLine
10
51.966112
20
-24.324999
30
0
11
51.966112
21
-24.25
31
0
39
0
210
0
220
0
230
1
0
LINE
5
E3
100
AcDbEntity
8
1
62
256
6
ByLayer
370
13
48
1
60
0
100
AcDbLine
10
55.398005
20
-25.132002
30
0
11
55.46942
21
-25.132002
31
0
39
0
210
0
220
0
230
1
0
LINE
5
E4
100
AcDbEntity
8
1
62
256
6
ByLayer
370
13
48
1
60
0
100
AcDbLine
10
55.398005
20
-25.867998
30
0
11
55.46942
21
-25.867998
31
0
39
0
210
0
220
0
230
1
0
LINE
5
E5
100
AcDbEntity
8
1
62
256
6
ByLayer
370
13
48
1
60
0
100
AcDbLine
10
55.54904
20
-25.299244
30
0
11
55.987507
21
-25.299244
31
0
39
0
210
0
220
0
230
1
0
LINE
5
E6
100
AcDbEntity
8
1
62
256
6
ByLayer
370
13
48
1
60
0
100
AcDbLine
10
58.82193
20
-24.608704
30
0
11
58.811268
21
-24.911944
31
0
39
0
210
0
220
0
230
1
0
LINE
5
E7
100
AcDbEntity
8
1
62
256
6
ByLayer
370
13
48
1
60
0
100
AcDbLine
10
55.54904
20
-25.700756
30
0
11
55.987507
21
-25.700756
31
0
39
0
210
0
220
0
230
1
0
LINE
5
E8
100
AcDbEntity
8
1
62
256
6
ByLayer
370
13
48
1
60
0
100
AcDbLine
10
58.82193
20
-26.391296
30
0
11
58.811268
21
-26.088056
31
0
39
0
210
0
220
0
230
1
0
LINE
5
E9
100
AcDbEntity
8
1
62
256
6
ByLayer
370
13
48
1
60
0
100
AcDbLine
10
59.944165
20
-26.07839
30
0
11
59.997026
21
-26.07839
31
0
39
0
210
0
220
0
230
1
0
LINE
5
EA
100
AcDbEntity
8
1
62
256
6
ByLayer
370
13
48
1
60
0
100
AcDbLine
10
59.944165
20
-24.92161
30
0
11
59.997026
21
-24.92161
31
0
39
0
210
0
220
0
230
1
0
LINE
5
EB
100
AcDbEntity
8
1
62
256
6
ByLayer
370
13
48
1
60
0
100
AcDbLine
10
59.948049
20
-26.23707
30
0
11
60
21
-26.23707
31
0
39
0
210
0
220
0
230
1
0
LINE
5
EC
100
AcDbEntity
8
1
62
256
6
ByLayer
370
13
48
1
60
0
100
AcDbLine
10
59.997026
20
-26.07839
30
0
11
59.997026
21
-24.92161
31
0
39
0
210
0
220
0
230
1
0
LINE
5
ED
100
AcDbEntity
8
1
62
256
6
ByLayer
370
13
48
1
60
0
100
AcDbLine
10
59.948049
20
-24.76293
30
0
11
60
21
-24.76293
31
0
39
0
210
0
220
0
230
1
0
LINE
5
EE
100
AcDbEntity
8
1
62
256
6
ByLayer
370
13
48
1
60
0
100
AcDbLine
10
55.552254
20
-25.697335
30
0
11
55.996489
21
-25.697335
31
0
39
0
210
0
220
0
230
1
0
LINE
5
EF
100
AcDbEntity
8
1
62
256
6
ByLayer
370
13
48
1
60
0
100
AcDbLine
10
55.552254
20
-25.302665
30
0
11
55.996489
21
-25.302665
31
0
39
0
210
0
220
0
230
1
0
LINE
5
F0
100
AcDbEntity
8
1
62
256
6
ByLayer
370
13
48
1
60
0
100
AcDbLine
10
59.944165
20
-24.92161
30
0
11
59.944165
21
-26.07839
31
0
39
0
210
0
220
0
230
1
0
LINE
5
F1
100
AcDbEntity
8
1
62
256
6
ByLayer
370
13
48
1
60
0
100
AcDbLine
10
55.54904
20
-25.299244
30
0
11
55.552254
21
-25.302665
31
0
39
0
210
0
220
0
230
1
0
LINE
5
F2
100
AcDbEntity
8
1
62
256
6
ByLayer
370
13
48
1
60
0
100
AcDbLine
10
59.421373
20
-24.910924
30
0
11
59.421373
21
-26.089076
31
0
39
0
210
0
220
0
230
1
0
LINE
5
F3
100
AcDbEntity
8
1
62
256
6
ByLayer
370
13
48
1
60
0
100
AcDbLine
10
55.54904
20
-25.700756
30
0
11
55.552254
21
-25.697335
31
0
39
0
210
0
220
0
230
1
0
LINE
5
F4
100
AcDbEntity
8
1
62
256
6
ByLayer
370
13
48
1
60
0
100
AcDbLine
10
58.811268
20
-24.911944
30
0
11
58.811268
21
-26.088056
31
0
39
0
210
0
220
0
230
1
0
LINE
5
F5
100
AcDbEntity
8
1
62
256
6
ByLayer
370
13
48
1
60
0
100
AcDbLine
10
55.391842
20
-25.751024
30
0
11
55.506333
21
-25.751024
31
0
39
0
210
0
220
0
230
1
0
LINE
5
F6
100
AcDbEntity
8
1
62
256
6
ByLayer
370
13
48
1
60
0
100
AcDbLine
10
55.390074
20
-25.299244
30
0
11
55.54904
21
-25.299244
31
0
39
0
210
0
220
0
230
1
0
LINE
5
F7
100
AcDbEntity
8
1
62
256
6
ByLayer
370
13
48
1
60
0
100
AcDbLine
10
55.391842
20
-25.248976
30
0
11
55.506333
21
-25.248976
31
0
39
0
210
0
220
0
230
1
0
LINE
5
F8
100
AcDbEntity
8
1
62
256
6
ByLayer
370
13
48
1
60
0
100
AcDbLine
10
55.390074
20
-25.700756
30
0
11
55.54904
21
-25.700756
31
0
39
0
210
0
220
0
230
1
0
LINE
5
F9
100
AcDbEntity
8
1
62
256
6
ByLayer
370
13
48
1
60
0
100
AcDbLine
10
51.589581
20
-24.25
30
0
11
51.545758
21
-24.325002
31
0
39
0
210
0
220
0
230
1
0
LINE
5
FA
100
AcDbEntity
8
1
62
256
6
ByLayer
370
13
48
1
60
0
100
AcDbLine
10
55.389954
20
-25.697335
30
0
11
55.552254
21
-25.697335
31
0
39
0
210
0
220
0
230
1
0
LINE
5
FB
100
AcDbEntity
8
1
62
256
6
ByLayer
370
13
48
1
60
0
100
AcDbLine
10
55.389954
20
-25.302665
30
0
11
55.552254
21
-25.302665
31
0
39
0
210
0
220
0
230
1
0
LINE
5
FC
100
AcDbEntity
8
1
62
256
6
ByLayer
370
18
48
1
60
0
100
AcDbLine
10
60.000117
20
-24.735234
30
0
11
60.004691
21
-24.194444
31
0
39
0
210
0
220
0
230
1
0
LINE
5
FD
100
AcDbEntity
8
1
62
256
6
ByLayer
370
18
48
1
60
0
100
AcDbLine
10
60
20
-26.23707
30
0
11
60
21
-24.76293
31
0
39
0
210
0
220
0
230
1
0
LINE
5
FE
100
AcDbEntity
8
1
62
256
6
ByLayer
370
18
48
1
60
0
100
AcDbLine
10
56.69752
20
-24.192091
30
0
11
56.64436
21
-24.222783
31
0
39
0
210
0
220
0
230
1
0
LINE
5
FF
100
AcDbEntity
8
1
62
256
6
ByLayer
370
18
48
1
60
0
100
AcDbLine
10
50.2
20
-26.75
30
0
11
50.665685
21
-26.75
31
0
39
0
210
0
220
0
230
1
0
LINE
5
100
100
AcDbEntity
8
1
62
256
6
ByLayer
370
18
48
1
60
0
100
AcDbLine
10
51.589581
20
-24.25
30
0
11
50.665685
21
-24.25
31
0
39
0
210
0
220
0
230
1
0
LINE
5
101
100
AcDbEntity
8
1
62
256
6
ByLayer
370
18
48
1
60
0
100
AcDbLine
10
55.663912
20
-26.75
30
0
11
56.387574
21
-26.75
31
0
39
0
210
0
220
0
230
1
0
LINE
5
102
100
AcDbEntity
8
1
62
256
6
ByLayer
370
18
48
1
60
0
100
AcDbLine
10
50.665685
20
-26.75
30
0
11
51.589581
21
-26.75
31
0
39
0
210
0
220
0
230
1
0
LINE
5
103
100
AcDbEntity
8
1
62
256
6
ByLayer
370
18
48
1
60
0
100
AcDbLine
10
57.39812
20
-24.1338
30
0
11
57.315472
21
-24.133786
31
0
39
0
210
0
220
0
230
1
0
LINE
5
104
100
AcDbEntity
8
1
62
256
6
ByLayer
370
18
48
1
60
0
100
AcDbLine
10
56.795343
20
-26.834991
30
0
11
57.137538
21
-26.858919
31
0
39
0
210
0
220
0
230
1
0
LINE
5
105
100
AcDbEntity
8
1
62
256
6
ByLayer
370
18
48
1
60
0
100
AcDbLine
10
51.966112
20
-24.25
30
0
11
51.647775
21
-24.25
31
0
39
0
210
0
220
0
230
1
0
LINE
5
106
100
AcDbEntity
8
1
62
256
6
ByLayer
370
18
48
1
60
0
100
AcDbLine
10
59.535516
20
-26.992175
30
0
11
59.795632
21
-27.008204
31
0
39
0
210
0
220
0
230
1
0
LINE
5
107
100
AcDbEntity
8
1
62
256
6
ByLayer
370
18
48
1
60
0
100
AcDbLine
10
51.966112
20
-26.75
30
0
11
55.38199
21
-26.75
31
0
39
0
210
0
220
0
230
1
0
LINE
5
108
100
AcDbEntity
8
1
62
256
6
ByLayer
370
18
48
1
60
0
100
AcDbLine
10
56.387574
20
-24.25
30
0
11
55.663912
21
-24.25
31
0
39
0
210
0
220
0
230
1
0
LINE
5
109
100
AcDbEntity
8
1
62
256
6
ByLayer
370
18
48
1
60
0
100
AcDbLine
10
59.46476
20
-24.012928
30
0
11
59.106077
21
-24.042588
31
0
39
0
210
0
220
0
230
1
0
LINE
5
10A
100
AcDbEntity
8
1
62
256
6
ByLayer
370
18
48
1
60
0
100
AcDbLine
10
55.38199
20
-24.25
30
0
11
51.966112
21
-24.25
31
0
39
0
210
0
220
0
230
1
0
LINE
5
10B
100
AcDbEntity
8
1
62
256
6
ByLayer
370
18
48
1
60
0
100
AcDbLine
10
56.553398
20
-26.75
30
0
11
56.455978
21
-26.75
31
0
39
0
210
0
220
0
230
1
0
LINE
5
10C
100
AcDbEntity
8
1
62
256
6
ByLayer
370
18
48
1
60
0
100
AcDbLine
10
51.647775
20
-26.75
30
0
11
51.966112
21
-26.75
31
0
39
0
210
0
220
0
230
1
0
LINE
5
10D
100
AcDbEntity
8
1
62
256
6
ByLayer
370
18
48
1
60
0
100
AcDbLine
10
56.455978
20
-24.25
30
0
11
56.387574
21
-24.25
31
0
39
0
210
0
220
0
230
1
0
LINE
5
10E
100
AcDbEntity
8
1
62
256
6
ByLayer
370
18
48
1
60
0
100
AcDbLine
10
59.795632
20
-23.991796
30
0
11
59.535516
21
-24.007825
31
0
39
0
210
0
220
0
230
1
0
LINE
5
10F
100
AcDbEntity
8
1
62
256
6
ByLayer
370
18
48
1
60
0
100
AcDbLine
10
58.458781
20
-26.909785
30
0
11
58.758781
21
-26.930867
31
0
39
0
210
0
220
0
230
1
0
LINE
5
110
100
AcDbEntity
8
1
62
256
6
ByLayer
370
18
48
1
60
0
100
AcDbLine
10
56.654705
20
-26.777118
30
0
11
56.709449
21
-26.808724
31
0
39
0
210
0
220
0
230
1
0
LINE
5
111
100
AcDbEntity
8
1
62
256
6
ByLayer
370
18
48
1
60
0
100
AcDbLine
10
56.387574
20
-26.75
30
0
11
56.455978
21
-26.75
31
0
39
0
210
0
220
0
230
1
0
LINE
5
112
100
AcDbEntity
8
1
62
256
6
ByLayer
370
18
48
1
60
0
100
AcDbLine
10
59.106077
20
-26.957412
30
0
11
59.46476
21
-26.987072
31
0
39
0
210
0
220
0
230
1
0
LINE
5
113
100
AcDbEntity
8
1
62
256
6
ByLayer
370
18
48
1
60
0
100
AcDbLine
10
57.315472
20
-26.866214
30
0
11
57.39812
21
-26.8662
31
0
39
0
210
0
220
0
230
1
0
LINE
5
114
100
AcDbEntity
8
1
62
256
6
ByLayer
370
18
48
1
60
0
100
AcDbLine
10
55.572358
20
-24.25
30
0
11
55.38199
21
-24.25
31
0
39
0
210
0
220
0
230
1
0
LINE
5
115
100
AcDbEntity
8
1
62
256
6
ByLayer
370
18
48
1
60
0
100
AcDbLine
10
51.589581
20
-26.75
30
0
11
51.635194
21
-26.75
31
0
39
0
210
0
220
0
230
1
0
LINE
5
116
100
AcDbEntity
8
1
62
256
6
ByLayer
370
18
48
1
60
0
100
AcDbLine
10
58.758781
20
-24.069133
30
0
11
58.458781
21
-24.090215
31
0
39
0
210
0
220
0
230
1
0
LINE
5
117
100
AcDbEntity
8
1
62
256
6
ByLayer
370
18
48
1
60
0
100
AcDbLine
10
57.137538
20
-24.141081
30
0
11
56.78336
21
-24.165847
31
0
39
0
210
0
220
0
230
1
0
LINE
5
118
100
AcDbEntity
8
1
62
256
6
ByLayer
370
18
48
1
60
0
100
AcDbLine
10
55.663912
20
-24.25
30
0
11
55.572358
21
-24.25
31
0
39
0
210
0
220
0
230
1
0
LINE
5
119
100
AcDbEntity
8
1
62
256
6
ByLayer
370
18
48
1
60
0
100
AcDbLine
10
55.572358
20
-26.75
30
0
11
55.663912
21
-26.75
31
0
39
0
210
0
220
0
230
1
0
LINE
5
11A
100
AcDbEntity
8
1
62
256
6
ByLayer
370
18
48
1
60
0
100
AcDbLine
10
51.635194
20
-24.25
30
0
11
51.589581
21
-24.25
31
0
39
0
210
0
220
0
230
1
0
LINE
5
11B
100
AcDbEntity
8
1
62
256
6
ByLayer
370
18
48
1
60
0
100
AcDbLine
10
60.004691
20
-26.805556
30
0
11
60.000117
21
-26.264766
31
0
39
0
210
0
220
0
230
1
0
LINE
5
11C
100
AcDbEntity
8
1
62
256
6
ByLayer
370
18
48
1
60
0
100
AcDbLine
10
56.455978
20
-24.25
30
0
11
56.542652
21
-24.25
31
0
39
0
210
0
220
0
230
1
0
LINE
5
11D
100
AcDbEntity
8
1
62
256
6
ByLayer
370
18
48
1
60
0
100
AcDbLine
10
55.38199
20
-26.75
30
0
11
55.572358
21
-26.75
31
0
39
0
210
0
220
0
230
1
0
LINE
5
11E
100
AcDbEntity
8
1
62
256
6
ByLayer
370
18
48
1
60
0
100
AcDbLine
10
50.665685
20
-24.25
30
0
11
50.2
21
-24.25
31
0
39
0
210
0
220
0
230
1
0
MTEXT
5
23B
100
AcDbEntity
8
SK6
62
256
6
ByLayer
370
18
48
1
60
0
100
AcDbMText
10
-13.625
20
-54.379285
30
0
210
0
220
0
230
1
1
\W0.7884;C4-QD-LFG25C27060A
40
3.5
41
0
44
1.084337
50
0
71
7
72
5
7
iso_b_vert
0
DIMENSION
5
24D
100
AcDbEntity
8
SK2
62
256
6
ByLayer
370
13
48
1
60
0
100
AcDbDimension
2
DimnDraft3D1
10
60
20
42.6
30
0
11
27.909211
21
42.6
31
0
70
32
71
5
72
1
41
1
210
0
220
0
230
1
3
Standard
100
AcDbAlignedDimension
13
0
23
2
33
0
14
60
24
-25
34
0
50
0
100
AcDbRotatedDimension
1001
ACAD
1000
DSTYLE
1002
{
1070
   279
1070
     0
1070
   172
1070
     1
1070
   173
1070
     1
1070
   340
1005
23C
1070
   271
1070
     1
1070
    77
1070
     1
1070
    73
1070
     0
1070
   171
1070
     3
1070
   274
1070
     4
1070
   177
1070
     2
1070
   176
1070
     2
1070
   178
1070
     7
1070
    78
1070
     8
1070
    41
1041
3.175
1070
   147
1041
1.75
1070
    42
1041
2.0
1070
    44
1041
2.0
1070
   140
1041
3.5
1070
   343
1005
24E
1070
   344
1005
24E
1002
}
0
DIMENSION
5
263
100
AcDbEntity
8
2
62
256
6
ByLayer
370
13
48
1
60
0
100
AcDbDimension
2
DimnDraft3D2
10
35
20
-40.108569
30
0
11
45.409211
21
-40.108569
31
0
70
32
71
5
72
1
41
1
210
0
220
0
230
1
3
Standard
100
AcDbAlignedDimension
13
60
23
-29
33
0
14
35
24
-22
34
0
50
0
100
AcDbRotatedDimension
1001
ACAD
1000
DSTYLE
1002
{
1070
   279
1070
     0
1070
   172
1070
     1
1070
   173
1070
     1
1070
   340
1005
23C
1070
   271
1070
     1
1070
    77
1070
     1
1070
    73
1070
     0
1070
   171
1070
     3
1070
   274
1070
     4
1070
   177
1070
     2
1070
   176
1070
     2
1070
   178
1070
     7
1070
    78
1070
     8
1070
    41
1041
3.175
1070
   147
1041
1.75
1070
    42
1041
2.0
1070
    44
1041
2.0
1070
   140
1041
3.5
1070
   343
1005
24E
1070
   344
1005
24E
1002
}
0
DIMENSION
5
271
100
AcDbEntity
8
SK2
62
256
6
ByLayer
370
13
48
1
60
0
100
AcDbDimension
2
DimnDraft3D3
10
-33.6
20
20
30
0
11
-33.6
21
-2.275
31
0
70
32
71
5
72
1
41
1
210
0
220
0
230
1
3
Standard
100
AcDbAlignedDimension
13
-2
23
-20
33
0
14
-2
24
20
34
0
50
90
100
AcDbRotatedDimension
1001
ACAD
1000
DSTYLE
1002
{
1070
    74
1070
     0
1070
   279
1070
     0
1070
   172
1070
     1
1070
   173
1070
     1
1070
   340
1005
23C
1070
   271
1070
     1
1070
    77
1070
     1
1070
    73
1070
     0
1070
   171
1070
     3
1070
   274
1070
     4
1070
   177
1070
     2
1070
   176
1070
     2
1070
   178
1070
     7
1070
    78
1070
     8
1070
    41
1041
3.175
1070
   147
1041
1.75
1070
    42
1041
2.0
1070
    44
1041
2.0
1070
   140
1041
3.5
1070
   343
1005
24E
1070
   344
1005
24E
1002
}
0
DIMENSION
5
27F
100
AcDbEntity
8
2
62
256
6
ByLayer
370
13
48
1
60
0
100
AcDbDimension
2
DimnDraft3D4
10
85.1
20
-27
30
0
11
85.1
21
-15.590789
31
0
70
32
71
5
72
1
41
1
210
0
220
0
230
1
3
Standard
100
AcDbAlignedDimension
13
53
23
0
33
0
14
62
24
-27
34
0
50
90
100
AcDbRotatedDimension
1001
ACAD
1000
DSTYLE
1002
{
1070
    74
1070
     0
1070
   279
1070
     0
1070
   172
1070
     1
1070
   173
1070
     1
1070
   340
1005
23C
1070
   271
1070
     1
1070
    77
1070
     1
1070
    73
1070
     0
1070
   171
1070
     3
1070
   274
1070
     4
1070
   177
1070
     2
1070
   176
1070
     2
1070
   178
1070
     7
1070
    78
1070
     8
1070
    41
1041
3.175
1070
   147
1041
1.75
1070
    42
1041
2.0
1070
    44
1041
2.0
1070
   140
1041
3.5
1070
   343
1005
24E
1070
   344
1005
24E
1002
}
0
DIMENSION
5
28D
100
AcDbEntity
8
2
62
256
6
ByLayer
370
13
48
1
60
0
100
AcDbDimension
2
DimnDraft3D5
10
78.1
20
-24
30
0
11
78.1
21
-38.820789
31
0
70
32
71
5
72
1
41
1
210
0
220
0
230
1
3
Standard
100
AcDbAlignedDimension
13
62
23
-27
33
0
14
62
24
-24
34
0
50
90
100
AcDbRotatedDimension
1001
ACAD
1000
DSTYLE
1002
{
1070
    74
1070
     0
1070
   279
1070
     0
1070
   172
1070
     1
1070
   173
1070
     1
1070
   340
1005
23C
1070
   271
1070
     1
1070
    77
1070
     1
1070
    73
1070
     0
1070
   171
1070
     3
1070
   274
1070
     4
1070
   177
1070
     2
1070
   176
1070
     2
1070
   178
1070
     7
1070
    78
1070
     8
1070
    41
1041
3.175
1070
   147
1041
1.75
1070
    42
1041
2.0
1070
    44
1041
2.0
1070
   140
1041
3.5
1070
   343
1005
24E
1070
   344
1005
24E
1002
}
0
ENDSEC
0
SECTION
2
OBJECTS
0
DICTIONARY
5
2f7
330
0
100
AcDbDictionary
280
0
281
1
3
ACAD_GROUP
350
2f8
3
ACAD_MLINESTYLE
350
2f9
0
DICTIONARY
5
2f8
330
0
100
AcDbDictionary
280
0
281
1
0
DICTIONARY
5
2f9
330
0
100
AcDbDictionary
280
0
281
1
3
Standard
350
18
0
MLINESTYLE
5
18
330
2f9
100
AcDbMlineStyle
2
Standard
70
0
3

62
256
51
90
52
90
71
2
49
-0.5
62
256
6
ByLayer
49
0.5
62
256
6
ByLayer
0
RASTERVARIABLES
5
2e6
330

100
AcDbRasterVariables
90
0
70
1
71
1
72
1
0
ENDSEC
0
EOF
