0
SECTION
2
HEADER
9
$ACADVER
1
AC1015
9
$DWGCODEPAGE
3
ANSI_1252
9
$HANDSEED
5
226
9
$ANGBASE
50
0
9
$ANGDIR
70
0
9
$ATTMODE
70
1
9
$AUNITS
70
0
9
$AUPREC
70
0
9
$CECOLOR
62
256
9
$CELTSCALE
40
1
9
$CELTYPE
6
ByLayer
9
$CELWEIGHT
370
18
9
$CLAYER
8
0
9
$CMLJUST
70
0
9
$CMLSCALE
40
1
9
$CMLSTYLE
2
Standard
9
$DIMSTYLE
2
Standard
9
$TEXTSIZE
40
0.2
9
$TEXTSTYLE
7
Standard
9
$LUNITS
70
2
9
$LUPREC
70
4
9
$EXTNAMES
290
1
9
$INSUNITS
70
4
9
$LTSCALE
40
1
9
$LWDISPLAY
290
1
9
$PDMODE
70
0
9
$PDSIZE
40
0
9
$PLINEGEN
70
0
0
ENDSEC
0
SECTION
2
CLASSES
0
CLASS
1
RASTERVARIABLES
2
AcDbRasterVariables
3
ISM
90
0
280
0
281
0
0
ENDSEC
0
SECTION
2
TABLES
0
TABLE
2
VPORT
5
21c
100
AcDbSymbolTable
0
VPORT
5
1
100
AcDbSymbolTableRecord
100
AcDbViewportTableRecord
2
*Active
70
0
10
0
20
0
11
1
21
1
12
-1
22
1
13
0
23
0
14
0.5
24
0.5
15
10
25
10
16
0
26
0
36
1
17
0
27
0
37
0
0
ENDTAB
0
TABLE
2
LTYPE
5
21d
100
AcDbSymbolTable
0
LTYPE
5
14
100
AcDbSymbolTableRecord
100
AcDbLinetypeTableRecord
70
0
2
ByBlock
3

72
65
73
0
40
0
0
LTYPE
5
15
100
AcDbSymbolTableRecord
100
AcDbLinetypeTableRecord
70
0
2
ByLayer
3

72
65
73
0
40
0
0
LTYPE
5
16
100
AcDbSymbolTableRecord
100
AcDbLinetypeTableRecord
70
0
2
CONTINUOUS
3
Solid line
72
65
73
0
40
0
0
LTYPE
5
6A
100
AcDbSymbolTableRecord
100
AcDbLinetypeTableRecord
70
0
2
CENTER
3
____ _ ____ _ ____ _ ____
72
65
73
4
40
47.5
49
22
74
0
49
-8.5
74
0
49
8.5
74
0
49
-8.5
74
0
0
LTYPE
5
6B
100
AcDbSymbolTableRecord
100
AcDbLinetypeTableRecord
70
0
2
DASHED
3
__ __ __ __ __ __ __ __ __
72
65
73
2
40
25.72
49
12.86
74
0
49
-12.86
74
0
0
ENDTAB
0
TABLE
2
LAYER
5
21e
100
AcDbSymbolTable
0
LAYER
5
10
100
AcDbSymbolTableRecord
100
AcDbLayerTableRecord
2
0
70
0
62
7
6
CONTINUOUS
290
1
370
-3
390
0
0
LAYER
5
6D
100
AcDbSymbolTableRecord
100
AcDbLayerTableRecord
2
1
70
0
62
4
6
CONTINUOUS
290
1
370
-3
390
0
0
LAYER
5
7C
100
AcDbSymbolTableRecord
100
AcDbLayerTableRecord
2
81
70
0
62
-3
6
CONTINUOUS
290
1
370
-3
390
0
0
LAYER
5
7E
100
AcDbSymbolTableRecord
100
AcDbLayerTableRecord
2
80
70
0
62
-6
6
CONTINUOUS
290
1
370
-3
390
0
0
LAYER
5
187
100
AcDbSymbolTableRecord
100
AcDbLayerTableRecord
2
4
70
0
62
-2
6
CENTER
290
1
370
-3
390
0
0
LAYER
5
190
100
AcDbSymbolTableRecord
100
AcDbLayerTableRecord
2
2
70
0
62
7
6
CONTINUOUS
290
1
370
-3
390
0
0
LAYER
5
208
100
AcDbSymbolTableRecord
100
AcDbLayerTableRecord
2
SK1
70
0
62
4
6
CONTINUOUS
290
1
370
-3
390
0
0
LAYER
5
209
100
AcDbSymbolTableRecord
100
AcDbLayerTableRecord
2
SK6
70
0
62
5
6
CONTINUOUS
290
1
370
-3
390
0
0
LAYER
5
20a
100
AcDbSymbolTableRecord
100
AcDbLayerTableRecord
2
SK4
70
0
62
2
6
CENTER
290
1
370
-3
390
0
0
LAYER
5
20b
100
AcDbSymbolTableRecord
100
AcDbLayerTableRecord
2
SK2
70
0
62
7
6
CONTINUOUS
290
1
370
-3
390
0
0
ENDTAB
0
TABLE
2
STYLE
5
21f
100
AcDbSymbolTable
0
STYLE
5
11
100
AcDbSymbolTableRecord
100
AcDbTextStyleTableRecord
2
Standard
3
txt
70
0
71
0
40
0
41
1
42
0
50
0
0
STYLE
5
189
100
AcDbSymbolTableRecord
100
AcDbTextStyleTableRecord
2
iso_b_vert
3
simplex.shx
70
0
71
0
40
0
41
1
42
0
50
0
0
STYLE
5
18A
100
AcDbSymbolTableRecord
100
AcDbTextStyleTableRecord
2
DWGDirectTextStyle
3
simplex
70
0
71
0
40
0
41
1
42
0
50
0
0
ENDTAB
0
TABLE
2
DIMSTYLE
5
220
100
AcDbSymbolTable
100
AcDbDimStyleTable
0
DIMSTYLE
105
27
100
AcDbSymbolTableRecord
100
AcDbDimStyleTableRecord
2
Standard
70
0
3
<>
41
0.18
42
0.0625
44
0.18
140
0.18
147
0.09
73
0
74
0
77
1
271
2
275
0
278
52
280
0
340
11
0
ENDTAB
0
TABLE
2
VIEW
5
221
100
AcDbSymbolTable
0
ENDTAB
0
TABLE
2
UCS
5
222
100
AcDbSymbolTable
0
ENDTAB
0
TABLE
2
APPID
5
223
100
AcDbSymbolTable
0
APPID
5
12
100
AcDbSymbolTableRecord
100
AcDbRegAppTableRecord
2
ACAD
70
0
0
ENDTAB
0
TABLE
2
BLOCK_RECORD
5
224
100
AcDbSymbolTable
0
BLOCK_RECORD
5
1F
100
AcDbSymbolTableRecord
100
AcDbBlockTableRecord
2
*Model_Space
340
0
70
0
0
BLOCK_RECORD
5
1B
100
AcDbSymbolTableRecord
100
AcDbBlockTableRecord
2
*Paper_Space
340
0
70
0
0
BLOCK_RECORD
5
23
100
AcDbSymbolTableRecord
100
AcDbBlockTableRecord
2
*Paper_Space0
340
0
70
0
0
BLOCK_RECORD
5
18E
100
AcDbSymbolTableRecord
100
AcDbBlockTableRecord
2
DimnDraft3D1
340
0
70
0
0
BLOCK_RECORD
5
199
100
AcDbSymbolTableRecord
100
AcDbBlockTableRecord
2
DimnDraft3D2
340
0
70
0
0
BLOCK_RECORD
5
1A5
100
AcDbSymbolTableRecord
100
AcDbBlockTableRecord
2
DimnDraft3D3
340
0
70
0
0
ENDTAB
0
ENDSEC
0
SECTION
2
BLOCKS
0
BLOCK
5
20
100
AcDbEntity
8
0
100
AcDbBlockBegin
2
*Model_Space
70
0
10
0
20
0
30
0
3
*Model_Space
0
ENDBLK
5
21
100
AcDbEntity
8
0
100
AcDbBlockEnd
0
BLOCK
5
1C
100
AcDbEntity
8
0
100
AcDbBlockBegin
2
*Paper_Space
70
0
10
0
20
0
30
0
3
*Paper_Space
0
ENDBLK
5
1D
100
AcDbEntity
8
0
100
AcDbBlockEnd
0
BLOCK
5
24
100
AcDbEntity
8
0
100
AcDbBlockBegin
2
*Paper_Space0
70
0
10
0
20
0
30
0
3
*Paper_Space0
0
ENDBLK
5
25
100
AcDbEntity
8
0
100
AcDbBlockEnd
0
BLOCK
5
196
100
AcDbEntity
8
0
100
AcDbBlockBegin
2
DimnDraft3D1
70
0
10
0
20
0
30
0
3
DimnDraft3D1
0
MTEXT
5
18F
100
AcDbEntity
8
2
62
256
6
ByLayer
370
13
48
1
60
0
100
AcDbMText
10
46.330263
20
-27.945821
30
0
210
0
220
0
230
1
1
\W0.6563;95
40
3.5
41
0
44
1.084337
50
0
71
7
72
5
7
iso_b_vert
0
LINE
5
191
100
AcDbEntity
8
2
62
256
6
ByLayer
370
13
48
1
60
0
100
AcDbLine
10
0
20
-21.2875
30
0
11
0
21
-30.820821
31
0
39
0
210
0
220
0
230
1
0
LINE
5
192
100
AcDbEntity
8
2
62
256
6
ByLayer
370
13
48
1
60
0
100
AcDbLine
10
95
20
-1.9575
30
0
11
95
21
-30.820821
31
0
39
0
210
0
220
0
230
1
0
LINE
5
193
100
AcDbEntity
8
2
62
256
6
ByLayer
370
13
48
1
60
0
100
AcDbLine
10
0
20
-28.820821
30
0
11
95
21
-28.820821
31
0
39
0
210
0
220
0
230
1
0
SOLID
5
194
100
AcDbEntity
8
2
62
256
6
ByLayer
370
13
48
1
60
0
100
AcDbTrace
10
0
20
-28.820821
30
0
11
3.499998
21
-28.360037
31
0
12
3.500002
22
-29.281605
32
0
13
0
23
-28.820821
33
0
39
0
210
0
220
0
230
1
0
SOLID
5
195
100
AcDbEntity
8
2
62
256
6
ByLayer
370
13
48
1
60
0
100
AcDbTrace
10
95
20
-28.820821
30
0
11
91.500002
21
-29.281605
31
0
12
91.499998
22
-28.360037
32
0
13
95
23
-28.820821
33
0
39
0
210
0
220
0
230
1
0
ENDBLK
5
197
100
AcDbEntity
8
0
100
AcDbBlockEnd
0
BLOCK
5
1A2
100
AcDbEntity
8
0
100
AcDbBlockBegin
2
DimnDraft3D2
70
0
10
0
20
0
30
0
3
DimnDraft3D2
0
MTEXT
5
19A
100
AcDbEntity
8
SK2
62
256
6
ByLayer
370
13
48
1
60
0
100
AcDbMText
10
-42.728297
20
2.146053
30
0
210
0
220
0
230
1
1
\W0.7183;40
40
3.5
41
0
44
1.084337
50
90
71
7
72
5
7
iso_b_vert
0
MTEXT
5
19C
100
AcDbEntity
8
SK2
62
256
6
ByLayer
370
13
48
1
60
0
100
AcDbMText
10
-42.728297
20
-3.076604
30
0
210
0
220
0
230
1
1
%%c
40
3.5
41
0
44
1.084337
50
90
71
7
72
5
7
iso_b_vert
0
LINE
5
19D
100
AcDbEntity
8
SK2
62
256
6
ByLayer
370
13
48
1
60
0
100
AcDbLine
10
-1.2875
20
20
30
0
11
-42.978297
21
20
31
0
39
0
210
0
220
0
230
1
0
LINE
5
19E
100
AcDbEntity
8
SK2
62
256
6
ByLayer
370
13
48
1
60
0
100
AcDbLine
10
-1.2875
20
-20
30
0
11
-42.978297
21
-20
31
0
39
0
210
0
220
0
230
1
0
LINE
5
19F
100
AcDbEntity
8
SK2
62
256
6
ByLayer
370
13
48
1
60
0
100
AcDbLine
10
-40.978297
20
20
30
0
11
-40.978297
21
-20
31
0
39
0
210
0
220
0
230
1
0
SOLID
5
1A0
100
AcDbEntity
8
SK2
62
256
6
ByLayer
370
13
48
1
60
0
100
AcDbTrace
10
-40.978297
20
20
30
0
11
-40.517513
21
16.500002
31
0
12
-41.439081
22
16.499998
32
0
13
-40.978297
23
20
33
0
39
0
210
0
220
0
230
1
0
SOLID
5
1A1
100
AcDbEntity
8
SK2
62
256
6
ByLayer
370
13
48
1
60
0
100
AcDbTrace
10
-40.978297
20
-20
30
0
11
-41.439081
21
-16.500002
31
0
12
-40.517513
22
-16.499998
32
0
13
-40.978297
23
-20
33
0
39
0
210
0
220
0
230
1
0
ENDBLK
5
1A3
100
AcDbEntity
8
0
100
AcDbBlockEnd
0
BLOCK
5
1AC
100
AcDbEntity
8
0
100
AcDbBlockBegin
2
DimnDraft3D3
70
0
10
0
20
0
30
0
3
DimnDraft3D3
0
MTEXT
5
1A6
100
AcDbEntity
8
2
62
256
6
ByLayer
370
13
48
1
60
0
100
AcDbMText
10
109.725712
20
-11.457235
30
0
210
0
220
0
230
1
1
\W0.7003;0,37
40
3.5
41
0
44
1.084337
50
90
71
7
72
5
7
iso_b_vert
0
LINE
5
1A7
100
AcDbEntity
8
2
62
256
6
ByLayer
370
13
48
1
60
0
100
AcDbLine
10
96.5875
20
-0.37
30
0
11
112.600712
21
-0.37
31
0
39
0
210
0
220
0
230
1
0
LINE
5
1A8
100
AcDbEntity
8
2
62
256
6
ByLayer
370
13
48
1
60
0
100
AcDbLine
10
99.8875
20
0
30
0
11
112.600712
21
0
31
0
39
0
210
0
220
0
230
1
0
LINE
5
1A9
100
AcDbEntity
8
2
62
256
6
ByLayer
370
13
48
1
60
0
100
AcDbLine
10
110.600712
20
8.75
30
0
11
110.600712
21
-12.332235
31
0
39
0
210
0
220
0
230
1
0
SOLID
5
1AA
100
AcDbEntity
8
2
62
256
6
ByLayer
370
13
48
1
60
0
100
AcDbTrace
10
110.600712
20
-0.37
30
0
11
111.061496
21
-3.869998
31
0
12
110.139928
22
-3.870002
32
0
13
110.600712
23
-0.37
33
0
39
0
210
0
220
0
230
1
0
SOLID
5
1AB
100
AcDbEntity
8
2
62
256
6
ByLayer
370
13
48
1
60
0
100
AcDbTrace
10
110.600712
20
0
30
0
11
110.139928
21
3.499998
31
0
12
111.061496
22
3.500002
32
0
13
110.600712
23
0
33
0
39
0
210
0
220
0
230
1
0
ENDBLK
5
1AD
100
AcDbEntity
8
0
100
AcDbBlockEnd
0
ENDSEC
0
SECTION
2
ENTITIES
0
ARC
5
F8
100
AcDbEntity
8
SK1
62
256
6
ByLayer
370
13
48
1
60
0
100
AcDbCircle
39
0
10
0.6
20
-15
30
0
40
0.999999999999989
210
0
220
0
230
-1
100
AcDbArc
50
113.578178
51
126.870857
0
ARC
5
F9
100
AcDbEntity
8
SK1
62
256
6
ByLayer
370
13
48
1
60
0
100
AcDbCircle
39
0
10
0.6
20
15
30
0
40
0.999999999999989
210
0
220
0
230
-1
100
AcDbArc
50
233.129143
51
246.421822
0
ARC
5
FA
100
AcDbEntity
8
1
62
256
6
ByLayer
370
13
48
1
60
0
100
AcDbCircle
39
0
10
-82
20
0
30
0
40
19.9999999999898
210
0
220
0
230
-1
100
AcDbArc
50
317.838202
51
332.251521
0
ARC
5
FB
100
AcDbEntity
8
1
62
256
6
ByLayer
370
13
48
1
60
0
100
AcDbCircle
39
0
10
-82
20
0
30
0
40
19.9999999996522
210
0
220
0
230
-1
100
AcDbArc
50
27.748479
51
42.161798
0
ELLIPSE
5
FC
100
AcDbEntity
8
1
62
256
6
ByLayer
370
13
48
1
60
0
100
AcDbEllipse
10
155.358606
20
0
30
0
11
102.89108031941
21
1.03985744190412E-13
31
0
210
0
220
0
230
-1
40
0.19438
41
2.65729033784389
42
-2.65729033784388
0
ELLIPSE
5
FD
100
AcDbEntity
8
1
62
256
6
ByLayer
370
13
48
1
60
0
100
AcDbEllipse
10
58.184327
20
-0.005492
30
0
11
0.000643829723285552
21
1.49999986182776
31
0
210
0
220
0
230
1
40
0.939693
41
0
42
6.28318530717959
0
ELLIPSE
5
FE
100
AcDbEntity
8
1
62
256
6
ByLayer
370
13
48
1
60
0
100
AcDbEllipse
10
73.711099
20
-5.409545
30
0
11
9.18454765366783E-17
21
1.5
31
0
210
0
220
0
230
1
40
0.989133
41
3.14157874272961
42
-2.7052524941401
0
ELLIPSE
5
FF
100
AcDbEntity
8
1
62
256
6
ByLayer
370
13
48
1
60
0
100
AcDbEllipse
10
73.711099
20
-5.409545
30
0
11
9.18454765366783E-17
21
1.5
31
0
210
0
220
0
230
1
40
0.989133
41
-2.7052524941401
42
-1.65805494294351
0
ELLIPSE
5
100
100
AcDbEntity
8
1
62
256
6
ByLayer
370
13
48
1
60
0
100
AcDbEllipse
10
73.711099
20
-5.409545
30
0
11
9.18454765366783E-17
21
1.5
31
0
210
0
220
0
230
1
40
0.989133
41
-1.65805494294351
42
-0.610857391746917
0
ELLIPSE
5
101
100
AcDbEntity
8
1
62
256
6
ByLayer
370
13
48
1
60
0
100
AcDbEllipse
10
73.711099
20
-5.409545
30
0
11
9.18454765366783E-17
21
1.5
31
0
210
0
220
0
230
1
40
0.989133
41
-0.610857391746917
42
-0.118543615538978
0
ELLIPSE
5
102
100
AcDbEntity
8
1
62
256
6
ByLayer
370
13
48
1
60
0
100
AcDbEllipse
10
74.299191
20
-5.409545
30
0
11
-3.18162063613803E-16
21
-1.73205080756887
31
0
210
0
220
0
230
1
40
0.989133
41
0.959938935047978
42
2.00713648624458
0
ELLIPSE
5
103
100
AcDbEntity
8
1
62
256
6
ByLayer
370
13
48
1
60
0
100
AcDbEllipse
10
74.299191
20
-5.409545
30
0
11
-3.18162063613803E-16
21
-1.73205080756887
31
0
210
0
220
0
230
1
40
0.989133
41
-0.0872586161486198
42
0.959938935047977
0
ELLIPSE
5
104
100
AcDbEntity
8
1
62
256
6
ByLayer
370
13
48
1
60
0
100
AcDbEllipse
10
74.299191
20
-5.409545
30
0
11
-3.18162063613803E-16
21
-1.73205080756887
31
0
210
0
220
0
230
1
40
0.989133
41
-1.13445616734522
42
-0.0872586161486198
0
ELLIPSE
5
105
100
AcDbEntity
8
1
62
256
6
ByLayer
370
13
48
1
60
0
100
AcDbEllipse
10
74.299191
20
-5.409545
30
0
11
-3.18162063613803E-16
21
-1.73205080756887
31
0
210
0
220
0
230
1
40
0.989133
41
-2.18165371854182
42
-1.13445616734522
0
ELLIPSE
5
106
100
AcDbEntity
8
1
62
256
6
ByLayer
370
13
48
1
60
0
100
AcDbEllipse
10
74.299191
20
-5.409545
30
0
11
-3.18162063613803E-16
21
-1.73205080756887
31
0
210
0
220
0
230
1
40
0.989133
41
3.05433403744118
42
-2.18165371854182
0
ELLIPSE
5
107
100
AcDbEntity
8
1
62
256
6
ByLayer
370
13
48
1
60
0
100
AcDbEllipse
10
74.299191
20
-5.409545
30
0
11
-3.18162063613803E-16
21
-1.73205080756887
31
0
210
0
220
0
230
1
40
0.989133
41
2.00713648624458
42
3.05433403744118
0
ELLIPSE
5
108
100
AcDbEntity
8
1
62
256
6
ByLayer
370
13
48
1
60
0
100
AcDbEllipse
10
74.205837
20
-5.409545
30
0
11
-7.34763812293426E-16
21
-4
31
0
210
0
220
0
230
1
40
0.989133
41
-1.32732281427306
42
-2.24484073350127E-16
0
ELLIPSE
5
109
100
AcDbEntity
8
1
62
256
6
ByLayer
370
13
48
1
60
0
100
AcDbEllipse
10
74.205837
20
-5.409545
30
0
11
-7.34763812293426E-16
21
-4
31
0
210
0
220
0
230
1
40
0.989133
41
0
42
1.57079620754368
0
ELLIPSE
5
10A
100
AcDbEntity
8
1
62
256
6
ByLayer
370
13
48
1
60
0
100
AcDbEllipse
10
74.205837
20
-5.409545
30
0
11
-7.34763812293426E-16
21
-4
31
0
210
0
220
0
230
1
40
0.989133
41
1.57079643454856
42
-1.81426960066434
0
ELLIPSE
5
10B
100
AcDbEntity
8
1
62
256
6
ByLayer
370
13
48
1
60
0
100
AcDbEllipse
10
74.299191
20
-5.409545
30
0
11
-5.82759548625224E-16
21
-3.1725
31
0
210
0
220
0
230
1
40
0.989133
41
0
42
6.28318530717959
0
ELLIPSE
5
10C
100
AcDbEntity
8
1
62
256
6
ByLayer
370
13
48
1
60
0
100
AcDbEllipse
10
73.564076
20
-5.409545
30
0
11
-2.75536429610035E-16
21
-1.5
31
0
210
0
220
0
230
1
40
0.989133
41
0.134696007304307
42
1.57079635121524
0
ELLIPSE
5
10D
100
AcDbEntity
8
1
62
256
6
ByLayer
370
13
48
1
60
0
100
AcDbEllipse
10
73.564076
20
-5.409545
30
0
11
-2.75536429610035E-16
21
-1.5
31
0
210
0
220
0
230
1
40
0.989133
41
1.57079635121524
42
2.95437345940058
0
ELLIPSE
5
10E
100
AcDbEntity
8
1
62
256
6
ByLayer
370
13
48
1
60
0
100
AcDbEllipse
10
84.964678
20
-7.253109
30
0
11
-1.45804694001977E-16
21
-0.79375
31
0
210
0
220
0
230
1
40
0.989133
41
-0.334637428077882
42
7.77041846120187E-06
0
ELLIPSE
5
10F
100
AcDbEntity
8
1
62
256
6
ByLayer
370
13
48
1
60
0
100
AcDbEllipse
10
76.414565
20
-8E-06
30
0
11
-1.45804694001977E-16
21
-0.79375
31
0
210
0
220
0
230
1
40
0.989133
41
-2.44346095279207
42
-1.77210950167413
0
ELLIPSE
5
110
100
AcDbEntity
8
1
62
256
6
ByLayer
370
13
48
1
60
0
100
AcDbEllipse
10
84.964565
20
7.253229
30
0
11
-1.45804694001977E-16
21
-0.79375
31
0
210
0
220
0
230
1
40
0.989133
41
-3.14158488317134
42
-2.80691807629784
0
ELLIPSE
5
111
100
AcDbEntity
8
1
62
256
6
ByLayer
370
13
48
1
60
0
100
AcDbEllipse
10
85.664875
20
-7.253109
30
0
11
4.86015646673256E-17
21
0.79375
31
0
210
0
220
0
230
1
40
0.989133
41
2.44346095279206
42
-2.44346095279207
0
ELLIPSE
5
112
100
AcDbEntity
8
1
62
256
6
ByLayer
370
13
48
1
60
0
100
AcDbEllipse
10
77.114762
20
-8E-06
30
0
11
4.86015646673256E-17
21
0.79375
31
0
210
0
220
0
230
1
40
0.989133
41
0.698131700797718
42
2.44346095279208
0
ELLIPSE
5
113
100
AcDbEntity
8
1
62
256
6
ByLayer
370
13
48
1
60
0
100
AcDbEllipse
10
85.664762
20
7.253229
30
0
11
4.86015646673256E-17
21
0.79375
31
0
210
0
220
0
230
1
40
0.989133
41
-0.698131700797719
42
0.698131700797718
0
ELLIPSE
5
114
100
AcDbEntity
8
1
62
256
6
ByLayer
370
13
48
1
60
0
100
AcDbEllipse
10
94.214876
20
0.000128
30
0
11
4.86015646673256E-17
21
0.79375
31
0
210
0
220
0
230
1
40
0.989133
41
-2.44346095279207
42
-0.698131700797716
0
ELLIPSE
5
115
100
AcDbEntity
8
1
62
256
6
ByLayer
370
13
48
1
60
0
100
AcDbEllipse
10
84.964622
20
6E-05
30
0
11
1.57851759007704E-16
21
2.578
31
0
210
0
220
0
230
1
40
0.989133
41
-3.00385350932178
42
-2.04556965321532
0
ELLIPSE
5
116
100
AcDbEntity
8
1
62
256
6
ByLayer
370
13
48
1
60
0
100
AcDbEllipse
10
84.964622
20
6E-05
30
0
11
1.57851759007704E-16
21
2.578
31
0
210
0
220
0
230
1
40
0.989133
41
-0.72865297293193
42
-0.137739064731436
0
ELLIPSE
5
117
100
AcDbEntity
8
1
62
256
6
ByLayer
370
13
48
1
60
0
100
AcDbEllipse
10
85.664819
20
6E-05
30
0
11
1.57851759007704E-16
21
2.578
31
0
210
0
220
0
230
1
40
0.989133
41
0
42
6.28318530717959
0
ELLIPSE
5
118
100
AcDbEntity
8
1
62
256
6
ByLayer
370
13
48
1
60
0
100
AcDbEllipse
10
59.250618
20
8
30
0
11
-2.20429143688028E-15
21
-12
31
0
210
0
220
0
230
1
40
0.989133
41
1.71323240371359
42
2.01247635740256
0
ELLIPSE
5
119
100
AcDbEntity
8
1
62
256
6
ByLayer
370
13
48
1
60
0
100
AcDbEllipse
10
59.250618
20
-8
30
0
11
-2.20429143688028E-15
21
-12
31
0
210
0
220
0
230
1
40
0.989133
41
1.12910060328504
42
1.428344556974
0
ELLIPSE
5
11A
100
AcDbEntity
8
1
62
256
6
ByLayer
370
13
48
1
60
0
100
AcDbEllipse
10
16.948929
20
0
30
0
11
9.36741787978216
21
19.7417491527504
31
0
210
0
220
0
230
-1
40
0.341999
41
-2.98886640869145
42
-2.0452731260899
0
ELLIPSE
5
11B
100
AcDbEntity
8
1
62
256
6
ByLayer
370
13
48
1
60
0
100
AcDbEllipse
10
-0.948929
20
0
30
0
11
9.36741787978166
21
-19.7417491527498
31
0
210
0
220
0
230
-1
40
0.341999
41
-1.09631952749991
42
-0.152726244898351
0
ELLIPSE
5
11C
100
AcDbEntity
8
1
62
256
6
ByLayer
370
13
48
1
60
0
100
AcDbEllipse
10
16.948929
20
0
30
0
11
9.36741787978179
21
-19.7417491527499
31
0
210
0
220
0
230
-1
40
0.341999
41
2.04527312608988
42
2.98886640869145
0
ELLIPSE
5
11D
100
AcDbEntity
8
1
62
256
6
ByLayer
370
13
48
1
60
0
100
AcDbEllipse
10
-0.948929
20
0
30
0
11
9.36741787978164
21
19.7417491527497
31
0
210
0
220
0
230
-1
40
0.341999
41
0.152726244898352
42
1.09631952749992
0
ELLIPSE
5
11E
100
AcDbEntity
8
1
62
256
6
ByLayer
370
13
48
1
60
0
100
AcDbEllipse
10
76.747657
20
2.462246
30
0
11
-4.59227382683391E-16
21
-2.5
31
0
210
0
220
0
230
1
40
0.989133
41
2.44346879924317
42
2.90385179124198
0
ELLIPSE
5
11F
100
AcDbEntity
8
1
62
256
6
ByLayer
370
13
48
1
60
0
100
AcDbEllipse
10
75.931665
20
2.436486
30
0
11
1.53075794227803E-16
21
2.5000000000001
31
0
210
0
220
0
230
1
40
0.989133
41
-1.46056788336874
42
-0.224868932613787
0
ELLIPSE
5
120
100
AcDbEntity
8
1
62
256
6
ByLayer
370
13
48
1
60
0
100
AcDbEllipse
10
75.858153
20
2.436486
30
0
11
-4.5922738268341E-16
21
-2.5000000000001
31
0
210
0
220
0
230
1
40
0.989133
41
1.65797566802367
42
2.90155541159908
0
ELLIPSE
5
121
100
AcDbEntity
8
1
62
256
6
ByLayer
370
13
48
1
60
0
100
AcDbEllipse
10
60.899293
20
10.394356
30
0
11
1.43673390197309
21
-0.811354235165614
31
0
210
0
220
0
230
1
40
0.804038
41
0
42
6.28318530717959
0
ELLIPSE
5
122
100
AcDbEntity
8
1
62
256
6
ByLayer
370
13
48
1
60
0
100
AcDbEllipse
10
60.899293
20
10.394356
30
0
11
1.95918259359967
21
-1.1063921388622
31
0
210
0
220
0
230
1
40
0.804038
41
0.195171552479377
42
3.08533866250329
0
ELLIPSE
5
123
100
AcDbEntity
8
1
62
256
6
ByLayer
370
13
48
1
60
0
100
AcDbEllipse
10
58.184327
20
-0.005784
30
0
11
-0.000708212695614962
21
-1.64999984801035
31
0
210
0
220
0
230
1
40
0.939693
41
-1.28744217674257
42
-1.85688639025902
0
ELLIPSE
5
124
100
AcDbEntity
8
1
62
256
6
ByLayer
370
13
48
1
60
0
100
AcDbEllipse
10
58.184327
20
-0.005784
30
0
11
-0.000965744584929512
21
-2.24999979274143
31
0
210
0
220
0
230
1
40
0.939693
41
1.44528364583002E-05
42
3.14155962811979
0
ELLIPSE
5
125
100
AcDbEntity
8
1
62
256
6
ByLayer
370
13
48
1
60
0
100
AcDbEllipse
10
60.899293
20
-10.394356
30
0
11
1.43673390197309
21
0.811354235165614
31
0
210
0
220
0
230
1
40
0.804038
41
0
42
6.28318530717959
0
ELLIPSE
5
126
100
AcDbEntity
8
1
62
256
6
ByLayer
370
13
48
1
60
0
100
AcDbEllipse
10
60.899293
20
-10.394356
30
0
11
1.95918259359967
21
1.1063921388622
31
0
210
0
220
0
230
1
40
0.804038
41
-3.14159243495717
42
-0.211762700500549
0
ELLIPSE
5
127
100
AcDbEntity
8
1
62
256
6
ByLayer
370
13
48
1
60
0
100
AcDbEllipse
10
77.850329
20
2.462246
30
0
11
-4.43196599545277E-16
21
-2.41272959898187
31
0
210
0
220
0
230
1
40
0.989133
41
2.44346095279206
42
-3.04694898559348
0
ELLIPSE
5
128
100
AcDbEntity
8
1
62
256
6
ByLayer
370
13
48
1
60
0
100
AcDbEllipse
10
77.034337
20
2.436486
30
0
11
-4.5922738268341E-16
21
-2.5000000000001
31
0
210
0
220
0
230
1
40
0.989133
41
2.90048411772719
42
-0.876960755119714
0
ELLIPSE
5
129
100
AcDbEntity
8
1
62
256
6
ByLayer
370
13
48
1
60
0
100
AcDbEllipse
10
77.273918
20
1.950858
30
0
11
1.49014662499475E-16
21
2.43367449522622
31
0
210
0
220
0
230
1
40
0.989133
41
2.04583486086105
42
2.44346095279206
0
ELLIPSE
5
12A
100
AcDbEntity
8
1
62
256
6
ByLayer
370
13
48
1
60
0
100
AcDbEllipse
10
80.969762
20
-1.293573
30
0
11
1.53075794227797E-16
21
2.5
31
0
210
0
220
0
230
1
40
0.989133
41
2.0952949315191
42
2.44346095279207
0
ELLIPSE
5
12B
100
AcDbEntity
8
1
62
256
6
ByLayer
370
13
48
1
60
0
100
AcDbEllipse
10
83.139544
20
-3.134209
30
0
11
1.53075794227797E-16
21
2.5
31
0
210
0
220
0
230
1
40
0.989133
41
2.44346095279207
42
2.79162697406502
0
ELLIPSE
5
12C
100
AcDbEntity
8
1
62
256
6
ByLayer
370
13
48
1
60
0
100
AcDbEllipse
10
71.414256
20
-8.011221
30
0
11
1.9999991445344
21
-0.00184982746947
31
0
210
0
220
0
230
1
40
0.000137
41
-2.12249422106095
42
-1.77943467743622
0
ELLIPSE
5
12D
100
AcDbEntity
8
1
62
256
6
ByLayer
370
13
48
1
60
0
100
AcDbEllipse
10
71.414259
20
-8
30
0
11
1.99999987900486
21
0.000695687112772048
31
0
210
0
220
0
230
1
40
0.00234
41
-2.12247227796221
42
-1.77943719400618
0
ELLIPSE
5
12E
100
AcDbEntity
8
1
62
256
6
ByLayer
370
13
48
1
60
0
100
AcDbEllipse
10
58.270131
20
-0.002948
30
0
11
0.00424931710768107
21
-2.24999606134781
31
0
210
0
220
0
230
-1
40
0.993863
41
2.36343084978145
42
0.783816039436925
0
ELLIPSE
5
12F
100
AcDbEntity
8
1
62
256
6
ByLayer
370
13
48
1
60
0
100
AcDbEllipse
10
58.270131
20
-0.002948
30
0
11
0.00311616583890306
21
-1.64999711165543
31
0
210
0
220
0
230
-1
40
0.993863
41
1.28974223619184
42
1.85750465297761
0
ELLIPSE
5
130
100
AcDbEntity
8
1
62
256
6
ByLayer
370
13
48
1
60
0
100
AcDbEllipse
10
61.564423
20
8
30
0
11
-6.12303176913491E-16
21
10.0000000000376
31
0
210
0
220
0
230
-1
40
0.880161
41
1.02095924925218
42
1.5707963267949
0
ELLIPSE
5
131
100
AcDbEntity
8
1
62
256
6
ByLayer
370
13
48
1
60
0
100
AcDbEllipse
10
61.564423
20
-8
30
0
11
-6.12303176911513E-16
21
10.0000000000053
31
0
210
0
220
0
230
-1
40
0.880161
41
1.5707963267949
42
2.12063340433939
0
ELLIPSE
5
132
100
AcDbEntity
8
1
62
256
6
ByLayer
370
13
48
1
60
0
100
AcDbEllipse
10
83.850555
20
6E-05
30
0
11
-5.23519216259066E-16
21
-2.85
31
0
210
0
220
0
230
1
40
0.989133
41
2.45676677137598
42
2.66015711755094
0
ELLIPSE
5
133
100
AcDbEntity
8
1
62
256
6
ByLayer
370
13
48
1
60
0
100
AcDbEllipse
10
83.850555
20
6E-05
30
0
11
-5.23519216259066E-16
21
-2.85
31
0
210
0
220
0
230
1
40
0.989133
41
0.481417161676649
42
0.73415126243647
0
ELLIPSE
5
134
100
AcDbEntity
8
1
62
256
6
ByLayer
370
13
48
1
60
0
100
AcDbEllipse
10
85.497212
20
6E-05
30
0
11
-4.31673739722388E-16
21
-2.35
31
0
210
0
220
0
230
1
40
0.989133
41
-1.5045491574936
42
-0.764363177196834
0
ELLIPSE
5
135
100
AcDbEntity
8
1
62
256
6
ByLayer
370
13
48
1
60
0
100
AcDbEllipse
10
85.727131
20
-0.498407
30
0
11
-4.77596477990727E-16
21
-2.6
31
0
210
0
220
0
230
1
40
0.989133
41
2.57574678650877
42
-1.7030664676094
0
ELLIPSE
5
136
100
AcDbEntity
8
1
62
256
6
ByLayer
370
13
48
1
60
0
100
AcDbEllipse
10
85.267294
20
0.498528
30
0
11
-4.77596477990727E-16
21
-2.6
31
0
210
0
220
0
230
1
40
0.989133
41
-0.565845867081035
42
1.43852618598039
0
ELLIPSE
5
137
100
AcDbEntity
8
1
62
256
6
ByLayer
370
13
48
1
60
0
100
AcDbEllipse
10
85.570724
20
6E-05
30
0
11
1.1327608772857E-16
21
1.85
31
0
210
0
220
0
230
1
40
0.989133
41
-1.47776994698716
42
-0.791142387703269
0
ELLIPSE
5
138
100
AcDbEntity
8
1
62
256
6
ByLayer
370
13
48
1
60
0
100
AcDbEllipse
10
85.340806
20
0.498528
30
0
11
1.2858366715135E-16
21
2.1
31
0
210
0
220
0
230
1
40
0.989133
41
2.59964242277499
42
-1.72696210387561
0
ELLIPSE
5
139
100
AcDbEntity
8
1
62
256
6
ByLayer
370
13
48
1
60
0
100
AcDbEllipse
10
85.800642
20
-0.498407
30
0
11
1.2858366715135E-16
21
2.1
31
0
210
0
220
0
230
1
40
0.989133
41
-0.54195023081481
42
1.41463054971418
0
ELLIPSE
5
13A
100
AcDbEntity
8
1
62
256
6
ByLayer
370
13
48
1
60
0
100
AcDbEllipse
10
85.570724
20
6E-05
30
0
11
1.1327608772857E-16
21
1.85
31
0
210
0
220
0
230
1
40
0.989133
41
1.66382270660264
42
2.35045026588653
0
ELLIPSE
5
13B
100
AcDbEntity
8
1
62
256
6
ByLayer
370
13
48
1
60
0
100
AcDbEllipse
10
85.497212
20
6E-05
30
0
11
-4.31673739722388E-16
21
-2.35
31
0
210
0
220
0
230
1
40
0.989133
41
1.63704349609619
42
2.37722947639297
0
ELLIPSE
5
13C
100
AcDbEntity
8
1
62
256
6
ByLayer
370
13
48
1
60
0
100
AcDbEllipse
10
85.080229
20
-0.498407
30
0
11
1.59198825996909E-16
21
2.6
31
0
210
0
220
0
230
1
40
0.989133
41
4.81295690239289E-06
42
0.522702115425372
0
ELLIPSE
5
13D
100
AcDbEntity
8
1
62
256
6
ByLayer
370
13
48
1
60
0
100
AcDbEllipse
10
85.070263
20
0.147979
30
0
11
-4.31673739722388E-16
21
-2.35
31
0
210
0
220
0
230
1
40
0.989133
41
-0.498620655220987
42
-2.27534514278618E-05
0
ELLIPSE
5
13E
100
AcDbEntity
8
1
62
256
6
ByLayer
370
13
48
1
60
0
100
AcDbEllipse
10
84.620393
20
0.498528
30
0
11
1.59198825996909E-16
21
2.6
31
0
210
0
220
0
230
1
40
0.989133
41
3.08643171913789
42
-3.14158040526152
0
ELLIPSE
5
13F
100
AcDbEntity
8
1
62
256
6
ByLayer
370
13
48
1
60
0
100
AcDbEllipse
10
84.118872
20
6E-05
30
0
11
-5.09742394778565E-16
21
-2.775
31
0
210
0
220
0
230
1
40
0.989133
41
2.42594638045474
42
2.72655201365599
0
ELLIPSE
5
140
100
AcDbEntity
8
1
62
256
6
ByLayer
370
13
48
1
60
0
100
AcDbEllipse
10
84.118872
20
6E-05
30
0
11
-5.09742394778565E-16
21
-2.775
31
0
210
0
220
0
230
1
40
0.989133
41
0.415012454023608
42
0.70805113745542
0
ELLIPSE
5
141
100
AcDbEntity
8
1
62
256
6
ByLayer
370
13
48
1
60
0
100
AcDbEllipse
10
60.899293
20
10.394356
30
0
11
-1.30612172906644
21
0.737594759241475
31
0
210
0
220
0
230
1
40
0.804038
41
0
42
6.28318530717959
0
ELLIPSE
5
142
100
AcDbEntity
8
1
62
256
6
ByLayer
370
13
48
1
60
0
100
AcDbEllipse
10
60.899293
20
-10.394356
30
0
11
1.30612172906645
21
0.737594759241467
31
0
210
0
220
0
230
1
40
0.804038
41
0
42
6.28318530717959
0
POINT
5
6C
100
AcDbEntity
8
1
62
256
6
ByLayer
370
13
48
1
60
1
100
AcDbPoint
10
204.309708
20
131.443331
30
0
39
0
210
0
220
0
230
1
50
360
0
POINT
5
6E
100
AcDbEntity
8
1
62
256
6
ByLayer
370
13
48
1
60
1
100
AcDbPoint
10
204.309708
20
222.585005
30
0
39
0
210
0
220
0
230
1
50
360
0
POINT
5
6F
100
AcDbEntity
8
1
62
256
6
ByLayer
370
13
48
1
60
1
100
AcDbPoint
10
204.306422
20
162.027977
30
0
39
0
210
0
220
0
230
1
50
360
0
POINT
5
70
100
AcDbEntity
8
1
62
256
6
ByLayer
370
13
48
1
60
1
100
AcDbPoint
10
204.307731
20
165.076214
30
0
39
0
210
0
220
0
230
1
50
360
0
POINT
5
71
100
AcDbEntity
8
1
62
256
6
ByLayer
370
13
48
1
60
1
100
AcDbPoint
10
206.746194
20
143.747063
30
0
39
0
210
0
220
0
230
1
50
360
0
POINT
5
72
100
AcDbEntity
8
1
62
256
6
ByLayer
370
13
48
1
60
1
100
AcDbPoint
10
206.746194
20
145.55429
30
0
39
0
210
0
220
0
230
1
50
360
0
POINT
5
73
100
AcDbEntity
8
1
62
256
6
ByLayer
370
13
48
1
60
1
100
AcDbPoint
10
217.337012
20
158.69883
30
0
39
0
210
0
220
0
230
1
50
360
0
POINT
5
74
100
AcDbEntity
8
1
62
256
6
ByLayer
370
13
48
1
60
1
100
AcDbPoint
10
212.513233
20
161.422921
30
0
39
0
210
0
220
0
230
1
50
360
0
POINT
5
75
100
AcDbEntity
8
1
62
256
6
ByLayer
370
13
48
1
60
1
100
AcDbPoint
10
191.277942
20
158.69631
30
0
39
0
210
0
220
0
230
1
50
360
0
POINT
5
76
100
AcDbEntity
8
1
62
256
6
ByLayer
370
13
48
1
60
1
100
AcDbPoint
10
196.103693
20
161.421515
30
0
39
0
210
0
220
0
230
1
50
360
0
POINT
5
77
100
AcDbEntity
8
1
62
256
6
ByLayer
370
13
48
1
60
1
100
AcDbPoint
10
204.309768
20
136.451157
30
0
39
0
210
0
220
0
230
1
50
360
0
POINT
5
78
100
AcDbEntity
8
1
62
256
6
ByLayer
370
13
48
1
60
1
100
AcDbPoint
10
204.309768
20
135.089412
30
0
39
0
210
0
220
0
230
1
50
360
0
POINT
5
79
100
AcDbEntity
8
1
62
256
6
ByLayer
370
13
48
1
60
1
100
AcDbPoint
10
198.900164
20
146.413942
30
0
39
0
210
0
220
0
230
1
50
360
0
POINT
5
7A
100
AcDbEntity
8
1
62
256
6
ByLayer
370
13
48
1
60
1
100
AcDbPoint
10
198.900164
20
148.610025
30
0
39
0
210
0
220
0
230
1
50
360
0
POINT
5
7B
100
AcDbEntity
8
81
62
256
6
ByLayer
370
18
48
1
60
0
100
AcDbPoint
10
95
20
-0.37
30
0
39
0
210
0
220
0
230
1
50
360
0
POINT
5
7D
100
AcDbEntity
8
80
62
256
6
ByLayer
370
18
48
1
60
0
100
AcDbPoint
10
0
20
0
30
0
39
0
210
0
220
0
230
1
50
360
0
SPLINE
5
143
100
AcDbEntity
8
SK1
62
256
6
ByLayer
370
13
48
1
60
0
100
AcDbSpline
70
4
71
3
72
13
73
9
40
0
40
0
40
0
40
0
40
0.239456136997368
40
0.368359723417125
40
0.499998985516714
40
0.631638416576593
40
0.76054246870247
40
1
40
1
40
1
40
1
41
1
10
-1.70000000000002
20
-14.0200984156387
30
0
41
1
10
-1.69909198645283
20
-13.9940409390257
30
0
41
1
10
-1.69103284110335
20
-13.9566683539304
30
0
41
1
10
-1.6656359220564
20
-13.9104491790265
30
0
41
1
10
-1.63886378681676
20
-13.8791676243503
30
0
41
1
10
-1.6062771275227
20
-13.8540002532836
30
0
41
1
10
-1.55884064236673
20
-13.8309564496251
30
0
41
1
10
-1.52111030874431
20
-13.8247841935567
30
0
41
1
10
-1.49503997793934
20
-13.8251858327438
30
0
0
SPLINE
5
144
100
AcDbEntity
8
SK1
62
256
6
ByLayer
370
13
48
1
60
0
100
AcDbSpline
70
4
71
2
72
6
73
3
40
0
40
0
40
0
40
1
40
1
40
1
41
1
10
-1.70000000000007
20
14.0157970602974
30
0
41
1
10
-12.0999999999631
20
13.7545958471854
30
0
41
1
10
-22.5
20
13.493394380475
30
0
0
SPLINE
5
145
100
AcDbEntity
8
SK1
62
256
6
ByLayer
370
13
48
1
60
0
100
AcDbSpline
70
4
71
3
72
13
73
9
40
0
40
0
40
0
40
0
40
0.239457531275009
40
0.368361583394386
40
0.500001014452459
40
0.631640276555168
40
0.760543862982226
40
1
40
1
40
1
40
1
41
1
10
-1.49503997793931
20
13.8251858293361
30
0
41
1
10
-1.52111030874494
20
13.8247841901528
30
0
41
1
10
-1.55884064236798
20
13.8309564462263
30
0
41
1
10
-1.60627712752338
20
13.8540002498916
30
0
41
1
10
-1.63886378681735
20
13.8791676209636
30
0
41
1
10
-1.66563592205682
20
13.9104491756451
30
0
41
1
10
-1.69103284110364
20
13.9566683505561
30
0
41
1
10
-1.69909198645314
20
13.9940409356568
30
0
41
1
10
-1.70000000000007
20
14.0200984122732
30
0
0
SPLINE
5
146
100
AcDbEntity
8
1
62
256
6
ByLayer
370
13
48
1
60
0
100
AcDbSpline
70
4
71
2
72
6
73
3
40
0
40
0
40
0
40
1
40
1
40
1
41
1
10
85.3468660539118
20
-2.18242462652736
30
0
41
1
10
85.2297362027187
20
-2.21029158711681
30
0
41
1
10
85.1078416260739
20
-2.19051835266055
30
0
0
SPLINE
5
147
100
AcDbEntity
8
SK1
62
256
6
ByLayer
370
13
48
1
60
0
100
AcDbSpline
70
4
71
2
72
6
73
3
40
0
40
0
40
0
40
1
40
1
40
1
41
1
10
-1.49503997793934
20
-13.7129410868425
30
0
41
1
10
-0.94500843340731
20
-13.7266599565288
30
0
41
1
10
-0.394976888875306
20
-13.7403788260785
30
0
0
SPLINE
5
148
100
AcDbEntity
8
SK1
62
256
6
ByLayer
370
13
48
1
60
0
100
AcDbSpline
70
4
71
2
72
6
73
3
40
0
40
0
40
0
40
1
40
1
40
1
41
1
10
-22.5
20
13.4970852847174
30
0
41
1
10
-23.2499999989318
20
13.0640908004417
30
0
41
1
10
-24
20
12.6310961283886
30
0
0
SPLINE
5
149
100
AcDbEntity
8
SK1
62
256
6
ByLayer
370
13
48
1
60
0
100
AcDbSpline
70
4
71
2
72
6
73
3
40
0
40
0
40
0
40
1
40
1
40
1
41
1
10
-24.0000000000001
20
-12.6310964932105
30
0
41
1
10
-23.2499999989323
20
-13.0640911753539
30
0
41
1
10
-22.5
20
-13.4970856697526
30
0
0
SPLINE
5
14A
100
AcDbEntity
8
SK1
62
256
6
ByLayer
370
13
48
1
60
0
100
AcDbSpline
70
4
71
2
72
6
73
3
40
0
40
0
40
0
40
1
40
1
40
1
41
1
10
-0.394976888875334
20
13.740379899128
30
0
41
1
10
-0.945008433407338
20
13.7266611372791
30
0
41
1
10
-1.49503997793934
20
13.7129423752896
30
0
0
SPLINE
5
14B
100
AcDbEntity
8
SK1
62
256
6
ByLayer
370
13
48
1
60
0
100
AcDbSpline
70
4
71
2
72
6
73
3
40
0
40
0
40
0
40
1
40
1
40
1
41
1
10
-22.4999999999999
20
-13.4933966698402
30
0
41
1
10
-12.0999999999449
20
-13.7545973909209
30
0
41
1
10
-1.70000000000007
20
-14.0157977997179
30
0
0
SPLINE
5
14C
100
AcDbEntity
8
1
62
256
6
ByLayer
370
13
48
1
60
0
100
AcDbSpline
70
4
71
3
72
14
73
10
40
0
40
0
40
0
40
0
40
0.500000000000001
40
0.500000000000001
40
0.625000000000001
40
0.625000000000001
40
0.750000000000001
40
0.750000000000001
40
1
40
1
40
1
40
1
41
1
10
75.8518982380129
20
-4.67753606827259
30
0
41
1
10
75.6107471164315
20
-4.51532475870226
30
0
41
1
10
75.3704980314944
20
-4.35068242008734
30
0
41
1
10
75.0721730932535
20
-4.13952601177553
30
0
41
1
10
75.012695818521
20
-4.0970968101812
30
0
41
1
10
74.8959278856804
20
-4.01316723466476
30
0
41
1
10
74.8383768585871
20
-3.97148383495554
30
0
41
1
10
74.6679205465161
20
-3.847175760232
30
0
41
1
10
74.5572034708575
20
-3.76529031787393
30
0
41
1
10
74.4484957043835
20
-3.68408367116507
30
0
0
SPLINE
5
14D
100
AcDbEntity
8
1
62
256
6
ByLayer
370
13
48
1
60
0
100
AcDbSpline
70
4
71
3
72
14
73
10
40
0
40
0
40
0
40
0
40
0.25
40
0.25
40
0.5
40
0.5
40
0.75
40
0.75
40
1
40
1
40
1
40
1
41
1
10
74.4484957043838
20
-3.68408367116518
30
0
41
1
10
74.3170595163936
20
-3.74324695720858
30
0
41
1
10
74.1849707923736
20
-3.80318607026112
30
0
41
1
10
73.9188268763203
20
-3.92540231132287
30
0
41
1
10
73.783911851578
20
-3.9881101900589
30
0
41
1
10
73.5214456736363
20
-4.11184529109309
30
0
41
1
10
73.3929136705006
20
-4.1733118840661
30
0
41
1
10
73.1404608459482
20
-4.29556057192119
30
0
41
1
10
73.0161141443205
20
-4.35654697040275
30
0
41
1
10
72.8957888391978
20
-4.41609228981645
30
0
0
SPLINE
5
14E
100
AcDbEntity
8
1
62
256
6
ByLayer
370
13
48
1
60
0
100
AcDbSpline
70
4
71
3
72
14
73
10
40
0
40
0
40
0
40
0
40
0.499999999999999
40
0.499999999999999
40
0.624999999999999
40
0.624999999999999
40
0.749999999999999
40
0.749999999999999
40
1
40
1
40
1
40
1
41
1
10
72.8957888391976
20
-4.41609228981611
30
0
41
1
10
72.8594073797362
20
-4.69782626297248
30
0
41
1
10
72.8269967996366
20
-4.98378252786301
30
0
41
1
10
72.7952280374047
20
-5.35052596904907
30
0
41
1
10
72.7893118448033
20
-5.42421841117706
30
0
41
1
10
72.778493557927
20
-5.56999007677925
30
0
41
1
10
72.773562139769
20
-5.6423871855003
30
0
41
1
10
72.7600278236263
20
-5.85828956542707
30
0
41
1
10
72.7526799545208
20
-6.00051091288009
30
0
41
1
10
72.7464845076409
20
-6.14155330557509
30
0
0
SPLINE
5
14F
100
AcDbEntity
8
1
62
256
6
ByLayer
370
13
48
1
60
0
100
AcDbSpline
70
4
71
3
72
14
73
10
40
0
40
0
40
0
40
0
40
0.499999999999991
40
0.499999999999991
40
0.624999999999988
40
0.624999999999988
40
0.749999999999985
40
0.749999999999985
40
1
40
1
40
1
40
1
41
1
10
72.7464845076404
20
-6.14155330557469
30
0
41
1
10
72.9636296536954
20
-6.30376461514504
30
0
41
1
10
73.1885452325663
20
-6.46840695375994
30
0
41
1
10
73.4868013469852
20
-6.67956336207178
30
0
41
1
10
73.5471994667672
20
-6.72199256366608
30
0
41
1
10
73.6675581023847
20
-6.80592213918254
30
0
41
1
10
73.7277753527299
20
-6.84760553889177
30
0
41
1
10
73.9085271458998
20
-6.9719136136153
30
0
41
1
10
74.0291613410365
20
-7.05379905597337
30
0
41
1
10
74.1498870412702
20
-7.13500570268224
30
0
0
SPLINE
5
150
100
AcDbEntity
8
1
62
256
6
ByLayer
370
13
48
1
60
0
100
AcDbSpline
70
4
71
3
72
14
73
10
40
0
40
0
40
0
40
0
40
0.25
40
0.25
40
0.5
40
0.5
40
0.75
40
0.75
40
1
40
1
40
1
40
1
41
1
10
74.1498870412702
20
-7.13500570268212
30
0
41
1
10
74.2702123463929
20
-7.07546038326842
30
0
41
1
10
74.3945590480205
20
-7.01447398478686
30
0
41
1
10
74.647011872573
20
-6.89222529693177
30
0
41
1
10
74.7755438757087
20
-6.83075870395879
30
0
41
1
10
75.0380100536504
20
-6.70702360292458
30
0
41
1
10
75.1729250783926
20
-6.64431572418854
30
0
41
1
10
75.439068994446
20
-6.52209948312679
30
0
41
1
10
75.5711577184659
20
-6.46216037007429
30
0
41
1
10
75.7025939064561
20
-6.40299708403086
30
0
0
SPLINE
5
151
100
AcDbEntity
8
1
62
256
6
ByLayer
370
13
48
1
60
0
100
AcDbSpline
70
4
71
3
72
14
73
10
40
0
40
0
40
0
40
0
40
0.499999999999999
40
0.499999999999999
40
0.624999999999999
40
0.624999999999999
40
0.749999999999999
40
0.749999999999999
40
1
40
1
40
1
40
1
41
1
10
75.7025939064558
20
-6.4029970840312
30
0
41
1
10
75.7149693903908
20
-6.12126311087482
30
0
41
1
10
75.7320464644242
20
-5.83530684598429
30
0
41
1
10
75.763746402834
20
-5.46856340479823
30
0
41
1
10
75.770583440485
20
-5.39487096267024
30
0
41
1
10
75.7849924301382
20
-5.24909929706806
30
0
41
1
10
75.792590071548
20
-5.17670218834701
30
0
41
1
10
75.8164198687896
20
-4.96079980842021
30
0
41
1
10
75.8336848573733
20
-4.81857846096722
30
0
41
1
10
75.8518982380128
20
-4.67753606827222
30
0
0
SPLINE
5
152
100
AcDbEntity
8
1
62
256
6
ByLayer
370
13
48
1
60
0
100
AcDbSpline
70
4
71
3
72
8
73
4
40
0
40
0
40
0
40
0
40
1
40
1
40
1
40
1
41
1
10
70.9999999999999
20
9.70355249025002
30
0
41
1
10
70.9999999999999
20
9.13569908011405
30
0
41
1
10
70.9999999999999
20
8.56785341013597
30
0
41
1
10
70.9999999999999
20
8
30
0
0
SPLINE
5
153
100
AcDbEntity
8
1
62
256
6
ByLayer
370
13
48
1
60
0
100
AcDbSpline
70
4
71
3
72
12
73
8
40
0
40
0
40
0
40
0
40
0.469534413428401
40
0.469534413428401
40
0.939068826856802
40
0.939068826856802
40
1
40
1
40
1
40
1
41
1
10
69.9811070930432
20
-13.1295916061795
30
0
41
1
10
69.8378213735599
20
-13.1446515421503
30
0
41
1
10
69.6983338176993
20
-13.1593122750381
30
0
41
1
10
69.4264596354546
20
-13.1878874030514
30
0
41
1
10
69.2940734794964
20
-13.2018017487331
30
0
41
1
10
69.1486637639672
20
-13.217084925684
30
0
41
1
10
69.1320040350988
20
-13.2188359337465
30
0
41
1
10
69.1154066133097
20
-13.220580393071
30
0
0
SPLINE
5
154
100
AcDbEntity
8
1
62
256
6
ByLayer
370
13
48
1
60
0
100
AcDbSpline
70
4
71
3
72
12
73
8
40
0
40
0
40
0
40
0
40
0.0576955472050924
40
0.0576955472050924
40
0.528847773602546
40
0.528847773602546
40
1
40
1
40
1
40
1
41
1
10
69.1163454419833
20
13.2204817182013
30
0
41
1
10
69.1320120723596
20
13.2188350889964
30
0
41
1
10
69.1477421181033
20
13.2171817945678
30
0
41
1
10
69.2923518358418
20
13.2019827007729
30
0
41
1
10
69.4249750943224
20
13.1880434346119
30
0
41
1
10
69.6975685488238
20
13.1593927080381
30
0
41
1
10
69.8381649902163
20
13.1446154265844
30
0
41
1
10
69.9811070930432
20
13.1295916061795
30
0
0
SPLINE
5
155
100
AcDbEntity
8
1
62
256
6
ByLayer
370
13
48
1
60
0
100
AcDbSpline
70
4
71
3
72
46
73
42
40
0
40
0
40
0
40
0
40
0.125000241043759
40
0.125000241043759
40
0.250000482087518
40
0.250000482087518
40
0.375000723131277
40
0.375000723131277
40
0.437500843653157
40
0.437500843653157
40
0.500000964175037
40
0.500000964175037
40
0.562501084696917
40
0.562501084696917
40
0.625001205218796
40
0.625001205218796
40
0.656251265479736
40
0.656251265479736
40
0.687501325740676
40
0.687501325740676
40
0.750001446262556
40
0.750001446262556
40
0.781251506523496
40
0.781251506523496
40
0.796876536653966
40
0.796876536653966
40
0.812501566784437
40
0.812501566784437
40
0.875001687306317
40
0.875001687306317
40
0.890626717436787
40
0.890626717436787
40
0.906251747567257
40
0.906251747567257
40
0.937501807828198
40
0.937501807828198
40
0.968751868089138
40
0.968751868089138
40
0.984376898219608
40
0.984376898219608
40
1
40
1
40
1
40
1
41
1
10
40.830521792649
20
-16.1934415817244
30
0
41
1
10
39.7686323914905
20
-16.3050506551699
30
0
41
1
10
38.7134614391681
20
-16.428293102839
30
0
41
1
10
36.6181051306554
20
-16.6970717899688
30
0
41
1
10
35.5779061487908
20
-16.8426130828217
30
0
41
1
10
33.5148656788581
20
-17.1547744292191
30
0
41
1
10
32.4919939374835
20
-17.3214046830532
30
0
41
1
10
30.9735673213817
20
-17.5859017250997
30
0
41
1
10
30.4700855409286
20
-17.6764882791889
30
0
41
1
10
29.4691724077312
20
-17.8622120582332
30
0
41
1
10
28.9712701957368
20
-17.9574505369781
30
0
41
1
10
27.9887162645919
20
-18.1508483963631
30
0
41
1
10
27.5033975169335
20
-18.2491274420817
30
0
41
1
10
26.546716454646
20
-18.4480374781903
30
0
41
1
10
26.0753372748282
20
-18.5486734910098
30
0
41
1
10
25.380946993586
20
-18.7005715480102
30
0
41
1
10
25.1517411611025
20
-18.7513310897942
30
0
41
1
10
24.7005775215882
20
-18.8524095735441
30
0
41
1
10
24.4783248449684
20
-18.9027927699549
30
0
41
1
10
23.8226385703888
20
-19.0530714289793
30
0
41
1
10
23.400137615649
20
-19.152136950887
30
0
41
1
10
22.7945679507726
20
-19.2968746514149
30
0
41
1
10
22.5974372830811
20
-19.344468512646
30
0
41
1
10
22.3100119815287
20
-19.4144919282266
30
0
41
1
10
22.2155855369576
20
-19.4376041485535
30
0
41
1
10
22.0297469009419
20
-19.4832906134405
30
0
41
1
10
21.9382915984529
20
-19.5058759590387
30
0
41
1
10
21.4925700577976
20
-19.6164076307496
30
0
41
1
10
21.1697490155522
20
-19.6979724946396
30
0
41
1
10
20.8235186050036
20
-19.7864367399715
30
0
41
1
10
20.7570189741579
20
-19.803484908077
30
0
41
1
10
20.6311619810373
20
-19.8358395661737
30
0
41
1
10
20.5720124358674
20
-19.8510922337619
30
0
41
1
10
20.406407418248
20
-19.8938970482558
30
0
41
1
10
20.3117620929045
20
-19.918503183
30
0
41
1
10
20.1573808417747
20
-19.9587516238354
30
0
41
1
10
20.0976279596324
20
-19.974397608211
30
0
41
1
10
20.0376591376167
20
-19.990116009273
30
0
41
1
10
20.0226956332244
20
-19.9940425651191
30
0
41
1
10
20.0035510658264
20
-19.9990672958414
30
0
41
1
10
19.999244264595
20
-20.0001984300398
30
0
41
1
10
20.000108162384
20
-19.9999716002259
30
0
0
SPLINE
5
156
100
AcDbEntity
8
1
62
256
6
ByLayer
370
13
48
1
60
0
100
AcDbSpline
70
4
71
3
72
42
73
38
40
0
40
0
40
0
40
0
40
1.1606557966E-06
40
1.1606557966E-06
40
0.0312511243853031
40
0.0312511243853031
40
0.0468761062500566
40
0.0468761062500566
40
0.0625010881148099
40
0.0625010881148099
40
0.0937510518443164
40
0.0937510518443164
40
0.109376033709069
40
0.109376033709069
40
0.125001015573823
40
0.125001015573823
40
0.187500943032835
40
0.187500943032835
40
0.218750906762341
40
0.218750906762341
40
0.250000870491847
40
0.250000870491847
40
0.31250079795086
40
0.31250079795086
40
0.375000725409873
40
0.375000725409873
40
0.437500652868885
40
0.437500652868885
40
0.500000580327898
40
0.500000580327898
40
0.625000435245923
40
0.625000435245923
40
0.750000290163949
40
0.750000290163949
40
0.875000145081974
40
0.875000145081974
40
1
40
1
40
1
40
1
41
1
10
20.0001073866931
20
19.9999718038958
30
0
41
1
10
20.0001083540052
20
19.9999715499129
30
0
41
1
10
20.0001093213173
20
19.9999712959299
30
0
41
1
10
20.0018390445282
20
19.9995171300158
30
0
41
1
10
20.0242362526075
20
19.9936315144753
30
0
41
1
10
20.0881088440576
20
19.9768945396511
30
0
41
1
10
20.1144512755636
20
19.9699969442028
30
0
41
1
10
20.1771810893447
20
19.9535986828562
30
0
41
1
10
20.2135201790022
20
19.9441108887493
30
0
41
1
10
20.3351814791431
20
19.9124115879831
30
0
41
1
10
20.4335685133196
20
19.8868530294595
30
0
41
1
10
20.6038522406083
20
19.8428796370995
30
0
41
1
10
20.6644086525412
20
19.8272799225179
30
0
41
1
10
20.7926899246988
20
19.7943369451916
30
0
41
1
10
20.8605794385723
20
19.776951918403
30
0
41
1
10
21.2131714939783
20
19.686968823747
30
0
41
1
10
21.5386563347303
20
19.6048584956204
30
0
41
1
10
22.0734747505979
20
19.4724254666245
30
0
41
1
10
22.2596487667378
20
19.4266992866297
30
0
41
1
10
22.6458773736283
20
19.332746905959
30
0
41
1
10
22.8461543733545
20
19.284470965923
30
0
41
1
10
23.4577317009407
20
19.1385528701376
30
0
41
1
10
23.8821888729292
20
19.0392347934529
30
0
41
1
10
24.7565853718061
20
18.8392330868767
30
0
41
1
10
25.2065973006608
20
18.7385287486119
30
0
41
1
10
26.1273687622723
20
18.5374963439546
30
0
41
1
10
26.598159788969
20
18.4371590750958
30
0
41
1
10
27.5573071498725
20
18.2381224048349
30
0
41
1
10
28.0426800661502
20
18.1400453793386
30
0
41
1
10
29.5092274712237
20
17.8519561411882
30
0
41
1
10
30.5027026688
20
17.6677103976438
30
0
41
1
10
32.5137204896585
20
17.3178381540512
30
0
41
1
10
33.5313442058006
20
17.1521858947086
30
0
41
1
10
35.58653431234
20
16.8414038607131
30
0
41
1
10
36.624132584539
20
16.6962632278859
30
0
41
1
10
38.716659235444
20
16.4279184662067
30
0
41
1
10
39.771862887564
20
16.3047111163506
30
0
41
1
10
40.8305217926491
20
16.1934415817244
30
0
0
SPLINE
5
157
100
AcDbEntity
8
1
62
256
6
ByLayer
370
13
48
1
60
0
100
AcDbSpline
70
4
71
3
72
14
73
10
40
0
40
0
40
0
40
0
40
0.25
40
0.25
40
0.5
40
0.5
40
0.75
40
0.75
40
1
40
1
40
1
40
1
41
1
10
6.66339745962148
20
-19.0245744101322
30
0
41
1
10
6.67278813956511
20
-19.0356144845436
30
0
41
1
10
6.68402554771029
20
-19.0463346141653
30
0
41
1
10
6.71147628110009
20
-19.0670039094876
30
0
41
1
10
6.72773775344388
20
-19.0770249518318
30
0
41
1
10
6.76785100487524
20
-19.0956617404786
30
0
41
1
10
6.79175708052523
20
-19.1043106800553
30
0
41
1
10
6.8498306338652
20
-19.1176210455321
30
0
41
1
10
6.88568264759596
20
-19.1222825906926
30
0
41
1
10
6.92320508075684
20
-19.1222825906926
30
0
0
SPLINE
5
158
100
AcDbEntity
8
1
62
256
6
ByLayer
370
13
48
1
60
0
100
AcDbSpline
70
4
71
3
72
14
73
10
40
0
40
0
40
0
40
0
40
0.25
40
0.25
40
0.5
40
0.5
40
0.75
40
0.75
40
1
40
1
40
1
40
1
41
1
10
6.92320508075687
20
-5.85988980456938
30
0
41
1
10
6.88563301332891
20
-5.85988980456938
30
0
41
1
10
6.85031272404194
20
-5.8747762766744
30
0
41
1
10
6.79136513419885
20
-5.91854200832063
30
0
41
1
10
6.7678647176848
20
-5.94612987812172
30
0
41
1
10
6.72774154010145
20
-6.00566371121201
30
0
41
1
10
6.7116195496221
20
-6.03712755983022
30
0
41
1
10
6.68411546052434
20
-6.10206728171735
30
0
41
1
10
6.67279157843177
20
-6.13567510453115
30
0
41
1
10
6.66339745962148
20
-6.16973001948568
30
0
0
SPLINE
5
159
100
AcDbEntity
8
1
62
256
6
ByLayer
370
13
48
1
60
0
100
AcDbSpline
70
4
71
3
72
14
73
10
40
0
40
0
40
0
40
0
40
0.25
40
0.25
40
0.5
40
0.5
40
0.75
40
0.75
40
1
40
1
40
1
40
1
41
1
10
9.07679491924301
20
-19.1222825906926
30
0
41
1
10
9.11436698667097
20
-19.1222825906926
30
0
41
1
10
9.14968727595794
20
-19.1177281115533
30
0
41
1
10
9.20863486580103
20
-19.1042242696215
30
0
41
1
10
9.23213528231508
20
-19.0956673725615
30
0
41
1
10
9.27225845989847
20
-19.0770274497583
30
0
41
1
10
9.28838045037779
20
-19.06709867989
30
0
41
1
10
9.31588453947555
20
-19.0464153092313
30
0
41
1
10
9.32720842156806
20
-19.0356185274185
30
0
41
1
10
9.33660254037835
20
-19.0245744101322
30
0
0
SPLINE
5
15A
100
AcDbEntity
8
1
62
256
6
ByLayer
370
13
48
1
60
0
100
AcDbSpline
70
4
71
3
72
14
73
10
40
0
40
0
40
0
40
0
40
0.25
40
0.25
40
0.5
40
0.5
40
0.75
40
0.75
40
1
40
1
40
1
40
1
41
1
10
9.33660254037838
20
-6.16973001948571
30
0
41
1
10
9.32721186043474
20
-6.13568757087464
30
0
41
1
10
9.31597445228957
20
-6.10231901184946
30
0
41
1
10
9.28852371889974
20
-6.0374267260743
30
0
41
1
10
9.27226224655595
20
-6.00567161829608
30
0
41
1
10
9.23214899512462
20
-5.94614793734942
30
0
41
1
10
9.2082429194746
20
-5.91826181931603
30
0
41
1
10
9.15016936613463
20
-5.87512340989332
30
0
41
1
10
9.11431735240393
20
-5.85988980456935
30
0
41
1
10
9.07679491924304
20
-5.85988980456935
30
0
0
SPLINE
5
15B
100
AcDbEntity
8
1
62
256
6
ByLayer
370
13
48
1
60
0
100
AcDbSpline
70
4
71
3
72
14
73
10
40
0
40
0
40
0
40
0
40
0.25
40
0.25
40
0.5
40
0.5
40
0.75
40
0.75
40
1
40
1
40
1
40
1
41
1
10
6.66339745962151
20
6.16973001948568
30
0
41
1
10
6.67278813956514
20
6.13568757087464
30
0
41
1
10
6.68402554771032
20
6.10231901184946
30
0
41
1
10
6.71147628110015
20
6.0374267260743
30
0
41
1
10
6.7277377534439
20
6.00567161829605
30
0
41
1
10
6.76785100487527
20
5.94614793734942
30
0
41
1
10
6.79175708052526
20
5.918261819316
30
0
41
1
10
6.84983063386522
20
5.87512340989329
30
0
41
1
10
6.88568264759596
20
5.85988980456935
30
0
41
1
10
6.92320508075687
20
5.85988980456935
30
0
0
SPLINE
5
15C
100
AcDbEntity
8
1
62
256
6
ByLayer
370
13
48
1
60
0
100
AcDbSpline
70
4
71
3
72
14
73
10
40
0
40
0
40
0
40
0
40
0.25
40
0.25
40
0.5
40
0.5
40
0.75
40
0.75
40
1
40
1
40
1
40
1
41
1
10
6.92320508075684
20
19.1222825906926
30
0
41
1
10
6.88563301332889
20
19.1222825906926
30
0
41
1
10
6.85031272404191
20
19.1177281115533
30
0
41
1
10
6.79136513419885
20
19.1042242696215
30
0
41
1
10
6.76786471768477
20
19.0956673725615
30
0
41
1
10
6.72774154010145
20
19.0770274497583
30
0
41
1
10
6.7116195496221
20
19.06709867989
30
0
41
1
10
6.68411546052434
20
19.0464153092313
30
0
41
1
10
6.67279157843177
20
19.0356185274185
30
0
41
1
10
6.66339745962148
20
19.0245744101322
30
0
0
SPLINE
5
15D
100
AcDbEntity
8
1
62
256
6
ByLayer
370
13
48
1
60
0
100
AcDbSpline
70
4
71
3
72
14
73
10
40
0
40
0
40
0
40
0
40
0.25
40
0.25
40
0.5
40
0.5
40
0.75
40
0.75
40
1
40
1
40
1
40
1
41
1
10
9.07679491924304
20
5.85988980456935
30
0
41
1
10
9.114366986671
20
5.85988980456935
30
0
41
1
10
9.14968727595794
20
5.8747762766744
30
0
41
1
10
9.20863486580106
20
5.91854200832063
30
0
41
1
10
9.23213528231511
20
5.94612987812172
30
0
41
1
10
9.27225845989847
20
6.00566371121201
30
0
41
1
10
9.28838045037779
20
6.03712755983022
30
0
41
1
10
9.31588453947558
20
6.10206728171732
30
0
41
1
10
9.32720842156817
20
6.13567510453115
30
0
41
1
10
9.33660254037846
20
6.16973001948568
30
0
0
SPLINE
5
15E
100
AcDbEntity
8
1
62
256
6
ByLayer
370
13
48
1
60
0
100
AcDbSpline
70
4
71
3
72
14
73
10
40
0
40
0
40
0
40
0
40
0.25
40
0.25
40
0.5
40
0.5
40
0.75
40
0.75
40
1
40
1
40
1
40
1
41
1
10
9.33660254037838
20
19.0245744101322
30
0
41
1
10
9.32721186043474
20
19.0356144845435
30
0
41
1
10
9.31597445228962
20
19.0463346141653
30
0
41
1
10
9.28852371889982
20
19.0670039094875
30
0
41
1
10
9.27226224655604
20
19.0770249518318
30
0
41
1
10
9.2321489951247
20
19.0956617404785
30
0
41
1
10
9.20824291947471
20
19.1043106800553
30
0
41
1
10
9.15016936613478
20
19.1176210455321
30
0
41
1
10
9.11431735240402
20
19.1222825906925
30
0
41
1
10
9.0767949192431
20
19.1222825906926
30
0
0
SPLINE
5
15F
100
AcDbEntity
8
SK1
62
256
6
ByLayer
370
13
48
1
60
0
100
AcDbSpline
70
4
71
3
72
26
73
22
40
0
40
0
40
0
40
0
40
0.250000000000001
40
0.250000000000001
40
0.500000000000001
40
0.500000000000001
40
0.625
40
0.625
40
0.749999999999999
40
0.749999999999999
40
0.812499999999998
40
0.812499999999998
40
0.874999999999998
40
0.874999999999998
40
0.906249999999998
40
0.906249999999998
40
0.937499999999999
40
0.937499999999999
40
0.968749999999999
40
0.968749999999999
40
1
40
1
40
1
40
1
41
1
10
-0.200000000000074
20
-5.70317605472911
30
0
41
1
10
-0.200000000000074
20
-5.63823579019896
30
0
41
1
10
-0.201272969697754
20
-5.57293605649735
30
0
41
1
10
-0.207502897007316
20
-5.44150249678557
30
0
41
1
10
-0.212379710104443
20
-5.37529109300448
30
0
41
1
10
-0.224682606237224
20
-5.27544442994099
30
0
41
1
10
-0.229617185866203
20
-5.24213518580049
30
0
41
1
10
-0.24222904164364
20
-5.17551725566
30
0
41
1
10
-0.249833221611937
20
-5.1421811328884
30
0
41
1
10
-0.265207031268744
20
-5.09326445830439
30
0
41
1
10
-0.270998974326034
20
-5.07711544581866
30
0
41
1
10
-0.285075712606073
20
-5.0454323414987
30
0
41
1
10
-0.293382354784711
20
-5.02955049623247
30
0
41
1
10
-0.309973406893278
20
-5.00825285180758
30
0
41
1
10
-0.316214408917972
20
-5.00161256354832
30
0
41
1
10
-0.330656646938735
20
-4.99083059730336
30
0
41
1
10
-0.339105605325472
20
-4.98673490231519
30
0
41
1
10
-0.356551440191993
20
-4.98388998792134
30
0
41
1
10
-0.365376268604336
20
-4.98514225758578
30
0
41
1
10
-0.381257580405673
20
-4.99109645866
30
0
41
1
10
-0.38843739491179
20
-4.99565833585209
30
0
41
1
10
-0.394976888882212
20
-5.00092508225598
30
0
0
SPLINE
5
160
100
AcDbEntity
8
SK1
62
256
6
ByLayer
370
13
48
1
60
0
100
AcDbSpline
70
4
71
3
72
24
73
20
40
0
40
0
40
0
40
0
40
0.0312500000000003
40
0.0312500000000003
40
0.0625000000000006
40
0.0625000000000006
40
0.0937500000000009
40
0.0937500000000009
40
0.125000000000001
40
0.125000000000001
40
0.187500000000002
40
0.187500000000002
40
0.250000000000002
40
0.250000000000002
40
0.500000000000002
40
0.500000000000002
40
0.750000000000001
40
0.750000000000001
40
1
40
1
40
1
40
1
41
1
10
-0.394976888875362
20
-13.8446019297682
30
0
41
1
10
-0.388468629926308
20
-13.8449779249513
30
0
41
1
10
-0.381324590932564
20
-13.8456530881875
30
0
41
1
10
-0.365549387179755
20
-13.8480385128452
30
0
41
1
10
-0.356796789473322
20
-13.8498063080825
30
0
41
1
10
-0.339435575062254
20
-13.8544574766954
30
0
41
1
10
-0.33097978943033
20
-13.8573064570467
30
0
41
1
10
-0.316458103440283
20
-13.8630021925908
30
0
41
1
10
-0.310232882497416
20
-13.8658582165515
30
0
41
1
10
-0.293637826177786
20
-13.8741901944621
30
0
41
1
10
-0.285356310437152
20
-13.8793708582821
30
0
41
1
10
-0.271048178733935
20
-13.8892040331652
30
0
41
1
10
-0.265213225486519
20
-13.8937947816306
30
0
41
1
10
-0.239456395896752
20
-13.9157444690284
30
0
41
1
10
-0.228706663403443
20
-13.9303424576192
30
0
41
1
10
-0.212355837349634
20
-13.956189887512
30
0
41
1
10
-0.207496542760509
20
-13.9673765992812
30
0
41
1
10
-0.201274525742832
20
-13.9872294917
30
0
41
1
10
-0.200000000000102
20
-13.9958729075744
30
0
41
1
10
-0.200000000000102
20
-14.0034375364996
30
0
0
SPLINE
5
161
100
AcDbEntity
8
SK1
62
256
6
ByLayer
370
13
48
1
60
0
100
AcDbSpline
70
4
71
3
72
24
73
20
40
0
40
0
40
0
40
0
40
0.0566107961743801
40
0.0566107961743801
40
0.292458097130786
40
0.292458097130786
40
0.528305398087192
40
0.528305398087192
40
0.646229048565392
40
0.646229048565392
40
0.764152699043592
40
0.764152699043592
40
0.823114524282694
40
0.823114524282694
40
0.882076349521796
40
0.882076349521796
40
0.941038174760898
40
0.941038174760898
40
1
40
1
40
1
40
1
41
1
10
-0.217769766831168
20
13.9477750956952
30
0
41
1
10
-0.218661054590086
20
13.9462698749442
30
0
41
1
10
-0.219597534884912
20
13.9447405263226
30
0
41
1
10
-0.224682934305008
20
13.9367111271038
30
0
41
1
10
-0.229617567212671
20
13.9298132257638
30
0
41
1
10
-0.242229439580655
20
13.9149025794457
30
0
41
1
10
-0.249833588846513
20
13.9068988482931
30
0
41
1
10
-0.26520726431454
20
13.8938007843296
30
0
41
1
10
-0.270999147250933
20
13.8892469004429
30
0
41
1
10
-0.285075726022285
20
13.8795541723659
30
0
41
1
10
-0.293382262191557
20
13.8743360124917
30
0
41
1
10
-0.309973208906513
20
13.865979539183
30
0
41
1
10
-0.316214208385958
20
13.8631087549699
30
0
41
1
10
-0.330656403377247
20
13.8574219230766
30
0
41
1
10
-0.339105376305753
20
13.8545577585332
30
0
41
1
10
-0.356551358104923
20
13.849859688057
30
0
41
1
10
-0.365376234673647
20
13.848068489605
30
0
41
1
10
-0.381257584369422
20
13.8456585749161
30
0
41
1
10
-0.388437406663655
20
13.844979298583
30
0
41
1
10
-0.39497688888224
20
13.8446015176357
30
0
0
SPLINE
5
162
100
AcDbEntity
8
SK1
62
256
6
ByLayer
370
13
48
1
60
0
100
AcDbSpline
70
4
71
3
72
24
73
20
40
0
40
0
40
0
40
0
40
0.03125
40
0.03125
40
0.0625000000000001
40
0.0625000000000001
40
0.0937500000000001
40
0.0937500000000001
40
0.125
40
0.125
40
0.1875
40
0.1875
40
0.249999999999999
40
0.249999999999999
40
0.499999999999999
40
0.499999999999999
40
0.75
40
0.75
40
1
40
1
40
1
40
1
41
1
10
-0.394976888875306
20
5.0009244140283
30
0
41
1
10
-0.38846864291807
20
4.99568280562602
30
0
41
1
10
-0.381324616905118
20
4.99114019130752
30
0
41
1
10
-0.365549432031344
20
4.98518739058187
30
0
41
1
10
-0.356796835457004
20
4.98390560483423
30
0
41
1
10
-0.339435615628815
20
4.98662575165034
30
0
41
1
10
-0.330979825278035
20
4.99064303829891
30
0
41
1
10
-0.316458154456313
20
5.00137749301305
30
0
41
1
10
-0.310232936208848
20
5.00796421336074
30
0
41
1
10
-0.29363790833753
20
5.02913452505231
30
0
41
1
10
-0.285356392442452
20
5.04485242604292
30
0
41
1
10
-0.271048262620639
20
5.07695293962863
30
0
41
1
10
-0.265213301889418
20
5.09323765336507
30
0
41
1
10
-0.239456434884687
20
5.17522421433625
30
0
41
1
10
-0.228706677165803
20
5.24267174957373
30
0
41
1
10
-0.212355887615871
20
5.37559968949586
30
0
41
1
10
-0.207496565642458
20
5.44161594206656
30
0
41
1
10
-0.201274525264864
20
5.57292339447503
30
0
41
1
10
-0.200000000000074
20
5.63821129007226
30
0
41
1
10
-0.200000000000102
20
5.70317614351262
30
0
0
SPLINE
5
163
100
AcDbEntity
8
SK1
62
256
6
ByLayer
370
13
48
1
60
0
100
AcDbSpline
70
4
71
3
72
8
73
4
40
0
40
0
40
0
40
0
40
1
40
1
40
1
40
1
41
1
10
-1.3071067811866
20
3.62781725664615
30
0
41
1
10
-1.37353763980982
20
3.2908708034243
30
0
41
1
10
-1.43721498263983
20
2.94709379867734
30
0
41
1
10
-1.49503997793931
20
2.5946511583831
30
0
0
SPLINE
5
164
100
AcDbEntity
8
SK1
62
256
6
ByLayer
370
13
48
1
60
0
100
AcDbSpline
70
4
71
3
72
30
73
26
40
0
40
0
40
0
40
0
40
0.249999999999992
40
0.249999999999992
40
0.374999999999988
40
0.374999999999988
40
0.437499999999987
40
0.437499999999987
40
0.468749999999987
40
0.468749999999987
40
0.499999999999986
40
0.499999999999986
40
0.515624999999987
40
0.515624999999987
40
0.531249999999988
40
0.531249999999988
40
0.546874999999988
40
0.546874999999988
40
0.562499999999989
40
0.562499999999989
40
0.62499999999999
40
0.62499999999999
40
0.749999999999994
40
0.749999999999994
40
1
40
1
40
1
40
1
41
1
10
-1.49503997793931
20
2.59465115838304
30
0
41
1
10
-1.51026746272268
20
2.50183982455951
30
0
41
1
10
-1.52651400478425
20
2.40922455962411
30
0
41
1
10
-1.55478813482401
20
2.27186617316033
30
0
41
1
10
-1.56483850627194
20
2.22626541767534
30
0
41
1
10
-1.58232732166974
20
2.15928180695391
30
0
41
1
10
-1.58855430949947
20
2.13715881603304
30
0
41
1
10
-1.59928375148635
20
2.10496662261366
30
0
41
1
10
-1.60308610086508
20
2.09441763009704
30
0
41
1
10
-1.61160304975005
20
2.07406881511599
30
0
41
1
10
-1.61627802336244
20
2.06410999368953
30
0
41
1
10
-1.62496893049982
20
2.05149541629658
30
0
41
1
10
-1.62816482150964
20
2.04762113463227
30
0
41
1
10
-1.63581311778771
20
2.04242474357423
30
0
41
1
10
-1.64047550516943
20
2.04153346480715
30
0
41
1
10
-1.64893986683205
20
2.04619400336961
30
0
41
1
10
-1.65243193129888
20
2.0510811318735
30
0
41
1
10
-1.65796633561405
20
2.06142619765925
30
0
41
1
10
-1.66019890815173
20
2.06715816278896
30
0
41
1
10
-1.66988903742802
20
2.09599783238264
30
0
41
1
10
-1.67400497309848
20
2.12069181839016
30
0
41
1
10
-1.68477614120377
20
2.19380514302543
30
0
41
1
10
-1.68861651052404
20
2.24263416926118
30
0
41
1
10
-1.69768397047531
20
2.38915025298923
30
0
41
1
10
-1.69960876100492
20
2.48671898766875
30
0
41
1
10
-1.70000000000007
20
2.58372509632824
30
0
0
SPLINE
5
165
100
AcDbEntity
8
SK1
62
256
6
ByLayer
370
13
48
1
60
0
100
AcDbSpline
70
4
71
3
72
20
73
16
40
0
40
0
40
0
40
0
40
0.25
40
0.25
40
0.375
40
0.375
40
0.4375
40
0.4375
40
0.5
40
0.5
40
0.75
40
0.75
40
0.875
40
0.875
40
1
40
1
40
1
40
1
41
1
10
-1.70000000000007
20
2.58372509632821
30
0
41
1
10
-1.76611131230575
20
2.16779007042712
30
0
41
1
10
-1.82315204782361
20
1.74563966403676
30
0
41
1
10
-1.88431819816691
20
1.09996691447751
30
0
41
1
10
-1.90058047077932
20
0.882646870115877
30
0
41
1
10
-1.91721350759226
20
0.553023201537258
30
0
41
1
10
-1.92146378406957
20
0.442540802025718
30
0
41
1
10
-1.92715977707797
20
0.220285135648737
30
0
41
1
10
-1.92858792779833
20
0.108677548680845
30
0
41
1
10
-1.92849632274928
20
-0.445359331573002
30
0
41
1
10
-1.90492944339627
20
-0.881328490161167
30
0
41
1
10
-1.84396151081336
20
-1.52649956093143
30
0
41
1
10
-1.81946627012519
20
-1.7401081785566
30
0
41
1
10
-1.7640108290222
20
-2.16479512178205
30
0
41
1
10
-1.73306081558343
20
-2.37572486620755
30
0
41
1
10
-1.70000000000007
20
-2.58372503195247
30
0
0
SPLINE
5
166
100
AcDbEntity
8
SK1
62
256
6
ByLayer
370
13
48
1
60
0
100
AcDbSpline
70
4
71
3
72
30
73
26
40
0
40
0
40
0
40
0
40
0.250000000000007
40
0.250000000000007
40
0.37500000000001
40
0.37500000000001
40
0.406250000000012
40
0.406250000000012
40
0.437500000000013
40
0.437500000000013
40
0.453125000000013
40
0.453125000000013
40
0.468750000000014
40
0.468750000000014
40
0.484375000000015
40
0.484375000000015
40
0.500000000000015
40
0.500000000000015
40
0.562500000000013
40
0.562500000000013
40
0.625000000000012
40
0.625000000000012
40
0.750000000000007
40
0.750000000000007
40
1
40
1
40
1
40
1
41
1
10
-1.70000000000007
20
-2.5837250319525
30
0
41
1
10
-1.69960577308396
20
-2.48597799469357
30
0
41
1
10
-1.6976735523813
20
-2.38798982618363
30
0
41
1
10
-1.6884426280262
20
-2.24033510329048
30
0
41
1
10
-1.6845074563401
20
-2.19070814790942
30
0
41
1
10
-1.67522587914644
20
-2.12935469948835
30
0
41
1
10
-1.67312828441314
20
-2.11712975813921
30
0
41
1
10
-1.66799661065502
20
-2.09285679379443
30
0
41
1
10
-1.66501908824242
20
-2.0807000771369
30
0
41
1
10
-1.65873245221232
20
-2.06342051623602
30
0
41
1
10
-1.65636984487844
20
-2.05788078872399
30
0
41
1
10
-1.6502314389499
20
-2.04803772586001
30
0
41
1
10
-1.64627248366875
20
-2.0438083265465
30
0
41
1
10
-1.63739722305093
20
-2.04164679415911
30
0
41
1
10
-1.63308445530873
20
-2.04380258018935
30
0
41
1
10
-1.62595582684753
20
-2.05010802243797
30
0
41
1
10
-1.62290108509768
20
-2.05425244180952
30
0
41
1
10
-1.60906040432957
20
-2.0762270189002
30
0
41
1
10
-1.60160514051958
20
-2.0976568444822
30
0
41
1
10
-1.58759099418737
20
-2.14045324455285
30
0
41
1
10
-1.58147400139285
20
-2.16239311413989
30
0
41
1
10
-1.56425204899796
20
-2.22885918383628
30
0
41
1
10
-1.55431624483131
20
-2.27405720200022
30
0
41
1
10
-1.52629464539098
20
-2.41049928039413
30
0
41
1
10
-1.51016019022953
20
-2.50249360080113
30
0
41
1
10
-1.49503997793931
20
-2.59465115086951
30
0
0
SPLINE
5
167
100
AcDbEntity
8
SK1
62
256
6
ByLayer
370
13
48
1
60
0
100
AcDbSpline
70
4
71
3
72
8
73
4
40
0
40
0
40
0
40
0
40
1
40
1
40
1
40
1
41
1
10
-1.49503997793931
20
-2.59465115086959
30
0
41
1
10
-1.43721506486031
20
-2.94709344599767
30
0
41
1
10
-1.37353709472921
20
-3.29086972471581
30
0
41
1
10
-1.3071067811866
20
-3.62781610100512
30
0
0
SPLINE
5
168
100
AcDbEntity
8
SK1
62
256
6
ByLayer
370
13
48
1
60
0
100
AcDbSpline
70
4
71
3
72
24
73
20
40
0
40
0
40
0
40
0
40
0.250000000000001
40
0.250000000000001
40
0.500000000000002
40
0.500000000000002
40
0.625000000000001
40
0.625000000000001
40
0.750000000000001
40
0.750000000000001
40
0.812500000000001
40
0.812500000000001
40
0.875000000000001
40
0.875000000000001
40
0.906250000000001
40
0.906250000000001
40
0.937500000000001
40
0.937500000000001
40
1
40
1
40
1
40
1
41
1
10
-1.3071067811866
20
3.62781725664615
30
0
41
1
10
-1.27668453291471
20
3.78212308479135
30
0
41
1
10
-1.24216894361874
20
3.93398824770151
30
0
41
1
10
-1.16077398327337
20
4.23236365169214
30
0
41
1
10
-1.11410703752748
20
4.37933268310846
30
0
41
1
10
-1.02709553867308
20
4.5925692885935
30
0
41
1
10
-0.995116720198979
20
4.66266858366532
30
0
41
1
10
-0.92175629393995
20
4.79796868002742
30
0
41
1
10
-0.880935597851789
20
4.86334184876205
30
0
41
1
10
-0.803759710398054
20
4.95360164898071
30
0
41
1
10
-0.775353909590564
20
4.98222160107787
30
0
41
1
10
-0.710417102430768
20
5.03165437507715
30
0
41
1
10
-0.672905235706793
20
5.05301456959737
30
0
41
1
10
-0.609903088653169
20
5.06932192720464
30
0
41
1
10
-0.588493507310886
20
5.07194672129921
30
0
41
1
10
-0.544749997564537
20
5.07084577117561
30
0
41
1
10
-0.523311125415006
20
5.06708508199608
30
0
41
1
10
-0.461957218190179
20
5.04813517735715
30
0
41
1
10
-0.4264871869037
20
5.02630216465266
30
0
41
1
10
-0.394976888875334
20
5.00092441402836
30
0
0
SPLINE
5
169
100
AcDbEntity
8
SK1
62
256
6
ByLayer
370
13
48
1
60
0
100
AcDbSpline
70
4
71
3
72
28
73
24
40
0
40
0
40
0
40
0
40
0.0312499999999993
40
0.0312499999999993
40
0.0624999999999985
40
0.0624999999999985
40
0.0937499999999978
40
0.0937499999999978
40
0.124999999999997
40
0.124999999999997
40
0.156249999999996
40
0.156249999999996
40
0.187499999999996
40
0.187499999999996
40
0.249999999999996
40
0.249999999999996
40
0.374999999999996
40
0.374999999999996
40
0.499999999999997
40
0.499999999999997
40
0.749999999999998
40
0.749999999999998
40
1
40
1
40
1
40
1
41
1
10
-0.394976888875334
20
-5.00092508226666
30
0
41
1
10
-0.410801723401732
20
-5.01367001187646
30
0
41
1
10
-0.42753566406833
20
-5.02539849227222
30
0
41
1
10
-0.463639445662409
20
-5.04593511745517
30
0
41
1
10
-0.483045340970847
20
-5.05469251156399
30
0
41
1
10
-0.523643941253823
20
-5.06714353053118
30
0
41
1
10
-0.545504646179808
20
-5.07093169487291
30
0
41
1
10
-0.58914205207094
20
-5.07189455751245
30
0
41
1
10
-0.61130117962594
20
-5.06908452808321
30
0
41
1
10
-0.653272178017971
20
-5.05796409301101
30
0
41
1
10
-0.67341576876214
20
-5.04965465210267
30
0
41
1
10
-0.710707027307365
20
-5.0298546065535
30
0
41
1
10
-0.72798048516114
20
-5.01838752948021
30
0
41
1
10
-0.776992972544548
20
-4.98075525164282
30
0
41
1
10
-0.805333125322846
20
-4.95193028425606
30
0
41
1
10
-0.881947101637877
20
-4.86181030678625
30
0
41
1
10
-0.923425703605687
20
-4.79521679044251
30
0
41
1
10
-0.996640730060335
20
-4.65951765116472
30
0
41
1
10
-1.02822753812418
20
-4.58996776098667
30
0
41
1
10
-1.11453443489378
20
-4.3779266724888
30
0
41
1
10
-1.16086176131407
20
-4.23206106344176
30
0
41
1
10
-1.24217275767072
20
-3.93395789518496
30
0
41
1
10
-1.27672450018167
20
-3.78192043895132
30
0
41
1
10
-1.30710678118766
20
-3.62781610099958
30
0
0
SPLINE
5
16A
100
AcDbEntity
8
SK1
62
256
6
ByLayer
370
13
48
1
60
0
100
AcDbSpline
70
4
71
3
72
281
73
277
40
0
40
0
40
0
40
0
40
0.0026986507198292
40
0.006250807318141
40
0.0098029639164528
40
0.0133551205147647
40
0.0169072771130765
40
0.0204594337113883
40
0.0240115903097001
40
0.0311159035063238
40
0.0382202167029474
40
0.0453245298995711
40
0.0488766864978829
40
0.0524288430961947
40
0.0559809996945066
40
0.0595331562928184
40
0.0666374694894421
40
0.0701896260877539
40
0.0737417826860657
40
0.0772939392843776
40
0.0808460958826894
40
0.0843982524810012
40
0.087950409079313
40
0.0950547222759366
40
0.0986068788742485
40
0.102159035472561
40
0.105711192070872
40
0.109263348669184
40
0.112815505267496
40
0.116367661865808
40
0.11991981846412
40
0.123471975062431
40
0.130576288259055
40
0.134128444857367
40
0.137680601455679
40
0.144784914652302
40
0.151889227848926
40
0.155441384447238
40
0.15899354104555
40
0.162545697643861
40
0.166097854242173
40
0.169650010840485
40
0.173202167438797
40
0.174978245737953
40
0.176754324037109
40
0.180306480635421
40
0.183858637233732
40
0.187410793832044
40
0.194515107028668
40
0.19806726362698
40
0.201619420225292
40
0.205171576823604
40
0.208723733421915
40
0.212275890020227
40
0.215828046618539
40
0.219380203216851
40
0.222932359815163
40
0.226484516413474
40
0.230036673011786
40
0.23714098620841
40
0.240693142806722
40
0.244245299405034
40
0.246021377704189
40
0.247797456003345
40
0.251349612601657
40
0.258453925798281
40
0.262006082396593
40
0.265558238994905
40
0.272662552191528
40
0.279766865388152
40
0.283319021986464
40
0.286871178584776
40
0.293975491781399
40
0.297527648379711
40
0.301079804978023
40
0.304631961576335
40
0.308184118174647
40
0.311736274772958
40
0.31528843137127
40
0.322392744567894
40
0.329497057764517
40
0.333049214362829
40
0.336601370961141
40
0.340153527559453
40
0.343705684157765
40
0.350809997354389
40
0.357914310551012
40
0.365018623747636
40
0.37212293694426
40
0.375675093542571
40
0.379227250140883
40
0.382779406739195
40
0.386331563337507
40
0.389883719935819
40
0.39343587653413
40
0.396988033132442
40
0.400540189730754
40
0.404092346329066
40
0.407644502927378
40
0.41119665952569
40
0.414748816124001
40
0.418300972722313
40
0.421853129320625
40
0.425405285918937
40
0.428957442517249
40
0.43250959911556
40
0.436061755713872
40
0.439613912312184
40
0.443166068910496
40
0.446718225508808
40
0.448494303807964
40
0.45027038210712
40
0.453822538705431
40
0.455598617004587
40
0.457374695303743
40
0.459150773602899
40
0.460926851902055
40
0.462702930201211
40
0.464479008500367
40
0.466255086799523
40
0.468031165098679
40
0.471583321696991
40
0.473359399996147
40
0.475135478295303
40
0.476911556594458
40
0.478687634893614
40
0.48046371319277
40
0.482239791491926
40
0.484015869791082
40
0.485791948090238
40
0.487568026389394
40
0.48934410468855
40
0.491120182987706
40
0.492896261286862
40
0.494672339586018
40
0.496448417885174
40
0.49822449618433
40
0.500000574483485
40
0.501776652782641
40
0.503552731081797
40
0.505328809380953
40
0.507104887680109
40
0.508880965979265
40
0.510657044278421
40
0.512433122577577
40
0.514209200876733
40
0.515985279175889
40
0.517761357475044
40
0.5195374357742
40
0.521313514073356
40
0.523089592372512
40
0.524865670671668
40
0.526641748970824
40
0.52841782726998
40
0.531969983868292
40
0.533746062167448
40
0.535522140466604
40
0.53729821876576
40
0.539074297064915
40
0.540850375364072
40
0.542626453663227
40
0.544402531962383
40
0.546178610261539
40
0.549730766859851
40
0.551506845159007
40
0.553282923458163
40
0.556835080056475
40
0.560387236654786
40
0.563939393253098
40
0.56749154985141
40
0.571043706449722
40
0.574595863048034
40
0.578148019646345
40
0.581700176244657
40
0.585252332842969
40
0.588804489441281
40
0.592356646039593
40
0.595908802637905
40
0.599460959236216
40
0.603013115834528
40
0.60656527243284
40
0.610117429031152
40
0.613669585629464
40
0.617221742227776
40
0.620773898826087
40
0.624326055424399
40
0.627878212022711
40
0.634982525219335
40
0.642086838415958
40
0.649191151612582
40
0.656295464809206
40
0.659847621407518
40
0.663399778005829
40
0.666951934604141
40
0.670504091202453
40
0.677608404399077
40
0.684712717595701
40
0.688264874194012
40
0.691817030792324
40
0.695369187390636
40
0.698921343988948
40
0.70247350058726
40
0.706025657185571
40
0.713129970382195
40
0.716682126980507
40
0.720234283578819
40
0.727338596775442
40
0.734442909972066
40
0.737995066570378
40
0.74154722316869
40
0.748651536365313
40
0.752203692963625
40
0.753979771262781
40
0.755755849561937
40
0.759308006160249
40
0.762860162758561
40
0.769964475955184
40
0.773516632553496
40
0.777068789151808
40
0.78062094575012
40
0.784173102348431
40
0.787725258946743
40
0.791277415545055
40
0.794829572143367
40
0.798381728741679
40
0.801933885339991
40
0.805486041938303
40
0.812590355134926
40
0.816142511733238
40
0.81969466833155
40
0.823246824929862
40
0.825022903229018
40
0.826798981528174
40
0.830351138126485
40
0.833903294724797
40
0.837455451323109
40
0.841007607921421
40
0.844559764519733
40
0.848111921118044
40
0.855216234314668
40
0.862320547511292
40
0.865872704109603
40
0.869424860707916
40
0.876529173904539
40
0.880081330502851
40
0.883633487101163
40
0.887185643699475
40
0.890737800297786
40
0.894289956896098
40
0.89784211349441
40
0.901394270092722
40
0.904946426691034
40
0.912050739887658
40
0.915602896485969
40
0.919155053084281
40
0.922707209682593
40
0.926259366280905
40
0.929811522879217
40
0.933363679477529
40
0.940467992674152
40
0.944020149272464
40
0.947572305870776
40
0.951124462469088
40
0.9546766190674
40
0.961780932264023
40
0.965333088862335
40
0.968885245460647
40
0.972437402058959
40
0.97598955865727
40
0.979541715255582
40
0.983093871853894
40
0.986646028452206
40
0.990198185050518
40
0.99375034164883
40
0.997302498247141
40
1
40
1
40
1
40
1
41
1
10
-24
20
12.6301285450033
30
0
41
1
10
-24
20
12.6295507141243
30
0
41
1
10
-24.0000000000001
20
12.6277960245159
30
0
41
1
10
-24
20
12.623548726994
30
0
41
1
10
-23.9999999999999
20
12.6171099043118
30
0
41
1
10
-24.0000000000001
20
12.6088736083307
30
0
41
1
10
-24
20
12.5988647342338
30
0
41
1
10
-24.0000000000001
20
12.5871069661154
30
0
41
1
10
-24
20
12.569020437469
30
0
41
1
10
-24.0000000000001
20
12.5424060911485
30
0
41
1
10
-24.0000000000001
20
12.5036823998811
30
0
41
1
10
-24
20
12.466179119183
30
0
41
1
10
-24.0000000000001
20
12.4326960489613
30
0
41
1
10
-24
20
12.4061495447384
30
0
41
1
10
-24
20
12.3780532328159
30
0
41
1
10
-23.9999999999999
20
12.3383402816863
30
0
41
1
10
-24.0000000000001
20
12.2962370819873
30
0
41
1
10
-24
20
12.2505027270978
30
0
41
1
10
-24
20
12.2149010201899
30
0
41
1
10
-24.0000000000001
20
12.1778433481664
30
0
41
1
10
-24
20
12.1393440238031
30
0
41
1
10
-24.0000000000001
20
12.0994154546281
30
0
41
1
10
-24.0000000000001
20
12.0440223921018
30
0
41
1
10
-24.0000000000001
20
11.9866456328948
30
0
41
1
10
-23.9999999999999
20
11.9256779328098
30
0
41
1
10
-23.9999999999999
20
11.8787993022056
30
0
41
1
10
-24
20
11.8305656793587
30
0
41
1
10
-24
20
11.78099039585
30
0
41
1
10
-24.0000000000001
20
11.7300825884547
30
0
41
1
10
-24
20
11.6778529900837
30
0
41
1
10
-24.0000000000001
20
11.6243139686469
30
0
41
1
10
-23.9999999999999
20
11.5508590476175
30
0
41
1
10
-24
20
11.4758394707542
30
0
41
1
10
-24
20
11.3972466128896
30
0
41
1
10
-24
20
11.3169609533628
30
0
41
1
10
-24
20
11.2142799019792
30
0
41
1
10
-23.9999999999999
20
11.1074990885262
30
0
41
1
10
-24
20
11.0189464603389
30
0
41
1
10
-24
20
10.9516093773874
30
0
41
1
10
-24
20
10.8830697782116
30
0
41
1
10
-23.9999999999999
20
10.8133337656712
30
0
41
1
10
-24.0000000000001
20
10.742410178912
30
0
41
1
10
-23.9999999999999
20
10.6825334430363
30
0
41
1
10
-23.9999999999999
20
10.6336671760819
30
0
41
1
10
-24
20
10.5844084477176
30
0
41
1
10
-24.0000000000001
20
10.5225869468266
30
0
41
1
10
-23.9999999999999
20
10.4469857296791
30
0
41
1
10
-24.0000000000001
20
10.3442039867663
30
0
41
1
10
-23.9999999999999
20
10.2404782892815
30
0
41
1
10
-24
20
10.133123847137
30
0
41
1
10
-24
20
10.0518274139735
30
0
41
1
10
-23.9999999999999
20
9.96941226524035
30
0
41
1
10
-24
20
9.8858827890852
30
0
41
1
10
-24
20
9.80124634105394
30
0
41
1
10
-24
20
9.71550990056983
30
0
41
1
10
-24
20
9.62867742465994
30
0
41
1
10
-24
20
9.54075474090101
30
0
41
1
10
-23.9999999999999
20
9.4517501287076
30
0
41
1
10
-23.9999999999999
20
9.33111730296773
30
0
41
1
10
-24.0000000000001
20
9.20992961158598
30
0
41
1
10
-24
20
9.08500600225796
30
0
41
1
10
-24
20
9.00666454438806
30
0
41
1
10
-23.9999999999999
20
8.94296708063843
30
0
41
1
10
-24.0000000000001
20
8.87892107357061
30
0
41
1
10
-23.9999999999999
20
8.76613371827506
30
0
41
1
10
-23.9999999999999
20
8.63663898523424
30
0
41
1
10
-23.9999999999999
20
8.50332881313912
30
0
41
1
10
-23.9999999999999
20
8.36865251940401
30
0
41
1
10
-23.9999999999999
20
8.19913342470039
30
0
41
1
10
-24.0000000000001
20
8.02625870426021
30
0
41
1
10
-24
20
7.88481232676438
30
0
41
1
10
-24.0000000000001
20
7.74204568631339
30
0
41
1
10
-24
20
7.59930458489882
30
0
41
1
10
-24
20
7.45257386795717
30
0
41
1
10
-24.0000000000001
20
7.34207855908448
30
0
41
1
10
-24
20
7.23061782890775
30
0
41
1
10
-24.0000000000002
20
7.11820191301106
30
0
41
1
10
-23.9999999999999
20
7.00483374343872
30
0
41
1
10
-24.0000000000001
20
6.8516785758469
30
0
41
1
10
-24
20
6.65959441745031
30
0
41
1
10
-24.0000000000001
20
6.46441027855923
30
0
41
1
10
-24.0000000000001
20
6.30499529459036
30
0
41
1
10
-24.0000000000001
20
6.18514753468799
30
0
41
1
10
-24
20
6.06440158167572
30
0
41
1
10
-23.9999999999999
20
5.90137597131746
30
0
41
1
10
-24.0000000000002
20
5.69736367955667
30
0
41
1
10
-24
20
5.44799894794272
30
0
41
1
10
-24.0000000000001
20
5.19525670130326
30
0
41
1
10
-23.9999999999999
20
4.98285125019771
30
0
41
1
10
-24
20
4.80950544532163
30
0
41
1
10
-24.0000000000001
20
4.67950096380329
30
0
41
1
10
-24
20
4.54872537799758
30
0
41
1
10
-24.0000000000001
20
4.41719445888799
30
0
41
1
10
-23.9999999999999
20
4.28492388892991
30
0
41
1
10
-24.0000000000001
20
4.15193103870837
30
0
41
1
10
-24.0000000000001
20
4.01823650200188
30
0
41
1
10
-24.0000000000001
20
3.88386015063671
30
0
41
1
10
-24
20
3.74882265025218
30
0
41
1
10
-23.9999999999999
20
3.61314816606938
30
0
41
1
10
-24.0000000000001
20
3.47686551917991
30
0
41
1
10
-24.0000000000001
20
3.34000139230267
30
0
41
1
10
-24
20
3.20258393847712
30
0
41
1
10
-24
20
3.06464837689458
30
0
41
1
10
-24
20
2.9262304523017
30
0
41
1
10
-24.0000000000001
20
2.78737006373561
30
0
41
1
10
-24
20
2.64810891556724
30
0
41
1
10
-24.0000000000001
20
2.50849315364215
30
0
41
1
10
-24.0000000000001
20
2.36857603859875
30
0
41
1
10
-24
20
2.22840727338092
30
0
41
1
10
-24.0000000000002
20
2.11231267734073
30
0
41
1
10
-23.9999999999999
20
2.01771125590744
30
0
41
1
10
-23.9999999999999
20
1.92310511773127
30
0
41
1
10
-24.0000000000001
20
1.8313714962141
30
0
41
1
10
-24
20
1.73663368976398
30
0
41
1
10
-24.0000000000001
20
1.66636839269287
30
0
41
1
10
-24
20
1.59612143913762
30
0
41
1
10
-24
20
1.52590617425699
30
0
41
1
10
-23.9999999999999
20
1.45572440081648
30
0
41
1
10
-24.0000000000001
20
1.38559146347788
30
0
41
1
10
-24
20
1.31551245865842
30
0
41
1
10
-24.0000000000001
20
1.22103102890804
30
0
41
1
10
-24
20
1.13019491172781
30
0
41
1
10
-24
20
1.03590357373665
30
0
41
1
10
-24.0000000000001
20
0.966211278320685
30
0
41
1
10
-24.0000000000001
20
0.896616942008507
30
0
41
1
10
-23.9999999999999
20
0.827119549474418
30
0
41
1
10
-24
20
0.757724503129253
30
0
41
1
10
-24.0000000000001
20
0.688430802184314
30
0
41
1
10
-23.9999999999999
20
0.619238394305086
30
0
41
1
10
-24
20
0.550143822342449
30
0
41
1
10
-24.0000000000001
20
0.481142957404018
30
0
41
1
10
-24
20
0.412229055265982
30
0
41
1
10
-23.9999999999999
20
0.343394373554958
30
0
41
1
10
-24
20
0.274627961865065
30
0
41
1
10
-23.9999999999999
20
0.205919183520024
30
0
41
1
10
-24
20
0.137254128872428
30
0
41
1
10
-24.0000000000001
20
0.068619580615092
30
0
41
1
10
-24
20
1.20069785E-08
30
0
41
1
10
-24
20
-0.0686195837654395
30
0
41
1
10
-23.9999999999999
20
-0.1372541822264
30
0
41
1
10
-24
20
-0.205919229600312
30
0
41
1
10
-23.9999999999999
20
-0.274627932715674
30
0
41
1
10
-24.0000000000001
20
-0.343394334295567
30
0
41
1
10
-24
20
-0.412229116407673
30
0
41
1
10
-24.0000000000001
20
-0.48114304712405
30
0
41
1
10
-24
20
-0.55014378989776
30
0
41
1
10
-24.0000000000001
20
-0.619238310392802
30
0
41
1
10
-23.9999999999999
20
-0.688430856535206
30
0
41
1
10
-23.9999999999999
20
-0.757724640342815
30
0
41
1
10
-24
20
-0.827119544713668
30
0
41
1
10
-24.0000000000001
20
-0.896616816711344
30
0
41
1
10
-24.0000000000001
20
-0.966211277672699
30
0
41
1
10
-24
20
-1.03590373801057
30
0
41
1
10
-24.0000000000001
20
-1.13019491751672
30
0
41
1
10
-24
20
-1.22103090337816
30
0
41
1
10
-24.0000000000002
20
-1.31551253110209
30
0
41
1
10
-24
20
-1.38559165365194
30
0
41
1
10
-24
20
-1.45572444737027
30
0
41
1
10
-24.0000000000001
20
-1.52590604398475
30
0
41
1
10
-24.0000000000001
20
-1.59612132289769
30
0
41
1
10
-24
20
-1.66636846888792
30
0
41
1
10
-24
20
-1.73663389391052
30
0
41
1
10
-24
20
-1.83137150908334
30
0
41
1
10
-24
20
-1.923104963833
30
0
41
1
10
-23.9999999999999
20
-2.01771124909399
30
0
41
1
10
-24.0000000000001
20
-2.11231287096447
30
0
41
1
10
-24
20
-2.22840729138048
30
0
41
1
10
-24
20
-2.36857592379664
30
0
41
1
10
-24
20
-2.50849329023109
30
0
41
1
10
-24.0000000000001
20
-2.64810899336408
30
0
41
1
10
-24.0000000000001
20
-2.7873694745272
30
0
41
1
10
-24
20
-2.92622914514118
30
0
41
1
10
-24
20
-3.06464867495961
30
0
41
1
10
-24.0000000000001
20
-3.20258694679339
30
0
41
1
10
-24.0000000000001
20
-3.34000339886188
30
0
41
1
10
-24
20
-3.47686412773234
30
0
41
1
10
-24.0000000000001
20
-3.61314539193523
30
0
41
1
10
-23.9999999999999
20
-3.74882070125759
30
0
41
1
10
-23.9999999999999
20
-3.88386081960974
30
0
41
1
10
-24
20
-4.01823910176785
30
0
41
1
10
-23.9999999999999
20
-4.15193237523468
30
0
41
1
10
-24.0000000000001
20
-4.28492323331267
30
0
41
1
10
-24.0000000000001
20
-4.41719365917407
30
0
41
1
10
-24.0000000000001
20
-4.54872525063163
30
0
41
1
10
-24.0000000000002
20
-4.67950102029136
30
0
41
1
10
-24.0000000000001
20
-4.8095053694127
30
0
41
1
10
-24
20
-4.98285124277228
30
0
41
1
10
-24
20
-5.19525677656026
30
0
41
1
10
-24
20
-5.44799891971269
30
0
41
1
10
-24.0000000000001
20
-5.69736372546626
30
0
41
1
10
-24
20
-5.90137602298267
30
0
41
1
10
-24.0000000000001
20
-6.0644015068855
30
0
41
1
10
-24
20
-6.1851475156806
30
0
41
1
10
-24.0000000000001
20
-6.30499537148731
30
0
41
1
10
-24.0000000000001
20
-6.46441033734266
30
0
41
1
10
-24
20
-6.65959438580623
30
0
41
1
10
-24
20
-6.85167858307042
30
0
41
1
10
-24
20
-7.00483382763792
30
0
41
1
10
-24.0000000000001
20
-7.11820195418233
30
0
41
1
10
-24.0000000000001
20
-7.2306178054078
30
0
41
1
10
-24
20
-7.34207852113332
30
0
41
1
10
-24.0000000000001
20
-7.45257387547736
30
0
41
1
10
-24.0000000000001
20
-7.5993046483614
30
0
41
1
10
-24
20
-7.74204572237986
30
0
41
1
10
-24
20
-7.88481230085071
30
0
41
1
10
-24
20
-8.02625870014728
30
0
41
1
10
-24.0000000000001
20
-8.19913346952646
30
0
41
1
10
-24
20
-8.36865254580422
30
0
41
1
10
-24.0000000000001
20
-8.50332879773276
30
0
41
1
10
-24.0000000000001
20
-8.63663898786112
30
0
41
1
10
-24
20
-8.76613375581505
30
0
41
1
10
-24
20
-8.87892111197036
30
0
41
1
10
-24.0000000000002
20
-8.94296710462896
30
0
41
1
10
-24
20
-9.00666455327521
30
0
41
1
10
-24.0000000000001
20
-9.08500599911849
30
0
41
1
10
-23.9999999999999
20
-9.20992961783278
30
0
41
1
10
-24
20
-9.33111733072479
30
0
41
1
10
-24
20
-9.45175015939358
30
0
41
1
10
-24
20
-9.54075475929304
30
0
41
1
10
-23.9999999999999
20
-9.62867743247332
30
0
41
1
10
-24
20
-9.71550990736878
30
0
41
1
10
-24.0000000000001
20
-9.80124635456619
30
0
41
1
10
-24.0000000000001
20
-9.88588281033205
30
0
41
1
10
-24.0000000000001
20
-9.9694122909747
30
0
41
1
10
-24.0000000000001
20
-10.0518274374697
30
0
41
1
10
-24.0000000000002
20
-10.1331238647016
30
0
41
1
10
-24.0000000000002
20
-10.240478300249
30
0
41
1
10
-24
20
-10.3442039980406
30
0
41
1
10
-24.0000000000001
20
-10.4469857502475
30
0
41
1
10
-24.0000000000001
20
-10.5225869730086
30
0
41
1
10
-24
20
-10.5844084741421
30
0
41
1
10
-23.9999999999999
20
-10.6336671988976
30
0
41
1
10
-24
20
-10.6825334589273
30
0
41
1
10
-24.0000000000001
20
-10.7424101865055
30
0
41
1
10
-24
20
-10.8133337727233
30
0
41
1
10
-24
20
-10.8830697936353
30
0
41
1
10
-24.0000000000001
20
-10.951609404873
30
0
41
1
10
-23.9999999999999
20
-11.0189464931514
30
0
41
1
10
-24.0000000000001
20
-11.1074991058536
30
0
41
1
10
-23.9999999999999
20
-11.2142799044294
30
0
41
1
10
-23.9999999999999
20
-11.3169609751523
30
0
41
1
10
-24.0000000000001
20
-11.3972466509688
30
0
41
1
10
-24.0000000000001
20
-11.4758394909226
30
0
41
1
10
-24
20
-11.5508590446085
30
0
41
1
10
-23.9999999999999
20
-11.6243139791192
30
0
41
1
10
-24.0000000000001
20
-11.6778530233415
30
0
41
1
10
-24.0000000000001
20
-11.7300826287653
30
0
41
1
10
-24.0000000000001
20
-11.7809904199399
30
0
41
1
10
-24
20
-11.8305656793297
30
0
41
1
10
-24
20
-11.8787992978643
30
0
41
1
10
-24
20
-11.925677948116
30
0
41
1
10
-24.0000000000001
20
-11.9866456736684
30
0
41
1
10
-24.0000000000001
20
-12.0440224201629
30
0
41
1
10
-23.9999999999999
20
-12.099415447517
30
0
41
1
10
-24
20
-12.1393440246738
30
0
41
1
10
-24
20
-12.1778433772408
30
0
41
1
10
-24
20
-12.2149010599454
30
0
41
1
10
-23.9999999999999
20
-12.250502752964
30
0
41
1
10
-23.9999999999999
20
-12.2962370828382
30
0
41
1
10
-24.0000000000001
20
-12.3383402824608
30
0
41
1
10
-23.9999999999999
20
-12.3780532736994
30
0
41
1
10
-24
20
-12.4061495785297
30
0
41
1
10
-24
20
-12.432696053015
30
0
41
1
10
-24
20
-12.4661791203579
30
0
41
1
10
-24.0000000000001
20
-12.4959885477691
30
0
41
1
10
-24
20
-12.523037071398
30
0
41
1
10
-23.9999999999999
20
-12.5415673540695
30
0
41
1
10
-24.0000000000001
20
-12.55843663992
30
0
41
1
10
-23.9999999999999
20
-12.5736235086905
30
0
41
1
10
-24
20
-12.5871069547276
30
0
41
1
10
-24
20
-12.5988645879939
30
0
41
1
10
-24
20
-12.6088733436887
30
0
41
1
10
-24
20
-12.617109869821
30
0
41
1
10
-23.9999999999999
20
-12.6235493215146
30
0
41
1
10
-24
20
-12.6277964617006
30
0
41
1
10
-24.0000000000001
20
-12.6295508287463
30
0
41
1
10
-24.0000000000001
20
-12.6301284548611
30
0
0
SPLINE
5
16B
100
AcDbEntity
8
SK1
62
256
6
ByLayer
370
13
48
1
60
0
100
AcDbSpline
70
4
71
3
72
287
73
283
40
0
40
0
40
0
40
0
40
0.0011791526471075
40
0.0046676846231966
40
0.0081562165992857
40
0.0116447485753748
40
0.0151332805514639
40
0.018621812527553
40
0.0221103445036421
40
0.0255988764797312
40
0.0290874084558203
40
0.0325759404319094
40
0.0395530043840876
40
0.0465300683362658
40
0.053507132288444
40
0.0569956642645331
40
0.0604841962406222
40
0.0639727282167113
40
0.0674612601928004
40
0.0744383241449786
40
0.0779268561210677
40
0.0814153880971568
40
0.0849039200732459
40
0.088392452049335
40
0.0918809840254241
40
0.0953695160015132
40
0.102346579953691
40
0.10583511192978
40
0.10932364390587
40
0.112812175881959
40
0.116300707858048
40
0.119789239834137
40
0.123277771810226
40
0.126766303786315
40
0.130254835762404
40
0.137231899714582
40
0.140720431690671
40
0.14420896366676
40
0.151186027618939
40
0.158163091571117
40
0.161651623547206
40
0.165140155523295
40
0.168628687499384
40
0.172117219475473
40
0.175605751451562
40
0.179094283427651
40
0.180838549415696
40
0.182582815403741
40
0.18607134737983
40
0.189559879355919
40
0.193048411332008
40
0.200025475284186
40
0.203514007260275
40
0.207002539236364
40
0.210491071212453
40
0.213979603188543
40
0.217468135164632
40
0.220956667140721
40
0.22444519911681
40
0.227933731092899
40
0.231422263068988
40
0.234910795045077
40
0.241887858997255
40
0.245376390973344
40
0.248864922949433
40
0.250609188937478
40
0.252353454925523
40
0.255841986901612
40
0.26281905085379
40
0.266307582829879
40
0.269796114805968
40
0.276773178758146
40
0.283750242710324
40
0.287238774686414
40
0.290727306662503
40
0.297704370614681
40
0.30119290259077
40
0.304681434566859
40
0.308169966542948
40
0.311658498519037
40
0.315147030495126
40
0.318635562471215
40
0.325612626423394
40
0.332589690375572
40
0.336078222351661
40
0.33956675432775
40
0.343055286303839
40
0.346543818279928
40
0.353520882232106
40
0.360497946184285
40
0.367475010136463
40
0.374452074088641
40
0.37794060606473
40
0.381429138040819
40
0.384917670016908
40
0.388406201992997
40
0.391894733969086
40
0.395383265945176
40
0.398871797921265
40
0.402360329897354
40
0.405848861873443
40
0.409337393849532
40
0.412825925825621
40
0.41631445780171
40
0.419802989777799
40
0.423291521753888
40
0.426780053729978
40
0.430268585706067
40
0.433757117682156
40
0.437245649658245
40
0.440734181634334
40
0.444222713610423
40
0.447711245586512
40
0.449455511574557
40
0.451199777562601
40
0.45468830953869
40
0.456432575526735
40
0.45817684151478
40
0.459921107502824
40
0.461665373490869
40
0.463409639478913
40
0.465153905466958
40
0.466898171455002
40
0.468642437443047
40
0.472130969419136
40
0.47387523540718
40
0.475619501395225
40
0.47736376738327
40
0.479108033371314
40
0.480852299359359
40
0.482596565347403
40
0.484340831335448
40
0.486085097323492
40
0.487829363311537
40
0.489573629299581
40
0.491317895287626
40
0.49306216127567
40
0.494806427263715
40
0.496550693251759
40
0.498294959239804
40
0.500039225227848
40
0.501783491215893
40
0.503527757203938
40
0.505272023191982
40
0.507016289180027
40
0.508760555168071
40
0.510504821156116
40
0.51224908714416
40
0.513993353132205
40
0.51573761912025
40
0.517481885108294
40
0.519226151096339
40
0.520970417084383
40
0.522714683072428
40
0.524458949060472
40
0.526203215048517
40
0.527947481036561
40
0.53143601301265
40
0.533180279000695
40
0.53492454498874
40
0.536668810976784
40
0.538413076964829
40
0.540157342952873
40
0.541901608940918
40
0.543645874928962
40
0.545390140917007
40
0.548878672893096
40
0.55062293888114
40
0.552367204869185
40
0.555855736845274
40
0.559344268821363
40
0.562832800797452
40
0.566321332773541
40
0.56980986474963
40
0.573298396725719
40
0.576786928701809
40
0.580275460677898
40
0.583763992653987
40
0.587252524630076
40
0.590741056606165
40
0.594229588582254
40
0.597718120558343
40
0.601206652534432
40
0.604695184510521
40
0.608183716486611
40
0.6116722484627
40
0.615160780438789
40
0.618649312414878
40
0.622137844390967
40
0.625626376367056
40
0.632603440319234
40
0.639580504271412
40
0.646557568223591
40
0.653534632175769
40
0.657023164151858
40
0.660511696127947
40
0.664000228104036
40
0.667488760080125
40
0.674465824032303
40
0.681442887984482
40
0.684931419960571
40
0.68841995193666
40
0.691908483912749
40
0.695397015888838
40
0.698885547864927
40
0.702374079841016
40
0.709351143793194
40
0.712839675769283
40
0.716328207745373
40
0.723305271697551
40
0.730282335649729
40
0.733770867625818
40
0.737259399601907
40
0.744236463554086
40
0.747724995530174
40
0.749469261518219
40
0.751213527506264
40
0.754702059482353
40
0.758190591458442
40
0.76516765541062
40
0.768656187386709
40
0.772144719362798
40
0.775633251338887
40
0.779121783314977
40
0.782610315291065
40
0.786098847267154
40
0.789587379243244
40
0.793075911219333
40
0.796564443195422
40
0.800052975171511
40
0.807030039123689
40
0.810518571099778
40
0.814007103075867
40
0.817495635051956
40
0.819239901040001
40
0.820984167028045
40
0.824472699004135
40
0.827961230980224
40
0.831449762956313
40
0.834938294932402
40
0.838426826908491
40
0.84191535888458
40
0.848892422836758
40
0.855869486788937
40
0.859358018765026
40
0.862846550741115
40
0.869823614693293
40
0.873312146669382
40
0.876800678645471
40
0.88028921062156
40
0.883777742597649
40
0.887266274573738
40
0.890754806549828
40
0.894243338525917
40
0.897731870502006
40
0.904708934454184
40
0.908197466430273
40
0.911685998406362
40
0.915174530382451
40
0.91866306235854
40
0.922151594334629
40
0.925640126310718
40
0.932617190262897
40
0.936105722238986
40
0.939594254215075
40
0.943082786191164
40
0.946571318167253
40
0.953548382119431
40
0.95703691409552
40
0.96052544607161
40
0.964013978047699
40
0.967502510023788
40
0.970991041999877
40
0.974479573975966
40
0.977968105952055
40
0.981456637928144
40
0.984945169904233
40
0.988433701880322
40
0.991922233856411
40
0.995410765832501
40
0.998899297808589
40
1
40
1
40
1
40
1
41
1
10
-22.5
20
13.4956148754221
30
0
41
1
10
-22.5
20
13.4959321404103
30
0
41
1
10
-22.5
20
13.4970310041983
30
0
41
1
10
-22.5
20
13.4978716184631
30
0
41
1
10
-22.5
20
13.4969161903089
30
0
41
1
10
-22.5
20
13.4939625245411
30
0
41
1
10
-22.5
20
13.4890441905268
30
0
41
1
10
-22.4999999999999
20
13.4821928739338
30
0
41
1
10
-22.4999999999999
20
13.4734382711797
30
0
41
1
10
-22.5000000000001
20
13.4628104278487
30
0
41
1
10
-22.5000000000002
20
13.4503375493538
30
0
41
1
10
-22.4999999999999
20
13.4312436783152
30
0
41
1
10
-22.5
20
13.402990048048
30
0
41
1
10
-22.4999999999999
20
13.3620642251226
30
0
41
1
10
-22.5
20
13.3223661774289
30
0
41
1
10
-22.5000000000001
20
13.2871835761246
30
0
41
1
10
-22.5
20
13.2592104836088
30
0
41
1
10
-22.4999999999999
20
13.2296213566399
30
0
41
1
10
-22.5000000000001
20
13.1879639126742
30
0
41
1
10
-22.5
20
13.1433841284413
30
0
41
1
10
-22.5
20
13.0954724183384
30
0
41
1
10
-22.5000000000001
20
13.0580720783436
30
0
41
1
10
-22.5000000000002
20
13.0191589474766
30
0
41
1
10
-22.4999999999999
20
12.9787481075025
30
0
41
1
10
-22.4999999999999
20
12.9368537004399
30
0
41
1
10
-22.5000000000001
20
12.8789379874313
30
0
41
1
10
-22.5000000000001
20
12.8184132188765
30
0
41
1
10
-22.5000000000002
20
12.7547247883428
30
0
41
1
10
-22.4999999999999
20
12.7056201369325
30
0
41
1
10
-22.5000000000001
20
12.6551113810006
30
0
41
1
10
-22.4999999999999
20
12.6032111684974
30
0
41
1
10
-22.5000000000001
20
12.5499297998313
30
0
41
1
10
-22.5
20
12.4952790326449
30
0
41
1
10
-22.5
20
12.4392702770472
30
0
41
1
10
-22.5
20
12.3626709718699
30
0
41
1
10
-22.5
20
12.2837700633604
30
0
41
1
10
-22.4999999999999
20
12.2018541666219
30
0
41
1
10
-22.4999999999999
20
12.1181901660327
30
0
41
1
10
-22.5
20
12.0106580823312
30
0
41
1
10
-22.5
20
11.8988607853738
30
0
41
1
10
-22.5
20
11.8066390784571
30
0
41
1
10
-22.5
20
11.7363216027856
30
0
41
1
10
-22.5
20
11.6647550005754
30
0
41
1
10
-22.5
20
11.59194615036
30
0
41
1
10
-22.4999999999999
20
11.5179033392113
30
0
41
1
10
-22.5000000000001
20
11.4552554262223
30
0
41
1
10
-22.5
20
11.4043880916922
30
0
41
1
10
-22.5
20
11.3531143221947
30
0
41
1
10
-22.5
20
11.2884404549429
30
0
41
1
10
-22.5000000000001
20
11.2095312020912
30
0
41
1
10
-22.5000000000001
20
11.1025558247745
30
0
41
1
10
-22.5000000000001
20
10.9936883814227
30
0
41
1
10
-22.5000000000001
20
10.881957392112
30
0
41
1
10
-22.5
20
10.7971107518715
30
0
41
1
10
-22.5
20
10.7110949831286
30
0
41
1
10
-22.5000000000002
20
10.6239149454148
30
0
41
1
10
-22.5000000000001
20
10.5355769819029
30
0
41
1
10
-22.4999999999999
20
10.4460865275718
30
0
41
1
10
-22.5
20
10.3554481215356
30
0
41
1
10
-22.5000000000001
20
10.2636670923514
30
0
41
1
10
-22.5
20
10.1707494549495
30
0
41
1
10
-22.5
20
10.0451570413025
30
0
41
1
10
-22.5000000000001
20
9.9178935930201
30
0
41
1
10
-22.4999999999999
20
9.78780083934149
30
0
41
1
10
-22.5
20
9.70579078784203
30
0
41
1
10
-22.5
20
9.63944489130404
30
0
41
1
10
-22.5
20
9.57273011219269
30
0
41
1
10
-22.5000000000001
20
9.45508832781687
30
0
41
1
10
-22.5000000000001
20
9.31898450356377
30
0
41
1
10
-22.4999999999999
20
9.18004983919923
30
0
41
1
10
-22.5000000000002
20
9.03966368952015
30
0
41
1
10
-22.5
20
8.86197296792949
30
0
41
1
10
-22.5
20
8.68069429175796
30
0
41
1
10
-22.4999999999999
20
8.53310893756458
30
0
41
1
10
-22.5000000000002
20
8.38410353449396
30
0
41
1
10
-22.4999999999999
20
8.23370690743869
30
0
41
1
10
-22.5
20
8.08045168982594
30
0
41
1
10
-22.5
20
7.96465014223952
30
0
41
1
10
-22.5
20
7.84779993569691
30
0
41
1
10
-22.5
20
7.72990617143802
30
0
41
1
10
-22.5
20
7.61097083499584
30
0
41
1
10
-22.5
20
7.45073654157579
30
0
41
1
10
-22.5000000000001
20
7.24848505186409
30
0
41
1
10
-22.5000000000002
20
7.04280518235291
30
0
41
1
10
-22.5000000000001
20
6.87569112826711
30
0
41
1
10
-22.4999999999999
20
6.74956632065386
30
0
41
1
10
-22.5
20
6.62242827644155
30
0
41
1
10
-22.4999999999999
20
6.4512555331213
30
0
41
1
10
-22.4999999999999
20
6.23550102644131
30
0
41
1
10
-22.5
20
5.97220551217549
30
0
41
1
10
-22.5
20
5.70495651005669
30
0
41
1
10
-22.5000000000001
20
5.47933703035866
30
0
41
1
10
-22.5000000000001
20
5.29623480232564
30
0
41
1
10
-22.5000000000001
20
5.15823567759486
30
0
41
1
10
-22.4999999999999
20
5.01927995326392
30
0
41
1
10
-22.5000000000001
20
4.87937450907222
30
0
41
1
10
-22.5
20
4.73852599905979
30
0
41
1
10
-22.5
20
4.59674211262629
30
0
41
1
10
-22.4999999999999
20
4.45403157575558
30
0
41
1
10
-22.5000000000001
20
4.31040309161111
30
0
41
1
10
-22.5
20
4.16586580001649
30
0
41
1
10
-22.5
20
4.02043049501106
30
0
41
1
10
-22.4999999999999
20
3.87410976932693
30
0
41
1
10
-22.5000000000002
20
3.72691565105669
30
0
41
1
10
-22.5000000000001
20
3.57886126909131
30
0
41
1
10
-22.5000000000002
20
3.4299627769704
30
0
41
1
10
-22.5
20
3.28023687778401
30
0
41
1
10
-22.5
20
3.12970257053468
30
0
41
1
10
-22.5000000000001
20
2.97838003358396
30
0
41
1
10
-22.5
20
2.8262921676581
30
0
41
1
10
-22.5000000000002
20
2.67346525953189
30
0
41
1
10
-22.5000000000001
20
2.51992549648591
30
0
41
1
10
-22.4999999999999
20
2.39172828921559
30
0
41
1
10
-22.4999999999999
20
2.2882368400623
30
0
41
1
10
-22.5
20
2.18454587114542
30
0
41
1
10
-22.5000000000001
20
2.08161602870015
30
0
41
1
10
-22.5
20
1.97729727415896
30
0
41
1
10
-22.4999999999999
20
1.89920682890116
30
0
41
1
10
-22.5000000000002
20
1.82098464012651
30
0
41
1
10
-22.5000000000001
20
1.74263823347056
30
0
41
1
10
-22.5
20
1.66417084854152
30
0
41
1
10
-22.4999999999999
20
1.58559123041411
30
0
41
1
10
-22.5000000000001
20
1.50690426712365
30
0
41
1
10
-22.5
20
1.40144074045128
30
0
41
1
10
-22.4999999999999
20
1.29707563275716
30
0
41
1
10
-22.5
20
1.19121858421377
30
0
41
1
10
-22.5
20
1.11209553564783
30
0
41
1
10
-22.5
20
1.03290644237791
30
0
41
1
10
-22.5
20
0.95365606681014
30
0
41
1
10
-22.4999999999999
20
0.874352168955852
30
0
41
1
10
-22.5000000000001
20
0.795000198505278
30
0
41
1
10
-22.4999999999999
20
0.71560660892132
30
0
41
1
10
-22.4999999999999
20
0.63617666680787
30
0
41
1
10
-22.4999999999999
20
0.556715993884097
30
0
41
1
10
-22.5000000000001
20
0.477229338262958
30
0
41
1
10
-22.4999999999999
20
0.397721593521055
30
0
41
1
10
-22.5
20
0.318196568076161
30
0
41
1
10
-22.5000000000001
20
0.238658582119825
30
0
41
1
10
-22.5
20
0.159110826532384
30
0
41
1
10
-22.5
20
0.0795570008675952
30
0
41
1
10
-22.5000000000001
20
-4.3520458E-09
30
0
41
1
10
-22.5
20
-0.0795570195282949
30
0
41
1
10
-22.5000000000001
20
-0.159110863620981
30
0
41
1
10
-22.5000000000001
20
-0.238658616598514
30
0
41
1
10
-22.4999999999999
20
-0.318196574925025
30
0
41
1
10
-22.5
20
-0.397721596430074
30
0
41
1
10
-22.5000000000001
20
-0.477229377934975
30
0
41
1
10
-22.5
20
-0.556716044364009
30
0
41
1
10
-22.5
20
-0.63617667254502
30
0
41
1
10
-22.5000000000001
20
-0.715606595157226
30
0
41
1
10
-22.4999999999999
20
-0.795000235128668
30
0
41
1
10
-22.5000000000001
20
-0.874352236673616
30
0
41
1
10
-22.4999999999999
20
-0.953656082911976
30
0
41
1
10
-22.5
20
-1.03290641330761
30
0
41
1
10
-22.5
20
-1.11209555133374
30
0
41
1
10
-22.5
20
-1.19121866112906
30
0
41
1
10
-22.5
20
-1.29707565327635
30
0
41
1
10
-22.5
20
-1.40144071039387
30
0
41
1
10
-22.5000000000001
20
-1.50690430877853
30
0
41
1
10
-22.5000000000001
20
-1.58559131690836
30
0
41
1
10
-22.5000000000002
20
-1.66417088377818
30
0
41
1
10
-22.5000000000001
20
-1.74263820265685
30
0
41
1
10
-22.5000000000001
20
-1.82098461234611
30
0
41
1
10
-22.5
20
-1.89920687090043
30
0
41
1
10
-22.5
20
-1.97729736527978
30
0
41
1
10
-22.4999999999999
20
-2.08161605220536
30
0
41
1
10
-22.5
20
-2.18454583019772
30
0
41
1
10
-22.5000000000001
20
-2.28823685042079
30
0
41
1
10
-22.5000000000001
20
-2.39172837491469
30
0
41
1
10
-22.5000000000001
20
-2.51992552331163
30
0
41
1
10
-22.5000000000001
20
-2.67346522993279
30
0
41
1
10
-22.5
20
-2.82629223006825
30
0
41
1
10
-22.4999999999999
20
-2.9783800820847
30
0
41
1
10
-22.5
20
-3.12970236953149
30
0
41
1
10
-22.5
20
-3.2802363758513
30
0
41
1
10
-22.4999999999999
20
-3.42996282061054
30
0
41
1
10
-22.5000000000001
20
-3.57886234252629
30
0
41
1
10
-22.5
20
-3.72691655621918
30
0
41
1
10
-22.5000000000001
20
-3.87410940415094
30
0
41
1
10
-22.4999999999999
20
-4.02042950258553
30
0
41
1
10
-22.5000000000001
20
-4.1658649918152
30
0
41
1
10
-22.5
20
-4.31040320562681
30
0
41
1
10
-22.5
20
-4.45403251641869
30
0
41
1
10
-22.4999999999999
20
-4.59674271442694
30
0
41
1
10
-22.5000000000001
20
-4.73852585442467
30
0
41
1
10
-22.4999999999999
20
-4.87937424460154
30
0
41
1
10
-22.5
20
-5.01927991936705
30
0
41
1
10
-22.5000000000002
20
-5.15823571506778
30
0
41
1
10
-22.4999999999999
20
-5.29623478947158
30
0
41
1
10
-22.5
20
-5.47933703089231
30
0
41
1
10
-22.5000000000001
20
-5.70495655337433
30
0
41
1
10
-22.5
20
-5.97220551419213
30
0
41
1
10
-22.5
20
-6.23550104742762
30
0
41
1
10
-22.5
20
-6.451255571394
30
0
41
1
10
-22.4999999999999
20
-6.62242825981923
30
0
41
1
10
-22.5000000000001
20
-6.74956631857708
30
0
41
1
10
-22.5
20
-6.87569116366487
30
0
41
1
10
-22.5000000000001
20
-7.04280522024897
30
0
41
1
10
-22.5
20
-7.24848505302427
30
0
41
1
10
-22.5000000000001
20
-7.45073654783442
30
0
41
1
10
-22.5000000000001
20
-7.6109708771202
30
0
41
1
10
-22.5000000000001
20
-7.72990620240671
30
0
41
1
10
-22.5
20
-7.84779994085653
30
0
41
1
10
-22.5000000000001
20
-7.96465013686171
30
0
41
1
10
-22.5000000000001
20
-8.08045169790759
30
0
41
1
10
-22.4999999999999
20
-8.23370694014301
30
0
41
1
10
-22.5000000000001
20
-8.38410356414292
30
0
41
1
10
-22.5
20
-8.53310893988203
30
0
41
1
10
-22.5000000000001
20
-8.68069429599308
30
0
41
1
10
-22.4999999999999
20
-8.8619729936481
30
0
41
1
10
-22.4999999999999
20
-9.0396637144479
30
0
41
1
10
-22.5000000000001
20
-9.18004984465043
30
0
41
1
10
-22.5
20
-9.31898451102214
30
0
41
1
10
-22.5000000000001
20
-9.45508835059127
30
0
41
1
10
-22.4999999999999
20
-9.5727301387586
30
0
41
1
10
-22.4999999999999
20
-9.63944491324963
30
0
41
1
10
-22.5
20
-9.7057908040384
30
0
41
1
10
-22.4999999999999
20
-9.7878008492857
30
0
41
1
10
-22.5000000000002
20
-9.91789360326428
30
0
41
1
10
-22.4999999999999
20
-10.0451570606616
30
0
41
1
10
-22.5
20
-10.1707494782419
30
0
41
1
10
-22.5
20
-10.2636671117607
30
0
41
1
10
-22.5
20
-10.3554481360506
30
0
41
1
10
-22.5000000000001
20
-10.4460865401309
30
0
41
1
10
-22.5
20
-10.535576996235
30
0
41
1
10
-22.5
20
-10.6239149629423
30
0
41
1
10
-22.5000000000001
20
-10.7110950034658
30
0
41
1
10
-22.5
20
-10.7971107724731
30
0
41
1
10
-22.4999999999999
20
-10.881957410682
30
0
41
1
10
-22.5000000000001
20
-10.9936883968037
30
0
41
1
10
-22.5
20
-11.1025558384385
30
0
41
1
10
-22.5000000000001
20
-11.2095312195267
30
0
41
1
10
-22.5
20
-11.2884404756242
30
0
41
1
10
-22.5
20
-11.3531143441571
30
0
41
1
10
-22.4999999999999
20
-11.4043881128182
30
0
41
1
10
-22.4999999999999
20
-11.4552554448703
30
0
41
1
10
-22.5
20
-11.5179033535968
30
0
41
1
10
-22.5
20
-11.5919461625789
30
0
41
1
10
-22.5
20
-11.664755015164
30
0
41
1
10
-22.5000000000001
20
-11.7363216229303
30
0
41
1
10
-22.5
20
-11.8066391033682
30
0
41
1
10
-22.4999999999999
20
-11.8988608066557
30
0
41
1
10
-22.5
20
-12.0106580919609
30
0
41
1
10
-22.4999999999999
20
-12.1181901818312
30
0
41
1
10
-22.5000000000002
20
-12.2018541939414
30
0
41
1
10
-22.4999999999999
20
-12.2837700876339
30
0
41
1
10
-22.5000000000002
20
-12.3626709807027
30
0
41
1
10
-22.4999999999999
20
-12.4392702870471
30
0
41
1
10
-22.4999999999999
20
-12.4952790541085
30
0
41
1
10
-22.5
20
-12.5499298292215
30
0
41
1
10
-22.4999999999999
20
-12.6032111946844
30
0
41
1
10
-22.5000000000001
20
-12.6551113940766
30
0
41
1
10
-22.5
20
-12.7056201424592
30
0
41
1
10
-22.5
20
-12.7547247990428
30
0
41
1
10
-22.5000000000001
20
-12.8184132466048
30
0
41
1
10
-22.5
20
-12.8789380178894
30
0
41
1
10
-22.4999999999999
20
-12.9368537080862
30
0
41
1
10
-22.5
20
-12.9787481114295
30
0
41
1
10
-22.5
20
-13.0191589652135
30
0
41
1
10
-22.5000000000001
20
-13.0580721081213
30
0
41
1
10
-22.5
20
-13.0954724456838
30
0
41
1
10
-22.5
20
-13.143384141029
30
0
41
1
10
-22.5
20
-13.1879639125281
30
0
41
1
10
-22.5000000000001
20
-13.2296213845592
30
0
41
1
10
-22.5
20
-13.2592105165633
30
0
41
1
10
-22.4999999999999
20
-13.2871835921006
30
0
41
1
10
-22.4999999999999
20
-13.3223661764574
30
0
41
1
10
-22.5000000000001
20
-13.3540536969874
30
0
41
1
10
-22.5
20
-13.3825245595673
30
0
41
1
10
-22.5
20
-13.4021158939438
30
0
41
1
10
-22.5000000000001
20
-13.4199649415155
30
0
41
1
10
-22.5
20
-13.4360470510206
30
0
41
1
10
-22.4999999999999
20
-13.4503375548199
30
0
41
1
10
-22.5000000000001
20
-13.4628103286331
30
0
41
1
10
-22.5000000000002
20
-13.4734380181859
30
0
41
1
10
-22.4999999999999
20
-13.4821927509398
30
0
41
1
10
-22.5
20
-13.4890446841776
30
0
41
1
10
-22.4999999999999
20
-13.4939634903146
30
0
41
1
10
-22.5
20
-13.496916801474
30
0
41
1
10
-22.5000000000001
20
-13.4978715423881
30
0
41
1
10
-22.5000000000002
20
-13.4970387629215
30
0
41
1
10
-22.5000000000001
20
-13.4959685293821
30
0
41
1
10
-22.5000000000001
20
-13.4956772919577
30
0
0
SPLINE
5
16C
100
AcDbEntity
8
SK1
62
256
6
ByLayer
370
13
48
1
60
0
100
AcDbSpline
70
4
71
3
72
114
73
110
40
0
40
0
40
0
40
0
40
0.0075253339898321
40
0.015549278833937
40
0.0235732236780418
40
0.0315971685221466
40
0.0396211133662515
40
0.0476450582103563
40
0.063692947898566
40
0.0797408375867757
40
0.0957887272749853
40
0.10381267211909
40
0.111836616963195
40
0.1198605618073
40
0.127884506651405
40
0.143932396339614
40
0.151956341183719
40
0.159980286027824
40
0.168004230871929
40
0.176028175716034
40
0.184052120560139
40
0.192076065404243
40
0.208123955092453
40
0.216147899936558
40
0.224171844780663
40
0.232195789624768
40
0.240219734468872
40
0.248243679312977
40
0.256267624157082
40
0.264291569001187
40
0.272315513845292
40
0.288363403533501
40
0.296387348377606
40
0.304411293221711
40
0.320459182909921
40
0.336507072598131
40
0.344531017442235
40
0.35255496228634
40
0.360578907130445
40
0.36860285197455
40
0.376626796818655
40
0.384650741662759
40
0.388662714084812
40
0.392674686506864
40
0.400698631350969
40
0.408722576195074
40
0.416746521039179
40
0.432794410727389
40
0.440818355571493
40
0.448842300415598
40
0.456866245259703
40
0.464890190103808
40
0.472914134947913
40
0.480938079792018
40
0.488962024636122
40
0.496985969480227
40
0.505009914324332
40
0.513033859168437
40
0.529081748856647
40
0.537105693700751
40
0.545129638544856
40
0.549141610966909
40
0.553153583388961
40
0.561177528233066
40
0.577225417921276
40
0.585249362765381
40
0.593273307609485
40
0.609321197297695
40
0.625369086985905
40
0.63339303183001
40
0.641416976674114
40
0.657464866362324
40
0.665488811206429
40
0.673512756050534
40
0.681536700894638
40
0.689560645738743
40
0.697584590582848
40
0.705608535426953
40
0.721656425115163
40
0.737704314803372
40
0.745728259647477
40
0.753752204491582
40
0.761776149335687
40
0.769800094179792
40
0.785847983868001
40
0.801895873556211
40
0.817943763244421
40
0.833991652932631
40
0.842015597776735
40
0.85003954262084
40
0.858063487464945
40
0.86608743230905
40
0.874111377153155
40
0.88213532199726
40
0.890159266841364
40
0.898183211685469
40
0.906207156529574
40
0.914231101373679
40
0.922255046217784
40
0.930278991061889
40
0.938302935905994
40
0.946326880750098
40
0.954350825594203
40
0.962374770438308
40
0.970398715282413
40
0.978422660126518
40
0.986446604970623
40
0.994470549814727
40
1
40
1
40
1
40
1
41
1
10
-1.7000000000001
20
14.0157960963496
30
0
41
1
10
-1.70000000000005
20
14.0144803196681
30
0
41
1
10
-1.70000000000005
20
14.0111457479227
30
0
41
1
10
-1.70000000000005
20
14.0041925984504
30
0
41
1
10
-1.70000000000005
20
13.9951252442004
30
0
41
1
10
-1.7000000000001
20
13.9841239086368
30
0
41
1
10
-1.70000000000002
20
13.9712195253815
30
0
41
1
10
-1.70000000000007
20
13.9515178138587
30
0
41
1
10
-1.70000000000005
20
13.9222750232465
30
0
41
1
10
-1.70000000000002
20
13.8800204120324
30
0
41
1
10
-1.70000000000005
20
13.838998019961
30
0
41
1
10
-1.70000000000007
20
13.8027899045867
30
0
41
1
10
-1.70000000000005
20
13.773955994413
30
0
41
1
10
-1.7000000000001
20
13.7434660879001
30
0
41
1
10
-1.70000000000007
20
13.7006353174901
30
0
41
1
10
-1.7000000000001
20
13.6545611373555
30
0
41
1
10
-1.70000000000007
20
13.6053355893185
30
0
41
1
10
-1.70000000000005
20
13.5668499361124
30
0
41
1
10
-1.70000000000002
20
13.5268172028035
30
0
41
1
10
-1.70000000000007
20
13.485252935173
30
0
41
1
10
-1.70000000000005
20
13.4421723218484
30
0
41
1
10
-1.70000000000002
20
13.3827344162836
30
0
41
1
10
-1.70000000000005
20
13.3203101073726
30
0
41
1
10
-1.69999999999999
20
13.254979960848
30
0
41
1
10
-1.70000000000002
20
13.2045321061977
30
0
41
1
10
-1.70000000000002
20
13.1526505121852
30
0
41
1
10
-1.70000000000002
20
13.099347414251
30
0
41
1
10
-1.70000000000007
20
13.0446338149516
30
0
41
1
10
-1.70000000000005
20
12.9885220902628
30
0
41
1
10
-1.70000000000007
20
12.9310230723471
30
0
41
1
10
-1.70000000000007
20
12.8525264142953
30
0
41
1
10
-1.70000000000007
20
12.7712834714131
30
0
41
1
10
-1.70000000000002
20
12.6873624197502
30
0
41
1
10
-1.70000000000005
20
12.6016598943421
30
0
41
1
10
-1.70000000000005
20
12.4912006491746
30
0
41
1
10
-1.70000000000005
20
12.3763763558488
30
0
41
1
10
-1.70000000000002
20
12.2819406900945
30
0
41
1
10
-1.70000000000002
20
12.209824815618
30
0
41
1
10
-1.70000000000005
20
12.1364316894724
30
0
41
1
10
-1.7000000000001
20
12.0617686582406
30
0
41
1
10
-1.70000000000005
20
11.9858436758677
30
0
41
1
10
-1.70000000000007
20
11.9215236068653
30
0
41
1
10
-1.70000000000007
20
11.8694488081268
30
0
41
1
10
-1.70000000000005
20
11.8169591426362
30
0
41
1
10
-1.70000000000005
20
11.7505641289662
30
0
41
1
10
-1.7000000000001
20
11.6696587742526
30
0
41
1
10
-1.70000000000005
20
11.5601529159528
30
0
41
1
10
-1.70000000000002
20
11.448182891669
30
0
41
1
10
-1.70000000000002
20
11.3338110499831
30
0
41
1
10
-1.70000000000005
20
11.2468221792499
30
0
41
1
10
-1.70000000000002
20
11.1586337603462
30
0
41
1
10
-1.70000000000007
20
11.0692509372408
30
0
41
1
10
-1.70000000000007
20
10.9786794422307
30
0
41
1
10
-1.69999999999999
20
10.8869237783616
30
0
41
1
10
-1.70000000000005
20
10.7939888359847
30
0
41
1
10
-1.70000000000007
20
10.6998796425436
30
0
41
1
10
-1.70000000000002
20
10.6046008465563
30
0
41
1
10
-1.70000000000007
20
10.4760157679139
30
0
41
1
10
-1.70000000000007
20
10.3450861470912
30
0
41
1
10
-1.70000000000002
20
10.2118742799613
30
0
41
1
10
-1.70000000000007
20
10.1276505623382
30
0
41
1
10
-1.70000000000002
20
10.0597065749413
30
0
41
1
10
-1.70000000000007
20
9.9913814320609
30
0
41
1
10
-1.70000000000005
20
9.87081043657869
30
0
41
1
10
-1.70000000000005
20
9.73071862052217
30
0
41
1
10
-1.70000000000002
20
9.58839008121353
30
0
41
1
10
-1.70000000000007
20
9.44455854729449
30
0
41
1
10
-1.70000000000005
20
9.26193698423123
30
0
41
1
10
-1.70000000000002
20
9.07558727703642
30
0
41
1
10
-1.70000000000002
20
8.92429760284432
30
0
41
1
10
-1.70000000000005
20
8.77152766795058
30
0
41
1
10
-1.70000000000007
20
8.61651162008161
30
0
41
1
10
-1.70000000000005
20
8.45931945344486
30
0
41
1
10
-1.70000000000002
20
8.34031606829598
30
0
41
1
10
-1.70000000000002
20
8.22021379775831
30
0
41
1
10
-1.70000000000007
20
8.09901464495701
30
0
41
1
10
-1.7000000000001
20
7.9767200242907
30
0
41
1
10
-1.70000000000005
20
7.81221411547432
30
0
41
1
10
-1.70000000000007
20
7.60382755625838
30
0
41
1
10
-1.70000000000005
20
7.39181445781463
30
0
41
1
10
-1.70000000000005
20
7.22005470774221
30
0
41
1
10
-1.70000000000007
20
7.09014226669851
30
0
41
1
10
-1.70000000000002
20
6.95914717066265
30
0
41
1
10
-1.70000000000007
20
6.7830583657493
30
0
41
1
10
-1.70000000000007
20
6.56021848903171
30
0
41
1
10
-1.70000000000005
20
6.28851700104781
30
0
41
1
10
-1.7000000000001
20
6.01251447744062
30
0
41
1
10
-1.70000000000005
20
5.77892152059965
30
0
41
1
10
-1.70000000000005
20
5.58993216915877
30
0
41
1
10
-1.70000000000002
20
5.44710899667646
30
0
41
1
10
-1.70000000000005
20
5.30321729486519
30
0
41
1
10
-1.70000000000002
20
5.15825857839869
30
0
41
1
10
-1.7000000000001
20
5.01223405348068
30
0
41
1
10
-1.7000000000001
20
4.86514556778678
30
0
41
1
10
-1.70000000000005
20
4.71699468615466
30
0
41
1
10
-1.70000000000005
20
4.56778337246482
30
0
41
1
10
-1.70000000000005
20
4.41751381174834
30
0
41
1
10
-1.69999999999999
20
4.26618872973953
30
0
41
1
10
-1.70000000000007
20
4.11381092681603
30
0
41
1
10
-1.70000000000005
20
3.96038358832212
30
0
41
1
10
-1.70000000000005
20
3.80591077742719
30
0
41
1
10
-1.7000000000001
20
3.65039714326571
30
0
41
1
10
-1.69999999999999
20
3.49384789900151
30
0
41
1
10
-1.70000000000005
20
3.33626943234702
30
0
41
1
10
-1.70000000000002
20
3.17766893265431
30
0
41
1
10
-1.70000000000005
20
3.01805527431179
30
0
41
1
10
-1.70000000000005
20
2.85743846779499
30
0
41
1
10
-1.70000000000005
20
2.71257747642741
30
0
41
1
10
-1.70000000000002
20
2.62111404232408
30
0
41
1
10
-1.70000000000002
20
2.58372509632827
30
0
0
SPLINE
5
16D
100
AcDbEntity
8
SK1
62
256
6
ByLayer
370
13
48
1
60
0
100
AcDbSpline
70
4
71
3
72
116
73
112
40
0
40
0
40
0
40
0
40
0.0055294637527373
40
0.0135534219998535
40
0.0215773802469697
40
0.0296013384940859
40
0.0376252967412021
40
0.0456492549883184
40
0.0536732132354346
40
0.0616971714825508
40
0.069721129729667
40
0.0777450879767832
40
0.0857690462238995
40
0.0937930044710157
40
0.101816962718132
40
0.109840920965248
40
0.117864879212364
40
0.125888837459481
40
0.133912795706597
40
0.141936753953713
40
0.149960712200829
40
0.157984670447945
40
0.166008628695062
40
0.182056545189294
40
0.198104461683526
40
0.214152378177759
40
0.230200294671991
40
0.238224252919108
40
0.246248211166224
40
0.25427216941334
40
0.262296127660456
40
0.278344044154689
40
0.294391960648921
40
0.302415918896037
40
0.310439877143154
40
0.31846383539027
40
0.326487793637386
40
0.334511751884502
40
0.342535710131618
40
0.358583626625851
40
0.366607584872967
40
0.374631543120083
40
0.390679459614316
40
0.406727376108548
40
0.414751334355664
40
0.422775292602781
40
0.438823209097013
40
0.446847167344129
40
0.450859146467687
40
0.454871125591245
40
0.462895083838362
40
0.470919042085478
40
0.48696695857971
40
0.494990916826827
40
0.503014875073943
40
0.511038833321059
40
0.519062791568175
40
0.527086749815291
40
0.535110708062408
40
0.543134666309524
40
0.55115862455664
40
0.559182582803756
40
0.567206541050872
40
0.583254457545105
40
0.591278415792221
40
0.599302374039337
40
0.607326332286454
40
0.611338311410012
40
0.61535029053357
40
0.623374248780686
40
0.631398207027802
40
0.639422165274919
40
0.647446123522035
40
0.655470081769151
40
0.663494040016267
40
0.6795419565105
40
0.695589873004732
40
0.703613831251848
40
0.711637789498964
40
0.727685705993197
40
0.735709664240313
40
0.743733622487429
40
0.751757580734545
40
0.759781538981662
40
0.767805497228778
40
0.775829455475894
40
0.78385341372301
40
0.791877371970127
40
0.807925288464359
40
0.815949246711475
40
0.823973204958591
40
0.831997163205708
40
0.840021121452824
40
0.84804507969994
40
0.856069037947056
40
0.872116954441289
40
0.880140912688405
40
0.888164870935521
40
0.896188829182637
40
0.904212787429754
40
0.920260703923986
40
0.928284662171102
40
0.936308620418219
40
0.944332578665335
40
0.952356536912451
40
0.960380495159567
40
0.968404453406683
40
0.9764284116538
40
0.984452369900916
40
0.992476328148032
40
1
40
1
40
1
40
1
41
1
10
-1.70000000000007
20
-2.5837250319525
30
0
41
1
10
-1.70000000000005
20
-2.62111400924695
30
0
41
1
10
-1.70000000000002
20
-2.71257747842986
30
0
41
1
10
-1.70000000000007
20
-2.85743848960826
30
0
41
1
10
-1.70000000000007
20
-3.01805529196176
30
0
41
1
10
-1.70000000000005
20
-3.17766896347749
30
0
41
1
10
-1.70000000000002
20
-3.33626946559079
30
0
41
1
10
-1.70000000000005
20
-3.49384788295134
30
0
41
1
10
-1.70000000000005
20
-3.65039703338331
30
0
41
1
10
-1.70000000000002
20
-3.80591068333544
30
0
41
1
10
-1.7000000000001
20
-3.9603838288908
30
0
41
1
10
-1.70000000000007
20
-4.11381118090259
30
0
41
1
10
-1.70000000000002
20
-4.26618881241484
30
0
41
1
10
-1.70000000000002
20
-4.41751369191317
30
0
41
1
10
-1.70000000000002
20
-4.56778315161375
30
0
41
1
10
-1.69999999999999
20
-4.7169946256985
30
0
41
1
10
-1.7000000000001
20
-4.86514572624662
30
0
41
1
10
-1.70000000000005
20
-5.01223421717731
30
0
41
1
10
-1.70000000000005
20
-5.15825863689906
30
0
41
1
10
-1.70000000000007
20
-5.30321731736851
30
0
41
1
10
-1.70000000000005
20
-5.44710902267548
30
0
41
1
10
-1.70000000000005
20
-5.58993219435266
30
0
41
1
10
-1.70000000000005
20
-5.77892152593588
30
0
41
1
10
-1.70000000000007
20
-6.01251450148575
30
0
41
1
10
-1.70000000000005
20
-6.28851702131561
30
0
41
1
10
-1.70000000000005
20
-6.56021849497904
30
0
41
1
10
-1.70000000000005
20
-6.78305839594088
30
0
41
1
10
-1.70000000000002
20
-6.95914718913937
30
0
41
1
10
-1.7000000000001
20
-7.0901422748378
30
0
41
1
10
-1.69999999999999
20
-7.22005471809891
30
0
41
1
10
-1.7000000000001
20
-7.391814483107
30
0
41
1
10
-1.70000000000002
20
-7.60382757721297
30
0
41
1
10
-1.70000000000005
20
-7.8122141211507
30
0
41
1
10
-1.70000000000007
20
-7.97672004102668
30
0
41
1
10
-1.7000000000001
20
-8.09901466976936
30
0
41
1
10
-1.70000000000002
20
-8.22021382021137
30
0
41
1
10
-1.70000000000005
20
-8.34031608257325
30
0
41
1
10
-1.70000000000005
20
-8.45931946186533
30
0
41
1
10
-1.7000000000001
20
-8.6165116342261
30
0
41
1
10
-1.70000000000007
20
-8.77152769372714
30
0
41
1
10
-1.7000000000001
20
-8.92429762219672
30
0
41
1
10
-1.7000000000001
20
-9.07558728630889
30
0
41
1
10
-1.70000000000002
20
-9.26193699842017
30
0
41
1
10
-1.7000000000001
20
-9.44455857133374
30
0
41
1
10
-1.70000000000005
20
-9.5883900992504
30
0
41
1
10
-1.70000000000002
20
-9.73071863089592
30
0
41
1
10
-1.70000000000005
20
-9.87081045044337
30
0
41
1
10
-1.70000000000005
20
-9.99138145148615
30
0
41
1
10
-1.70000000000005
20
-10.059706595653
30
0
41
1
10
-1.70000000000005
20
-10.127650582945
30
0
41
1
10
-1.70000000000002
20
-10.2118742978004
30
0
41
1
10
-1.70000000000007
20
-10.3450861597474
30
0
41
1
10
-1.70000000000005
20
-10.4760157822056
30
0
41
1
10
-1.70000000000005
20
-10.6046008653874
30
0
41
1
10
-1.70000000000002
20
-10.6998796625668
30
0
41
1
10
-1.70000000000005
20
-10.7939888545435
30
0
41
1
10
-1.70000000000005
20
-10.8869237943964
30
0
41
1
10
-1.70000000000007
20
-10.9786794570574
30
0
41
1
10
-1.70000000000005
20
-11.069250952524
30
0
41
1
10
-1.69999999999999
20
-11.1586337774266
30
0
41
1
10
-1.70000000000007
20
-11.2468221981049
30
0
41
1
10
-1.70000000000002
20
-11.3338110691597
30
0
41
1
10
-1.70000000000007
20
-11.4481829097131
30
0
41
1
10
-1.70000000000005
20
-11.5601529310588
30
0
41
1
10
-1.70000000000005
20
-11.6696587897978
30
0
41
1
10
-1.70000000000007
20
-11.7505641463283
30
0
41
1
10
-1.70000000000002
20
-11.8169591619061
30
0
41
1
10
-1.69999999999999
20
-11.8694488282331
30
0
41
1
10
-1.70000000000007
20
-11.921523627177
30
0
41
1
10
-1.7000000000001
20
-11.9858436943515
30
0
41
1
10
-1.70000000000002
20
-12.0617686735772
30
0
41
1
10
-1.70000000000002
20
-12.1364317035572
30
0
41
1
10
-1.70000000000007
20
-12.2098248313331
30
0
41
1
10
-1.70000000000007
20
-12.2819407102379
30
0
41
1
10
-1.70000000000002
20
-12.3763763795169
30
0
41
1
10
-1.70000000000005
20
-12.4912006631365
30
0
41
1
10
-1.70000000000002
20
-12.6016599065257
30
0
41
1
10
-1.70000000000007
20
-12.687362440577
30
0
41
1
10
-1.70000000000005
20
-12.7712834981639
30
0
41
1
10
-1.70000000000007
20
-12.8525264302737
30
0
41
1
10
-1.7000000000001
20
-12.9310230820619
30
0
41
1
10
-1.70000000000002
20
-12.9885221046098
30
0
41
1
10
-1.70000000000007
20
-13.0446338377524
30
0
41
1
10
-1.70000000000002
20
-13.0993474417035
30
0
41
1
10
-1.70000000000007
20
-13.1526505331688
30
0
41
1
10
-1.70000000000005
20
-13.2045321176789
30
0
41
1
10
-1.70000000000007
20
-13.2549799687684
30
0
41
1
10
-1.70000000000005
20
-13.3203101272292
30
0
41
1
10
-1.69999999999999
20
-13.3827344481881
30
0
41
1
10
-1.70000000000002
20
-13.4421723383994
30
0
41
1
10
-1.70000000000002
20
-13.4852529409442
30
0
41
1
10
-1.7000000000001
20
-13.5268172136993
30
0
41
1
10
-1.70000000000007
20
-13.5668499598694
30
0
41
1
10
-1.70000000000005
20
-13.6053356175566
30
0
41
1
10
-1.70000000000007
20
-13.6545611570253
30
0
41
1
10
-1.70000000000002
20
-13.7006353167884
30
0
41
1
10
-1.70000000000007
20
-13.7434661079967
30
0
41
1
10
-1.70000000000007
20
-13.7739560268625
30
0
41
1
10
-1.70000000000002
20
-13.8027899277569
30
0
41
1
10
-1.7000000000001
20
-13.8389980176944
30
0
41
1
10
-1.7000000000001
20
-13.8718187984145
30
0
41
1
10
-1.7000000000001
20
-13.9011479145568
30
0
41
1
10
-1.70000000000005
20
-13.9213794981548
30
0
41
1
10
-1.7000000000001
20
-13.9398197437578
30
0
41
1
10
-1.70000000000005
20
-13.9564420504847
30
0
41
1
10
-1.70000000000005
20
-13.9712195410175
30
0
41
1
10
-1.70000000000005
20
-13.9841238377961
30
0
41
1
10
-1.70000000000005
20
-13.9951249982352
30
0
41
1
10
-1.70000000000002
20
-14.0041924220526
30
0
41
1
10
-1.70000000000013
20
-14.0111456740766
30
0
41
1
10
-1.70000000000007
20
-14.014480367686
30
0
41
1
10
-1.70000000000007
20
-14.0157960319365
30
0
0
SPLINE
5
16E
100
AcDbEntity
8
SK1
62
256
6
ByLayer
370
13
48
1
60
0
100
AcDbSpline
70
4
71
3
72
18
73
14
40
0
40
0
40
0
40
0
40
0.0013329486808485
40
0.0950214414695105
40
0.188709934258173
40
0.282398427046834
40
0.376086919835496
40
0.469775412624159
40
0.563463905412821
40
0.657152398201483
40
0.750840890990145
40
0.938217876567469
40
1
40
1
40
1
40
1
41
1
10
-1.49503997793936
20
13.8251837283996
30
0
41
1
10
-1.49503997793931
20
13.8251847284996
30
0
41
1
10
-1.49503997793934
20
13.8252108744561
30
0
41
1
10
-1.49503997793937
20
13.8245539604948
30
0
41
1
10
-1.49503997793931
20
13.8215305966481
30
0
41
1
10
-1.49503997793931
20
13.8164982902869
30
0
41
1
10
-1.49503997793937
20
13.8094909095343
30
0
41
1
10
-1.49503997793934
20
13.8005402090708
30
0
41
1
10
-1.4950399779394
20
13.789678183099
30
0
41
1
10
-1.49503997793928
20
13.7769347476405
30
0
41
1
10
-1.49503997793934
20
13.7574597557179
30
0
41
1
10
-1.49503997793934
20
13.7363273260809
30
0
41
1
10
-1.49503997793937
20
13.7188742875592
30
0
41
1
10
-1.49503997793937
20
13.7144191582646
30
0
0
SPLINE
5
16F
100
AcDbEntity
8
SK1
62
256
6
ByLayer
370
13
48
1
60
0
100
AcDbSpline
70
4
71
3
72
107
73
103
40
0
40
0
40
0
40
0
40
0.0116006157700613
40
0.0289071231894616
40
0.0375603768991618
40
0.046213630608862
40
0.0548668843185622
40
0.0635201380282624
40
0.0808266454476627
40
0.0894798991573629
40
0.0981331528670631
40
0.106786406576763
40
0.115439660286464
40
0.124092913996164
40
0.132746167705864
40
0.150052675125264
40
0.158705928834964
40
0.167359182544665
40
0.176012436254365
40
0.184665689964065
40
0.193318943673765
40
0.201972197383465
40
0.210625451093165
40
0.219278704802866
40
0.236585212222266
40
0.245238465931966
40
0.253891719641666
40
0.271198227061067
40
0.288504734480467
40
0.297157988190167
40
0.305811241899868
40
0.314464495609568
40
0.323117749319268
40
0.331771003028968
40
0.340424256738668
40
0.344750883593518
40
0.349077510448368
40
0.357730764158068
40
0.366384017867769
40
0.375037271577469
40
0.392343778996869
40
0.40099703270657
40
0.40965028641627
40
0.41830354012597
40
0.42695679383567
40
0.43561004754537
40
0.44426330125507
40
0.452916554964771
40
0.461569808674471
40
0.470223062384171
40
0.478876316093871
40
0.496182823513272
40
0.504836077222972
40
0.513489330932672
40
0.517815957787522
40
0.522142584642372
40
0.530795838352072
40
0.548102345771473
40
0.556755599481173
40
0.565408853190873
40
0.582715360610273
40
0.600021868029674
40
0.608675121739374
40
0.617328375449074
40
0.634634882868474
40
0.643288136578175
40
0.651941390287875
40
0.660594643997575
40
0.669247897707275
40
0.677901151416975
40
0.686554405126676
40
0.703860912546076
40
0.721167419965476
40
0.729820673675176
40
0.738473927384877
40
0.747127181094577
40
0.755780434804277
40
0.773086942223677
40
0.790393449643078
40
0.807699957062478
40
0.825006464481878
40
0.833659718191579
40
0.842312971901279
40
0.850966225610979
40
0.859619479320679
40
0.86827273303038
40
0.876925986740079
40
0.88557924044978
40
0.89423249415948
40
0.90288574786918
40
0.91153900157888
40
0.92019225528858
40
0.928845508998281
40
0.937498762707981
40
0.946152016417681
40
0.954805270127381
40
0.963458523837081
40
0.972111777546781
40
0.980765031256482
40
0.989418284966182
40
0.998071538675882
40
1
40
1
40
1
40
1
41
1
10
-1.49503997793937
20
13.7144201582644
30
0
41
1
10
-1.49503997793937
20
13.7053631767692
30
0
41
1
10
-1.49503997793937
20
13.6814821015193
30
0
41
1
10
-1.49503997793934
20
13.6462985077496
30
0
41
1
10
-1.49503997793931
20
13.6104729008558
30
0
41
1
10
-1.49503997793937
20
13.5819600687286
30
0
41
1
10
-1.49503997793934
20
13.5518061457236
30
0
41
1
10
-1.49503997793931
20
13.509413016618
30
0
41
1
10
-1.49503997793931
20
13.4638962341071
30
0
41
1
10
-1.49503997793937
20
13.4151607370273
30
0
41
1
10
-1.49503997793937
20
13.3770798968994
30
0
41
1
10
-1.49503997793934
20
13.3374647662751
30
0
41
1
10
-1.49503997793931
20
13.2963307178616
30
0
41
1
10
-1.49503997793931
20
13.2536925499096
30
0
41
1
10
-1.49503997793934
20
13.1948224098965
30
0
41
1
10
-1.49503997793937
20
13.1331066142243
30
0
41
1
10
-1.49503997793931
20
13.0683888145289
30
0
41
1
10
-1.49503997793931
20
13.0184419638583
30
0
41
1
10
-1.49503997793931
20
12.9670724273821
30
0
41
1
10
-1.49503997793934
20
12.9142925944038
30
0
41
1
10
-1.49503997793934
20
12.860113205584
30
0
41
1
10
-1.49503997793937
20
12.8045464062654
30
0
41
1
10
-1.4950399779394
20
12.74760324418
30
0
41
1
10
-1.49503997793937
20
12.6698142834541
30
0
41
1
10
-1.49503997793937
20
12.5894449005115
30
0
41
1
10
-1.49503997793934
20
12.50627175547
30
0
41
1
10
-1.49503997793931
20
12.4213295833849
30
0
41
1
10
-1.49503997793931
20
12.3119621458456
30
0
41
1
10
-1.4950399779394
20
12.1982668977617
30
0
41
1
10
-1.49503997793931
20
12.1046570208051
30
0
41
1
10
-1.49503997793928
20
12.0332119345842
30
0
41
1
10
-1.4950399779394
20
11.9605000871413
30
0
41
1
10
-1.49503997793934
20
11.8865286504803
30
0
41
1
10
-1.49503997793931
20
11.8113057028001
30
0
41
1
10
-1.49503997793931
20
11.7476093345099
30
0
41
1
10
-1.49503997793931
20
11.6959849101866
30
0
41
1
10
-1.49503997793931
20
11.643948764099
30
0
41
1
10
-1.49503997793934
20
11.5781957241672
30
0
41
1
10
-1.4950399779394
20
11.4980348993556
30
0
41
1
10
-1.49503997793937
20
11.3894728900619
30
0
41
1
10
-1.49503997793928
20
11.278660103453
30
0
41
1
10
-1.49503997793934
20
11.1652732784126
30
0
41
1
10
-1.49503997793934
20
11.0790834423826
30
0
41
1
10
-1.4950399779394
20
10.9917054044732
30
0
41
1
10
-1.49503997793934
20
10.9031442025602
30
0
41
1
10
-1.4950399779394
20
10.8134057967923
30
0
41
1
10
-1.49503997793931
20
10.7224950378189
30
0
41
1
10
-1.49503997793937
20
10.6304166849825
30
0
41
1
10
-1.49503997793928
20
10.5371758780398
30
0
41
1
10
-1.49503997793931
20
10.4427777751693
30
0
41
1
10
-1.49503997793934
20
10.3153089364435
30
0
41
1
10
-1.49503997793937
20
10.1857467684219
30
0
41
1
10
-1.4950399779394
20
10.0536983054632
30
0
41
1
10
-1.49503997793931
20
9.97030026745779
30
0
41
1
10
-1.4950399779394
20
9.90295235506755
30
0
41
1
10
-1.4950399779394
20
9.83522786489038
30
0
41
1
10
-1.49503997793931
20
9.71574944153571
30
0
41
1
10
-1.49503997793937
20
9.57714511427093
30
0
41
1
10
-1.49503997793934
20
9.43608246295526
30
0
41
1
10
-1.49503997793934
20
9.29353602958125
30
0
41
1
10
-1.49503997793931
20
9.11275363063513
30
0
41
1
10
-1.49503997793934
20
8.92829537712967
30
0
41
1
10
-1.49503997793934
20
8.77838738443313
30
0
41
1
10
-1.49503997793934
20
8.62702158956
30
0
41
1
10
-1.49503997793931
20
8.47372854841302
30
0
41
1
10
-1.4950399779394
20
8.31800483202284
30
0
41
1
10
-1.49503997793928
20
8.2001957064717
30
0
41
1
10
-1.49503997793937
20
8.08130642958625
30
0
41
1
10
-1.49503997793934
20
7.96134016006346
30
0
41
1
10
-1.49503997793937
20
7.84029852533041
30
0
41
1
10
-1.49503997793934
20
7.67738589461936
30
0
41
1
10
-1.49503997793931
20
7.47128766686797
30
0
41
1
10
-1.49503997793937
20
7.26163681175797
30
0
41
1
10
-1.4950399779394
20
7.09160986883526
30
0
41
1
10
-1.49503997793928
20
6.96311018452545
30
0
41
1
10
-1.49503997793934
20
6.83355373772449
30
0
41
1
10
-1.49503997793937
20
6.6592985841524
30
0
41
1
10
-1.49503997793937
20
6.43910149333701
30
0
41
1
10
-1.49503997793937
20
6.17053536578155
30
0
41
1
10
-1.49503997793928
20
5.89779783511918
30
0
41
1
10
-1.49503997793934
20
5.66717892097086
30
0
41
1
10
-1.49503997793934
20
5.48038541909949
30
0
41
1
10
-1.49503997793931
20
5.33936157753735
30
0
41
1
10
-1.4950399779394
20
5.19731095553269
30
0
41
1
10
-1.4950399779394
20
5.05423706888553
30
0
41
1
10
-1.49503997793934
20
4.91014315579861
30
0
41
1
10
-1.49503997793937
20
4.7650332428635
30
0
41
1
10
-1.49503997793937
20
4.61891156596767
30
0
41
1
10
-1.49503997793934
20
4.47178260268984
30
0
41
1
10
-1.49503997793931
20
4.32365113214263
30
0
41
1
10
-1.4950399779394
20
4.17452288947305
30
0
41
1
10
-1.49503997793937
20
4.02440432752809
30
0
41
1
10
-1.49503997793937
20
3.87330192992579
30
0
41
1
10
-1.4950399779394
20
3.7212231412766
30
0
41
1
10
-1.49503997793934
20
3.56817690176538
30
0
41
1
10
-1.49503997793934
20
3.41417271020586
30
0
41
1
10
-1.49503997793937
20
3.25922165821993
30
0
41
1
10
-1.4950399779394
20
3.1033357799555
30
0
41
1
10
-1.49503997793934
20
2.94652918151195
30
0
41
1
10
-1.49503997793937
20
2.78881794429316
30
0
41
1
10
-1.4950399779394
20
2.67130381064959
30
0
41
1
10
-1.49503997793937
20
2.60647323876154
30
0
41
1
10
-1.49503997793937
20
2.5946511583831
30
0
0
SPLINE
5
170
100
AcDbEntity
8
SK1
62
256
6
ByLayer
370
13
48
1
60
0
100
AcDbSpline
70
4
71
3
72
108
73
104
40
0
40
0
40
0
40
0
40
0.0019284636591124
40
0.0105817179184172
40
0.019234972177722
40
0.0278882264370268
40
0.0365414806963316
40
0.0451947349556365
40
0.0538479892149413
40
0.0625012434742461
40
0.0711544977335509
40
0.0798077519928557
40
0.0884610062521605
40
0.0971142605114654
40
0.10576751477077
40
0.114420769030075
40
0.12307402328938
40
0.131727277548685
40
0.140380531807989
40
0.149033786067294
40
0.157687040326599
40
0.166340294585904
40
0.174993548845209
40
0.192300057363818
40
0.209606565882428
40
0.226913074401038
40
0.244219582919647
40
0.252872837178952
40
0.261526091438257
40
0.270179345697562
40
0.278832599956866
40
0.296139108475476
40
0.313445616994086
40
0.32209887125339
40
0.330752125512695
40
0.339405379772
40
0.348058634031305
40
0.35671188829061
40
0.365365142549915
40
0.382671651068524
40
0.391324905327829
40
0.399978159587134
40
0.417284668105743
40
0.434591176624353
40
0.443244430883658
40
0.451897685142963
40
0.469204193661572
40
0.477857447920877
40
0.48218407505053
40
0.486510702180182
40
0.495163956439487
40
0.503817210698792
40
0.521123719217401
40
0.529776973476706
40
0.538430227736011
40
0.547083481995316
40
0.555736736254621
40
0.564389990513925
40
0.57304324477323
40
0.581696499032535
40
0.59034975329184
40
0.599003007551145
40
0.607656261810449
40
0.624962770329059
40
0.633616024588364
40
0.642269278847669
40
0.650922533106974
40
0.655249160236626
40
0.659575787366278
40
0.668229041625583
40
0.676882295884888
40
0.685535550144193
40
0.694188804403498
40
0.702842058662802
40
0.711495312922107
40
0.728801821440717
40
0.746108329959327
40
0.754761584218631
40
0.763414838477936
40
0.780721346996546
40
0.78937460125585
40
0.798027855515155
40
0.80668110977446
40
0.815334364033765
40
0.82398761829307
40
0.832640872552375
40
0.841294126811679
40
0.849947381070984
40
0.867253889589594
40
0.875907143848899
40
0.884560398108204
40
0.893213652367508
40
0.901866906626813
40
0.910520160886118
40
0.919173415145423
40
0.936479923664032
40
0.945133177923337
40
0.953786432182642
40
0.962439686441947
40
0.971092940701252
40
0.988399449219861
40
0.997052703479166
40
1
40
1
40
1
40
1
41
1
10
-1.49503997793931
20
-2.59465115086959
30
0
41
1
10
-1.49503997793931
20
-2.606473243442
30
0
41
1
10
-1.49503997793931
20
-2.67130382016649
30
0
41
1
10
-1.49503997793931
20
-2.78881794693004
30
0
41
1
10
-1.49503997793937
20
-2.94652921585711
30
0
41
1
10
-1.49503997793937
20
-3.10333581737226
30
0
41
1
10
-1.49503997793937
20
-3.25922160409144
30
0
41
1
10
-1.4950399779394
20
-3.4141725129254
30
0
41
1
10
-1.49503997793934
20
-3.56817684914566
30
0
41
1
10
-1.49503997793934
20
-3.72122348266291
30
0
41
1
10
-1.49503997793931
20
-3.87330241838259
30
0
41
1
10
-1.49503997793931
20
-4.02440435063471
30
0
41
1
10
-1.49503997793934
20
-4.17452257114442
30
0
41
1
10
-1.4950399779394
20
-4.32365075555245
30
0
41
1
10
-1.49503997793934
20
-4.47178250674139
30
0
41
1
10
-1.49503997793931
20
-4.61891187892093
30
0
41
1
10
-1.49503997793937
20
-4.7650335666859
30
0
41
1
10
-1.49503997793937
20
-4.91014320448997
30
0
41
1
10
-1.49503997793937
20
-5.05423700692032
30
0
41
1
10
-1.49503997793937
20
-5.19731095699922
30
0
41
1
10
-1.4950399779394
20
-5.33936160781604
30
0
41
1
10
-1.49503997793934
20
-5.48038543010182
30
0
41
1
10
-1.4950399779394
20
-5.66717892451575
30
0
41
1
10
-1.49503997793937
20
-5.89779786635279
30
0
41
1
10
-1.49503997793931
20
-6.17053537924181
30
0
41
1
10
-1.49503997793934
20
-6.43910150489376
30
0
41
1
10
-1.49503997793934
20
-6.65929861735816
30
0
41
1
10
-1.49503997793934
20
-6.83355374310955
30
0
41
1
10
-1.49503997793931
20
-6.96311018885424
30
0
41
1
10
-1.49503997793931
20
-7.09160988853208
30
0
41
1
10
-1.49503997793937
20
-7.26163684175143
30
0
41
1
10
-1.4950399779394
20
-7.47128768043942
30
0
41
1
10
-1.49503997793934
20
-7.67738590051292
30
0
41
1
10
-1.4950399779394
20
-7.84029855153605
30
0
41
1
10
-1.4950399779394
20
-7.96134018717208
30
0
41
1
10
-1.49503997793931
20
-8.08130644558901
30
0
41
1
10
-1.49503997793937
20
-8.2001957134178
30
0
41
1
10
-1.49503997793934
20
-8.31800484031692
30
0
41
1
10
-1.49503997793931
20
-8.47372856948019
30
0
41
1
10
-1.49503997793937
20
-8.62702161678092
30
0
41
1
10
-1.49503997793931
20
-8.7783873974316
30
0
41
1
10
-1.49503997793934
20
-8.92829538452327
30
0
41
1
10
-1.49503997793934
20
-9.11275364912456
30
0
41
1
10
-1.49503997793934
20
-9.2935360539519
30
0
41
1
10
-1.49503997793937
20
-9.43608247629777
30
0
41
1
10
-1.49503997793931
20
-9.57714512355727
30
0
41
1
10
-1.49503997793937
20
-9.71574945872365
30
0
41
1
10
-1.49503997793937
20
-9.83522788697903
30
0
41
1
10
-1.49503997793937
20
-9.90295237623948
30
0
41
1
10
-1.49503997793934
20
-9.97030028641956
30
0
41
1
10
-1.49503997793931
20
-10.0536983203576
30
0
41
1
10
-1.4950399779394
20
-10.1857467801784
30
0
41
1
10
-1.4950399779394
20
-10.3153089526253
30
0
41
1
10
-1.49503997793931
20
-10.4427777956644
30
0
41
1
10
-1.4950399779394
20
-10.537175897834
30
0
41
1
10
-1.49503997793931
20
-10.6304167020331
30
0
41
1
10
-1.49503997793931
20
-10.7224950525573
30
0
41
1
10
-1.49503997793931
20
-10.8134058114345
30
0
41
1
10
-1.49503997793934
20
-10.9031442186804
30
0
41
1
10
-1.49503997793937
20
-10.9917054227684
30
0
41
1
10
-1.49503997793934
20
-11.0790834618892
30
0
41
1
10
-1.49503997793931
20
-11.165273297363
30
0
41
1
10
-1.49503997793934
20
-11.2786601205037
30
0
41
1
10
-1.49503997793931
20
-11.3894729046301
30
0
41
1
10
-1.4950399779394
20
-11.4980349156059
30
0
41
1
10
-1.49503997793934
20
-11.5781957427673
30
0
41
1
10
-1.4950399779394
20
-11.6439487843731
30
0
41
1
10
-1.49503997793931
20
-11.6959849306732
30
0
41
1
10
-1.49503997793931
20
-11.747609354201
30
0
41
1
10
-1.49503997793931
20
-11.8113057197552
30
0
41
1
10
-1.49503997793937
20
-11.886528664654
30
0
41
1
10
-1.4950399779394
20
-11.960500101414
30
0
41
1
10
-1.49503997793931
20
-12.0332119519516
30
0
41
1
10
-1.49503997793931
20
-12.1046570427268
30
0
41
1
10
-1.49503997793937
20
-12.1982669205399
30
0
41
1
10
-1.49503997793934
20
-12.3119621581916
30
0
41
1
10
-1.49503997793931
20
-12.4213295969169
30
0
41
1
10
-1.49503997793934
20
-12.5062717787185
30
0
41
1
10
-1.49503997793934
20
-12.5894449263383
30
0
41
1
10
-1.4950399779394
20
-12.6698142967672
30
0
41
1
10
-1.49503997793934
20
-12.7476032540011
30
0
41
1
10
-1.49503997793931
20
-12.8045464232669
30
0
41
1
10
-1.4950399779394
20
-12.8601132308426
30
0
41
1
10
-1.49503997793934
20
-12.9142926213842
30
0
41
1
10
-1.49503997793934
20
-12.9670724454163
30
0
41
1
10
-1.49503997793937
20
-13.0184419731185
30
0
41
1
10
-1.49503997793934
20
-13.0683888234861
30
0
41
1
10
-1.49503997793934
20
-13.1331066370171
30
0
41
1
10
-1.49503997793934
20
-13.1948224412614
30
0
41
1
10
-1.49503997793934
20
-13.2536925631392
30
0
41
1
10
-1.49503997793931
20
-13.296330722945
30
0
41
1
10
-1.49503997793931
20
-13.3374647797226
30
0
41
1
10
-1.49503997793937
20
-13.3770799229021
30
0
41
1
10
-1.49503997793931
20
-13.4151607649325
30
0
41
1
10
-1.49503997793931
20
-13.4638962511352
30
0
41
1
10
-1.49503997793934
20
-13.5094130161235
30
0
41
1
10
-1.49503997793934
20
-13.551806168738
30
0
41
1
10
-1.49503997793937
20
-13.5819601013665
30
0
41
1
10
-1.49503997793934
20
-13.6104729213426
30
0
41
1
10
-1.49503997793931
20
-13.646298505966
30
0
41
1
10
-1.49503997793931
20
-13.6786965897716
30
0
41
1
10
-1.49503997793934
20
-13.7029234499382
30
0
41
1
10
-1.49503997793937
20
-13.7121174427444
30
0
41
1
10
-1.49503997793937
20
-13.7144191509973
30
0
0
SPLINE
5
171
100
AcDbEntity
8
SK1
62
256
6
ByLayer
370
13
48
1
60
0
100
AcDbSpline
70
4
71
3
72
19
73
15
40
0
40
0
40
0
40
0
40
0.0617679198930844
40
0.155442136276727
40
0.249116352660368
40
0.342790569044011
40
0.436464785427651
40
0.530139001811293
40
0.623813218194935
40
0.717487434578577
40
0.811161650962219
40
0.904835867345861
40
0.998510083729502
40
1
40
1
40
1
40
1
41
1
10
-1.49503997793931
20
-13.7144193411785
30
0
41
1
10
-1.49503997793931
20
-13.7188753748165
30
0
41
1
10
-1.49503997793934
20
-13.7297669627839
30
0
41
1
10
-1.49503997793931
20
-13.7459180935577
30
0
41
1
10
-1.4950399779394
20
-13.762338911076
30
0
41
1
10
-1.49503997793934
20
-13.7769347594832
30
0
41
1
10
-1.4950399779394
20
-13.7896781016746
30
0
41
1
10
-1.4950399779394
20
-13.800539960484
30
0
41
1
10
-1.49503997793937
20
-13.8094907530557
30
0
41
1
10
-1.49503997793934
20
-13.8164987457743
30
0
41
1
10
-1.4950399779394
20
-13.821531562835
30
0
41
1
10
-1.4950399779394
20
-13.8245545856003
30
0
41
1
10
-1.49503997793934
20
-13.8252115738399
30
0
41
1
10
-1.49503997793934
20
-13.8251845819575
30
0
41
1
10
-1.49503997793938
20
-13.8251835818575
30
0
0
SPLINE
5
172
100
AcDbEntity
8
SK1
62
256
6
ByLayer
370
13
48
1
60
0
100
AcDbSpline
70
4
71
3
72
15
73
11
40
0
40
0
40
0
40
0
40
0.0175424347149146
40
0.144815029245577
40
0.272087623776241
40
0.399360218306903
40
0.526632812837566
40
0.653905407368229
40
0.908450596429556
40
1
40
1
40
1
40
1
41
1
10
-0.394976888875334
20
13.8446015176322
30
0
41
1
10
-0.394976888875334
20
13.8443369604552
30
0
41
1
10
-0.394976888875334
20
13.842101166137
30
0
41
1
10
-0.394976888875277
20
13.8370982474882
30
0
41
1
10
-0.394976888875306
20
13.8281310063336
30
0
41
1
10
-0.394976888875334
20
13.8172492272358
30
0
41
1
10
-0.394976888875391
20
13.8044829705052
30
0
41
1
10
-0.394976888875306
20
13.7849758313288
30
0
41
1
10
-0.394976888875334
20
13.763458719622
30
0
41
1
10
-0.394976888875334
20
13.7455337371654
30
0
41
1
10
-0.394976888875306
20
13.7406405176323
30
0
0
SPLINE
5
173
100
AcDbEntity
8
SK1
62
256
6
ByLayer
370
13
48
1
60
0
100
AcDbSpline
70
4
71
3
72
91
73
87
40
0
40
0
40
0
40
0
40
0.0128386360176209
40
0.0328883937116994
40
0.0429132725587387
40
0.0529381514057779
40
0.0629630302528172
40
0.0729879090998565
40
0.093037666793935
40
0.103062545640974
40
0.113087424488013
40
0.123112303335053
40
0.133137182182092
40
0.143162061029131
40
0.15318693987617
40
0.173236697570249
40
0.183261576417288
40
0.193286455264328
40
0.203311334111367
40
0.213336212958406
40
0.223361091805445
40
0.233385970652485
40
0.243410849499524
40
0.253435728346563
40
0.273485486040642
40
0.283510364887681
40
0.29353524373472
40
0.313585001428799
40
0.333634759122877
40
0.343659637969917
40
0.353684516816956
40
0.363709395663995
40
0.373734274511034
40
0.383759153358073
40
0.393784032205113
40
0.398796471628633
40
0.403808911052152
40
0.413833789899191
40
0.423858668746231
40
0.43388354759327
40
0.453933305287348
40
0.463958184134388
40
0.473983062981427
40
0.484007941828466
40
0.494032820675505
40
0.504057699522545
40
0.514082578369584
40
0.524107457216623
40
0.534132336063663
40
0.544157214910702
40
0.554182093757741
40
0.57423185145182
40
0.584256730298859
40
0.594281609145898
40
0.599294048569418
40
0.604306487992937
40
0.614331366839977
40
0.634381124534055
40
0.644406003381094
40
0.654430882228134
40
0.674480639922212
40
0.694530397616291
40
0.70455527646333
40
0.714580155310369
40
0.734629913004448
40
0.744654791851487
40
0.754679670698526
40
0.764704549545566
40
0.774729428392605
40
0.784754307239644
40
0.794779186086683
40
0.814828943780762
40
0.83487870147484
40
0.84490358032188
40
0.854928459168919
40
0.864953338015958
40
0.874978216862997
40
0.895027974557076
40
0.915077732251154
40
0.935127489945233
40
0.955177247639311
40
0.965202126486351
40
0.97522700533339
40
0.985251884180429
40
0.995276763027468
40
1
40
1
40
1
40
1
41
1
10
-0.394976888875306
20
13.7406404138905
30
0
41
1
10
-0.394976888875334
20
13.7319284909956
30
0
41
1
10
-0.394976888875277
20
13.7083797364971
30
0
41
1
10
-0.394976888875277
20
13.6736219510479
30
0
41
1
10
-0.394976888875306
20
13.6377421071264
30
0
41
1
10
-0.394976888875306
20
13.6091837483775
30
0
41
1
10
-0.394976888875306
20
13.5789821852606
30
0
41
1
10
-0.394976888875277
20
13.5365270016785
30
0
41
1
10
-0.394976888875334
20
13.4909311840823
30
0
41
1
10
-0.394976888875306
20
13.4421262012037
30
0
41
1
10
-0.394976888875362
20
13.4039879614121
30
0
41
1
10
-0.394976888875306
20
13.3643136176474
30
0
41
1
10
-0.394976888875362
20
13.3231185671574
30
0
41
1
10
-0.394976888875334
20
13.2804176635455
30
0
41
1
10
-0.394976888875362
20
13.2214670183475
30
0
41
1
10
-0.394976888875306
20
13.1596507604527
30
0
41
1
10
-0.394976888875277
20
13.094846134259
30
0
41
1
10
-0.394976888875306
20
13.0448282447276
30
0
41
1
10
-0.394976888875277
20
12.9933861020735
30
0
41
1
10
-0.394976888875362
20
12.9405320737836
30
0
41
1
10
-0.394976888875391
20
12.8862769376535
30
0
41
1
10
-0.394976888875306
20
12.8306328717281
30
0
41
1
10
-0.394976888875334
20
12.7736108931729
30
0
41
1
10
-0.394976888875334
20
12.6957215859151
30
0
41
1
10
-0.394976888875306
20
12.6152283382819
30
0
41
1
10
-0.394976888875362
20
12.5319491453114
30
0
41
1
10
-0.394976888875306
20
12.4468991604423
30
0
41
1
10
-0.394976888875362
20
12.3373769122162
30
0
41
1
10
-0.394976888875334
20
12.2235215734124
30
0
41
1
10
-0.394976888875391
20
12.1297946053789
30
0
41
1
10
-0.394976888875277
20
12.0582544060742
30
0
41
1
10
-0.394976888875362
20
11.9854459580753
30
0
41
1
10
-0.394976888875306
20
11.9113764581405
30
0
41
1
10
-0.394976888875306
20
11.8360539668501
30
0
41
1
10
-0.394976888875306
20
11.7722691621604
30
0
41
1
10
-0.394976888875334
20
11.7205808778945
30
0
41
1
10
-0.394976888875334
20
11.6684804259269
30
0
41
1
10
-0.394976888875306
20
11.6026363586083
30
0
41
1
10
-0.394976888875391
20
11.5223699646631
30
0
41
1
10
-0.394976888875306
20
11.4136741241806
30
0
41
1
10
-0.394976888875334
20
11.3026972493618
30
0
41
1
10
-0.394976888875362
20
11.1891707558493
30
0
41
1
10
-0.394976888875306
20
11.102867622286
30
0
41
1
10
-0.394976888875391
20
11.0153746780185
30
0
41
1
10
-0.394976888875334
20
10.9266969759659
30
0
41
1
10
-0.394976888875334
20
10.8368404439692
30
0
41
1
10
-0.394976888875334
20
10.7458098833899
30
0
41
1
10
-0.394976888875277
20
10.6536100721468
30
0
41
1
10
-0.394976888875362
20
10.5602461340712
30
0
41
1
10
-0.394976888875362
20
10.4657231550753
30
0
41
1
10
-0.394976888875362
20
10.3380960413352
30
0
41
1
10
-0.394976888875306
20
10.2083399780688
30
0
41
1
10
-0.394976888875306
20
10.0761265525343
30
0
41
1
10
-0.394976888875306
20
9.99261143893298
30
0
41
1
10
-0.394976888875391
20
9.92517900727512
30
0
41
1
10
-0.394976888875334
20
9.85736934874492
30
0
41
1
10
-0.394976888875362
20
9.73773600630287
30
0
41
1
10
-0.394976888875362
20
9.59892076352932
30
0
41
1
10
-0.394976888875334
20
9.45767861814849
30
0
41
1
10
-0.394976888875362
20
9.3149499665038
30
0
41
1
10
-0.394976888875362
20
9.13390678694702
30
0
41
1
10
-0.394976888875306
20
8.94918033853523
30
0
41
1
10
-0.394976888875334
20
8.79907643306458
30
0
41
1
10
-0.394976888875306
20
8.64751154095558
30
0
41
1
10
-0.394976888875334
20
8.49397418950429
30
0
41
1
10
-0.394976888875334
20
8.33804225713789
30
0
41
1
10
-0.394976888875362
20
8.22006379392718
30
0
41
1
10
-0.394976888875334
20
8.10100252302422
30
0
41
1
10
-0.394976888875277
20
7.98086143927398
30
0
41
1
10
-0.394976888875306
20
7.85964213989763
30
0
41
1
10
-0.394976888875391
20
7.69650359349293
30
0
41
1
10
-0.394976888875334
20
7.49008089634199
30
0
41
1
10
-0.394976888875362
20
7.28009509164627
30
0
41
1
10
-0.394976888875391
20
7.10982244878713
30
0
41
1
10
-0.394976888875362
20
6.98112244545175
30
0
41
1
10
-0.394976888875306
20
6.85136200824962
30
0
41
1
10
-0.394976888875334
20
6.67684685573991
30
0
41
1
10
-0.394976888875277
20
6.45627503636445
30
0
41
1
10
-0.394976888875334
20
6.18726433662553
30
0
41
1
10
-0.394976888875334
20
5.91406385279547
30
0
41
1
10
-0.394976888875306
20
5.68302324019061
30
0
41
1
10
-0.394976888875334
20
5.49591838220567
30
0
41
1
10
-0.394976888875391
20
5.35463940810163
30
0
41
1
10
-0.394976888875334
20
5.21232773385492
30
0
41
1
10
-0.394976888875362
20
5.09425517295406
30
0
41
1
10
-0.394976888875334
20
5.02359271293304
30
0
41
1
10
-0.394976888875334
20
5.0009244140283
30
0
0
SPLINE
5
174
100
AcDbEntity
8
SK1
62
256
6
ByLayer
370
13
48
1
60
0
100
AcDbSpline
70
4
71
3
72
92
73
88
40
0
40
0
40
0
40
0
40
0.0047231924165602
40
0.0147480732850136
40
0.0247729541534671
40
0.0347978350219205
40
0.0448227158903739
40
0.0648724776272808
40
0.0849222393641877
40
0.104972001101095
40
0.125021762838001
40
0.135046643706455
40
0.145071524574908
40
0.155096405443362
40
0.165121286311815
40
0.185171048048722
40
0.205220809785629
40
0.215245690654082
40
0.225270571522536
40
0.235295452390989
40
0.245320333259443
40
0.255345214127896
40
0.26537009499635
40
0.285419856733256
40
0.29544473760171
40
0.305469618470163
40
0.32551938020707
40
0.345569141943977
40
0.355594022812431
40
0.365618903680884
40
0.385668665417791
40
0.395693546286244
40
0.400705986720471
40
0.405718427154698
40
0.415743308023151
40
0.425768188891605
40
0.445817950628511
40
0.455842831496965
40
0.465867712365418
40
0.475892593233872
40
0.485917474102325
40
0.495942354970778
40
0.505967235839232
40
0.515992116707685
40
0.526016997576139
40
0.536041878444592
40
0.546066759313046
40
0.566116521049953
40
0.576141401918406
40
0.586166282786859
40
0.596191163655313
40
0.60120360408954
40
0.606216044523766
40
0.61624092539222
40
0.626265806260673
40
0.636290687129127
40
0.64631556799758
40
0.656340448866034
40
0.666365329734487
40
0.686415091471394
40
0.706464853208301
40
0.716489734076754
40
0.726514614945208
40
0.746564376682115
40
0.756589257550568
40
0.766614138419021
40
0.776639019287475
40
0.786663900155928
40
0.796688781024382
40
0.806713661892835
40
0.816738542761289
40
0.826763423629742
40
0.846813185366649
40
0.856838066235102
40
0.866862947103556
40
0.876887827972009
40
0.886912708840462
40
0.896937589708916
40
0.906962470577369
40
0.927012232314276
40
0.93703711318273
40
0.947061994051183
40
0.957086874919637
40
0.96711175578809
40
0.987161517524997
40
0.99718639839345
40
1
40
1
40
1
40
1
41
1
10
-0.394976888875334
20
-5.00092508225418
30
0
41
1
10
-0.394976888875334
20
-5.02359314607176
30
0
41
1
10
-0.394976888875334
20
-5.09425535366776
30
0
41
1
10
-0.394976888875306
20
-5.21232773830434
30
0
41
1
10
-0.394976888875362
20
-5.3546394377735
30
0
41
1
10
-0.394976888875277
20
-5.49591839522026
30
0
41
1
10
-0.394976888875334
20
-5.68302324398948
30
0
41
1
10
-0.394976888875362
20
-5.91406388300982
30
0
41
1
10
-0.394976888875362
20
-6.18726435105108
30
0
41
1
10
-0.394976888875362
20
-6.45627504712581
30
0
41
1
10
-0.394976888875391
20
-6.67684688851833
30
0
41
1
10
-0.394976888875277
20
-6.85136201549102
30
0
41
1
10
-0.394976888875306
20
-6.98112245032084
30
0
41
1
10
-0.394976888875306
20
-7.10982246715957
30
0
41
1
10
-0.394976888875306
20
-7.28009512097313
30
0
41
1
10
-0.394976888875306
20
-7.49008091096033
30
0
41
1
10
-0.394976888875306
20
-7.69650359935571
30
0
41
1
10
-0.394976888875306
20
-7.85964216476057
30
0
41
1
10
-0.394976888875334
20
-7.98086146605704
30
0
41
1
10
-0.394976888875306
20
-8.10100253994159
30
0
41
1
10
-0.394976888875391
20
-8.2200638019128
30
0
41
1
10
-0.394976888875306
20
-8.3380422654499
30
0
41
1
10
-0.394976888875306
20
-8.49397420958988
30
0
41
1
10
-0.394976888875362
20
-8.64751156797169
30
0
41
1
10
-0.394976888875334
20
-8.79907644696402
30
0
41
1
10
-0.394976888875362
20
-8.94918034619522
30
0
41
1
10
-0.394976888875334
20
-9.13390680482667
30
0
41
1
10
-0.394976888875334
20
-9.31494999082747
30
0
41
1
10
-0.394976888875277
20
-9.45767863215664
30
0
41
1
10
-0.394976888875334
20
-9.59892077296985
30
0
41
1
10
-0.394976888875306
20
-9.73773602301958
30
0
41
1
10
-0.394976888875306
20
-9.85736937045593
30
0
41
1
10
-0.394976888875391
20
-9.92517902838179
30
0
41
1
10
-0.394976888875306
20
-9.99261145812801
30
0
41
1
10
-0.394976888875362
20
-10.0761265678462
30
0
41
1
10
-0.394976888875306
20
-10.208339989953
30
0
41
1
10
-0.394976888875306
20
-10.338096057249
30
0
41
1
10
-0.394976888875362
20
-10.4657231753345
30
0
41
1
10
-0.394976888875334
20
-10.5602461538978
30
0
41
1
10
-0.394976888875306
20
-10.6536100894112
30
0
41
1
10
-0.394976888875334
20
-10.7458098983122
30
0
41
1
10
-0.394976888875306
20
-10.8368404586376
30
0
41
1
10
-0.394976888875391
20
-10.9266969919675
30
0
41
1
10
-0.394976888875362
20
-11.0153746961414
30
0
41
1
10
-0.394976888875391
20
-11.1028676417001
30
0
41
1
10
-0.394976888875334
20
-11.1891707748317
30
0
41
1
10
-0.394976888875362
20
-11.3026972665534
30
0
41
1
10
-0.394976888875334
20
-11.413674138825
30
0
41
1
10
-0.394976888875362
20
-11.5223699808134
30
0
41
1
10
-0.394976888875362
20
-11.6026363770329
30
0
41
1
10
-0.394976888875391
20
-11.6684804460587
30
0
41
1
10
-0.394976888875391
20
-11.7205808983271
30
0
41
1
10
-0.394976888875306
20
-11.7722691819395
30
0
41
1
10
-0.394976888875306
20
-11.836053984022
30
0
41
1
10
-0.394976888875334
20
-11.9113764724791
30
0
41
1
10
-0.394976888875334
20
-11.9854459723214
30
0
41
1
10
-0.394976888875277
20
-12.0582544232073
30
0
41
1
10
-0.394976888875362
20
-12.1297946270485
30
0
41
1
10
-0.394976888875334
20
-12.2235215963167
30
0
41
1
10
-0.394976888875334
20
-12.3373769247913
30
0
41
1
10
-0.394976888875334
20
-12.446899173783
30
0
41
1
10
-0.394976888875362
20
-12.5319491682166
30
0
41
1
10
-0.394976888875391
20
-12.6152283642396
30
0
41
1
10
-0.394976888875306
20
-12.6957215996061
30
0
41
1
10
-0.394976888875306
20
-12.773610902979
30
0
41
1
10
-0.394976888875334
20
-12.8306328883531
30
0
41
1
10
-0.394976888875334
20
-12.8862769625636
30
0
41
1
10
-0.394976888875334
20
-12.940532100831
30
0
41
1
10
-0.394976888875306
20
-12.9933861205259
30
0
41
1
10
-0.394976888875334
20
-13.0448282543028
30
0
41
1
10
-0.394976888875334
20
-13.0948461430692
30
0
41
1
10
-0.394976888875334
20
-13.1596507828292
30
0
41
1
10
-0.394976888875391
20
-13.2214670497891
30
0
41
1
10
-0.394976888875362
20
-13.2804176772461
30
0
41
1
10
-0.394976888875391
20
-13.3231185723383
30
0
41
1
10
-0.394976888875391
20
-13.3643136307331
30
0
41
1
10
-0.394976888875306
20
-13.4039879870964
30
0
41
1
10
-0.394976888875362
20
-13.4421262291561
30
0
41
1
10
-0.394976888875334
20
-13.490931201485
30
0
41
1
10
-0.394976888875334
20
-13.5365270011546
30
0
41
1
10
-0.394976888875306
20
-13.5789822078612
30
0
41
1
10
-0.394976888875391
20
-13.6091837809887
30
0
41
1
10
-0.394976888875306
20
-13.6377421279937
30
0
41
1
10
-0.394976888875362
20
-13.6736219491958
30
0
41
1
10
-0.394976888875362
20
-13.706079968468
30
0
41
1
10
-0.394976888875334
20
-13.7299093719826
30
0
41
1
10
-0.394976888875306
20
-13.7387293533246
30
0
41
1
10
-0.394976888875306
20
-13.7406390823215
30
0
0
SPLINE
5
175
100
AcDbEntity
8
SK1
62
256
6
ByLayer
370
13
48
1
60
0
100
AcDbSpline
70
4
71
3
72
16
73
12
40
0
40
0
40
0
40
0
40
0.0915471846932778
40
0.218820400250665
40
0.346093615808054
40
0.473366831365443
40
0.600640046922828
40
0.727913262480217
40
0.855186478037604
40
0.982459693594993
40
1
40
1
40
1
40
1
41
1
10
-0.394976888875334
20
-13.7406399315408
30
0
41
1
10
-0.394976888875334
20
-13.7455342787084
30
0
41
1
10
-0.394976888875306
20
-13.756868697323
30
0
41
1
10
-0.394976888875391
20
-13.7734119916164
30
0
41
1
10
-0.394976888875362
20
-13.7898613788954
30
0
41
1
10
-0.394976888875306
20
-13.8044829828858
30
0
41
1
10
-0.394976888875334
20
-13.8172491473121
30
0
41
1
10
-0.394976888875362
20
-13.8281307581185
30
0
41
1
10
-0.394976888875362
20
-13.8370980881852
30
0
41
1
10
-0.394976888875391
20
-13.8421014019358
30
0
41
1
10
-0.394976888875362
20
-13.8443373794894
30
0
41
1
10
-0.394976888875362
20
-13.8446019297682
30
0
0
SPLINE
5
176
100
AcDbEntity
8
1
62
256
6
ByLayer
370
13
48
1
60
0
100
AcDbSpline
70
4
71
3
72
8
73
4
40
0
40
0
40
0
40
0
40
1
40
1
40
1
40
1
41
1
10
77.6247796437169
20
4.86417547268945
30
0
41
1
10
77.1724136331426
20
4.88525703233989
30
0
41
1
10
76.7186652824143
20
4.90187846511273
30
0
41
1
10
76.2635425577994
20
4.91386853973518
30
0
0
SPLINE
5
177
100
AcDbEntity
8
1
62
256
6
ByLayer
370
13
48
1
60
0
100
AcDbSpline
70
2053
71
3
72
91
73
87
40
0
40
0
40
0
40
0
40
0.0312499999999989
40
0.0312499999999989
40
0.0468749999999984
40
0.0468749999999984
40
0.0624999999999979
40
0.0624999999999979
40
0.0937499999999983
40
0.0937499999999983
40
0.109374999999999
40
0.109374999999999
40
0.124999999999999
40
0.124999999999999
40
0.156249999999997
40
0.156249999999997
40
0.187499999999995
40
0.187499999999995
40
0.218749999999994
40
0.218749999999994
40
0.234374999999994
40
0.234374999999994
40
0.249999999999993
40
0.265624999999993
40
0.265624999999993
40
0.281249999999993
40
0.281249999999993
40
0.312499999999992
40
0.312499999999992
40
0.343749999999991
40
0.343749999999991
40
0.374999999999991
40
0.374999999999991
40
0.40624999999999
40
0.40624999999999
40
0.421874999999989
40
0.421874999999989
40
0.437499999999989
40
0.437499999999989
40
0.468749999999988
40
0.468749999999988
40
0.499999999999987
40
0.499999999999987
40
0.531249999999986
40
0.531249999999986
40
0.546874999999986
40
0.546874999999986
40
0.562499999999987
40
0.562499999999987
40
0.593749999999987
40
0.593749999999987
40
0.609374999999988
40
0.609374999999988
40
0.624999999999988
40
0.624999999999988
40
0.656249999999989
40
0.656249999999989
40
0.68749999999999
40
0.68749999999999
40
0.70312499999999
40
0.70312499999999
40
0.71874999999999
40
0.71874999999999
40
0.749999999999992
40
0.749999999999992
40
0.765624999999992
40
0.765624999999992
40
0.781249999999993
40
0.781249999999993
40
0.812499999999995
40
0.812499999999995
40
0.843749999999996
40
0.843749999999996
40
0.859374999999997
40
0.859374999999997
40
0.874999999999997
40
0.874999999999997
40
0.906249999999998
40
0.906249999999998
40
0.921874999999998
40
0.921874999999998
40
0.937499999999998
40
0.937499999999998
40
0.968749999999999
40
0.968749999999999
40
1
40
1
40
1
40
1
41
1
10
60.9153406898525
20
12.6449407363602
30
0
41
1
10
61.066951286968
20
12.6541282705783
30
0
41
1
10
61.2172424777684
20
12.6522226750023
30
0
41
1
10
61.4408182526193
20
12.6337049974924
30
0
41
1
10
61.5150310477521
20
12.6249015952259
30
0
41
1
10
61.662824921258
20
12.601953936095
30
0
41
1
10
61.7367800293203
20
12.5877153993248
30
0
41
1
10
61.954422070069
20
12.537415689305
30
0
41
1
10
62.09378318375
20
12.4940283676771
30
0
41
1
10
62.2943945750734
20
12.4141663434586
30
0
41
1
10
62.3598500580286
20
12.3850640084794
30
0
41
1
10
62.487834131033
20
12.321663658226
30
0
41
1
10
62.5504158548874
20
12.2872880880989
30
0
41
1
10
62.729687469804
20
12.1783293273682
30
0
41
1
10
62.8393853300379
20
12.0973403776727
30
0
41
1
10
63.0386686542645
20
11.917704777382
30
0
41
1
10
63.128907820812
20
11.817816580811
30
0
41
1
10
63.2799866762068
20
11.6072073247559
30
0
41
1
10
63.3418459932549
20
11.4959560735647
30
0
41
1
10
63.4130773132941
20
11.3194090853033
30
0
41
1
10
63.4332828833552
20
11.2585339059257
30
0
41
1
10
63.4653106712512
20
11.1360101675219
30
0
41
1
10
63.4891684553513
20
11.012496202123
30
0
41
1
10
63.4969619235672
20
10.8869967417592
30
0
41
1
10
63.4966248308107
20
10.7604859920725
30
0
41
1
10
63.4923557136719
20
10.6964691025861
30
0
41
1
10
63.4670749735608
20
10.5045683541241
30
0
41
1
10
63.4341958777695
20
10.3794080880887
30
0
41
1
10
63.3380528592819
20
10.1345405007564
30
0
41
1
10
63.2739053444827
20
10.0139968621992
30
0
41
1
10
63.1209428059246
20
9.78867727658292
30
0
41
1
10
63.0318787377931
20
9.68267082087289
30
0
41
1
10
62.8289906710221
20
9.48417397781509
30
0
41
1
10
62.7175245521113
20
9.39411010166313
30
0
41
1
10
62.5379317354402
20
9.27352559638362
30
0
41
1
10
62.4758990452384
20
9.23568442256524
30
0
41
1
10
62.3474730862808
20
9.16478539687478
30
0
41
1
10
62.2808523837807
20
9.13165516241355
30
0
41
1
10
62.0782080042624
20
9.04136948816944
30
0
41
1
10
61.9383816109013
20
8.99256955115729
30
0
41
1
10
61.6494422395204
20
8.91761154177308
30
0
41
1
10
61.4990084194432
20
8.89149969449551
30
0
41
1
10
61.1996721624649
20
8.86470519008486
30
0
41
1
10
61.0497739628934
20
8.86356009014926
30
0
41
1
10
60.8245732853765
20
8.88066607107928
30
0
41
1
10
60.7490593476082
20
8.88959397709209
30
0
41
1
10
60.5999179595637
20
8.91374397851138
30
0
41
1
10
60.5265230462587
20
8.92888865047024
30
0
41
1
10
60.3098029042263
20
8.98333267742228
30
0
41
1
10
60.1699101668444
20
9.03156372011475
30
0
41
1
10
59.9672700194466
20
9.12241568466874
30
0
41
1
10
59.9007953220556
20
9.15592698286338
30
0
41
1
10
59.773328179294
20
9.22769581231046
30
0
41
1
10
59.7119493313346
20
9.26610547107947
30
0
41
1
10
59.5347942575526
20
9.38874066286832
30
0
41
1
10
59.425684015811
20
9.48055290539887
30
0
41
1
10
59.228110395981
20
9.68349613492461
30
0
41
1
10
59.1425828939332
20
9.7915063565242
30
0
41
1
10
59.0335420113423
20
9.96266920909324
30
0
41
1
10
59.0004271569244
20
10.0212603834349
30
0
41
1
10
58.9408488352103
20
10.1415549373716
30
0
41
1
10
58.9144556167609
20
10.2032433818023
30
0
41
1
10
58.8471315142169
20
10.3886263660494
30
0
41
1
10
58.8171828803395
20
10.514037005277
30
0
41
1
10
58.7946971938119
20
10.7047328659976
30
0
41
1
10
58.7909878597899
20
10.7691084680554
30
0
41
1
10
58.7914000261293
20
10.8964053169311
30
0
41
1
10
58.795459518256
20
10.9593783963508
30
0
41
1
10
58.8189129728441
20
11.1463329367366
30
0
41
1
10
58.8495472901178
20
11.2685796130037
30
0
41
1
10
58.9416391545076
20
11.5069750045489
30
0
41
1
10
59.0016184683556
20
11.6194489723622
30
0
41
1
10
59.1116811040122
20
11.7787844372213
30
0
41
1
10
59.1517437069759
20
11.830322186667
30
0
41
1
10
59.2387942820073
20
11.9302357200056
30
0
41
1
10
59.2856707133258
20
11.9784137480246
30
0
41
1
10
59.4335273936145
20
12.115148851367
30
0
41
1
10
59.5425722380479
20
12.1970567065318
30
0
41
1
10
59.7217647311494
20
12.3065720713997
30
0
41
1
10
59.7844525741513
20
12.3409783401068
30
0
41
1
10
59.9126943033693
20
12.4040200842686
30
0
41
1
10
59.9784094383689
20
12.4327932750923
30
0
41
1
10
60.1801935198021
20
12.5112144958723
30
0
41
1
10
60.3211345056675
20
12.553095873959
30
0
41
1
10
60.6144296163782
20
12.615674501224
30
0
41
1
10
60.763730092737
20
12.6357532021421
30
0
41
1
10
60.9153406898525
20
12.6449407363602
30
0
0
SPLINE
5
178
100
AcDbEntity
8
1
62
256
6
ByLayer
370
13
48
1
60
0
100
AcDbSpline
70
2053
71
3
72
92
73
88
40
0
40
0
40
0
40
0
40
0.0312500000000029
40
0.0312500000000029
40
0.0468750000000042
40
0.0468750000000042
40
0.0625000000000056
40
0.0625000000000056
40
0.0937500000000071
40
0.0937500000000071
40
0.125000000000009
40
0.125000000000009
40
0.15625000000001
40
0.15625000000001
40
0.171875000000011
40
0.171875000000011
40
0.187500000000011
40
0.203125000000012
40
0.203125000000012
40
0.218750000000013
40
0.218750000000013
40
0.250000000000013
40
0.250000000000013
40
0.281250000000014
40
0.281250000000014
40
0.312500000000015
40
0.312500000000015
40
0.328125000000015
40
0.328125000000015
40
0.343750000000015
40
0.359375000000015
40
0.359375000000015
40
0.375000000000015
40
0.375000000000015
40
0.406250000000017
40
0.406250000000017
40
0.437500000000018
40
0.437500000000018
40
0.468750000000019
40
0.468750000000019
40
0.48437500000002
40
0.48437500000002
40
0.500000000000021
40
0.500000000000021
40
0.531250000000022
40
0.531250000000022
40
0.562500000000023
40
0.562500000000023
40
0.578125000000024
40
0.578125000000024
40
0.593750000000025
40
0.593750000000025
40
0.625000000000024
40
0.625000000000024
40
0.640625000000024
40
0.640625000000024
40
0.656250000000024
40
0.656250000000024
40
0.687500000000023
40
0.687500000000023
40
0.718750000000021
40
0.718750000000021
40
0.750000000000019
40
0.750000000000019
40
0.765625000000018
40
0.765625000000018
40
0.781250000000017
40
0.796875000000016
40
0.796875000000016
40
0.812500000000015
40
0.812500000000015
40
0.843750000000013
40
0.843750000000013
40
0.859375000000012
40
0.859375000000012
40
0.87500000000001
40
0.890625000000009
40
0.890625000000009
40
0.906250000000008
40
0.906250000000008
40
0.937500000000005
40
0.937500000000005
40
0.953125000000004
40
0.953125000000004
40
0.968750000000003
40
0.968750000000003
40
1
40
1
40
1
40
1
41
1
10
60.9153406898526
20
-12.6449407363602
30
0
41
1
10
60.763724282861
20
-12.6357528500662
30
0
41
1
10
60.6155831547095
20
-12.6157551826983
30
0
41
1
10
60.3984918738721
20
-12.5696812669543
30
0
41
1
10
60.3269872093109
20
-12.5516244195441
30
0
41
1
10
60.1857513188785
20
-12.509894215442
30
0
41
1
10
60.1157268234866
20
-12.4860820346426
30
0
41
1
10
59.9126934734661
20
-12.4074057601728
30
0
41
1
10
59.7854851312397
20
-12.3451323320437
30
0
41
1
10
59.5473878195682
20
-12.2003690021399
30
0
41
1
10
59.4356967585374
20
-12.1168603898335
30
0
41
1
10
59.2387389203683
20
-11.935300054156
30
0
41
1
10
59.1522779664888
20
-11.836807593383
30
0
41
1
10
59.0410059883427
20
-11.6768204985561
30
0
41
1
10
59.0069344660039
20
-11.6212154654188
30
0
41
1
10
58.9465902776663
20
-11.5082872202225
30
0
41
1
10
58.8936105503373
20
-11.3931102362096
30
0
41
1
10
58.8550879409034
20
-11.273424481581
30
0
41
1
10
58.8238810650927
20
-11.1514209507305
30
0
41
1
10
58.8118994357798
20
-11.0889428783724
30
0
41
1
10
58.7876781054435
20
-10.9001688250255
30
0
41
1
10
58.7870407195132
20
-10.773926216943
30
0
41
1
10
58.815922038936
20
-10.5206707449931
30
0
41
1
10
58.8461090795667
20
-10.3923814530002
30
0
41
1
10
58.9350534659681
20
-10.1456153236463
30
0
41
1
10
58.993610094833
20
-10.0262181346695
30
0
41
1
10
59.10285594149
20
-9.85346261130971
30
0
41
1
10
59.1429993231975
20
-9.79684579960093
30
0
41
1
10
59.2287165247645
20
-9.68834964575927
30
0
41
1
10
59.3202349885209
20
-9.58393083462008
30
0
41
1
10
59.4231255199828
20
-9.48761946164774
30
0
41
1
10
59.5317513251723
20
-9.39545699313371
30
0
41
1
10
59.5892680892406
20
-9.3512274337784
30
0
41
1
10
59.7679687205181
20
-9.22695325634766
30
0
41
1
10
59.8947491084961
20
-9.15536541265041
30
0
41
1
10
60.1630100224347
20
-9.03424058849623
30
0
41
1
10
60.3058687635425
20
-8.98454256170001
30
0
41
1
10
60.5955351210246
20
-8.91133541973838
30
0
41
1
10
60.7432421976276
20
-8.88717951902939
30
0
41
1
10
60.9690681211197
20
-8.8695321844848
30
0
41
1
10
61.045334207519
20
-8.86679402808647
30
0
41
1
10
61.1963935578684
20
-8.86766270481215
30
0
41
1
10
61.2714954233863
20
-8.87122306554056
30
0
41
1
10
61.4955525947371
20
-8.89101835693239
30
0
41
1
10
61.6432711342764
20
-8.91628723314301
30
0
41
1
10
61.9353077778217
20
-8.9915041173725
30
0
41
1
10
62.0755777243717
20
-9.04043700030249
30
0
41
1
10
62.2768536440642
20
-9.12975855398378
30
0
41
1
10
62.3424601983628
20
-9.16221720190018
30
0
41
1
10
62.4706294208422
20
-9.23259141693444
30
0
41
1
10
62.5335088120285
20
-9.27072688208585
30
0
41
1
10
62.7147634489785
20
-9.39193016977231
30
0
41
1
10
62.8254085287478
20
-9.48125219466272
30
0
41
1
10
62.9760199133295
20
-9.62774925476597
30
0
41
1
10
63.0236462205908
20
-9.67868230119163
30
0
41
1
10
63.113493656184
20
-9.78489940658167
30
0
41
1
10
63.1557916972267
20
-9.84037233508263
30
0
41
1
10
63.2712922206932
20
-10.0094674452247
30
0
41
1
10
63.3343155000994
20
-10.1268987587105
30
0
41
1
10
63.4316160542543
20
-10.3710793500541
30
0
41
1
10
63.4657268640581
20
-10.4990159707176
30
0
41
1
10
63.5002443590501
20
-10.7519225840802
30
0
41
1
10
63.5014587941851
20
-10.8782227300757
30
0
41
1
10
63.4784247273364
20
-11.067430556834
30
0
41
1
10
63.4665822814774
20
-11.1300076537472
30
0
41
1
10
63.4352156728785
20
-11.2521673759836
30
0
41
1
10
63.3960980342656
20
-11.3719715935481
30
0
41
1
10
63.341811775409
20
-11.487228957174
30
0
41
1
10
63.2798827379974
20
-11.6002388539881
30
0
41
1
10
63.2451119891774
20
-11.6554845032831
30
0
41
1
10
63.1318519449817
20
-11.8143533871619
30
0
41
1
10
63.0438478408217
20
-11.9124425037703
30
0
41
1
10
62.8937402374276
20
-12.0486206770156
30
0
41
1
10
62.8404915728025
20
-12.0922618707911
30
0
41
1
10
62.7300819076581
20
-12.1742578240085
30
0
41
1
10
62.6153149211565
20
-12.2514248029322
30
0
41
1
10
62.4921140545152
20
-12.3193795273902
30
0
41
1
10
62.3647102976506
20
-12.3828089672894
30
0
41
1
10
62.298620348389
20
-12.412372015542
30
0
41
1
10
62.0959719618409
20
-12.4933725855139
30
0
41
1
10
61.9563874351576
20
-12.536797497244
30
0
41
1
10
61.7405217193068
20
-12.5869299738831
30
0
41
1
10
61.6674770500293
20
-12.6011200413782
30
0
41
1
10
61.5191540732149
20
-12.6243665794544
30
0
41
1
10
61.4437596174086
20
-12.6334067931946
30
0
41
1
10
61.2180678091573
20
-12.6522610901596
30
0
41
1
10
61.0669570968441
20
-12.6541286226542
30
0
41
1
10
60.9153406898526
20
-12.6449407363602
30
0
0
SPLINE
5
179
100
AcDbEntity
8
1
62
256
6
ByLayer
370
13
48
1
60
0
100
AcDbSpline
70
4
71
3
72
8
73
4
40
0
40
0
40
0
40
0
40
1
40
1
40
1
40
1
41
1
10
70.9999999999999
20
-8.01110674268887
30
0
41
1
10
70.9999999999999
20
-8.57523462686561
30
0
41
1
10
70.9999999999999
20
-9.1394251626744
30
0
41
1
10
70.9999999999999
20
-9.70355249025008
30
0
0
SPLINE
5
17A
100
AcDbEntity
8
1
62
256
6
ByLayer
370
13
48
1
60
0
100
AcDbSpline
70
4
71
3
72
8
73
4
40
0
40
0
40
0
40
0
40
1
40
1
40
1
40
1
41
1
10
70.9999999999999
20
-8.00472298732998
30
0
41
1
10
70.9999999999999
20
-8.00685090106902
30
0
41
1
10
70.9999999999999
20
-8.00897882275416
30
0
41
1
10
70.9999999999999
20
-8.01110674268887
30
0
0
SPLINE
5
17B
100
AcDbEntity
8
1
62
256
6
ByLayer
370
13
48
1
60
0
100
AcDbSpline
70
4
71
3
72
8
73
4
40
0
40
0
40
0
40
0
40
1
40
1
40
1
40
1
41
1
10
70.9999999999999
20
-2.80786234579708
30
0
41
1
10
70.9999999999999
20
-2.85757407385162
30
0
41
1
10
70.9999999999999
20
-2.90725102295929
30
0
41
1
10
70.9999999999999
20
-2.95690211775778
30
0
0
SPLINE
5
17C
100
AcDbEntity
8
1
62
256
6
ByLayer
370
13
48
1
60
0
100
AcDbSpline
70
4
71
3
72
8
73
4
40
0
40
0
40
0
40
0
40
1
40
1
40
1
40
1
41
1
10
84.8926433972314
20
-2.42281934229621
30
0
41
1
10
85.0411601492995
20
-2.36308192410124
30
0
41
1
10
85.1855804810773
20
-2.30556168225468
30
0
41
1
10
85.32346176271
20
-2.2515806835265
30
0
0
SPLINE
5
17D
100
AcDbEntity
8
1
62
256
6
ByLayer
370
13
48
1
60
0
100
AcDbSpline
70
4
71
3
72
8
73
4
40
0
40
0
40
0
40
0
40
1
40
1
40
1
40
1
41
1
10
83.1778485819079
20
-0.155506912585309
30
0
41
1
10
83.3680537855391
20
-0.161038547029051
30
0
41
1
10
83.5583275612162
20
-0.166492989809484
30
0
41
1
10
83.7487399828379
20
-0.171790601017079
30
0
0
SPLINE
5
17E
100
AcDbEntity
8
1
62
256
6
ByLayer
370
13
48
1
60
0
100
AcDbSpline
70
4
71
3
72
8
73
4
40
0
40
0
40
0
40
0
40
1
40
1
40
1
40
1
41
1
10
84.269380751577
20
-1.30055162393404
30
0
41
1
10
84.1422560720357
20
-1.43246327634546
30
0
41
1
10
84.0153309312843
20
-1.56435011425705
30
0
41
1
10
83.8885042297488
20
-1.69622451320922
30
0
0
SPLINE
5
17F
100
AcDbEntity
8
1
62
256
6
ByLayer
370
13
48
1
60
0
100
AcDbSpline
70
4
71
3
72
8
73
4
40
0
40
0
40
0
40
0
40
1
40
1
40
1
40
1
41
1
10
87.1059207679619
20
1.69634468886392
30
0
41
1
10
87.0281328458015
20
1.56447028991175
30
0
41
1
10
86.9502233748608
20
1.43258345200016
30
0
41
1
10
86.8720672496144
20
1.30067179958874
30
0
0
SPLINE
5
180
100
AcDbEntity
8
1
62
256
6
ByLayer
370
13
48
1
60
0
100
AcDbSpline
70
4
71
3
72
8
73
4
40
0
40
0
40
0
40
0
40
1
40
1
40
1
40
1
41
1
10
87.3927080183535
20
0.17191077667178
30
0
41
1
10
87.5341518856803
20
0.166613165464185
30
0
41
1
10
87.6754099915466
20
0.161158722683751
30
0
41
1
10
87.8165764158029
20
0.155627088240038
30
0
0
SPLINE
5
181
100
AcDbEntity
8
1
62
256
6
ByLayer
370
13
48
1
60
0
100
AcDbSpline
70
4
71
3
72
20
73
16
40
0
40
0
40
0
40
0
40
0.25
40
0.25
40
0.499999999999999
40
0.499999999999999
40
0.624999999999999
40
0.624999999999999
40
0.749999999999999
40
0.749999999999999
40
0.812499999999999
40
0.812499999999999
40
0.874999999999998
40
0.874999999999998
40
1
40
1
40
1
40
1
41
1
10
85.4640711471777
20
-2.16804964639971
30
0
41
1
10
85.359817341698
20
-2.18674821794073
30
0
41
1
10
85.2567839107184
20
-2.19744442692379
30
0
41
1
10
85.0547389798161
20
-2.20422635357551
30
0
41
1
10
84.9556299558053
20
-2.2002723844864
30
0
41
1
10
84.8127513336359
20
-2.18439515463044
30
0
41
1
10
84.7662595597856
20
-2.17744356548943
30
0
41
1
10
84.6782522190753
20
-2.16104846863269
30
0
41
1
10
84.6363369651876
20
-2.15150895771109
30
0
41
1
10
84.5805297022874
20
-2.13666048080603
30
0
41
1
10
84.5630652692678
20
-2.13161924233097
30
0
41
1
10
84.5312695507285
20
-2.12171766280164
30
0
41
1
10
84.5169426750981
20
-2.11685038342907
30
0
41
1
10
84.4822761744392
20
-2.10392734350364
30
0
41
1
10
84.4702015511046
20
-2.09751790872016
30
0
41
1
10
84.4786052970908
20
-2.09751790872016
30
0
0
SPLINE
5
182
100
AcDbEntity
8
1
62
256
6
ByLayer
370
13
48
1
60
0
100
AcDbSpline
70
4
71
3
72
16
73
12
40
0
40
0
40
0
40
0
40
0.249999999999999
40
0.249999999999999
40
0.499999999999999
40
0.499999999999999
40
0.749999999999998
40
0.749999999999998
40
0.874999999999999
40
0.874999999999999
40
1
40
1
40
1
40
1
41
1
10
85.3234617627092
20
-2.2515806835265
30
0
41
1
10
85.3825123972771
20
-2.23531538281205
30
0
41
1
10
85.4398882872891
20
-2.21749599742913
30
0
41
1
10
85.5505563027314
20
-2.17989377270501
30
0
41
1
10
85.6038363464059
20
-2.16007689636999
30
0
41
1
10
85.7021179477868
20
-2.12160022905556
30
0
41
1
10
85.7480128907768
20
-2.10256887080698
30
0
41
1
10
85.8059700701034
20
-2.0788997016993
30
0
41
1
10
85.8234680292069
20
-2.0718390801201
30
0
41
1
10
85.8539821019031
20
-2.06019264400436
30
0
41
1
10
85.8668701152181
20
-2.055673835459
30
0
41
1
10
85.8765644153332
20
-2.05295897485112
30
0
0
SPLINE
5
183
100
AcDbEntity
8
1
62
256
6
ByLayer
370
13
48
1
60
0
100
AcDbSpline
70
4
71
3
72
18
73
14
40
0
40
0
40
0
40
0
40
0.0861761665735223
40
0.0861761665735223
40
0.268940933258812
40
0.268940933258812
40
0.634470466629415
40
0.634470466629415
40
0.725852849972062
40
0.725852849972062
40
0.817235233314708
40
0.817235233314708
40
1
40
1
40
1
40
1
41
1
10
84.0676364900845
20
-1.97509894824648
30
0
41
1
10
84.0906794760656
20
-1.98338605309456
30
0
41
1
10
84.1136157924145
20
-1.99122058660808
30
0
41
1
10
84.1847368160846
20
-2.01428004595698
30
0
41
1
10
84.232342091799
20
-2.02790491817126
30
0
41
1
10
84.3690706853614
20
-2.06255492651837
30
0
41
1
10
84.4544554593443
20
-2.07751038922262
30
0
41
1
10
84.5331006506167
20
-2.08830485907382
30
0
41
1
10
84.5473976719318
20
-2.09009147080786
30
0
41
1
10
84.5722242333472
20
-2.09303489842213
30
0
41
1
10
84.582694231386
20
-2.09418515816566
30
0
41
1
10
84.6058270512851
20
-2.0967960104569
30
0
41
1
10
84.6104114466109
20
-2.09751790872062
30
0
41
1
10
84.600535705457
20
-2.09751790872062
30
0
0
SPLINE
5
184
100
AcDbEntity
8
1
62
256
6
ByLayer
370
13
48
1
60
0
100
AcDbSpline
70
4
71
3
72
8
73
4
40
0
40
0
40
0
40
0
40
1
40
1
40
1
40
1
41
1
10
85.8765644153332
20
-2.05295897485107
30
0
41
1
10
85.7413598799706
20
-2.10486698867055
30
0
41
1
10
85.6035889881041
20
-2.14302624972072
30
0
41
1
10
85.4640711471773
20
-2.16804964639977
30
0
0
SPLINE
5
185
100
AcDbEntity
8
1
62
256
6
ByLayer
370
13
48
1
60
0
100
AcDbSpline
70
4
71
3
72
20
73
16
40
0
40
0
40
0
40
0
40
0.170102827121705
40
0.170102827121705
40
0.308206138734711
40
0.308206138734711
40
0.446309450347718
40
0.446309450347718
40
0.722516073573762
40
0.722516073573762
40
0.860619385186784
40
0.860619385186784
40
0.998722696799806
40
0.998722696799806
40
1
40
1
40
1
40
1
41
1
10
85.8579539845403
20
2.08243485307159
30
0
41
1
10
85.7932559391741
20
2.11501058169031
30
0
41
1
10
85.7270745229926
20
2.14501341006752
30
0
41
1
10
85.6045189699616
20
2.19430097062474
30
0
41
1
10
85.5486367848169
20
2.21454984775025
30
0
41
1
10
85.4349094898543
20
2.25116356136149
30
0
41
1
10
85.37689218189
20
2.26755616642293
30
0
41
1
10
85.2025801374128
20
2.30995261285739
30
0
41
1
10
85.0852756384426
20
2.32950282675742
30
0
41
1
10
84.907634800914
20
2.34566482070636
30
0
41
1
10
84.848139713821
20
2.3488506683054
30
0
41
1
10
84.7285685249704
20
2.35070257298469
30
0
41
1
10
84.668420390031
20
2.34934275113045
30
0
41
1
10
84.6084187164715
20
2.34569581215706
30
0
41
1
10
84.6078688910692
20
2.34566220016705
30
0
41
1
10
84.6073191038803
20
2.34562839725146
30
0
0
SPLINE
5
18D
100
AcDbEntity
8
SK4
62
256
6
ByLayer
370
13
48
0.05
60
0
100
AcDbSpline
70
4
71
1
72
5
73
3
40
0
40
0
40
0.631591678597298
40
1
40
1
41
1
10
110.020288826056
20
0
30
0
41
1
10
0.299999999999983
20
0
30
0
41
1
10
-63.7
20
0
30
0
0
LINE
5
7F
100
AcDbEntity
8
1
62
256
6
ByLayer
370
18
48
1
60
1
100
AcDbLine
10
0
20
0
30
0
11
0
21
297
31
0
39
0
210
0
220
0
230
1
0
LINE
5
80
100
AcDbEntity
8
1
62
256
6
ByLayer
370
18
48
1
60
1
100
AcDbLine
10
420
20
297
30
0
11
0
21
297
31
0
39
0
210
0
220
0
230
1
0
LINE
5
81
100
AcDbEntity
8
1
62
256
6
ByLayer
370
18
48
1
60
1
100
AcDbLine
10
420
20
297
30
0
11
420
21
0
31
0
39
0
210
0
220
0
230
1
0
LINE
5
82
100
AcDbEntity
8
1
62
256
6
ByLayer
370
18
48
1
60
1
100
AcDbLine
10
0
20
0
30
0
11
420
21
0
31
0
39
0
210
0
220
0
230
1
0
LINE
5
83
100
AcDbEntity
8
1
62
256
6
ByLayer
370
13
48
1
60
0
100
AcDbLine
10
0.3
20
20
30
0
11
0
21
19.7
31
0
39
0
210
0
220
0
230
1
0
LINE
5
84
100
AcDbEntity
8
1
62
256
6
ByLayer
370
13
48
1
60
0
100
AcDbLine
10
0
20
-19.7
30
0
11
0.3
21
-20
31
0
39
0
210
0
220
0
230
1
0
LINE
5
85
100
AcDbEntity
8
1
62
256
6
ByLayer
370
13
48
1
60
0
100
AcDbLine
10
0.3
20
-20
30
0
11
20.020289
21
-20
31
0
39
0
210
0
220
0
230
1
0
LINE
5
86
100
AcDbEntity
8
1
62
256
6
ByLayer
370
13
48
1
60
0
100
AcDbLine
10
20.020289
20
20
30
0
11
0.3
21
20
31
0
39
0
210
0
220
0
230
1
0
LINE
5
87
100
AcDbEntity
8
1
62
256
6
ByLayer
370
13
48
1
60
0
100
AcDbLine
10
74.125481
20
-9.409545
30
0
11
74.205837
21
-9.409545
31
0
39
0
210
0
220
0
230
1
0
LINE
5
88
100
AcDbEntity
8
1
62
256
6
ByLayer
370
13
48
1
60
0
100
AcDbLine
10
74.205837
20
-1.409545
30
0
11
74.125481
21
-1.409545
31
0
39
0
210
0
220
0
230
1
0
LINE
5
89
100
AcDbEntity
8
1
62
256
6
ByLayer
370
13
48
1
60
0
100
AcDbLine
10
85.727131
20
2.101593
30
0
11
85.080229
21
2.101593
31
0
39
0
210
0
220
0
230
1
0
LINE
5
8A
100
AcDbEntity
8
1
62
256
6
ByLayer
370
13
48
1
60
0
100
AcDbLine
10
84.620393
20
-2.101472
30
0
11
85.267294
21
-2.101472
31
0
39
0
210
0
220
0
230
1
0
LINE
5
8B
100
AcDbEntity
8
1
62
256
6
ByLayer
370
13
48
1
60
0
100
AcDbLine
10
84.75195
20
2.35006
30
0
11
84.616345
21
2.35006
31
0
39
0
210
0
220
0
230
1
0
LINE
5
8C
100
AcDbEntity
8
1
62
256
6
ByLayer
370
13
48
1
60
0
100
AcDbLine
10
85.070263
20
-2.202021
30
0
11
85.088167
21
-2.202021
31
0
39
0
210
0
220
0
230
1
0
LINE
5
8D
100
AcDbEntity
8
1
62
256
6
ByLayer
370
13
48
1
60
0
100
AcDbLine
10
85.664762
20
8.046979
30
0
11
84.964565
21
8.046979
31
0
39
0
210
0
220
0
230
1
0
LINE
5
8E
100
AcDbEntity
8
1
62
256
6
ByLayer
370
13
48
1
60
0
100
AcDbLine
10
84.964678
20
-8.046859
30
0
11
85.664875
21
-8.046859
31
0
39
0
210
0
220
0
230
1
0
LINE
5
8F
100
AcDbEntity
8
1
62
256
6
ByLayer
370
13
48
1
60
0
100
AcDbLine
10
57.244634
20
0.574385
30
0
11
58.184327
21
1.151789
31
0
39
0
210
0
220
0
230
1
0
LINE
5
90
100
AcDbEntity
8
1
62
256
6
ByLayer
370
13
48
1
60
0
100
AcDbLine
10
59.124019
20
-0.580208
30
0
11
58.184327
21
-1.157612
31
0
39
0
210
0
220
0
230
1
0
LINE
5
91
100
AcDbEntity
8
1
62
256
6
ByLayer
370
13
48
1
60
0
100
AcDbLine
10
57.928023
20
0.99429
30
0
11
58.610989
21
0.574712
31
0
39
0
210
0
220
0
230
1
0
LINE
5
92
100
AcDbEntity
8
1
62
256
6
ByLayer
370
13
48
1
60
0
100
AcDbLine
10
58.610989
20
-0.579988
30
0
11
57.927612
21
-0.999896
31
0
39
0
210
0
220
0
230
1
0
LINE
5
93
100
AcDbEntity
8
1
62
256
6
ByLayer
370
13
48
1
60
0
100
AcDbLine
10
58.610989
20
0.574712
30
0
11
59.124019
21
0.574492
31
0
39
0
210
0
220
0
230
1
0
LINE
5
94
100
AcDbEntity
8
1
62
256
6
ByLayer
370
13
48
1
60
0
100
AcDbLine
10
59.124019
20
0.574492
30
0
11
59.124019
21
-0.580208
31
0
39
0
210
0
220
0
230
1
0
LINE
5
95
100
AcDbEntity
8
1
62
256
6
ByLayer
370
13
48
1
60
0
100
AcDbLine
10
58.184327
20
1.151789
30
0
11
59.124019
21
0.574492
31
0
39
0
210
0
220
0
230
1
0
LINE
5
96
100
AcDbEntity
8
1
62
256
6
ByLayer
370
13
48
1
60
0
100
AcDbLine
10
58.610989
20
0.574712
30
0
11
58.610989
21
-0.579988
31
0
39
0
210
0
220
0
230
1
0
LINE
5
97
100
AcDbEntity
8
1
62
256
6
ByLayer
370
13
48
1
60
0
100
AcDbLine
10
58.610989
20
-0.579988
30
0
11
59.124019
21
-0.580208
31
0
39
0
210
0
220
0
230
1
0
LINE
5
98
100
AcDbEntity
8
1
62
256
6
ByLayer
370
13
48
1
60
0
100
AcDbLine
10
58.184327
20
-1.157612
30
0
11
57.244634
21
-0.580315
31
0
39
0
210
0
220
0
230
1
0
LINE
5
99
100
AcDbEntity
8
1
62
256
6
ByLayer
370
13
48
1
60
0
100
AcDbLine
10
57.244634
20
-0.580315
30
0
11
57.244634
21
0.574385
31
0
39
0
210
0
220
0
230
1
0
LINE
5
9A
100
AcDbEntity
8
1
62
256
6
ByLayer
370
13
48
1
60
0
100
AcDbLine
10
75.114502
20
-6.402997
30
0
11
75.702594
21
-6.402997
31
0
39
0
210
0
220
0
230
1
0
LINE
5
9B
100
AcDbEntity
8
1
62
256
6
ByLayer
370
13
48
1
60
0
100
AcDbLine
10
75.263806
20
-4.677536
30
0
11
75.851898
21
-4.677536
31
0
39
0
210
0
220
0
230
1
0
LINE
5
9C
100
AcDbEntity
8
1
62
256
6
ByLayer
370
13
48
1
60
0
100
AcDbLine
10
75.114502
20
-6.402997
30
0
11
75.189154
21
-5.540267
31
0
39
0
210
0
220
0
230
1
0
LINE
5
9D
100
AcDbEntity
8
1
62
256
6
ByLayer
370
13
48
1
60
0
100
AcDbLine
10
75.189154
20
-5.540267
30
0
11
75.263806
21
-4.677536
31
0
39
0
210
0
220
0
230
1
0
LINE
5
9E
100
AcDbEntity
8
1
62
256
6
ByLayer
370
13
48
1
60
0
100
AcDbLine
10
73.910608
20
-6.970561
30
0
11
74.338148
21
-6.769001
31
0
39
0
210
0
220
0
230
1
0
LINE
5
9F
100
AcDbEntity
8
1
62
256
6
ByLayer
370
13
48
1
60
0
100
AcDbLine
10
74.338148
20
-6.769001
30
0
11
75.114502
21
-6.402997
31
0
39
0
210
0
220
0
230
1
0
LINE
5
A0
100
AcDbEntity
8
1
62
256
6
ByLayer
370
13
48
1
60
0
100
AcDbLine
10
75.263806
20
-4.677536
30
0
11
74.562105
21
-4.18081
31
0
39
0
210
0
220
0
230
1
0
LINE
5
A1
100
AcDbEntity
8
1
62
256
6
ByLayer
370
13
48
1
60
0
100
AcDbLine
10
74.562105
20
-4.18081
30
0
11
74.091055
21
-3.847359
31
0
39
0
210
0
220
0
230
1
0
LINE
5
A2
100
AcDbEntity
8
1
62
256
6
ByLayer
370
13
48
1
60
0
100
AcDbLine
10
75.909892
20
0.608036
30
0
11
76.610089
21
0.608036
31
0
39
0
210
0
220
0
230
1
0
LINE
5
A3
100
AcDbEntity
8
1
62
256
6
ByLayer
370
13
48
1
60
0
100
AcDbLine
10
85.160089
20
7.861273
30
0
11
84.873676
21
7.861273
31
0
39
0
210
0
220
0
230
1
0
LINE
5
A4
100
AcDbEntity
8
1
62
256
6
ByLayer
370
13
48
1
60
0
100
AcDbLine
10
84.873798
20
-7.861161
30
0
11
85.160212
21
-7.861161
31
0
39
0
210
0
220
0
230
1
0
LINE
5
A5
100
AcDbEntity
8
1
62
256
6
ByLayer
370
13
48
1
60
0
100
AcDbLine
10
76.610098
20
-0.60806
30
0
11
76.545407
21
-0.60806
31
0
39
0
210
0
220
0
230
1
0
LINE
5
A6
100
AcDbEntity
8
1
62
256
6
ByLayer
370
13
48
1
60
0
100
AcDbLine
10
75.909892
20
0.608036
30
0
11
79.585457
21
3.726135
31
0
39
0
210
0
220
0
230
1
0
LINE
5
A7
100
AcDbEntity
8
1
62
256
6
ByLayer
370
13
48
1
60
0
100
AcDbLine
10
76.610089
20
0.608036
30
0
11
85.160089
21
7.861273
31
0
39
0
210
0
220
0
230
1
0
LINE
5
A8
100
AcDbEntity
8
1
62
256
6
ByLayer
370
13
48
1
60
0
100
AcDbLine
10
85.160212
20
-7.861161
30
0
11
76.610098
21
-0.60806
31
0
39
0
210
0
220
0
230
1
0
LINE
5
A9
100
AcDbEntity
8
1
62
256
6
ByLayer
370
13
48
1
60
0
100
AcDbLine
10
94.719549
20
-0.607916
30
0
11
86.169548
21
-7.861153
31
0
39
0
210
0
220
0
230
1
0
LINE
5
AA
100
AcDbEntity
8
1
62
256
6
ByLayer
370
13
48
1
60
0
100
AcDbLine
10
86.169426
20
7.861281
30
0
11
94.719539
21
0.60818
31
0
39
0
210
0
220
0
230
1
0
LINE
5
AB
100
AcDbEntity
8
1
62
256
6
ByLayer
370
13
48
1
60
0
100
AcDbLine
10
56.69442
20
-1.599432
30
0
11
56.695466
21
-0.463581
31
0
39
0
210
0
220
0
230
1
0
LINE
5
AC
100
AcDbEntity
8
1
62
256
6
ByLayer
370
13
48
1
60
0
100
AcDbLine
10
56.696318
20
0.460694
30
0
11
56.697364
21
1.596546
31
0
39
0
210
0
220
0
230
1
0
LINE
5
AD
100
AcDbEntity
8
1
62
256
6
ByLayer
370
13
48
1
60
0
100
AcDbLine
10
70.366031
20
-8
30
0
11
70.366031
21
8
31
0
39
0
210
0
220
0
230
1
0
LINE
5
AE
100
AcDbEntity
8
1
62
256
6
ByLayer
370
13
48
1
60
0
100
AcDbLine
10
71.82404
20
12.935892
30
0
11
71.82404
21
-2.155888
31
0
39
0
210
0
220
0
230
1
0
LINE
5
AF
100
AcDbEntity
8
1
62
256
6
ByLayer
370
13
48
1
60
0
100
AcDbLine
10
71.82404
20
-8.663202
30
0
11
71.82404
21
-12.935892
31
0
39
0
210
0
220
0
230
1
0
LINE
5
B0
100
AcDbEntity
8
1
62
256
6
ByLayer
370
13
48
1
60
0
100
AcDbLine
10
9.076795
20
-5.85989
30
0
11
6.923205
21
-5.85989
31
0
39
0
210
0
220
0
230
1
0
LINE
5
B1
100
AcDbEntity
8
1
62
256
6
ByLayer
370
13
48
1
60
0
100
AcDbLine
10
6.923205
20
-19.122283
30
0
11
9.076795
21
-19.122283
31
0
39
0
210
0
220
0
230
1
0
LINE
5
B2
100
AcDbEntity
8
1
62
256
6
ByLayer
370
13
48
1
60
0
100
AcDbLine
10
9.076795
20
19.122283
30
0
11
6.923205
21
19.122283
31
0
39
0
210
0
220
0
230
1
0
LINE
5
B3
100
AcDbEntity
8
1
62
256
6
ByLayer
370
13
48
1
60
0
100
AcDbLine
10
6.923205
20
5.85989
30
0
11
9.076795
21
5.85989
31
0
39
0
210
0
220
0
230
1
0
LINE
5
B4
100
AcDbEntity
8
SK1
62
256
6
ByLayer
370
13
48
1
60
0
100
AcDbLine
10
-0.2
20
-14.083485
30
0
11
-0.2
21
-5.703176
31
0
39
0
210
0
220
0
230
1
0
LINE
5
B6
100
AcDbEntity
8
SK1
62
256
6
ByLayer
370
13
48
1
60
0
100
AcDbLine
10
-0.2
20
5.703176
30
0
11
-0.2
21
14.083485
31
0
39
0
210
0
220
0
230
1
0
LINE
5
B7
100
AcDbEntity
8
1
62
256
6
ByLayer
370
13
48
1
60
0
100
AcDbLine
10
0.3
20
-20
30
0
11
0.3
21
20
31
0
39
0
210
0
220
0
230
1
0
LINE
5
B8
100
AcDbEntity
8
1
62
256
6
ByLayer
370
13
48
1
60
0
100
AcDbLine
10
0
20
-19.7
30
0
11
0
21
19.7
31
0
39
0
210
0
220
0
230
1
0
LINE
5
B9
100
AcDbEntity
8
SK1
62
256
6
ByLayer
370
13
48
1
60
0
100
AcDbLine
10
-1.307107
20
-3.627816
30
0
11
-1.307107
21
3.627817
31
0
39
0
210
0
220
0
230
1
0
LINE
5
BA
100
AcDbEntity
8
1
62
256
6
ByLayer
370
13
48
1
60
0
100
AcDbLine
10
6.663397
20
6.16973
30
0
11
6.663397
21
19.024574
31
0
39
0
210
0
220
0
230
1
0
LINE
5
BB
100
AcDbEntity
8
1
62
256
6
ByLayer
370
13
48
1
60
0
100
AcDbLine
10
6.923205
20
5.85989
30
0
11
6.923205
21
19.122283
31
0
39
0
210
0
220
0
230
1
0
LINE
5
BC
100
AcDbEntity
8
1
62
256
6
ByLayer
370
13
48
1
60
0
100
AcDbLine
10
9.076795
20
5.85989
30
0
11
9.076795
21
19.122283
31
0
39
0
210
0
220
0
230
1
0
LINE
5
BD
100
AcDbEntity
8
1
62
256
6
ByLayer
370
13
48
1
60
0
100
AcDbLine
10
9.336603
20
6.16973
30
0
11
9.336603
21
19.024574
31
0
39
0
210
0
220
0
230
1
0
LINE
5
BE
100
AcDbEntity
8
1
62
256
6
ByLayer
370
13
48
1
60
0
100
AcDbLine
10
6.663397
20
-19.024574
30
0
11
6.663397
21
-6.16973
31
0
39
0
210
0
220
0
230
1
0
LINE
5
BF
100
AcDbEntity
8
1
62
256
6
ByLayer
370
13
48
1
60
0
100
AcDbLine
10
6.923205
20
-19.122283
30
0
11
6.923205
21
-5.85989
31
0
39
0
210
0
220
0
230
1
0
LINE
5
C0
100
AcDbEntity
8
1
62
256
6
ByLayer
370
13
48
1
60
0
100
AcDbLine
10
9.076795
20
-19.122283
30
0
11
9.076795
21
-5.85989
31
0
39
0
210
0
220
0
230
1
0
LINE
5
C1
100
AcDbEntity
8
1
62
256
6
ByLayer
370
13
48
1
60
0
100
AcDbLine
10
9.336603
20
-19.024574
30
0
11
9.336603
21
-6.16973
31
0
39
0
210
0
220
0
230
1
0
LINE
5
C2
100
AcDbEntity
8
1
62
256
6
ByLayer
370
13
48
1
60
0
100
AcDbLine
10
79.461359
20
3.620851
30
0
11
79.302922
21
3.755254
31
0
39
0
210
0
220
0
230
1
0
LINE
5
C3
100
AcDbEntity
8
1
62
256
6
ByLayer
370
13
48
1
60
0
100
AcDbLine
10
79.302922
20
3.755254
30
0
11
80.140767
21
3.66883
31
0
39
0
210
0
220
0
230
1
0
LINE
5
C4
100
AcDbEntity
8
1
62
256
6
ByLayer
370
13
48
1
60
0
100
AcDbLine
10
78.337148
20
4.377369
30
0
11
79.345145
21
3.522281
31
0
39
0
210
0
220
0
230
1
0
LINE
5
C5
100
AcDbEntity
8
1
62
256
6
ByLayer
370
13
48
1
60
0
100
AcDbLine
10
79.384334
20
4.310516
30
0
11
78.337148
21
4.377369
31
0
39
0
210
0
220
0
230
1
0
LINE
5
C6
100
AcDbEntity
8
1
62
256
6
ByLayer
370
13
48
1
60
0
100
AcDbLine
10
40.830522
20
16.193442
30
0
11
67.174954
21
13.42453
31
0
39
0
210
0
220
0
230
1
0
LINE
5
C7
100
AcDbEntity
8
1
62
256
6
ByLayer
370
13
48
1
60
0
100
AcDbLine
10
67.174954
20
-13.42453
30
0
11
40.830522
21
-16.193442
31
0
39
0
210
0
220
0
230
1
0
LINE
5
C8
100
AcDbEntity
8
1
62
256
6
ByLayer
370
13
48
1
60
0
100
AcDbLine
10
69.981107
20
13.129592
30
0
11
71
21
13.022502
31
0
39
0
210
0
220
0
230
1
0
LINE
5
C9
100
AcDbEntity
8
1
62
256
6
ByLayer
370
13
48
1
60
0
100
AcDbLine
10
71.82404
20
12.935892
30
0
11
79.891113
21
12.088008
31
0
39
0
210
0
220
0
230
1
0
LINE
5
CA
100
AcDbEntity
8
1
62
256
6
ByLayer
370
13
48
1
60
0
100
AcDbLine
10
79.891113
20
12.088008
30
0
11
84.999667
21
7.754397
31
0
39
0
210
0
220
0
230
1
0
LINE
5
CB
100
AcDbEntity
8
1
62
256
6
ByLayer
370
13
48
1
60
0
100
AcDbLine
10
84.999667
20
7.754397
30
0
11
80.140767
21
3.66883
31
0
39
0
210
0
220
0
230
1
0
LINE
5
CC
100
AcDbEntity
8
1
62
256
6
ByLayer
370
13
48
1
60
0
100
AcDbLine
10
79.384334
20
4.310516
30
0
11
80.140767
21
3.66883
31
0
39
0
210
0
220
0
230
1
0
LINE
5
CD
100
AcDbEntity
8
1
62
256
6
ByLayer
370
13
48
1
60
0
100
AcDbLine
10
79.891287
20
-12.08799
30
0
11
71.82404
21
-12.935892
31
0
39
0
210
0
220
0
230
1
0
LINE
5
CE
100
AcDbEntity
8
1
62
256
6
ByLayer
370
13
48
1
60
0
100
AcDbLine
10
71
20
-13.022502
30
0
11
69.981107
21
-13.129592
31
0
39
0
210
0
220
0
230
1
0
LINE
5
CF
100
AcDbEntity
8
1
62
256
6
ByLayer
370
13
48
1
60
0
100
AcDbLine
10
75.726596
20
0.086543
30
0
11
78.82935
21
-2.545538
31
0
39
0
210
0
220
0
230
1
0
LINE
5
D0
100
AcDbEntity
8
1
62
256
6
ByLayer
370
13
48
1
60
0
100
AcDbLine
10
84.984662
20
-7.767118
30
0
11
79.891287
21
-12.08799
31
0
39
0
210
0
220
0
230
1
0
LINE
5
D1
100
AcDbEntity
8
1
62
256
6
ByLayer
370
13
48
1
60
0
100
AcDbLine
10
79.380271
20
-3.208697
30
0
11
81.550052
21
-5.049333
31
0
39
0
210
0
220
0
230
1
0
LINE
5
D2
100
AcDbEntity
8
1
62
256
6
ByLayer
370
13
48
1
60
0
100
AcDbLine
10
82.291713
20
-5.482677
30
0
11
84.984662
21
-7.767118
31
0
39
0
210
0
220
0
230
1
0
LINE
5
D3
100
AcDbEntity
8
1
62
256
6
ByLayer
370
13
48
1
60
0
100
AcDbLine
10
70.36603
20
-2.807862
30
0
11
71
21
-2.807862
31
0
39
0
210
0
220
0
230
1
0
LINE
5
D4
100
AcDbEntity
8
1
62
256
6
ByLayer
370
13
48
1
60
0
100
AcDbLine
10
70.36603
20
8
30
0
11
71
21
8
31
0
39
0
210
0
220
0
230
1
0
LINE
5
D5
100
AcDbEntity
8
1
62
256
6
ByLayer
370
13
48
1
60
0
100
AcDbLine
10
67.174954
20
13.42453
30
0
11
69.068759
21
13.225483
31
0
39
0
210
0
220
0
230
1
0
LINE
5
D6
100
AcDbEntity
8
1
62
256
6
ByLayer
370
13
48
1
60
0
100
AcDbLine
10
69.068759
20
-13.225483
30
0
11
67.174954
21
-13.42453
31
0
39
0
210
0
220
0
230
1
0
LINE
5
D7
100
AcDbEntity
8
1
62
256
6
ByLayer
370
13
48
1
60
0
100
AcDbLine
10
71
20
13.022502
30
0
11
71.82404
21
12.935892
31
0
39
0
210
0
220
0
230
1
0
LINE
5
D8
100
AcDbEntity
8
1
62
256
6
ByLayer
370
13
48
1
60
0
100
AcDbLine
10
71.82404
20
-12.935892
30
0
11
71
21
-13.022502
31
0
39
0
210
0
220
0
230
1
0
LINE
5
D9
100
AcDbEntity
8
1
62
256
6
ByLayer
370
13
48
1
60
0
100
AcDbLine
10
71
20
-13.022502
30
0
11
71
21
-9.703552
31
0
39
0
210
0
220
0
230
1
0
LINE
5
DA
100
AcDbEntity
8
1
62
256
6
ByLayer
370
13
48
1
60
0
100
AcDbLine
10
71
20
9.703552
30
0
11
71
21
13.022502
31
0
39
0
210
0
220
0
230
1
0
LINE
5
DB
100
AcDbEntity
8
1
62
256
6
ByLayer
370
13
48
1
60
0
100
AcDbLine
10
71
20
8
30
0
11
71
21
-2.807862
31
0
39
0
210
0
220
0
230
1
0
LINE
5
DC
100
AcDbEntity
8
1
62
256
6
ByLayer
370
13
48
1
60
0
100
AcDbLine
10
64.3
20
-9.31182
30
0
11
64.3
21
9.31182
31
0
39
0
210
0
220
0
230
1
0
LINE
5
DD
100
AcDbEntity
8
1
62
256
6
ByLayer
370
13
48
1
60
0
100
AcDbLine
10
83.744601
20
-1.696225
30
0
11
83.888504
21
-1.696225
31
0
39
0
210
0
220
0
230
1
0
LINE
5
DE
100
AcDbEntity
8
1
62
256
6
ByLayer
370
13
48
1
60
0
100
AcDbLine
10
84.600536
20
-2.097518
30
0
11
84.478605
21
-2.097518
31
0
39
0
210
0
220
0
230
1
0
LINE
5
DF
100
AcDbEntity
8
1
62
256
6
ByLayer
370
13
48
1
60
0
100
AcDbLine
10
83.177849
20
-0.155507
30
0
11
83.11948
21
-0.155507
31
0
39
0
210
0
220
0
230
1
0
LINE
5
E0
100
AcDbEntity
8
1
62
256
6
ByLayer
370
13
48
1
60
0
100
AcDbLine
10
60.318492
20
-10.604065
30
0
11
59.954338
21
-10.419547
31
0
39
0
210
0
220
0
230
1
0
LINE
5
E1
100
AcDbEntity
8
1
62
256
6
ByLayer
370
13
48
1
60
0
100
AcDbLine
10
61.337951
20
-10.062253
30
0
11
60.318492
21
-10.604065
31
0
39
0
210
0
220
0
230
1
0
LINE
5
E2
100
AcDbEntity
8
1
62
256
6
ByLayer
370
13
48
1
60
0
100
AcDbLine
10
61.40569
20
-9.592559
30
0
11
61.337951
21
-10.062253
31
0
39
0
210
0
220
0
230
1
0
LINE
5
E3
100
AcDbEntity
8
1
62
256
6
ByLayer
370
13
48
1
60
0
100
AcDbLine
10
59.879834
20
-10.936168
30
0
11
60.022077
21
-9.949868
31
0
39
0
210
0
220
0
230
1
0
LINE
5
E4
100
AcDbEntity
8
1
62
256
6
ByLayer
370
13
48
1
60
0
100
AcDbLine
10
60.757049
20
-11.380656
30
0
11
59.879834
21
-10.936168
31
0
39
0
210
0
220
0
230
1
0
LINE
5
E5
100
AcDbEntity
8
1
62
256
6
ByLayer
370
13
48
1
60
0
100
AcDbLine
10
61.776509
20
-10.838844
30
0
11
60.757049
21
-11.380656
31
0
39
0
210
0
220
0
230
1
0
LINE
5
E6
100
AcDbEntity
8
1
62
256
6
ByLayer
370
13
48
1
60
0
100
AcDbLine
10
61.918752
20
-9.852544
30
0
11
61.776509
21
-10.838844
31
0
39
0
210
0
220
0
230
1
0
LINE
5
E7
100
AcDbEntity
8
1
62
256
6
ByLayer
370
13
48
1
60
0
100
AcDbLine
10
61.041536
20
-9.408056
30
0
11
61.918752
21
-9.852544
31
0
39
0
210
0
220
0
230
1
0
LINE
5
E8
100
AcDbEntity
8
1
62
256
6
ByLayer
370
13
48
1
60
0
100
AcDbLine
10
60.022077
20
-9.949868
30
0
11
61.041536
21
-9.408056
31
0
39
0
210
0
220
0
230
1
0
LINE
5
E9
100
AcDbEntity
8
1
62
256
6
ByLayer
370
13
48
1
60
0
100
AcDbLine
10
61.337951
20
-10.062253
30
0
11
61.776509
21
-10.838844
31
0
39
0
210
0
220
0
230
1
0
LINE
5
EA
100
AcDbEntity
8
1
62
256
6
ByLayer
370
13
48
1
60
0
100
AcDbLine
10
60.318492
20
-10.604065
30
0
11
60.757049
21
-11.380656
31
0
39
0
210
0
220
0
230
1
0
LINE
5
EB
100
AcDbEntity
8
1
62
256
6
ByLayer
370
13
48
1
60
0
100
AcDbLine
10
61.855598
20
9.750649
30
0
11
60.899293
21
9.423512
31
0
39
0
210
0
220
0
230
1
0
LINE
5
EC
100
AcDbEntity
8
1
62
256
6
ByLayer
370
13
48
1
60
0
100
AcDbLine
10
61.855598
20
10.721493
30
0
11
61.855598
21
9.750649
31
0
39
0
210
0
220
0
230
1
0
LINE
5
ED
100
AcDbEntity
8
1
62
256
6
ByLayer
370
13
48
1
60
0
100
AcDbLine
10
60.899293
20
11.365201
30
0
11
61.855598
21
10.721493
31
0
39
0
210
0
220
0
230
1
0
LINE
5
EE
100
AcDbEntity
8
1
62
256
6
ByLayer
370
13
48
1
60
0
100
AcDbLine
10
59.942988
20
11.038064
30
0
11
60.899293
21
11.365201
31
0
39
0
210
0
220
0
230
1
0
LINE
5
EF
100
AcDbEntity
8
1
62
256
6
ByLayer
370
13
48
1
60
0
100
AcDbLine
10
59.942988
20
10.067219
30
0
11
59.942988
21
11.038064
31
0
39
0
210
0
220
0
230
1
0
LINE
5
F0
100
AcDbEntity
8
1
62
256
6
ByLayer
370
13
48
1
60
0
100
AcDbLine
10
60.899293
20
9.423512
30
0
11
59.942988
21
10.067219
31
0
39
0
210
0
220
0
230
1
0
LINE
5
F1
100
AcDbEntity
8
1
62
256
6
ByLayer
370
13
48
1
60
0
100
AcDbLine
10
61.41704
20
9.944902
30
0
11
61.41704
21
9.600616
31
0
39
0
210
0
220
0
230
1
0
LINE
5
F2
100
AcDbEntity
8
1
62
256
6
ByLayer
370
13
48
1
60
0
100
AcDbLine
10
60.460735
20
10.588609
30
0
11
61.41704
21
9.944902
31
0
39
0
210
0
220
0
230
1
0
LINE
5
F3
100
AcDbEntity
8
1
62
256
6
ByLayer
370
13
48
1
60
0
100
AcDbLine
10
59.943001
20
10.411501
30
0
11
60.460735
21
10.588609
31
0
39
0
210
0
220
0
230
1
0
LINE
5
F4
100
AcDbEntity
8
1
62
256
6
ByLayer
370
13
48
1
60
0
100
AcDbLine
10
60.460735
20
10.588609
30
0
11
60.899293
21
11.365201
31
0
39
0
210
0
220
0
230
1
0
LINE
5
F5
100
AcDbEntity
8
1
62
256
6
ByLayer
370
13
48
1
60
0
100
AcDbLine
10
61.41704
20
9.944902
30
0
11
61.855598
21
10.721493
31
0
39
0
210
0
220
0
230
1
0
LINE
5
F6
100
AcDbEntity
8
80
62
256
6
ByLayer
370
18
48
1
60
0
100
AcDbLine
10
0
20
0
30
0
11
-11.068998
21
0
31
0
39
0
210
0
220
0
230
1
0
LINE
5
F7
100
AcDbEntity
8
81
62
256
6
ByLayer
370
18
48
1
60
0
100
AcDbLine
10
95
20
-0.37
30
0
11
104.105084
21
-0.37
31
0
39
0
210
0
220
0
230
1
0
LINE
5
186
100
AcDbEntity
8
4
62
256
6
ByLayer
370
13
48
0.05
60
0
100
AcDbLine
10
-4.7
20
0
30
0
11
98.3
21
0
31
0
39
0
210
0
220
0
230
1
0
MTEXT
5
188
100
AcDbEntity
8
SK6
62
256
6
ByLayer
370
13
48
1
60
0
100
AcDbMText
10
5.087125
20
-51.384859
30
0
210
0
220
0
230
1
1
\W0.7317;C4-PCMNN-00095-12HP
40
3.5
41
0
44
1.084337
50
0
71
7
72
5
7
iso_b_vert
0
DIMENSION
5
198
100
AcDbEntity
8
2
62
256
6
ByLayer
370
13
48
1
60
0
100
AcDbDimension
2
DimnDraft3D1
10
95
20
-28.820821
30
0
11
45.455263
21
-28.820821
31
0
70
32
71
5
72
1
41
1
210
0
220
0
230
1
3
Standard
100
AcDbAlignedDimension
13
0
23
-21.2875
33
0
14
95
24
-1.9575
34
0
50
0
100
AcDbRotatedDimension
1001
ACAD
1000
DSTYLE
1002
{
1070
   279
1070
     0
1070
   172
1070
     1
1070
   173
1070
     1
1070
   340
1005
189
1070
   271
1070
     1
1070
   272
1070
     2
1070
    77
1070
     1
1070
    73
1070
     0
1070
   171
1070
     3
1070
   274
1070
     4
1070
   177
1070
     7
1070
   176
1070
     7
1070
   178
1070
     7
1070
    78
1070
     8
1070
    48
1040
-0.005
1070
    41
1041
3.5
1070
   147
1041
1.75
1070
    42
1041
1.5875
1070
    44
1041
2.0
1070
   140
1041
3.5
1070
   343
1005
0
1070
   344
1005
0
1002
}
0
DIMENSION
5
1A4
100
AcDbEntity
8
SK2
62
256
6
ByLayer
370
13
48
1
60
0
100
AcDbDimension
2
DimnDraft3D2
10
-42.978297
20
-20
30
0
11
-43.603297
21
1.271053
31
0
70
33
71
5
72
1
41
1
210
0
220
0
230
1
3
Standard
100
AcDbAlignedDimension
13
-1.2875
23
20
33
0
14
-1.2875
24
-20
34
0
1001
ACAD
1000
DSTYLE
1002
{
1070
   279
1070
     0
1070
    74
1070
     0
1070
   173
1070
     1
1070
   340
1005
189
1070
   271
1070
     1
1070
   272
1070
     2
1070
    77
1070
     1
1070
    73
1070
     0
1070
   171
1070
     3
1070
   274
1070
     4
1070
   177
1070
     7
1070
   176
1070
     7
1070
   178
1070
     7
1070
    78
1070
     8
1070
    48
1040
-0.005
1070
    41
1041
3.5
1070
   147
1041
1.75
1070
    42
1041
1.5875
1070
    44
1041
2.0
1070
   140
1041
3.5
1070
   343
1005
0
1070
   344
1005
0
1002
}
0
DIMENSION
5
1AE
100
AcDbEntity
8
2
62
256
6
ByLayer
370
13
48
1
60
0
100
AcDbDimension
2
DimnDraft3D3
10
110.600712
20
0
30
0
11
110.600712
21
-12.332235
31
0
70
32
71
5
72
1
41
1
210
0
220
0
230
1
3
Standard
100
AcDbAlignedDimension
13
96.5875
23
-0.37
33
0
14
99.8875
24
0
34
0
50
90
100
AcDbRotatedDimension
1001
ACAD
1000
DSTYLE
1002
{
1070
    74
1070
     0
1070
   279
1070
     0
1070
   172
1070
     1
1070
   173
1070
     1
1070
   340
1005
189
1070
   271
1070
     2
1070
   272
1070
     2
1070
    77
1070
     1
1070
    73
1070
     0
1070
   171
1070
     3
1070
   274
1070
     4
1070
   177
1070
     7
1070
   176
1070
     7
1070
   178
1070
     7
1070
    78
1070
     8
1070
    48
1040
-0.005
1070
    41
1041
3.5
1070
   147
1041
1.75
1070
    42
1041
1.5875
1070
    44
1041
2.0
1070
   140
1041
3.5
1070
   343
1005
0
1070
   344
1005
0
1002
}
0
ENDSEC
0
SECTION
2
OBJECTS
0
DICTIONARY
5
219
330
0
100
AcDbDictionary
280
0
281
1
3
ACAD_GROUP
350
21a
3
ACAD_MLINESTYLE
350
21b
0
DICTIONARY
5
21a
330
0
100
AcDbDictionary
280
0
281
1
0
DICTIONARY
5
21b
330
0
100
AcDbDictionary
280
0
281
1
3
Standard
350
18
0
MLINESTYLE
5
18
330
21b
100
AcDbMlineStyle
2
Standard
70
0
3

62
256
51
90
52
90
71
2
49
-0.5
62
256
6
ByLayer
49
0.5
62
256
6
ByLayer
0
RASTERVARIABLES
5
207
330

100
AcDbRasterVariables
90
0
70
1
71
1
72
1
0
ENDSEC
0
EOF
