  0
SECTION
  2
HEADER
  9
$ACADVER
  1
AC1015
  9
$ACADMAINTVER
 70
    20
  9
$DWGCODEPAGE
  3
ANSI_1252
  9
$INSBASE
 10
0.0
 20
0.0
 30
0.0
  9
$EXTMIN
 10
-35.66097846401499
 20
-41.57607917158872
 30
-0.0004618981208164
  9
$EXTMAX
 10
64.79365647094505
 20
41.35849073687404
 30
1.437019882393029
  9
$LIMMIN
 10
-170.0
 20
-170.0
  9
$LIMMAX
 10
519.0
 20
260.0
  9
$ORTHOMODE
 70
     0
  9
$REGENMODE
 70
     1
  9
$FILLMODE
 70
     1
  9
$QTEXTMODE
 70
     0
  9
$MIRRTEXT
 70
     0
  9
$LTSCALE
 40
1.0
  9
$ATTMODE
 70
     1
  9
$TEXTSIZE
 40
3.5
  9
$TRACEWID
 40
1.0
  9
$TEXTSTYLE
  7
SIMPLEX
  9
$CLAYER
  8
1
  9
$CELTYPE
  6
BYLAYER
  9
$CECOLOR
 62
   256
  9
$CELTSCALE
 40
1.0
  9
$DISPSILH
 70
     0
  9
$DIMSCALE
 40
1.0
  9
$DIMASZ
 40
2.5
  9
$DIMEXO
 40
0.0
  9
$DIMDLI
 40
3.75
  9
$DIMRND
 40
0.0
  9
$DIMDLE
 40
0.0
  9
$DIMEXE
 40
1.25
  9
$DIMTP
 40
0.0
  9
$DIMTM
 40
0.0
  9
$DIMTXT
 40
3.5
  9
$DIMCEN
 40
0.0
  9
$DIMTSZ
 40
0.0
  9
$DIMTOL
 70
     0
  9
$DIMLIM
 70
     0
  9
$DIMTIH
 70
     0
  9
$DIMTOH
 70
     0
  9
$DIMSE1
 70
     0
  9
$DIMSE2
 70
     0
  9
$DIMTAD
 70
     1
  9
$DIMZIN
 70
     8
  9
$DIMBLK
  1

  9
$DIMASO
 70
     1
  9
$DIMSHO
 70
     1
  9
$DIMPOST
  1

  9
$DIMAPOST
  1

  9
$DIMALT
 70
     0
  9
$DIMALTD
 70
     3
  9
$DIMALTF
 40
0.039370078
  9
$DIMLFAC
 40
1.0
  9
$DIMTOFL
 70
     0
  9
$DIMTVP
 40
0.0
  9
$DIMTIX
 70
     0
  9
$DIMSOXD
 70
     0
  9
$DIMSAH
 70
     0
  9
$DIMBLK1
  1

  9
$DIMBLK2
  1

  9
$DIMSTYLE
  2
SANDVIK_STYLE
  9
$DIMCLRD
 70
     0
  9
$DIMCLRE
 70
     0
  9
$DIMCLRT
 70
     0
  9
$DIMTFAC
 40
1.0
  9
$DIMGAP
 40
0.625
  9
$DIMJUST
 70
     0
  9
$DIMSD1
 70
     0
  9
$DIMSD2
 70
     0
  9
$DIMTOLJ
 70
     0
  9
$DIMTZIN
 70
     8
  9
$DIMALTZ
 70
     0
  9
$DIMALTTZ
 70
     0
  9
$DIMUPT
 70
     0
  9
$DIMDEC
 70
     2
  9
$DIMTDEC
 70
     2
  9
$DIMALTU
 70
     2
  9
$DIMALTTD
 70
     3
  9
$DIMTXSTY
  7
SIMPLEX
  9
$DIMAUNIT
 70
     0
  9
$DIMADEC
 70
     2
  9
$DIMALTRND
 40
0.0
  9
$DIMAZIN
 70
     2
  9
$DIMDSEP
 70
    46
  9
$DIMATFIT
 70
     3
  9
$DIMFRAC
 70
     0
  9
$DIMLDRBLK
  1

  9
$DIMLUNIT
 70
     2
  9
$DIMLWD
 70
    -2
  9
$DIMLWE
 70
    -2
  9
$DIMTMOVE
 70
     0
  9
$LUNITS
 70
     2
  9
$LUPREC
 70
     4
  9
$SKETCHINC
 40
1.0
  9
$FILLETRAD
 40
0.0
  9
$AUNITS
 70
     0
  9
$AUPREC
 70
     0
  9
$MENU
  1
c:\tdm21\cad\caduti13\tdm13
  9
$ELEVATION
 40
0.0
  9
$PELEVATION
 40
0.0
  9
$THICKNESS
 40
0.0
  9
$LIMCHECK
 70
     0
  9
$CHAMFERA
 40
0.0
  9
$CHAMFERB
 40
0.0
  9
$CHAMFERC
 40
0.0
  9
$CHAMFERD
 40
0.0
  9
$SKPOLY
 70
     0
  9
$TDCREATE
 40
2455883.643486840
  9
$TDUCREATE
 40
2455883.560153508
  9
$TDUPDATE
 40
2456817.914855185
  9
$TDUUPDATE
 40
2456817.831521852
  9
$TDINDWG
 40
0.0018204051
  9
$TDUSRTIMER
 40
0.0018204051
  9
$USRTIMER
 70
     1
  9
$ANGBASE
 50
0.0
  9
$ANGDIR
 70
     0
  9
$PDMODE
 70
     1
  9
$PDSIZE
 40
0.0
  9
$PLINEWID
 40
0.0
  9
$SPLFRAME
 70
     0
  9
$SPLINETYPE
 70
     6
  9
$SPLINESEGS
 70
     8
  9
$HANDSEED
  5
3C2D5
  9
$SURFTAB1
 70
     6
  9
$SURFTAB2
 70
     6
  9
$SURFTYPE
 70
     6
  9
$SURFU
 70
     6
  9
$SURFV
 70
     6
  9
$UCSBASE
  2

  9
$UCSNAME
  2

  9
$UCSORG
 10
0.0
 20
0.0
 30
0.0
  9
$UCSXDIR
 10
1.0
 20
0.0
 30
0.0
  9
$UCSYDIR
 10
0.0
 20
1.0
 30
0.0
  9
$UCSORTHOREF
  2

  9
$UCSORTHOVIEW
 70
     0
  9
$UCSORGTOP
 10
0.0
 20
0.0
 30
0.0
  9
$UCSORGBOTTOM
 10
0.0
 20
0.0
 30
0.0
  9
$UCSORGLEFT
 10
0.0
 20
0.0
 30
0.0
  9
$UCSORGRIGHT
 10
0.0
 20
0.0
 30
0.0
  9
$UCSORGFRONT
 10
0.0
 20
0.0
 30
0.0
  9
$UCSORGBACK
 10
0.0
 20
0.0
 30
0.0
  9
$PUCSBASE
  2

  9
$PUCSNAME
  2

  9
$PUCSORG
 10
0.0
 20
0.0
 30
0.0
  9
$PUCSXDIR
 10
1.0
 20
0.0
 30
0.0
  9
$PUCSYDIR
 10
0.0
 20
1.0
 30
0.0
  9
$PUCSORTHOREF
  2

  9
$PUCSORTHOVIEW
 70
     0
  9
$PUCSORGTOP
 10
0.0
 20
0.0
 30
0.0
  9
$PUCSORGBOTTOM
 10
0.0
 20
0.0
 30
0.0
  9
$PUCSORGLEFT
 10
0.0
 20
0.0
 30
0.0
  9
$PUCSORGRIGHT
 10
0.0
 20
0.0
 30
0.0
  9
$PUCSORGFRONT
 10
0.0
 20
0.0
 30
0.0
  9
$PUCSORGBACK
 10
0.0
 20
0.0
 30
0.0
  9
$USERI1
 70
     0
  9
$USERI2
 70
     0
  9
$USERI3
 70
     0
  9
$USERI4
 70
     0
  9
$USERI5
 70
     0
  9
$USERR1
 40
0.0
  9
$USERR2
 40
0.0
  9
$USERR3
 40
0.0
  9
$USERR4
 40
0.0
  9
$USERR5
 40
0.0
  9
$WORLDVIEW
 70
     1
  9
$SHADEDGE
 70
     3
  9
$SHADEDIF
 70
    70
  9
$TILEMODE
 70
     1
  9
$MAXACTVP
 70
    64
  9
$PINSBASE
 10
0.0
 20
0.0
 30
0.0
  9
$PLIMCHECK
 70
     0
  9
$PEXTMIN
 10
0.0
 20
0.0
 30
0.0
  9
$PEXTMAX
 10
0.0
 20
0.0
 30
0.0
  9
$PLIMMIN
 10
0.0
 20
0.0
  9
$PLIMMAX
 10
12.0
 20
9.0
  9
$UNITMODE
 70
     0
  9
$VISRETAIN
 70
     0
  9
$PLINEGEN
 70
     0
  9
$PSLTSCALE
 70
     1
  9
$TREEDEPTH
 70
  3020
  9
$CMLSTYLE
  2
STANDARD
  9
$CMLJUST
 70
     0
  9
$CMLSCALE
 40
20.0
  9
$PROXYGRAPHICS
 70
     1
  9
$MEASUREMENT
 70
     1
  9
$CELWEIGHT
370
    -1
  9
$ENDCAPS
280
     0
  9
$JOINSTYLE
280
     0
  9
$LWDISPLAY
290
     0
  9
$INSUNITS
 70
     4
  9
$HYPERLINKBASE
  1

  9
$STYLESHEET
  1
MONOCHROME.CTB
  9
$XEDIT
290
     1
  9
$CEPSNTYPE
380
     0
  9
$PSTYLEMODE
290
     1
  9
$FINGERPRINTGUID
  2
{2541ECFD-A15C-4867-AF57-EDFAAE528261}
  9
$VERSIONGUID
  2
{38B02143-4EE4-4D09-815E-E3DE89D239C4}
  9
$EXTNAMES
290
     1
  9
$PSVPSCALE
 40
0.0
  9
$OLESTARTUP
290
     0
  0
ENDSEC
  0
SECTION
  2
CLASSES
  0
CLASS
  1
ACDBDICTIONARYWDFLT
  2
AcDbDictionaryWithDefault
  3
ObjectDBX Classes
 90
        0
280
     0
281
     0
  0
CLASS
  1
ACDBPLACEHOLDER
  2
AcDbPlaceHolder
  3
ObjectDBX Classes
 90
        0
280
     0
281
     0
  0
CLASS
  1
LAYOUT
  2
AcDbLayout
  3
ObjectDBX Classes
 90
        0
280
     0
281
     0
  0
CLASS
  1
DICTIONARYVAR
  2
AcDbDictionaryVar
  3
ObjectDBX Classes
 90
        0
280
     0
281
     0
  0
CLASS
  1
TABLESTYLE
  2
AcDbTableStyle
  3
ObjectDBX Classes
 90
     4095
280
     0
281
     0
  0
CLASS
  1
MATERIAL
  2
AcDbMaterial
  3
ObjectDBX Classes
 90
     1153
280
     0
281
     0
  0
CLASS
  1
VISUALSTYLE
  2
AcDbVisualStyle
  3
ObjectDBX Classes
 90
     4095
280
     0
281
     0
  0
CLASS
  1
SCALE
  2
AcDbScale
  3
ObjectDBX Classes
 90
     1153
280
     0
281
     0
  0
CLASS
  1
MLEADERSTYLE
  2
AcDbMLeaderStyle
  3
ACDB_MLEADERSTYLE_CLASS
 90
     4095
280
     0
281
     0
  0
CLASS
  1
CELLSTYLEMAP
  2
AcDbCellStyleMap
  3
ObjectDBX Classes
 90
     1152
280
     0
281
     0
  0
CLASS
  1
SORTENTSTABLE
  2
AcDbSortentsTable
  3
ObjectDBX Classes
 90
        0
280
     0
281
     0
  0
CLASS
  1
ACDBSECTIONVIEWSTYLE
  2
AcDbSectionViewStyle
  3
ObjectDBX Classes
 90
     1025
280
     0
281
     0
  0
CLASS
  1
ACDBDETAILVIEWSTYLE
  2
AcDbDetailViewStyle
  3
ObjectDBX Classes
 90
     1025
280
     0
281
     0
  0
CLASS
  1
EXACXREFPANELOBJECT
  2
ExAcXREFPanelObject
  3
EXAC_ESW
 90
     1025
280
     0
281
     0
  0
CLASS
  1
NPOCOLLECTION
  2
AcDbImpNonPersistentObjectsCollection
  3
ObjectDBX Classes
 90
     1153
280
     0
281
     0
  0
ENDSEC
  0
SECTION
  2
TABLES
  0
TABLE
  2
VPORT
  5
8
330
0
100
AcDbSymbolTable
 70
     1
  0
VPORT
  5
3ED
330
8
100
AcDbSymbolTableRecord
100
AcDbViewportTableRecord
  2
*Active
 70
     0
 10
0.0
 20
0.0
 11
1.0
 21
1.0
 12
14.56633900346503
 22
-0.1087942173573424
 13
0.0
 23
0.0
 14
5.0
 24
5.0
 15
5.0
 25
5.0
 16
0.0
 26
0.0
 36
1.0
 17
0.0
 27
0.0
 37
0.0
 40
92.81088232712077
 41
2.2
 42
50.0
 43
0.0
 44
0.0
 50
0.0
 51
0.0
 71
     0
 72
  2000
 73
     1
 74
     1
 75
     0
 76
     0
 77
     0
 78
     0
281
     0
 65
     1
110
0.0
120
0.0
130
0.0
111
1.0
121
0.0
131
0.0
112
0.0
122
1.0
132
0.0
 79
     0
146
0.0
1001
ACAD_NAV_VCDISPLAY
1070
     3
  0
ENDTAB
  0
TABLE
  2
LTYPE
  5
5
330
0
100
AcDbSymbolTable
 70
    28
  0
LTYPE
  5
12
330
5
100
AcDbSymbolTableRecord
100
AcDbLinetypeTableRecord
  2
BYBLOCK
 70
     0
  3

 72
    65
 73
     0
 40
0.0
  0
LTYPE
  5
13
330
5
100
AcDbSymbolTableRecord
100
AcDbLinetypeTableRecord
  2
BYLAYER
 70
     0
  3

 72
    65
 73
     0
 40
0.0
  0
LTYPE
  5
14
330
5
100
AcDbSymbolTableRecord
100
AcDbLinetypeTableRecord
  2
CONTINUOUS
 70
     0
  3
Solid line
 72
    65
 73
     0
 40
0.0
  0
LTYPE
  5
3BFB8
330
5
100
AcDbSymbolTableRecord
100
AcDbLinetypeTableRecord
  2
BORDER
 70
     0
  3
__ __ . __ __ . __ __ . __ __ . __ __ . __ __ .
 72
    65
 73
     6
 40
44.45
 49
12.7
 74
     0
 49
-6.349999999999997
 74
     0
 49
12.7
 74
     0
 49
-6.349999999999997
 74
     0
 49
0.0
 74
     0
 49
-6.349999999999997
 74
     0
  0
LTYPE
  5
3BFB9
330
5
100
AcDbSymbolTableRecord
100
AcDbLinetypeTableRecord
  2
BORDER2
 70
     0
  3
__.__.__.__.__.__.__.__.__.__.__.__.__.__.__.__
 72
    65
 73
     6
 40
22.225
 49
6.349999999999997
 74
     0
 49
-3.174999999999998
 74
     0
 49
6.349999999999997
 74
     0
 49
-3.174999999999998
 74
     0
 49
0.0
 74
     0
 49
-3.174999999999998
 74
     0
  0
LTYPE
  5
3BFBA
330
5
100
AcDbSymbolTableRecord
100
AcDbLinetypeTableRecord
  2
BORDERX2
 70
     0
  3
____  ____  .  ____  ____  .  ____  ____  .  __
 72
    65
 73
     6
 40
88.9
 49
25.4
 74
     0
 49
-12.7
 74
     0
 49
25.4
 74
     0
 49
-12.7
 74
     0
 49
0.0
 74
     0
 49
-12.7
 74
     0
  0
LTYPE
  5
3BFBB
330
5
100
AcDbSymbolTableRecord
100
AcDbLinetypeTableRecord
  2
CENTER
 70
     0
  3
____ _ ____ _ ____ _ ____ _ ____ _ ____ _ ____ 
 72
    65
 73
     4
 40
50.8
 49
31.75
 74
     0
 49
-6.349999999999997
 74
     0
 49
6.349999999999997
 74
     0
 49
-6.349999999999997
 74
     0
  0
LTYPE
  5
3BFBC
330
5
100
AcDbSymbolTableRecord
100
AcDbLinetypeTableRecord
  2
CENTER2
 70
     0
  3
___ _ ___ _ ___ _ ___ _ ___ _ ___ _ ___ _ ___ _
 72
    65
 73
     4
 40
28.57499999999999
 49
19.05
 74
     0
 49
-3.174999999999998
 74
     0
 49
3.174999999999998
 74
     0
 49
-3.174999999999998
 74
     0
  0
LTYPE
  5
3BFBD
330
5
100
AcDbSymbolTableRecord
100
AcDbLinetypeTableRecord
  2
CENTERX2
 70
     0
  3
________  __  ________  __  ________  __  _____
 72
    65
 73
     4
 40
101.6
 49
63.5
 74
     0
 49
-12.7
 74
     0
 49
12.7
 74
     0
 49
-12.7
 74
     0
  0
LTYPE
  5
3BFBE
330
5
100
AcDbSymbolTableRecord
100
AcDbLinetypeTableRecord
  2
CENTRE
 70
     0
  3
____ _ ____ _ ____ _ ____ _ ____ _ ____ _ ____ 
 72
    65
 73
     4
 40
50.8
 49
31.75
 74
     0
 49
-6.349999999999997
 74
     0
 49
6.349999999999997
 74
     0
 49
-6.349999999999997
 74
     0
  0
LTYPE
  5
3BFBF
330
5
100
AcDbSymbolTableRecord
100
AcDbLinetypeTableRecord
  2
CENTRE2
 70
     0
  3
___ _ ___ _ ___ _ ___ _ ___ _ ___ _ ___ _ ___ _
 72
    65
 73
     4
 40
28.57499999999999
 49
19.05
 74
     0
 49
-3.174999999999998
 74
     0
 49
3.174999999999998
 74
     0
 49
-3.174999999999998
 74
     0
  0
LTYPE
  5
3BFC0
330
5
100
AcDbSymbolTableRecord
100
AcDbLinetypeTableRecord
  2
CENTREX2
 70
     0
  3
________  __  ________  __  ________  __  _____
 72
    65
 73
     4
 40
101.6
 49
63.5
 74
     0
 49
-12.7
 74
     0
 49
12.7
 74
     0
 49
-12.7
 74
     0
  0
LTYPE
  5
3BFC1
330
5
100
AcDbSymbolTableRecord
100
AcDbLinetypeTableRecord
  2
DASHDOT
 70
     0
  3
__ . __ . __ . __ . __ . __ . __ . __ . __ . __
 72
    65
 73
     4
 40
25.4
 49
12.7
 74
     0
 49
-6.349999999999997
 74
     0
 49
0.0
 74
     0
 49
-6.349999999999997
 74
     0
  0
LTYPE
  5
3BFC2
330
5
100
AcDbSymbolTableRecord
100
AcDbLinetypeTableRecord
  2
DASHDOT2
 70
     0
  3
_._._._._._._._._._._._._._._._._._._._._._._._
 72
    65
 73
     4
 40
12.7
 49
6.349999999999997
 74
     0
 49
-3.174999999999998
 74
     0
 49
0.0
 74
     0
 49
-3.174999999999998
 74
     0
  0
LTYPE
  5
3BFC3
330
5
100
AcDbSymbolTableRecord
100
AcDbLinetypeTableRecord
  2
DASHDOTX2
 70
     0
  3
____  .  ____  .  ____  .  ____  .  ____  .  __
 72
    65
 73
     4
 40
50.8
 49
25.4
 74
     0
 49
-12.7
 74
     0
 49
0.0
 74
     0
 49
-12.7
 74
     0
  0
LTYPE
  5
3BFC4
330
5
100
AcDbSymbolTableRecord
100
AcDbLinetypeTableRecord
  2
DASHED
 70
     0
  3
__ __ __ __ __ __ __ __ __ __ __ __ __ __ __ __
 72
    65
 73
     2
 40
19.05
 49
12.7
 74
     0
 49
-6.349999999999997
 74
     0
  0
LTYPE
  5
3BFC5
330
5
100
AcDbSymbolTableRecord
100
AcDbLinetypeTableRecord
  2
DASHED2
 70
     0
  3
_ _ _ _ _ _ _ _ _ _ _ _ _ _ _ _ _ _ _ _ _ _ _ _
 72
    65
 73
     2
 40
9.525
 49
6.349999999999997
 74
     0
 49
-3.174999999999998
 74
     0
  0
LTYPE
  5
3BFC6
330
5
100
AcDbSymbolTableRecord
100
AcDbLinetypeTableRecord
  2
DASHEDX2
 70
     0
  3
____  ____  ____  ____  ____  ____  ____  ____ 
 72
    65
 73
     2
 40
38.1
 49
25.4
 74
     0
 49
-12.7
 74
     0
  0
LTYPE
  5
3BFC7
330
5
100
AcDbSymbolTableRecord
100
AcDbLinetypeTableRecord
  2
DIVIDE
 70
     0
  3
____ . . ____ . . ____ . . ____ . . ____ . . __
 72
    65
 73
     6
 40
31.75
 49
12.7
 74
     0
 49
-6.349999999999997
 74
     0
 49
0.0
 74
     0
 49
-6.349999999999997
 74
     0
 49
0.0
 74
     0
 49
-6.349999999999997
 74
     0
  0
LTYPE
  5
3BFC8
330
5
100
AcDbSymbolTableRecord
100
AcDbLinetypeTableRecord
  2
DIVIDE2
 70
     0
  3
__..__..__..__..__..__..__..__..__..__..__..__.
 72
    65
 73
     6
 40
15.875
 49
6.349999999999997
 74
     0
 49
-3.174999999999998
 74
     0
 49
0.0
 74
     0
 49
-3.174999999999998
 74
     0
 49
0.0
 74
     0
 49
-3.174999999999998
 74
     0
  0
LTYPE
  5
3BFC9
330
5
100
AcDbSymbolTableRecord
100
AcDbLinetypeTableRecord
  2
DIVIDEX2
 70
     0
  3
________  .  .  ________  .  .  ________  .  . 
 72
    65
 73
     6
 40
63.5
 49
25.4
 74
     0
 49
-12.7
 74
     0
 49
0.0
 74
     0
 49
-12.7
 74
     0
 49
0.0
 74
     0
 49
-12.7
 74
     0
  0
LTYPE
  5
3BFCA
330
5
100
AcDbSymbolTableRecord
100
AcDbLinetypeTableRecord
  2
DOT
 70
     0
  3
. . . . . . . . . . . . . . . . . . . . . . . .
 72
    65
 73
     2
 40
6.349999999999997
 49
0.0
 74
     0
 49
-6.349999999999997
 74
     0
  0
LTYPE
  5
3BFCB
330
5
100
AcDbSymbolTableRecord
100
AcDbLinetypeTableRecord
  2
DOT2
 70
     0
  3
...............................................
 72
    65
 73
     2
 40
3.174999999999998
 49
0.0
 74
     0
 49
-3.174999999999998
 74
     0
  0
LTYPE
  5
3BFCC
330
5
100
AcDbSymbolTableRecord
100
AcDbLinetypeTableRecord
  2
DOTX2
 70
     0
  3
.  .  .  .  .  .  .  .  .  .  .  .  .  .  .  . 
 72
    65
 73
     2
 40
12.7
 49
0.0
 74
     0
 49
-12.7
 74
     0
  0
LTYPE
  5
3BFCD
330
5
100
AcDbSymbolTableRecord
100
AcDbLinetypeTableRecord
  2
HIDDEN
 70
     0
  3
__ __ __ __ __ __ __ __ __ __ __ __ __ __ __ __
 72
    65
 73
     2
 40
9.525
 49
6.349999999999997
 74
     0
 49
-3.174999999999998
 74
     0
  0
LTYPE
  5
3BFCE
330
5
100
AcDbSymbolTableRecord
100
AcDbLinetypeTableRecord
  2
HIDDEN2
 70
     0
  3
_ _ _ _ _ _ _ _ _ _ _ _ _ _ _ _ _ _ _ _ _ _ _ _
 72
    65
 73
     2
 40
4.7625
 49
3.174999999999998
 74
     0
 49
-1.587499999999999
 74
     0
  0
LTYPE
  5
3BFCF
330
5
100
AcDbSymbolTableRecord
100
AcDbLinetypeTableRecord
  2
HIDDENX2
 70
     0
  3
____ ____ ____ ____ ____ ____ ____ ____ ____ __
 72
    65
 73
     2
 40
19.05
 49
12.7
 74
     0
 49
-6.349999999999997
 74
     0
  0
LTYPE
  5
3BFD0
330
5
100
AcDbSymbolTableRecord
100
AcDbLinetypeTableRecord
  2
PHANTOM
 70
     0
  3
______  __  __  ______  __  __  ______  __  __ 
 72
    65
 73
     6
 40
63.5
 49
31.75
 74
     0
 49
-6.349999999999997
 74
     0
 49
6.349999999999997
 74
     0
 49
-6.349999999999997
 74
     0
 49
6.349999999999997
 74
     0
 49
-6.349999999999997
 74
     0
  0
LTYPE
  5
3BFD1
330
5
100
AcDbSymbolTableRecord
100
AcDbLinetypeTableRecord
  2
PHANTOM2
 70
     0
  3
___ _ _ ___ _ _ ___ _ _ ___ _ _ ___ _ _ ___ _ _
 72
    65
 73
     6
 40
31.75
 49
15.875
 74
     0
 49
-3.174999999999998
 74
     0
 49
3.174999999999998
 74
     0
 49
-3.174999999999998
 74
     0
 49
3.174999999999998
 74
     0
 49
-3.174999999999998
 74
     0
  0
LTYPE
  5
3BFD2
330
5
100
AcDbSymbolTableRecord
100
AcDbLinetypeTableRecord
  2
PHANTOMX2
 70
     0
  3
____________    ____    ____    ____________   
 72
    65
 73
     6
 40
127.0
 49
63.5
 74
     0
 49
-12.7
 74
     0
 49
12.7
 74
     0
 49
-12.7
 74
     0
 49
12.7
 74
     0
 49
-12.7
 74
     0
  0
ENDTAB
  0
TABLE
  2
LAYER
  5
2
330
0
100
AcDbSymbolTable
 70
    25
  0
LAYER
  5
F
102
{ACAD_XDICTIONARY
360
3C263
102
}
330
2
100
AcDbSymbolTableRecord
100
AcDbLayerTableRecord
  2
0
 70
     0
 62
     7
  6
CONTINUOUS
370
    -3
390
300
  0
LAYER
  5
23
102
{ACAD_XDICTIONARY
360
3C265
102
}
330
2
100
AcDbSymbolTableRecord
100
AcDbLayerTableRecord
  2
1
 70
     0
 62
     4
  6
CONTINUOUS
370
    -3
390
300
  0
LAYER
  5
3BFD3
102
{ACAD_XDICTIONARY
360
3C267
102
}
330
2
100
AcDbSymbolTableRecord
100
AcDbLayerTableRecord
  2
2
 70
     0
 62
     7
  6
CONTINUOUS
370
    -3
390
300
  0
LAYER
  5
3BFD4
330
2
100
AcDbSymbolTableRecord
100
AcDbLayerTableRecord
  2
DEFPOINTS
 70
     0
 62
     7
  6
CONTINUOUS
290
     0
370
    -3
390
300
  0
LAYER
  5
3BFD5
102
{ACAD_XDICTIONARY
360
3C269
102
}
330
2
100
AcDbSymbolTableRecord
100
AcDbLayerTableRecord
  2
IGES_FRZ
 70
     0
 62
     7
  6
CONTINUOUS
370
    -3
390
300
  0
LAYER
  5
3BFD6
102
{ACAD_XDICTIONARY
360
3C26B
102
}
330
2
100
AcDbSymbolTableRecord
100
AcDbLayerTableRecord
  2
95
 70
     0
 62
     7
  6
CONTINUOUS
370
    -3
390
300
  0
LAYER
  5
3BFD7
102
{ACAD_XDICTIONARY
360
3C26D
102
}
330
2
100
AcDbSymbolTableRecord
100
AcDbLayerTableRecord
  2
95_TOP
 70
     0
 62
     7
  6
CONTINUOUS
370
    -3
390
300
  0
LAYER
  5
3BFD8
102
{ACAD_XDICTIONARY
360
3C26F
102
}
330
2
100
AcDbSymbolTableRecord
100
AcDbLayerTableRecord
  2
91
 70
     0
 62
     7
  6
CONTINUOUS
370
    -3
390
300
  0
LAYER
  5
3BFD9
102
{ACAD_XDICTIONARY
360
3C271
102
}
330
2
100
AcDbSymbolTableRecord
100
AcDbLayerTableRecord
  2
91_TOP
 70
     0
 62
     7
  6
CONTINUOUS
370
    -3
390
300
  0
LAYER
  5
3BFDA
102
{ACAD_XDICTIONARY
360
3C273
102
}
330
2
100
AcDbSymbolTableRecord
100
AcDbLayerTableRecord
  2
90
 70
     0
 62
     7
  6
CONTINUOUS
370
    -3
390
300
  0
LAYER
  5
3BFDB
102
{ACAD_XDICTIONARY
360
3C275
102
}
330
2
100
AcDbSymbolTableRecord
100
AcDbLayerTableRecord
  2
90_TOP
 70
     0
 62
     7
  6
CONTINUOUS
370
    -3
390
300
  0
LAYER
  5
3BFDC
102
{ACAD_XDICTIONARY
360
3C277
102
}
330
2
100
AcDbSymbolTableRecord
100
AcDbLayerTableRecord
  2
IGES
 70
     0
 62
     7
  6
CONTINUOUS
370
    -3
390
300
  0
LAYER
  5
3BFDD
102
{ACAD_XDICTIONARY
360
3C279
102
}
330
2
100
AcDbSymbolTableRecord
100
AcDbLayerTableRecord
  2
11
 70
     0
 62
     4
  6
CONTINUOUS
370
    -3
390
300
  0
LAYER
  5
3BFDE
102
{ACAD_XDICTIONARY
360
3C27B
102
}
330
2
100
AcDbSymbolTableRecord
100
AcDbLayerTableRecord
  2
20
 70
     0
 62
     7
  6
CONTINUOUS
370
    -3
390
300
  0
LAYER
  5
3BFDF
102
{ACAD_XDICTIONARY
360
3C27D
102
}
330
2
100
AcDbSymbolTableRecord
100
AcDbLayerTableRecord
  2
12
 70
     0
 62
     7
  6
CONTINUOUS
370
    -3
390
300
  0
LAYER
  5
3BFE0
102
{ACAD_XDICTIONARY
360
3C27F
102
}
330
2
100
AcDbSymbolTableRecord
100
AcDbLayerTableRecord
  2
3
 70
     0
 62
     1
  6
HIDDEN
370
    -3
390
300
  0
LAYER
  5
3BFE1
102
{ACAD_XDICTIONARY
360
3C281
102
}
330
2
100
AcDbSymbolTableRecord
100
AcDbLayerTableRecord
  2
13
 70
     0
 62
     1
  6
HIDDEN
370
    -3
390
300
  0
LAYER
  5
3BFE2
102
{ACAD_XDICTIONARY
360
3C283
102
}
330
2
100
AcDbSymbolTableRecord
100
AcDbLayerTableRecord
  2
4
 70
     0
 62
     2
  6
CENTER
370
    -3
390
300
  0
LAYER
  5
3BFE3
102
{ACAD_XDICTIONARY
360
3C285
102
}
330
2
100
AcDbSymbolTableRecord
100
AcDbLayerTableRecord
  2
14
 70
     0
 62
     2
  6
CENTER
370
    -3
390
300
  0
LAYER
  5
3BFE4
102
{ACAD_XDICTIONARY
360
3C287
102
}
330
2
100
AcDbSymbolTableRecord
100
AcDbLayerTableRecord
  2
5
 70
     0
 62
    -7
  6
CONTINUOUS
370
    -3
390
300
  0
LAYER
  5
3BFE5
102
{ACAD_XDICTIONARY
360
3C289
102
}
330
2
100
AcDbSymbolTableRecord
100
AcDbLayerTableRecord
  2
6
 70
     0
 62
     5
  6
CONTINUOUS
370
    -3
390
300
  0
LAYER
  5
3BFE6
102
{ACAD_XDICTIONARY
360
3C28B
102
}
330
2
100
AcDbSymbolTableRecord
100
AcDbLayerTableRecord
  2
16
 70
     0
 62
     5
  6
CONTINUOUS
370
    -3
390
300
  0
LAYER
  5
3BFE7
102
{ACAD_XDICTIONARY
360
3C28D
102
}
330
2
100
AcDbSymbolTableRecord
100
AcDbLayerTableRecord
  2
80
 70
     0
 62
     2
  6
CENTER
370
    -3
390
300
  0
LAYER
  5
3BFE8
102
{ACAD_XDICTIONARY
360
3C28F
102
}
330
2
100
AcDbSymbolTableRecord
100
AcDbLayerTableRecord
  2
81
 70
     0
 62
     2
  6
CENTER
370
    -3
390
300
  0
LAYER
  5
3BFE9
102
{ACAD_XDICTIONARY
360
3C291
102
}
330
2
100
AcDbSymbolTableRecord
100
AcDbLayerTableRecord
  2
82
 70
     0
 62
     2
  6
CENTER
370
    -3
390
300
  0
ENDTAB
  0
TABLE
  2
STYLE
  5
3
330
0
100
AcDbSymbolTable
 70
     5
  0
STYLE
  5
10
330
3
100
AcDbSymbolTableRecord
100
AcDbTextStyleTableRecord
  2
STANDARD
 70
     0
 40
0.0
 41
1.0
 50
0.0
 71
     0
 42
5.0
  3
txt
  4

  0
STYLE
  5
1E
330
3
100
AcDbSymbolTableRecord
100
AcDbTextStyleTableRecord
  2
SIMPLEX
 70
     0
 40
0.0
 41
1.0
 50
0.0
 71
     0
 42
3.5
  3
simplex
  4

  0
STYLE
  5
3BFEA
330
3
100
AcDbSymbolTableRecord
100
AcDbTextStyleTableRecord
  2
Annotative
 70
     0
 40
0.0
 41
1.0
 50
0.0
 71
     0
 42
0.2
  3
txt
  4

1001
AcadAnnotative
1000
AnnotativeData
1002
{
1070
     1
1070
     1
1002
}
  0
STYLE
  5
3BFEB
330
3
100
AcDbSymbolTableRecord
100
AcDbTextStyleTableRecord
  2
TDM_STYLE
 70
     0
 40
0.0
 41
1.0
 50
0.0
 71
     0
 42
0.2
  3
txt
  4

  0
STYLE
  5
3BFEC
330
3
100
AcDbSymbolTableRecord
100
AcDbTextStyleTableRecord
  2
SANDVIK_STYLE
 70
     0
 40
4.57
 41
1.0
 50
15.0
 71
     0
 42
4.57
  3
simplex.shx
  4

  0
ENDTAB
  0
TABLE
  2
VIEW
  5
6
330
0
100
AcDbSymbolTable
 70
     0
  0
ENDTAB
  0
TABLE
  2
UCS
  5
7
330
0
100
AcDbSymbolTable
 70
     0
  0
ENDTAB
  0
TABLE
  2
APPID
  5
9
330
0
100
AcDbSymbolTable
 70
    11
  0
APPID
  5
11
330
9
100
AcDbSymbolTableRecord
100
AcDbRegAppTableRecord
  2
ACAD
 70
     0
  0
APPID
  5
3A6
330
9
100
AcDbSymbolTableRecord
100
AcDbRegAppTableRecord
  2
ACAD_PSEXT
 70
     0
  0
APPID
  5
3A8
330
9
100
AcDbSymbolTableRecord
100
AcDbRegAppTableRecord
  2
ACAD_EXEMPT_FROM_CAD_STANDARDS
 70
     0
  0
APPID
  5
43E
330
9
100
AcDbSymbolTableRecord
100
AcDbRegAppTableRecord
  2
ACAD_MLEADERVER
 70
     0
  0
APPID
  5
454
330
9
100
AcDbSymbolTableRecord
100
AcDbRegAppTableRecord
  2
ACAD_DSTYLE_DIMJAG
 70
     0
  0
APPID
  5
455
330
9
100
AcDbSymbolTableRecord
100
AcDbRegAppTableRecord
  2
ACAD_DSTYLE_DIMBREAK
 70
     0
  0
APPID
  5
456
330
9
100
AcDbSymbolTableRecord
100
AcDbRegAppTableRecord
  2
ACAD_DSTYLE_DIMTALN
 70
     0
  0
APPID
  5
58A
330
9
100
AcDbSymbolTableRecord
100
AcDbRegAppTableRecord
  2
AcadAnnotative
 70
     0
  0
APPID
  5
58B
330
9
100
AcDbSymbolTableRecord
100
AcDbRegAppTableRecord
  2
ACADIGES
 70
     0
  0
APPID
  5
58C
330
9
100
AcDbSymbolTableRecord
100
AcDbRegAppTableRecord
  2
ACAD_DSTYLE_DIMJOGGED_JOGANGLE_SYMBOL
 70
     0
  0
APPID
  5
3C296
330
9
100
AcDbSymbolTableRecord
100
AcDbRegAppTableRecord
  2
ACAD_NAV_VCDISPLAY
 70
     0
  0
ENDTAB
  0
TABLE
  2
DIMSTYLE
  5
A
330
0
100
AcDbSymbolTable
 70
     5
100
AcDbDimStyleTable
 71
     1
340
457
  0
DIMSTYLE
105
457
102
{ACAD_REACTORS
330
3C1C7
330
3C1C6
330
3C1C5
330
3C1C4
102
}
330
A
100
AcDbSymbolTableRecord
100
AcDbDimStyleTableRecord
  2
SANDVIK_STYLE
 70
     0
 41
2.5
 42
0.0
 43
3.75
 44
1.25
 73
     0
 74
     0
 77
     1
 78
     8
 79
     2
140
3.5
141
0.0
143
0.039370078
147
0.625
171
     3
179
     2
271
     2
272
     2
274
     3
283
     0
284
     8
340
1E
1001
ACAD_DSTYLE_DIMBREAK
1070
   391
1040
3.75
1001
ACAD_DSTYLE_DIMJAG
1070
   388
1040
1.5
1001
ACAD_DSTYLE_DIMTALN
1070
   392
1070
     0
  0
DIMSTYLE
105
3BFED
330
A
100
AcDbSymbolTableRecord
100
AcDbDimStyleTableRecord
  2
ISO-25
 70
     0
 41
2.5
 42
0.625
 43
3.75
 44
1.25
 73
     0
 74
     0
 77
     1
 78
     8
140
2.5
141
2.5
143
0.03937007874016
147
0.625
171
     3
172
     1
271
     2
272
     2
274
     3
278
    44
283
     0
284
     8
340
10
1001
ACAD_DSTYLE_DIMJOGGED_JOGANGLE_SYMBOL
1070
   384
1040
1.570796326794896
  0
DIMSTYLE
105
3BFEE
330
A
100
AcDbSymbolTableRecord
100
AcDbDimStyleTableRecord
  2
STANDARD
 70
     0
 41
3.0
 42
2.5
 43
10.0
 44
2.5
 46
1.25
 73
     0
 74
     0
140
3.0
141
-3.0
143
0.039
145
1.5
146
0.75
147
1.5
271
     2
272
     2
279
     2
340
3BFEB
  0
DIMSTYLE
105
3BFEF
330
A
100
AcDbSymbolTableRecord
100
AcDbDimStyleTableRecord
  2
Annotative
 70
     0
340
10
1001
AcadAnnotative
1000
AnnotativeData
1002
{
1070
     1
1070
     1
1002
}
  0
DIMSTYLE
105
3BFF0
330
A
100
AcDbSymbolTableRecord
100
AcDbDimStyleTableRecord
  2
SANDVIK_DIM
 70
     0
 41
3.0
 42
2.5
 43
10.0
 44
2.5
 46
1.25
 73
     0
 74
     0
140
3.0
141
-3.0
143
0.039
145
1.5
146
0.75
147
1.5
176
   256
177
   256
178
   256
271
     2
272
     2
279
     2
340
3BFEB
  0
ENDTAB
  0
TABLE
  2
BLOCK_RECORD
  5
1
330
0
100
AcDbSymbolTable
 70
    23
  0
BLOCK_RECORD
  5
18
330
1
100
AcDbSymbolTableRecord
100
AcDbBlockTableRecord
  2
*MODEL_SPACE
340
303
  0
BLOCK_RECORD
  5
338
330
1
100
AcDbSymbolTableRecord
100
AcDbBlockTableRecord
  2
*Paper_Space
340
33B
  0
BLOCK_RECORD
  5
3BEC3
330
1
100
AcDbSymbolTableRecord
100
AcDbBlockTableRecord
  2
$MODEL_SPACE
340
0
  0
BLOCK_RECORD
  5
3BEC6
330
1
100
AcDbSymbolTableRecord
100
AcDbBlockTableRecord
  2
$PAPER_SPACE
340
0
  0
BLOCK_RECORD
  5
3BEC9
330
1
100
AcDbSymbolTableRecord
100
AcDbBlockTableRecord
  2
IGES_214_02
340
0
102
{BLKREFS
331
3BED1
331
3BED3
331
3BEDB
331
3BEDD
331
3BEE5
331
3BEE7
331
3BEEF
331
3BEF1
102
}
  0
BLOCK_RECORD
  5
3BECE
330
1
100
AcDbSymbolTableRecord
100
AcDbBlockTableRecord
  2
*U3
340
0
  0
BLOCK_RECORD
  5
3BED8
330
1
100
AcDbSymbolTableRecord
100
AcDbBlockTableRecord
  2
*U4
340
0
  0
BLOCK_RECORD
  5
3BEE2
330
1
100
AcDbSymbolTableRecord
100
AcDbBlockTableRecord
  2
*U5
340
0
  0
BLOCK_RECORD
  5
3BEEC
330
1
100
AcDbSymbolTableRecord
100
AcDbBlockTableRecord
  2
*U6
340
0
  0
BLOCK_RECORD
  5
3BEF6
330
1
100
AcDbSymbolTableRecord
100
AcDbBlockTableRecord
  2
DVIEWBLOCK
340
0
  0
BLOCK_RECORD
  5
3BF0C
330
1
100
AcDbSymbolTableRecord
100
AcDbBlockTableRecord
  2
*D8
340
0
  0
BLOCK_RECORD
  5
3BF18
330
1
100
AcDbSymbolTableRecord
100
AcDbBlockTableRecord
  2
*D9
340
0
  0
BLOCK_RECORD
  5
3BF24
330
1
100
AcDbSymbolTableRecord
100
AcDbBlockTableRecord
  2
*D10
340
0
  0
BLOCK_RECORD
  5
3BF30
330
1
100
AcDbSymbolTableRecord
100
AcDbBlockTableRecord
  2
*D11
340
0
  0
BLOCK_RECORD
  5
3BF3F
330
1
100
AcDbSymbolTableRecord
100
AcDbBlockTableRecord
  2
*D12
340
0
  0
BLOCK_RECORD
  5
3BF4B
330
1
100
AcDbSymbolTableRecord
100
AcDbBlockTableRecord
  2
*U13
340
0
102
{BLKREFS
331
3BF44
102
}
  0
BLOCK_RECORD
  5
3BF50
330
1
100
AcDbSymbolTableRecord
100
AcDbBlockTableRecord
  2
*D14
340
0
  0
BLOCK_RECORD
  5
3BF5C
330
1
100
AcDbSymbolTableRecord
100
AcDbBlockTableRecord
  2
*D15
340
0
  0
BLOCK_RECORD
  5
3BF68
330
1
100
AcDbSymbolTableRecord
100
AcDbBlockTableRecord
  2
*D16
340
0
  0
BLOCK_RECORD
  5
3BF77
330
1
100
AcDbSymbolTableRecord
100
AcDbBlockTableRecord
  2
*D17
340
0
  0
BLOCK_RECORD
  5
3BF83
330
1
100
AcDbSymbolTableRecord
100
AcDbBlockTableRecord
  2
*D18
340
0
  0
BLOCK_RECORD
  5
3BF8F
330
1
100
AcDbSymbolTableRecord
100
AcDbBlockTableRecord
  2
*D19
340
0
  0
BLOCK_RECORD
  5
3BF9C
330
1
100
AcDbSymbolTableRecord
100
AcDbBlockTableRecord
  2
*D20
340
0
  0
BLOCK_RECORD
  5
3BFAB
102
{ACAD_XDICTIONARY
360
3BFAC
102
}
330
1
100
AcDbSymbolTableRecord
100
AcDbBlockTableRecord
  2
_Zeropoint.dwg
340
0
102
{BLKREFS
331
3BFB6
102
}
  0
BLOCK_RECORD
  5
3BFB4
330
1
100
AcDbSymbolTableRecord
100
AcDbBlockTableRecord
  2
_nullpunkt
340
0
102
{BLKREFS
331
3C1CA
102
}
1001
ACAD
1000
DesignCenter Data
1002
{
1070
     1
1070
     4
1002
}
  0
ENDTAB
  0
ENDSEC
  0
SECTION
  2
BLOCKS
  0
BLOCK
  5
32
330
18
100
AcDbEntity
  8
0
100
AcDbBlockBegin
  2
*MODEL_SPACE
 70
     0
 10
0.0
 20
0.0
 30
0.0
  3
*MODEL_SPACE
  1

  0
ENDBLK
  5
33
330
18
100
AcDbEntity
  8
0
100
AcDbBlockEnd
  0
BLOCK
  5
339
330
338
100
AcDbEntity
 67
     1
  8
0
100
AcDbBlockBegin
  2
*Paper_Space
 70
     0
 10
0.0
 20
0.0
 30
0.0
  3
*Paper_Space
  1

  0
ENDBLK
  5
33A
330
338
100
AcDbEntity
 67
     1
  8
0
100
AcDbBlockEnd
  0
BLOCK
  5
3BEC4
330
3BEC3
100
AcDbEntity
  8
0
100
AcDbBlockBegin
  2
$MODEL_SPACE
 70
     0
 10
0.0
 20
0.0
 30
0.0
  3
$MODEL_SPACE
  1

  0
ENDBLK
  5
3BEC5
330
3BEC3
100
AcDbEntity
  8
0
100
AcDbBlockEnd
  0
BLOCK
  5
3BEC7
330
3BEC6
100
AcDbEntity
  8
0
100
AcDbBlockBegin
  2
$PAPER_SPACE
 70
     0
 10
0.0
 20
0.0
 30
0.0
  3
$PAPER_SPACE
  1

  0
ENDBLK
  5
3BEC8
330
3BEC6
100
AcDbEntity
  8
0
100
AcDbBlockEnd
  0
BLOCK
  5
3BECA
330
3BEC9
100
AcDbEntity
  8
0
100
AcDbBlockBegin
  2
IGES_214_02
 70
     0
 10
0.0
 20
0.0
 30
0.0
  3
IGES_214_02
  1

  0
LWPOLYLINE
  5
3BECB
330
3BEC9
100
AcDbEntity
  8
0
100
AcDbPolyline
 90
        3
 70
     1
 43
0.0
 10
-1.0
 20
0.5
 10
0.0
 20
0.0
 10
-1.0
 20
-0.5
  0
LINE
  5
3BECC
330
3BEC9
100
AcDbEntity
  8
0
100
AcDbLine
 10
0.0
 20
0.0
 30
0.0
 11
-1.0
 21
0.0
 31
0.0
  0
ENDBLK
  5
3BECD
330
3BEC9
100
AcDbEntity
  8
0
100
AcDbBlockEnd
  0
BLOCK
  5
3BECF
330
3BECE
100
AcDbEntity
  8
0
100
AcDbBlockBegin
  2
*U3
 70
     1
 10
0.0
 20
0.0
 30
0.0
  3
*U3
  1
*IGES
  0
TEXT
  5
3BED0
330
3BECE
100
AcDbEntity
  8
12
100
AcDbText
 10
-23.57137499999999
 20
73.16475799999998
 30
0.0
 40
3.0
  1
%%c40
 41
0.8998509245283008
  7
SANDVIK_STYLE
 72
     5
 11
-16.758218
 21
73.16475799999998
 31
0.0
100
AcDbText
  0
INSERT
  5
3BED1
330
3BECE
100
AcDbEntity
  8
12
100
AcDbBlockReference
  2
IGES_214_02
 10
-40.164796
 20
71.66475799999997
 30
0.0
 41
3.0
 43
3.0
 50
180.0
  0
LINE
  5
3BED2
330
3BECE
100
AcDbEntity
  8
12
100
AcDbLine
 10
-37.164796
 20
71.66475799999997
 30
0.0
 11
-20.16479599999999
 21
71.66475799999997
 31
0.0
  0
INSERT
  5
3BED3
330
3BECE
100
AcDbEntity
  8
12
100
AcDbBlockReference
  2
IGES_214_02
 10
-0.164796
 20
71.66475799999997
 30
0.0
 41
3.0
 43
3.0
  0
LINE
  5
3BED4
330
3BECE
100
AcDbEntity
  8
12
100
AcDbLine
 10
-3.164795999999998
 20
71.66475799999997
 30
0.0
 11
-20.16479599999999
 21
71.66475799999997
 31
0.0
  0
LINE
  5
3BED5
330
3BECE
100
AcDbEntity
  8
12
100
AcDbLine
 10
-40.164796
 20
44.664758
 30
0.0
 11
-40.164796
 21
74.66475799999997
 31
0.0
  0
LINE
  5
3BED6
330
3BECE
100
AcDbEntity
  8
12
100
AcDbLine
 10
-0.164796
 20
44.664758
 30
0.0
 11
-0.164796
 21
74.66475799999997
 31
0.0
  0
ENDBLK
  5
3BED7
330
3BECE
100
AcDbEntity
  8
0
100
AcDbBlockEnd
  0
BLOCK
  5
3BED9
330
3BED8
100
AcDbEntity
  8
0
100
AcDbBlockBegin
  2
*U4
 70
     1
 10
0.0
 20
0.0
 30
0.0
  3
*U4
  1
*IGES
  0
TEXT
  5
3BEDA
330
3BED8
100
AcDbEntity
  8
20
100
AcDbText
 10
-35.456902
 20
-21.835242
 30
0.0
 40
3.0
  1
27
 41
0.7379257941176493
  7
SANDVIK_STYLE
 72
     5
 11
-31.87269099999999
 21
-21.835242
 31
0.0
100
AcDbText
  0
INSERT
  5
3BEDB
330
3BED8
100
AcDbEntity
  8
20
100
AcDbBlockReference
  2
IGES_214_02
 10
-47.164796
 20
-23.335242
 30
0.0
 41
3.0
 43
3.0
 50
180.0
  0
LINE
  5
3BEDC
330
3BED8
100
AcDbEntity
  8
20
100
AcDbLine
 10
-44.164796
 20
-23.335242
 30
0.0
 11
-33.664796
 21
-23.335242
 31
0.0
  0
INSERT
  5
3BEDD
330
3BED8
100
AcDbEntity
  8
20
100
AcDbBlockReference
  2
IGES_214_02
 10
-20.16479599999999
 20
-23.335242
 30
0.0
 41
3.0
 43
3.0
  0
LINE
  5
3BEDE
330
3BED8
100
AcDbEntity
  8
20
100
AcDbLine
 10
-23.164796
 20
-23.335242
 30
0.0
 11
-33.664796
 21
-23.335242
 31
0.0
  0
LINE
  5
3BEDF
330
3BED8
100
AcDbEntity
  8
20
100
AcDbLine
 10
-47.164796
 20
-8.335241999999999
 30
0.0
 11
-47.164796
 21
-26.335242
 31
0.0
  0
LINE
  5
3BEE0
330
3BED8
100
AcDbEntity
  8
20
100
AcDbLine
 10
-20.16479599999999
 20
-13.335242
 30
0.0
 11
-20.16479599999999
 21
-26.335242
 31
0.0
  0
ENDBLK
  5
3BEE1
330
3BED8
100
AcDbEntity
  8
0
100
AcDbBlockEnd
  0
BLOCK
  5
3BEE3
330
3BEE2
100
AcDbEntity
  8
0
100
AcDbBlockBegin
  2
*U5
 70
     1
 10
0.0
 20
0.0
 30
0.0
  3
*U5
  1
*IGES
  0
TEXT
  5
3BEE4
330
3BEE2
100
AcDbEntity
  8
20
100
AcDbText
 10
19.835204
 20
16.372653
 30
0.0
 40
3.0
  1
50
 50
90.0
 41
0.7379257941176478
  7
SANDVIK_STYLE
 72
     5
 11
19.835204
 21
19.956864
 31
0.0
100
AcDbText
  0
INSERT
  5
3BEE5
330
3BEE2
100
AcDbEntity
  8
20
100
AcDbBlockReference
  2
IGES_214_02
 10
21.335204
 20
43.164758
 30
0.0
 41
3.0
 43
3.0
 50
90.0
  0
LINE
  5
3BEE6
330
3BEE2
100
AcDbEntity
  8
20
100
AcDbLine
 10
21.335204
 20
40.164758
 30
0.0
 11
21.335204
 21
18.164758
 31
0.0
  0
INSERT
  5
3BEE7
330
3BEE2
100
AcDbEntity
  8
20
100
AcDbBlockReference
  2
IGES_214_02
 10
21.335204
 20
-6.835242
 30
0.0
 41
3.0
 43
3.0
 50
270.0
  0
LINE
  5
3BEE8
330
3BEE2
100
AcDbEntity
  8
20
100
AcDbLine
 10
21.335204
 20
-3.835242
 30
0.0
 11
21.335204
 21
18.164758
 31
0.0
  0
LINE
  5
3BEE9
330
3BEE2
100
AcDbEntity
  8
20
100
AcDbLine
 10
1.335204
 20
43.164758
 30
0.0
 11
24.335204
 21
43.164758
 31
0.0
  0
LINE
  5
3BEEA
330
3BEE2
100
AcDbEntity
  8
20
100
AcDbLine
 10
-45.564796
 20
-6.835242
 30
0.0
 11
24.335204
 21
-6.835242
 31
0.0
  0
ENDBLK
  5
3BEEB
330
3BEE2
100
AcDbEntity
  8
0
100
AcDbBlockEnd
  0
BLOCK
  5
3BEED
330
3BEEC
100
AcDbEntity
  8
0
100
AcDbBlockBegin
  2
*U6
 70
     1
 10
0.0
 20
0.0
 30
0.0
  3
*U6
  1
*IGES
  0
TEXT
  5
3BEEE
330
3BEEC
100
AcDbEntity
  8
20
100
AcDbText
 10
-60.68129899999998
 20
-0.145339
 30
0.0
 40
3.0
  1
94%%d41'
 50
42.65425689246717
 41
0.88035496794236
  7
SANDVIK_STYLE
 72
     5
 11
-52.726764
 21
7.183144999999997
 31
0.0
100
AcDbText
  0
INSERT
  5
3BEEF
330
3BEEC
100
AcDbEntity
  8
20
100
AcDbBlockReference
  2
IGES_214_02
 10
-46.135992
 20
5.701154999999999
 30
0.0
 41
3.0
 43
3.0
 50
2.141074
  0
ARC
  5
3BEF0
330
3BEEC
100
AcDbEntity
  8
20
100
AcDbCircle
 10
-47.164796
 20
-6.835242
 30
0.0
 40
12.578541
100
AcDbArc
 50
98.97363599999998
 51
132.654255
  0
INSERT
  5
3BEF1
330
3BEEC
100
AcDbEntity
  8
20
100
AcDbBlockReference
  2
IGES_214_02
 10
-59.74333699999998
 20
-6.835242
 30
0.0
 41
3.0
 43
3.0
 50
263.167437
  0
ARC
  5
3BEF2
330
3BEEC
100
AcDbEntity
  8
20
100
AcDbCircle
 10
-47.164796
 20
-6.835242
 30
0.0
 40
12.578541
100
AcDbArc
 50
132.654255
 51
166.3348739999999
  0
LINE
  5
3BEF3
330
3BEEC
100
AcDbEntity
  8
20
100
AcDbLine
 10
-46.473139
 20
1.592879999999999
 30
0.0
 11
-45.89062
 21
8.691103999999999
 31
0.0
  0
LINE
  5
3BEF4
330
3BEEC
100
AcDbEntity
  8
20
100
AcDbLine
 10
-48.664796
 20
-6.835242
 30
0.0
 11
-62.74333699999999
 21
-6.835242
 31
0.0
  0
ENDBLK
  5
3BEF5
330
3BEEC
100
AcDbEntity
  8
0
100
AcDbBlockEnd
  0
BLOCK
  5
3BEF7
330
3BEF6
100
AcDbEntity
  8
0
100
AcDbBlockBegin
  2
DVIEWBLOCK
 70
     0
 10
0.0
 20
0.0
 30
0.0
  3
DVIEWBLOCK
  1

  0
3DFACE
  5
3BEF8
330
3BEF6
100
AcDbEntity
  8
IGES
100
AcDbFace
 10
0.1
 20
0.1
 30
0.0
 11
0.9
 21
0.1
 31
0.0
 12
0.9
 22
0.9
 32
0.0
 13
0.1
 23
0.9
 33
0.0
  0
3DFACE
  5
3BEF9
330
3BEF6
100
AcDbEntity
  8
IGES
100
AcDbFace
 10
0.1
 20
0.1
 30
0.0
 11
0.1
 21
0.1
 31
0.595
 12
0.2
 22
0.1
 32
0.4
 13
0.2
 23
0.1
 33
0.0
 70
    10
  0
3DFACE
  5
3BEFA
330
3BEF6
100
AcDbEntity
  8
IGES
100
AcDbFace
 10
0.2
 20
0.1
 30
0.4
 11
0.1
 21
0.1
 31
0.595
 12
0.9
 22
0.1
 32
0.595
 13
0.4
 23
0.1
 33
0.4
 70
     5
  0
3DFACE
  5
3BEFB
330
3BEF6
100
AcDbEntity
  8
IGES
100
AcDbFace
 10
0.4
 20
0.1
 30
0.0
 11
0.4
 21
0.1
 31
0.4
 12
0.9
 22
0.1
 32
0.595
 13
0.9
 23
0.1
 33
0.0
 70
    14
  0
3DFACE
  5
3BEFC
330
3BEF6
100
AcDbEntity
  8
IGES
100
AcDbFace
 10
0.2
 20
0.1
 30
0.005
 11
0.2
 21
0.1
 31
0.4
 12
0.34
 22
0.24
 32
0.4
 13
0.34
 23
0.24
 33
0.005
 70
     1
  0
3DFACE
  5
3BEFD
330
3BEF6
100
AcDbEntity
  8
IGES
100
AcDbFace
 10
0.9
 20
0.1
 30
0.0
 11
0.9
 21
0.1
 31
0.595
 12
0.9
 22
0.5
 32
0.9949999999999999
 13
0.9
 23
0.3
 33
0.4
 70
    12
  0
3DFACE
  5
3BEFE
330
3BEF6
100
AcDbEntity
  8
IGES
100
AcDbFace
 10
0.9
 20
0.3
 30
0.4
 11
0.9
 21
0.5
 31
0.9949999999999999
 12
0.9
 22
0.9
 32
0.595
 13
0.9
 23
0.7
 33
0.4
 70
     5
  0
3DFACE
  5
3BEFF
330
3BEF6
100
AcDbEntity
  8
IGES
100
AcDbFace
 10
0.9
 20
0.7
 30
0.4
 11
0.9
 21
0.9
 31
0.595
 12
0.9
 22
0.9
 32
0.0
 13
0.9
 23
0.7
 33
0.2
 70
     7
  0
3DFACE
  5
3BF00
330
3BEF6
100
AcDbEntity
  8
IGES
100
AcDbFace
 10
0.9
 20
0.7
 30
0.2
 11
0.9
 21
0.9
 31
0.0
 12
0.9
 22
0.1
 32
0.0
 13
0.9
 23
0.3
 33
0.2
 70
     7
  0
3DFACE
  5
3BF01
330
3BEF6
100
AcDbEntity
  8
IGES
100
AcDbFace
 10
0.9
 20
0.3
 30
0.2
 11
0.9
 21
0.3
 31
0.2
 12
0.9
 22
0.1
 32
0.0
 13
0.9
 23
0.3
 33
0.4
 70
     7
  0
3DFACE
  5
3BF02
330
3BEF6
100
AcDbEntity
  8
IGES
100
AcDbFace
 10
0.9
 20
0.9
 30
0.0
 11
0.9
 21
0.9
 31
0.595
 12
0.1
 22
0.9
 32
0.595
 13
0.1
 23
0.9
 33
0.0
 70
    12
  0
3DFACE
  5
3BF03
330
3BEF6
100
AcDbEntity
  8
IGES
100
AcDbFace
 10
0.1
 20
0.9
 30
0.0
 11
0.1
 21
0.9
 31
0.595
 12
0.1
 22
0.5
 32
0.9949999999999999
 13
0.1
 23
0.5
 33
0.0
 70
    12
  0
3DFACE
  5
3BF04
330
3BEF6
100
AcDbEntity
  8
IGES
100
AcDbFace
 10
0.1
 20
0.5
 30
0.0
 11
0.1
 21
0.5
 31
0.9949999999999999
 12
0.1
 22
0.1
 32
0.595
 13
0.1
 23
0.1
 33
0.0
 70
    13
  0
3DFACE
  5
3BF05
330
3BEF6
100
AcDbEntity
  8
IGES
100
AcDbFace
 10
0.2
 20
0.6
 30
0.9
 11
0.2
 21
0.6
 31
1.0
 12
0.3
 22
0.6
 32
1.0
 13
0.3
 23
0.6
 33
0.9
 70
     4
  0
3DFACE
  5
3BF06
330
3BEF6
100
AcDbEntity
  8
IGES
100
AcDbFace
 10
0.3
 20
0.6
 30
0.9
 11
0.3
 21
0.6
 31
1.0
 12
0.3
 22
0.7
 32
1.0
 13
0.3
 23
0.7
 33
0.8
 70
     4
  0
3DFACE
  5
3BF07
330
3BEF6
100
AcDbEntity
  8
IGES
100
AcDbFace
 10
0.3
 20
0.7
 30
0.8
 11
0.3
 21
0.7
 31
1.0
 12
0.2
 22
0.7
 32
1.0
 13
0.2
 23
0.7
 33
0.8
 70
     4
  0
3DFACE
  5
3BF08
330
3BEF6
100
AcDbEntity
  8
IGES
100
AcDbFace
 10
0.2
 20
0.7
 30
0.8
 11
0.2
 21
0.7
 31
1.0
 12
0.2
 22
0.6
 32
1.0
 13
0.2
 23
0.6
 33
0.9
 70
     4
  0
3DFACE
  5
3BF09
330
3BEF6
100
AcDbEntity
  8
IGES
100
AcDbFace
 10
0.0
 20
0.0
 30
0.5
 11
1.0
 21
0.0
 31
0.5
 12
1.0
 22
0.5
 32
1.0
 13
0.0
 23
0.5
 33
1.0
  0
3DFACE
  5
3BF0A
330
3BEF6
100
AcDbEntity
  8
IGES
100
AcDbFace
 10
0.0
 20
0.5
 30
1.0
 11
1.0
 21
0.5
 31
1.0
 12
1.0
 22
1.0
 32
0.5
 13
0.0
 23
1.0
 33
0.5
 70
     1
  0
ENDBLK
  5
3BF0B
330
3BEF6
100
AcDbEntity
  8
0
100
AcDbBlockEnd
  0
BLOCK
  5
3BF0D
330
3BF0C
100
AcDbEntity
  8
0
100
AcDbBlockBegin
  2
*D8
 70
     1
 10
0.0
 20
0.0
 30
0.0
  3
*D8
  1

  0
LINE
  5
3BF0E
330
3BF0C
100
AcDbEntity
  8
0
100
AcDbLine
 10
-40.164796
 20
45.664758
 30
0.0
 11
-40.164796
 21
74.16475799999997
 31
0.0
  0
LINE
  5
3BF0F
330
3BF0C
100
AcDbEntity
  8
0
100
AcDbLine
 10
-0.164796
 20
45.664758
 30
0.0
 11
-0.164796
 21
74.16475799999997
 31
0.0
  0
LINE
  5
3BF10
330
3BF0C
100
AcDbEntity
  8
0
100
AcDbLine
 10
-37.164796
 20
71.66475799999997
 30
0.0
 11
-3.164795999999998
 21
71.66475799999997
 31
0.0
  0
SOLID
  5
3BF11
330
3BF0C
100
AcDbEntity
  8
0
100
AcDbTrace
 10
-37.164796
 20
72.16475799999997
 30
0.0
 11
-37.164796
 21
71.16475799999998
 31
0.0
 12
-40.164796
 22
71.66475799999997
 32
0.0
 13
-40.164796
 23
71.66475799999997
 33
0.0
  0
SOLID
  5
3BF12
330
3BF0C
100
AcDbEntity
  8
0
100
AcDbTrace
 10
-3.164795999999998
 20
72.16475799999997
 30
0.0
 11
-3.164795999999998
 21
71.16475799999998
 31
0.0
 12
-0.164796
 22
71.66475799999997
 32
0.0
 13
-0.164796
 23
71.66475799999997
 33
0.0
  0
TEXT
  5
3BF13
330
3BF0C
100
AcDbEntity
  8
0
100
AcDbText
 10
-23.95051028571427
 20
73.16475799999998
 30
0.0
 40
3.0
  1
%%c40
  7
SANDVIK_STYLE
 72
     1
 11
-20.16479599999999
 21
74.66475799999997
 31
0.0
100
AcDbText
 73
     2
  0
POINT
  5
3BF14
330
3BF0C
100
AcDbEntity
  8
DEFPOINTS
100
AcDbPoint
 10
-40.164796
 20
43.164758
 30
0.0
  0
POINT
  5
3BF15
330
3BF0C
100
AcDbEntity
  8
DEFPOINTS
100
AcDbPoint
 10
-0.164796
 20
43.164758
 30
0.0
  0
POINT
  5
3BF16
330
3BF0C
100
AcDbEntity
  8
DEFPOINTS
100
AcDbPoint
 10
-0.164796
 20
71.66475799999997
 30
0.0
  0
ENDBLK
  5
3BF17
330
3BF0C
100
AcDbEntity
  8
0
100
AcDbBlockEnd
  0
BLOCK
  5
3BF19
330
3BF18
100
AcDbEntity
  8
0
100
AcDbBlockBegin
  2
*D9
 70
     1
 10
0.0
 20
0.0
 30
0.0
  3
*D9
  1

  0
LINE
  5
3BF1A
330
3BF18
100
AcDbEntity
  8
0
100
AcDbLine
 10
-47.164796
 20
-9.335241999999999
 30
0.0
 11
-47.164796
 21
-25.835242
 31
0.0
  0
LINE
  5
3BF1B
330
3BF18
100
AcDbEntity
  8
0
100
AcDbLine
 10
-20.16479599999999
 20
-14.335242
 30
0.0
 11
-20.16479599999999
 21
-25.835242
 31
0.0
  0
LINE
  5
3BF1C
330
3BF18
100
AcDbEntity
  8
0
100
AcDbLine
 10
-44.164796
 20
-23.335242
 30
0.0
 11
-23.164796
 21
-23.335242
 31
0.0
  0
SOLID
  5
3BF1D
330
3BF18
100
AcDbEntity
  8
0
100
AcDbTrace
 10
-44.164796
 20
-22.835242
 30
0.0
 11
-44.164796
 21
-23.835242
 31
0.0
 12
-47.164796
 22
-23.335242
 32
0.0
 13
-47.164796
 23
-23.335242
 33
0.0
  0
SOLID
  5
3BF1E
330
3BF18
100
AcDbEntity
  8
0
100
AcDbTrace
 10
-23.164796
 20
-22.835242
 30
0.0
 11
-23.164796
 21
-23.835242
 31
0.0
 12
-20.16479599999999
 22
-23.335242
 32
0.0
 13
-20.16479599999999
 23
-23.335242
 33
0.0
  0
TEXT
  5
3BF1F
330
3BF18
100
AcDbEntity
  8
0
100
AcDbText
 10
-36.09336742857144
 20
-21.835242
 30
0.0
 40
3.0
  1
27
  7
SANDVIK_STYLE
 72
     1
 11
-33.664796
 21
-20.335242
 31
0.0
100
AcDbText
 73
     2
  0
POINT
  5
3BF20
330
3BF18
100
AcDbEntity
  8
DEFPOINTS
100
AcDbPoint
 10
-47.164796
 20
-6.835242
 30
0.0
  0
POINT
  5
3BF21
330
3BF18
100
AcDbEntity
  8
DEFPOINTS
100
AcDbPoint
 10
-20.16479599999999
 20
-11.83524199999999
 30
0.0
  0
POINT
  5
3BF22
330
3BF18
100
AcDbEntity
  8
DEFPOINTS
100
AcDbPoint
 10
-20.16479599999999
 20
-23.335242
 30
0.0
  0
ENDBLK
  5
3BF23
330
3BF18
100
AcDbEntity
  8
0
100
AcDbBlockEnd
  0
BLOCK
  5
3BF25
330
3BF24
100
AcDbEntity
  8
0
100
AcDbBlockBegin
  2
*D10
 70
     1
 10
0.0
 20
0.0
 30
0.0
  3
*D10
  1

  0
LINE
  5
3BF26
330
3BF24
100
AcDbEntity
  8
0
100
AcDbLine
 10
2.335204
 20
43.164758
 30
0.0
 11
23.835204
 21
43.164758
 31
0.0
  0
LINE
  5
3BF27
330
3BF24
100
AcDbEntity
  8
0
100
AcDbLine
 10
-44.564796
 20
-6.835242
 30
0.0
 11
23.835204
 21
-6.835242
 31
0.0
  0
LINE
  5
3BF28
330
3BF24
100
AcDbEntity
  8
0
100
AcDbLine
 10
21.335204
 20
40.164758
 30
0.0
 11
21.335204
 21
-3.835242
 31
0.0
  0
SOLID
  5
3BF29
330
3BF24
100
AcDbEntity
  8
0
100
AcDbTrace
 10
20.835204
 20
40.164758
 30
0.0
 11
21.835204
 21
40.164758
 31
0.0
 12
21.335204
 22
43.164758
 32
0.0
 13
21.335204
 23
43.164758
 33
0.0
  0
SOLID
  5
3BF2A
330
3BF24
100
AcDbEntity
  8
0
100
AcDbTrace
 10
20.835204
 20
-3.835242
 30
0.0
 11
21.835204
 21
-3.835242
 31
0.0
 12
21.335204
 22
-6.835242
 32
0.0
 13
21.335204
 23
-6.835242
 33
0.0
  0
TEXT
  5
3BF2B
330
3BF24
100
AcDbEntity
  8
0
100
AcDbText
 10
19.83520391522686
 20
15.73618651906869
 30
0.0
 40
3.0
  1
50
 50
89.99999800000002
  7
SANDVIK_STYLE
 72
     1
 11
18.335204
 21
18.164758
 31
0.0
100
AcDbText
 73
     2
  0
POINT
  5
3BF2C
330
3BF24
100
AcDbEntity
  8
DEFPOINTS
100
AcDbPoint
 10
-0.164796
 20
43.164758
 30
0.0
  0
POINT
  5
3BF2D
330
3BF24
100
AcDbEntity
  8
DEFPOINTS
100
AcDbPoint
 10
-47.064796
 20
-6.835242
 30
0.0
  0
POINT
  5
3BF2E
330
3BF24
100
AcDbEntity
  8
DEFPOINTS
100
AcDbPoint
 10
21.335204
 20
-6.835242
 30
0.0
  0
ENDBLK
  5
3BF2F
330
3BF24
100
AcDbEntity
  8
0
100
AcDbBlockEnd
  0
BLOCK
  5
3BF31
330
3BF30
100
AcDbEntity
  8
0
100
AcDbBlockBegin
  2
*D11
 70
     1
 10
0.0
 20
0.0
 30
0.0
  3
*D11
  1

  0
LINE
  5
3BF32
330
3BF30
100
AcDbEntity
  8
0
100
AcDbLine
 10
-46.391349
 20
2.589529999999998
 30
0.0
 11
-45.931604
 21
8.191703999999997
 31
0.0
  0
LINE
  5
3BF33
330
3BF30
100
AcDbEntity
  8
0
100
AcDbLine
 10
-50.92265
 20
-6.835242
 30
0.0
 11
-62.242259
 21
-6.835242
 31
0.0
  0
ARC
  5
3BF34
330
3BF30
100
AcDbEntity
  8
0
100
AcDbCircle
 10
-47.164796
 20
-6.835242
 30
0.0
 40
12.57746199999999
100
AcDbArc
 50
99.00741400000001
 51
101.915906
  0
ARC
  5
3BF35
330
3BF30
100
AcDbEntity
  8
0
100
AcDbCircle
 10
-47.164796
 20
-6.835242
 30
0.0
 40
12.57746199999999
100
AcDbArc
 50
163.392605
 51
166.301097
  0
SOLID
  5
3BF36
330
3BF30
100
AcDbEntity
  8
0
100
AcDbTrace
 10
-49.15278
 20
6.086762
 30
0.0
 11
-49.115125
 21
5.087470999999998
 31
0.0
 12
-46.13608
 22
5.700079999999998
 32
0.0
 13
-46.13608
 23
5.700079999999998
 33
0.0
  0
SOLID
  5
3BF37
330
3BF30
100
AcDbEntity
  8
0
100
AcDbTrace
 10
-58.88804399999999
 20
-3.916282999999998
 30
0.0
 11
-59.88090699999999
 21
-3.797022
 31
0.0
 12
-59.742259
 22
-6.835242
 32
0.0
 13
-59.742259
 23
-6.835242
 33
0.0
  0
TEXT
  5
3BF38
330
3BF30
100
AcDbEntity
  8
0
100
AcDbText
 10
-59.18838180173325
 20
-2.850490050941148
 30
0.0
 40
3.0
  1
94%%d41'
 50
42.65425599999999
  7
SANDVIK_STYLE
 72
     1
 11
-55.686941
 21
2.414925999999999
 31
0.0
100
AcDbText
 73
     2
  0
POINT
  5
3BF39
330
3BF30
100
AcDbEntity
  8
DEFPOINTS
100
AcDbPoint
 10
-46.136992
 20
5.700154999999997
 30
0.0
  0
POINT
  5
3BF3A
330
3BF30
100
AcDbEntity
  8
DEFPOINTS
100
AcDbPoint
 10
-47.164796
 20
-6.835242
 30
-1.436819999999999
  0
POINT
  5
3BF3B
330
3BF30
100
AcDbEntity
  8
DEFPOINTS
100
AcDbPoint
 10
-48.42265
 20
-6.835242
 30
-1.436819999999999
  0
POINT
  5
3BF3C
330
3BF30
100
AcDbEntity
  8
DEFPOINTS
100
AcDbPoint
 10
-47.164796
 20
-6.835242
 30
-1.436819999999999
  0
POINT
  5
3BF3D
330
3BF30
100
AcDbEntity
  8
DEFPOINTS
100
AcDbPoint
 10
-46.59582499999999
 20
0.097906
 30
-1.436819999999999
  0
ENDBLK
  5
3BF3E
330
3BF30
100
AcDbEntity
  8
0
100
AcDbBlockEnd
  0
BLOCK
  5
3BF40
330
3BF3F
100
AcDbEntity
  8
0
100
AcDbBlockBegin
  2
*D12
 70
     1
 10
0.0
 20
0.0
 30
0.0
  3
*D12
  1

  0
LINE
  5
3BF41
330
3BF3F
100
AcDbEntity
  8
12
100
AcDbLine
 10
-40.164796
 20
45.664758
 30
0.0
 11
-40.164796
 21
74.16475799999997
 31
0.0
  0
LINE
  5
3BF42
330
3BF3F
100
AcDbEntity
  8
12
100
AcDbLine
 10
-0.1647959999999998
 20
45.664758
 30
0.0
 11
-0.1647959999999981
 21
74.16475799999997
 31
0.0
  0
LINE
  5
3BF43
330
3BF3F
100
AcDbEntity
  8
12
100
AcDbLine
 10
-37.164796
 20
71.66475799999997
 30
0.0
 11
-3.164795999999998
 21
71.66475799999997
 31
0.0
  0
INSERT
  5
3BF44
330
3BF3F
100
AcDbEntity
  8
1
100
AcDbBlockReference
  2
*U13
 10
0.0
 20
0.0
 30
0.0
  0
SOLID
  5
3BF45
330
3BF3F
100
AcDbEntity
  8
12
100
AcDbTrace
 10
-37.164796
 20
72.16475799999997
 30
0.0
 11
-37.164796
 21
71.16475799999998
 31
0.0
 12
-40.164796
 22
71.66475799999997
 32
0.0
 13
-40.164796
 23
71.66475799999997
 33
0.0
  0
SOLID
  5
3BF46
330
3BF3F
100
AcDbEntity
  8
12
100
AcDbTrace
 10
-3.164795999999998
 20
72.16475799999997
 30
0.0
 11
-3.164795999999998
 21
71.16475799999998
 31
0.0
 12
-0.1647959999999982
 22
71.66475799999997
 32
0.0
 13
-0.1647959999999982
 23
71.66475799999997
 33
0.0
  0
POINT
  5
3BF47
330
3BF3F
100
AcDbEntity
  8
DEFPOINTS
 62
     0
100
AcDbPoint
 10
-40.164796
 20
43.164758
 30
0.0
  0
POINT
  5
3BF48
330
3BF3F
100
AcDbEntity
  8
DEFPOINTS
 62
     0
100
AcDbPoint
 10
-0.164796
 20
43.164758
 30
0.0
  0
POINT
  5
3BF49
330
3BF3F
100
AcDbEntity
  8
DEFPOINTS
 62
     0
100
AcDbPoint
 10
-0.1647959999999982
 20
71.66475799999997
 30
0.0
  0
ENDBLK
  5
3BF4A
330
3BF3F
100
AcDbEntity
  8
0
100
AcDbBlockEnd
  0
BLOCK
  5
3BF4C
330
3BF4B
100
AcDbEntity
  8
0
100
AcDbBlockBegin
  2
*U13
 70
     1
 10
0.0
 20
0.0
 30
0.0
  3
*U13
  1

  0
TEXT
  5
3BF4D
330
3BF4B
100
AcDbEntity
  8
1
100
AcDbText
 10
-23.95051028571428
 20
73.16475799999998
 30
0.0
 40
3.0
  1
\U+2205
  7
TDM_STYLE
100
AcDbText
  0
TEXT
  5
3BF4E
330
3BF4B
100
AcDbEntity
  8
1
100
AcDbText
 10
-21.23622457142857
 20
73.16475799999998
 30
0.0
 40
3.0
  1
40
  7
TDM_STYLE
100
AcDbText
  0
ENDBLK
  5
3BF4F
330
3BF4B
100
AcDbEntity
  8
0
100
AcDbBlockEnd
  0
BLOCK
  5
3BF51
330
3BF50
100
AcDbEntity
  8
0
100
AcDbBlockBegin
  2
*D14
 70
     1
 10
0.0
 20
0.0
 30
0.0
  3
*D14
  1

  0
LINE
  5
3BF52
330
3BF50
100
AcDbEntity
  8
20
100
AcDbLine
 10
-47.164796
 20
-9.335241999999999
 30
0.0
 11
-47.164796
 21
-25.835242
 31
0.0
  0
LINE
  5
3BF53
330
3BF50
100
AcDbEntity
  8
20
100
AcDbLine
 10
-20.16479599999999
 20
-14.33524199999999
 30
0.0
 11
-20.16479599999999
 21
-25.835242
 31
0.0
  0
LINE
  5
3BF54
330
3BF50
100
AcDbEntity
  8
20
100
AcDbLine
 10
-44.164796
 20
-23.335242
 30
0.0
 11
-23.164796
 21
-23.335242
 31
0.0
  0
TEXT
  5
3BF55
330
3BF50
100
AcDbEntity
  8
1
100
AcDbText
 10
-36.09336742857143
 20
-21.835242
 30
0.0
 40
3.0
  1
27
  7
TDM_STYLE
100
AcDbText
  0
SOLID
  5
3BF56
330
3BF50
100
AcDbEntity
  8
20
100
AcDbTrace
 10
-44.164796
 20
-22.835242
 30
0.0
 11
-44.164796
 21
-23.835242
 31
0.0
 12
-47.164796
 22
-23.335242
 32
0.0
 13
-47.164796
 23
-23.335242
 33
0.0
  0
SOLID
  5
3BF57
330
3BF50
100
AcDbEntity
  8
20
100
AcDbTrace
 10
-23.164796
 20
-22.835242
 30
0.0
 11
-23.164796
 21
-23.835242
 31
0.0
 12
-20.16479599999999
 22
-23.335242
 32
0.0
 13
-20.16479599999999
 23
-23.335242
 33
0.0
  0
POINT
  5
3BF58
330
3BF50
100
AcDbEntity
  8
DEFPOINTS
 62
     0
100
AcDbPoint
 10
-47.164796
 20
-6.835242
 30
0.0
  0
POINT
  5
3BF59
330
3BF50
100
AcDbEntity
  8
DEFPOINTS
 62
     0
100
AcDbPoint
 10
-20.16479599999999
 20
-11.83524199999999
 30
0.0
  0
POINT
  5
3BF5A
330
3BF50
100
AcDbEntity
  8
DEFPOINTS
 62
     0
100
AcDbPoint
 10
-20.16479599999999
 20
-23.335242
 30
0.0
  0
ENDBLK
  5
3BF5B
330
3BF50
100
AcDbEntity
  8
0
100
AcDbBlockEnd
  0
BLOCK
  5
3BF5D
330
3BF5C
100
AcDbEntity
  8
0
100
AcDbBlockBegin
  2
*D15
 70
     1
 10
0.0
 20
0.0
 30
0.0
  3
*D15
  1

  0
LINE
  5
3BF5E
330
3BF5C
100
AcDbEntity
  8
20
100
AcDbLine
 10
2.335204
 20
43.164758
 30
0.0
 11
23.83520400000001
 21
43.16475799999999
 31
0.0
  0
LINE
  5
3BF5F
330
3BF5C
100
AcDbEntity
  8
20
100
AcDbLine
 10
-44.564796
 20
-6.835242
 30
0.0
 11
23.835204
 21
-6.835242000000017
 31
0.0
  0
LINE
  5
3BF60
330
3BF5C
100
AcDbEntity
  8
20
100
AcDbLine
 10
21.33520400000001
 20
40.16475799999999
 30
0.0
 11
21.335204
 21
-3.83524200000002
 31
0.0
  0
TEXT
  5
3BF61
330
3BF5C
100
AcDbEntity
  8
1
100
AcDbText
 10
19.83520391522686
 20
15.73618651906869
 30
0.0
 40
3.0
  1
50
 50
89.99999800000002
  7
TDM_STYLE
100
AcDbText
  0
SOLID
  5
3BF62
330
3BF5C
100
AcDbEntity
  8
20
100
AcDbTrace
 10
20.83520400000001
 20
40.16475799999999
 30
0.0
 11
21.83520400000001
 21
40.16475799999999
 31
0.0
 12
21.33520400000001
 22
43.16475799999999
 32
0.0
 13
21.33520400000001
 23
43.16475799999999
 33
0.0
  0
SOLID
  5
3BF63
330
3BF5C
100
AcDbEntity
  8
20
100
AcDbTrace
 10
20.835204
 20
-3.835242000000017
 30
0.0
 11
21.835204
 21
-3.83524200000002
 31
0.0
 12
21.335204
 22
-6.835242000000017
 32
0.0
 13
21.335204
 23
-6.835242000000017
 33
0.0
  0
POINT
  5
3BF64
330
3BF5C
100
AcDbEntity
  8
DEFPOINTS
 62
     0
100
AcDbPoint
 10
-0.164796
 20
43.164758
 30
0.0
  0
POINT
  5
3BF65
330
3BF5C
100
AcDbEntity
  8
DEFPOINTS
 62
     0
100
AcDbPoint
 10
-47.064796
 20
-6.835242
 30
0.0
  0
POINT
  5
3BF66
330
3BF5C
100
AcDbEntity
  8
DEFPOINTS
 62
     0
100
AcDbPoint
 10
21.335204
 20
-6.835242000000017
 30
0.0
  0
ENDBLK
  5
3BF67
330
3BF5C
100
AcDbEntity
  8
0
100
AcDbBlockEnd
  0
BLOCK
  5
3BF69
330
3BF68
100
AcDbEntity
  8
0
100
AcDbBlockBegin
  2
*D16
 70
     1
 10
0.0
 20
0.0
 30
0.0
  3
*D16
  1

  0
LINE
  5
3BF6A
330
3BF68
100
AcDbEntity
  8
20
100
AcDbLine
 10
-46.39134909156815
 20
2.589529888726186
 30
0.0
 11
-45.93160487616078
 21
8.1917041428852
 31
0.0
  0
LINE
  5
3BF6B
330
3BF68
100
AcDbEntity
  8
20
100
AcDbLine
 10
-50.92264999999999
 20
-6.835241999999992
 30
0.0
 11
-62.24225834381264
 21
-6.835241999999959
 31
0.0
  0
ARC
  5
3BF6C
330
3BF68
100
AcDbEntity
  8
20
100
AcDbCircle
 10
-47.16479599999998
 20
-6.835242
 30
0.0
 40
12.57746234381264
100
AcDbArc
 50
57.91071131875341
 51
71.60961400161659
  0
ARC
  5
3BF6D
330
3BF68
100
AcDbEntity
  8
20
100
AcDbCircle
 10
-47.16479599999998
 20
-6.835242
 30
0.0
 40
12.57746234381264
100
AcDbArc
 50
193.698902682863
 51
207.3978053657262
  0
SOLID
  5
3BF6E
330
3BF68
100
AcDbEntity
  8
20
100
AcDbTrace
 10
-43.29676872563375
 20
4.609985289556956
 30
0.0
 11
-43.09670074030113
 21
5.589767306765346
 31
0.0
 12
-46.13608078459262
 22
5.700080254159021
 32
0.0
 13
-46.13608078459262
 23
5.700080254159021
 33
0.0
  0
SOLID
  5
3BF6F
330
3BF68
100
AcDbEntity
  8
20
100
AcDbTrace
 10
-59.88090699207835
 20
-9.87346130616174
 30
0.0
 11
-58.88804404693043
 21
-9.754200364725653
 31
0.0
 12
-59.74225834381264
 22
-6.835241999999968
 32
0.0
 13
-59.74225834381264
 23
-6.835241999999968
 33
0.0
  0
TEXT
  5
3BF70
330
3BF68
100
AcDbEntity
  8
20
100
AcDbText
 10
-61.6869
 20
-2.89507
 30
0.0
 40
3.0
  1
94%%d41'
  7
TDM_STYLE
100
AcDbText
  0
POINT
  5
3BF71
330
3BF68
100
AcDbEntity
  8
DEFPOINTS
 62
     0
100
AcDbPoint
 10
-52.84986184915433
 20
4.384053222998812
 30
0.0
  0
POINT
  5
3BF72
330
3BF68
100
AcDbEntity
  8
DEFPOINTS
 62
     0
100
AcDbPoint
 10
-47.16479599999998
 20
-6.835242
 30
-1.436819999999999
  0
POINT
  5
3BF73
330
3BF68
100
AcDbEntity
  8
DEFPOINTS
 62
     0
100
AcDbPoint
 10
-48.42265
 20
-6.835241999999996
 30
-1.436819999999999
  0
POINT
  5
3BF74
330
3BF68
100
AcDbEntity
  8
DEFPOINTS
 62
     0
100
AcDbPoint
 10
-47.16479599999998
 20
-6.835242
 30
-1.436819999999999
  0
POINT
  5
3BF75
330
3BF68
100
AcDbEntity
  8
DEFPOINTS
 62
     0
100
AcDbPoint
 10
-46.59582499999999
 20
0.0979059999999983
 30
-1.436819999999999
  0
ENDBLK
  5
3BF76
330
3BF68
100
AcDbEntity
  8
0
100
AcDbBlockEnd
  0
BLOCK
  5
3BF78
330
3BF77
100
AcDbEntity
  8
0
100
AcDbBlockBegin
  2
*D17
 70
     1
 10
0.0
 20
0.0
 30
0.0
  3
*D17
  1

  0
LINE
  5
3C213
330
3BF77
100
AcDbEntity
  8
12
 62
     0
370
    -2
100
AcDbLine
 10
0.0
 20
-20.00000000000002
 30
0.0
 11
-32.74999999999999
 21
-20.00000000000001
 31
0.0
  0
LINE
  5
3C214
330
3BF77
100
AcDbEntity
  8
12
 62
     0
370
    -2
100
AcDbLine
 10
0.0
 20
19.99999999999998
 30
0.0
 11
-32.74999999999998
 21
19.99999999999999
 31
0.0
  0
LINE
  5
3C215
330
3BF77
100
AcDbEntity
  8
12
 62
     0
370
    -2
100
AcDbLine
 10
-31.49999999999999
 20
-17.50000000000001
 30
0.0
 11
-31.49999999999999
 21
17.49999999999999
 31
0.0
  0
SOLID
  5
3C216
330
3BF77
100
AcDbEntity
  8
12
 62
     0
100
AcDbTrace
 10
-31.91666666666665
 20
-17.50000000000001
 30
0.0
 11
-31.08333333333332
 21
-17.50000000000001
 31
0.0
 12
-31.49999999999999
 22
-20.00000000000001
 32
0.0
 13
-31.49999999999999
 23
-20.00000000000001
 33
0.0
  0
SOLID
  5
3C217
330
3BF77
100
AcDbEntity
  8
12
 62
     0
100
AcDbTrace
 10
-31.91666666666665
 20
17.49999999999999
 30
0.0
 11
-31.08333333333331
 21
17.49999999999999
 31
0.0
 12
-31.49999999999999
 22
19.99999999999999
 32
0.0
 13
-31.49999999999999
 23
19.99999999999999
 33
0.0
  0
MTEXT
  5
3C218
330
3BF77
100
AcDbEntity
  8
12
 62
     0
100
AcDbMText
 10
-33.87499999999999
 20
0.0000000000000003
 30
0.0
 40
3.5
 41
0.0
 71
     5
 72
     1
  1
%%c40
  7
SIMPLEX
 11
0.0000000000000001
 21
1.0
 31
0.0
 73
     1
 44
1.0
1001
ACAD
1000
MTEXTBEGIN
1070
    73
1070
     1
1070
    44
1040
1.0
1070
    74
1070
     0
1000
MTEXTEND
  0
POINT
  5
3C219
330
3BF77
100
AcDbEntity
  8
DEFPOINTS
 62
     0
100
AcDbPoint
 10
0.0
 20
-20.00000000000002
 30
0.0
  0
POINT
  5
3C21A
330
3BF77
100
AcDbEntity
  8
DEFPOINTS
 62
     0
100
AcDbPoint
 10
0.0
 20
19.99999999999998
 30
0.0
  0
POINT
  5
3C21B
330
3BF77
100
AcDbEntity
  8
DEFPOINTS
 62
     0
100
AcDbPoint
 10
-31.49999999999999
 20
19.99999999999999
 30
0.0
  0
ENDBLK
  5
3BF82
330
3BF77
100
AcDbEntity
  8
0
100
AcDbBlockEnd
  0
BLOCK
  5
3BF84
330
3BF83
100
AcDbEntity
  8
0
100
AcDbBlockBegin
  2
*D18
 70
     1
 10
0.0
 20
0.0
 30
0.0
  3
*D18
  1

  0
LINE
  5
3C20A
330
3BF83
100
AcDbEntity
  8
20
 62
     0
370
    -2
100
AcDbLine
 10
50.0
 20
-27.00000000000002
 30
0.0
 11
64.75
 21
-27.00000000000002
 31
0.0
  0
LINE
  5
3C20B
330
3BF83
100
AcDbEntity
  8
20
 62
     0
370
    -2
100
AcDbLine
 10
55.0
 20
-0.0000000000000071
 30
0.0
 11
64.75
 21
-0.0000000000000099
 31
0.0
  0
LINE
  5
3C20C
330
3BF83
100
AcDbEntity
  8
20
 62
     0
370
    -2
100
AcDbLine
 10
63.49999999999999
 20
-24.50000000000002
 30
0.0
 11
63.5
 21
-2.500000000000009
 31
0.0
  0
SOLID
  5
3C20D
330
3BF83
100
AcDbEntity
  8
20
 62
     0
100
AcDbTrace
 10
63.08333333333333
 20
-24.50000000000002
 30
0.0
 11
63.91666666666665
 21
-24.50000000000002
 31
0.0
 12
63.49999999999999
 22
-27.00000000000002
 32
0.0
 13
63.49999999999999
 23
-27.00000000000002
 33
0.0
  0
SOLID
  5
3C20E
330
3BF83
100
AcDbEntity
  8
20
 62
     0
100
AcDbTrace
 10
63.08333333333333
 20
-2.500000000000009
 30
0.0
 11
63.91666666666665
 21
-2.500000000000009
 31
0.0
 12
63.5
 22
-0.0000000000000095
 32
0.0
 13
63.5
 23
-0.0000000000000095
 33
0.0
  0
MTEXT
  5
3C20F
330
3BF83
100
AcDbEntity
  8
20
 62
     0
100
AcDbMText
 10
61.125
 20
-13.50000000000002
 30
0.0
 40
3.5
 41
0.0
 71
     5
 72
     1
  1
27
  7
SIMPLEX
 11
0.0000000000000001
 21
1.0
 31
0.0
 73
     1
 44
1.0
1001
ACAD
1000
MTEXTBEGIN
1070
    73
1070
     1
1070
    44
1040
1.0
1070
    74
1070
     0
1000
MTEXTEND
  0
POINT
  5
3C210
330
3BF83
100
AcDbEntity
  8
DEFPOINTS
 62
     0
100
AcDbPoint
 10
50.0
 20
-27.00000000000002
 30
0.0
  0
POINT
  5
3C211
330
3BF83
100
AcDbEntity
  8
DEFPOINTS
 62
     0
100
AcDbPoint
 10
55.0
 20
-0.0000000000000071
 30
0.0
  0
POINT
  5
3C212
330
3BF83
100
AcDbEntity
  8
DEFPOINTS
 62
     0
100
AcDbPoint
 10
63.5
 20
-0.0000000000000095
 30
0.0
  0
ENDBLK
  5
3BF8E
330
3BF83
100
AcDbEntity
  8
0
100
AcDbBlockEnd
  0
BLOCK
  5
3BF90
330
3BF8F
100
AcDbEntity
  8
0
100
AcDbBlockBegin
  2
*D19
 70
     1
 10
0.0
 20
0.0
 30
0.0
  3
*D19
  1

  0
LINE
  5
3C200
330
3BF8F
100
AcDbEntity
  8
20
 62
     0
370
    -2
100
AcDbLine
 10
0.0
 20
19.99999999999998
 30
0.0
 11
0.0000000000000012
 21
39.75
 31
0.0
  0
LINE
  5
3C201
330
3BF8F
100
AcDbEntity
  8
20
 62
     0
370
    -2
100
AcDbLine
 10
50.0
 20
-26.90000000000002
 30
0.0
 11
50.0
 21
39.75
 31
0.0
  0
LINE
  5
3C202
330
3BF8F
100
AcDbEntity
  8
20
 62
     0
370
    -2
100
AcDbLine
 10
2.5
 20
38.5
 30
0.0
 11
22.625
 21
38.5
 31
0.0
  0
LINE
  5
3C203
330
3BF8F
100
AcDbEntity
  8
20
 62
     0
370
    -2
100
AcDbLine
 10
47.5
 20
38.5
 30
0.0
 11
27.375
 21
38.5
 31
0.0
  0
SOLID
  5
3C204
330
3BF8F
100
AcDbEntity
  8
20
 62
     0
100
AcDbTrace
 10
2.5
 20
38.91666666666666
 30
0.0
 11
2.5
 21
38.08333333333333
 31
0.0
 12
0.0000000000000011
 22
38.5
 32
0.0
 13
0.0000000000000011
 23
38.5
 33
0.0
  0
SOLID
  5
3C205
330
3BF8F
100
AcDbEntity
  8
20
 62
     0
100
AcDbTrace
 10
47.5
 20
38.91666666666666
 30
0.0
 11
47.5
 21
38.08333333333333
 31
0.0
 12
50.0
 22
38.5
 32
0.0
 13
50.0
 23
38.5
 33
0.0
  0
MTEXT
  5
3C206
330
3BF8F
100
AcDbEntity
  8
20
 62
     0
100
AcDbMText
 10
25.0
 20
38.5
 30
0.0
 40
3.5
 41
0.0
 71
     5
 72
     1
  1
50
  7
SIMPLEX
 11
0.0000000349065848
 21
0.9999999999999994
 31
0.0
 73
     1
 44
1.0
1001
ACAD
1000
MTEXTBEGIN
1070
    73
1070
     1
1070
    44
1040
1.0
1070
    74
1070
     0
1000
MTEXTEND
  0
POINT
  5
3C207
330
3BF8F
100
AcDbEntity
  8
DEFPOINTS
 62
     0
100
AcDbPoint
 10
0.0
 20
19.99999999999998
 30
0.0
  0
POINT
  5
3C208
330
3BF8F
100
AcDbEntity
  8
DEFPOINTS
 62
     0
100
AcDbPoint
 10
50.0
 20
-26.90000000000002
 30
0.0
  0
POINT
  5
3C209
330
3BF8F
100
AcDbEntity
  8
DEFPOINTS
 62
     0
100
AcDbPoint
 10
50.0
 20
38.5
 30
0.0
  0
ENDBLK
  5
3BF9B
330
3BF8F
100
AcDbEntity
  8
0
100
AcDbBlockEnd
  0
BLOCK
  5
3BF9D
330
3BF9C
100
AcDbEntity
  8
0
100
AcDbBlockBegin
  2
*D20
 70
     1
 10
0.0
 20
0.0
 30
0.0
  3
*D20
  1

  0
LINE
  5
3C1F4
330
3BF9C
100
AcDbEntity
  8
20
 62
     0
370
    -2
100
AcDbLine
 10
43.06685199999999
 20
-26.43102900000002
 30
0.0
 11
36.21886580147787
 21
-25.86904683037672
 31
0.0
  0
LINE
  5
3C1F5
330
3BF9C
100
AcDbEntity
  8
20
 62
     0
370
    -2
100
AcDbLine
 10
50.0
 20
-28.25785400000004
 30
0.0
 11
50.00000000000003
 21
-40.82746234381271
 31
0.0
  0
ARC
  5
3C1F6
330
3BF9C
100
AcDbEntity
  8
20
 62
     0
370
    -2
100
AcDbCircle
 10
50.0
 20
-27.00000000000002
 30
0.0
 40
12.57746234381267
100
AcDbArc
 50
186.7159294031619
 51
210.2192376777395
  0
ARC
  5
3C1F7
330
3BF9C
100
AcDbEntity
  8
20
 62
     0
370
    -2
100
AcDbCircle
 10
50.0
 20
-27.00000000000002
 30
0.0
 40
12.57746234381267
100
AcDbArc
 50
235.0892791192741
 51
258.5925872813179
  0
SOLID
  5
3C1F8
330
3BF9C
100
AcDbEntity
  8
20
 62
     0
100
AcDbTrace
 10
37.09224036508933
 20
-28.47825536849066
 30
0.0
 11
37.92544365612393
 21
-28.46353394690211
 31
0.0
 12
37.46467774584095
 22
-25.97128478459265
 32
0.0
 13
37.46467774584095
 23
-25.97128478459265
 33
0.0
  0
SOLID
  5
3C1F9
330
3BF9C
100
AcDbEntity
  8
20
 62
     0
100
AcDbTrace
 10
47.55378719144459
 20
-38.91439823954332
 30
0.0
 11
47.4709670932251
 21
-39.74360585876505
 31
0.0
 12
50.00000000000002
 22
-39.57746234381268
 32
0.0
 13
50.00000000000002
 23
-39.57746234381268
 33
0.0
  0
MTEXT
  5
3C1FA
330
3BF9C
100
AcDbEntity
  8
20
 62
     0
100
AcDbMText
 10
40.74983281517789
 20
-35.52214562553743
 30
0.0
 40
3.5
 41
0.0
 71
     5
 72
     1
  1
94%%d41'
  7
SIMPLEX
 11
0.7354557923010751
 21
0.677572710172715
 31
0.0
 73
     1
 44
1.0
1001
ACAD
1000
MTEXTBEGIN
1070
    73
1070
     1
1070
    44
1040
1.0
1070
    74
1070
     0
1000
MTEXTEND
  0
POINT
  5
3C1FB
330
3BF9C
100
AcDbEntity
  8
DEFPOINTS
 62
     0
100
AcDbPoint
 10
38.78070477700116
 20
-32.6850658491544
 30
0.0
  0
POINT
  5
3C1FC
330
3BF9C
100
AcDbEntity
  8
DEFPOINTS
 62
     0
100
AcDbPoint
 10
50.0
 20
-27.00000000000003
 30
-1.436819999999999
  0
POINT
  5
3C1FD
330
3BF9C
100
AcDbEntity
  8
DEFPOINTS
 62
     0
100
AcDbPoint
 10
50.0
 20
-28.25785400000004
 30
-1.436819999999999
  0
POINT
  5
3C1FE
330
3BF9C
100
AcDbEntity
  8
DEFPOINTS
 62
     0
100
AcDbPoint
 10
50.0
 20
-27.00000000000003
 30
-1.436819999999999
  0
POINT
  5
3C1FF
330
3BF9C
100
AcDbEntity
  8
DEFPOINTS
 62
     0
100
AcDbPoint
 10
43.06685199999999
 20
-26.43102900000002
 30
-1.436819999999999
  0
ENDBLK
  5
3BFAA
330
3BF9C
100
AcDbEntity
  8
0
100
AcDbBlockEnd
  0
BLOCK
  5
3BFAE
330
3BFAB
100
AcDbEntity
  8
0
100
AcDbBlockBegin
  2
_Zeropoint.dwg
 70
     0
 10
0.0
 20
0.0
 30
0.0
  3
_Zeropoint.dwg
  1

  0
HATCH
  5
3BFAF
330
3BFAB
100
AcDbEntity
  8
2
100
AcDbHatch
 10
0.0
 20
0.0
 30
0.0
210
0.0
220
0.0
230
1.0
  2
_USER
 70
     0
 71
     1
 91
        2
 92
        7
 72
     1
 73
     1
 93
        3
 10
-2.5
 20
0.0
 42
0.4142135623730951
 10
0.0
 20
-2.5
 42
0.0
 10
0.0
 20
0.0
 42
0.0
 97
        3
330
3BFB0
330
3BFB2
330
3BFB1
 92
        7
 72
     1
 73
     1
 93
        3
 10
0.0
 20
2.5
 42
0.0
 10
0.0
 20
0.0
 42
0.0
 10
2.5
 20
0.0
 42
0.4142135623730951
 97
        3
330
3BFB1
330
3BFB0
330
3BFB2
 75
     0
 76
     0
 52
45.0
 41
0.5
 77
     0
 78
     1
 53
45.0
 43
0.0
 44
0.0
 45
-0.3535533905932737
 46
0.3535533905932738
 79
     0
 47
0.0807540860238484
 98
        2
 10
-1.081351813010084
 20
-0.6749528531090621
 10
1.100054950607727
 20
1.263145885468702
  0
LINE
  5
3BFB0
102
{ACAD_REACTORS
330
3BFAF
102
}
330
3BFAB
100
AcDbEntity
  8
2
100
AcDbLine
 10
5.0
 20
0.0
 30
0.0
 11
-5.0
 21
0.0
 31
0.0
  0
LINE
  5
3BFB1
102
{ACAD_REACTORS
330
3BFAF
102
}
330
3BFAB
100
AcDbEntity
  8
2
100
AcDbLine
 10
0.0
 20
5.0
 30
0.0
 11
0.0
 21
-5.0
 31
0.0
  0
CIRCLE
  5
3BFB2
102
{ACAD_REACTORS
330
3BFAF
102
}
330
3BFAB
100
AcDbEntity
  8
2
100
AcDbCircle
 10
0.0
 20
0.0
 30
0.0
 40
2.5
  0
ENDBLK
  5
3BFB3
330
3BFAB
100
AcDbEntity
  8
0
100
AcDbBlockEnd
  0
BLOCK
  5
3BFB5
330
3BFB4
100
AcDbEntity
  8
0
100
AcDbBlockBegin
  2
_nullpunkt
 70
     0
 10
0.0
 20
0.0
 30
0.0
  3
_nullpunkt
  1

  0
INSERT
  5
3BFB6
330
3BFB4
100
AcDbEntity
  8
0
100
AcDbBlockReference
  2
_Zeropoint.dwg
 10
0.0
 20
0.0
 30
0.0
  0
ENDBLK
  5
3BFB7
330
3BFB4
100
AcDbEntity
  8
0
100
AcDbBlockEnd
  0
ENDSEC
  0
SECTION
  2
ENTITIES
  0
POINT
  5
3BFF1
330
18
100
AcDbEntity
  8
81
100
AcDbPoint
 10
50.0
 20
-27.00000000000002
 30
0.0
 50
90.0
  0
POINT
  5
3BFF2
330
18
100
AcDbEntity
  8
80
100
AcDbPoint
 10
0.0
 20
0.0
 30
0.0
 50
90.0
  0
LINE
  5
3BFF3
330
18
100
AcDbEntity
  8
1
100
AcDbLine
 10
48.70525199999999
 20
-25.70529400000003
 30
0.0
 11
40.77954699999999
 21
-25.05486800000002
 31
0.0
  0
LINE
  5
3BFF4
330
18
100
AcDbEntity
  8
1
100
AcDbLine
 10
40.77954699999999
 20
-25.05486800000002
 30
0.0
 11
32.26741
 21
-21.12207000000001
 31
0.0
  0
LINE
  5
3BFF5
330
18
100
AcDbEntity
  8
1
100
AcDbLine
 10
25.64217600000001
 20
-20.50000000000002
 30
0.0
 11
20.57075199999999
 21
-20.50000000000002
 31
0.0
  0
LINE
  5
3BFF6
330
18
100
AcDbEntity
  8
1
100
AcDbLine
 10
48.70525199999999
 20
-25.70529400000003
 30
0.0
 11
48.05483800000001
 21
-17.77958900000001
 31
0.0
  0
LINE
  5
3BFF7
330
18
100
AcDbEntity
  8
1
100
AcDbLine
 10
48.05483800000001
 20
-17.77958900000001
 30
0.0
 11
43.359271
 21
-7.616474000000021
 31
0.0
  0
LINE
  5
3BFF8
330
18
100
AcDbEntity
  8
1
100
AcDbLine
 10
20.76293700000001
 20
20.99999999999998
 30
0.0
 11
24.775516
 21
20.99999999999998
 31
0.0
  0
LINE
  5
3BFF9
330
18
100
AcDbEntity
  8
1
100
AcDbLine
 10
43.359271
 20
-7.616474000000021
 30
0.0
 11
36.043749
 21
3.64844199999999
 31
0.0
  0
LINE
  5
3BFFA
330
18
100
AcDbEntity
  8
1
100
AcDbLine
 10
36.043749
 20
3.64844199999999
 30
0.0
 11
24.775516
 21
20.99999999999998
 31
0.0
  0
LINE
  5
3BFFB
330
18
100
AcDbEntity
  8
1
100
AcDbLine
 10
19.30000000000001
 20
-13.09517900000001
 30
0.0
 11
19.30000000000001
 21
-17.86057200000002
 31
0.0
  0
LINE
  5
3BFFC
330
18
100
AcDbEntity
  8
1
100
AcDbLine
 10
19.30000000000001
 20
-13.09517900000001
 30
0.0
 11
36.043749
 21
3.64844199999999
 31
0.0
  0
LINE
  5
3BFFD
330
18
100
AcDbEntity
  8
1
100
AcDbLine
 10
0.0999999999999943
 20
-20.00000000000002
 30
0.0
 11
0.0
 21
-20.00000000000002
 31
0.0
  0
LINE
  5
3BFFE
330
18
100
AcDbEntity
  8
1
100
AcDbLine
 10
0.0999999999999943
 20
19.99999999999998
 30
0.0
 11
0.0
 21
19.99999999999998
 31
0.0
  0
LINE
  5
3BFFF
330
18
100
AcDbEntity
  8
1
100
AcDbLine
 10
0.0
 20
19.99999999999998
 30
0.0
 11
0.0
 21
19.89999999999998
 31
0.0
  0
LINE
  5
3C000
330
18
100
AcDbEntity
  8
1
100
AcDbLine
 10
49.99736399999999
 20
-26.13750400000002
 30
0.0
 11
49.368236
 21
-18.47117300000002
 31
0.0
  0
LINE
  5
3C001
330
18
100
AcDbEntity
  8
1
100
AcDbLine
 10
41.47112499999999
 20
-26.36827200000002
 30
0.0
 11
49.13745399999999
 21
-26.99741200000002
 31
0.0
  0
LINE
  5
3C002
330
18
100
AcDbEntity
  8
1
100
AcDbLine
 10
34.287544
 20
-21.86757200000001
 30
0.0
 11
34.204319
 21
-21.985961
 31
0.0
  0
LINE
  5
3C003
330
18
100
AcDbEntity
  8
1
100
AcDbLine
 10
34.510973
 20
-23.15252600000002
 30
0.0
 11
41.47112499999999
 21
-26.36827200000002
 31
0.0
  0
LINE
  5
3C004
330
18
100
AcDbEntity
  8
1
100
AcDbLine
 10
49.368236
 20
-18.47117300000002
 30
0.0
 11
46.15250099999999
 21
-11.51101800000002
 31
0.0
  0
LINE
  5
3C005
330
18
100
AcDbEntity
  8
1
100
AcDbLine
 10
44.98593599999998
 20
-11.20436100000002
 30
0.0
 11
44.86754699999997
 21
-11.28758600000002
 31
0.0
  0
LINE
  5
3C006
330
18
100
AcDbEntity
  8
1
100
AcDbLine
 10
23.791517
 20
-13.51946100000002
 30
0.0
 11
29.63371
 21
-19.36166200000001
 31
0.0
  0
LINE
  5
3C007
330
18
100
AcDbEntity
  8
1
100
AcDbLine
 10
36.51945
 20
-0.7915490000000212
 30
0.0
 11
42.361642
 21
-6.633750000000017
 31
0.0
  0
LINE
  5
3C008
330
18
100
AcDbEntity
  8
1
100
AcDbLine
 10
42.361642
 20
-6.633750000000017
 30
0.0
 11
46.006336
 21
-12.98676100000002
 31
0.0
  0
LINE
  5
3C009
330
18
100
AcDbEntity
  8
1
100
AcDbLine
 10
29.63371
 20
-19.36166200000001
 30
0.0
 11
35.986714
 21
-23.00636600000002
 31
0.0
  0
LINE
  5
3C00A
330
18
100
AcDbEntity
  8
1
100
AcDbLine
 10
36.51945
 20
-0.7915490000000212
 30
0.0
 11
34.044574
 21
-3.266421000000018
 31
0.0
  0
LINE
  5
3C00B
330
18
100
AcDbEntity
  8
1
100
AcDbLine
 10
38.8566
 20
-23.35197000000002
 30
0.0
 11
38.758018
 21
-23.25338700000001
 31
0.0
  0
LINE
  5
3C00C
330
18
100
AcDbEntity
  8
1
100
AcDbLine
 10
46.35193799999998
 20
-15.85664400000002
 30
0.0
 11
46.25714199999999
 21
-15.76184800000003
 31
0.0
  0
LINE
  5
3C00D
330
18
100
AcDbEntity
  8
1
100
AcDbLine
 10
40.270814
 20
-21.93775800000002
 30
0.0
 11
38.8566
 21
-23.35197000000002
 31
0.0
  0
LINE
  5
3C00E
330
18
100
AcDbEntity
  8
1
100
AcDbLine
 10
35.986714
 20
-23.00636600000002
 30
0.0
 11
37.571522
 21
-21.42156000000002
 31
0.0
  0
LINE
  5
3C00F
330
18
100
AcDbEntity
  8
1
100
AcDbLine
 10
36.967876
 20
-23.51385600000001
 30
0.0
 11
35.986714
 21
-23.00636600000002
 31
0.0
  0
LINE
  5
3C010
330
18
100
AcDbEntity
  8
1
100
AcDbLine
 10
38.8566
 20
-23.35197000000002
 30
0.0
 11
36.967876
 21
-23.51385600000001
 31
0.0
  0
LINE
  5
3C011
330
18
100
AcDbEntity
  8
1
100
AcDbLine
 10
40.270814
 20
-21.93775800000002
 30
0.0
 11
38.8566
 21
-23.35197000000002
 31
0.0
  0
LINE
  5
3C012
330
18
100
AcDbEntity
  8
1
100
AcDbLine
 10
46.35193799999998
 20
-15.85664400000002
 30
0.0
 11
44.93772299999998
 21
-17.27085700000002
 31
0.0
  0
LINE
  5
3C013
330
18
100
AcDbEntity
  8
1
100
AcDbLine
 10
46.35193799999998
 20
-15.85664400000002
 30
0.0
 11
46.51382599999998
 21
-13.96792200000001
 31
0.0
  0
LINE
  5
3C014
330
18
100
AcDbEntity
  8
1
100
AcDbLine
 10
46.006336
 20
-12.98676100000002
 30
0.0
 11
44.41027999999999
 21
-14.582814
 31
0.0
  0
LINE
  5
3C015
330
18
100
AcDbEntity
  8
1
100
AcDbLine
 10
46.51382599999998
 20
-13.96792200000001
 30
0.0
 11
46.006336
 21
-12.98676100000002
 31
0.0
  0
LINE
  5
3C016
330
18
100
AcDbEntity
  8
1
100
AcDbLine
 10
46.25714199999999
 20
-15.76184800000003
 30
0.0
 11
44.842927
 21
-17.17606000000001
 31
0.0
  0
LINE
  5
3C017
330
18
100
AcDbEntity
  8
1
100
AcDbLine
 10
44.93772299999998
 20
-17.27085700000002
 30
0.0
 11
44.842927
 21
-17.17606000000001
 31
0.0
  0
LINE
  5
3C018
330
18
100
AcDbEntity
  8
1
100
AcDbLine
 10
40.176018
 20
-21.84296100000002
 30
0.0
 11
40.270814
 21
-21.93775800000002
 31
0.0
  0
LINE
  5
3C019
330
18
100
AcDbEntity
  8
1
100
AcDbLine
 10
38.761804
 20
-23.25717300000002
 30
0.0
 11
40.176018
 21
-21.84296100000002
 31
0.0
  0
LINE
  5
3C01A
330
18
100
AcDbEntity
  8
1
100
AcDbLine
 10
26.266393
 20
-11.04458900000001
 30
0.0
 11
30.91755
 21
-15.69575300000002
 31
0.0
  0
LINE
  5
3C01B
330
18
100
AcDbEntity
  8
1
100
AcDbLine
 10
34.044574
 20
-3.266421000000018
 30
0.0
 11
38.695731
 21
-7.917585000000016
 31
0.0
  0
LINE
  5
3C01C
330
18
100
AcDbEntity
  8
1
100
AcDbLine
 10
39.83497100000001
 20
-20.37054100000002
 30
0.0
 11
39.83497100000001
 21
-20.37054100000002
 31
0.0
  0
LINE
  5
3C01D
330
18
100
AcDbEntity
  8
1
100
AcDbLine
 10
23.791517
 20
-13.51946100000002
 30
0.0
 11
26.266393
 21
-11.04458900000001
 31
0.0
  0
LINE
  5
3C01E
330
18
100
AcDbEntity
  8
1
100
AcDbLine
 10
33.573729
 20
-13.03957800000002
 30
0.0
 11
33.13405700000001
 21
-11.36699400000002
 31
0.0
  0
LINE
  5
3C01F
330
18
100
AcDbEntity
  8
1
100
AcDbLine
 10
33.13405700000001
 20
-11.36699400000002
 30
0.0
 11
34.366968
 21
-10.13408500000002
 31
0.0
  0
LINE
  5
3C020
330
18
100
AcDbEntity
  8
1
100
AcDbLine
 10
34.366968
 20
-10.13408500000002
 30
0.0
 11
36.039551
 21
-10.57376000000001
 31
0.0
  0
LINE
  5
3C021
330
18
100
AcDbEntity
  8
1
100
AcDbLine
 10
36.039551
 20
-10.57376000000001
 30
0.0
 11
36.479223
 21
-12.24634300000001
 31
0.0
  0
LINE
  5
3C022
330
18
100
AcDbEntity
  8
1
100
AcDbLine
 10
36.479223
 20
-12.24634300000001
 30
0.0
 11
35.246312
 21
-13.47925200000001
 31
0.0
  0
LINE
  5
3C023
330
18
100
AcDbEntity
  8
1
100
AcDbLine
 10
35.246312
 20
-13.47925200000001
 30
0.0
 11
33.573729
 21
-13.03957800000002
 31
0.0
  0
LINE
  5
3C024
330
18
100
AcDbEntity
  8
1
100
AcDbLine
 10
20.0
 20
19.99999999999998
 30
0.0
 11
0.0
 21
19.99999999999998
 31
0.0
  0
LINE
  5
3C025
330
18
100
AcDbEntity
  8
1
100
AcDbLine
 10
0.0
 20
19.99999999999998
 30
0.0
 11
0.0
 21
-20.00000000000002
 31
0.0
  0
LINE
  5
3C026
330
18
100
AcDbEntity
  8
11
100
AcDbLine
 10
-23.99999999999999
 20
13.17377399999998
 30
0.0
 11
-23.99999999999999
 21
-13.173775
 31
0.0
  0
LINE
  5
3C027
330
18
100
AcDbEntity
  8
11
100
AcDbLine
 10
-1.6
 20
14.06249999999998
 30
0.0
 11
-1.6
 21
-14.06250000000002
 31
0.0
  0
LINE
  5
3C028
330
18
100
AcDbEntity
  8
11
100
AcDbLine
 10
0.0
 20
13.91245299999998
 30
0.0
 11
-1.6
 21
13.87244899999998
 31
0.0
  0
LINE
  5
3C029
330
18
100
AcDbEntity
  8
11
100
AcDbLine
 10
-1.6
 20
-13.87245000000002
 30
0.0
 11
0.0037489999999991
 21
-13.91254700000001
 31
0.0
  0
LINE
  5
3C02A
330
18
100
AcDbEntity
  8
1
100
AcDbLine
 10
6.663397000000008
 20
-6.169807000000019
 30
0.0
 11
6.663409000000008
 21
-19.02459100000001
 31
0.0
  0
LINE
  5
3C02B
330
18
100
AcDbEntity
  8
1
100
AcDbLine
 10
6.923204999999994
 20
-5.859965000000016
 30
0.0
 11
6.923204999999994
 21
-19.12226000000002
 31
0.0
  0
LINE
  5
3C02C
330
18
100
AcDbEntity
  8
1
100
AcDbLine
 10
9.076794999999988
 20
-5.859965000000016
 30
0.0
 11
9.076794999999988
 21
-19.12226000000002
 31
0.0
  0
LINE
  5
3C02D
330
18
100
AcDbEntity
  8
1
100
AcDbLine
 10
9.336601999999999
 20
-6.169807000000019
 30
0.0
 11
9.336590999999996
 21
-19.02459100000001
 31
0.0
  0
LINE
  5
3C02E
330
18
100
AcDbEntity
  8
1
100
AcDbLine
 10
6.663397000000008
 20
6.16980599999998
 30
0.0
 11
6.663409000000008
 21
19.02458999999998
 31
0.0
  0
LINE
  5
3C02F
330
18
100
AcDbEntity
  8
1
100
AcDbLine
 10
6.923204999999994
 20
5.859963999999981
 30
0.0
 11
6.923204999999994
 21
19.12225899999998
 31
0.0
  0
LINE
  5
3C030
330
18
100
AcDbEntity
  8
1
100
AcDbLine
 10
9.076794999999988
 20
5.859963999999981
 30
0.0
 11
9.076794999999988
 21
19.12225899999998
 31
0.0
  0
LINE
  5
3C031
330
18
100
AcDbEntity
  8
1
100
AcDbLine
 10
9.336601999999999
 20
6.16980599999998
 30
0.0
 11
9.336590999999996
 21
19.02458999999998
 31
0.0
  0
LINE
  5
3C032
330
18
100
AcDbEntity
  8
11
100
AcDbLine
 10
-23.49999999999999
 20
13.46244999999999
 30
0.0
 11
-23.49999999999999
 21
-13.46245000000001
 31
0.0
  0
LINE
  5
3C033
330
18
100
AcDbEntity
  8
1
100
AcDbLine
 10
20.0
 20
-20.00000000000002
 30
0.0
 11
0.0
 21
-20.00000000000002
 31
0.0
  0
LINE
  5
3C034
330
18
100
AcDbEntity
  8
11
100
AcDbLine
 10
-1.6
 20
14.06249999999998
 30
0.0
 11
-23.49999999999999
 21
13.46244999999999
 31
0.0
  0
LINE
  5
3C035
330
18
100
AcDbEntity
  8
11
100
AcDbLine
 10
-1.6
 20
-14.06250000000002
 30
0.0
 11
-23.49999999999999
 21
-13.46245000000001
 31
0.0
  0
LINE
  5
3C036
330
18
100
AcDbEntity
  8
11
100
AcDbLine
 10
-23.99999999999999
 20
13.17377399999998
 30
0.0
 11
-23.49999999999999
 21
13.46244999999999
 31
0.0
  0
LINE
  5
3C037
330
18
100
AcDbEntity
  8
11
100
AcDbLine
 10
-23.99999999999999
 20
-13.173775
 30
0.0
 11
-23.49999999999999
 21
-13.46245000000001
 31
0.0
  0
LINE
  5
3C038
330
18
100
AcDbEntity
  8
1
100
AcDbLine
 10
50.0
 20
-26.90000000000002
 30
0.0
 11
50.0
 21
-27.00000000000002
 31
0.0
  0
LINE
  5
3C039
330
18
100
AcDbEntity
  8
1
100
AcDbLine
 10
43.067842
 20
-26.43111000000002
 30
0.0
 11
43.06685199999999
 21
-26.43102900000001
 31
0.0
  0
LINE
  5
3C03A
330
18
100
AcDbEntity
  8
1
100
AcDbLine
 10
49.43111999999999
 20
-20.06784200000002
 30
0.0
 11
49.431039
 21
-20.06685200000001
 31
0.0
  0
LINE
  5
3C03B
330
18
100
AcDbEntity
  8
1
100
AcDbLine
 10
43.067842
 20
-26.43111000000002
 30
0.0
 11
43.06685199999999
 21
-26.43102900000001
 31
0.0
  0
LINE
  5
3C03C
330
18
100
AcDbEntity
  8
1
100
AcDbLine
 10
50.0
 20
-27.00000000000002
 30
0.0
 11
50.09999999999998
 21
-27.00000000000002
 31
0.0
  0
LWPOLYLINE
  5
3C03D
330
18
100
AcDbEntity
  8
1
100
AcDbPolyline
 90
        3
 70
     0
 43
0.0
 10
-44.32704199999998
 20
-16.97419200000001
 10
-44.58878499999999
 20
-17.06508900000001
 10
-44.842927
 20
-17.17606000000001
210
0.0
220
0.0
230
-1.0
  0
LWPOLYLINE
  5
3C03E
330
18
100
AcDbEntity
  8
1
100
AcDbPolyline
 90
        3
 70
     0
 43
0.0
 10
-40.176018
 20
-21.84296100000002
 10
-40.06504899999997
 20
-21.58882300000002
 10
-39.974154
 20
-21.32708500000001
210
0.0
220
0.0
230
-1.0
  0
LWPOLYLINE
  5
3C03F
330
18
100
AcDbEntity
  8
1
100
AcDbPolyline
 90
       33
 70
     0
 43
0.0
 10
-38.695731
 20
-7.917585000000016
 10
-39.054058
 20
-8.313367000000019
 10
-39.37148
 20
-8.742791000000018
 10
-39.64494099999999
 20
-9.201722000000009
 10
-39.871806
 20
-9.685740000000015
 10
-40.04989099999998
 20
-10.19018400000001
 10
-40.17748
 20
-10.71019600000001
 10
-40.25334499999997
 20
-11.24076700000002
 10
-40.276756
 20
-11.77678800000002
 10
-40.24748599999997
 20
-12.31309700000002
 10
-40.16581799999999
 20
-12.84452900000001
 10
-40.03253799999997
 20
-13.36596600000002
 10
-39.84892999999999
 20
-13.87238500000001
 10
-39.616762
 20
-14.35891100000002
 10
-39.33826999999999
 20
-14.82085700000002
 10
-39.016135
 20
-15.25377500000002
 10
-38.653461
 20
-15.65349600000002
 10
-38.25374
 20
-16.01616900000002
 10
-37.820822
 20
-16.33830300000001
 10
-37.358875
 20
-16.61679400000002
 10
-36.872349
 20
-16.84896200000002
 10
-36.365929
 20
-17.03256900000002
 10
-35.844492
 20
-17.16584800000001
 10
-35.31306
 20
-17.24751500000001
 10
-34.77675100000001
 20
-17.27678400000002
 10
-34.24073
 20
-17.25337300000001
 10
-33.71015900000001
 20
-17.17750700000002
 10
-33.190148
 20
-17.04991600000001
 10
-32.685704
 20
-16.87183100000003
 10
-32.201686
 20
-16.64496500000002
 10
-31.742755
 20
-16.37150400000001
 10
-31.313331
 20
-16.05408100000001
 10
-30.91755
 20
-15.69575300000002
210
0.0
220
0.0
230
-1.0
  0
LWPOLYLINE
  5
3C040
330
18
100
AcDbEntity
  8
1
100
AcDbPolyline
 90
        9
 70
     0
 43
0.0
 10
-49.99736399999999
 20
-26.13750400000002
 10
-49.99267599999999
 20
-26.30937
 10
-49.95090799999999
 20
-26.47655500000002
 10
-49.874042
 20
-26.63113100000001
 10
-49.76572199999999
 20
-26.76577000000002
 10
-49.631082
 20
-26.87409100000002
 10
-49.47650499999999
 20
-26.95095700000001
 10
-49.30932099999999
 20
-26.99272400000002
 10
-49.13745399999999
 20
-26.99741200000002
210
0.0
220
0.0
230
-1.0
  0
LWPOLYLINE
  5
3C041
330
18
100
AcDbEntity
  8
1
100
AcDbPolyline
 90
       17
 70
     0
 43
0.0
 10
-39.974154
 20
-21.32708500000001
 10
-39.873732
 20
-20.87187400000002
 10
-39.835329
 20
-20.40664900000001
 10
-39.859638
 20
-19.93978999999999
 10
-39.94622099999999
 20
-19.47970900000002
 10
-40.093518
 20
-19.03469700000001
 10
-40.29887399999998
 20
-18.61277000000002
 10
-40.55858999999997
 20
-18.22153000000002
 10
-40.86798599999997
 20
-17.86802800000002
 10
-41.22148799999999
 20
-17.55863100000002
 10
-41.612727
 20
-17.298915
 10
-42.03465399999998
 20
-17.09355800000001
 10
-42.479667
 20
-16.94626100000002
 10
-42.93974699999997
 20
-16.85967800000002
 10
-43.40660599999998
 20
-16.83536900000001
 10
-43.87183199999999
 20
-16.87377100000002
 10
-44.32704199999998
 20
-16.97419200000001
210
0.0
220
0.0
230
-1.0
  0
LWPOLYLINE
  5
3C042
330
18
100
AcDbEntity
  8
1
100
AcDbPolyline
 90
        9
 70
     0
 43
0.0
 10
-34.510973
 20
-23.15252600000002
 10
-34.364512
 20
-23.06415800000001
 10
-34.24099699999999
 20
-22.94597400000002
 10
-34.146282
 20
-22.80357700000001
 10
-34.084859
 20
-22.64371700000002
 10
-34.05963900000001
 20
-22.47397400000001
 10
-34.071819
 20
-22.30239300000002
 10
-34.120819
 20
-22.13711000000002
 10
-34.204319
 20
-21.985961
210
0.0
220
0.0
230
-1.0
  0
LWPOLYLINE
  5
3C043
330
18
100
AcDbEntity
  8
1
100
AcDbPolyline
 90
       64
 70
     1
 43
0.0
 10
-32.68531800000001
 20
-13.92798700000002
 10
-32.489867
 20
-13.71210600000002
 10
-32.316727
 20
-13.47787500000002
 10
-32.167567
 20
-13.22754900000001
 10
-32.043822
 20
-12.96353900000001
 10
-31.946685
 20
-12.68838700000002
 10
-31.87709100000001
 20
-12.40474500000002
 10
-31.83571
 20
-12.11534200000002
 10
-31.822941
 20
-11.82296700000002
 10
-31.838906
 20
-11.53043500000002
 10
-31.88345200000001
 20
-11.24056300000002
 10
-31.95615000000001
 20
-10.95614300000002
 10
-32.0563
 20
-10.67991400000002
 10
-32.182937
 20
-10.41453700000002
 10
-32.33484199999999
 20
-10.16256600000002
 10
-32.51055200000001
 20
-9.926429000000018
 10
-32.708374
 20
-9.708399000000019
 10
-32.926404
 20
-9.510578000000007
 10
-33.162541
 20
-9.334868000000019
 10
-33.414512
 20
-9.182964000000009
 10
-33.67989
 20
-9.056327000000015
 10
-33.956119
 20
-8.956178000000019
 10
-34.240539
 20
-8.883480000000018
 10
-34.530411
 20
-8.838934000000016
 10
-34.822943
 20
-8.822970000000008
 10
-35.115318
 20
-8.835739000000017
 10
-35.40472100000001
 20
-8.877121000000013
 10
-35.688363
 20
-8.946715000000017
 10
-35.963515
 20
-9.043853000000007
 10
-36.22752399999999
 20
-9.167598000000019
 10
-36.47785
 20
-9.316759000000015
 10
-36.712081
 20
-9.489899000000015
 10
-36.927962
 20
-9.685350000000019
 10
-37.12341400000001
 20
-9.901231000000018
 10
-37.29655300000001
 20
-10.13546300000002
 10
-37.445713
 20
-10.38578900000001
 10
-37.569458
 20
-10.64979900000002
 10
-37.666595
 20
-10.92495000000002
 10
-37.73618900000001
 20
-11.20859300000002
 10
-37.77757000000001
 20
-11.49799500000002
 10
-37.79034
 20
-11.79037000000001
 10
-37.774374
 20
-12.08290300000001
 10
-37.72982800000001
 20
-12.37277400000002
 10
-37.65713
 20
-12.65719400000002
 10
-37.55698
 20
-12.93342300000002
 10
-37.430343
 20
-13.19880100000001
 10
-37.278438
 20
-13.45077200000001
 10
-37.10272800000001
 20
-13.686909
 10
-36.904906
 20
-13.90493800000002
 10
-36.68687699999999
 20
-14.10276000000001
 10
-36.450739
 20
-14.27846900000002
 10
-36.198768
 20
-14.43037400000002
 10
-35.93339
 20
-14.55701000000002
 10
-35.657161
 20
-14.65716000000002
 10
-35.372741
 20
-14.72985700000002
 10
-35.082869
 20
-14.77440300000002
 10
-34.790337
 20
-14.79036800000002
 10
-34.497962
 20
-14.77759800000002
 10
-34.20855899999999
 20
-14.73621700000002
 10
-33.924917
 20
-14.66662200000001
 10
-33.649766
 20
-14.56948400000001
 10
-33.385756
 20
-14.44574000000001
 10
-33.13543000000001
 20
-14.29657900000001
 10
-32.901199
 20
-14.12343900000002
210
0.0
220
0.0
230
-1.0
  0
LWPOLYLINE
  5
3C044
330
18
100
AcDbEntity
  8
1
100
AcDbPolyline
 90
       64
 70
     1
 43
0.0
 10
-31.271103
 20
-15.34220000000002
 10
-30.945351
 20
-14.98239800000002
 10
-30.656785
 20
-14.59201200000002
 10
-30.40818500000001
 20
-14.17480200000001
 10
-30.201944
 20
-13.73478500000001
 10
-30.040049
 20
-13.27620000000002
 10
-29.924058
 20
-12.80346200000002
 10
-29.85509000000001
 20
-12.32112500000002
 10
-29.833808
 20
-11.83383300000001
 10
-29.860417
 20
-11.34627900000002
 10
-29.93466
 20
-10.86315900000001
 10
-30.055824
 20
-10.38912600000001
 10
-30.22274000000001
 20
-9.928745000000008
 10
-30.43380200000001
 20
-9.486448000000017
 10
-30.686977
 20
-9.066497000000019
 10
-30.979826
 20
-8.672936000000017
 10
-31.30953000000001
 20
-8.309553000000017
 10
-31.672913
 20
-7.979850000000019
 10
-32.06647500000001
 20
-7.687002000000008
 10
-32.486427
 20
-7.433827000000007
 10
-32.928723
 20
-7.222766000000017
 10
-33.389105
 20
-7.055850000000019
 10
-33.863138
 20
-6.934688000000022
 10
-34.346258
 20
-6.860445000000008
 10
-34.833812
 20
-6.833837000000019
 10
-35.321104
 20
-6.855120000000008
 10
-35.803441
 20
-6.924089000000016
 10
-36.276179
 20
-7.040080000000019
 10
-36.734764
 20
-7.201976000000008
 10
-37.17478
 20
-7.408217000000008
 10
-37.59199000000001
 20
-7.656819000000019
 10
-37.982376
 20
-7.945385000000019
 10
-38.342177
 20
-8.271138000000027
 10
-38.667929
 20
-8.630940000000016
 10
-38.95649500000001
 20
-9.021325000000027
 10
-39.205095
 20
-9.438536000000018
 10
-39.411336
 20
-9.878552000000015
 10
-39.573232
 20
-10.33713800000002
 10
-39.689222
 20
-10.80987500000002
 10
-39.75819
 20
-11.29221300000002
 10
-39.779473
 20
-11.77950500000001
 10
-39.752864
 20
-12.26705800000002
 10
-39.67862
 20
-12.75017800000002
 10
-39.557456
 20
-13.22421100000001
 10
-39.39054
 20
-13.68459300000002
 10
-39.179478
 20
-14.12688900000002
 10
-38.926303
 20
-14.54684000000002
 10
-38.633454
 20
-14.94040200000002
 10
-38.30375
 20
-15.30378400000001
 10
-37.940368
 20
-15.63348700000002
 10
-37.546805
 20
-15.92633600000002
 10
-37.126854
 20
-16.17951000000002
 10
-36.684557
 20
-16.39057100000001
 10
-36.224175
 20
-16.55748700000002
 10
-35.750142
 20
-16.67865000000002
 10
-35.267022
 20
-16.75289300000002
 10
-34.779468
 20
-16.77950100000002
 10
-34.292176
 20
-16.75821800000002
 10
-33.809839
 20
-16.68924900000002
 10
-33.33710100000001
 20
-16.57325800000001
 10
-32.878516
 20
-16.41136200000001
 10
-32.43850000000001
 20
-16.20512000000001
 10
-32.02129000000001
 20
-15.95651900000002
 10
-31.630905
 20
-15.667952
210
0.0
220
0.0
230
-1.0
  0
LWPOLYLINE
  5
3C045
330
18
100
AcDbEntity
  8
1
100
AcDbPolyline
 90
       32
 70
     1
 43
0.0
 10
-43.01441099999999
 20
-18.332726
 10
-43.37506099999997
 20
-18.33469100000002
 10
-43.72762899999999
 20
-18.40698500000002
 10
-44.058567
 20
-18.54683100000002
 10
-44.355155
 20
-18.74885500000002
 10
-44.60599799999999
 20
-19.00529200000001
 10
-44.80145399999999
 20
-19.30628800000002
 10
-44.93401299999999
 20
-19.64027700000002
 10
-44.99858099999999
 20
-19.99442200000002
 10
-44.99267499999999
 20
-20.35511500000002
 10
-44.91652399999998
 20
-20.70849400000001
 10
-44.77305399999997
 20
-21.04097900000002
 10
-44.567778
 20
-21.33979300000002
 10
-44.30858399999999
 20
-21.59345300000002
 10
-44.00543399999999
 20
-21.79221000000002
 10
-43.66997699999997
 20
-21.92842600000001
 10
-43.31510499999999
 20
-21.99686700000002
 10
-42.95445499999998
 20
-21.99490300000002
 10
-42.60188699999999
 20
-21.92260900000002
 10
-42.27094899999999
 20
-21.78276300000001
 10
-41.974361
 20
-21.58073900000001
 10
-41.723518
 20
-21.32430200000002
 10
-41.52806199999999
 20
-21.02330500000002
 10
-41.39550299999998
 20
-20.68931700000002
 10
-41.330935
 20
-20.33517100000002
 10
-41.33684099999999
 20
-19.97447800000002
 10
-41.41299199999997
 20
-19.62109900000002
 10
-41.55646199999997
 20
-19.28861400000001
 10
-41.76173799999999
 20
-18.98980000000002
 10
-42.02093199999999
 20
-18.73614100000001
 10
-42.324082
 20
-18.53738400000001
 10
-42.65953899999997
 20
-18.40116800000002
210
0.0
220
0.0
230
-1.0
  0
LWPOLYLINE
  5
3C046
330
18
100
AcDbEntity
  8
1
100
AcDbPolyline
 90
        9
 70
     0
 43
0.0
 10
-44.98593599999998
 20
-11.20436100000002
 10
-45.137086
 20
-11.12086200000002
 10
-45.302369
 20
-11.07186100000002
 10
-45.47394899999999
 20
-11.05968300000002
 10
-45.643693
 20
-11.08490300000001
 10
-45.80355299999999
 20
-11.14632600000001
 10
-45.94594999999999
 20
-11.24104100000002
 10
-46.064134
 20
-11.36455600000002
 10
-46.15250099999999
 20
-11.51101800000002
210
0.0
220
0.0
230
-1.0
  0
LWPOLYLINE
  5
3C047
330
18
100
AcDbEntity
  8
1
100
AcDbPolyline
 90
       19
 70
     0
 43
0.0
 10
-17.00050099999999
 20
-18.07357600000001
 10
-16.83774299999999
 20
-17.06835400000002
 10
-16.68517999999999
 20
-15.87233800000002
 10
-16.50055
 20
-14.00425400000001
 10
-16.34072699999999
 20
-11.85807300000002
 10
-16.208885
 20
-9.476413000000027
 10
-16.10764200000001
 20
-6.906570000000016
 10
-16.03900900000001
 20
-4.199577000000018
 10
-16.01737300000001
 20
-2.811369000000009
 10
-15.99999999999999
 20
-0.0000010000000188
 10
-16.01737300000001
 20
2.811367999999978
 10
-16.06914899999999
 20
5.566907999999981
 10
-16.154299
 20
8.21189999999998
 10
-16.271131
 20
10.69381999999998
 10
-16.417327
 20
12.96338099999998
 10
-16.58998200000001
 20
14.97551399999998
 10
-16.73479299999999
 20
16.29142499999998
 10
-16.89095
 20
17.42522599999998
 10
-17.000501
 20
18.07357499999998
210
0.0
220
0.0
230
-1.0
  0
LWPOLYLINE
  5
3C048
330
18
100
AcDbEntity
  8
1
100
AcDbPolyline
 90
       17
 70
     0
 43
0.0
 10
-16.84763699999999
 20
-9.060160000000008
 10
-16.808391
 20
-9.028608000000009
 10
-16.76962
 20
-8.948174000000019
 10
-16.69537700000001
 20
-8.645146000000007
 10
-16.598851
 20
-7.866821000000013
 10
-16.529263
 20
-6.777912000000021
 10
-16.501704
 20
-5.936633000000018
 10
-16.49730900000001
 20
-4.160826000000017
 10
-16.538403
 20
-2.916026000000017
 10
-16.61298099999999
 20
-1.89671100000002
 10
-16.677439
 20
-1.398330000000019
 10
-16.750129
 20
-1.074082000000007
 10
-16.78847300000001
 20
-0.9825110000000199
 10
-16.827535
 20
-0.9396500000000179
 10
-16.866841
 20
-0.94601800000002
 10
-16.905914
 20
-1.001537000000014
 10
-16.981474
 20
-1.256750000000018
210
0.0
220
0.0
230
-1.0
  0
LWPOLYLINE
  5
3C049
330
18
100
AcDbEntity
  8
1
100
AcDbPolyline
 90
       33
 70
     0
 43
0.0
 10
-40.270814
 20
-21.93775800000002
 10
-40.1661
 20
-21.69246100000001
 10
-40.08064
 20
-21.43963400000001
 10
-40.014941
 20
-21.18077400000002
 10
-39.96939000000001
 20
-20.91741200000002
 10
-39.944257
 20
-20.65110600000001
 10
-39.939692
 20
-20.38343200000002
 10
-39.955721
 20
-20.11597400000001
 10
-39.992249
 20
-19.85031500000001
 10
-40.04906
 20
-19.58802800000001
 10
-40.12581799999997
 20
-19.33066300000002
 10
-40.22206899999999
 20
-19.07974400000002
 10
-40.337243
 20
-18.83675500000002
 10
-40.47065899999997
 20
-18.60313600000002
 10
-40.621527
 20
-18.38026700000002
 10
-40.788955
 20
-18.16946800000002
 10
-40.97195099999999
 20
-17.97198700000002
 10
-41.16943299999999
 20
-17.78899100000002
 10
-41.380232
 20
-17.621564
 10
-41.60310099999999
 20
-17.47069600000001
 10
-41.83672
 20
-17.33728100000002
 10
-42.079709
 20
-17.22210700000002
 10
-42.33062799999999
 20
-17.12585700000001
 10
-42.58799299999997
 20
-17.04909900000002
 10
-42.85028099999999
 20
-16.99228800000002
 10
-43.11593999999998
 20
-16.95576000000002
 10
-43.38339699999997
 20
-16.93973200000002
 10
-43.65107099999998
 20
-16.94429800000001
 10
-43.91737699999999
 20
-16.96943100000003
 10
-44.18073999999999
 20
-17.01498200000002
 10
-44.43959999999999
 20
-17.08068200000002
 10
-44.692426
 20
-17.16614200000003
 10
-44.93772299999998
 20
-17.27085700000002
210
0.0
220
0.0
230
-1.0
  0
POLYLINE
  5
3C04A
330
18
100
AcDbEntity
  8
1
100
AcDb2dPolyline
 66
     1
 10
0.0
 20
0.0
 30
0.0
 70
     4
 75
     6
  0
VERTEX
  5
3C04B
330
3C04A
100
AcDbEntity
  8
1
100
AcDbVertex
100
AcDb2dVertex
 10
44.42381499999998
 20
-14.56927900000001
 30
0.0
 70
    16
  0
VERTEX
  5
3C04C
330
3C04A
100
AcDbEntity
  8
1
100
AcDbVertex
100
AcDb2dVertex
 10
44.53543499999999
 20
-14.97895200000001
 30
0.0
 70
    16
  0
VERTEX
  5
3C04D
330
3C04A
100
AcDbEntity
  8
1
100
AcDbVertex
100
AcDb2dVertex
 10
44.63565399999999
 20
-15.39161500000001
 30
0.0
 70
    16
  0
VERTEX
  5
3C04E
330
3C04A
100
AcDbEntity
  8
1
100
AcDbVertex
100
AcDb2dVertex
 10
44.81795699999999
 20
-16.29086000000001
 30
0.0
 70
    16
  0
VERTEX
  5
3C04F
330
3C04A
100
AcDbEntity
  8
1
100
AcDbVertex
100
AcDb2dVertex
 10
44.89486999999999
 20
-16.77866700000002
 30
0.0
 70
    16
  0
VERTEX
  5
3C050
330
3C04A
100
AcDbEntity
  8
1
100
AcDbVertex
100
AcDb2dVertex
 10
44.93772299999998
 20
-17.27085700000002
 30
0.0
 70
    16
  0
VERTEX
  5
3C051
330
3C04A
100
AcDbEntity
  8
1
100
AcDbVertex
100
AcDb2dVertex
 10
44.42381499999998
 20
-14.56927900000001
 30
0.0
 70
     8
  0
VERTEX
  5
3C052
330
3C04A
100
AcDbEntity
  8
1
100
AcDbVertex
100
AcDb2dVertex
 10
44.63052199999999
 20
-15.392696
 30
0.0
 70
     8
  0
VERTEX
  5
3C053
330
3C04A
100
AcDbEntity
  8
1
100
AcDbVertex
100
AcDb2dVertex
 10
44.81045299999999
 20
-16.29235600000002
 30
0.0
 70
     8
  0
VERTEX
  5
3C054
330
3C04A
100
AcDbEntity
  8
1
100
AcDbVertex
100
AcDb2dVertex
 10
44.88399799999998
 20
-16.78013200000002
 30
0.0
 70
     8
  0
VERTEX
  5
3C055
330
3C04A
100
AcDbEntity
  8
1
100
AcDbVertex
100
AcDb2dVertex
 10
44.93772299999998
 20
-17.27085700000002
 30
0.0
 70
     8
  0
SEQEND
  5
3C056
330
3C04A
100
AcDbEntity
  8
1
  0
POLYLINE
  5
3C057
330
18
100
AcDbEntity
  8
1
100
AcDb3dPolyline
 66
     1
 10
0.0
 20
0.0
 30
0.0
 70
    12
 75
     6
  0
VERTEX
  5
3C058
330
3C057
100
AcDbEntity
  8
1
100
AcDbVertex
100
AcDb3dPolylineVertex
 10
37.569222
 20
-21.42386000000002
 30
0.0
 70
    48
  0
VERTEX
  5
3C059
330
3C057
100
AcDbEntity
  8
1
100
AcDbVertex
100
AcDb3dPolylineVertex
 10
37.516524
 20
-20.93128300000001
 30
0.0
 70
    48
  0
VERTEX
  5
3C05A
330
3C057
100
AcDbEntity
  8
1
100
AcDbVertex
100
AcDb3dPolylineVertex
 10
37.52265700000001
 20
-20.45661600000002
 30
0.0
 70
    48
  0
VERTEX
  5
3C05B
330
3C057
100
AcDbEntity
  8
1
100
AcDbVertex
100
AcDb3dPolylineVertex
 10
37.635641
 20
-19.58875300000002
 30
0.0
 70
    48
  0
VERTEX
  5
3C05C
330
3C057
100
AcDbEntity
  8
1
100
AcDbVertex
100
AcDb3dPolylineVertex
 10
37.716267
 20
-19.22920200000001
 30
0.0
 70
    48
  0
VERTEX
  5
3C05D
330
3C057
100
AcDbEntity
  8
1
100
AcDbVertex
100
AcDb3dPolylineVertex
 10
37.925109
 20
-18.58401000000002
 30
0.0
 70
    48
  0
VERTEX
  5
3C05E
330
3C057
100
AcDbEntity
  8
1
100
AcDbVertex
100
AcDb3dPolylineVertex
 10
38.027116
 20
-18.33026200000002
 30
0.0
 70
    48
  0
VERTEX
  5
3C05F
330
3C057
100
AcDbEntity
  8
1
100
AcDbVertex
100
AcDb3dPolylineVertex
 10
38.43247
 20
-17.489458
 30
0.0
 70
    48
  0
VERTEX
  5
3C060
330
3C057
100
AcDbEntity
  8
1
100
AcDbVertex
100
AcDb3dPolylineVertex
 10
38.800898
 20
-16.95673400000002
 30
0.0
 70
    48
  0
VERTEX
  5
3C061
330
3C057
100
AcDbEntity
  8
1
100
AcDbVertex
100
AcDb3dPolylineVertex
 10
39.240493
 20
-16.49151100000001
 30
0.0
 70
    48
  0
VERTEX
  5
3C062
330
3C057
100
AcDbEntity
  8
1
100
AcDbVertex
100
AcDb3dPolylineVertex
 10
39.240493
 20
-16.49151100000001
 30
0.0
 70
    48
  0
VERTEX
  5
3C063
330
3C057
100
AcDbEntity
  8
1
100
AcDbVertex
100
AcDb3dPolylineVertex
 10
39.680592
 20
-16.02575400000002
 30
0.0
 70
    48
  0
VERTEX
  5
3C064
330
3C057
100
AcDbEntity
  8
1
100
AcDbVertex
100
AcDb3dPolylineVertex
 10
40.192246
 20
-15.62735700000002
 30
0.0
 70
    48
  0
VERTEX
  5
3C065
330
3C057
100
AcDbEntity
  8
1
100
AcDbVertex
100
AcDb3dPolylineVertex
 10
40.75949199999999
 20
-15.31329500000001
 30
0.0
 70
    48
  0
VERTEX
  5
3C066
330
3C057
100
AcDbEntity
  8
1
100
AcDbVertex
100
AcDb3dPolylineVertex
 10
40.75949199999999
 20
-15.31329500000001
 30
0.0
 70
    48
  0
VERTEX
  5
3C067
330
3C057
100
AcDbEntity
  8
1
100
AcDbVertex
100
AcDb3dPolylineVertex
 10
41.009218
 20
-15.17503200000002
 30
0.0
 70
    48
  0
VERTEX
  5
3C068
330
3C057
100
AcDbEntity
  8
1
100
AcDbVertex
100
AcDb3dPolylineVertex
 10
41.25648199999999
 20
-15.05897100000001
 30
0.0
 70
    48
  0
VERTEX
  5
3C069
330
3C057
100
AcDbEntity
  8
1
100
AcDbVertex
100
AcDb3dPolylineVertex
 10
41.887093
 20
-14.81459900000002
 30
0.0
 70
    48
  0
VERTEX
  5
3C06A
330
3C057
100
AcDbEntity
  8
1
100
AcDbVertex
100
AcDb3dPolylineVertex
 10
42.240071
 20
-14.71389100000001
 30
0.0
 70
    48
  0
VERTEX
  5
3C06B
330
3C057
100
AcDbEntity
  8
1
100
AcDbVertex
100
AcDb3dPolylineVertex
 10
43.106417
 20
-14.54962800000002
 30
0.0
 70
    48
  0
VERTEX
  5
3C06C
330
3C057
100
AcDbEntity
  8
1
100
AcDbVertex
100
AcDb3dPolylineVertex
 10
43.58804
 20
-14.51631800000002
 30
0.0
 70
    48
  0
VERTEX
  5
3C06D
330
3C057
100
AcDbEntity
  8
1
100
AcDbVertex
100
AcDb3dPolylineVertex
 10
44.20471599999999
 20
-14.54869500000001
 30
0.0
 70
    48
  0
VERTEX
  5
3C06E
330
3C057
100
AcDbEntity
  8
1
100
AcDbVertex
100
AcDb3dPolylineVertex
 10
44.31201399999999
 20
-14.557308
 30
0.0
 70
    48
  0
VERTEX
  5
3C06F
330
3C057
100
AcDbEntity
  8
1
100
AcDbVertex
100
AcDb3dPolylineVertex
 10
44.42382199999999
 20
-14.56927200000002
 30
0.0
 70
    48
  0
VERTEX
  5
3C070
330
3C057
100
AcDbEntity
  8
1
100
AcDbVertex
100
AcDb3dPolylineVertex
 10
37.569222
 20
-21.42386000000002
 30
0.0
 70
    40
  0
VERTEX
  5
3C071
330
3C057
100
AcDbEntity
  8
1
100
AcDbVertex
100
AcDb3dPolylineVertex
 10
37.536075
 20
-20.93614000000001
 30
0.0
 70
    40
  0
VERTEX
  5
3C072
330
3C057
100
AcDbEntity
  8
1
100
AcDbVertex
100
AcDb3dPolylineVertex
 10
37.541797
 20
-20.45368200000002
 30
0.0
 70
    40
  0
VERTEX
  5
3C073
330
3C057
100
AcDbEntity
  8
1
100
AcDbVertex
100
AcDb3dPolylineVertex
 10
37.586033
 20
-19.96980700000003
 30
0.0
 70
    40
  0
VERTEX
  5
3C074
330
3C057
100
AcDbEntity
  8
1
100
AcDbVertex
100
AcDb3dPolylineVertex
 10
37.64627899999999
 20
-19.59474200000002
 30
0.0
 70
    40
  0
VERTEX
  5
3C075
330
3C057
100
AcDbEntity
  8
1
100
AcDbVertex
100
AcDb3dPolylineVertex
 10
37.728999
 20
-19.22694300000002
 30
0.0
 70
    40
  0
VERTEX
  5
3C076
330
3C057
100
AcDbEntity
  8
1
100
AcDbVertex
100
AcDb3dPolylineVertex
 10
37.92974500000001
 20
-18.59026800000002
 30
0.0
 70
    40
  0
VERTEX
  5
3C077
330
3C057
100
AcDbEntity
  8
1
100
AcDbVertex
100
AcDb3dPolylineVertex
 10
38.151223
 20
-18.07283300000001
 30
0.0
 70
    40
  0
VERTEX
  5
3C078
330
3C057
100
AcDbEntity
  8
1
100
AcDbVertex
100
AcDb3dPolylineVertex
 10
38.460937
 20
-17.50696600000002
 30
0.0
 70
    40
  0
VERTEX
  5
3C079
330
3C057
100
AcDbEntity
  8
1
100
AcDbVertex
100
AcDb3dPolylineVertex
 10
38.825213
 20
-16.97861000000001
 30
0.0
 70
    40
  0
VERTEX
  5
3C07A
330
3C057
100
AcDbEntity
  8
1
100
AcDbVertex
100
AcDb3dPolylineVertex
 10
39.240493
 20
-16.49151100000001
 30
0.0
 70
    40
  0
VERTEX
  5
3C07B
330
3C057
100
AcDbEntity
  8
1
100
AcDbVertex
100
AcDb3dPolylineVertex
 10
39.240493
 20
-16.49151100000001
 30
0.0
 70
    40
  0
VERTEX
  5
3C07C
330
3C057
100
AcDbEntity
  8
1
100
AcDbVertex
100
AcDb3dPolylineVertex
 10
39.70385200000001
 20
-16.04883600000002
 30
0.0
 70
    40
  0
VERTEX
  5
3C07D
330
3C057
100
AcDbEntity
  8
1
100
AcDbVertex
100
AcDb3dPolylineVertex
 10
40.21136799999999
 20
-15.65484
 30
0.0
 70
    40
  0
VERTEX
  5
3C07E
330
3C057
100
AcDbEntity
  8
1
100
AcDbVertex
100
AcDb3dPolylineVertex
 10
40.75949199999999
 20
-15.31329500000001
 30
0.0
 70
    40
  0
VERTEX
  5
3C07F
330
3C057
100
AcDbEntity
  8
1
100
AcDbVertex
100
AcDb3dPolylineVertex
 10
40.75949199999999
 20
-15.31329500000001
 30
0.0
 70
    40
  0
VERTEX
  5
3C080
330
3C057
100
AcDbEntity
  8
1
100
AcDbVertex
100
AcDb3dPolylineVertex
 10
41.26298499999999
 20
-15.06323600000001
 30
0.0
 70
    40
  0
VERTEX
  5
3C081
330
3C057
100
AcDbEntity
  8
1
100
AcDbVertex
100
AcDb3dPolylineVertex
 10
41.88554299999998
 20
-14.82730900000002
 30
0.0
 70
    40
  0
VERTEX
  5
3C082
330
3C057
100
AcDbEntity
  8
1
100
AcDbVertex
100
AcDb3dPolylineVertex
 10
42.246603
 20
-14.72405700000002
 30
0.0
 70
    40
  0
VERTEX
  5
3C083
330
3C057
100
AcDbEntity
  8
1
100
AcDbVertex
100
AcDb3dPolylineVertex
 10
42.61611
 20
-14.64259200000003
 30
0.0
 70
    40
  0
VERTEX
  5
3C084
330
3C057
100
AcDbEntity
  8
1
100
AcDbVertex
100
AcDb3dPolylineVertex
 10
43.10463999999998
 20
-14.56951500000001
 30
0.0
 70
    40
  0
VERTEX
  5
3C085
330
3C057
100
AcDbEntity
  8
1
100
AcDbVertex
100
AcDb3dPolylineVertex
 10
43.59408399999998
 20
-14.53622400000002
 30
0.0
 70
    40
  0
VERTEX
  5
3C086
330
3C057
100
AcDbEntity
  8
1
100
AcDbVertex
100
AcDb3dPolylineVertex
 10
44.09114599999997
 20
-14.54273300000002
 30
0.0
 70
    40
  0
VERTEX
  5
3C087
330
3C057
100
AcDbEntity
  8
1
100
AcDbVertex
100
AcDb3dPolylineVertex
 10
44.42382199999999
 20
-14.56927200000002
 30
0.0
 70
    40
  0
SEQEND
  5
3C088
330
3C057
100
AcDbEntity
  8
1
  0
POLYLINE
  5
3C089
330
18
100
AcDbEntity
  8
1
100
AcDb3dPolyline
 66
     1
 10
0.0
 20
0.0
 30
0.0
 70
    12
 75
     6
  0
VERTEX
  5
3C08A
330
3C089
100
AcDbEntity
  8
1
100
AcDbVertex
100
AcDb3dPolylineVertex
 10
40.270814
 20
-21.93775800000002
 30
0.0
 70
    48
  0
VERTEX
  5
3C08B
330
3C089
100
AcDbEntity
  8
1
100
AcDbVertex
100
AcDb3dPolylineVertex
 10
40.08059999999999
 20
-21.92119600000002
 30
0.0
 70
    48
  0
VERTEX
  5
3C08C
330
3C089
100
AcDbEntity
  8
1
100
AcDbVertex
100
AcDb3dPolylineVertex
 10
39.89091699999999
 20
-21.89943700000001
 30
0.0
 70
    48
  0
VERTEX
  5
3C08D
330
3C089
100
AcDbEntity
  8
1
100
AcDbVertex
100
AcDb3dPolylineVertex
 10
38.982138
 20
-21.77426300000001
 30
0.0
 70
    48
  0
VERTEX
  5
3C08E
330
3C089
100
AcDbEntity
  8
1
100
AcDbVertex
100
AcDb3dPolylineVertex
 10
38.271368
 20
-21.61510799999999
 30
0.0
 70
    48
  0
VERTEX
  5
3C08F
330
3C089
100
AcDbEntity
  8
1
100
AcDbVertex
100
AcDb3dPolylineVertex
 10
37.569234
 20
-21.42384900000001
 30
0.0
 70
    48
  0
VERTEX
  5
3C090
330
3C089
100
AcDbEntity
  8
1
100
AcDbVertex
100
AcDb3dPolylineVertex
 10
40.270814
 20
-21.93775800000002
 30
0.0
 70
    40
  0
VERTEX
  5
3C091
330
3C089
100
AcDbEntity
  8
1
100
AcDbVertex
100
AcDb3dPolylineVertex
 10
39.701831
 20
-21.87339200000001
 30
0.0
 70
    40
  0
VERTEX
  5
3C092
330
3C089
100
AcDbEntity
  8
1
100
AcDbVertex
100
AcDb3dPolylineVertex
 10
38.985102
 20
-21.75528900000002
 30
0.0
 70
    40
  0
VERTEX
  5
3C093
330
3C089
100
AcDbEntity
  8
1
100
AcDbVertex
100
AcDb3dPolylineVertex
 10
38.274257
 20
-21.60337300000002
 30
0.0
 70
    40
  0
VERTEX
  5
3C094
330
3C089
100
AcDbEntity
  8
1
100
AcDbVertex
100
AcDb3dPolylineVertex
 10
37.569234
 20
-21.42384900000001
 30
0.0
 70
    40
  0
SEQEND
  5
3C095
330
3C089
100
AcDbEntity
  8
1
  0
POLYLINE
  5
3C096
330
18
100
AcDbEntity
  8
1
100
AcDb2dPolyline
 66
     1
 10
0.0
 20
0.0
 30
0.0
 70
     4
 75
     6
  0
VERTEX
  5
3C097
330
3C096
100
AcDbEntity
  8
1
100
AcDbVertex
100
AcDb2dVertex
 10
20.57075199999999
 20
-20.50000000000002
 30
0.0
 70
    16
  0
VERTEX
  5
3C098
330
3C096
100
AcDbEntity
  8
1
100
AcDbVertex
100
AcDb2dVertex
 10
20.52525799999999
 20
-20.31379300000002
 30
0.0
 70
    16
  0
VERTEX
  5
3C099
330
3C096
100
AcDbEntity
  8
1
100
AcDbVertex
100
AcDb2dVertex
 10
20.47981
 20
-20.12757500000002
 30
0.0
 70
    16
  0
VERTEX
  5
3C09A
330
3C096
100
AcDbEntity
  8
1
100
AcDbVertex
100
AcDb2dVertex
 10
20.28910600000001
 20
-19.34530800000001
 30
0.0
 70
    16
  0
VERTEX
  5
3C09B
330
3C096
100
AcDbEntity
  8
1
100
AcDbVertex
100
AcDb2dVertex
 10
20.14428399999999
 20
-18.74915400000002
 30
0.0
 70
    16
  0
VERTEX
  5
3C09C
330
3C096
100
AcDbEntity
  8
1
100
AcDbVertex
100
AcDb2dVertex
 10
20.0
 20
-18.15286900000002
 30
0.0
 70
    16
  0
VERTEX
  5
3C09D
330
3C096
100
AcDbEntity
  8
1
100
AcDbVertex
100
AcDb2dVertex
 10
20.57075199999999
 20
-20.50000000000002
 30
0.0
 70
     8
  0
VERTEX
  5
3C09E
330
3C096
100
AcDbEntity
  8
1
100
AcDbVertex
100
AcDb2dVertex
 10
20.0
 20
-18.15286900000002
 30
0.0
 70
     8
  0
SEQEND
  5
3C09F
330
3C096
100
AcDbEntity
  8
1
  0
POLYLINE
  5
3C0A0
330
18
100
AcDbEntity
  8
1
100
AcDb2dPolyline
 66
     1
 10
0.0
 20
0.0
 30
0.0
 70
     4
 75
     6
  0
VERTEX
  5
3C0A1
330
3C0A0
100
AcDbEntity
  8
1
100
AcDbVertex
100
AcDb2dVertex
 10
20.76293700000001
 20
20.99999999999998
 30
0.0
 70
    16
  0
VERTEX
  5
3C0A2
330
3C0A0
100
AcDbEntity
  8
1
100
AcDbVertex
100
AcDb2dVertex
 10
20.50872100000001
 20
19.95349999999998
 30
0.0
 70
    16
  0
VERTEX
  5
3C0A3
330
3C0A0
100
AcDbEntity
  8
1
100
AcDbVertex
100
AcDb2dVertex
 10
20.254433
 20
18.90701799999998
 30
0.0
 70
    16
  0
VERTEX
  5
3C0A4
330
3C0A0
100
AcDbEntity
  8
1
100
AcDbVertex
100
AcDb2dVertex
 10
20.0
 20
17.86057099999998
 30
0.0
 70
    16
  0
VERTEX
  5
3C0A5
330
3C0A0
100
AcDbEntity
  8
1
100
AcDbVertex
100
AcDb2dVertex
 10
20.76293700000001
 20
20.99999999999998
 30
0.0
 70
     8
  0
VERTEX
  5
3C0A6
330
3C0A0
100
AcDbEntity
  8
1
100
AcDbVertex
100
AcDb2dVertex
 10
20.0
 20
17.86057099999998
 30
0.0
 70
     8
  0
SEQEND
  5
3C0A7
330
3C0A0
100
AcDbEntity
  8
1
  0
POLYLINE
  5
3C0A8
330
18
100
AcDbEntity
  8
1
100
AcDb3dPolyline
 66
     1
 10
0.0
 20
0.0
 30
0.0
 70
    12
 75
     6
  0
VERTEX
  5
3C0A9
330
3C0A8
100
AcDbEntity
  8
1
100
AcDbVertex
100
AcDb3dPolylineVertex
 10
25.64217600000001
 20
-20.50000000000002
 30
0.0
 70
    48
  0
VERTEX
  5
3C0AA
330
3C0A8
100
AcDbEntity
  8
1
100
AcDbVertex
100
AcDb3dPolylineVertex
 10
25.844771
 20
-20.44923000000002
 30
0.0
 70
    48
  0
VERTEX
  5
3C0AB
330
3C0A8
100
AcDbEntity
  8
1
100
AcDbVertex
100
AcDb3dPolylineVertex
 10
26.04133400000001
 20
-20.40639900000002
 30
0.0
 70
    48
  0
VERTEX
  5
3C0AC
330
3C0A8
100
AcDbEntity
  8
1
100
AcDbVertex
100
AcDb3dPolylineVertex
 10
27.16057400000001
 20
-20.19835300000001
 30
0.0
 70
    48
  0
VERTEX
  5
3C0AD
330
3C0A8
100
AcDbEntity
  8
1
100
AcDbVertex
100
AcDb3dPolylineVertex
 10
28.090297
 20
-20.15763000000002
 30
0.0
 70
    48
  0
VERTEX
  5
3C0AE
330
3C0A8
100
AcDbEntity
  8
1
100
AcDbVertex
100
AcDb3dPolylineVertex
 10
29.92532
 20
-20.32990700000002
 30
0.0
 70
    48
  0
VERTEX
  5
3C0AF
330
3C0A8
100
AcDbEntity
  8
1
100
AcDbVertex
100
AcDb3dPolylineVertex
 10
30.830962
 20
-20.54286300000002
 30
0.0
 70
    48
  0
VERTEX
  5
3C0B0
330
3C0A8
100
AcDbEntity
  8
1
100
AcDbVertex
100
AcDb3dPolylineVertex
 10
31.89202400000001
 20
-20.95553600000001
 30
0.0
 70
    48
  0
VERTEX
  5
3C0B1
330
3C0A8
100
AcDbEntity
  8
1
100
AcDbVertex
100
AcDb3dPolylineVertex
 10
32.077492
 20
-21.03432500000002
 30
0.0
 70
    48
  0
VERTEX
  5
3C0B2
330
3C0A8
100
AcDbEntity
  8
1
100
AcDbVertex
100
AcDb3dPolylineVertex
 10
32.26741
 20
-21.12207000000001
 30
0.0
 70
    48
  0
VERTEX
  5
3C0B3
330
3C0A8
100
AcDbEntity
  8
1
100
AcDbVertex
100
AcDb3dPolylineVertex
 10
25.64217600000001
 20
-20.50000000000002
 30
0.0
 70
    40
  0
VERTEX
  5
3C0B4
330
3C0A8
100
AcDbEntity
  8
1
100
AcDbVertex
100
AcDb3dPolylineVertex
 10
26.245717
 20
-20.36840800000002
 30
0.0
 70
    40
  0
VERTEX
  5
3C0B5
330
3C0A8
100
AcDbEntity
  8
1
100
AcDbVertex
100
AcDb3dPolylineVertex
 10
26.70426
 20
-20.29414700000002
 30
0.0
 70
    40
  0
VERTEX
  5
3C0B6
330
3C0A8
100
AcDbEntity
  8
1
100
AcDbVertex
100
AcDb3dPolylineVertex
 10
27.164531
 20
-20.241373
 30
0.0
 70
    40
  0
VERTEX
  5
3C0B7
330
3C0A8
100
AcDbEntity
  8
1
100
AcDbVertex
100
AcDb3dPolylineVertex
 10
27.62578400000001
 20
-20.21001700000002
 30
0.0
 70
    40
  0
VERTEX
  5
3C0B8
330
3C0A8
100
AcDbEntity
  8
1
100
AcDbVertex
100
AcDb3dPolylineVertex
 10
28.087268
 20
-20.20001200000001
 30
0.0
 70
    40
  0
VERTEX
  5
3C0B9
330
3C0A8
100
AcDbEntity
  8
1
100
AcDbVertex
100
AcDb3dPolylineVertex
 10
28.548236
 20
-20.21129000000002
 30
0.0
 70
    40
  0
VERTEX
  5
3C0BA
330
3C0A8
100
AcDbEntity
  8
1
100
AcDbVertex
100
AcDb3dPolylineVertex
 10
29.007939
 20
-20.24378100000002
 30
0.0
 70
    40
  0
VERTEX
  5
3C0BB
330
3C0A8
100
AcDbEntity
  8
1
100
AcDbVertex
100
AcDb3dPolylineVertex
 10
29.465527
 20
-20.29740100000001
 30
0.0
 70
    40
  0
VERTEX
  5
3C0BC
330
3C0A8
100
AcDbEntity
  8
1
100
AcDbVertex
100
AcDb3dPolylineVertex
 10
29.92041
 20
-20.37208800000002
 30
0.0
 70
    40
  0
VERTEX
  5
3C0BD
330
3C0A8
100
AcDbEntity
  8
1
100
AcDbVertex
100
AcDb3dPolylineVertex
 10
30.371843
 20
-20.46776900000002
 30
0.0
 70
    40
  0
VERTEX
  5
3C0BE
330
3C0A8
100
AcDbEntity
  8
1
100
AcDbVertex
100
AcDb3dPolylineVertex
 10
30.819076
 20
-20.58437200000001
 30
0.0
 70
    40
  0
VERTEX
  5
3C0BF
330
3C0A8
100
AcDbEntity
  8
1
100
AcDbVertex
100
AcDb3dPolylineVertex
 10
31.261364
 20
-20.72182600000001
 30
0.0
 70
    40
  0
VERTEX
  5
3C0C0
330
3C0A8
100
AcDbEntity
  8
1
100
AcDbVertex
100
AcDb3dPolylineVertex
 10
31.889641
 20
-20.95684900000002
 30
0.0
 70
    40
  0
VERTEX
  5
3C0C1
330
3C0A8
100
AcDbEntity
  8
1
100
AcDbVertex
100
AcDb3dPolylineVertex
 10
32.26741
 20
-21.12207000000001
 30
0.0
 70
    40
  0
SEQEND
  5
3C0C2
330
3C0A8
100
AcDbEntity
  8
1
  0
POLYLINE
  5
3C0C3
330
18
100
AcDbEntity
  8
1
100
AcDb3dPolyline
 66
     1
 10
0.0
 20
0.0
 30
0.0
 70
    12
 75
     6
  0
VERTEX
  5
3C0C4
330
3C0C3
100
AcDbEntity
  8
1
100
AcDbVertex
100
AcDb3dPolylineVertex
 10
9.336601999999999
 20
-6.169807000000019
 30
0.0
 70
    48
  0
VERTEX
  5
3C0C5
330
3C0C3
100
AcDbEntity
  8
1
100
AcDbVertex
100
AcDb3dPolylineVertex
 10
9.586755999999994
 20
-7.076653000000018
 30
0.0
 70
    48
  0
VERTEX
  5
3C0C6
330
3C0C3
100
AcDbEntity
  8
1
100
AcDbVertex
100
AcDb3dPolylineVertex
 10
9.809706999999988
 20
-7.990648000000017
 30
0.0
 70
    48
  0
VERTEX
  5
3C0C7
330
3C0C3
100
AcDbEntity
  8
1
100
AcDbVertex
100
AcDb3dPolylineVertex
 10
9.998525999999998
 20
-8.911719000000019
 30
0.0
 70
    48
  0
VERTEX
  5
3C0C8
330
3C0C3
100
AcDbEntity
  8
1
100
AcDbVertex
100
AcDb3dPolylineVertex
 10
9.998525999999998
 20
-8.911719000000019
 30
0.0
 70
    48
  0
VERTEX
  5
3C0C9
330
3C0C3
100
AcDbEntity
  8
1
100
AcDbVertex
100
AcDb3dPolylineVertex
 10
10.35515199999999
 20
-10.65135900000001
 30
0.0
 70
    48
  0
VERTEX
  5
3C0CA
330
3C0C3
100
AcDbEntity
  8
1
100
AcDbVertex
100
AcDb3dPolylineVertex
 10
10.60214999999999
 20
-12.41783100000002
 30
0.0
 70
    48
  0
VERTEX
  5
3C0CB
330
3C0C3
100
AcDbEntity
  8
1
100
AcDbVertex
100
AcDb3dPolylineVertex
 10
10.59662600000001
 20
-14.20549000000002
 30
0.0
 70
    48
  0
VERTEX
  5
3C0CC
330
3C0C3
100
AcDbEntity
  8
1
100
AcDbVertex
100
AcDb3dPolylineVertex
 10
10.59662600000001
 20
-14.20549000000002
 30
0.0
 70
    48
  0
VERTEX
  5
3C0CD
330
3C0C3
100
AcDbEntity
  8
1
100
AcDbVertex
100
AcDb3dPolylineVertex
 10
10.594633
 20
-14.85046600000002
 30
0.0
 70
    48
  0
VERTEX
  5
3C0CE
330
3C0C3
100
AcDbEntity
  8
1
100
AcDbVertex
100
AcDb3dPolylineVertex
 10
10.560606
 20
-15.47511200000001
 30
0.0
 70
    48
  0
VERTEX
  5
3C0CF
330
3C0C3
100
AcDbEntity
  8
1
100
AcDbVertex
100
AcDb3dPolylineVertex
 10
10.341583
 20
-16.94995500000001
 30
0.0
 70
    48
  0
VERTEX
  5
3C0D0
330
3C0C3
100
AcDbEntity
  8
1
100
AcDbVertex
100
AcDb3dPolylineVertex
 10
10.153926
 20
-17.71741000000001
 30
0.0
 70
    48
  0
VERTEX
  5
3C0D1
330
3C0C3
100
AcDbEntity
  8
1
100
AcDbVertex
100
AcDb3dPolylineVertex
 10
9.608562999999996
 20
-18.67078100000002
 30
0.0
 70
    48
  0
VERTEX
  5
3C0D2
330
3C0C3
100
AcDbEntity
  8
1
100
AcDbVertex
100
AcDb3dPolylineVertex
 10
9.492580999999994
 20
-18.84120200000001
 30
0.0
 70
    48
  0
VERTEX
  5
3C0D3
330
3C0C3
100
AcDbEntity
  8
1
100
AcDbVertex
100
AcDb3dPolylineVertex
 10
9.336590999999996
 20
-19.02459100000001
 30
0.0
 70
    48
  0
VERTEX
  5
3C0D4
330
3C0C3
100
AcDbEntity
  8
1
100
AcDbVertex
100
AcDb3dPolylineVertex
 10
9.336601999999999
 20
-6.169807000000019
 30
0.0
 70
    40
  0
VERTEX
  5
3C0D5
330
3C0C3
100
AcDbEntity
  8
1
100
AcDbVertex
100
AcDb3dPolylineVertex
 10
9.577431999999994
 20
-7.079033000000016
 30
0.0
 70
    40
  0
VERTEX
  5
3C0D6
330
3C0C3
100
AcDbEntity
  8
1
100
AcDbVertex
100
AcDb3dPolylineVertex
 10
9.798586
 20
-7.993009000000017
 30
0.0
 70
    40
  0
VERTEX
  5
3C0D7
330
3C0C3
100
AcDbEntity
  8
1
100
AcDbVertex
100
AcDb3dPolylineVertex
 10
9.998525999999998
 20
-8.911719000000019
 30
0.0
 70
    40
  0
VERTEX
  5
3C0D8
330
3C0C3
100
AcDbEntity
  8
1
100
AcDbVertex
100
AcDb3dPolylineVertex
 10
9.998525999999998
 20
-8.911719000000019
 30
0.0
 70
    40
  0
VERTEX
  5
3C0D9
330
3C0C3
100
AcDbEntity
  8
1
100
AcDbVertex
100
AcDb3dPolylineVertex
 10
10.16704200000001
 20
-9.783749000000019
 30
0.0
 70
    40
  0
VERTEX
  5
3C0DA
330
3C0C3
100
AcDbEntity
  8
1
100
AcDbVertex
100
AcDb3dPolylineVertex
 10
10.31331700000001
 20
-10.66009400000002
 30
0.0
 70
    40
  0
VERTEX
  5
3C0DB
330
3C0C3
100
AcDbEntity
  8
1
100
AcDbVertex
100
AcDb3dPolylineVertex
 10
10.43338199999999
 20
-11.54059700000002
 30
0.0
 70
    40
  0
VERTEX
  5
3C0DC
330
3C0C3
100
AcDbEntity
  8
1
100
AcDbVertex
100
AcDb3dPolylineVertex
 10
10.52326799999999
 20
-12.42510200000001
 30
0.0
 70
    40
  0
VERTEX
  5
3C0DD
330
3C0C3
100
AcDbEntity
  8
1
100
AcDbVertex
100
AcDb3dPolylineVertex
 10
10.579006
 20
-13.31345200000002
 30
0.0
 70
    40
  0
VERTEX
  5
3C0DE
330
3C0C3
100
AcDbEntity
  8
1
100
AcDbVertex
100
AcDb3dPolylineVertex
 10
10.59662600000001
 20
-14.20549000000002
 30
0.0
 70
    40
  0
VERTEX
  5
3C0DF
330
3C0C3
100
AcDbEntity
  8
1
100
AcDbVertex
100
AcDb3dPolylineVertex
 10
10.59662600000001
 20
-14.20549000000002
 30
0.0
 70
    40
  0
VERTEX
  5
3C0E0
330
3C0C3
100
AcDbEntity
  8
1
100
AcDbVertex
100
AcDb3dPolylineVertex
 10
10.58283799999999
 20
-14.84530500000001
 30
0.0
 70
    40
  0
VERTEX
  5
3C0E1
330
3C0C3
100
AcDbEntity
  8
1
100
AcDbVertex
100
AcDb3dPolylineVertex
 10
10.54099200000001
 20
-15.48125900000001
 30
0.0
 70
    40
  0
VERTEX
  5
3C0E2
330
3C0C3
100
AcDbEntity
  8
1
100
AcDbVertex
100
AcDb3dPolylineVertex
 10
10.46438400000001
 20
-16.12304500000002
 30
0.0
 70
    40
  0
VERTEX
  5
3C0E3
330
3C0C3
100
AcDbEntity
  8
1
100
AcDbVertex
100
AcDb3dPolylineVertex
 10
10.31352399999999
 20
-16.93152200000001
 30
0.0
 70
    40
  0
VERTEX
  5
3C0E4
330
3C0C3
100
AcDbEntity
  8
1
100
AcDbVertex
100
AcDb3dPolylineVertex
 10
10.20980499999999
 20
-17.32349300000002
 30
0.0
 70
    40
  0
VERTEX
  5
3C0E5
330
3C0C3
100
AcDbEntity
  8
1
100
AcDbVertex
100
AcDb3dPolylineVertex
 10
10.08078699999999
 20
-17.70867200000002
 30
0.0
 70
    40
  0
VERTEX
  5
3C0E6
330
3C0C3
100
AcDbEntity
  8
1
100
AcDbVertex
100
AcDb3dPolylineVertex
 10
9.921638999999997
 20
-18.08809700000002
 30
0.0
 70
    40
  0
VERTEX
  5
3C0E7
330
3C0C3
100
AcDbEntity
  8
1
100
AcDbVertex
100
AcDb3dPolylineVertex
 10
9.727531999999996
 20
-18.46280800000001
 30
0.0
 70
    40
  0
VERTEX
  5
3C0E8
330
3C0C3
100
AcDbEntity
  8
1
100
AcDbVertex
100
AcDb3dPolylineVertex
 10
9.480837999999996
 20
-18.84365400000002
 30
0.0
 70
    40
  0
VERTEX
  5
3C0E9
330
3C0C3
100
AcDbEntity
  8
1
100
AcDbVertex
100
AcDb3dPolylineVertex
 10
9.336590999999996
 20
-19.02459100000001
 30
0.0
 70
    40
  0
SEQEND
  5
3C0EA
330
3C0C3
100
AcDbEntity
  8
1
  0
POLYLINE
  5
3C0EB
330
18
100
AcDbEntity
  8
1
100
AcDb3dPolyline
 66
     1
 10
0.0
 20
0.0
 30
0.0
 70
    12
 75
     6
  0
VERTEX
  5
3C0EC
330
3C0EB
100
AcDbEntity
  8
1
100
AcDbVertex
100
AcDb3dPolylineVertex
 10
6.663397000000008
 20
-6.169807000000019
 30
0.0
 70
    48
  0
VERTEX
  5
3C0ED
330
3C0EB
100
AcDbEntity
  8
1
100
AcDbVertex
100
AcDb3dPolylineVertex
 10
6.621721999999997
 20
-6.320886000000019
 30
0.0
 70
    48
  0
VERTEX
  5
3C0EE
330
3C0EB
100
AcDbEntity
  8
1
100
AcDbVertex
100
AcDb3dPolylineVertex
 10
6.582422000000008
 20
-6.472602000000017
 30
0.0
 70
    48
  0
VERTEX
  5
3C0EF
330
3C0EB
100
AcDbEntity
  8
1
100
AcDbVertex
100
AcDb3dPolylineVertex
 10
6.083300999999997
 20
-8.336837000000018
 30
0.0
 70
    48
  0
VERTEX
  5
3C0F0
330
3C0EB
100
AcDbEntity
  8
1
100
AcDbVertex
100
AcDb3dPolylineVertex
 10
5.724304000000008
 20
-10.07803200000002
 30
0.0
 70
    48
  0
VERTEX
  5
3C0F1
330
3C0EB
100
AcDbEntity
  8
1
100
AcDbVertex
100
AcDb3dPolylineVertex
 10
5.534399999999997
 20
-11.84724200000002
 30
0.0
 70
    48
  0
VERTEX
  5
3C0F2
330
3C0EB
100
AcDbEntity
  8
1
100
AcDbVertex
100
AcDb3dPolylineVertex
 10
5.534399999999997
 20
-11.84724200000002
 30
0.0
 70
    48
  0
VERTEX
  5
3C0F3
330
3C0EB
100
AcDbEntity
  8
1
100
AcDbVertex
100
AcDb3dPolylineVertex
 10
5.464661999999997
 20
-12.49695000000002
 30
0.0
 70
    48
  0
VERTEX
  5
3C0F4
330
3C0EB
100
AcDbEntity
  8
1
100
AcDbVertex
100
AcDb3dPolylineVertex
 10
5.419523999999995
 20
-13.13937100000002
 30
0.0
 70
    48
  0
VERTEX
  5
3C0F5
330
3C0EB
100
AcDbEntity
  8
1
100
AcDbVertex
100
AcDb3dPolylineVertex
 10
5.390220999999987
 20
-14.64986600000001
 30
0.0
 70
    48
  0
VERTEX
  5
3C0F6
330
3C0EB
100
AcDbEntity
  8
1
100
AcDbVertex
100
AcDb3dPolylineVertex
 10
5.425011999999995
 20
-15.48357100000002
 30
0.0
 70
    48
  0
VERTEX
  5
3C0F7
330
3C0EB
100
AcDbEntity
  8
1
100
AcDbVertex
100
AcDb3dPolylineVertex
 10
5.732431999999986
 20
-17.29670400000002
 30
0.0
 70
    48
  0
VERTEX
  5
3C0F8
330
3C0EB
100
AcDbEntity
  8
1
100
AcDbVertex
100
AcDb3dPolylineVertex
 10
5.966923999999997
 20
-18.20577600000001
 30
0.0
 70
    48
  0
VERTEX
  5
3C0F9
330
3C0EB
100
AcDbEntity
  8
1
100
AcDbVertex
100
AcDb3dPolylineVertex
 10
6.663409000000008
 20
-19.02459100000001
 30
0.0
 70
    48
  0
VERTEX
  5
3C0FA
330
3C0EB
100
AcDbEntity
  8
1
100
AcDbVertex
100
AcDb3dPolylineVertex
 10
6.663397000000008
 20
-6.169807000000019
 30
0.0
 70
    40
  0
VERTEX
  5
3C0FB
330
3C0EB
100
AcDbEntity
  8
1
100
AcDbVertex
100
AcDb3dPolylineVertex
 10
6.541890999999997
 20
-6.623987000000019
 30
0.0
 70
    40
  0
VERTEX
  5
3C0FC
330
3C0EB
100
AcDbEntity
  8
1
100
AcDbVertex
100
AcDb3dPolylineVertex
 10
6.119073
 20
-8.346273000000008
 30
0.0
 70
    40
  0
VERTEX
  5
3C0FD
330
3C0EB
100
AcDbEntity
  8
1
100
AcDbVertex
100
AcDb3dPolylineVertex
 10
5.937387999999997
 20
-9.214479000000018
 30
0.0
 70
    40
  0
VERTEX
  5
3C0FE
330
3C0EB
100
AcDbEntity
  8
1
100
AcDbVertex
100
AcDb3dPolylineVertex
 10
5.778094999999998
 20
-10.08738200000002
 30
0.0
 70
    40
  0
VERTEX
  5
3C0FF
330
3C0EB
100
AcDbEntity
  8
1
100
AcDbVertex
100
AcDb3dPolylineVertex
 10
5.643121999999997
 20
-10.96497300000002
 30
0.0
 70
    40
  0
VERTEX
  5
3C100
330
3C0EB
100
AcDbEntity
  8
1
100
AcDbVertex
100
AcDb3dPolylineVertex
 10
5.534399999999997
 20
-11.84724200000002
 30
0.0
 70
    40
  0
VERTEX
  5
3C101
330
3C0EB
100
AcDbEntity
  8
1
100
AcDbVertex
100
AcDb3dPolylineVertex
 10
5.534399999999997
 20
-11.84724200000002
 30
0.0
 70
    40
  0
VERTEX
  5
3C102
330
3C0EB
100
AcDbEntity
  8
1
100
AcDbVertex
100
AcDb3dPolylineVertex
 10
5.430031999999997
 20
-13.14347800000001
 30
0.0
 70
    40
  0
VERTEX
  5
3C103
330
3C0EB
100
AcDbEntity
  8
1
100
AcDbVertex
100
AcDb3dPolylineVertex
 10
5.406774999999996
 20
-13.79656400000002
 30
0.0
 70
    40
  0
VERTEX
  5
3C104
330
3C0EB
100
AcDbEntity
  8
1
100
AcDbVertex
100
AcDb3dPolylineVertex
 10
5.409447
 20
-14.64445100000002
 30
0.0
 70
    40
  0
VERTEX
  5
3C105
330
3C0EB
100
AcDbEntity
  8
1
100
AcDbVertex
100
AcDb3dPolylineVertex
 10
5.459019999999995
 20
-15.48597900000003
 30
0.0
 70
    40
  0
VERTEX
  5
3C106
330
3C0EB
100
AcDbEntity
  8
1
100
AcDbVertex
100
AcDb3dPolylineVertex
 10
5.568161000000007
 20
-16.32785300000002
 30
0.0
 70
    40
  0
VERTEX
  5
3C107
330
3C0EB
100
AcDbEntity
  8
1
100
AcDbVertex
100
AcDb3dPolylineVertex
 10
5.657961999999997
 20
-16.80715600000002
 30
0.0
 70
    40
  0
VERTEX
  5
3C108
330
3C0EB
100
AcDbEntity
  8
1
100
AcDbVertex
100
AcDb3dPolylineVertex
 10
5.770348999999995
 20
-17.27564900000002
 30
0.0
 70
    40
  0
VERTEX
  5
3C109
330
3C0EB
100
AcDbEntity
  8
1
100
AcDbVertex
100
AcDb3dPolylineVertex
 10
5.916204999999997
 20
-17.73248500000002
 30
0.0
 70
    40
  0
VERTEX
  5
3C10A
330
3C0EB
100
AcDbEntity
  8
1
100
AcDbVertex
100
AcDb3dPolylineVertex
 10
6.106411000000001
 20
-18.17681900000002
 30
0.0
 70
    40
  0
VERTEX
  5
3C10B
330
3C0EB
100
AcDbEntity
  8
1
100
AcDbVertex
100
AcDb3dPolylineVertex
 10
6.351852
 20
-18.60780300000002
 30
0.0
 70
    40
  0
VERTEX
  5
3C10C
330
3C0EB
100
AcDbEntity
  8
1
100
AcDbVertex
100
AcDb3dPolylineVertex
 10
6.663409000000008
 20
-19.02459100000001
 30
0.0
 70
    40
  0
SEQEND
  5
3C10D
330
3C0EB
100
AcDbEntity
  8
1
  0
POLYLINE
  5
3C10E
330
18
100
AcDbEntity
  8
1
100
AcDb2dPolyline
 66
     1
 10
0.0
 20
0.0
 30
0.0
 70
     4
 75
     5
  0
VERTEX
  5
3C10F
330
3C10E
100
AcDbEntity
  8
1
100
AcDbVertex
100
AcDb2dVertex
 10
9.076794999999988
 20
-5.859965000000016
 30
0.0
 70
    16
  0
VERTEX
  5
3C110
330
3C10E
100
AcDbEntity
  8
1
100
AcDbVertex
100
AcDb2dVertex
 10
8.0
 20
-5.859965000000016
 30
0.0
 70
    16
  0
VERTEX
  5
3C111
330
3C10E
100
AcDbEntity
  8
1
100
AcDbVertex
100
AcDb2dVertex
 10
6.923204999999994
 20
-5.859965000000016
 30
0.0
 70
    16
  0
VERTEX
  5
3C112
330
3C10E
100
AcDbEntity
  8
1
100
AcDbVertex
100
AcDb2dVertex
 10
9.076794999999988
 20
-5.859965000000016
 30
0.0
 70
     8
  0
VERTEX
  5
3C113
330
3C10E
100
AcDbEntity
  8
1
100
AcDbVertex
100
AcDb2dVertex
 10
6.923204999999994
 20
-5.859965000000016
 30
0.0
 70
     8
  0
SEQEND
  5
3C114
330
3C10E
100
AcDbEntity
  8
1
  0
POLYLINE
  5
3C115
330
18
100
AcDbEntity
  8
1
100
AcDb3dPolyline
 66
     1
 10
0.0
 20
0.0
 30
0.0
 70
    12
 75
     6
  0
VERTEX
  5
3C116
330
3C115
100
AcDbEntity
  8
1
100
AcDbVertex
100
AcDb3dPolylineVertex
 10
6.923204999999994
 20
-19.12226000000002
 30
0.0
 70
    48
  0
VERTEX
  5
3C117
330
3C115
100
AcDbEntity
  8
1
100
AcDbVertex
100
AcDb3dPolylineVertex
 10
7.283280999999995
 20
-19.12226000000002
 30
0.0
 70
    48
  0
VERTEX
  5
3C118
330
3C115
100
AcDbEntity
  8
1
100
AcDbVertex
100
AcDb3dPolylineVertex
 10
7.643355999999998
 20
-19.12226000000002
 30
0.0
 70
    48
  0
VERTEX
  5
3C119
330
3C115
100
AcDbEntity
  8
1
100
AcDbVertex
100
AcDb3dPolylineVertex
 10
8.361219999999995
 20
-19.12226000000002
 30
0.0
 70
    48
  0
VERTEX
  5
3C11A
330
3C115
100
AcDbEntity
  8
1
100
AcDbVertex
100
AcDb3dPolylineVertex
 10
8.719006999999997
 20
-19.12226000000002
 30
0.0
 70
    48
  0
VERTEX
  5
3C11B
330
3C115
100
AcDbEntity
  8
1
100
AcDbVertex
100
AcDb3dPolylineVertex
 10
9.076794999999988
 20
-19.12226000000002
 30
0.0
 70
    48
  0
VERTEX
  5
3C11C
330
3C115
100
AcDbEntity
  8
1
100
AcDbVertex
100
AcDb3dPolylineVertex
 10
6.923204999999994
 20
-19.12226000000002
 30
0.0
 70
    40
  0
VERTEX
  5
3C11D
330
3C115
100
AcDbEntity
  8
1
100
AcDbVertex
100
AcDb3dPolylineVertex
 10
9.076794999999988
 20
-19.12226000000002
 30
0.0
 70
    40
  0
SEQEND
  5
3C11E
330
3C115
100
AcDbEntity
  8
1
  0
POLYLINE
  5
3C11F
330
18
100
AcDbEntity
  8
1
100
AcDb3dPolyline
 66
     1
 10
0.0
 20
0.0
 30
0.0
 70
    12
 75
     6
  0
VERTEX
  5
3C120
330
3C11F
100
AcDbEntity
  8
1
100
AcDbVertex
100
AcDb3dPolylineVertex
 10
9.336601999999999
 20
6.16980599999998
 30
0.0
 70
    48
  0
VERTEX
  5
3C121
330
3C11F
100
AcDbEntity
  8
1
100
AcDbVertex
100
AcDb3dPolylineVertex
 10
9.540517999999996
 20
6.909032999999981
 30
0.0
 70
    48
  0
VERTEX
  5
3C122
330
3C11F
100
AcDbEntity
  8
1
100
AcDbVertex
100
AcDb3dPolylineVertex
 10
9.725723000000009
 20
7.650277999999991
 30
0.0
 70
    48
  0
VERTEX
  5
3C123
330
3C11F
100
AcDbEntity
  8
1
100
AcDbVertex
100
AcDb3dPolylineVertex
 10
10.27983099999999
 20
10.17936899999998
 30
0.0
 70
    48
  0
VERTEX
  5
3C124
330
3C11F
100
AcDbEntity
  8
1
100
AcDbVertex
100
AcDb3dPolylineVertex
 10
10.557894
 20
11.98250399999998
 30
0.0
 70
    48
  0
VERTEX
  5
3C125
330
3C11F
100
AcDbEntity
  8
1
100
AcDbVertex
100
AcDb3dPolylineVertex
 10
10.61093099999999
 20
14.70566899999998
 30
0.0
 70
    48
  0
VERTEX
  5
3C126
330
3C11F
100
AcDbEntity
  8
1
100
AcDbVertex
100
AcDb3dPolylineVertex
 10
10.568968
 20
15.61958199999998
 30
0.0
 70
    48
  0
VERTEX
  5
3C127
330
3C11F
100
AcDbEntity
  8
1
100
AcDbVertex
100
AcDb3dPolylineVertex
 10
10.32868600000001
 20
16.87954199999998
 30
0.0
 70
    48
  0
VERTEX
  5
3C128
330
3C11F
100
AcDbEntity
  8
1
100
AcDbVertex
100
AcDb3dPolylineVertex
 10
10.24275800000001
 20
17.22396499999998
 30
0.0
 70
    48
  0
VERTEX
  5
3C129
330
3C11F
100
AcDbEntity
  8
1
100
AcDbVertex
100
AcDb3dPolylineVertex
 10
9.966167999999987
 20
18.03107999999998
 30
0.0
 70
    48
  0
VERTEX
  5
3C12A
330
3C11F
100
AcDbEntity
  8
1
100
AcDbVertex
100
AcDb3dPolylineVertex
 10
9.772852
 20
18.44625999999998
 30
0.0
 70
    48
  0
VERTEX
  5
3C12B
330
3C11F
100
AcDbEntity
  8
1
100
AcDbVertex
100
AcDb3dPolylineVertex
 10
9.435000999999999
 20
18.90473199999998
 30
0.0
 70
    48
  0
VERTEX
  5
3C12C
330
3C11F
100
AcDbEntity
  8
1
100
AcDbVertex
100
AcDb3dPolylineVertex
 10
9.388765000000006
 20
18.96325199999998
 30
0.0
 70
    48
  0
VERTEX
  5
3C12D
330
3C11F
100
AcDbEntity
  8
1
100
AcDbVertex
100
AcDb3dPolylineVertex
 10
9.336590999999996
 20
19.02458999999998
 30
0.0
 70
    48
  0
VERTEX
  5
3C12E
330
3C11F
100
AcDbEntity
  8
1
100
AcDbVertex
100
AcDb3dPolylineVertex
 10
9.336601999999999
 20
6.16980599999998
 30
0.0
 70
    40
  0
VERTEX
  5
3C12F
330
3C11F
100
AcDbEntity
  8
1
100
AcDbVertex
100
AcDb3dPolylineVertex
 10
9.718944999999996
 20
7.65341799999998
 30
0.0
 70
    40
  0
VERTEX
  5
3C130
330
3C11F
100
AcDbEntity
  8
1
100
AcDbVertex
100
AcDb3dPolylineVertex
 10
10.07522200000001
 20
9.292679999999981
 30
0.0
 70
    40
  0
VERTEX
  5
3C131
330
3C11F
100
AcDbEntity
  8
1
100
AcDbVertex
100
AcDb3dPolylineVertex
 10
10.23784
 20
10.18731499999998
 30
0.0
 70
    40
  0
VERTEX
  5
3C132
330
3C11F
100
AcDbEntity
  8
1
100
AcDbVertex
100
AcDb3dPolylineVertex
 10
10.374595
 20
11.08532399999998
 30
0.0
 70
    40
  0
VERTEX
  5
3C133
330
3C11F
100
AcDbEntity
  8
1
100
AcDbVertex
100
AcDb3dPolylineVertex
 10
10.48184
 20
11.98625799999998
 30
0.0
 70
    40
  0
VERTEX
  5
3C134
330
3C11F
100
AcDbEntity
  8
1
100
AcDbVertex
100
AcDb3dPolylineVertex
 10
10.555923
 20
12.88966899999998
 30
0.0
 70
    40
  0
VERTEX
  5
3C135
330
3C11F
100
AcDbEntity
  8
1
100
AcDbVertex
100
AcDb3dPolylineVertex
 10
10.59319700000001
 20
13.79510599999998
 30
0.0
 70
    40
  0
VERTEX
  5
3C136
330
3C11F
100
AcDbEntity
  8
1
100
AcDbVertex
100
AcDb3dPolylineVertex
 10
10.58843500000001
 20
14.70617199999998
 30
0.0
 70
    40
  0
VERTEX
  5
3C137
330
3C11F
100
AcDbEntity
  8
1
100
AcDbVertex
100
AcDb3dPolylineVertex
 10
10.52829599999999
 20
15.61578899999998
 30
0.0
 70
    40
  0
VERTEX
  5
3C138
330
3C11F
100
AcDbEntity
  8
1
100
AcDbVertex
100
AcDb3dPolylineVertex
 10
10.39719999999999
 20
16.52027499999998
 30
0.0
 70
    40
  0
VERTEX
  5
3C139
330
3C11F
100
AcDbEntity
  8
1
100
AcDbVertex
100
AcDb3dPolylineVertex
 10
10.23193899999999
 20
17.22534599999998
 30
0.0
 70
    40
  0
VERTEX
  5
3C13A
330
3C11F
100
AcDbEntity
  8
1
100
AcDbVertex
100
AcDb3dPolylineVertex
 10
10.12249500000001
 20
17.57490299999998
 30
0.0
 70
    40
  0
VERTEX
  5
3C13B
330
3C11F
100
AcDbEntity
  8
1
100
AcDbVertex
100
AcDb3dPolylineVertex
 10
9.951644999999999
 20
18.01810699999998
 30
0.0
 70
    40
  0
VERTEX
  5
3C13C
330
3C11F
100
AcDbEntity
  8
1
100
AcDbVertex
100
AcDb3dPolylineVertex
 10
9.742975999999996
 20
18.43813599999998
 30
0.0
 70
    40
  0
VERTEX
  5
3C13D
330
3C11F
100
AcDbEntity
  8
1
100
AcDbVertex
100
AcDb3dPolylineVertex
 10
9.483329999999996
 20
18.83914699999998
 30
0.0
 70
    40
  0
VERTEX
  5
3C13E
330
3C11F
100
AcDbEntity
  8
1
100
AcDbVertex
100
AcDb3dPolylineVertex
 10
9.336590999999996
 20
19.02458999999998
 30
0.0
 70
    40
  0
SEQEND
  5
3C13F
330
3C11F
100
AcDbEntity
  8
1
  0
POLYLINE
  5
3C140
330
18
100
AcDbEntity
  8
1
100
AcDb3dPolyline
 66
     1
 10
0.0
 20
0.0
 30
0.0
 70
    12
 75
     6
  0
VERTEX
  5
3C141
330
3C140
100
AcDbEntity
  8
1
100
AcDbVertex
100
AcDb3dPolylineVertex
 10
6.663397000000008
 20
6.16980599999998
 30
0.0
 70
    48
  0
VERTEX
  5
3C142
330
3C140
100
AcDbEntity
  8
1
100
AcDbVertex
100
AcDb3dPolylineVertex
 10
6.503961999999994
 20
6.74778399999998
 30
0.0
 70
    48
  0
VERTEX
  5
3C143
330
3C140
100
AcDbEntity
  8
1
100
AcDbVertex
100
AcDb3dPolylineVertex
 10
6.357338999999987
 20
7.321655999999981
 30
0.0
 70
    48
  0
VERTEX
  5
3C144
330
3C140
100
AcDbEntity
  8
1
100
AcDbVertex
100
AcDb3dPolylineVertex
 10
5.810459999999999
 20
9.675079999999981
 30
0.0
 70
    48
  0
VERTEX
  5
3C145
330
3C140
100
AcDbEntity
  8
1
100
AcDbVertex
100
AcDb3dPolylineVertex
 10
5.505604999999995
 20
11.47069999999998
 30
0.0
 70
    48
  0
VERTEX
  5
3C146
330
3C140
100
AcDbEntity
  8
1
100
AcDbVertex
100
AcDb3dPolylineVertex
 10
5.365952
 20
14.55194099999998
 30
0.0
 70
    48
  0
VERTEX
  5
3C147
330
3C140
100
AcDbEntity
  8
1
100
AcDbVertex
100
AcDb3dPolylineVertex
 10
5.401692999999992
 20
15.83652399999998
 30
0.0
 70
    48
  0
VERTEX
  5
3C148
330
3C140
100
AcDbEntity
  8
1
100
AcDbVertex
100
AcDb3dPolylineVertex
 10
5.730510999999999
 20
17.08677199999998
 30
0.0
 70
    48
  0
VERTEX
  5
3C149
330
3C140
100
AcDbEntity
  8
1
100
AcDbVertex
100
AcDb3dPolylineVertex
 10
5.730510999999999
 20
17.08677199999998
 30
0.0
 70
    48
  0
VERTEX
  5
3C14A
330
3C140
100
AcDbEntity
  8
1
100
AcDbVertex
100
AcDb3dPolylineVertex
 10
5.853307000000008
 20
17.55367199999998
 30
0.0
 70
    48
  0
VERTEX
  5
3C14B
330
3C140
100
AcDbEntity
  8
1
100
AcDbVertex
100
AcDb3dPolylineVertex
 10
6.001491999999998
 20
17.97587499999998
 30
0.0
 70
    48
  0
VERTEX
  5
3C14C
330
3C140
100
AcDbEntity
  8
1
100
AcDbVertex
100
AcDb3dPolylineVertex
 10
6.372872999999997
 20
18.64415899999998
 30
0.0
 70
    48
  0
VERTEX
  5
3C14D
330
3C140
100
AcDbEntity
  8
1
100
AcDbVertex
100
AcDb3dPolylineVertex
 10
6.498927000000008
 20
18.83121899999998
 30
0.0
 70
    48
  0
VERTEX
  5
3C14E
330
3C140
100
AcDbEntity
  8
1
100
AcDbVertex
100
AcDb3dPolylineVertex
 10
6.663409000000008
 20
19.02458999999998
 30
0.0
 70
    48
  0
VERTEX
  5
3C14F
330
3C140
100
AcDbEntity
  8
1
100
AcDbVertex
100
AcDb3dPolylineVertex
 10
6.663397000000008
 20
6.16980599999998
 30
0.0
 70
    40
  0
VERTEX
  5
3C150
330
3C140
100
AcDbEntity
  8
1
100
AcDbVertex
100
AcDb3dPolylineVertex
 10
6.361102999999999
 20
7.324267999999992
 30
0.0
 70
    40
  0
VERTEX
  5
3C151
330
3C140
100
AcDbEntity
  8
1
100
AcDbVertex
100
AcDb3dPolylineVertex
 10
6.025551999999997
 20
8.792032
 30
0.0
 70
    40
  0
VERTEX
  5
3C152
330
3C140
100
AcDbEntity
  8
1
100
AcDbVertex
100
AcDb3dPolylineVertex
 10
5.850268999999997
 20
9.683122999999982
 30
0.0
 70
    40
  0
VERTEX
  5
3C153
330
3C140
100
AcDbEntity
  8
1
100
AcDbVertex
100
AcDb3dPolylineVertex
 10
5.699199999999997
 20
10.57781299999998
 30
0.0
 70
    40
  0
VERTEX
  5
3C154
330
3C140
100
AcDbEntity
  8
1
100
AcDbVertex
100
AcDb3dPolylineVertex
 10
5.575575000000005
 20
11.47578499999998
 30
0.0
 70
    40
  0
VERTEX
  5
3C155
330
3C140
100
AcDbEntity
  8
1
100
AcDbVertex
100
AcDb3dPolylineVertex
 10
5.482626999999999
 20
12.37672199999998
 30
0.0
 70
    40
  0
VERTEX
  5
3C156
330
3C140
100
AcDbEntity
  8
1
100
AcDbVertex
100
AcDb3dPolylineVertex
 10
5.423586999999997
 20
13.28030699999998
 30
0.0
 70
    40
  0
VERTEX
  5
3C157
330
3C140
100
AcDbEntity
  8
1
100
AcDbVertex
100
AcDb3dPolylineVertex
 10
5.403475000000007
 20
13.91698399999998
 30
0.0
 70
    40
  0
VERTEX
  5
3C158
330
3C140
100
AcDbEntity
  8
1
100
AcDbVertex
100
AcDb3dPolylineVertex
 10
5.404473000000008
 20
14.55450599999998
 30
0.0
 70
    40
  0
VERTEX
  5
3C159
330
3C140
100
AcDbEntity
  8
1
100
AcDbVertex
100
AcDb3dPolylineVertex
 10
5.432129000000008
 20
15.19155899999998
 30
0.0
 70
    40
  0
VERTEX
  5
3C15A
330
3C140
100
AcDbEntity
  8
1
100
AcDbVertex
100
AcDb3dPolylineVertex
 10
5.491988999999986
 20
15.82682999999998
 30
0.0
 70
    40
  0
VERTEX
  5
3C15B
330
3C140
100
AcDbEntity
  8
1
100
AcDbVertex
100
AcDb3dPolylineVertex
 10
5.589599999999997
 20
16.45900599999998
 30
0.0
 70
    40
  0
VERTEX
  5
3C15C
330
3C140
100
AcDbEntity
  8
1
100
AcDbVertex
100
AcDb3dPolylineVertex
 10
5.730510999999999
 20
17.08677199999998
 30
0.0
 70
    40
  0
VERTEX
  5
3C15D
330
3C140
100
AcDbEntity
  8
1
100
AcDbVertex
100
AcDb3dPolylineVertex
 10
5.730510999999999
 20
17.08677199999998
 30
0.0
 70
    40
  0
VERTEX
  5
3C15E
330
3C140
100
AcDbEntity
  8
1
100
AcDbVertex
100
AcDb3dPolylineVertex
 10
5.864406999999999
 20
17.54110599999998
 30
0.0
 70
    40
  0
VERTEX
  5
3C15F
330
3C140
100
AcDbEntity
  8
1
100
AcDbVertex
100
AcDb3dPolylineVertex
 10
6.031056000000004
 20
17.97963699999998
 30
0.0
 70
    40
  0
VERTEX
  5
3C160
330
3C140
100
AcDbEntity
  8
1
100
AcDbVertex
100
AcDb3dPolylineVertex
 10
6.246280999999996
 20
18.41636099999998
 30
0.0
 70
    40
  0
VERTEX
  5
3C161
330
3C140
100
AcDbEntity
  8
1
100
AcDbVertex
100
AcDb3dPolylineVertex
 10
6.510292999999997
 20
18.83157999999998
 30
0.0
 70
    40
  0
VERTEX
  5
3C162
330
3C140
100
AcDbEntity
  8
1
100
AcDbVertex
100
AcDb3dPolylineVertex
 10
6.663409000000008
 20
19.02458999999998
 30
0.0
 70
    40
  0
SEQEND
  5
3C163
330
3C140
100
AcDbEntity
  8
1
  0
POLYLINE
  5
3C164
330
18
100
AcDbEntity
  8
1
100
AcDb2dPolyline
 66
     1
 10
0.0
 20
0.0
 30
0.0
 70
     4
 75
     5
  0
VERTEX
  5
3C165
330
3C164
100
AcDbEntity
  8
1
100
AcDbVertex
100
AcDb2dVertex
 10
9.076794999999988
 20
5.859963999999981
 30
0.0
 70
    16
  0
VERTEX
  5
3C166
330
3C164
100
AcDbEntity
  8
1
100
AcDbVertex
100
AcDb2dVertex
 10
8.0
 20
5.859963999999981
 30
0.0
 70
    16
  0
VERTEX
  5
3C167
330
3C164
100
AcDbEntity
  8
1
100
AcDbVertex
100
AcDb2dVertex
 10
6.923204999999994
 20
5.859963999999981
 30
0.0
 70
    16
  0
VERTEX
  5
3C168
330
3C164
100
AcDbEntity
  8
1
100
AcDbVertex
100
AcDb2dVertex
 10
9.076794999999988
 20
5.859963999999981
 30
0.0
 70
     8
  0
VERTEX
  5
3C169
330
3C164
100
AcDbEntity
  8
1
100
AcDbVertex
100
AcDb2dVertex
 10
6.923204999999994
 20
5.859963999999981
 30
0.0
 70
     8
  0
SEQEND
  5
3C16A
330
3C164
100
AcDbEntity
  8
1
  0
POLYLINE
  5
3C16B
330
18
100
AcDbEntity
  8
1
100
AcDb3dPolyline
 66
     1
 10
0.0
 20
0.0
 30
0.0
 70
    12
 75
     6
  0
VERTEX
  5
3C16C
330
3C16B
100
AcDbEntity
  8
1
100
AcDbVertex
100
AcDb3dPolylineVertex
 10
6.923204999999994
 20
19.12225899999998
 30
0.0
 70
    48
  0
VERTEX
  5
3C16D
330
3C16B
100
AcDbEntity
  8
1
100
AcDbVertex
100
AcDb3dPolylineVertex
 10
7.283280999999995
 20
19.12225899999998
 30
0.0
 70
    48
  0
VERTEX
  5
3C16E
330
3C16B
100
AcDbEntity
  8
1
100
AcDbVertex
100
AcDb3dPolylineVertex
 10
7.643355999999998
 20
19.12225899999998
 30
0.0
 70
    48
  0
VERTEX
  5
3C16F
330
3C16B
100
AcDbEntity
  8
1
100
AcDbVertex
100
AcDb3dPolylineVertex
 10
8.361219999999995
 20
19.12225899999998
 30
0.0
 70
    48
  0
VERTEX
  5
3C170
330
3C16B
100
AcDbEntity
  8
1
100
AcDbVertex
100
AcDb3dPolylineVertex
 10
8.719006999999997
 20
19.12225899999998
 30
0.0
 70
    48
  0
VERTEX
  5
3C171
330
3C16B
100
AcDbEntity
  8
1
100
AcDbVertex
100
AcDb3dPolylineVertex
 10
9.076794999999988
 20
19.12225899999998
 30
0.0
 70
    48
  0
VERTEX
  5
3C172
330
3C16B
100
AcDbEntity
  8
1
100
AcDbVertex
100
AcDb3dPolylineVertex
 10
6.923204999999994
 20
19.12225899999998
 30
0.0
 70
    40
  0
VERTEX
  5
3C173
330
3C16B
100
AcDbEntity
  8
1
100
AcDbVertex
100
AcDb3dPolylineVertex
 10
9.076794999999988
 20
19.12225899999998
 30
0.0
 70
    40
  0
SEQEND
  5
3C174
330
3C16B
100
AcDbEntity
  8
1
  0
POLYLINE
  5
3C175
330
18
100
AcDbEntity
  8
1
100
AcDb3dPolyline
 66
     1
 10
0.0
 20
0.0
 30
0.0
 70
    12
 75
     6
  0
VERTEX
  5
3C176
330
3C175
100
AcDbEntity
  8
1
100
AcDbVertex
100
AcDb3dPolylineVertex
 10
16.981474
 20
17.86057099999998
 30
0.0
 70
    48
  0
VERTEX
  5
3C177
330
3C175
100
AcDbEntity
  8
1
100
AcDbVertex
100
AcDb3dPolylineVertex
 10
16.981474
 20
18.02270799999998
 30
0.0
 70
    48
  0
VERTEX
  5
3C178
330
3C175
100
AcDbEntity
  8
1
100
AcDbVertex
100
AcDb3dPolylineVertex
 10
17.00291700000001
 20
18.14040499999998
 30
0.0
 70
    48
  0
VERTEX
  5
3C179
330
3C175
100
AcDbEntity
  8
1
100
AcDbVertex
100
AcDb3dPolylineVertex
 10
17.167246
 20
18.53333799999998
 30
0.0
 70
    48
  0
VERTEX
  5
3C17A
330
3C175
100
AcDbEntity
  8
1
100
AcDbVertex
100
AcDb3dPolylineVertex
 10
17.366677
 20
18.71840799999998
 30
0.0
 70
    48
  0
VERTEX
  5
3C17B
330
3C175
100
AcDbEntity
  8
1
100
AcDbVertex
100
AcDb3dPolylineVertex
 10
17.952928
 20
19.10499099999998
 30
0.0
 70
    48
  0
VERTEX
  5
3C17C
330
3C175
100
AcDbEntity
  8
1
100
AcDbVertex
100
AcDb3dPolylineVertex
 10
18.385031
 20
19.23839999999998
 30
0.0
 70
    48
  0
VERTEX
  5
3C17D
330
3C175
100
AcDbEntity
  8
1
100
AcDbVertex
100
AcDb3dPolylineVertex
 10
19.213882
 20
19.41580499999998
 30
0.0
 70
    48
  0
VERTEX
  5
3C17E
330
3C175
100
AcDbEntity
  8
1
100
AcDbVertex
100
AcDb3dPolylineVertex
 10
19.6041
 20
19.46735399999998
 30
0.0
 70
    48
  0
VERTEX
  5
3C17F
330
3C175
100
AcDbEntity
  8
1
100
AcDbVertex
100
AcDb3dPolylineVertex
 10
20.0
 20
19.50620399999998
 30
0.0
 70
    48
  0
VERTEX
  5
3C180
330
3C175
100
AcDbEntity
  8
1
100
AcDbVertex
100
AcDb3dPolylineVertex
 10
16.981474
 20
17.86057099999998
 30
0.0
 70
    40
  0
VERTEX
  5
3C181
330
3C175
100
AcDbEntity
  8
1
100
AcDbVertex
100
AcDb3dPolylineVertex
 10
16.98917299999999
 20
18.01029699999998
 30
0.0
 70
    40
  0
VERTEX
  5
3C182
330
3C175
100
AcDbEntity
  8
1
100
AcDbVertex
100
AcDb3dPolylineVertex
 10
17.014472
 20
18.14480999999998
 30
0.0
 70
    40
  0
VERTEX
  5
3C183
330
3C175
100
AcDbEntity
  8
1
100
AcDbVertex
100
AcDb3dPolylineVertex
 10
17.060679
 20
18.27852299999998
 30
0.0
 70
    40
  0
VERTEX
  5
3C184
330
3C175
100
AcDbEntity
  8
1
100
AcDbVertex
100
AcDb3dPolylineVertex
 10
17.195464
 20
18.51115199999998
 30
0.0
 70
    40
  0
VERTEX
  5
3C185
330
3C175
100
AcDbEntity
  8
1
100
AcDbVertex
100
AcDb3dPolylineVertex
 10
17.375735
 20
18.70365999999998
 30
0.0
 70
    40
  0
VERTEX
  5
3C186
330
3C175
100
AcDbEntity
  8
1
100
AcDbVertex
100
AcDb3dPolylineVertex
 10
17.585072
 20
18.86242099999998
 30
0.0
 70
    40
  0
VERTEX
  5
3C187
330
3C175
100
AcDbEntity
  8
1
100
AcDbVertex
100
AcDb3dPolylineVertex
 10
17.97210300000001
 20
19.07116099999998
 30
0.0
 70
    40
  0
VERTEX
  5
3C188
330
3C175
100
AcDbEntity
  8
1
100
AcDbVertex
100
AcDb3dPolylineVertex
 10
18.38852000000001
 20
19.22246899999998
 30
0.0
 70
    40
  0
VERTEX
  5
3C189
330
3C175
100
AcDbEntity
  8
1
100
AcDbVertex
100
AcDb3dPolylineVertex
 10
18.820877
 20
19.33168699999998
 30
0.0
 70
    40
  0
VERTEX
  5
3C18A
330
3C175
100
AcDbEntity
  8
1
100
AcDbVertex
100
AcDb3dPolylineVertex
 10
19.60568
 20
19.46238499999998
 30
0.0
 70
    40
  0
VERTEX
  5
3C18B
330
3C175
100
AcDbEntity
  8
1
100
AcDbVertex
100
AcDb3dPolylineVertex
 10
20.0
 20
19.50620399999998
 30
0.0
 70
    40
  0
SEQEND
  5
3C18C
330
3C175
100
AcDbEntity
  8
1
  0
POLYLINE
  5
3C18D
330
18
100
AcDbEntity
  8
1
100
AcDb3dPolyline
 66
     1
 10
0.0
 20
0.0
 30
0.0
 70
    12
 75
     6
  0
VERTEX
  5
3C18E
330
3C18D
100
AcDbEntity
  8
1
100
AcDbVertex
100
AcDb3dPolylineVertex
 10
20.0
 20
-19.50681800000001
 30
0.0
 70
    48
  0
VERTEX
  5
3C18F
330
3C18D
100
AcDbEntity
  8
1
100
AcDbVertex
100
AcDb3dPolylineVertex
 10
19.743105
 20
-19.48171100000001
 30
0.0
 70
    48
  0
VERTEX
  5
3C190
330
3C18D
100
AcDbEntity
  8
1
100
AcDbVertex
100
AcDb3dPolylineVertex
 10
19.486859
 20
-19.45032700000001
 30
0.0
 70
    48
  0
VERTEX
  5
3C191
330
3C18D
100
AcDbEntity
  8
1
100
AcDbVertex
100
AcDb3dPolylineVertex
 10
18.621282
 20
-19.30999200000002
 30
0.0
 70
    48
  0
VERTEX
  5
3C192
330
3C18D
100
AcDbEntity
  8
1
100
AcDbVertex
100
AcDb3dPolylineVertex
 10
17.999962
 20
-19.17768500000001
 30
0.0
 70
    48
  0
VERTEX
  5
3C193
330
3C18D
100
AcDbEntity
  8
1
100
AcDbVertex
100
AcDb3dPolylineVertex
 10
17.27508199999999
 20
-18.63779100000002
 30
0.0
 70
    48
  0
VERTEX
  5
3C194
330
3C18D
100
AcDbEntity
  8
1
100
AcDbVertex
100
AcDb3dPolylineVertex
 10
17.12863500000001
 20
-18.50381600000001
 30
0.0
 70
    48
  0
VERTEX
  5
3C195
330
3C18D
100
AcDbEntity
  8
1
100
AcDbVertex
100
AcDb3dPolylineVertex
 10
16.98841199999999
 20
-18.06360300000001
 30
0.0
 70
    48
  0
VERTEX
  5
3C196
330
3C18D
100
AcDbEntity
  8
1
100
AcDbVertex
100
AcDb3dPolylineVertex
 10
16.98147399999999
 20
-17.99034800000001
 30
0.0
 70
    48
  0
VERTEX
  5
3C197
330
3C18D
100
AcDbEntity
  8
1
100
AcDbVertex
100
AcDb3dPolylineVertex
 10
16.98147399999999
 20
-17.86057200000002
 30
0.0
 70
    48
  0
VERTEX
  5
3C198
330
3C18D
100
AcDbEntity
  8
1
100
AcDbVertex
100
AcDb3dPolylineVertex
 10
20.0
 20
-19.50681800000001
 30
0.0
 70
    40
  0
VERTEX
  5
3C199
330
3C18D
100
AcDbEntity
  8
1
100
AcDbVertex
100
AcDb3dPolylineVertex
 10
19.232177
 20
-19.40903600000003
 30
0.0
 70
    40
  0
VERTEX
  5
3C19A
330
3C18D
100
AcDbEntity
  8
1
100
AcDbVertex
100
AcDb3dPolylineVertex
 10
18.62199599999999
 20
-19.29072900000002
 30
0.0
 70
    40
  0
VERTEX
  5
3C19B
330
3C18D
100
AcDbEntity
  8
1
100
AcDbVertex
100
AcDb3dPolylineVertex
 10
18.32215300000001
 20
-19.20793200000002
 30
0.0
 70
    40
  0
VERTEX
  5
3C19C
330
3C18D
100
AcDbEntity
  8
1
100
AcDbVertex
100
AcDb3dPolylineVertex
 10
18.02999600000001
 20
-19.10119800000002
 30
0.0
 70
    40
  0
VERTEX
  5
3C19D
330
3C18D
100
AcDbEntity
  8
1
100
AcDbVertex
100
AcDb3dPolylineVertex
 10
17.74866799999999
 20
-18.96439400000002
 30
0.0
 70
    40
  0
VERTEX
  5
3C19E
330
3C18D
100
AcDbEntity
  8
1
100
AcDbVertex
100
AcDb3dPolylineVertex
 10
17.48131
 20
-18.79139100000001
 30
0.0
 70
    40
  0
VERTEX
  5
3C19F
330
3C18D
100
AcDbEntity
  8
1
100
AcDbVertex
100
AcDb3dPolylineVertex
 10
17.294689
 20
-18.63748700000002
 30
0.0
 70
    40
  0
VERTEX
  5
3C1A0
330
3C18D
100
AcDbEntity
  8
1
100
AcDbVertex
100
AcDb3dPolylineVertex
 10
17.146002
 20
-18.45558800000002
 30
0.0
 70
    40
  0
VERTEX
  5
3C1A1
330
3C18D
100
AcDbEntity
  8
1
100
AcDbVertex
100
AcDb3dPolylineVertex
 10
17.03333
 20
-18.20461600000001
 30
0.0
 70
    40
  0
VERTEX
  5
3C1A2
330
3C18D
100
AcDbEntity
  8
1
100
AcDbVertex
100
AcDb3dPolylineVertex
 10
16.98493599999999
 20
-17.97611100000001
 30
0.0
 70
    40
  0
VERTEX
  5
3C1A3
330
3C18D
100
AcDbEntity
  8
1
100
AcDbVertex
100
AcDb3dPolylineVertex
 10
16.98147399999999
 20
-17.86057200000002
 30
0.0
 70
    40
  0
SEQEND
  5
3C1A4
330
3C18D
100
AcDbEntity
  8
1
  0
POLYLINE
  5
3C1A5
330
18
100
AcDbEntity
  8
1
100
AcDb3dPolyline
 66
     1
 10
0.0
 20
0.0
 30
0.0
 70
    12
 75
     6
  0
VERTEX
  5
3C1A6
330
3C1A5
100
AcDbEntity
  8
1
100
AcDbVertex
100
AcDb3dPolylineVertex
 10
16.981474
 20
-8.787355000000019
 30
0.0
 70
    48
  0
VERTEX
  5
3C1A7
330
3C1A5
100
AcDbEntity
  8
1
100
AcDbVertex
100
AcDb3dPolylineVertex
 10
16.981474
 20
-8.752671000000017
 30
0.0
 70
    48
  0
VERTEX
  5
3C1A8
330
3C1A5
100
AcDbEntity
  8
1
100
AcDbVertex
100
AcDb3dPolylineVertex
 10
16.983666
 20
-8.720108000000017
 30
0.0
 70
    48
  0
VERTEX
  5
3C1A9
330
3C1A5
100
AcDbEntity
  8
1
100
AcDbVertex
100
AcDb3dPolylineVertex
 10
17.030068
 20
-8.269565000000008
 30
0.0
 70
    48
  0
VERTEX
  5
3C1AA
330
3C1A5
100
AcDbEntity
  8
1
100
AcDbVertex
100
AcDb3dPolylineVertex
 10
17.17917100000001
 20
-7.879356000000019
 30
0.0
 70
    48
  0
VERTEX
  5
3C1AB
330
3C1A5
100
AcDbEntity
  8
1
100
AcDbVertex
100
AcDb3dPolylineVertex
 10
17.40535900000001
 20
-7.058064000000008
 30
0.0
 70
    48
  0
VERTEX
  5
3C1AC
330
3C1A5
100
AcDbEntity
  8
1
100
AcDbVertex
100
AcDb3dPolylineVertex
 10
17.506168
 20
-6.631048000000008
 30
0.0
 70
    48
  0
VERTEX
  5
3C1AD
330
3C1A5
100
AcDbEntity
  8
1
100
AcDbVertex
100
AcDb3dPolylineVertex
 10
17.62025900000001
 20
-5.321397000000018
 30
0.0
 70
    48
  0
VERTEX
  5
3C1AE
330
3C1A5
100
AcDbEntity
  8
1
100
AcDbVertex
100
AcDb3dPolylineVertex
 10
17.551968
 20
-4.451579000000018
 30
0.0
 70
    48
  0
VERTEX
  5
3C1AF
330
3C1A5
100
AcDbEntity
  8
1
100
AcDbVertex
100
AcDb3dPolylineVertex
 10
17.361918
 20
-3.115736000000017
 30
0.0
 70
    48
  0
VERTEX
  5
3C1B0
330
3C1A5
100
AcDbEntity
  8
1
100
AcDbVertex
100
AcDb3dPolylineVertex
 10
17.278578
 20
-2.656010000000017
 30
0.0
 70
    48
  0
VERTEX
  5
3C1B1
330
3C1A5
100
AcDbEntity
  8
1
100
AcDbVertex
100
AcDb3dPolylineVertex
 10
17.08601100000001
 20
-1.880056000000017
 30
0.0
 70
    48
  0
VERTEX
  5
3C1B2
330
3C1A5
100
AcDbEntity
  8
1
100
AcDbVertex
100
AcDb3dPolylineVertex
 10
16.981474
 20
-1.580022000000015
 30
0.0
 70
    48
  0
VERTEX
  5
3C1B3
330
3C1A5
100
AcDbEntity
  8
1
100
AcDbVertex
100
AcDb3dPolylineVertex
 10
16.981474
 20
-1.256750000000018
 30
0.0
 70
    48
  0
VERTEX
  5
3C1B4
330
3C1A5
100
AcDbEntity
  8
1
100
AcDbVertex
100
AcDb3dPolylineVertex
 10
16.981474
 20
-8.787355000000019
 30
0.0
 70
    40
  0
VERTEX
  5
3C1B5
330
3C1A5
100
AcDbEntity
  8
1
100
AcDbVertex
100
AcDb3dPolylineVertex
 10
16.98716200000001
 20
-8.686159000000017
 30
0.0
 70
    40
  0
VERTEX
  5
3C1B6
330
3C1A5
100
AcDbEntity
  8
1
100
AcDbVertex
100
AcDb3dPolylineVertex
 10
17.060089
 20
-8.277031000000029
 30
0.0
 70
    40
  0
VERTEX
  5
3C1B7
330
3C1A5
100
AcDbEntity
  8
1
100
AcDbVertex
100
AcDb3dPolylineVertex
 10
17.289251
 20
-7.479654000000017
 30
0.0
 70
    40
  0
VERTEX
  5
3C1B8
330
3C1A5
100
AcDbEntity
  8
1
100
AcDbVertex
100
AcDb3dPolylineVertex
 10
17.398506
 20
-7.056041000000018
 30
0.0
 70
    40
  0
VERTEX
  5
3C1B9
330
3C1A5
100
AcDbEntity
  8
1
100
AcDbVertex
100
AcDb3dPolylineVertex
 10
17.487043
 20
-6.627529000000017
 30
0.0
 70
    40
  0
VERTEX
  5
3C1BA
330
3C1A5
100
AcDbEntity
  8
1
100
AcDbVertex
100
AcDb3dPolylineVertex
 10
17.54434300000001
 20
-6.192835000000019
 30
0.0
 70
    40
  0
VERTEX
  5
3C1BB
330
3C1A5
100
AcDbEntity
  8
1
100
AcDbVertex
100
AcDb3dPolylineVertex
 10
17.570698
 20
-5.757266000000019
 30
0.0
 70
    40
  0
VERTEX
  5
3C1BC
330
3C1A5
100
AcDbEntity
  8
1
100
AcDbVertex
100
AcDb3dPolylineVertex
 10
17.57550300000001
 20
-5.322056000000008
 30
0.0
 70
    40
  0
VERTEX
  5
3C1BD
330
3C1A5
100
AcDbEntity
  8
1
100
AcDbVertex
100
AcDb3dPolylineVertex
 10
17.53039900000001
 20
-4.453073000000008
 30
0.0
 70
    40
  0
VERTEX
  5
3C1BE
330
3C1A5
100
AcDbEntity
  8
1
100
AcDbVertex
100
AcDb3dPolylineVertex
 10
17.428908
 20
-3.586600000000017
 30
0.0
 70
    40
  0
VERTEX
  5
3C1BF
330
3C1A5
100
AcDbEntity
  8
1
100
AcDbVertex
100
AcDb3dPolylineVertex
 10
17.268512
 20
-2.655012000000009
 30
0.0
 70
    40
  0
VERTEX
  5
3C1C0
330
3C1A5
100
AcDbEntity
  8
1
100
AcDbVertex
100
AcDb3dPolylineVertex
 10
17.011439
 20
-1.573560000000006
 30
0.0
 70
    40
  0
VERTEX
  5
3C1C1
330
3C1A5
100
AcDbEntity
  8
1
100
AcDbVertex
100
AcDb3dPolylineVertex
 10
16.981474
 20
-1.256750000000018
 30
0.0
 70
    40
  0
SEQEND
  5
3C1C2
330
3C1A5
100
AcDbEntity
  8
1
  0
TEXT
  5
3C1C3
330
18
100
AcDbEntity
  8
16
100
AcDbText
 10
3.699999999999995
 20
-17.93723700000001
 30
0.0
 40
2.7
  1
C4-MWLNL-27050-08
 50
90.0
 41
0.7815789542483658
  7
SANDVIK_STYLE
 72
     5
 11
3.699999999999995
 21
17.93723699999998
 31
0.0
100
AcDbText
  0
DIMENSION
  5
3C1C4
330
18
100
AcDbEntity
  8
12
100
AcDbDimension
  2
*D17
 10
-31.49999999999999
 20
19.99999999999999
 30
0.0
 11
-31.49999999999999
 21
0.0
 31
0.0
 70
   160
  1
%%c40
 71
     5
 42
40.0
  3
SANDVIK_STYLE
100
AcDbAlignedDimension
 13
0.0
 23
-20.00000000000002
 33
0.0
 14
0.0
 24
19.99999999999998
 34
0.0
 50
90.0
100
AcDbRotatedDimension
  0
DIMENSION
  5
3C1C5
330
18
100
AcDbEntity
  8
20
100
AcDbDimension
  2
*D18
 10
63.5
 20
-0.0000000000000095
 30
0.0
 11
63.5
 21
-13.50000000000002
 31
0.0
 70
   160
  1
27
 71
     5
 42
27.00000000000001
  3
SANDVIK_STYLE
100
AcDbAlignedDimension
 13
50.0
 23
-27.00000000000002
 33
0.0
 14
55.0
 24
-0.0000000000000071
 34
0.0
 50
90.0
100
AcDbRotatedDimension
  0
DIMENSION
  5
3C1C6
330
18
100
AcDbEntity
  8
20
100
AcDbDimension
  2
*D19
 10
50.0
 20
38.5
 30
0.0
 11
25.0
 21
38.5
 31
0.0
 70
   160
  1
50
 71
     5
 42
50.0
 53
89.99999800000002
  3
SANDVIK_STYLE
100
AcDbAlignedDimension
 13
0.0
 23
19.99999999999998
 33
0.0
 14
50.0
 24
-26.90000000000002
 34
0.0
100
AcDbRotatedDimension
  0
DIMENSION
  5
3C1C7
330
18
100
AcDbEntity
  8
20
100
AcDbDimension
  2
*D20
 10
43.06685199999999
 20
-26.43102900000001
 30
0.0
 11
40.74983281517789
 21
-35.52214562553743
 31
1.436819999999999
 70
    34
  1
94%%d41'
 71
     5
 42
1.652678157453104
 52
198.981383
 53
42.65425599999999
  3
SANDVIK_STYLE
100
AcDb2LineAngularDimension
 13
50.0
 23
-28.25785400000002
 33
0.0
 14
50.0
 24
-27.00000000000002
 34
0.0
 15
50.0
 25
-27.00000000000002
 35
0.0
 16
38.78070477700116
 26
-32.6850658491544
 36
1.436819999999999
  0
LINE
  5
3C1C8
330
18
100
AcDbEntity
  8
80
100
AcDbLine
 10
0.0
 20
-0.0000000000000178
 30
0.0
 11
-26.17832379288819
 21
-0.0000000000000178
 31
0.0
  0
LINE
  5
3C1C9
330
18
100
AcDbEntity
  8
81
100
AcDbLine
 10
0.0
 20
-0.0000000000000178
 30
0.0
 11
52.73334275139852
 21
-0.0000000000000178
 31
0.0
  0
INSERT
  5
3C1CA
330
18
100
AcDbEntity
  8
5
100
AcDbBlockReference
  2
_nullpunkt
 10
0.0
 20
0.0
 30
0.0
  0
TEXT
  5
3C1CB
330
18
100
AcDbEntity
  8
5
100
AcDbText
 10
0.0
 20
0.0
 30
0.0
 40
0.1
  1
ISOORIENTED
100
AcDbText
  0
ENDSEC
  0
SECTION
  2
OBJECTS
  0
DICTIONARY
  5
C
330
0
100
AcDbDictionary
281
     1
  3
ACAD_2007HEADERVARS_RT
350
3C29A
  3
ACAD_CIP_PREVIOUS_PRODUCT_INFO
350
3C260
  3
ACAD_COLOR
350
387
  3
ACAD_DETAILVIEWSTYLE
350
3C25D
  3
ACAD_GROUP
350
D
  3
ACAD_LAYOUT
350
301
  3
ACAD_MATERIAL
350
386
  3
ACAD_MLEADERSTYLE
350
43C
  3
ACAD_MLINESTYLE
350
E
  3
ACAD_PLOTSETTINGS
350
302
  3
ACAD_PLOTSTYLENAME
350
2FF
  3
ACAD_SCALELIST
350
41A
  3
ACAD_SECTIONVIEWSTYLE
350
3C25B
  3
ACAD_TABLESTYLE
350
388
  3
ACAD_VISUALSTYLE
350
3F2
  3
ACDB_RECOMPOSE_DATA
350
3C298
  3
AcDbVariableDictionary
350
357
  3
DWGPROPS
350
3C299
  0
DICTIONARY
  5
3C263
330
F
100
AcDbDictionary
280
     1
281
     1
  3
ADSK_XREC_LAYER_RECONCILED
360
3C264
  0
DICTIONARY
  5
3C265
330
23
100
AcDbDictionary
280
     1
281
     1
  3
ADSK_XREC_LAYER_RECONCILED
360
3C266
  0
DICTIONARY
  5
3C267
330
3BFD3
100
AcDbDictionary
280
     1
281
     1
  3
ADSK_XREC_LAYER_RECONCILED
360
3C268
  0
DICTIONARY
  5
3C269
330
3BFD5
100
AcDbDictionary
280
     1
281
     1
  3
ADSK_XREC_LAYER_RECONCILED
360
3C26A
  0
DICTIONARY
  5
3C26B
330
3BFD6
100
AcDbDictionary
280
     1
281
     1
  3
ADSK_XREC_LAYER_RECONCILED
360
3C26C
  0
DICTIONARY
  5
3C26D
330
3BFD7
100
AcDbDictionary
280
     1
281
     1
  3
ADSK_XREC_LAYER_RECONCILED
360
3C26E
  0
DICTIONARY
  5
3C26F
330
3BFD8
100
AcDbDictionary
280
     1
281
     1
  3
ADSK_XREC_LAYER_RECONCILED
360
3C270
  0
DICTIONARY
  5
3C271
330
3BFD9
100
AcDbDictionary
280
     1
281
     1
  3
ADSK_XREC_LAYER_RECONCILED
360
3C272
  0
DICTIONARY
  5
3C273
330
3BFDA
100
AcDbDictionary
280
     1
281
     1
  3
ADSK_XREC_LAYER_RECONCILED
360
3C274
  0
DICTIONARY
  5
3C275
330
3BFDB
100
AcDbDictionary
280
     1
281
     1
  3
ADSK_XREC_LAYER_RECONCILED
360
3C276
  0
DICTIONARY
  5
3C277
330
3BFDC
100
AcDbDictionary
280
     1
281
     1
  3
ADSK_XREC_LAYER_RECONCILED
360
3C278
  0
DICTIONARY
  5
3C279
330
3BFDD
100
AcDbDictionary
280
     1
281
     1
  3
ADSK_XREC_LAYER_RECONCILED
360
3C27A
  0
DICTIONARY
  5
3C27B
330
3BFDE
100
AcDbDictionary
280
     1
281
     1
  3
ADSK_XREC_LAYER_RECONCILED
360
3C27C
  0
DICTIONARY
  5
3C27D
330
3BFDF
100
AcDbDictionary
280
     1
281
     1
  3
ADSK_XREC_LAYER_RECONCILED
360
3C27E
  0
DICTIONARY
  5
3C27F
330
3BFE0
100
AcDbDictionary
280
     1
281
     1
  3
ADSK_XREC_LAYER_RECONCILED
360
3C280
  0
DICTIONARY
  5
3C281
330
3BFE1
100
AcDbDictionary
280
     1
281
     1
  3
ADSK_XREC_LAYER_RECONCILED
360
3C282
  0
DICTIONARY
  5
3C283
330
3BFE2
100
AcDbDictionary
280
     1
281
     1
  3
ADSK_XREC_LAYER_RECONCILED
360
3C284
  0
DICTIONARY
  5
3C285
330
3BFE3
100
AcDbDictionary
280
     1
281
     1
  3
ADSK_XREC_LAYER_RECONCILED
360
3C286
  0
DICTIONARY
  5
3C287
330
3BFE4
100
AcDbDictionary
280
     1
281
     1
  3
ADSK_XREC_LAYER_RECONCILED
360
3C288
  0
DICTIONARY
  5
3C289
330
3BFE5
100
AcDbDictionary
280
     1
281
     1
  3
ADSK_XREC_LAYER_RECONCILED
360
3C28A
  0
DICTIONARY
  5
3C28B
330
3BFE6
100
AcDbDictionary
280
     1
281
     1
  3
ADSK_XREC_LAYER_RECONCILED
360
3C28C
  0
DICTIONARY
  5
3C28D
330
3BFE7
100
AcDbDictionary
280
     1
281
     1
  3
ADSK_XREC_LAYER_RECONCILED
360
3C28E
  0
DICTIONARY
  5
3C28F
330
3BFE8
100
AcDbDictionary
280
     1
281
     1
  3
ADSK_XREC_LAYER_RECONCILED
360
3C290
  0
DICTIONARY
  5
3C291
330
3BFE9
100
AcDbDictionary
280
     1
281
     1
  3
ADSK_XREC_LAYER_RECONCILED
360
3C292
  0
DICTIONARY
  5
3BFAC
330
3BFAB
100
AcDbDictionary
280
     1
281
     1
  3
ACAD_SORTENTS
360
3BFAD
  0
DICTIONARY
  5
3C29A
102
{ACAD_REACTORS
330
C
102
}
330
C
100
AcDbDictionary
281
     1
  3
DIMJOGANG
350
3C29B
  0
XRECORD
  5
3C260
102
{ACAD_REACTORS
330
C
102
}
330
C
100
AcDbXrecord
280
     1
300
AMECH_PP
300
2013
300
PDSU_F_S
  0
DICTIONARY
  5
387
102
{ACAD_REACTORS
330
C
102
}
330
C
100
AcDbDictionary
281
     1
  0
DICTIONARY
  5
3C25D
102
{ACAD_REACTORS
330
C
102
}
330
C
100
AcDbDictionary
281
     1
  3
Metric50
350
3C25E
  0
DICTIONARY
  5
D
102
{ACAD_REACTORS
330
C
102
}
330
C
100
AcDbDictionary
281
     1
  0
DICTIONARY
  5
301
102
{ACAD_REACTORS
330
C
102
}
330
C
100
AcDbDictionary
281
     1
  3
Layout1
350
33B
  3
Model
350
303
  0
DICTIONARY
  5
386
102
{ACAD_REACTORS
330
C
102
}
330
C
100
AcDbDictionary
281
     1
  3
ByBlock
350
3F0
  3
ByLayer
350
3EF
  3
Global
350
3F1
  0
DICTIONARY
  5
43C
102
{ACAD_REACTORS
330
C
102
}
330
C
100
AcDbDictionary
281
     1
  3
Standard
350
43D
  0
DICTIONARY
  5
E
102
{ACAD_REACTORS
330
C
102
}
330
C
100
AcDbDictionary
281
     1
  3
STANDARD
350
1B
  0
DICTIONARY
  5
302
102
{ACAD_REACTORS
330
C
102
}
330
C
100
AcDbDictionary
281
     1
  0
ACDBDICTIONARYWDFLT
  5
2FF
102
{ACAD_REACTORS
330
C
102
}
330
C
100
AcDbDictionary
281
     1
  3
Normal
350
300
100
AcDbDictionaryWithDefault
340
300
  0
DICTIONARY
  5
41A
102
{ACAD_REACTORS
330
C
102
}
330
C
100
AcDbDictionary
281
     1
  3
A0
350
41B
  3
A1
350
41C
  3
A2
350
41D
  3
A3
350
41E
  3
A4
350
41F
  3
A5
350
420
  3
A6
350
421
  3
A7
350
422
  3
A8
350
423
  3
A9
350
424
  3
B0
350
425
  3
B1
350
426
  3
B2
350
427
  3
B3
350
428
  3
B4
350
429
  3
B5
350
42A
  3
B6
350
42B
  3
B7
350
42C
  3
B8
350
42D
  3
B9
350
42E
  3
C0
350
42F
  3
C1
350
430
  3
C2
350
431
  3
C3
350
432
  3
C4
350
433
  3
C5
350
434
  3
C6
350
435
  3
C7
350
436
  3
C8
350
437
  3
C9
350
438
  3
D0
350
439
  3
D1
350
43A
  3
D2
350
43B
  0
DICTIONARY
  5
3C25B
102
{ACAD_REACTORS
330
C
102
}
330
C
100
AcDbDictionary
281
     1
  3
Metric50
350
3C25C
  0
DICTIONARY
  5
388
102
{ACAD_REACTORS
330
C
102
}
330
C
100
AcDbDictionary
281
     1
  3
Standard
350
389
  0
DICTIONARY
  5
3F2
102
{ACAD_REACTORS
330
C
102
}
330
C
100
AcDbDictionary
281
     1
  3
2dWireframe
350
3F8
  3
3D Hidden
350
3FA
  3
3dWireframe
350
3F9
  3
Basic
350
3F7
  3
Brighten
350
3FE
  3
ColorChange
350
402
  3
Conceptual
350
3FB
  3
Dim
350
3FD
  3
EdgeColorOff
350
44E
  3
Facepattern
350
401
  3
Flat
350
3F3
  3
FlatWithEdges
350
3F4
  3
Gouraud
350
3F5
  3
GouraudWithEdges
350
3F6
  3
Hidden
350
3C255
  3
JitterOff
350
44C
  3
Linepattern
350
400
  3
OverhangOff
350
44D
  3
Realistic
350
3FC
  3
Shaded
350
3C25A
  3
Shaded with edges
350
3C259
  3
Shades of Gray
350
3C256
  3
Sketchy
350
3C257
  3
Thicken
350
3FF
  3
Wireframe
350
3C254
  3
X-Ray
350
3C258
  0
XRECORD
  5
3C298
102
{ACAD_REACTORS
330
C
102
}
330
C
100
AcDbXrecord
280
     1
 90
        1
330
389
  0
DICTIONARY
  5
357
102
{ACAD_REACTORS
330
C
102
}
330
C
100
AcDbDictionary
281
     1
  3
CANNOSCALE
350
449
  3
CMLEADERSTYLE
350
447
  3
CTABLESTYLE
350
38E
  3
CVIEWDETAILSTYLE
350
3C293
  3
CVIEWSECTIONSTYLE
350
3C294
  3
DIMASSOC
350
359
  3
HIDETEXT
350
358
  3
INDEXCTL
350
728
  3
LAYEREVAL
350
458
  3
LAYERNOTIFY
350
459
  3
LIGHTINGUNITS
350
44A
  3
MSLTSCALE
350
448
  3
SORTENTS
350
727
  3
XCLIPFRAME
350
3C295
  0
XRECORD
  5
3C299
102
{ACAD_REACTORS
330
C
102
}
330
C
100
AcDbXrecord
280
     1
  1
DWGPROPS COOKIE
  2

  3

  4

  6

  7

  8
Micke
  9

300
=
301
=
302
=
303
=
304
=
305
=
306
=
307
=
308
=
309
=
 40
0.0018195023148148
 41
2455883.64348684
 42
2456817.914855185
  1

 90
        0
  0
XRECORD
  5
3C264
102
{ACAD_REACTORS
330
3C263
102
}
330
3C263
100
AcDbXrecord
280
     1
290
     1
  0
XRECORD
  5
3C266
102
{ACAD_REACTORS
330
3C265
102
}
330
3C265
100
AcDbXrecord
280
     1
290
     1
  0
XRECORD
  5
3C268
102
{ACAD_REACTORS
330
3C267
102
}
330
3C267
100
AcDbXrecord
280
     1
290
     1
  0
XRECORD
  5
3C26A
102
{ACAD_REACTORS
330
3C269
102
}
330
3C269
100
AcDbXrecord
280
     1
290
     1
  0
XRECORD
  5
3C26C
102
{ACAD_REACTORS
330
3C26B
102
}
330
3C26B
100
AcDbXrecord
280
     1
290
     1
  0
XRECORD
  5
3C26E
102
{ACAD_REACTORS
330
3C26D
102
}
330
3C26D
100
AcDbXrecord
280
     1
290
     1
  0
XRECORD
  5
3C270
102
{ACAD_REACTORS
330
3C26F
102
}
330
3C26F
100
AcDbXrecord
280
     1
290
     1
  0
XRECORD
  5
3C272
102
{ACAD_REACTORS
330
3C271
102
}
330
3C271
100
AcDbXrecord
280
     1
290
     1
  0
XRECORD
  5
3C274
102
{ACAD_REACTORS
330
3C273
102
}
330
3C273
100
AcDbXrecord
280
     1
290
     1
  0
XRECORD
  5
3C276
102
{ACAD_REACTORS
330
3C275
102
}
330
3C275
100
AcDbXrecord
280
     1
290
     1
  0
XRECORD
  5
3C278
102
{ACAD_REACTORS
330
3C277
102
}
330
3C277
100
AcDbXrecord
280
     1
290
     1
  0
XRECORD
  5
3C27A
102
{ACAD_REACTORS
330
3C279
102
}
330
3C279
100
AcDbXrecord
280
     1
290
     1
  0
XRECORD
  5
3C27C
102
{ACAD_REACTORS
330
3C27B
102
}
330
3C27B
100
AcDbXrecord
280
     1
290
     1
  0
XRECORD
  5
3C27E
102
{ACAD_REACTORS
330
3C27D
102
}
330
3C27D
100
AcDbXrecord
280
     1
290
     1
  0
XRECORD
  5
3C280
102
{ACAD_REACTORS
330
3C27F
102
}
330
3C27F
100
AcDbXrecord
280
     1
290
     1
  0
XRECORD
  5
3C282
102
{ACAD_REACTORS
330
3C281
102
}
330
3C281
100
AcDbXrecord
280
     1
290
     1
  0
XRECORD
  5
3C284
102
{ACAD_REACTORS
330
3C283
102
}
330
3C283
100
AcDbXrecord
280
     1
290
     1
  0
XRECORD
  5
3C286
102
{ACAD_REACTORS
330
3C285
102
}
330
3C285
100
AcDbXrecord
280
     1
290
     1
  0
XRECORD
  5
3C288
102
{ACAD_REACTORS
330
3C287
102
}
330
3C287
100
AcDbXrecord
280
     1
290
     1
  0
XRECORD
  5
3C28A
102
{ACAD_REACTORS
330
3C289
102
}
330
3C289
100
AcDbXrecord
280
     1
290
     1
  0
XRECORD
  5
3C28C
102
{ACAD_REACTORS
330
3C28B
102
}
330
3C28B
100
AcDbXrecord
280
     1
290
     1
  0
XRECORD
  5
3C28E
102
{ACAD_REACTORS
330
3C28D
102
}
330
3C28D
100
AcDbXrecord
280
     1
290
     1
  0
XRECORD
  5
3C290
102
{ACAD_REACTORS
330
3C28F
102
}
330
3C28F
100
AcDbXrecord
280
     1
290
     1
  0
XRECORD
  5
3C292
102
{ACAD_REACTORS
330
3C291
102
}
330
3C291
100
AcDbXrecord
280
     1
290
     1
  0
SORTENTSTABLE
  5
3BFAD
102
{ACAD_REACTORS
330
3BFAC
102
}
330
3BFAC
100
AcDbSortentsTable
330
3BFAB
  0
XRECORD
  5
3C29B
102
{ACAD_REACTORS
330
3C29A
102
}
330
3C29A
100
AcDbXrecord
280
     1
 40
1.570796326794896
  0
ACDBDETAILVIEWSTYLE
  5
3C25E
102
{ACAD_REACTORS
330
3C25D
102
}
330
3C25D
100
AcDbModelDocViewStyle
 70
     0
  3
Metric50
290
     0
100
AcDbDetailViewStyle
 70
     0
 71
     0
 90
        3
 71
     1
340
10
 40
5.0
340
0
 40
5.0
300

 40
0.0
280
     1
 71
     2
340
14
 90
       25
 71
     3
340
10
 40
5.0
 90
        0
 40
15.0
 90
        1
300
%<\AcVar ViewDetailId>% (%<\AcVar ViewScale \f "%sn">%)
 71
     4
340
14
 90
       25
340
14
 90
       25
280
     0
  0
LAYOUT
  5
33B
102
{ACAD_XDICTIONARY
360
3C29E
102
}
102
{ACAD_REACTORS
330
301
102
}
330
301
100
AcDbPlotSettings
  1

  2
Lexmark Optra PS2
  4

  6

 40
0.0
 41
0.0
 42
0.0
 43
0.0
 44
0.0
 45
0.0
 46
0.0
 47
0.0
 48
0.0
 49
0.0
140
0.0
141
0.0
142
1.0
143
1.0
 70
   688
 72
     0
 73
     0
 74
     5
  7
monochrome.ctb
 75
    16
147
1.0
148
0.0
149
0.0
100
AcDbLayout
  1
Layout1
 70
     1
 71
     1
 10
0.0
 20
0.0
 11
12.0
 21
9.0
 12
0.0
 22
0.0
 32
0.0
 14
0.0
 24
0.0
 34
0.0
 15
0.0
 25
0.0
 35
0.0
146
0.0
 13
0.0
 23
0.0
 33
0.0
 16
1.0
 26
0.0
 36
0.0
 17
0.0
 27
1.0
 37
0.0
 76
     0
330
338
  0
LAYOUT
  5
303
102
{ACAD_XDICTIONARY
360
3C29C
102
}
102
{ACAD_REACTORS
330
301
102
}
330
301
100
AcDbPlotSettings
  1

  2
Default Windows System Printer.pc3
  4
A4
  6

 40
6.805083274841307
 41
5.535083293914794
 42
6.974411010742187
 43
7.14373779296875
 44
209.9733276367186
 45
296.9259948730469
 46
67.83299579489725
 47
0.0
 48
0.0
 49
0.0
140
0.0
141
0.0
142
1.0
143
0.3604333568168785
 70
  3764
 72
     1
 73
     1
 74
     1
  7
monochrome.ctb
 75
     0
147
2.774437995504559
148
-82.35087775247029
149
-53.69369632994493
100
AcDbLayout
  1
Model
 70
     1
 71
     0
 10
0.0
 20
0.0
 11
12.0
 21
9.0
 12
0.0
 22
0.0
 32
0.0
 14
0.0
 24
0.0
 34
0.0
 15
0.0
 25
0.0
 35
0.0
146
0.0
 13
0.0
 23
0.0
 33
0.0
 16
1.0
 26
0.0
 36
0.0
 17
0.0
 27
1.0
 37
0.0
 76
     0
330
18
331
3ED
1001
ACAD_PSEXT
1000
Default Windows System Printer.pc3
1000
Lexmark Optra Rx
1000
Lexmark Rx
1000
Erstellt von Lexmark Benutzerdefinierte Installation,Nov 13,2005,10:03
1070
     0
  0
MATERIAL
  5
3F0
102
{ACAD_XDICTIONARY
360
3C226
102
}
102
{ACAD_REACTORS
330
386
102
}
330
386
100
AcDbMaterial
  1
ByBlock
 73
     1
 78
     1
172
     1
176
     1
270
     1
274
     1
  0
MATERIAL
  5
3EF
102
{ACAD_XDICTIONARY
360
3C224
102
}
102
{ACAD_REACTORS
330
386
102
}
330
386
100
AcDbMaterial
  1
ByLayer
 73
     1
 78
     1
172
     1
176
     1
270
     1
274
     1
  0
MATERIAL
  5
3F1
102
{ACAD_XDICTIONARY
360
3C228
102
}
102
{ACAD_REACTORS
330
386
102
}
330
386
100
AcDbMaterial
  1
Global
 73
     1
 78
     1
172
     1
176
     1
270
     1
274
     1
  0
MLEADERSTYLE
  5
43D
102
{ACAD_REACTORS
330
43C
102
}
330
43C
100
AcDbMLeaderStyle
170
     2
171
     1
172
     0
 90
        2
 40
0.0
 41
0.0
173
     1
 91
-1056964608
340
12
 92
       -2
290
     1
 42
2.0
291
     1
 43
0.36
  3
Standard
 44
4.0
300

342
10
174
     1
178
     6
175
     1
176
     0
 93
-1056964608
 45
4.0
292
     0
297
     0
 46
4.0
 94
-1056964608
 47
1.0
 49
1.0
140
1.0
293
     1
141
0.0
294
     1
177
     0
142
1.0
295
     0
296
     0
143
0.125
1001
ACAD_MLEADERVER
1070
     2
  0
MLINESTYLE
  5
1B
102
{ACAD_REACTORS
330
E
102
}
330
E
100
AcDbMlineStyle
  2
STANDARD
 70
     0
  3

 62
     0
 51
90.0
 52
90.0
 71
     2
 49
0.5
 62
   256
  6
BYLAYER
 49
-0.5
 62
   256
  6
BYLAYER
  0
ACDBPLACEHOLDER
  5
300
102
{ACAD_REACTORS
330
2FF
102
}
330
2FF
  0
SCALE
  5
41B
102
{ACAD_REACTORS
330
41A
102
}
330
41A
100
AcDbScale
 70
     0
300
1:1
140
1.0
141
1.0
290
     1
  0
SCALE
  5
41C
102
{ACAD_REACTORS
330
41A
102
}
330
41A
100
AcDbScale
 70
     0
300
1:2
140
1.0
141
2.0
290
     0
  0
SCALE
  5
41D
102
{ACAD_REACTORS
330
41A
102
}
330
41A
100
AcDbScale
 70
     0
300
1:4
140
1.0
141
4.0
290
     0
  0
SCALE
  5
41E
102
{ACAD_REACTORS
330
41A
102
}
330
41A
100
AcDbScale
 70
     0
300
1:5
140
1.0
141
5.0
290
     0
  0
SCALE
  5
41F
102
{ACAD_REACTORS
330
41A
102
}
330
41A
100
AcDbScale
 70
     0
300
1:8
140
1.0
141
8.0
290
     0
  0
SCALE
  5
420
102
{ACAD_REACTORS
330
41A
102
}
330
41A
100
AcDbScale
 70
     0
300
1:10
140
1.0
141
10.0
290
     0
  0
SCALE
  5
421
102
{ACAD_REACTORS
330
41A
102
}
330
41A
100
AcDbScale
 70
     0
300
1:16
140
1.0
141
16.0
290
     0
  0
SCALE
  5
422
102
{ACAD_REACTORS
330
41A
102
}
330
41A
100
AcDbScale
 70
     0
300
1:20
140
1.0
141
20.0
290
     0
  0
SCALE
  5
423
102
{ACAD_REACTORS
330
41A
102
}
330
41A
100
AcDbScale
 70
     0
300
1:30
140
1.0
141
30.0
290
     0
  0
SCALE
  5
424
102
{ACAD_REACTORS
330
41A
102
}
330
41A
100
AcDbScale
 70
     0
300
1:40
140
1.0
141
40.0
290
     0
  0
SCALE
  5
425
102
{ACAD_REACTORS
330
41A
102
}
330
41A
100
AcDbScale
 70
     0
300
1:50
140
1.0
141
50.0
290
     0
  0
SCALE
  5
426
102
{ACAD_REACTORS
330
41A
102
}
330
41A
100
AcDbScale
 70
     0
300
1:100
140
1.0
141
100.0
290
     0
  0
SCALE
  5
427
102
{ACAD_REACTORS
330
41A
102
}
330
41A
100
AcDbScale
 70
     0
300
2:1
140
2.0
141
1.0
290
     0
  0
SCALE
  5
428
102
{ACAD_REACTORS
330
41A
102
}
330
41A
100
AcDbScale
 70
     0
300
4:1
140
4.0
141
1.0
290
     0
  0
SCALE
  5
429
102
{ACAD_REACTORS
330
41A
102
}
330
41A
100
AcDbScale
 70
     0
300
8:1
140
8.0
141
1.0
290
     0
  0
SCALE
  5
42A
102
{ACAD_REACTORS
330
41A
102
}
330
41A
100
AcDbScale
 70
     0
300
10:1
140
10.0
141
1.0
290
     0
  0
SCALE
  5
42B
102
{ACAD_REACTORS
330
41A
102
}
330
41A
100
AcDbScale
 70
     0
300
100:1
140
100.0
141
1.0
290
     0
  0
SCALE
  5
42C
102
{ACAD_REACTORS
330
41A
102
}
330
41A
100
AcDbScale
 70
     0
300
1/128" = 1'-0"
140
0.0078125
141
12.0
290
     0
  0
SCALE
  5
42D
102
{ACAD_REACTORS
330
41A
102
}
330
41A
100
AcDbScale
 70
     0
300
1/64" = 1'-0"
140
0.015625
141
12.0
290
     0
  0
SCALE
  5
42E
102
{ACAD_REACTORS
330
41A
102
}
330
41A
100
AcDbScale
 70
     0
300
1/32" = 1'-0"
140
0.03125
141
12.0
290
     0
  0
SCALE
  5
42F
102
{ACAD_REACTORS
330
41A
102
}
330
41A
100
AcDbScale
 70
     0
300
1/16" = 1'-0"
140
0.0625
141
12.0
290
     0
  0
SCALE
  5
430
102
{ACAD_REACTORS
330
41A
102
}
330
41A
100
AcDbScale
 70
     0
300
3/32" = 1'-0"
140
0.09375
141
12.0
290
     0
  0
SCALE
  5
431
102
{ACAD_REACTORS
330
41A
102
}
330
41A
100
AcDbScale
 70
     0
300
1/8" = 1'-0"
140
0.125
141
12.0
290
     0
  0
SCALE
  5
432
102
{ACAD_REACTORS
330
41A
102
}
330
41A
100
AcDbScale
 70
     0
300
3/16" = 1'-0"
140
0.1875
141
12.0
290
     0
  0
SCALE
  5
433
102
{ACAD_REACTORS
330
41A
102
}
330
41A
100
AcDbScale
 70
     0
300
1/4" = 1'-0"
140
0.25
141
12.0
290
     0
  0
SCALE
  5
434
102
{ACAD_REACTORS
330
41A
102
}
330
41A
100
AcDbScale
 70
     0
300
3/8" = 1'-0"
140
0.375
141
12.0
290
     0
  0
SCALE
  5
435
102
{ACAD_REACTORS
330
41A
102
}
330
41A
100
AcDbScale
 70
     0
300
1/2" = 1'-0"
140
0.5
141
12.0
290
     0
  0
SCALE
  5
436
102
{ACAD_REACTORS
330
41A
102
}
330
41A
100
AcDbScale
 70
     0
300
3/4" = 1'-0"
140
0.75
141
12.0
290
     0
  0
SCALE
  5
437
102
{ACAD_REACTORS
330
41A
102
}
330
41A
100
AcDbScale
 70
     0
300
1" = 1'-0"
140
1.0
141
12.0
290
     0
  0
SCALE
  5
438
102
{ACAD_REACTORS
330
41A
102
}
330
41A
100
AcDbScale
 70
     0
300
1-1/2" = 1'-0"
140
1.5
141
12.0
290
     0
  0
SCALE
  5
439
102
{ACAD_REACTORS
330
41A
102
}
330
41A
100
AcDbScale
 70
     0
300
3" = 1'-0"
140
3.0
141
12.0
290
     0
  0
SCALE
  5
43A
102
{ACAD_REACTORS
330
41A
102
}
330
41A
100
AcDbScale
 70
     0
300
6" = 1'-0"
140
6.0
141
12.0
290
     0
  0
SCALE
  5
43B
102
{ACAD_REACTORS
330
41A
102
}
330
41A
100
AcDbScale
 70
     0
300
1'-0" = 1'-0"
140
12.0
141
12.0
290
     0
  0
ACDBSECTIONVIEWSTYLE
  5
3C25C
102
{ACAD_REACTORS
330
3C25B
102
}
330
3C25B
100
AcDbModelDocViewStyle
 70
     0
  3
Metric50
290
     0
100
AcDbSectionViewStyle
 70
     0
 71
     0
 90
      102
 71
     1
340
10
 40
5.0
340
0
340
0
 40
5.0
300
I, O, Q, S, X, Z
 40
10.0
 90
        0
 40
2.5
 90
        0
 71
     2
340
14
 90
       25
340
14
 90
       50
 40
5.0
 40
2.5
 40
5.0
 71
     3
340
10
 40
5.0
 90
        0
 40
15.0
 90
        1
300
%<\AcVar ViewSectionStartId>%-%<\AcVar ViewSectionEndId>% (%<\AcVar ViewScale \f "%sn">%)
 71
     4
300
ANSI31
 40
1.0
 90
        0
290
     0
290
     0
 90
        6
 40
0.0
 40
1.570796326794896
 40
0.2617993877991494
 40
1.308996938995747
 40
-0.2617993877991494
 40
1.832595714594046
  0
TABLESTYLE
  5
389
102
{ACAD_XDICTIONARY
360
444
102
}
102
{ACAD_REACTORS
330
388
102
}
330
388
100
AcDbTableStyle
  3
Standard
 70
     0
 71
     0
 40
1.5
 41
1.5
280
     0
281
     0
  7
STANDARD
140
4.5
170
     2
 62
     0
 63
     7
283
     0
274
    -2
284
     1
 64
     0
275
    -2
285
     1
 65
     0
276
    -2
286
     1
 66
     0
277
    -2
287
     1
 67
     0
278
    -2
288
     1
 68
     0
279
    -2
289
     1
 69
     0
  7
STANDARD
140
6.0
170
     5
 62
     0
 63
     7
283
     0
274
    -2
284
     1
 64
     0
275
    -2
285
     1
 65
     0
276
    -2
286
     1
 66
     0
277
    -2
287
     1
 67
     0
278
    -2
288
     1
 68
     0
279
    -2
289
     1
 69
     0
  7
STANDARD
140
4.5
170
     5
 62
     0
 63
     7
283
     0
274
    -2
284
     1
 64
     0
275
    -2
285
     1
 65
     0
276
    -2
286
     1
 66
     0
277
    -2
287
     1
 67
     0
278
    -2
288
     1
 68
     0
279
    -2
289
     1
 69
     0
  0
VISUALSTYLE
  5
3F8
102
{ACAD_XDICTIONARY
360
3C2AB
102
}
102
{ACAD_REACTORS
330
3F2
102
}
330
3F2
100
AcDbVisualStyle
  2

 70
     4
 71
     0
 72
     2
 73
     0
 90
        0
 40
-0.6
 41
-30.0
 62
     5
 63
     7
 74
     1
 91
        4
 64
     7
 65
   257
 75
     1
175
     1
 42
1.0
 92
        0
 66
   257
 43
1.0
 76
     1
 77
     6
 78
     2
 67
     7
 79
     5
170
     0
171
     0
290
     0
174
     0
 93
        1
 44
0.0
173
     0
291
     0
 45
0.0
1001
ACAD
1000
AcDbSavedByObjectVersion
1070
     0
  0
VISUALSTYLE
  5
3FA
102
{ACAD_XDICTIONARY
360
3C2AF
102
}
102
{ACAD_REACTORS
330
3F2
102
}
330
3F2
100
AcDbVisualStyle
  2

 70
     6
 71
     1
 72
     2
 73
     2
 90
        0
 40
-0.6
 41
-30.0
 62
     5
 63
     7
 74
     2
 91
        2
 64
     7
 65
   257
 75
     2
175
     1
 42
40.0
 92
        0
 66
   257
 43
1.0
 76
     1
 77
     6
 78
     2
 67
     7
 79
     3
170
     0
171
     0
290
     0
174
     0
 93
        1
 44
0.0
173
     0
291
     0
 45
0.0
1001
ACAD
1000
AcDbSavedByObjectVersion
1070
     0
  0
VISUALSTYLE
  5
3F9
102
{ACAD_XDICTIONARY
360
3C2AD
102
}
102
{ACAD_REACTORS
330
3F2
102
}
330
3F2
100
AcDbVisualStyle
  2

 70
     5
 71
     0
 72
     2
 73
     0
 90
        0
 40
-0.6
 41
-30.0
 62
     5
 63
     7
 74
     1
 91
        4
 64
     7
 65
   257
 75
     1
175
     1
 42
1.0
 92
        0
 66
   257
 43
1.0
 76
     1
 77
     6
 78
     2
 67
     7
 79
     5
170
     0
171
     0
290
     0
174
     0
 93
        1
 44
0.0
173
     0
291
     0
 45
0.0
1001
ACAD
1000
AcDbSavedByObjectVersion
1070
     0
  0
VISUALSTYLE
  5
3F7
102
{ACAD_XDICTIONARY
360
3C2A9
102
}
102
{ACAD_REACTORS
330
3F2
102
}
330
3F2
100
AcDbVisualStyle
  2

 70
     7
 71
     1
 72
     0
 73
     1
 90
        0
 40
-0.6
 41
-30.0
 62
     5
 63
     7
 74
     0
 91
        4
 64
     7
 65
   257
 75
     1
175
     1
 42
1.0
 92
        8
 66
     7
 43
1.0
 76
     1
 77
     6
 78
     2
 67
     7
 79
     5
170
     0
171
     0
290
     0
174
     0
 93
        1
 44
0.0
173
     0
291
     1
 45
0.0
1001
ACAD
1000
AcDbSavedByObjectVersion
1070
     0
  0
VISUALSTYLE
  5
3FE
102
{ACAD_XDICTIONARY
360
3C2B7
102
}
102
{ACAD_REACTORS
330
3F2
102
}
330
3F2
100
AcDbVisualStyle
  2

 70
    12
 71
     2
 72
     2
 73
     0
 90
        0
 40
-0.6
 41
-30.0
 62
     5
 63
     7
 74
     1
 91
        4
 64
     7
 65
   257
 75
     1
175
     1
 42
1.0
 92
        8
 66
     7
 43
1.0
 76
     1
 77
     6
 78
     2
 67
     7
 79
     5
170
     0
171
     0
290
     0
174
     0
 93
        1
 44
50.0
173
     0
291
     1
 45
0.0
1001
ACAD
1000
AcDbSavedByObjectVersion
1070
     0
  0
VISUALSTYLE
  5
402
102
{ACAD_XDICTIONARY
360
3C2BF
102
}
102
{ACAD_REACTORS
330
3F2
102
}
330
3F2
100
AcDbVisualStyle
  2

 70
    16
 71
     2
 72
     2
 73
     3
 90
        0
 40
-0.6
 41
-30.0
 62
     5
 63
     8
 74
     1
 91
        4
 64
     7
 65
   257
 75
     1
175
     1
 42
1.0
 92
        8
 66
     8
 43
1.0
 76
     1
 77
     6
 78
     2
 67
     7
 79
     5
170
     0
171
     0
290
     0
174
     0
 93
        1
 44
0.0
173
     0
291
     1
 45
0.0
1001
ACAD
1000
AcDbSavedByObjectVersion
1070
     0
  0
VISUALSTYLE
  5
3FB
102
{ACAD_XDICTIONARY
360
3C2B1
102
}
102
{ACAD_REACTORS
330
3F2
102
}
330
3F2
100
AcDbVisualStyle
  2

 70
     9
 71
     3
 72
     2
 73
     0
 90
        0
 40
-0.6
 41
-30.0
 62
     5
 63
     7
 74
     2
 91
        2
 64
     7
 65
   257
 75
     1
175
     1
 42
40.0
 92
        8
 66
     7
 43
1.0
 76
     1
 77
     6
 78
     2
 67
     7
 79
     3
170
     0
171
     0
290
     0
174
     0
 93
        1
 44
0.0
173
     0
291
     0
 45
0.0
1001
ACAD
1000
AcDbSavedByObjectVersion
1070
     0
  0
VISUALSTYLE
  5
3FD
102
{ACAD_XDICTIONARY
360
3C2B5
102
}
102
{ACAD_REACTORS
330
3F2
102
}
330
3F2
100
AcDbVisualStyle
  2

 70
    11
 71
     2
 72
     2
 73
     0
 90
        0
 40
-0.6
 41
-30.0
 62
     5
 63
     7
 74
     1
 91
        4
 64
     7
 65
   257
 75
     1
175
     1
 42
1.0
 92
        8
 66
     7
 43
1.0
 76
     1
 77
     6
 78
     2
 67
     7
 79
     5
170
     0
171
     0
290
     0
174
     0
 93
        1
 44
-50.0
173
     0
291
     1
 45
0.0
1001
ACAD
1000
AcDbSavedByObjectVersion
1070
     0
  0
VISUALSTYLE
  5
44E
102
{ACAD_XDICTIONARY
360
3C2C5
102
}
102
{ACAD_REACTORS
330
3F2
102
}
330
3F2
100
AcDbVisualStyle
  2

 70
    22
 71
     2
 72
     2
 73
     0
 90
        0
 40
-0.6
 41
-30.0
 62
     5
 63
     7
 74
     1
 91
        4
 64
     7
 65
   257
 75
     1
175
     1
 42
1.0
 92
        8
 66
     7
 43
1.0
 76
     1
 77
     6
 78
     2
 67
     7
 79
     5
170
     0
171
     0
290
     0
174
     0
 93
        1
 44
0.0
173
     0
291
     1
 45
0.0
1001
ACAD
1000
AcDbSavedByObjectVersion
1070
     0
  0
VISUALSTYLE
  5
401
102
{ACAD_XDICTIONARY
360
3C2BD
102
}
102
{ACAD_REACTORS
330
3F2
102
}
330
3F2
100
AcDbVisualStyle
  2

 70
    15
 71
     2
 72
     2
 73
     0
 90
        0
 40
-0.6
 41
-30.0
 62
     5
 63
     7
 74
     1
 91
        4
 64
     7
 65
   257
 75
     1
175
     1
 42
1.0
 92
        8
 66
     7
 43
1.0
 76
     1
 77
     6
 78
     2
 67
     7
 79
     5
170
     0
171
     0
290
     0
174
     0
 93
        1
 44
0.0
173
     0
291
     1
 45
0.0
1001
ACAD
1000
AcDbSavedByObjectVersion
1070
     0
  0
VISUALSTYLE
  5
3F3
102
{ACAD_XDICTIONARY
360
3C2A1
102
}
102
{ACAD_REACTORS
330
3F2
102
}
330
3F2
100
AcDbVisualStyle
  2

 70
     0
 71
     2
 72
     1
 73
     1
 90
        2
 40
-0.6
 41
30.0
 62
     5
 63
     7
 74
     0
 91
        4
 64
     7
 65
   257
 75
     1
175
     1
 42
1.0
 92
        8
 66
     7
 43
1.0
 76
     1
 77
     6
 78
     2
 67
     7
 79
     5
170
     0
171
     0
290
     0
174
     0
 93
       13
 44
0.0
173
     0
291
     1
 45
0.0
1001
ACAD
1000
AcDbSavedByObjectVersion
1070
     0
  0
VISUALSTYLE
  5
3F4
102
{ACAD_XDICTIONARY
360
3C2A3
102
}
102
{ACAD_REACTORS
330
3F2
102
}
330
3F2
100
AcDbVisualStyle
  2

 70
     1
 71
     2
 72
     1
 73
     1
 90
        2
 40
-0.6
 41
30.0
 62
     5
 63
     7
 74
     1
 91
        4
 64
     7
 65
   257
 75
     1
175
     1
 42
1.0
 92
        0
 66
   257
 43
1.0
 76
     1
 77
     6
 78
     2
 67
     7
 79
     5
170
     0
171
     0
290
     0
174
     0
 93
       13
 44
0.0
173
     0
291
     1
 45
0.0
1001
ACAD
1000
AcDbSavedByObjectVersion
1070
     0
  0
VISUALSTYLE
  5
3F5
102
{ACAD_XDICTIONARY
360
3C2A5
102
}
102
{ACAD_REACTORS
330
3F2
102
}
330
3F2
100
AcDbVisualStyle
  2

 70
     2
 71
     2
 72
     2
 73
     1
 90
        2
 40
-0.6
 41
30.0
 62
     5
 63
     7
 74
     0
 91
        4
 64
     7
 65
   257
 75
     1
175
     1
 42
1.0
 92
        0
 66
     7
 43
1.0
 76
     1
 77
     6
 78
     2
 67
     7
 79
     5
170
     0
171
     0
290
     0
174
     0
 93
       13
 44
0.0
173
     0
291
     1
 45
0.0
1001
ACAD
1000
AcDbSavedByObjectVersion
1070
     0
  0
VISUALSTYLE
  5
3F6
102
{ACAD_XDICTIONARY
360
3C2A7
102
}
102
{ACAD_REACTORS
330
3F2
102
}
330
3F2
100
AcDbVisualStyle
  2

 70
     3
 71
     2
 72
     2
 73
     1
 90
        2
 40
-0.6
 41
30.0
 62
     5
 63
     7
 74
     1
 91
        4
 64
     7
 65
   257
 75
     1
175
     1
 42
1.0
 92
        0
 66
   257
 43
1.0
 76
     1
 77
     6
 78
     2
 67
     7
 79
     5
170
     0
171
     0
290
     0
174
     0
 93
       13
 44
0.0
173
     0
291
     1
 45
0.0
1001
ACAD
1000
AcDbSavedByObjectVersion
1070
     0
  0
VISUALSTYLE
  5
3C255
102
{ACAD_XDICTIONARY
360
3C2C9
102
}
102
{ACAD_REACTORS
330
3F2
102
}
330
3F2
100
AcDbVisualStyle
  2
Hidden
 70
     6
 71
     1
 72
     2
 73
     2
 90
        0
 40
-0.6
 41
-30.0
 62
     5
 63
     7
 74
     2
 91
        2
 64
     7
 65
   257
 75
     2
175
     1
 42
40.0
 92
        0
 66
   257
 43
1.0
 76
     1
 77
     6
 78
     2
 67
     7
 79
     3
170
     0
171
     0
290
     0
174
     0
 93
        1
 44
0.0
173
     0
291
     0
 45
0.0
1001
ACAD
1000
AcDbSavedByObjectVersion
1070
     0
  0
VISUALSTYLE
  5
44C
102
{ACAD_XDICTIONARY
360
3C2C1
102
}
102
{ACAD_REACTORS
330
3F2
102
}
330
3F2
100
AcDbVisualStyle
  2

 70
    20
 71
     2
 72
     2
 73
     0
 90
        0
 40
-0.6
 41
-30.0
 62
     5
 63
     7
 74
     1
 91
        4
 64
     7
 65
   257
 75
     1
175
     1
 42
1.0
 92
       10
 66
     7
 43
1.0
 76
     1
 77
     6
 78
     2
 67
     7
 79
     5
170
     0
171
     0
290
     0
174
     0
 93
        1
 44
0.0
173
     0
291
     1
 45
0.0
1001
ACAD
1000
AcDbSavedByObjectVersion
1070
     0
  0
VISUALSTYLE
  5
400
102
{ACAD_XDICTIONARY
360
3C2BB
102
}
102
{ACAD_REACTORS
330
3F2
102
}
330
3F2
100
AcDbVisualStyle
  2

 70
    14
 71
     2
 72
     2
 73
     0
 90
        0
 40
-0.6
 41
-30.0
 62
     5
 63
     7
 74
     1
 91
        4
 64
     7
 65
   257
 75
     7
175
     7
 42
1.0
 92
        8
 66
     7
 43
1.0
 76
     1
 77
     6
 78
     2
 67
     7
 79
     5
170
     0
171
     0
290
     0
174
     0
 93
        1
 44
0.0
173
     0
291
     1
 45
0.0
1001
ACAD
1000
AcDbSavedByObjectVersion
1070
     0
  0
VISUALSTYLE
  5
44D
102
{ACAD_XDICTIONARY
360
3C2C3
102
}
102
{ACAD_REACTORS
330
3F2
102
}
330
3F2
100
AcDbVisualStyle
  2

 70
    21
 71
     2
 72
     2
 73
     0
 90
        0
 40
-0.6
 41
-30.0
 62
     5
 63
     7
 74
     1
 91
        4
 64
     7
 65
   257
 75
     1
175
     1
 42
1.0
 92
        9
 66
     7
 43
1.0
 76
     1
 77
     6
 78
     2
 67
     7
 79
     5
170
     0
171
     0
290
     0
174
     0
 93
        1
 44
0.0
173
     0
291
     1
 45
0.0
1001
ACAD
1000
AcDbSavedByObjectVersion
1070
     0
  0
VISUALSTYLE
  5
3FC
102
{ACAD_XDICTIONARY
360
3C2B3
102
}
102
{ACAD_REACTORS
330
3F2
102
}
330
3F2
100
AcDbVisualStyle
  2

 70
     8
 71
     2
 72
     2
 73
     0
 90
        0
 40
-0.6
 41
-30.0
 62
     5
 63
     7
 74
     1
 91
        0
 64
     7
 65
   257
 75
     1
175
     1
 42
1.0
 92
        8
 66
     8
 43
1.0
 76
     1
 77
     6
 78
     2
 67
     7
 79
     5
170
     0
171
     0
290
     0
174
     0
 93
       13
 44
0.0
173
     0
291
     0
 45
0.0
1001
ACAD
1000
AcDbSavedByObjectVersion
1070
     0
  0
VISUALSTYLE
  5
3C25A
102
{ACAD_XDICTIONARY
360
3C2D3
102
}
102
{ACAD_REACTORS
330
3F2
102
}
330
3F2
100
AcDbVisualStyle
  2
Shaded
 70
    27
 71
     2
 72
     2
 73
     1
 90
        2
 40
-0.6
 41
30.0
 62
     5
 63
     7
 74
     0
 91
        4
 64
     7
 65
   257
 75
     1
175
     1
 42
1.0
 92
        8
 66
   257
 43
1.0
 76
     1
 77
     6
 78
     2
 67
     8
 79
     3
170
     0
171
     0
290
     0
174
     0
 93
        5
 44
0.0
173
     0
291
     0
 45
0.0
1001
ACAD
1000
AcDbSavedByObjectVersion
1070
     0
  0
VISUALSTYLE
  5
3C259
102
{ACAD_XDICTIONARY
360
3C2D1
102
}
102
{ACAD_REACTORS
330
3F2
102
}
330
3F2
100
AcDbVisualStyle
  2
Shaded with edges
 70
    26
 71
     2
 72
     2
 73
     1
 90
        2
 40
-0.6
 41
30.0
 62
     5
 63
     7
 74
     1
 91
       10
 64
     7
 65
   257
 75
     2
175
     1
 42
1.0
 92
        8
 66
   257
 43
1.0
 76
     1
 77
     6
 78
     2
 67
     7
 79
     3
170
     0
171
     0
290
     0
174
     0
 93
        5
 44
0.0
173
     0
291
     0
 45
0.0
1001
ACAD
1000
AcDbSavedByObjectVersion
1070
     0
  0
VISUALSTYLE
  5
3C256
102
{ACAD_XDICTIONARY
360
3C2CB
102
}
102
{ACAD_REACTORS
330
3F2
102
}
330
3F2
100
AcDbVisualStyle
  2
Shades of Gray
 70
    23
 71
     2
 72
     2
 73
     3
 90
        0
 40
-0.6
 41
-30.0
 62
     5
 63
     7
 74
     2
 91
        2
 64
     7
 65
     7
 75
     1
175
     1
 42
40.0
 92
        8
 66
     7
 43
1.0
 76
     1
 77
     6
 78
     2
 67
     7
 79
     3
170
     0
171
     0
290
     0
174
     0
 93
        1
 44
0.0
173
     0
291
     0
 45
0.0
1001
ACAD
1000
AcDbSavedByObjectVersion
1070
     0
  0
VISUALSTYLE
  5
3C257
102
{ACAD_XDICTIONARY
360
3C2CD
102
}
102
{ACAD_REACTORS
330
3F2
102
}
330
3F2
100
AcDbVisualStyle
  2
Sketchy
 70
    24
 71
     1
 72
     2
 73
     2
 90
        0
 40
-0.6
 41
-30.0
 62
     5
 63
     7
 74
     2
 91
        2
 64
     7
 65
     7
 75
     1
175
     1
 42
40.0
 92
       11
 66
     7
 43
1.0
 76
     1
 77
     6
 78
     2
 67
     7
 79
     6
170
     0
171
     0
290
     0
174
     0
 93
        1
 44
0.0
173
     0
291
     0
 45
0.0
1001
ACAD
1000
AcDbSavedByObjectVersion
1070
     0
  0
VISUALSTYLE
  5
3FF
102
{ACAD_XDICTIONARY
360
3C2B9
102
}
102
{ACAD_REACTORS
330
3F2
102
}
330
3F2
100
AcDbVisualStyle
  2

 70
    13
 71
     2
 72
     2
 73
     0
 90
        0
 40
-0.6
 41
-30.0
 62
     5
 63
     7
 74
     1
 91
        4
 64
     7
 65
   257
 75
     1
175
     1
 42
1.0
 92
       12
 66
     7
 43
1.0
 76
     1
 77
     6
 78
     2
 67
     7
 79
     5
170
     0
171
     0
290
     0
174
     0
 93
        1
 44
0.0
173
     0
291
     1
 45
0.0
1001
ACAD
1000
AcDbSavedByObjectVersion
1070
     0
  0
VISUALSTYLE
  5
3C254
102
{ACAD_XDICTIONARY
360
3C2C7
102
}
102
{ACAD_REACTORS
330
3F2
102
}
330
3F2
100
AcDbVisualStyle
  2
Wireframe
 70
     5
 71
     0
 72
     2
 73
     0
 90
        0
 40
-0.6
 41
-30.0
 62
     5
 63
     7
 74
     1
 91
        4
 64
     7
 65
   257
 75
     1
175
     1
 42
1.0
 92
        0
 66
   257
 43
1.0
 76
     1
 77
     6
 78
     2
 67
     7
 79
     3
170
     0
171
     0
290
     0
174
     0
 93
        1
 44
0.0
173
     0
291
     0
 45
0.0
1001
ACAD
1000
AcDbSavedByObjectVersion
1070
     0
  0
VISUALSTYLE
  5
3C258
102
{ACAD_XDICTIONARY
360
3C2CF
102
}
102
{ACAD_REACTORS
330
3F2
102
}
330
3F2
100
AcDbVisualStyle
  2
X-Ray
 70
    25
 71
     2
 72
     2
 73
     1
 90
        1
 40
0.5
 41
-30.0
 62
     5
 63
     7
 74
     1
 91
        0
 64
     7
 65
   257
 75
     1
175
     1
 42
1.0
 92
        8
 66
     7
 43
1.0
 76
     1
 77
     6
 78
     2
 67
     7
 79
     3
170
     0
171
     0
290
     0
174
     0
 93
       13
 44
0.0
173
     0
291
     0
 45
0.0
1001
ACAD
1000
AcDbSavedByObjectVersion
1070
     0
  0
DICTIONARYVAR
  5
449
102
{ACAD_REACTORS
330
357
102
}
330
357
100
DictionaryVariables
280
     0
  1
1:1
  0
DICTIONARYVAR
  5
447
102
{ACAD_REACTORS
330
357
102
}
330
357
100
DictionaryVariables
280
     0
  1
STANDARD
  0
DICTIONARYVAR
  5
38E
102
{ACAD_REACTORS
330
357
102
}
330
357
100
DictionaryVariables
280
     0
  1
STANDARD
  0
DICTIONARYVAR
  5
3C293
102
{ACAD_REACTORS
330
357
102
}
330
357
100
DictionaryVariables
280
     0
  1
Metric50
  0
DICTIONARYVAR
  5
3C294
102
{ACAD_REACTORS
330
357
102
}
330
357
100
DictionaryVariables
280
     0
  1
Metric50
  0
DICTIONARYVAR
  5
359
102
{ACAD_REACTORS
330
357
102
}
330
357
100
DictionaryVariables
280
     0
  1
2
  0
DICTIONARYVAR
  5
358
102
{ACAD_REACTORS
330
357
102
}
330
357
100
DictionaryVariables
280
     0
  1
1
  0
DICTIONARYVAR
  5
728
102
{ACAD_REACTORS
330
357
102
}
330
357
100
DictionaryVariables
280
     0
  1
0
  0
DICTIONARYVAR
  5
458
102
{ACAD_REACTORS
330
357
102
}
330
357
100
DictionaryVariables
280
     0
  1
1
  0
DICTIONARYVAR
  5
459
102
{ACAD_REACTORS
330
357
102
}
330
357
100
DictionaryVariables
280
     0
  1
15
  0
DICTIONARYVAR
  5
44A
102
{ACAD_REACTORS
330
357
102
}
330
357
100
DictionaryVariables
280
     0
  1
0
  0
DICTIONARYVAR
  5
448
102
{ACAD_REACTORS
330
357
102
}
330
357
100
DictionaryVariables
280
     0
  1
0
  0
DICTIONARYVAR
  5
727
102
{ACAD_REACTORS
330
357
102
}
330
357
100
DictionaryVariables
280
     0
  1
127
  0
DICTIONARYVAR
  5
3C295
102
{ACAD_REACTORS
330
357
102
}
330
357
100
DictionaryVariables
280
     0
  1
2
  0
DICTIONARY
  5
3C29E
330
33B
100
AcDbDictionary
280
     1
281
     1
  3
ACAD_XREC_ROUNDTRIP
360
3C29F
  0
DICTIONARY
  5
3C29C
330
303
100
AcDbDictionary
280
     1
281
     1
  3
ACAD_XREC_ROUNDTRIP
360
3C29D
  0
DICTIONARY
  5
3C226
330
3F0
100
AcDbDictionary
280
     1
281
     1
  3
ACAD_XREC_ROUNDTRIP
360
3C227
  0
DICTIONARY
  5
3C224
330
3EF
100
AcDbDictionary
280
     1
281
     1
  3
ACAD_XREC_ROUNDTRIP
360
3C225
  0
DICTIONARY
  5
3C228
330
3F1
100
AcDbDictionary
280
     1
281
     1
  3
ACAD_XREC_ROUNDTRIP
360
3C229
  0
DICTIONARY
  5
444
330
389
100
AcDbDictionary
280
     1
281
     1
  3
ACAD_ROUNDTRIP_2008_TABLESTYLE_CELLSTYLEMAP
360
3C297
  3
ACAD_XREC_ROUNDTRIP
360
3C2A0
  0
DICTIONARY
  5
3C2AB
330
3F8
100
AcDbDictionary
280
     1
281
     1
  3
ACAD_XREC_ROUNDTRIP
360
3C2AC
  0
DICTIONARY
  5
3C2AF
330
3FA
100
AcDbDictionary
280
     1
281
     1
  3
ACAD_XREC_ROUNDTRIP
360
3C2B0
  0
DICTIONARY
  5
3C2AD
330
3F9
100
AcDbDictionary
280
     1
281
     1
  3
ACAD_XREC_ROUNDTRIP
360
3C2AE
  0
DICTIONARY
  5
3C2A9
330
3F7
100
AcDbDictionary
280
     1
281
     1
  3
ACAD_XREC_ROUNDTRIP
360
3C2AA
  0
DICTIONARY
  5
3C2B7
330
3FE
100
AcDbDictionary
280
     1
281
     1
  3
ACAD_XREC_ROUNDTRIP
360
3C2B8
  0
DICTIONARY
  5
3C2BF
330
402
100
AcDbDictionary
280
     1
281
     1
  3
ACAD_XREC_ROUNDTRIP
360
3C2C0
  0
DICTIONARY
  5
3C2B1
330
3FB
100
AcDbDictionary
280
     1
281
     1
  3
ACAD_XREC_ROUNDTRIP
360
3C2B2
  0
DICTIONARY
  5
3C2B5
330
3FD
100
AcDbDictionary
280
     1
281
     1
  3
ACAD_XREC_ROUNDTRIP
360
3C2B6
  0
DICTIONARY
  5
3C2C5
330
44E
100
AcDbDictionary
280
     1
281
     1
  3
ACAD_XREC_ROUNDTRIP
360
3C2C6
  0
DICTIONARY
  5
3C2BD
330
401
100
AcDbDictionary
280
     1
281
     1
  3
ACAD_XREC_ROUNDTRIP
360
3C2BE
  0
DICTIONARY
  5
3C2A1
330
3F3
100
AcDbDictionary
280
     1
281
     1
  3
ACAD_XREC_ROUNDTRIP
360
3C2A2
  0
DICTIONARY
  5
3C2A3
330
3F4
100
AcDbDictionary
280
     1
281
     1
  3
ACAD_XREC_ROUNDTRIP
360
3C2A4
  0
DICTIONARY
  5
3C2A5
330
3F5
100
AcDbDictionary
280
     1
281
     1
  3
ACAD_XREC_ROUNDTRIP
360
3C2A6
  0
DICTIONARY
  5
3C2A7
330
3F6
100
AcDbDictionary
280
     1
281
     1
  3
ACAD_XREC_ROUNDTRIP
360
3C2A8
  0
DICTIONARY
  5
3C2C9
330
3C255
100
AcDbDictionary
280
     1
281
     1
  3
ACAD_XREC_ROUNDTRIP
360
3C2CA
  0
DICTIONARY
  5
3C2C1
330
44C
100
AcDbDictionary
280
     1
281
     1
  3
ACAD_XREC_ROUNDTRIP
360
3C2C2
  0
DICTIONARY
  5
3C2BB
330
400
100
AcDbDictionary
280
     1
281
     1
  3
ACAD_XREC_ROUNDTRIP
360
3C2BC
  0
DICTIONARY
  5
3C2C3
330
44D
100
AcDbDictionary
280
     1
281
     1
  3
ACAD_XREC_ROUNDTRIP
360
3C2C4
  0
DICTIONARY
  5
3C2B3
330
3FC
100
AcDbDictionary
280
     1
281
     1
  3
ACAD_XREC_ROUNDTRIP
360
3C2B4
  0
DICTIONARY
  5
3C2D3
330
3C25A
100
AcDbDictionary
280
     1
281
     1
  3
ACAD_XREC_ROUNDTRIP
360
3C2D4
  0
DICTIONARY
  5
3C2D1
330
3C259
100
AcDbDictionary
280
     1
281
     1
  3
ACAD_XREC_ROUNDTRIP
360
3C2D2
  0
DICTIONARY
  5
3C2CB
330
3C256
100
AcDbDictionary
280
     1
281
     1
  3
ACAD_XREC_ROUNDTRIP
360
3C2CC
  0
DICTIONARY
  5
3C2CD
330
3C257
100
AcDbDictionary
280
     1
281
     1
  3
ACAD_XREC_ROUNDTRIP
360
3C2CE
  0
DICTIONARY
  5
3C2B9
330
3FF
100
AcDbDictionary
280
     1
281
     1
  3
ACAD_XREC_ROUNDTRIP
360
3C2BA
  0
DICTIONARY
  5
3C2C7
330
3C254
100
AcDbDictionary
280
     1
281
     1
  3
ACAD_XREC_ROUNDTRIP
360
3C2C8
  0
DICTIONARY
  5
3C2CF
330
3C258
100
AcDbDictionary
280
     1
281
     1
  3
ACAD_XREC_ROUNDTRIP
360
3C2D0
  0
XRECORD
  5
3C29F
102
{ACAD_REACTORS
330
3C29E
102
}
330
3C29E
100
AcDbXrecord
280
     1
102
SHADEPLOT
 70
     0
102
SHADEPLOTRESLEVEL
 70
     2
102
SHADEPLOTCUSTOMDPI
 70
   300
  0
XRECORD
  5
3C29D
102
{ACAD_REACTORS
330
3C29C
102
}
330
3C29C
100
AcDbXrecord
280
     1
102
SHADEPLOT
 70
     1
102
SHADEPLOTRESLEVEL
 70
     2
102
SHADEPLOTCUSTOMDPI
 70
   300
  0
XRECORD
  5
3C227
102
{ACAD_REACTORS
330
3C226
102
}
330
3C226
100
AcDbXrecord
280
     1
102
MATERIAL
148
0.0
149
0.0
149
0.0
 93
        0
 94
      127
282
     0
 72
     1
 77
     1
171
     1
175
     1
179
     1
273
     0
  0
XRECORD
  5
3C225
102
{ACAD_REACTORS
330
3C224
102
}
330
3C224
100
AcDbXrecord
280
     1
102
MATERIAL
148
0.0
149
0.0
149
0.0
 93
        0
 94
      127
282
     0
 72
     1
 77
     1
171
     1
175
     1
179
     1
273
     0
  0
XRECORD
  5
3C229
102
{ACAD_REACTORS
330
3C228
102
}
330
3C228
100
AcDbXrecord
280
     1
102
MATERIAL
148
0.0
149
0.0
149
0.0
 93
        0
 94
      127
282
     0
 72
     1
 77
     1
171
     1
175
     1
179
     1
273
     0
  0
CELLSTYLEMAP
  5
3C297
102
{ACAD_REACTORS
330
444
102
}
330
444
100
AcDbCellStyleMap
 90
        3
300
CELLSTYLE
  1
TABLEFORMAT_BEGIN
 90
        5
170
     1
 91
        0
 92
    32768
 62
   257
 93
        1
300
CONTENTFORMAT
  1
CONTENTFORMAT_BEGIN
 90
        0
 91
        0
 92
        4
 93
        0
300

 40
0.0
140
1.0
 94
        5
 62
     0
340
10
144
6.0
309
CONTENTFORMAT_END
171
     1
301
MARGIN
  1
CELLMARGIN_BEGIN
 40
1.5
 40
1.5
 40
1.5
 40
1.5
 40
0.18
 40
0.18
309
CELLMARGIN_END
 94
        6
 95
        1
302
GRIDFORMAT
  1
GRIDFORMAT_BEGIN
 90
        0
 91
        1
 62
     0
 92
       -2
340
0
 93
        0
 40
0.045
309
GRIDFORMAT_END
 95
        2
302
GRIDFORMAT
  1
GRIDFORMAT_BEGIN
 90
        0
 91
        1
 62
     0
 92
       -2
340
0
 93
        0
 40
0.045
309
GRIDFORMAT_END
 95
        4
302
GRIDFORMAT
  1
GRIDFORMAT_BEGIN
 90
        0
 91
        1
 62
     0
 92
       -2
340
0
 93
        0
 40
0.045
309
GRIDFORMAT_END
 95
        8
302
GRIDFORMAT
  1
GRIDFORMAT_BEGIN
 90
        0
 91
        1
 62
     0
 92
       -2
340
0
 93
        0
 40
0.045
309
GRIDFORMAT_END
 95
       16
302
GRIDFORMAT
  1
GRIDFORMAT_BEGIN
 90
        0
 91
        1
 62
     0
 92
       -2
340
0
 93
        0
 40
0.045
309
GRIDFORMAT_END
 95
       32
302
GRIDFORMAT
  1
GRIDFORMAT_BEGIN
 90
        0
 91
        1
 62
     0
 92
       -2
340
0
 93
        0
 40
0.045
309
GRIDFORMAT_END
309
TABLEFORMAT_END
  1
CELLSTYLE_BEGIN
 90
        1
 91
        1
300
_TITLE
309
CELLSTYLE_END
300
CELLSTYLE
  1
TABLEFORMAT_BEGIN
 90
        5
170
     1
 91
        0
 92
        0
 62
   257
 93
        1
300
CONTENTFORMAT
  1
CONTENTFORMAT_BEGIN
 90
        0
 91
        0
 92
        4
 93
        0
300

 40
0.0
140
1.0
 94
        5
 62
     0
340
10
144
4.5
309
CONTENTFORMAT_END
171
     1
301
MARGIN
  1
CELLMARGIN_BEGIN
 40
1.5
 40
1.5
 40
1.5
 40
1.5
 40
0.18
 40
0.18
309
CELLMARGIN_END
 94
        6
 95
        1
302
GRIDFORMAT
  1
GRIDFORMAT_BEGIN
 90
        0
 91
        1
 62
     0
 92
       -2
340
0
 93
        0
 40
0.045
309
GRIDFORMAT_END
 95
        2
302
GRIDFORMAT
  1
GRIDFORMAT_BEGIN
 90
        0
 91
        1
 62
     0
 92
       -2
340
0
 93
        0
 40
0.045
309
GRIDFORMAT_END
 95
        4
302
GRIDFORMAT
  1
GRIDFORMAT_BEGIN
 90
        0
 91
        1
 62
     0
 92
       -2
340
0
 93
        0
 40
0.045
309
GRIDFORMAT_END
 95
        8
302
GRIDFORMAT
  1
GRIDFORMAT_BEGIN
 90
        0
 91
        1
 62
     0
 92
       -2
340
0
 93
        0
 40
0.045
309
GRIDFORMAT_END
 95
       16
302
GRIDFORMAT
  1
GRIDFORMAT_BEGIN
 90
        0
 91
        1
 62
     0
 92
       -2
340
0
 93
        0
 40
0.045
309
GRIDFORMAT_END
 95
       32
302
GRIDFORMAT
  1
GRIDFORMAT_BEGIN
 90
        0
 91
        1
 62
     0
 92
       -2
340
0
 93
        0
 40
0.045
309
GRIDFORMAT_END
309
TABLEFORMAT_END
  1
CELLSTYLE_BEGIN
 90
        2
 91
        1
300
_HEADER
309
CELLSTYLE_END
300
CELLSTYLE
  1
TABLEFORMAT_BEGIN
 90
        5
170
     1
 91
        0
 92
        0
 62
   257
 93
        1
300
CONTENTFORMAT
  1
CONTENTFORMAT_BEGIN
 90
        0
 91
        0
 92
        4
 93
        0
300

 40
0.0
140
1.0
 94
        2
 62
     0
340
10
144
4.5
309
CONTENTFORMAT_END
171
     1
301
MARGIN
  1
CELLMARGIN_BEGIN
 40
1.5
 40
1.5
 40
1.5
 40
1.5
 40
0.18
 40
0.18
309
CELLMARGIN_END
 94
        6
 95
        1
302
GRIDFORMAT
  1
GRIDFORMAT_BEGIN
 90
        0
 91
        1
 62
     0
 92
       -2
340
0
 93
        0
 40
0.045
309
GRIDFORMAT_END
 95
        2
302
GRIDFORMAT
  1
GRIDFORMAT_BEGIN
 90
        0
 91
        1
 62
     0
 92
       -2
340
0
 93
        0
 40
0.045
309
GRIDFORMAT_END
 95
        4
302
GRIDFORMAT
  1
GRIDFORMAT_BEGIN
 90
        0
 91
        1
 62
     0
 92
       -2
340
0
 93
        0
 40
0.045
309
GRIDFORMAT_END
 95
        8
302
GRIDFORMAT
  1
GRIDFORMAT_BEGIN
 90
        0
 91
        1
 62
     0
 92
       -2
340
0
 93
        0
 40
0.045
309
GRIDFORMAT_END
 95
       16
302
GRIDFORMAT
  1
GRIDFORMAT_BEGIN
 90
        0
 91
        1
 62
     0
 92
       -2
340
0
 93
        0
 40
0.045
309
GRIDFORMAT_END
 95
       32
302
GRIDFORMAT
  1
GRIDFORMAT_BEGIN
 90
        0
 91
        1
 62
     0
 92
       -2
340
0
 93
        0
 40
0.045
309
GRIDFORMAT_END
309
TABLEFORMAT_END
  1
CELLSTYLE_BEGIN
 90
        3
 91
        2
300
_DATA
309
CELLSTYLE_END
  0
XRECORD
  5
3C2A0
102
{ACAD_REACTORS
330
444
102
}
330
444
100
AcDbXrecord
280
     1
102
ACAD_ROUNDTRIP_PRE2007_TABLESTYLE
 90
        4
 91
        0
  1

 92
        4
 93
        0
  2

 94
        4
 95
        0
  3

  0
XRECORD
  5
3C2AC
102
{ACAD_REACTORS
330
3C2AB
102
}
330
3C2AB
100
AcDbXrecord
280
     1
102
RTVSPost2010Prop28
280
     1
102
RTVSPost2010PropOp28
 70
     1
102
RTVSPost2010Prop29
280
     1
102
RTVSPost2010PropOp29
 70
     1
102
RTVSPost2010Prop30
280
     0
102
RTVSPost2010PropOp30
 70
     1
102
RTVSPost2010Prop31
280
     0
102
RTVSPost2010PropOp31
 70
     1
102
RTVSPost2010Prop32
280
     0
102
RTVSPost2010PropOp32
 70
     1
102
RTVSPost2010Prop33
280
     0
102
RTVSPost2010PropOp33
 70
     1
102
RTVSPost2010Prop34
280
     0
102
RTVSPost2010PropOp34
 70
     1
102
RTVSPost2010Prop35
280
     0
102
RTVSPost2010PropOp35
 70
     1
102
RTVSPost2010Prop36
280
     0
102
RTVSPost2010PropOp36
 70
     1
102
RTVSPost2010Prop37
 90
       50
102
RTVSPost2010PropOp37
 70
     1
102
RTVSPost2010Prop38
140
0.0
102
RTVSPost2010PropOp38
 70
     1
102
RTVSPost2010Prop39
140
1.0
102
RTVSPost2010PropOp39
 70
     1
102
RTVSPost2010Prop40
 90
        0
102
RTVSPost2010PropOp40
 70
     1
102
RTVSPost2010Prop41ColorIndex
 90
       18
102
RTVSPost2010Prop41ColorRGB
 90
        0
102
RTVSPost2010PropOp41
 70
     1
102
RTVSPost2010Prop42
 90
       50
102
RTVSPost2010PropOp42
 70
     1
102
RTVSPost2010Prop43
 90
        3
102
RTVSPost2010PropOp43
 70
     1
102
RTVSPost2010Prop44ColorIndex
 90
        5
102
RTVSPost2010Prop44ColorRGB
 90
      255
102
RTVSPost2010PropOp44
 70
     1
102
RTVSPost2010Prop45
280
     0
102
RTVSPost2010PropOp45
 70
     1
102
RTVSPost2010Prop46
 90
       50
102
RTVSPost2010PropOp46
 70
     1
102
RTVSPost2010Prop47
 90
       50
102
RTVSPost2010PropOp47
 70
     1
102
RTVSPost2010Prop48
 90
       50
102
RTVSPost2010PropOp48
 70
     1
102
RTVSPost2010Prop49
280
     0
102
RTVSPost2010PropOp49
 70
     1
102
RTVSPost2010Prop50
 90
       50
102
RTVSPost2010PropOp50
 70
     1
102
RTVSPost2010Prop51ColorIndex
 90
      256
102
RTVSPost2010Prop51ColorRGB
 90
-16777216
102
RTVSPost2010PropOp51
 70
     0
102
RTVSPost2010Prop52
140
1.0
102
RTVSPost2010PropOp52
 70
     0
102
RTVSPost2010Prop53
 90
        2
102
RTVSPost2010PropOp53
 70
     1
102
RTVSPost2010Prop54
  1
strokes_ogs.tif
102
RTVSPost2010PropOp54
 70
     1
102
RTVSPost2010Prop55
280
     0
102
RTVSPost2010PropOp55
 70
     1
102
RTVSPost2010Prop56
140
1.0
102
RTVSPost2010PropOp56
 70
     1
102
RTVSPost2010Prop57
140
1.0
102
RTVSPost2010PropOp57
 70
     1
102
RTVSPropertyOp0
 70
     1
102
RTVSPropertyOp1
 70
     1
102
RTVSPropertyOp2
 70
     1
102
RTVSPropertyOp3
 70
     1
102
RTVSPropertyOp4
 70
     1
102
RTVSPropertyOp5
 70
     1
102
RTVSPropertyOp6
 70
     1
102
RTVSPropertyOp7
 70
     1
102
RTVSPropertyOp8
 70
     1
102
RTVSPropertyOp9
 70
     1
102
RTVSPropertyOp10
 70
     1
102
RTVSPropertyOp11
 70
     1
102
RTVSPropertyOp12
 70
     1
102
RTVSPropertyOp13
 70
     1
102
RTVSPropertyOp14
 70
     1
102
RTVSPropertyOp15
 70
     1
102
RTVSPropertyOp16
 70
     1
102
RTVSPropertyOp17
 70
     1
102
RTVSPropertyOp18
 70
     1
102
RTVSPropertyOp19
 70
     1
102
RTVSPropertyOp20
 70
     1
102
RTVSPropertyOp21
 70
     1
102
RTVSPropertyOp22
 70
     1
102
RTVSPropertyOp23
 70
     1
102
RTVSPropertyOp24
 70
     1
102
RTVSPropertyOp25
 70
     1
102
RTVSPropertyOp26
 70
     1
102
RTVSPropertyOp27
 70
     1
102
RTVSPropertyOp28
 70
     1
102
RTVSPropertyOp29
 70
     1
102
RTVSPropertyOp30
 70
     1
102
RTVSPropertyOp31
 70
     1
102
RTVSPropertyOp32
 70
     1
102
RTVSPropertyOp33
 70
     1
102
RTVSPropertyOp34
 70
     1
102
RTVSPropertyOp35
 70
     1
102
RTVSPropertyOp36
 70
     1
102
RTVSPropertyOp37
 70
     1
102
RTVSPropertyOp38
 70
     1
102
RTVSPropertyOp39
 70
     1
102
RTVSPropertyOp40
 70
     1
102
RTVSPropertyOp41
 70
     1
102
RTVSPropertyOp42
 70
     1
102
RTVSPropertyOp43
 70
     1
102
RTVSPropertyOp44
 70
     1
102
RTVSPropertyOp45
 70
     1
102
RTVSPropertyOp46
 70
     1
102
RTVSPropertyOp47
 70
     1
102
RTVSPropertyOp48
 70
     1
102
RTVSPropertyOp49
 70
     1
102
RTVSPropertyOp50
 70
     1
102
RTVSPropertyOp51
 70
     0
102
RTVSPropertyOp52
 70
     0
102
RTVSPropertyOp53
 70
     1
102
RTVSPropertyOp54
 70
     1
102
RTVSPropertyOp55
 70
     1
102
RTVSPropertyOp56
 70
     1
102
RTVSPropertyOp57
 70
     1
102
RTVSPropertyOp58
 70
     1
102
RTVSPropertyOp59
 70
     1
102
RTVSPropertyOp60
 70
     1
102
RTVSPropertyOp61
 70
     1
102
RTVSPropertyOp62
 70
     1
  0
XRECORD
  5
3C2B0
102
{ACAD_REACTORS
330
3C2AF
102
}
330
3C2AF
100
AcDbXrecord
280
     1
102
RTVSPost2010Prop28
280
     0
102
RTVSPost2010PropOp28
 70
     1
102
RTVSPost2010Prop29
280
     1
102
RTVSPost2010PropOp29
 70
     1
102
RTVSPost2010Prop30
280
     1
102
RTVSPost2010PropOp30
 70
     1
102
RTVSPost2010Prop31
280
     0
102
RTVSPost2010PropOp31
 70
     1
102
RTVSPost2010Prop32
280
     0
102
RTVSPost2010PropOp32
 70
     1
102
RTVSPost2010Prop33
280
     0
102
RTVSPost2010PropOp33
 70
     1
102
RTVSPost2010Prop34
280
     0
102
RTVSPost2010PropOp34
 70
     1
102
RTVSPost2010Prop35
280
     0
102
RTVSPost2010PropOp35
 70
     1
102
RTVSPost2010Prop36
280
     0
102
RTVSPost2010PropOp36
 70
     1
102
RTVSPost2010Prop37
 90
       50
102
RTVSPost2010PropOp37
 70
     1
102
RTVSPost2010Prop38
140
0.0
102
RTVSPost2010PropOp38
 70
     1
102
RTVSPost2010Prop39
140
1.0
102
RTVSPost2010PropOp39
 70
     1
102
RTVSPost2010Prop40
 90
        0
102
RTVSPost2010PropOp40
 70
     1
102
RTVSPost2010Prop41ColorIndex
 90
       18
102
RTVSPost2010Prop41ColorRGB
 90
        0
102
RTVSPost2010PropOp41
 70
     1
102
RTVSPost2010Prop42
 90
       50
102
RTVSPost2010PropOp42
 70
     1
102
RTVSPost2010Prop43
 90
        3
102
RTVSPost2010PropOp43
 70
     1
102
RTVSPost2010Prop44ColorIndex
 90
        5
102
RTVSPost2010Prop44ColorRGB
 90
      255
102
RTVSPost2010PropOp44
 70
     1
102
RTVSPost2010Prop45
280
     0
102
RTVSPost2010PropOp45
 70
     1
102
RTVSPost2010Prop46
 90
       50
102
RTVSPost2010PropOp46
 70
     1
102
RTVSPost2010Prop47
 90
       50
102
RTVSPost2010PropOp47
 70
     1
102
RTVSPost2010Prop48
 90
       50
102
RTVSPost2010PropOp48
 70
     1
102
RTVSPost2010Prop49
280
     0
102
RTVSPost2010PropOp49
 70
     1
102
RTVSPost2010Prop50
 90
       50
102
RTVSPost2010PropOp50
 70
     1
102
RTVSPost2010Prop51ColorIndex
 90
      256
102
RTVSPost2010Prop51ColorRGB
 90
-16777216
102
RTVSPost2010PropOp51
 70
     0
102
RTVSPost2010Prop52
140
1.0
102
RTVSPost2010PropOp52
 70
     0
102
RTVSPost2010Prop53
 90
        2
102
RTVSPost2010PropOp53
 70
     1
102
RTVSPost2010Prop54
  1
strokes_ogs.tif
102
RTVSPost2010PropOp54
 70
     1
102
RTVSPost2010Prop55
280
     0
102
RTVSPost2010PropOp55
 70
     1
102
RTVSPost2010Prop56
140
1.0
102
RTVSPost2010PropOp56
 70
     1
102
RTVSPost2010Prop57
140
1.0
102
RTVSPost2010PropOp57
 70
     1
102
RTVSPropertyOp0
 70
     1
102
RTVSPropertyOp1
 70
     1
102
RTVSPropertyOp2
 70
     1
102
RTVSPropertyOp3
 70
     1
102
RTVSPropertyOp4
 70
     1
102
RTVSPropertyOp5
 70
     1
102
RTVSPropertyOp6
 70
     1
102
RTVSPropertyOp7
 70
     1
102
RTVSPropertyOp8
 70
     1
102
RTVSPropertyOp9
 70
     1
102
RTVSPropertyOp10
 70
     1
102
RTVSPropertyOp11
 70
     1
102
RTVSPropertyOp12
 70
     1
102
RTVSPropertyOp13
 70
     1
102
RTVSPropertyOp14
 70
     1
102
RTVSPropertyOp15
 70
     1
102
RTVSPropertyOp16
 70
     1
102
RTVSPropertyOp17
 70
     1
102
RTVSPropertyOp18
 70
     1
102
RTVSPropertyOp19
 70
     1
102
RTVSPropertyOp20
 70
     1
102
RTVSPropertyOp21
 70
     1
102
RTVSPropertyOp22
 70
     1
102
RTVSPropertyOp23
 70
     1
102
RTVSPropertyOp24
 70
     1
102
RTVSPropertyOp25
 70
     1
102
RTVSPropertyOp26
 70
     1
102
RTVSPropertyOp27
 70
     1
102
RTVSPropertyOp28
 70
     1
102
RTVSPropertyOp29
 70
     1
102
RTVSPropertyOp30
 70
     1
102
RTVSPropertyOp31
 70
     1
102
RTVSPropertyOp32
 70
     1
102
RTVSPropertyOp33
 70
     1
102
RTVSPropertyOp34
 70
     1
102
RTVSPropertyOp35
 70
     1
102
RTVSPropertyOp36
 70
     1
102
RTVSPropertyOp37
 70
     1
102
RTVSPropertyOp38
 70
     1
102
RTVSPropertyOp39
 70
     1
102
RTVSPropertyOp40
 70
     1
102
RTVSPropertyOp41
 70
     1
102
RTVSPropertyOp42
 70
     1
102
RTVSPropertyOp43
 70
     1
102
RTVSPropertyOp44
 70
     1
102
RTVSPropertyOp45
 70
     1
102
RTVSPropertyOp46
 70
     1
102
RTVSPropertyOp47
 70
     1
102
RTVSPropertyOp48
 70
     1
102
RTVSPropertyOp49
 70
     1
102
RTVSPropertyOp50
 70
     1
102
RTVSPropertyOp51
 70
     0
102
RTVSPropertyOp52
 70
     0
102
RTVSPropertyOp53
 70
     1
102
RTVSPropertyOp54
 70
     1
102
RTVSPropertyOp55
 70
     1
102
RTVSPropertyOp56
 70
     1
102
RTVSPropertyOp57
 70
     1
102
RTVSPropertyOp58
 70
     1
102
RTVSPropertyOp59
 70
     1
102
RTVSPropertyOp60
 70
     1
102
RTVSPropertyOp61
 70
     1
102
RTVSPropertyOp62
 70
     1
  0
XRECORD
  5
3C2AE
102
{ACAD_REACTORS
330
3C2AD
102
}
330
3C2AD
100
AcDbXrecord
280
     1
102
RTVSPost2010Prop28
280
     0
102
RTVSPost2010PropOp28
 70
     1
102
RTVSPost2010Prop29
280
     1
102
RTVSPost2010PropOp29
 70
     1
102
RTVSPost2010Prop30
280
     1
102
RTVSPost2010PropOp30
 70
     1
102
RTVSPost2010Prop31
280
     0
102
RTVSPost2010PropOp31
 70
     1
102
RTVSPost2010Prop32
280
     0
102
RTVSPost2010PropOp32
 70
     1
102
RTVSPost2010Prop33
280
     0
102
RTVSPost2010PropOp33
 70
     1
102
RTVSPost2010Prop34
280
     0
102
RTVSPost2010PropOp34
 70
     1
102
RTVSPost2010Prop35
280
     0
102
RTVSPost2010PropOp35
 70
     1
102
RTVSPost2010Prop36
280
     0
102
RTVSPost2010PropOp36
 70
     1
102
RTVSPost2010Prop37
 90
       50
102
RTVSPost2010PropOp37
 70
     1
102
RTVSPost2010Prop38
140
0.0
102
RTVSPost2010PropOp38
 70
     1
102
RTVSPost2010Prop39
140
1.0
102
RTVSPost2010PropOp39
 70
     1
102
RTVSPost2010Prop40
 90
        0
102
RTVSPost2010PropOp40
 70
     1
102
RTVSPost2010Prop41ColorIndex
 90
       18
102
RTVSPost2010Prop41ColorRGB
 90
        0
102
RTVSPost2010PropOp41
 70
     1
102
RTVSPost2010Prop42
 90
       50
102
RTVSPost2010PropOp42
 70
     1
102
RTVSPost2010Prop43
 90
        3
102
RTVSPost2010PropOp43
 70
     1
102
RTVSPost2010Prop44ColorIndex
 90
        5
102
RTVSPost2010Prop44ColorRGB
 90
      255
102
RTVSPost2010PropOp44
 70
     1
102
RTVSPost2010Prop45
280
     0
102
RTVSPost2010PropOp45
 70
     1
102
RTVSPost2010Prop46
 90
       50
102
RTVSPost2010PropOp46
 70
     1
102
RTVSPost2010Prop47
 90
       50
102
RTVSPost2010PropOp47
 70
     1
102
RTVSPost2010Prop48
 90
       50
102
RTVSPost2010PropOp48
 70
     1
102
RTVSPost2010Prop49
280
     0
102
RTVSPost2010PropOp49
 70
     1
102
RTVSPost2010Prop50
 90
       50
102
RTVSPost2010PropOp50
 70
     1
102
RTVSPost2010Prop51ColorIndex
 90
      256
102
RTVSPost2010Prop51ColorRGB
 90
-16777216
102
RTVSPost2010PropOp51
 70
     0
102
RTVSPost2010Prop52
140
1.0
102
RTVSPost2010PropOp52
 70
     0
102
RTVSPost2010Prop53
 90
        2
102
RTVSPost2010PropOp53
 70
     1
102
RTVSPost2010Prop54
  1
strokes_ogs.tif
102
RTVSPost2010PropOp54
 70
     1
102
RTVSPost2010Prop55
280
     0
102
RTVSPost2010PropOp55
 70
     1
102
RTVSPost2010Prop56
140
1.0
102
RTVSPost2010PropOp56
 70
     1
102
RTVSPost2010Prop57
140
1.0
102
RTVSPost2010PropOp57
 70
     1
102
RTVSPropertyOp0
 70
     1
102
RTVSPropertyOp1
 70
     1
102
RTVSPropertyOp2
 70
     1
102
RTVSPropertyOp3
 70
     1
102
RTVSPropertyOp4
 70
     1
102
RTVSPropertyOp5
 70
     1
102
RTVSPropertyOp6
 70
     1
102
RTVSPropertyOp7
 70
     1
102
RTVSPropertyOp8
 70
     1
102
RTVSPropertyOp9
 70
     1
102
RTVSPropertyOp10
 70
     1
102
RTVSPropertyOp11
 70
     1
102
RTVSPropertyOp12
 70
     1
102
RTVSPropertyOp13
 70
     1
102
RTVSPropertyOp14
 70
     1
102
RTVSPropertyOp15
 70
     1
102
RTVSPropertyOp16
 70
     1
102
RTVSPropertyOp17
 70
     1
102
RTVSPropertyOp18
 70
     1
102
RTVSPropertyOp19
 70
     1
102
RTVSPropertyOp20
 70
     1
102
RTVSPropertyOp21
 70
     1
102
RTVSPropertyOp22
 70
     1
102
RTVSPropertyOp23
 70
     1
102
RTVSPropertyOp24
 70
     1
102
RTVSPropertyOp25
 70
     1
102
RTVSPropertyOp26
 70
     1
102
RTVSPropertyOp27
 70
     1
102
RTVSPropertyOp28
 70
     1
102
RTVSPropertyOp29
 70
     1
102
RTVSPropertyOp30
 70
     1
102
RTVSPropertyOp31
 70
     1
102
RTVSPropertyOp32
 70
     1
102
RTVSPropertyOp33
 70
     1
102
RTVSPropertyOp34
 70
     1
102
RTVSPropertyOp35
 70
     1
102
RTVSPropertyOp36
 70
     1
102
RTVSPropertyOp37
 70
     1
102
RTVSPropertyOp38
 70
     1
102
RTVSPropertyOp39
 70
     1
102
RTVSPropertyOp40
 70
     1
102
RTVSPropertyOp41
 70
     1
102
RTVSPropertyOp42
 70
     1
102
RTVSPropertyOp43
 70
     1
102
RTVSPropertyOp44
 70
     1
102
RTVSPropertyOp45
 70
     1
102
RTVSPropertyOp46
 70
     1
102
RTVSPropertyOp47
 70
     1
102
RTVSPropertyOp48
 70
     1
102
RTVSPropertyOp49
 70
     1
102
RTVSPropertyOp50
 70
     1
102
RTVSPropertyOp51
 70
     0
102
RTVSPropertyOp52
 70
     0
102
RTVSPropertyOp53
 70
     1
102
RTVSPropertyOp54
 70
     1
102
RTVSPropertyOp55
 70
     1
102
RTVSPropertyOp56
 70
     1
102
RTVSPropertyOp57
 70
     1
102
RTVSPropertyOp58
 70
     1
102
RTVSPropertyOp59
 70
     1
102
RTVSPropertyOp60
 70
     1
102
RTVSPropertyOp61
 70
     1
102
RTVSPropertyOp62
 70
     1
  0
XRECORD
  5
3C2AA
102
{ACAD_REACTORS
330
3C2A9
102
}
330
3C2A9
100
AcDbXrecord
280
     1
102
RTVSPost2010Prop28
280
     0
102
RTVSPost2010PropOp28
 70
     1
102
RTVSPost2010Prop29
280
     1
102
RTVSPost2010PropOp29
 70
     1
102
RTVSPost2010Prop30
280
     1
102
RTVSPost2010PropOp30
 70
     1
102
RTVSPost2010Prop31
280
     0
102
RTVSPost2010PropOp31
 70
     1
102
RTVSPost2010Prop32
280
     0
102
RTVSPost2010PropOp32
 70
     1
102
RTVSPost2010Prop33
280
     0
102
RTVSPost2010PropOp33
 70
     1
102
RTVSPost2010Prop34
280
     0
102
RTVSPost2010PropOp34
 70
     1
102
RTVSPost2010Prop35
280
     0
102
RTVSPost2010PropOp35
 70
     1
102
RTVSPost2010Prop36
280
     0
102
RTVSPost2010PropOp36
 70
     1
102
RTVSPost2010Prop37
 90
       50
102
RTVSPost2010PropOp37
 70
     1
102
RTVSPost2010Prop38
140
0.0
102
RTVSPost2010PropOp38
 70
     1
102
RTVSPost2010Prop39
140
1.0
102
RTVSPost2010PropOp39
 70
     1
102
RTVSPost2010Prop40
 90
        0
102
RTVSPost2010PropOp40
 70
     1
102
RTVSPost2010Prop41ColorIndex
 90
       18
102
RTVSPost2010Prop41ColorRGB
 90
        0
102
RTVSPost2010PropOp41
 70
     1
102
RTVSPost2010Prop42
 90
       50
102
RTVSPost2010PropOp42
 70
     1
102
RTVSPost2010Prop43
 90
        3
102
RTVSPost2010PropOp43
 70
     1
102
RTVSPost2010Prop44ColorIndex
 90
        5
102
RTVSPost2010Prop44ColorRGB
 90
      255
102
RTVSPost2010PropOp44
 70
     1
102
RTVSPost2010Prop45
280
     0
102
RTVSPost2010PropOp45
 70
     1
102
RTVSPost2010Prop46
 90
       50
102
RTVSPost2010PropOp46
 70
     1
102
RTVSPost2010Prop47
 90
       50
102
RTVSPost2010PropOp47
 70
     1
102
RTVSPost2010Prop48
 90
       50
102
RTVSPost2010PropOp48
 70
     1
102
RTVSPost2010Prop49
280
     0
102
RTVSPost2010PropOp49
 70
     1
102
RTVSPost2010Prop50
 90
       50
102
RTVSPost2010PropOp50
 70
     1
102
RTVSPost2010Prop51ColorIndex
 90
      256
102
RTVSPost2010Prop51ColorRGB
 90
-16777216
102
RTVSPost2010PropOp51
 70
     0
102
RTVSPost2010Prop52
140
1.0
102
RTVSPost2010PropOp52
 70
     0
102
RTVSPost2010Prop53
 90
        2
102
RTVSPost2010PropOp53
 70
     1
102
RTVSPost2010Prop54
  1
strokes_ogs.tif
102
RTVSPost2010PropOp54
 70
     1
102
RTVSPost2010Prop55
280
     0
102
RTVSPost2010PropOp55
 70
     1
102
RTVSPost2010Prop56
140
1.0
102
RTVSPost2010PropOp56
 70
     1
102
RTVSPost2010Prop57
140
1.0
102
RTVSPost2010PropOp57
 70
     1
102
RTVSPropertyOp0
 70
     1
102
RTVSPropertyOp1
 70
     1
102
RTVSPropertyOp2
 70
     1
102
RTVSPropertyOp3
 70
     1
102
RTVSPropertyOp4
 70
     1
102
RTVSPropertyOp5
 70
     1
102
RTVSPropertyOp6
 70
     1
102
RTVSPropertyOp7
 70
     1
102
RTVSPropertyOp8
 70
     1
102
RTVSPropertyOp9
 70
     1
102
RTVSPropertyOp10
 70
     1
102
RTVSPropertyOp11
 70
     1
102
RTVSPropertyOp12
 70
     1
102
RTVSPropertyOp13
 70
     1
102
RTVSPropertyOp14
 70
     1
102
RTVSPropertyOp15
 70
     1
102
RTVSPropertyOp16
 70
     1
102
RTVSPropertyOp17
 70
     1
102
RTVSPropertyOp18
 70
     1
102
RTVSPropertyOp19
 70
     1
102
RTVSPropertyOp20
 70
     1
102
RTVSPropertyOp21
 70
     1
102
RTVSPropertyOp22
 70
     1
102
RTVSPropertyOp23
 70
     1
102
RTVSPropertyOp24
 70
     1
102
RTVSPropertyOp25
 70
     1
102
RTVSPropertyOp26
 70
     1
102
RTVSPropertyOp27
 70
     1
102
RTVSPropertyOp28
 70
     1
102
RTVSPropertyOp29
 70
     1
102
RTVSPropertyOp30
 70
     1
102
RTVSPropertyOp31
 70
     1
102
RTVSPropertyOp32
 70
     1
102
RTVSPropertyOp33
 70
     1
102
RTVSPropertyOp34
 70
     1
102
RTVSPropertyOp35
 70
     1
102
RTVSPropertyOp36
 70
     1
102
RTVSPropertyOp37
 70
     1
102
RTVSPropertyOp38
 70
     1
102
RTVSPropertyOp39
 70
     1
102
RTVSPropertyOp40
 70
     1
102
RTVSPropertyOp41
 70
     1
102
RTVSPropertyOp42
 70
     1
102
RTVSPropertyOp43
 70
     1
102
RTVSPropertyOp44
 70
     1
102
RTVSPropertyOp45
 70
     1
102
RTVSPropertyOp46
 70
     1
102
RTVSPropertyOp47
 70
     1
102
RTVSPropertyOp48
 70
     1
102
RTVSPropertyOp49
 70
     1
102
RTVSPropertyOp50
 70
     1
102
RTVSPropertyOp51
 70
     0
102
RTVSPropertyOp52
 70
     0
102
RTVSPropertyOp53
 70
     1
102
RTVSPropertyOp54
 70
     1
102
RTVSPropertyOp55
 70
     1
102
RTVSPropertyOp56
 70
     1
102
RTVSPropertyOp57
 70
     1
102
RTVSPropertyOp58
 70
     1
102
RTVSPropertyOp59
 70
     1
102
RTVSPropertyOp60
 70
     1
102
RTVSPropertyOp61
 70
     1
102
RTVSPropertyOp62
 70
     1
  0
XRECORD
  5
3C2B8
102
{ACAD_REACTORS
330
3C2B7
102
}
330
3C2B7
100
AcDbXrecord
280
     1
102
RTVSPost2010Prop28
280
     0
102
RTVSPost2010PropOp28
 70
     1
102
RTVSPost2010Prop29
280
     1
102
RTVSPost2010PropOp29
 70
     1
102
RTVSPost2010Prop30
280
     1
102
RTVSPost2010PropOp30
 70
     1
102
RTVSPost2010Prop31
280
     0
102
RTVSPost2010PropOp31
 70
     1
102
RTVSPost2010Prop32
280
     0
102
RTVSPost2010PropOp32
 70
     1
102
RTVSPost2010Prop33
280
     0
102
RTVSPost2010PropOp33
 70
     1
102
RTVSPost2010Prop34
280
     0
102
RTVSPost2010PropOp34
 70
     1
102
RTVSPost2010Prop35
280
     0
102
RTVSPost2010PropOp35
 70
     1
102
RTVSPost2010Prop36
280
     0
102
RTVSPost2010PropOp36
 70
     1
102
RTVSPost2010Prop37
 90
       50
102
RTVSPost2010PropOp37
 70
     1
102
RTVSPost2010Prop38
140
0.0
102
RTVSPost2010PropOp38
 70
     1
102
RTVSPost2010Prop39
140
1.0
102
RTVSPost2010PropOp39
 70
     1
102
RTVSPost2010Prop40
 90
        0
102
RTVSPost2010PropOp40
 70
     1
102
RTVSPost2010Prop41ColorIndex
 90
       18
102
RTVSPost2010Prop41ColorRGB
 90
        0
102
RTVSPost2010PropOp41
 70
     1
102
RTVSPost2010Prop42
 90
       50
102
RTVSPost2010PropOp42
 70
     1
102
RTVSPost2010Prop43
 90
        3
102
RTVSPost2010PropOp43
 70
     1
102
RTVSPost2010Prop44ColorIndex
 90
        5
102
RTVSPost2010Prop44ColorRGB
 90
      255
102
RTVSPost2010PropOp44
 70
     1
102
RTVSPost2010Prop45
280
     0
102
RTVSPost2010PropOp45
 70
     1
102
RTVSPost2010Prop46
 90
       50
102
RTVSPost2010PropOp46
 70
     1
102
RTVSPost2010Prop47
 90
       50
102
RTVSPost2010PropOp47
 70
     1
102
RTVSPost2010Prop48
 90
       50
102
RTVSPost2010PropOp48
 70
     1
102
RTVSPost2010Prop49
280
     0
102
RTVSPost2010PropOp49
 70
     1
102
RTVSPost2010Prop50
 90
       50
102
RTVSPost2010PropOp50
 70
     1
102
RTVSPost2010Prop51ColorIndex
 90
      256
102
RTVSPost2010Prop51ColorRGB
 90
-16777216
102
RTVSPost2010PropOp51
 70
     0
102
RTVSPost2010Prop52
140
1.0
102
RTVSPost2010PropOp52
 70
     0
102
RTVSPost2010Prop53
 90
        2
102
RTVSPost2010PropOp53
 70
     1
102
RTVSPost2010Prop54
  1
strokes_ogs.tif
102
RTVSPost2010PropOp54
 70
     1
102
RTVSPost2010Prop55
280
     0
102
RTVSPost2010PropOp55
 70
     1
102
RTVSPost2010Prop56
140
1.0
102
RTVSPost2010PropOp56
 70
     1
102
RTVSPost2010Prop57
140
1.0
102
RTVSPost2010PropOp57
 70
     1
102
RTVSPropertyOp0
 70
     1
102
RTVSPropertyOp1
 70
     1
102
RTVSPropertyOp2
 70
     1
102
RTVSPropertyOp3
 70
     1
102
RTVSPropertyOp4
 70
     1
102
RTVSPropertyOp5
 70
     1
102
RTVSPropertyOp6
 70
     1
102
RTVSPropertyOp7
 70
     1
102
RTVSPropertyOp8
 70
     1
102
RTVSPropertyOp9
 70
     1
102
RTVSPropertyOp10
 70
     1
102
RTVSPropertyOp11
 70
     1
102
RTVSPropertyOp12
 70
     1
102
RTVSPropertyOp13
 70
     1
102
RTVSPropertyOp14
 70
     1
102
RTVSPropertyOp15
 70
     1
102
RTVSPropertyOp16
 70
     1
102
RTVSPropertyOp17
 70
     1
102
RTVSPropertyOp18
 70
     1
102
RTVSPropertyOp19
 70
     1
102
RTVSPropertyOp20
 70
     1
102
RTVSPropertyOp21
 70
     1
102
RTVSPropertyOp22
 70
     1
102
RTVSPropertyOp23
 70
     1
102
RTVSPropertyOp24
 70
     1
102
RTVSPropertyOp25
 70
     1
102
RTVSPropertyOp26
 70
     1
102
RTVSPropertyOp27
 70
     1
102
RTVSPropertyOp28
 70
     1
102
RTVSPropertyOp29
 70
     1
102
RTVSPropertyOp30
 70
     1
102
RTVSPropertyOp31
 70
     1
102
RTVSPropertyOp32
 70
     1
102
RTVSPropertyOp33
 70
     1
102
RTVSPropertyOp34
 70
     1
102
RTVSPropertyOp35
 70
     1
102
RTVSPropertyOp36
 70
     1
102
RTVSPropertyOp37
 70
     1
102
RTVSPropertyOp38
 70
     1
102
RTVSPropertyOp39
 70
     1
102
RTVSPropertyOp40
 70
     1
102
RTVSPropertyOp41
 70
     1
102
RTVSPropertyOp42
 70
     1
102
RTVSPropertyOp43
 70
     1
102
RTVSPropertyOp44
 70
     1
102
RTVSPropertyOp45
 70
     1
102
RTVSPropertyOp46
 70
     1
102
RTVSPropertyOp47
 70
     1
102
RTVSPropertyOp48
 70
     1
102
RTVSPropertyOp49
 70
     1
102
RTVSPropertyOp50
 70
     1
102
RTVSPropertyOp51
 70
     0
102
RTVSPropertyOp52
 70
     0
102
RTVSPropertyOp53
 70
     1
102
RTVSPropertyOp54
 70
     1
102
RTVSPropertyOp55
 70
     1
102
RTVSPropertyOp56
 70
     1
102
RTVSPropertyOp57
 70
     1
102
RTVSPropertyOp58
 70
     1
102
RTVSPropertyOp59
 70
     1
102
RTVSPropertyOp60
 70
     1
102
RTVSPropertyOp61
 70
     1
102
RTVSPropertyOp62
 70
     1
  0
XRECORD
  5
3C2C0
102
{ACAD_REACTORS
330
3C2BF
102
}
330
3C2BF
100
AcDbXrecord
280
     1
102
RTVSPost2010Prop28
280
     0
102
RTVSPost2010PropOp28
 70
     1
102
RTVSPost2010Prop29
280
     1
102
RTVSPost2010PropOp29
 70
     1
102
RTVSPost2010Prop30
280
     1
102
RTVSPost2010PropOp30
 70
     1
102
RTVSPost2010Prop31
280
     0
102
RTVSPost2010PropOp31
 70
     1
102
RTVSPost2010Prop32
280
     0
102
RTVSPost2010PropOp32
 70
     1
102
RTVSPost2010Prop33
280
     0
102
RTVSPost2010PropOp33
 70
     1
102
RTVSPost2010Prop34
280
     0
102
RTVSPost2010PropOp34
 70
     1
102
RTVSPost2010Prop35
280
     0
102
RTVSPost2010PropOp35
 70
     1
102
RTVSPost2010Prop36
280
     0
102
RTVSPost2010PropOp36
 70
     1
102
RTVSPost2010Prop37
 90
       50
102
RTVSPost2010PropOp37
 70
     1
102
RTVSPost2010Prop38
140
0.0
102
RTVSPost2010PropOp38
 70
     1
102
RTVSPost2010Prop39
140
1.0
102
RTVSPost2010PropOp39
 70
     1
102
RTVSPost2010Prop40
 90
        0
102
RTVSPost2010PropOp40
 70
     1
102
RTVSPost2010Prop41ColorIndex
 90
       18
102
RTVSPost2010Prop41ColorRGB
 90
        0
102
RTVSPost2010PropOp41
 70
     1
102
RTVSPost2010Prop42
 90
       50
102
RTVSPost2010PropOp42
 70
     1
102
RTVSPost2010Prop43
 90
        3
102
RTVSPost2010PropOp43
 70
     1
102
RTVSPost2010Prop44ColorIndex
 90
        5
102
RTVSPost2010Prop44ColorRGB
 90
      255
102
RTVSPost2010PropOp44
 70
     1
102
RTVSPost2010Prop45
280
     0
102
RTVSPost2010PropOp45
 70
     1
102
RTVSPost2010Prop46
 90
       50
102
RTVSPost2010PropOp46
 70
     1
102
RTVSPost2010Prop47
 90
       50
102
RTVSPost2010PropOp47
 70
     1
102
RTVSPost2010Prop48
 90
       50
102
RTVSPost2010PropOp48
 70
     1
102
RTVSPost2010Prop49
280
     0
102
RTVSPost2010PropOp49
 70
     1
102
RTVSPost2010Prop50
 90
       50
102
RTVSPost2010PropOp50
 70
     1
102
RTVSPost2010Prop51ColorIndex
 90
      256
102
RTVSPost2010Prop51ColorRGB
 90
-16777216
102
RTVSPost2010PropOp51
 70
     0
102
RTVSPost2010Prop52
140
1.0
102
RTVSPost2010PropOp52
 70
     0
102
RTVSPost2010Prop53
 90
        2
102
RTVSPost2010PropOp53
 70
     1
102
RTVSPost2010Prop54
  1
strokes_ogs.tif
102
RTVSPost2010PropOp54
 70
     1
102
RTVSPost2010Prop55
280
     0
102
RTVSPost2010PropOp55
 70
     1
102
RTVSPost2010Prop56
140
1.0
102
RTVSPost2010PropOp56
 70
     1
102
RTVSPost2010Prop57
140
1.0
102
RTVSPost2010PropOp57
 70
     1
102
RTVSPropertyOp0
 70
     1
102
RTVSPropertyOp1
 70
     1
102
RTVSPropertyOp2
 70
     1
102
RTVSPropertyOp3
 70
     1
102
RTVSPropertyOp4
 70
     1
102
RTVSPropertyOp5
 70
     1
102
RTVSPropertyOp6
 70
     1
102
RTVSPropertyOp7
 70
     1
102
RTVSPropertyOp8
 70
     1
102
RTVSPropertyOp9
 70
     1
102
RTVSPropertyOp10
 70
     1
102
RTVSPropertyOp11
 70
     1
102
RTVSPropertyOp12
 70
     1
102
RTVSPropertyOp13
 70
     1
102
RTVSPropertyOp14
 70
     1
102
RTVSPropertyOp15
 70
     1
102
RTVSPropertyOp16
 70
     1
102
RTVSPropertyOp17
 70
     1
102
RTVSPropertyOp18
 70
     1
102
RTVSPropertyOp19
 70
     1
102
RTVSPropertyOp20
 70
     1
102
RTVSPropertyOp21
 70
     1
102
RTVSPropertyOp22
 70
     1
102
RTVSPropertyOp23
 70
     1
102
RTVSPropertyOp24
 70
     1
102
RTVSPropertyOp25
 70
     1
102
RTVSPropertyOp26
 70
     1
102
RTVSPropertyOp27
 70
     1
102
RTVSPropertyOp28
 70
     1
102
RTVSPropertyOp29
 70
     1
102
RTVSPropertyOp30
 70
     1
102
RTVSPropertyOp31
 70
     1
102
RTVSPropertyOp32
 70
     1
102
RTVSPropertyOp33
 70
     1
102
RTVSPropertyOp34
 70
     1
102
RTVSPropertyOp35
 70
     1
102
RTVSPropertyOp36
 70
     1
102
RTVSPropertyOp37
 70
     1
102
RTVSPropertyOp38
 70
     1
102
RTVSPropertyOp39
 70
     1
102
RTVSPropertyOp40
 70
     1
102
RTVSPropertyOp41
 70
     1
102
RTVSPropertyOp42
 70
     1
102
RTVSPropertyOp43
 70
     1
102
RTVSPropertyOp44
 70
     1
102
RTVSPropertyOp45
 70
     1
102
RTVSPropertyOp46
 70
     1
102
RTVSPropertyOp47
 70
     1
102
RTVSPropertyOp48
 70
     1
102
RTVSPropertyOp49
 70
     1
102
RTVSPropertyOp50
 70
     1
102
RTVSPropertyOp51
 70
     0
102
RTVSPropertyOp52
 70
     0
102
RTVSPropertyOp53
 70
     1
102
RTVSPropertyOp54
 70
     1
102
RTVSPropertyOp55
 70
     1
102
RTVSPropertyOp56
 70
     1
102
RTVSPropertyOp57
 70
     1
102
RTVSPropertyOp58
 70
     1
102
RTVSPropertyOp59
 70
     1
102
RTVSPropertyOp60
 70
     1
102
RTVSPropertyOp61
 70
     1
102
RTVSPropertyOp62
 70
     1
  0
XRECORD
  5
3C2B2
102
{ACAD_REACTORS
330
3C2B1
102
}
330
3C2B1
100
AcDbXrecord
280
     1
102
RTVSPost2010Prop28
280
     0
102
RTVSPost2010PropOp28
 70
     1
102
RTVSPost2010Prop29
280
     1
102
RTVSPost2010PropOp29
 70
     1
102
RTVSPost2010Prop30
280
     1
102
RTVSPost2010PropOp30
 70
     1
102
RTVSPost2010Prop31
280
     0
102
RTVSPost2010PropOp31
 70
     1
102
RTVSPost2010Prop32
280
     0
102
RTVSPost2010PropOp32
 70
     1
102
RTVSPost2010Prop33
280
     0
102
RTVSPost2010PropOp33
 70
     1
102
RTVSPost2010Prop34
280
     0
102
RTVSPost2010PropOp34
 70
     1
102
RTVSPost2010Prop35
280
     0
102
RTVSPost2010PropOp35
 70
     1
102
RTVSPost2010Prop36
280
     0
102
RTVSPost2010PropOp36
 70
     1
102
RTVSPost2010Prop37
 90
       50
102
RTVSPost2010PropOp37
 70
     1
102
RTVSPost2010Prop38
140
0.0
102
RTVSPost2010PropOp38
 70
     1
102
RTVSPost2010Prop39
140
1.0
102
RTVSPost2010PropOp39
 70
     1
102
RTVSPost2010Prop40
 90
        0
102
RTVSPost2010PropOp40
 70
     1
102
RTVSPost2010Prop41ColorIndex
 90
       18
102
RTVSPost2010Prop41ColorRGB
 90
        0
102
RTVSPost2010PropOp41
 70
     1
102
RTVSPost2010Prop42
 90
       50
102
RTVSPost2010PropOp42
 70
     1
102
RTVSPost2010Prop43
 90
        3
102
RTVSPost2010PropOp43
 70
     1
102
RTVSPost2010Prop44ColorIndex
 90
        5
102
RTVSPost2010Prop44ColorRGB
 90
      255
102
RTVSPost2010PropOp44
 70
     1
102
RTVSPost2010Prop45
280
     0
102
RTVSPost2010PropOp45
 70
     1
102
RTVSPost2010Prop46
 90
       50
102
RTVSPost2010PropOp46
 70
     1
102
RTVSPost2010Prop47
 90
       50
102
RTVSPost2010PropOp47
 70
     1
102
RTVSPost2010Prop48
 90
       50
102
RTVSPost2010PropOp48
 70
     1
102
RTVSPost2010Prop49
280
     0
102
RTVSPost2010PropOp49
 70
     1
102
RTVSPost2010Prop50
 90
       50
102
RTVSPost2010PropOp50
 70
     1
102
RTVSPost2010Prop51ColorIndex
 90
      256
102
RTVSPost2010Prop51ColorRGB
 90
-16777216
102
RTVSPost2010PropOp51
 70
     0
102
RTVSPost2010Prop52
140
1.0
102
RTVSPost2010PropOp52
 70
     0
102
RTVSPost2010Prop53
 90
        2
102
RTVSPost2010PropOp53
 70
     1
102
RTVSPost2010Prop54
  1
strokes_ogs.tif
102
RTVSPost2010PropOp54
 70
     1
102
RTVSPost2010Prop55
280
     0
102
RTVSPost2010PropOp55
 70
     1
102
RTVSPost2010Prop56
140
1.0
102
RTVSPost2010PropOp56
 70
     1
102
RTVSPost2010Prop57
140
1.0
102
RTVSPost2010PropOp57
 70
     1
102
RTVSPropertyOp0
 70
     1
102
RTVSPropertyOp1
 70
     1
102
RTVSPropertyOp2
 70
     1
102
RTVSPropertyOp3
 70
     1
102
RTVSPropertyOp4
 70
     1
102
RTVSPropertyOp5
 70
     1
102
RTVSPropertyOp6
 70
     1
102
RTVSPropertyOp7
 70
     1
102
RTVSPropertyOp8
 70
     1
102
RTVSPropertyOp9
 70
     1
102
RTVSPropertyOp10
 70
     1
102
RTVSPropertyOp11
 70
     1
102
RTVSPropertyOp12
 70
     1
102
RTVSPropertyOp13
 70
     1
102
RTVSPropertyOp14
 70
     1
102
RTVSPropertyOp15
 70
     1
102
RTVSPropertyOp16
 70
     1
102
RTVSPropertyOp17
 70
     1
102
RTVSPropertyOp18
 70
     1
102
RTVSPropertyOp19
 70
     1
102
RTVSPropertyOp20
 70
     1
102
RTVSPropertyOp21
 70
     1
102
RTVSPropertyOp22
 70
     1
102
RTVSPropertyOp23
 70
     1
102
RTVSPropertyOp24
 70
     1
102
RTVSPropertyOp25
 70
     1
102
RTVSPropertyOp26
 70
     1
102
RTVSPropertyOp27
 70
     1
102
RTVSPropertyOp28
 70
     1
102
RTVSPropertyOp29
 70
     1
102
RTVSPropertyOp30
 70
     1
102
RTVSPropertyOp31
 70
     1
102
RTVSPropertyOp32
 70
     1
102
RTVSPropertyOp33
 70
     1
102
RTVSPropertyOp34
 70
     1
102
RTVSPropertyOp35
 70
     1
102
RTVSPropertyOp36
 70
     1
102
RTVSPropertyOp37
 70
     1
102
RTVSPropertyOp38
 70
     1
102
RTVSPropertyOp39
 70
     1
102
RTVSPropertyOp40
 70
     1
102
RTVSPropertyOp41
 70
     1
102
RTVSPropertyOp42
 70
     1
102
RTVSPropertyOp43
 70
     1
102
RTVSPropertyOp44
 70
     1
102
RTVSPropertyOp45
 70
     1
102
RTVSPropertyOp46
 70
     1
102
RTVSPropertyOp47
 70
     1
102
RTVSPropertyOp48
 70
     1
102
RTVSPropertyOp49
 70
     1
102
RTVSPropertyOp50
 70
     1
102
RTVSPropertyOp51
 70
     0
102
RTVSPropertyOp52
 70
     0
102
RTVSPropertyOp53
 70
     1
102
RTVSPropertyOp54
 70
     1
102
RTVSPropertyOp55
 70
     1
102
RTVSPropertyOp56
 70
     1
102
RTVSPropertyOp57
 70
     1
102
RTVSPropertyOp58
 70
     1
102
RTVSPropertyOp59
 70
     1
102
RTVSPropertyOp60
 70
     1
102
RTVSPropertyOp61
 70
     1
102
RTVSPropertyOp62
 70
     1
  0
XRECORD
  5
3C2B6
102
{ACAD_REACTORS
330
3C2B5
102
}
330
3C2B5
100
AcDbXrecord
280
     1
102
RTVSPost2010Prop28
280
     0
102
RTVSPost2010PropOp28
 70
     1
102
RTVSPost2010Prop29
280
     1
102
RTVSPost2010PropOp29
 70
     1
102
RTVSPost2010Prop30
280
     1
102
RTVSPost2010PropOp30
 70
     1
102
RTVSPost2010Prop31
280
     0
102
RTVSPost2010PropOp31
 70
     1
102
RTVSPost2010Prop32
280
     0
102
RTVSPost2010PropOp32
 70
     1
102
RTVSPost2010Prop33
280
     0
102
RTVSPost2010PropOp33
 70
     1
102
RTVSPost2010Prop34
280
     0
102
RTVSPost2010PropOp34
 70
     1
102
RTVSPost2010Prop35
280
     0
102
RTVSPost2010PropOp35
 70
     1
102
RTVSPost2010Prop36
280
     0
102
RTVSPost2010PropOp36
 70
     1
102
RTVSPost2010Prop37
 90
       50
102
RTVSPost2010PropOp37
 70
     1
102
RTVSPost2010Prop38
140
0.0
102
RTVSPost2010PropOp38
 70
     1
102
RTVSPost2010Prop39
140
1.0
102
RTVSPost2010PropOp39
 70
     1
102
RTVSPost2010Prop40
 90
        0
102
RTVSPost2010PropOp40
 70
     1
102
RTVSPost2010Prop41ColorIndex
 90
       18
102
RTVSPost2010Prop41ColorRGB
 90
        0
102
RTVSPost2010PropOp41
 70
     1
102
RTVSPost2010Prop42
 90
       50
102
RTVSPost2010PropOp42
 70
     1
102
RTVSPost2010Prop43
 90
        3
102
RTVSPost2010PropOp43
 70
     1
102
RTVSPost2010Prop44ColorIndex
 90
        5
102
RTVSPost2010Prop44ColorRGB
 90
      255
102
RTVSPost2010PropOp44
 70
     1
102
RTVSPost2010Prop45
280
     0
102
RTVSPost2010PropOp45
 70
     1
102
RTVSPost2010Prop46
 90
       50
102
RTVSPost2010PropOp46
 70
     1
102
RTVSPost2010Prop47
 90
       50
102
RTVSPost2010PropOp47
 70
     1
102
RTVSPost2010Prop48
 90
       50
102
RTVSPost2010PropOp48
 70
     1
102
RTVSPost2010Prop49
280
     0
102
RTVSPost2010PropOp49
 70
     1
102
RTVSPost2010Prop50
 90
       50
102
RTVSPost2010PropOp50
 70
     1
102
RTVSPost2010Prop51ColorIndex
 90
      256
102
RTVSPost2010Prop51ColorRGB
 90
-16777216
102
RTVSPost2010PropOp51
 70
     0
102
RTVSPost2010Prop52
140
1.0
102
RTVSPost2010PropOp52
 70
     0
102
RTVSPost2010Prop53
 90
        2
102
RTVSPost2010PropOp53
 70
     1
102
RTVSPost2010Prop54
  1
strokes_ogs.tif
102
RTVSPost2010PropOp54
 70
     1
102
RTVSPost2010Prop55
280
     0
102
RTVSPost2010PropOp55
 70
     1
102
RTVSPost2010Prop56
140
1.0
102
RTVSPost2010PropOp56
 70
     1
102
RTVSPost2010Prop57
140
1.0
102
RTVSPost2010PropOp57
 70
     1
102
RTVSPropertyOp0
 70
     1
102
RTVSPropertyOp1
 70
     1
102
RTVSPropertyOp2
 70
     1
102
RTVSPropertyOp3
 70
     1
102
RTVSPropertyOp4
 70
     1
102
RTVSPropertyOp5
 70
     1
102
RTVSPropertyOp6
 70
     1
102
RTVSPropertyOp7
 70
     1
102
RTVSPropertyOp8
 70
     1
102
RTVSPropertyOp9
 70
     1
102
RTVSPropertyOp10
 70
     1
102
RTVSPropertyOp11
 70
     1
102
RTVSPropertyOp12
 70
     1
102
RTVSPropertyOp13
 70
     1
102
RTVSPropertyOp14
 70
     1
102
RTVSPropertyOp15
 70
     1
102
RTVSPropertyOp16
 70
     1
102
RTVSPropertyOp17
 70
     1
102
RTVSPropertyOp18
 70
     1
102
RTVSPropertyOp19
 70
     1
102
RTVSPropertyOp20
 70
     1
102
RTVSPropertyOp21
 70
     1
102
RTVSPropertyOp22
 70
     1
102
RTVSPropertyOp23
 70
     1
102
RTVSPropertyOp24
 70
     1
102
RTVSPropertyOp25
 70
     1
102
RTVSPropertyOp26
 70
     1
102
RTVSPropertyOp27
 70
     1
102
RTVSPropertyOp28
 70
     1
102
RTVSPropertyOp29
 70
     1
102
RTVSPropertyOp30
 70
     1
102
RTVSPropertyOp31
 70
     1
102
RTVSPropertyOp32
 70
     1
102
RTVSPropertyOp33
 70
     1
102
RTVSPropertyOp34
 70
     1
102
RTVSPropertyOp35
 70
     1
102
RTVSPropertyOp36
 70
     1
102
RTVSPropertyOp37
 70
     1
102
RTVSPropertyOp38
 70
     1
102
RTVSPropertyOp39
 70
     1
102
RTVSPropertyOp40
 70
     1
102
RTVSPropertyOp41
 70
     1
102
RTVSPropertyOp42
 70
     1
102
RTVSPropertyOp43
 70
     1
102
RTVSPropertyOp44
 70
     1
102
RTVSPropertyOp45
 70
     1
102
RTVSPropertyOp46
 70
     1
102
RTVSPropertyOp47
 70
     1
102
RTVSPropertyOp48
 70
     1
102
RTVSPropertyOp49
 70
     1
102
RTVSPropertyOp50
 70
     1
102
RTVSPropertyOp51
 70
     0
102
RTVSPropertyOp52
 70
     0
102
RTVSPropertyOp53
 70
     1
102
RTVSPropertyOp54
 70
     1
102
RTVSPropertyOp55
 70
     1
102
RTVSPropertyOp56
 70
     1
102
RTVSPropertyOp57
 70
     1
102
RTVSPropertyOp58
 70
     1
102
RTVSPropertyOp59
 70
     1
102
RTVSPropertyOp60
 70
     1
102
RTVSPropertyOp61
 70
     1
102
RTVSPropertyOp62
 70
     1
  0
XRECORD
  5
3C2C6
102
{ACAD_REACTORS
330
3C2C5
102
}
330
3C2C5
100
AcDbXrecord
280
     1
102
RTVSPost2010Prop28
280
     0
102
RTVSPost2010PropOp28
 70
     1
102
RTVSPost2010Prop29
280
     1
102
RTVSPost2010PropOp29
 70
     1
102
RTVSPost2010Prop30
280
     1
102
RTVSPost2010PropOp30
 70
     1
102
RTVSPost2010Prop31
280
     0
102
RTVSPost2010PropOp31
 70
     1
102
RTVSPost2010Prop32
280
     0
102
RTVSPost2010PropOp32
 70
     1
102
RTVSPost2010Prop33
280
     0
102
RTVSPost2010PropOp33
 70
     1
102
RTVSPost2010Prop34
280
     0
102
RTVSPost2010PropOp34
 70
     1
102
RTVSPost2010Prop35
280
     0
102
RTVSPost2010PropOp35
 70
     1
102
RTVSPost2010Prop36
280
     0
102
RTVSPost2010PropOp36
 70
     1
102
RTVSPost2010Prop37
 90
       50
102
RTVSPost2010PropOp37
 70
     1
102
RTVSPost2010Prop38
140
0.0
102
RTVSPost2010PropOp38
 70
     1
102
RTVSPost2010Prop39
140
1.0
102
RTVSPost2010PropOp39
 70
     1
102
RTVSPost2010Prop40
 90
        0
102
RTVSPost2010PropOp40
 70
     1
102
RTVSPost2010Prop41ColorIndex
 90
       18
102
RTVSPost2010Prop41ColorRGB
 90
        0
102
RTVSPost2010PropOp41
 70
     1
102
RTVSPost2010Prop42
 90
       50
102
RTVSPost2010PropOp42
 70
     1
102
RTVSPost2010Prop43
 90
        3
102
RTVSPost2010PropOp43
 70
     1
102
RTVSPost2010Prop44ColorIndex
 90
        5
102
RTVSPost2010Prop44ColorRGB
 90
      255
102
RTVSPost2010PropOp44
 70
     1
102
RTVSPost2010Prop45
280
     0
102
RTVSPost2010PropOp45
 70
     1
102
RTVSPost2010Prop46
 90
       50
102
RTVSPost2010PropOp46
 70
     1
102
RTVSPost2010Prop47
 90
       50
102
RTVSPost2010PropOp47
 70
     1
102
RTVSPost2010Prop48
 90
       50
102
RTVSPost2010PropOp48
 70
     1
102
RTVSPost2010Prop49
280
     0
102
RTVSPost2010PropOp49
 70
     1
102
RTVSPost2010Prop50
 90
       50
102
RTVSPost2010PropOp50
 70
     1
102
RTVSPost2010Prop51ColorIndex
 90
      256
102
RTVSPost2010Prop51ColorRGB
 90
-16777216
102
RTVSPost2010PropOp51
 70
     0
102
RTVSPost2010Prop52
140
1.0
102
RTVSPost2010PropOp52
 70
     0
102
RTVSPost2010Prop53
 90
        2
102
RTVSPost2010PropOp53
 70
     1
102
RTVSPost2010Prop54
  1
strokes_ogs.tif
102
RTVSPost2010PropOp54
 70
     1
102
RTVSPost2010Prop55
280
     0
102
RTVSPost2010PropOp55
 70
     1
102
RTVSPost2010Prop56
140
1.0
102
RTVSPost2010PropOp56
 70
     1
102
RTVSPost2010Prop57
140
1.0
102
RTVSPost2010PropOp57
 70
     1
102
RTVSPropertyOp0
 70
     0
102
RTVSPropertyOp1
 70
     0
102
RTVSPropertyOp2
 70
     0
102
RTVSPropertyOp3
 70
     0
102
RTVSPropertyOp4
 70
     0
102
RTVSPropertyOp5
 70
     0
102
RTVSPropertyOp6
 70
     0
102
RTVSPropertyOp7
 70
     0
102
RTVSPropertyOp8
 70
     0
102
RTVSPropertyOp9
 70
     0
102
RTVSPropertyOp10
 70
     0
102
RTVSPropertyOp11
 70
     0
102
RTVSPropertyOp12
 70
     0
102
RTVSPropertyOp13
 70
     0
102
RTVSPropertyOp14
 70
     2
102
RTVSPropertyOp15
 70
     0
102
RTVSPropertyOp16
 70
     0
102
RTVSPropertyOp17
 70
     0
102
RTVSPropertyOp18
 70
     0
102
RTVSPropertyOp19
 70
     0
102
RTVSPropertyOp20
 70
     0
102
RTVSPropertyOp21
 70
     0
102
RTVSPropertyOp22
 70
     0
102
RTVSPropertyOp23
 70
     0
102
RTVSPropertyOp24
 70
     0
102
RTVSPropertyOp25
 70
     0
102
RTVSPropertyOp26
 70
     0
102
RTVSPropertyOp27
 70
     0
102
RTVSPropertyOp28
 70
     1
102
RTVSPropertyOp29
 70
     1
102
RTVSPropertyOp30
 70
     1
102
RTVSPropertyOp31
 70
     1
102
RTVSPropertyOp32
 70
     1
102
RTVSPropertyOp33
 70
     1
102
RTVSPropertyOp34
 70
     1
102
RTVSPropertyOp35
 70
     1
102
RTVSPropertyOp36
 70
     1
102
RTVSPropertyOp37
 70
     1
102
RTVSPropertyOp38
 70
     1
102
RTVSPropertyOp39
 70
     1
102
RTVSPropertyOp40
 70
     1
102
RTVSPropertyOp41
 70
     1
102
RTVSPropertyOp42
 70
     1
102
RTVSPropertyOp43
 70
     1
102
RTVSPropertyOp44
 70
     1
102
RTVSPropertyOp45
 70
     1
102
RTVSPropertyOp46
 70
     1
102
RTVSPropertyOp47
 70
     1
102
RTVSPropertyOp48
 70
     1
102
RTVSPropertyOp49
 70
     1
102
RTVSPropertyOp50
 70
     1
102
RTVSPropertyOp51
 70
     0
102
RTVSPropertyOp52
 70
     0
102
RTVSPropertyOp53
 70
     1
102
RTVSPropertyOp54
 70
     1
102
RTVSPropertyOp55
 70
     1
102
RTVSPropertyOp56
 70
     1
102
RTVSPropertyOp57
 70
     1
102
RTVSPropertyOp58
 70
     1
102
RTVSPropertyOp59
 70
     1
102
RTVSPropertyOp60
 70
     1
102
RTVSPropertyOp61
 70
     1
102
RTVSPropertyOp62
 70
     1
  0
XRECORD
  5
3C2BE
102
{ACAD_REACTORS
330
3C2BD
102
}
330
3C2BD
100
AcDbXrecord
280
     1
102
RTVSPost2010Prop28
280
     0
102
RTVSPost2010PropOp28
 70
     1
102
RTVSPost2010Prop29
280
     1
102
RTVSPost2010PropOp29
 70
     1
102
RTVSPost2010Prop30
280
     1
102
RTVSPost2010PropOp30
 70
     1
102
RTVSPost2010Prop31
280
     0
102
RTVSPost2010PropOp31
 70
     1
102
RTVSPost2010Prop32
280
     0
102
RTVSPost2010PropOp32
 70
     1
102
RTVSPost2010Prop33
280
     0
102
RTVSPost2010PropOp33
 70
     1
102
RTVSPost2010Prop34
280
     0
102
RTVSPost2010PropOp34
 70
     1
102
RTVSPost2010Prop35
280
     0
102
RTVSPost2010PropOp35
 70
     1
102
RTVSPost2010Prop36
280
     0
102
RTVSPost2010PropOp36
 70
     1
102
RTVSPost2010Prop37
 90
       50
102
RTVSPost2010PropOp37
 70
     1
102
RTVSPost2010Prop38
140
0.0
102
RTVSPost2010PropOp38
 70
     1
102
RTVSPost2010Prop39
140
1.0
102
RTVSPost2010PropOp39
 70
     1
102
RTVSPost2010Prop40
 90
        0
102
RTVSPost2010PropOp40
 70
     1
102
RTVSPost2010Prop41ColorIndex
 90
       18
102
RTVSPost2010Prop41ColorRGB
 90
        0
102
RTVSPost2010PropOp41
 70
     1
102
RTVSPost2010Prop42
 90
       50
102
RTVSPost2010PropOp42
 70
     1
102
RTVSPost2010Prop43
 90
        3
102
RTVSPost2010PropOp43
 70
     1
102
RTVSPost2010Prop44ColorIndex
 90
        5
102
RTVSPost2010Prop44ColorRGB
 90
      255
102
RTVSPost2010PropOp44
 70
     1
102
RTVSPost2010Prop45
280
     0
102
RTVSPost2010PropOp45
 70
     1
102
RTVSPost2010Prop46
 90
       50
102
RTVSPost2010PropOp46
 70
     1
102
RTVSPost2010Prop47
 90
       50
102
RTVSPost2010PropOp47
 70
     1
102
RTVSPost2010Prop48
 90
       50
102
RTVSPost2010PropOp48
 70
     1
102
RTVSPost2010Prop49
280
     0
102
RTVSPost2010PropOp49
 70
     1
102
RTVSPost2010Prop50
 90
       50
102
RTVSPost2010PropOp50
 70
     1
102
RTVSPost2010Prop51ColorIndex
 90
      256
102
RTVSPost2010Prop51ColorRGB
 90
-16777216
102
RTVSPost2010PropOp51
 70
     0
102
RTVSPost2010Prop52
140
1.0
102
RTVSPost2010PropOp52
 70
     0
102
RTVSPost2010Prop53
 90
        2
102
RTVSPost2010PropOp53
 70
     1
102
RTVSPost2010Prop54
  1
strokes_ogs.tif
102
RTVSPost2010PropOp54
 70
     1
102
RTVSPost2010Prop55
280
     0
102
RTVSPost2010PropOp55
 70
     1
102
RTVSPost2010Prop56
140
1.0
102
RTVSPost2010PropOp56
 70
     1
102
RTVSPost2010Prop57
140
1.0
102
RTVSPost2010PropOp57
 70
     1
102
RTVSPropertyOp0
 70
     1
102
RTVSPropertyOp1
 70
     1
102
RTVSPropertyOp2
 70
     1
102
RTVSPropertyOp3
 70
     1
102
RTVSPropertyOp4
 70
     1
102
RTVSPropertyOp5
 70
     1
102
RTVSPropertyOp6
 70
     1
102
RTVSPropertyOp7
 70
     1
102
RTVSPropertyOp8
 70
     1
102
RTVSPropertyOp9
 70
     1
102
RTVSPropertyOp10
 70
     1
102
RTVSPropertyOp11
 70
     1
102
RTVSPropertyOp12
 70
     1
102
RTVSPropertyOp13
 70
     1
102
RTVSPropertyOp14
 70
     1
102
RTVSPropertyOp15
 70
     1
102
RTVSPropertyOp16
 70
     1
102
RTVSPropertyOp17
 70
     1
102
RTVSPropertyOp18
 70
     1
102
RTVSPropertyOp19
 70
     1
102
RTVSPropertyOp20
 70
     1
102
RTVSPropertyOp21
 70
     1
102
RTVSPropertyOp22
 70
     1
102
RTVSPropertyOp23
 70
     1
102
RTVSPropertyOp24
 70
     1
102
RTVSPropertyOp25
 70
     1
102
RTVSPropertyOp26
 70
     1
102
RTVSPropertyOp27
 70
     1
102
RTVSPropertyOp28
 70
     1
102
RTVSPropertyOp29
 70
     1
102
RTVSPropertyOp30
 70
     1
102
RTVSPropertyOp31
 70
     1
102
RTVSPropertyOp32
 70
     1
102
RTVSPropertyOp33
 70
     1
102
RTVSPropertyOp34
 70
     1
102
RTVSPropertyOp35
 70
     1
102
RTVSPropertyOp36
 70
     1
102
RTVSPropertyOp37
 70
     1
102
RTVSPropertyOp38
 70
     1
102
RTVSPropertyOp39
 70
     1
102
RTVSPropertyOp40
 70
     1
102
RTVSPropertyOp41
 70
     1
102
RTVSPropertyOp42
 70
     1
102
RTVSPropertyOp43
 70
     1
102
RTVSPropertyOp44
 70
     1
102
RTVSPropertyOp45
 70
     1
102
RTVSPropertyOp46
 70
     1
102
RTVSPropertyOp47
 70
     1
102
RTVSPropertyOp48
 70
     1
102
RTVSPropertyOp49
 70
     1
102
RTVSPropertyOp50
 70
     1
102
RTVSPropertyOp51
 70
     0
102
RTVSPropertyOp52
 70
     0
102
RTVSPropertyOp53
 70
     1
102
RTVSPropertyOp54
 70
     1
102
RTVSPropertyOp55
 70
     1
102
RTVSPropertyOp56
 70
     1
102
RTVSPropertyOp57
 70
     1
102
RTVSPropertyOp58
 70
     1
102
RTVSPropertyOp59
 70
     1
102
RTVSPropertyOp60
 70
     1
102
RTVSPropertyOp61
 70
     1
102
RTVSPropertyOp62
 70
     1
  0
XRECORD
  5
3C2A2
102
{ACAD_REACTORS
330
3C2A1
102
}
330
3C2A1
100
AcDbXrecord
280
     1
102
RTVSPost2010Prop28
280
     0
102
RTVSPost2010PropOp28
 70
     1
102
RTVSPost2010Prop29
280
     1
102
RTVSPost2010PropOp29
 70
     1
102
RTVSPost2010Prop30
280
     1
102
RTVSPost2010PropOp30
 70
     1
102
RTVSPost2010Prop31
280
     0
102
RTVSPost2010PropOp31
 70
     1
102
RTVSPost2010Prop32
280
     0
102
RTVSPost2010PropOp32
 70
     1
102
RTVSPost2010Prop33
280
     0
102
RTVSPost2010PropOp33
 70
     1
102
RTVSPost2010Prop34
280
     0
102
RTVSPost2010PropOp34
 70
     1
102
RTVSPost2010Prop35
280
     0
102
RTVSPost2010PropOp35
 70
     1
102
RTVSPost2010Prop36
280
     0
102
RTVSPost2010PropOp36
 70
     1
102
RTVSPost2010Prop37
 90
       50
102
RTVSPost2010PropOp37
 70
     1
102
RTVSPost2010Prop38
140
0.0
102
RTVSPost2010PropOp38
 70
     1
102
RTVSPost2010Prop39
140
1.0
102
RTVSPost2010PropOp39
 70
     1
102
RTVSPost2010Prop40
 90
        0
102
RTVSPost2010PropOp40
 70
     1
102
RTVSPost2010Prop41ColorIndex
 90
       18
102
RTVSPost2010Prop41ColorRGB
 90
        0
102
RTVSPost2010PropOp41
 70
     1
102
RTVSPost2010Prop42
 90
       50
102
RTVSPost2010PropOp42
 70
     1
102
RTVSPost2010Prop43
 90
        3
102
RTVSPost2010PropOp43
 70
     1
102
RTVSPost2010Prop44ColorIndex
 90
        5
102
RTVSPost2010Prop44ColorRGB
 90
      255
102
RTVSPost2010PropOp44
 70
     1
102
RTVSPost2010Prop45
280
     0
102
RTVSPost2010PropOp45
 70
     1
102
RTVSPost2010Prop46
 90
       50
102
RTVSPost2010PropOp46
 70
     1
102
RTVSPost2010Prop47
 90
       50
102
RTVSPost2010PropOp47
 70
     1
102
RTVSPost2010Prop48
 90
       50
102
RTVSPost2010PropOp48
 70
     1
102
RTVSPost2010Prop49
280
     0
102
RTVSPost2010PropOp49
 70
     1
102
RTVSPost2010Prop50
 90
       50
102
RTVSPost2010PropOp50
 70
     1
102
RTVSPost2010Prop51ColorIndex
 90
      256
102
RTVSPost2010Prop51ColorRGB
 90
-16777216
102
RTVSPost2010PropOp51
 70
     0
102
RTVSPost2010Prop52
140
1.0
102
RTVSPost2010PropOp52
 70
     0
102
RTVSPost2010Prop53
 90
        2
102
RTVSPost2010PropOp53
 70
     1
102
RTVSPost2010Prop54
  1
strokes_ogs.tif
102
RTVSPost2010PropOp54
 70
     1
102
RTVSPost2010Prop55
280
     0
102
RTVSPost2010PropOp55
 70
     1
102
RTVSPost2010Prop56
140
1.0
102
RTVSPost2010PropOp56
 70
     1
102
RTVSPost2010Prop57
140
1.0
102
RTVSPost2010PropOp57
 70
     1
102
RTVSPropertyOp0
 70
     1
102
RTVSPropertyOp1
 70
     1
102
RTVSPropertyOp2
 70
     1
102
RTVSPropertyOp3
 70
     1
102
RTVSPropertyOp4
 70
     1
102
RTVSPropertyOp5
 70
     1
102
RTVSPropertyOp6
 70
     1
102
RTVSPropertyOp7
 70
     1
102
RTVSPropertyOp8
 70
     1
102
RTVSPropertyOp9
 70
     1
102
RTVSPropertyOp10
 70
     1
102
RTVSPropertyOp11
 70
     1
102
RTVSPropertyOp12
 70
     1
102
RTVSPropertyOp13
 70
     1
102
RTVSPropertyOp14
 70
     1
102
RTVSPropertyOp15
 70
     1
102
RTVSPropertyOp16
 70
     1
102
RTVSPropertyOp17
 70
     1
102
RTVSPropertyOp18
 70
     1
102
RTVSPropertyOp19
 70
     1
102
RTVSPropertyOp20
 70
     1
102
RTVSPropertyOp21
 70
     1
102
RTVSPropertyOp22
 70
     1
102
RTVSPropertyOp23
 70
     1
102
RTVSPropertyOp24
 70
     1
102
RTVSPropertyOp25
 70
     1
102
RTVSPropertyOp26
 70
     1
102
RTVSPropertyOp27
 70
     1
102
RTVSPropertyOp28
 70
     1
102
RTVSPropertyOp29
 70
     1
102
RTVSPropertyOp30
 70
     1
102
RTVSPropertyOp31
 70
     1
102
RTVSPropertyOp32
 70
     1
102
RTVSPropertyOp33
 70
     1
102
RTVSPropertyOp34
 70
     1
102
RTVSPropertyOp35
 70
     1
102
RTVSPropertyOp36
 70
     1
102
RTVSPropertyOp37
 70
     1
102
RTVSPropertyOp38
 70
     1
102
RTVSPropertyOp39
 70
     1
102
RTVSPropertyOp40
 70
     1
102
RTVSPropertyOp41
 70
     1
102
RTVSPropertyOp42
 70
     1
102
RTVSPropertyOp43
 70
     1
102
RTVSPropertyOp44
 70
     1
102
RTVSPropertyOp45
 70
     1
102
RTVSPropertyOp46
 70
     1
102
RTVSPropertyOp47
 70
     1
102
RTVSPropertyOp48
 70
     1
102
RTVSPropertyOp49
 70
     1
102
RTVSPropertyOp50
 70
     1
102
RTVSPropertyOp51
 70
     0
102
RTVSPropertyOp52
 70
     0
102
RTVSPropertyOp53
 70
     1
102
RTVSPropertyOp54
 70
     1
102
RTVSPropertyOp55
 70
     1
102
RTVSPropertyOp56
 70
     1
102
RTVSPropertyOp57
 70
     1
102
RTVSPropertyOp58
 70
     1
102
RTVSPropertyOp59
 70
     1
102
RTVSPropertyOp60
 70
     1
102
RTVSPropertyOp61
 70
     1
102
RTVSPropertyOp62
 70
     1
  0
XRECORD
  5
3C2A4
102
{ACAD_REACTORS
330
3C2A3
102
}
330
3C2A3
100
AcDbXrecord
280
     1
102
RTVSPost2010Prop28
280
     0
102
RTVSPost2010PropOp28
 70
     1
102
RTVSPost2010Prop29
280
     1
102
RTVSPost2010PropOp29
 70
     1
102
RTVSPost2010Prop30
280
     1
102
RTVSPost2010PropOp30
 70
     1
102
RTVSPost2010Prop31
280
     0
102
RTVSPost2010PropOp31
 70
     1
102
RTVSPost2010Prop32
280
     0
102
RTVSPost2010PropOp32
 70
     1
102
RTVSPost2010Prop33
280
     0
102
RTVSPost2010PropOp33
 70
     1
102
RTVSPost2010Prop34
280
     0
102
RTVSPost2010PropOp34
 70
     1
102
RTVSPost2010Prop35
280
     0
102
RTVSPost2010PropOp35
 70
     1
102
RTVSPost2010Prop36
280
     0
102
RTVSPost2010PropOp36
 70
     1
102
RTVSPost2010Prop37
 90
       50
102
RTVSPost2010PropOp37
 70
     1
102
RTVSPost2010Prop38
140
0.0
102
RTVSPost2010PropOp38
 70
     1
102
RTVSPost2010Prop39
140
1.0
102
RTVSPost2010PropOp39
 70
     1
102
RTVSPost2010Prop40
 90
        0
102
RTVSPost2010PropOp40
 70
     1
102
RTVSPost2010Prop41ColorIndex
 90
       18
102
RTVSPost2010Prop41ColorRGB
 90
        0
102
RTVSPost2010PropOp41
 70
     1
102
RTVSPost2010Prop42
 90
       50
102
RTVSPost2010PropOp42
 70
     1
102
RTVSPost2010Prop43
 90
        3
102
RTVSPost2010PropOp43
 70
     1
102
RTVSPost2010Prop44ColorIndex
 90
        5
102
RTVSPost2010Prop44ColorRGB
 90
      255
102
RTVSPost2010PropOp44
 70
     1
102
RTVSPost2010Prop45
280
     0
102
RTVSPost2010PropOp45
 70
     1
102
RTVSPost2010Prop46
 90
       50
102
RTVSPost2010PropOp46
 70
     1
102
RTVSPost2010Prop47
 90
       50
102
RTVSPost2010PropOp47
 70
     1
102
RTVSPost2010Prop48
 90
       50
102
RTVSPost2010PropOp48
 70
     1
102
RTVSPost2010Prop49
280
     0
102
RTVSPost2010PropOp49
 70
     1
102
RTVSPost2010Prop50
 90
       50
102
RTVSPost2010PropOp50
 70
     1
102
RTVSPost2010Prop51ColorIndex
 90
      256
102
RTVSPost2010Prop51ColorRGB
 90
-16777216
102
RTVSPost2010PropOp51
 70
     0
102
RTVSPost2010Prop52
140
1.0
102
RTVSPost2010PropOp52
 70
     0
102
RTVSPost2010Prop53
 90
        2
102
RTVSPost2010PropOp53
 70
     1
102
RTVSPost2010Prop54
  1
strokes_ogs.tif
102
RTVSPost2010PropOp54
 70
     1
102
RTVSPost2010Prop55
280
     0
102
RTVSPost2010PropOp55
 70
     1
102
RTVSPost2010Prop56
140
1.0
102
RTVSPost2010PropOp56
 70
     1
102
RTVSPost2010Prop57
140
1.0
102
RTVSPost2010PropOp57
 70
     1
102
RTVSPropertyOp0
 70
     1
102
RTVSPropertyOp1
 70
     1
102
RTVSPropertyOp2
 70
     1
102
RTVSPropertyOp3
 70
     1
102
RTVSPropertyOp4
 70
     1
102
RTVSPropertyOp5
 70
     1
102
RTVSPropertyOp6
 70
     1
102
RTVSPropertyOp7
 70
     1
102
RTVSPropertyOp8
 70
     1
102
RTVSPropertyOp9
 70
     1
102
RTVSPropertyOp10
 70
     1
102
RTVSPropertyOp11
 70
     1
102
RTVSPropertyOp12
 70
     1
102
RTVSPropertyOp13
 70
     1
102
RTVSPropertyOp14
 70
     1
102
RTVSPropertyOp15
 70
     1
102
RTVSPropertyOp16
 70
     1
102
RTVSPropertyOp17
 70
     1
102
RTVSPropertyOp18
 70
     1
102
RTVSPropertyOp19
 70
     1
102
RTVSPropertyOp20
 70
     1
102
RTVSPropertyOp21
 70
     1
102
RTVSPropertyOp22
 70
     1
102
RTVSPropertyOp23
 70
     1
102
RTVSPropertyOp24
 70
     1
102
RTVSPropertyOp25
 70
     1
102
RTVSPropertyOp26
 70
     1
102
RTVSPropertyOp27
 70
     1
102
RTVSPropertyOp28
 70
     1
102
RTVSPropertyOp29
 70
     1
102
RTVSPropertyOp30
 70
     1
102
RTVSPropertyOp31
 70
     1
102
RTVSPropertyOp32
 70
     1
102
RTVSPropertyOp33
 70
     1
102
RTVSPropertyOp34
 70
     1
102
RTVSPropertyOp35
 70
     1
102
RTVSPropertyOp36
 70
     1
102
RTVSPropertyOp37
 70
     1
102
RTVSPropertyOp38
 70
     1
102
RTVSPropertyOp39
 70
     1
102
RTVSPropertyOp40
 70
     1
102
RTVSPropertyOp41
 70
     1
102
RTVSPropertyOp42
 70
     1
102
RTVSPropertyOp43
 70
     1
102
RTVSPropertyOp44
 70
     1
102
RTVSPropertyOp45
 70
     1
102
RTVSPropertyOp46
 70
     1
102
RTVSPropertyOp47
 70
     1
102
RTVSPropertyOp48
 70
     1
102
RTVSPropertyOp49
 70
     1
102
RTVSPropertyOp50
 70
     1
102
RTVSPropertyOp51
 70
     0
102
RTVSPropertyOp52
 70
     0
102
RTVSPropertyOp53
 70
     1
102
RTVSPropertyOp54
 70
     1
102
RTVSPropertyOp55
 70
     1
102
RTVSPropertyOp56
 70
     1
102
RTVSPropertyOp57
 70
     1
102
RTVSPropertyOp58
 70
     1
102
RTVSPropertyOp59
 70
     1
102
RTVSPropertyOp60
 70
     1
102
RTVSPropertyOp61
 70
     1
102
RTVSPropertyOp62
 70
     1
  0
XRECORD
  5
3C2A6
102
{ACAD_REACTORS
330
3C2A5
102
}
330
3C2A5
100
AcDbXrecord
280
     1
102
RTVSPost2010Prop28
280
     0
102
RTVSPost2010PropOp28
 70
     1
102
RTVSPost2010Prop29
280
     1
102
RTVSPost2010PropOp29
 70
     1
102
RTVSPost2010Prop30
280
     1
102
RTVSPost2010PropOp30
 70
     1
102
RTVSPost2010Prop31
280
     0
102
RTVSPost2010PropOp31
 70
     1
102
RTVSPost2010Prop32
280
     0
102
RTVSPost2010PropOp32
 70
     1
102
RTVSPost2010Prop33
280
     0
102
RTVSPost2010PropOp33
 70
     1
102
RTVSPost2010Prop34
280
     0
102
RTVSPost2010PropOp34
 70
     1
102
RTVSPost2010Prop35
280
     0
102
RTVSPost2010PropOp35
 70
     1
102
RTVSPost2010Prop36
280
     0
102
RTVSPost2010PropOp36
 70
     1
102
RTVSPost2010Prop37
 90
       50
102
RTVSPost2010PropOp37
 70
     1
102
RTVSPost2010Prop38
140
0.0
102
RTVSPost2010PropOp38
 70
     1
102
RTVSPost2010Prop39
140
1.0
102
RTVSPost2010PropOp39
 70
     1
102
RTVSPost2010Prop40
 90
        0
102
RTVSPost2010PropOp40
 70
     1
102
RTVSPost2010Prop41ColorIndex
 90
       18
102
RTVSPost2010Prop41ColorRGB
 90
        0
102
RTVSPost2010PropOp41
 70
     1
102
RTVSPost2010Prop42
 90
       50
102
RTVSPost2010PropOp42
 70
     1
102
RTVSPost2010Prop43
 90
        3
102
RTVSPost2010PropOp43
 70
     1
102
RTVSPost2010Prop44ColorIndex
 90
        5
102
RTVSPost2010Prop44ColorRGB
 90
      255
102
RTVSPost2010PropOp44
 70
     1
102
RTVSPost2010Prop45
280
     0
102
RTVSPost2010PropOp45
 70
     1
102
RTVSPost2010Prop46
 90
       50
102
RTVSPost2010PropOp46
 70
     1
102
RTVSPost2010Prop47
 90
       50
102
RTVSPost2010PropOp47
 70
     1
102
RTVSPost2010Prop48
 90
       50
102
RTVSPost2010PropOp48
 70
     1
102
RTVSPost2010Prop49
280
     0
102
RTVSPost2010PropOp49
 70
     1
102
RTVSPost2010Prop50
 90
       50
102
RTVSPost2010PropOp50
 70
     1
102
RTVSPost2010Prop51ColorIndex
 90
      256
102
RTVSPost2010Prop51ColorRGB
 90
-16777216
102
RTVSPost2010PropOp51
 70
     0
102
RTVSPost2010Prop52
140
1.0
102
RTVSPost2010PropOp52
 70
     0
102
RTVSPost2010Prop53
 90
        2
102
RTVSPost2010PropOp53
 70
     1
102
RTVSPost2010Prop54
  1
strokes_ogs.tif
102
RTVSPost2010PropOp54
 70
     1
102
RTVSPost2010Prop55
280
     0
102
RTVSPost2010PropOp55
 70
     1
102
RTVSPost2010Prop56
140
1.0
102
RTVSPost2010PropOp56
 70
     1
102
RTVSPost2010Prop57
140
1.0
102
RTVSPost2010PropOp57
 70
     1
102
RTVSPropertyOp0
 70
     1
102
RTVSPropertyOp1
 70
     1
102
RTVSPropertyOp2
 70
     1
102
RTVSPropertyOp3
 70
     1
102
RTVSPropertyOp4
 70
     1
102
RTVSPropertyOp5
 70
     1
102
RTVSPropertyOp6
 70
     1
102
RTVSPropertyOp7
 70
     1
102
RTVSPropertyOp8
 70
     1
102
RTVSPropertyOp9
 70
     1
102
RTVSPropertyOp10
 70
     1
102
RTVSPropertyOp11
 70
     1
102
RTVSPropertyOp12
 70
     1
102
RTVSPropertyOp13
 70
     1
102
RTVSPropertyOp14
 70
     1
102
RTVSPropertyOp15
 70
     1
102
RTVSPropertyOp16
 70
     1
102
RTVSPropertyOp17
 70
     1
102
RTVSPropertyOp18
 70
     1
102
RTVSPropertyOp19
 70
     1
102
RTVSPropertyOp20
 70
     1
102
RTVSPropertyOp21
 70
     1
102
RTVSPropertyOp22
 70
     1
102
RTVSPropertyOp23
 70
     1
102
RTVSPropertyOp24
 70
     1
102
RTVSPropertyOp25
 70
     1
102
RTVSPropertyOp26
 70
     1
102
RTVSPropertyOp27
 70
     1
102
RTVSPropertyOp28
 70
     1
102
RTVSPropertyOp29
 70
     1
102
RTVSPropertyOp30
 70
     1
102
RTVSPropertyOp31
 70
     1
102
RTVSPropertyOp32
 70
     1
102
RTVSPropertyOp33
 70
     1
102
RTVSPropertyOp34
 70
     1
102
RTVSPropertyOp35
 70
     1
102
RTVSPropertyOp36
 70
     1
102
RTVSPropertyOp37
 70
     1
102
RTVSPropertyOp38
 70
     1
102
RTVSPropertyOp39
 70
     1
102
RTVSPropertyOp40
 70
     1
102
RTVSPropertyOp41
 70
     1
102
RTVSPropertyOp42
 70
     1
102
RTVSPropertyOp43
 70
     1
102
RTVSPropertyOp44
 70
     1
102
RTVSPropertyOp45
 70
     1
102
RTVSPropertyOp46
 70
     1
102
RTVSPropertyOp47
 70
     1
102
RTVSPropertyOp48
 70
     1
102
RTVSPropertyOp49
 70
     1
102
RTVSPropertyOp50
 70
     1
102
RTVSPropertyOp51
 70
     0
102
RTVSPropertyOp52
 70
     0
102
RTVSPropertyOp53
 70
     1
102
RTVSPropertyOp54
 70
     1
102
RTVSPropertyOp55
 70
     1
102
RTVSPropertyOp56
 70
     1
102
RTVSPropertyOp57
 70
     1
102
RTVSPropertyOp58
 70
     1
102
RTVSPropertyOp59
 70
     1
102
RTVSPropertyOp60
 70
     1
102
RTVSPropertyOp61
 70
     1
102
RTVSPropertyOp62
 70
     1
  0
XRECORD
  5
3C2A8
102
{ACAD_REACTORS
330
3C2A7
102
}
330
3C2A7
100
AcDbXrecord
280
     1
102
RTVSPost2010Prop28
280
     0
102
RTVSPost2010PropOp28
 70
     1
102
RTVSPost2010Prop29
280
     1
102
RTVSPost2010PropOp29
 70
     1
102
RTVSPost2010Prop30
280
     1
102
RTVSPost2010PropOp30
 70
     1
102
RTVSPost2010Prop31
280
     0
102
RTVSPost2010PropOp31
 70
     1
102
RTVSPost2010Prop32
280
     0
102
RTVSPost2010PropOp32
 70
     1
102
RTVSPost2010Prop33
280
     0
102
RTVSPost2010PropOp33
 70
     1
102
RTVSPost2010Prop34
280
     0
102
RTVSPost2010PropOp34
 70
     1
102
RTVSPost2010Prop35
280
     0
102
RTVSPost2010PropOp35
 70
     1
102
RTVSPost2010Prop36
280
     0
102
RTVSPost2010PropOp36
 70
     1
102
RTVSPost2010Prop37
 90
       50
102
RTVSPost2010PropOp37
 70
     1
102
RTVSPost2010Prop38
140
0.0
102
RTVSPost2010PropOp38
 70
     1
102
RTVSPost2010Prop39
140
1.0
102
RTVSPost2010PropOp39
 70
     1
102
RTVSPost2010Prop40
 90
        0
102
RTVSPost2010PropOp40
 70
     1
102
RTVSPost2010Prop41ColorIndex
 90
       18
102
RTVSPost2010Prop41ColorRGB
 90
        0
102
RTVSPost2010PropOp41
 70
     1
102
RTVSPost2010Prop42
 90
       50
102
RTVSPost2010PropOp42
 70
     1
102
RTVSPost2010Prop43
 90
        3
102
RTVSPost2010PropOp43
 70
     1
102
RTVSPost2010Prop44ColorIndex
 90
        5
102
RTVSPost2010Prop44ColorRGB
 90
      255
102
RTVSPost2010PropOp44
 70
     1
102
RTVSPost2010Prop45
280
     0
102
RTVSPost2010PropOp45
 70
     1
102
RTVSPost2010Prop46
 90
       50
102
RTVSPost2010PropOp46
 70
     1
102
RTVSPost2010Prop47
 90
       50
102
RTVSPost2010PropOp47
 70
     1
102
RTVSPost2010Prop48
 90
       50
102
RTVSPost2010PropOp48
 70
     1
102
RTVSPost2010Prop49
280
     0
102
RTVSPost2010PropOp49
 70
     1
102
RTVSPost2010Prop50
 90
       50
102
RTVSPost2010PropOp50
 70
     1
102
RTVSPost2010Prop51ColorIndex
 90
      256
102
RTVSPost2010Prop51ColorRGB
 90
-16777216
102
RTVSPost2010PropOp51
 70
     0
102
RTVSPost2010Prop52
140
1.0
102
RTVSPost2010PropOp52
 70
     0
102
RTVSPost2010Prop53
 90
        2
102
RTVSPost2010PropOp53
 70
     1
102
RTVSPost2010Prop54
  1
strokes_ogs.tif
102
RTVSPost2010PropOp54
 70
     1
102
RTVSPost2010Prop55
280
     0
102
RTVSPost2010PropOp55
 70
     1
102
RTVSPost2010Prop56
140
1.0
102
RTVSPost2010PropOp56
 70
     1
102
RTVSPost2010Prop57
140
1.0
102
RTVSPost2010PropOp57
 70
     1
102
RTVSPropertyOp0
 70
     1
102
RTVSPropertyOp1
 70
     1
102
RTVSPropertyOp2
 70
     1
102
RTVSPropertyOp3
 70
     1
102
RTVSPropertyOp4
 70
     1
102
RTVSPropertyOp5
 70
     1
102
RTVSPropertyOp6
 70
     1
102
RTVSPropertyOp7
 70
     1
102
RTVSPropertyOp8
 70
     1
102
RTVSPropertyOp9
 70
     1
102
RTVSPropertyOp10
 70
     1
102
RTVSPropertyOp11
 70
     1
102
RTVSPropertyOp12
 70
     1
102
RTVSPropertyOp13
 70
     1
102
RTVSPropertyOp14
 70
     1
102
RTVSPropertyOp15
 70
     1
102
RTVSPropertyOp16
 70
     1
102
RTVSPropertyOp17
 70
     1
102
RTVSPropertyOp18
 70
     1
102
RTVSPropertyOp19
 70
     1
102
RTVSPropertyOp20
 70
     1
102
RTVSPropertyOp21
 70
     1
102
RTVSPropertyOp22
 70
     1
102
RTVSPropertyOp23
 70
     1
102
RTVSPropertyOp24
 70
     1
102
RTVSPropertyOp25
 70
     1
102
RTVSPropertyOp26
 70
     1
102
RTVSPropertyOp27
 70
     1
102
RTVSPropertyOp28
 70
     1
102
RTVSPropertyOp29
 70
     1
102
RTVSPropertyOp30
 70
     1
102
RTVSPropertyOp31
 70
     1
102
RTVSPropertyOp32
 70
     1
102
RTVSPropertyOp33
 70
     1
102
RTVSPropertyOp34
 70
     1
102
RTVSPropertyOp35
 70
     1
102
RTVSPropertyOp36
 70
     1
102
RTVSPropertyOp37
 70
     1
102
RTVSPropertyOp38
 70
     1
102
RTVSPropertyOp39
 70
     1
102
RTVSPropertyOp40
 70
     1
102
RTVSPropertyOp41
 70
     1
102
RTVSPropertyOp42
 70
     1
102
RTVSPropertyOp43
 70
     1
102
RTVSPropertyOp44
 70
     1
102
RTVSPropertyOp45
 70
     1
102
RTVSPropertyOp46
 70
     1
102
RTVSPropertyOp47
 70
     1
102
RTVSPropertyOp48
 70
     1
102
RTVSPropertyOp49
 70
     1
102
RTVSPropertyOp50
 70
     1
102
RTVSPropertyOp51
 70
     0
102
RTVSPropertyOp52
 70
     0
102
RTVSPropertyOp53
 70
     1
102
RTVSPropertyOp54
 70
     1
102
RTVSPropertyOp55
 70
     1
102
RTVSPropertyOp56
 70
     1
102
RTVSPropertyOp57
 70
     1
102
RTVSPropertyOp58
 70
     1
102
RTVSPropertyOp59
 70
     1
102
RTVSPropertyOp60
 70
     1
102
RTVSPropertyOp61
 70
     1
102
RTVSPropertyOp62
 70
     1
  0
XRECORD
  5
3C2CA
102
{ACAD_REACTORS
330
3C2C9
102
}
330
3C2C9
100
AcDbXrecord
280
     1
102
RTVSPost2010Prop28
280
     0
102
RTVSPost2010PropOp28
 70
     1
102
RTVSPost2010Prop29
280
     1
102
RTVSPost2010PropOp29
 70
     1
102
RTVSPost2010Prop30
280
     1
102
RTVSPost2010PropOp30
 70
     1
102
RTVSPost2010Prop31
280
     0
102
RTVSPost2010PropOp31
 70
     1
102
RTVSPost2010Prop32
280
     0
102
RTVSPost2010PropOp32
 70
     1
102
RTVSPost2010Prop33
280
     0
102
RTVSPost2010PropOp33
 70
     1
102
RTVSPost2010Prop34
280
     0
102
RTVSPost2010PropOp34
 70
     1
102
RTVSPost2010Prop35
280
     0
102
RTVSPost2010PropOp35
 70
     1
102
RTVSPost2010Prop36
280
     0
102
RTVSPost2010PropOp36
 70
     1
102
RTVSPost2010Prop37
 90
       50
102
RTVSPost2010PropOp37
 70
     1
102
RTVSPost2010Prop38
140
0.0
102
RTVSPost2010PropOp38
 70
     1
102
RTVSPost2010Prop39
140
1.0
102
RTVSPost2010PropOp39
 70
     1
102
RTVSPost2010Prop40
 90
        0
102
RTVSPost2010PropOp40
 70
     1
102
RTVSPost2010Prop41ColorIndex
 90
       18
102
RTVSPost2010Prop41ColorRGB
 90
        0
102
RTVSPost2010PropOp41
 70
     1
102
RTVSPost2010Prop42
 90
       50
102
RTVSPost2010PropOp42
 70
     1
102
RTVSPost2010Prop43
 90
        3
102
RTVSPost2010PropOp43
 70
     1
102
RTVSPost2010Prop44ColorIndex
 90
        5
102
RTVSPost2010Prop44ColorRGB
 90
      255
102
RTVSPost2010PropOp44
 70
     1
102
RTVSPost2010Prop45
280
     0
102
RTVSPost2010PropOp45
 70
     1
102
RTVSPost2010Prop46
 90
       50
102
RTVSPost2010PropOp46
 70
     1
102
RTVSPost2010Prop47
 90
       50
102
RTVSPost2010PropOp47
 70
     1
102
RTVSPost2010Prop48
 90
       50
102
RTVSPost2010PropOp48
 70
     1
102
RTVSPost2010Prop49
280
     0
102
RTVSPost2010PropOp49
 70
     1
102
RTVSPost2010Prop50
 90
       50
102
RTVSPost2010PropOp50
 70
     1
102
RTVSPost2010Prop51ColorIndex
 90
      256
102
RTVSPost2010Prop51ColorRGB
 90
-16777216
102
RTVSPost2010PropOp51
 70
     0
102
RTVSPost2010Prop52
140
1.0
102
RTVSPost2010PropOp52
 70
     0
102
RTVSPost2010Prop53
 90
        2
102
RTVSPost2010PropOp53
 70
     1
102
RTVSPost2010Prop54
  1
strokes_ogs.tif
102
RTVSPost2010PropOp54
 70
     1
102
RTVSPost2010Prop55
280
     0
102
RTVSPost2010PropOp55
 70
     1
102
RTVSPost2010Prop56
140
1.0
102
RTVSPost2010PropOp56
 70
     1
102
RTVSPost2010Prop57
140
1.0
102
RTVSPost2010PropOp57
 70
     1
102
RTVSPropertyOp0
 70
     1
102
RTVSPropertyOp1
 70
     1
102
RTVSPropertyOp2
 70
     1
102
RTVSPropertyOp3
 70
     1
102
RTVSPropertyOp4
 70
     1
102
RTVSPropertyOp5
 70
     1
102
RTVSPropertyOp6
 70
     1
102
RTVSPropertyOp7
 70
     1
102
RTVSPropertyOp8
 70
     1
102
RTVSPropertyOp9
 70
     1
102
RTVSPropertyOp10
 70
     1
102
RTVSPropertyOp11
 70
     1
102
RTVSPropertyOp12
 70
     1
102
RTVSPropertyOp13
 70
     1
102
RTVSPropertyOp14
 70
     1
102
RTVSPropertyOp15
 70
     1
102
RTVSPropertyOp16
 70
     1
102
RTVSPropertyOp17
 70
     1
102
RTVSPropertyOp18
 70
     1
102
RTVSPropertyOp19
 70
     1
102
RTVSPropertyOp20
 70
     1
102
RTVSPropertyOp21
 70
     1
102
RTVSPropertyOp22
 70
     1
102
RTVSPropertyOp23
 70
     1
102
RTVSPropertyOp24
 70
     1
102
RTVSPropertyOp25
 70
     1
102
RTVSPropertyOp26
 70
     1
102
RTVSPropertyOp27
 70
     1
102
RTVSPropertyOp28
 70
     1
102
RTVSPropertyOp29
 70
     1
102
RTVSPropertyOp30
 70
     1
102
RTVSPropertyOp31
 70
     1
102
RTVSPropertyOp32
 70
     1
102
RTVSPropertyOp33
 70
     1
102
RTVSPropertyOp34
 70
     1
102
RTVSPropertyOp35
 70
     1
102
RTVSPropertyOp36
 70
     1
102
RTVSPropertyOp37
 70
     1
102
RTVSPropertyOp38
 70
     1
102
RTVSPropertyOp39
 70
     1
102
RTVSPropertyOp40
 70
     1
102
RTVSPropertyOp41
 70
     1
102
RTVSPropertyOp42
 70
     1
102
RTVSPropertyOp43
 70
     1
102
RTVSPropertyOp44
 70
     1
102
RTVSPropertyOp45
 70
     1
102
RTVSPropertyOp46
 70
     1
102
RTVSPropertyOp47
 70
     1
102
RTVSPropertyOp48
 70
     1
102
RTVSPropertyOp49
 70
     1
102
RTVSPropertyOp50
 70
     1
102
RTVSPropertyOp51
 70
     0
102
RTVSPropertyOp52
 70
     0
102
RTVSPropertyOp53
 70
     1
102
RTVSPropertyOp54
 70
     1
102
RTVSPropertyOp55
 70
     1
102
RTVSPropertyOp56
 70
     1
102
RTVSPropertyOp57
 70
     1
102
RTVSPropertyOp58
 70
     1
102
RTVSPropertyOp59
 70
     1
102
RTVSPropertyOp60
 70
     1
102
RTVSPropertyOp61
 70
     1
102
RTVSPropertyOp62
 70
     1
  0
XRECORD
  5
3C2C2
102
{ACAD_REACTORS
330
3C2C1
102
}
330
3C2C1
100
AcDbXrecord
280
     1
102
RTVSPost2010Prop28
280
     0
102
RTVSPost2010PropOp28
 70
     1
102
RTVSPost2010Prop29
280
     1
102
RTVSPost2010PropOp29
 70
     1
102
RTVSPost2010Prop30
280
     1
102
RTVSPost2010PropOp30
 70
     1
102
RTVSPost2010Prop31
280
     0
102
RTVSPost2010PropOp31
 70
     1
102
RTVSPost2010Prop32
280
     0
102
RTVSPost2010PropOp32
 70
     1
102
RTVSPost2010Prop33
280
     0
102
RTVSPost2010PropOp33
 70
     1
102
RTVSPost2010Prop34
280
     0
102
RTVSPost2010PropOp34
 70
     1
102
RTVSPost2010Prop35
280
     0
102
RTVSPost2010PropOp35
 70
     1
102
RTVSPost2010Prop36
280
     0
102
RTVSPost2010PropOp36
 70
     1
102
RTVSPost2010Prop37
 90
       50
102
RTVSPost2010PropOp37
 70
     1
102
RTVSPost2010Prop38
140
0.0
102
RTVSPost2010PropOp38
 70
     1
102
RTVSPost2010Prop39
140
1.0
102
RTVSPost2010PropOp39
 70
     1
102
RTVSPost2010Prop40
 90
        0
102
RTVSPost2010PropOp40
 70
     1
102
RTVSPost2010Prop41ColorIndex
 90
       18
102
RTVSPost2010Prop41ColorRGB
 90
        0
102
RTVSPost2010PropOp41
 70
     1
102
RTVSPost2010Prop42
 90
       50
102
RTVSPost2010PropOp42
 70
     1
102
RTVSPost2010Prop43
 90
        3
102
RTVSPost2010PropOp43
 70
     1
102
RTVSPost2010Prop44ColorIndex
 90
        5
102
RTVSPost2010Prop44ColorRGB
 90
      255
102
RTVSPost2010PropOp44
 70
     1
102
RTVSPost2010Prop45
280
     0
102
RTVSPost2010PropOp45
 70
     1
102
RTVSPost2010Prop46
 90
       50
102
RTVSPost2010PropOp46
 70
     1
102
RTVSPost2010Prop47
 90
       50
102
RTVSPost2010PropOp47
 70
     1
102
RTVSPost2010Prop48
 90
       50
102
RTVSPost2010PropOp48
 70
     1
102
RTVSPost2010Prop49
280
     0
102
RTVSPost2010PropOp49
 70
     1
102
RTVSPost2010Prop50
 90
       50
102
RTVSPost2010PropOp50
 70
     1
102
RTVSPost2010Prop51ColorIndex
 90
      256
102
RTVSPost2010Prop51ColorRGB
 90
-16777216
102
RTVSPost2010PropOp51
 70
     0
102
RTVSPost2010Prop52
140
1.0
102
RTVSPost2010PropOp52
 70
     0
102
RTVSPost2010Prop53
 90
        2
102
RTVSPost2010PropOp53
 70
     1
102
RTVSPost2010Prop54
  1
strokes_ogs.tif
102
RTVSPost2010PropOp54
 70
     1
102
RTVSPost2010Prop55
280
     0
102
RTVSPost2010PropOp55
 70
     1
102
RTVSPost2010Prop56
140
1.0
102
RTVSPost2010PropOp56
 70
     1
102
RTVSPost2010Prop57
140
1.0
102
RTVSPost2010PropOp57
 70
     1
102
RTVSPropertyOp0
 70
     0
102
RTVSPropertyOp1
 70
     0
102
RTVSPropertyOp2
 70
     0
102
RTVSPropertyOp3
 70
     0
102
RTVSPropertyOp4
 70
     0
102
RTVSPropertyOp5
 70
     0
102
RTVSPropertyOp6
 70
     0
102
RTVSPropertyOp7
 70
     0
102
RTVSPropertyOp8
 70
     0
102
RTVSPropertyOp9
 70
     0
102
RTVSPropertyOp10
 70
     0
102
RTVSPropertyOp11
 70
     0
102
RTVSPropertyOp12
 70
     0
102
RTVSPropertyOp13
 70
     0
102
RTVSPropertyOp14
 70
     2
102
RTVSPropertyOp15
 70
     0
102
RTVSPropertyOp16
 70
     0
102
RTVSPropertyOp17
 70
     0
102
RTVSPropertyOp18
 70
     0
102
RTVSPropertyOp19
 70
     0
102
RTVSPropertyOp20
 70
     0
102
RTVSPropertyOp21
 70
     0
102
RTVSPropertyOp22
 70
     0
102
RTVSPropertyOp23
 70
     0
102
RTVSPropertyOp24
 70
     0
102
RTVSPropertyOp25
 70
     0
102
RTVSPropertyOp26
 70
     0
102
RTVSPropertyOp27
 70
     0
102
RTVSPropertyOp28
 70
     1
102
RTVSPropertyOp29
 70
     1
102
RTVSPropertyOp30
 70
     1
102
RTVSPropertyOp31
 70
     1
102
RTVSPropertyOp32
 70
     1
102
RTVSPropertyOp33
 70
     1
102
RTVSPropertyOp34
 70
     1
102
RTVSPropertyOp35
 70
     1
102
RTVSPropertyOp36
 70
     1
102
RTVSPropertyOp37
 70
     1
102
RTVSPropertyOp38
 70
     1
102
RTVSPropertyOp39
 70
     1
102
RTVSPropertyOp40
 70
     1
102
RTVSPropertyOp41
 70
     1
102
RTVSPropertyOp42
 70
     1
102
RTVSPropertyOp43
 70
     1
102
RTVSPropertyOp44
 70
     1
102
RTVSPropertyOp45
 70
     1
102
RTVSPropertyOp46
 70
     1
102
RTVSPropertyOp47
 70
     1
102
RTVSPropertyOp48
 70
     1
102
RTVSPropertyOp49
 70
     1
102
RTVSPropertyOp50
 70
     1
102
RTVSPropertyOp51
 70
     0
102
RTVSPropertyOp52
 70
     0
102
RTVSPropertyOp53
 70
     1
102
RTVSPropertyOp54
 70
     1
102
RTVSPropertyOp55
 70
     1
102
RTVSPropertyOp56
 70
     1
102
RTVSPropertyOp57
 70
     1
102
RTVSPropertyOp58
 70
     1
102
RTVSPropertyOp59
 70
     1
102
RTVSPropertyOp60
 70
     1
102
RTVSPropertyOp61
 70
     1
102
RTVSPropertyOp62
 70
     1
  0
XRECORD
  5
3C2BC
102
{ACAD_REACTORS
330
3C2BB
102
}
330
3C2BB
100
AcDbXrecord
280
     1
102
RTVSPost2010Prop28
280
     0
102
RTVSPost2010PropOp28
 70
     1
102
RTVSPost2010Prop29
280
     1
102
RTVSPost2010PropOp29
 70
     1
102
RTVSPost2010Prop30
280
     1
102
RTVSPost2010PropOp30
 70
     1
102
RTVSPost2010Prop31
280
     0
102
RTVSPost2010PropOp31
 70
     1
102
RTVSPost2010Prop32
280
     0
102
RTVSPost2010PropOp32
 70
     1
102
RTVSPost2010Prop33
280
     0
102
RTVSPost2010PropOp33
 70
     1
102
RTVSPost2010Prop34
280
     0
102
RTVSPost2010PropOp34
 70
     1
102
RTVSPost2010Prop35
280
     0
102
RTVSPost2010PropOp35
 70
     1
102
RTVSPost2010Prop36
280
     0
102
RTVSPost2010PropOp36
 70
     1
102
RTVSPost2010Prop37
 90
       50
102
RTVSPost2010PropOp37
 70
     1
102
RTVSPost2010Prop38
140
0.0
102
RTVSPost2010PropOp38
 70
     1
102
RTVSPost2010Prop39
140
1.0
102
RTVSPost2010PropOp39
 70
     1
102
RTVSPost2010Prop40
 90
        0
102
RTVSPost2010PropOp40
 70
     1
102
RTVSPost2010Prop41ColorIndex
 90
       18
102
RTVSPost2010Prop41ColorRGB
 90
        0
102
RTVSPost2010PropOp41
 70
     1
102
RTVSPost2010Prop42
 90
       50
102
RTVSPost2010PropOp42
 70
     1
102
RTVSPost2010Prop43
 90
        3
102
RTVSPost2010PropOp43
 70
     1
102
RTVSPost2010Prop44ColorIndex
 90
        5
102
RTVSPost2010Prop44ColorRGB
 90
      255
102
RTVSPost2010PropOp44
 70
     1
102
RTVSPost2010Prop45
280
     0
102
RTVSPost2010PropOp45
 70
     1
102
RTVSPost2010Prop46
 90
       50
102
RTVSPost2010PropOp46
 70
     1
102
RTVSPost2010Prop47
 90
       50
102
RTVSPost2010PropOp47
 70
     1
102
RTVSPost2010Prop48
 90
       50
102
RTVSPost2010PropOp48
 70
     1
102
RTVSPost2010Prop49
280
     0
102
RTVSPost2010PropOp49
 70
     1
102
RTVSPost2010Prop50
 90
       50
102
RTVSPost2010PropOp50
 70
     1
102
RTVSPost2010Prop51ColorIndex
 90
      256
102
RTVSPost2010Prop51ColorRGB
 90
-16777216
102
RTVSPost2010PropOp51
 70
     0
102
RTVSPost2010Prop52
140
1.0
102
RTVSPost2010PropOp52
 70
     0
102
RTVSPost2010Prop53
 90
        2
102
RTVSPost2010PropOp53
 70
     1
102
RTVSPost2010Prop54
  1
strokes_ogs.tif
102
RTVSPost2010PropOp54
 70
     1
102
RTVSPost2010Prop55
280
     0
102
RTVSPost2010PropOp55
 70
     1
102
RTVSPost2010Prop56
140
1.0
102
RTVSPost2010PropOp56
 70
     1
102
RTVSPost2010Prop57
140
1.0
102
RTVSPost2010PropOp57
 70
     1
102
RTVSPropertyOp0
 70
     1
102
RTVSPropertyOp1
 70
     1
102
RTVSPropertyOp2
 70
     1
102
RTVSPropertyOp3
 70
     1
102
RTVSPropertyOp4
 70
     1
102
RTVSPropertyOp5
 70
     1
102
RTVSPropertyOp6
 70
     1
102
RTVSPropertyOp7
 70
     1
102
RTVSPropertyOp8
 70
     1
102
RTVSPropertyOp9
 70
     1
102
RTVSPropertyOp10
 70
     1
102
RTVSPropertyOp11
 70
     1
102
RTVSPropertyOp12
 70
     1
102
RTVSPropertyOp13
 70
     1
102
RTVSPropertyOp14
 70
     1
102
RTVSPropertyOp15
 70
     1
102
RTVSPropertyOp16
 70
     1
102
RTVSPropertyOp17
 70
     1
102
RTVSPropertyOp18
 70
     1
102
RTVSPropertyOp19
 70
     1
102
RTVSPropertyOp20
 70
     1
102
RTVSPropertyOp21
 70
     1
102
RTVSPropertyOp22
 70
     1
102
RTVSPropertyOp23
 70
     1
102
RTVSPropertyOp24
 70
     1
102
RTVSPropertyOp25
 70
     1
102
RTVSPropertyOp26
 70
     1
102
RTVSPropertyOp27
 70
     1
102
RTVSPropertyOp28
 70
     1
102
RTVSPropertyOp29
 70
     1
102
RTVSPropertyOp30
 70
     1
102
RTVSPropertyOp31
 70
     1
102
RTVSPropertyOp32
 70
     1
102
RTVSPropertyOp33
 70
     1
102
RTVSPropertyOp34
 70
     1
102
RTVSPropertyOp35
 70
     1
102
RTVSPropertyOp36
 70
     1
102
RTVSPropertyOp37
 70
     1
102
RTVSPropertyOp38
 70
     1
102
RTVSPropertyOp39
 70
     1
102
RTVSPropertyOp40
 70
     1
102
RTVSPropertyOp41
 70
     1
102
RTVSPropertyOp42
 70
     1
102
RTVSPropertyOp43
 70
     1
102
RTVSPropertyOp44
 70
     1
102
RTVSPropertyOp45
 70
     1
102
RTVSPropertyOp46
 70
     1
102
RTVSPropertyOp47
 70
     1
102
RTVSPropertyOp48
 70
     1
102
RTVSPropertyOp49
 70
     1
102
RTVSPropertyOp50
 70
     1
102
RTVSPropertyOp51
 70
     0
102
RTVSPropertyOp52
 70
     0
102
RTVSPropertyOp53
 70
     1
102
RTVSPropertyOp54
 70
     1
102
RTVSPropertyOp55
 70
     1
102
RTVSPropertyOp56
 70
     1
102
RTVSPropertyOp57
 70
     1
102
RTVSPropertyOp58
 70
     1
102
RTVSPropertyOp59
 70
     1
102
RTVSPropertyOp60
 70
     1
102
RTVSPropertyOp61
 70
     1
102
RTVSPropertyOp62
 70
     1
  0
XRECORD
  5
3C2C4
102
{ACAD_REACTORS
330
3C2C3
102
}
330
3C2C3
100
AcDbXrecord
280
     1
102
RTVSPost2010Prop28
280
     0
102
RTVSPost2010PropOp28
 70
     1
102
RTVSPost2010Prop29
280
     1
102
RTVSPost2010PropOp29
 70
     1
102
RTVSPost2010Prop30
280
     1
102
RTVSPost2010PropOp30
 70
     1
102
RTVSPost2010Prop31
280
     0
102
RTVSPost2010PropOp31
 70
     1
102
RTVSPost2010Prop32
280
     0
102
RTVSPost2010PropOp32
 70
     1
102
RTVSPost2010Prop33
280
     0
102
RTVSPost2010PropOp33
 70
     1
102
RTVSPost2010Prop34
280
     0
102
RTVSPost2010PropOp34
 70
     1
102
RTVSPost2010Prop35
280
     0
102
RTVSPost2010PropOp35
 70
     1
102
RTVSPost2010Prop36
280
     0
102
RTVSPost2010PropOp36
 70
     1
102
RTVSPost2010Prop37
 90
       50
102
RTVSPost2010PropOp37
 70
     1
102
RTVSPost2010Prop38
140
0.0
102
RTVSPost2010PropOp38
 70
     1
102
RTVSPost2010Prop39
140
1.0
102
RTVSPost2010PropOp39
 70
     1
102
RTVSPost2010Prop40
 90
        0
102
RTVSPost2010PropOp40
 70
     1
102
RTVSPost2010Prop41ColorIndex
 90
       18
102
RTVSPost2010Prop41ColorRGB
 90
        0
102
RTVSPost2010PropOp41
 70
     1
102
RTVSPost2010Prop42
 90
       50
102
RTVSPost2010PropOp42
 70
     1
102
RTVSPost2010Prop43
 90
        3
102
RTVSPost2010PropOp43
 70
     1
102
RTVSPost2010Prop44ColorIndex
 90
        5
102
RTVSPost2010Prop44ColorRGB
 90
      255
102
RTVSPost2010PropOp44
 70
     1
102
RTVSPost2010Prop45
280
     0
102
RTVSPost2010PropOp45
 70
     1
102
RTVSPost2010Prop46
 90
       50
102
RTVSPost2010PropOp46
 70
     1
102
RTVSPost2010Prop47
 90
       50
102
RTVSPost2010PropOp47
 70
     1
102
RTVSPost2010Prop48
 90
       50
102
RTVSPost2010PropOp48
 70
     1
102
RTVSPost2010Prop49
280
     0
102
RTVSPost2010PropOp49
 70
     1
102
RTVSPost2010Prop50
 90
       50
102
RTVSPost2010PropOp50
 70
     1
102
RTVSPost2010Prop51ColorIndex
 90
      256
102
RTVSPost2010Prop51ColorRGB
 90
-16777216
102
RTVSPost2010PropOp51
 70
     0
102
RTVSPost2010Prop52
140
1.0
102
RTVSPost2010PropOp52
 70
     0
102
RTVSPost2010Prop53
 90
        2
102
RTVSPost2010PropOp53
 70
     1
102
RTVSPost2010Prop54
  1
strokes_ogs.tif
102
RTVSPost2010PropOp54
 70
     1
102
RTVSPost2010Prop55
280
     0
102
RTVSPost2010PropOp55
 70
     1
102
RTVSPost2010Prop56
140
1.0
102
RTVSPost2010PropOp56
 70
     1
102
RTVSPost2010Prop57
140
1.0
102
RTVSPost2010PropOp57
 70
     1
102
RTVSPropertyOp0
 70
     0
102
RTVSPropertyOp1
 70
     0
102
RTVSPropertyOp2
 70
     0
102
RTVSPropertyOp3
 70
     0
102
RTVSPropertyOp4
 70
     0
102
RTVSPropertyOp5
 70
     0
102
RTVSPropertyOp6
 70
     0
102
RTVSPropertyOp7
 70
     0
102
RTVSPropertyOp8
 70
     0
102
RTVSPropertyOp9
 70
     0
102
RTVSPropertyOp10
 70
     0
102
RTVSPropertyOp11
 70
     0
102
RTVSPropertyOp12
 70
     0
102
RTVSPropertyOp13
 70
     0
102
RTVSPropertyOp14
 70
     2
102
RTVSPropertyOp15
 70
     0
102
RTVSPropertyOp16
 70
     0
102
RTVSPropertyOp17
 70
     0
102
RTVSPropertyOp18
 70
     0
102
RTVSPropertyOp19
 70
     0
102
RTVSPropertyOp20
 70
     0
102
RTVSPropertyOp21
 70
     0
102
RTVSPropertyOp22
 70
     0
102
RTVSPropertyOp23
 70
     0
102
RTVSPropertyOp24
 70
     0
102
RTVSPropertyOp25
 70
     0
102
RTVSPropertyOp26
 70
     0
102
RTVSPropertyOp27
 70
     0
102
RTVSPropertyOp28
 70
     1
102
RTVSPropertyOp29
 70
     1
102
RTVSPropertyOp30
 70
     1
102
RTVSPropertyOp31
 70
     1
102
RTVSPropertyOp32
 70
     1
102
RTVSPropertyOp33
 70
     1
102
RTVSPropertyOp34
 70
     1
102
RTVSPropertyOp35
 70
     1
102
RTVSPropertyOp36
 70
     1
102
RTVSPropertyOp37
 70
     1
102
RTVSPropertyOp38
 70
     1
102
RTVSPropertyOp39
 70
     1
102
RTVSPropertyOp40
 70
     1
102
RTVSPropertyOp41
 70
     1
102
RTVSPropertyOp42
 70
     1
102
RTVSPropertyOp43
 70
     1
102
RTVSPropertyOp44
 70
     1
102
RTVSPropertyOp45
 70
     1
102
RTVSPropertyOp46
 70
     1
102
RTVSPropertyOp47
 70
     1
102
RTVSPropertyOp48
 70
     1
102
RTVSPropertyOp49
 70
     1
102
RTVSPropertyOp50
 70
     1
102
RTVSPropertyOp51
 70
     0
102
RTVSPropertyOp52
 70
     0
102
RTVSPropertyOp53
 70
     1
102
RTVSPropertyOp54
 70
     1
102
RTVSPropertyOp55
 70
     1
102
RTVSPropertyOp56
 70
     1
102
RTVSPropertyOp57
 70
     1
102
RTVSPropertyOp58
 70
     1
102
RTVSPropertyOp59
 70
     1
102
RTVSPropertyOp60
 70
     1
102
RTVSPropertyOp61
 70
     1
102
RTVSPropertyOp62
 70
     1
  0
XRECORD
  5
3C2B4
102
{ACAD_REACTORS
330
3C2B3
102
}
330
3C2B3
100
AcDbXrecord
280
     1
102
RTVSPost2010Prop28
280
     0
102
RTVSPost2010PropOp28
 70
     1
102
RTVSPost2010Prop29
280
     1
102
RTVSPost2010PropOp29
 70
     1
102
RTVSPost2010Prop30
280
     1
102
RTVSPost2010PropOp30
 70
     1
102
RTVSPost2010Prop31
280
     0
102
RTVSPost2010PropOp31
 70
     1
102
RTVSPost2010Prop32
280
     0
102
RTVSPost2010PropOp32
 70
     1
102
RTVSPost2010Prop33
280
     0
102
RTVSPost2010PropOp33
 70
     1
102
RTVSPost2010Prop34
280
     0
102
RTVSPost2010PropOp34
 70
     1
102
RTVSPost2010Prop35
280
     0
102
RTVSPost2010PropOp35
 70
     1
102
RTVSPost2010Prop36
280
     0
102
RTVSPost2010PropOp36
 70
     1
102
RTVSPost2010Prop37
 90
       50
102
RTVSPost2010PropOp37
 70
     1
102
RTVSPost2010Prop38
140
0.0
102
RTVSPost2010PropOp38
 70
     1
102
RTVSPost2010Prop39
140
1.0
102
RTVSPost2010PropOp39
 70
     1
102
RTVSPost2010Prop40
 90
        0
102
RTVSPost2010PropOp40
 70
     1
102
RTVSPost2010Prop41ColorIndex
 90
       18
102
RTVSPost2010Prop41ColorRGB
 90
        0
102
RTVSPost2010PropOp41
 70
     1
102
RTVSPost2010Prop42
 90
       50
102
RTVSPost2010PropOp42
 70
     1
102
RTVSPost2010Prop43
 90
        3
102
RTVSPost2010PropOp43
 70
     1
102
RTVSPost2010Prop44ColorIndex
 90
        5
102
RTVSPost2010Prop44ColorRGB
 90
      255
102
RTVSPost2010PropOp44
 70
     1
102
RTVSPost2010Prop45
280
     0
102
RTVSPost2010PropOp45
 70
     1
102
RTVSPost2010Prop46
 90
       50
102
RTVSPost2010PropOp46
 70
     1
102
RTVSPost2010Prop47
 90
       50
102
RTVSPost2010PropOp47
 70
     1
102
RTVSPost2010Prop48
 90
       50
102
RTVSPost2010PropOp48
 70
     1
102
RTVSPost2010Prop49
280
     0
102
RTVSPost2010PropOp49
 70
     1
102
RTVSPost2010Prop50
 90
       50
102
RTVSPost2010PropOp50
 70
     1
102
RTVSPost2010Prop51ColorIndex
 90
      256
102
RTVSPost2010Prop51ColorRGB
 90
-16777216
102
RTVSPost2010PropOp51
 70
     0
102
RTVSPost2010Prop52
140
1.0
102
RTVSPost2010PropOp52
 70
     0
102
RTVSPost2010Prop53
 90
        2
102
RTVSPost2010PropOp53
 70
     1
102
RTVSPost2010Prop54
  1
strokes_ogs.tif
102
RTVSPost2010PropOp54
 70
     1
102
RTVSPost2010Prop55
280
     0
102
RTVSPost2010PropOp55
 70
     1
102
RTVSPost2010Prop56
140
1.0
102
RTVSPost2010PropOp56
 70
     1
102
RTVSPost2010Prop57
140
1.0
102
RTVSPost2010PropOp57
 70
     1
102
RTVSPropertyOp0
 70
     1
102
RTVSPropertyOp1
 70
     1
102
RTVSPropertyOp2
 70
     1
102
RTVSPropertyOp3
 70
     1
102
RTVSPropertyOp4
 70
     1
102
RTVSPropertyOp5
 70
     1
102
RTVSPropertyOp6
 70
     1
102
RTVSPropertyOp7
 70
     1
102
RTVSPropertyOp8
 70
     1
102
RTVSPropertyOp9
 70
     1
102
RTVSPropertyOp10
 70
     1
102
RTVSPropertyOp11
 70
     1
102
RTVSPropertyOp12
 70
     1
102
RTVSPropertyOp13
 70
     1
102
RTVSPropertyOp14
 70
     1
102
RTVSPropertyOp15
 70
     1
102
RTVSPropertyOp16
 70
     1
102
RTVSPropertyOp17
 70
     1
102
RTVSPropertyOp18
 70
     1
102
RTVSPropertyOp19
 70
     1
102
RTVSPropertyOp20
 70
     1
102
RTVSPropertyOp21
 70
     1
102
RTVSPropertyOp22
 70
     1
102
RTVSPropertyOp23
 70
     1
102
RTVSPropertyOp24
 70
     1
102
RTVSPropertyOp25
 70
     1
102
RTVSPropertyOp26
 70
     1
102
RTVSPropertyOp27
 70
     1
102
RTVSPropertyOp28
 70
     1
102
RTVSPropertyOp29
 70
     1
102
RTVSPropertyOp30
 70
     1
102
RTVSPropertyOp31
 70
     1
102
RTVSPropertyOp32
 70
     1
102
RTVSPropertyOp33
 70
     1
102
RTVSPropertyOp34
 70
     1
102
RTVSPropertyOp35
 70
     1
102
RTVSPropertyOp36
 70
     1
102
RTVSPropertyOp37
 70
     1
102
RTVSPropertyOp38
 70
     1
102
RTVSPropertyOp39
 70
     1
102
RTVSPropertyOp40
 70
     1
102
RTVSPropertyOp41
 70
     1
102
RTVSPropertyOp42
 70
     1
102
RTVSPropertyOp43
 70
     1
102
RTVSPropertyOp44
 70
     1
102
RTVSPropertyOp45
 70
     1
102
RTVSPropertyOp46
 70
     1
102
RTVSPropertyOp47
 70
     1
102
RTVSPropertyOp48
 70
     1
102
RTVSPropertyOp49
 70
     1
102
RTVSPropertyOp50
 70
     1
102
RTVSPropertyOp51
 70
     0
102
RTVSPropertyOp52
 70
     0
102
RTVSPropertyOp53
 70
     1
102
RTVSPropertyOp54
 70
     1
102
RTVSPropertyOp55
 70
     1
102
RTVSPropertyOp56
 70
     1
102
RTVSPropertyOp57
 70
     1
102
RTVSPropertyOp58
 70
     1
102
RTVSPropertyOp59
 70
     1
102
RTVSPropertyOp60
 70
     1
102
RTVSPropertyOp61
 70
     1
102
RTVSPropertyOp62
 70
     1
  0
XRECORD
  5
3C2D4
102
{ACAD_REACTORS
330
3C2D3
102
}
330
3C2D3
100
AcDbXrecord
280
     1
102
RTVSPost2010Prop28
280
     0
102
RTVSPost2010PropOp28
 70
     1
102
RTVSPost2010Prop29
280
     1
102
RTVSPost2010PropOp29
 70
     1
102
RTVSPost2010Prop30
280
     1
102
RTVSPost2010PropOp30
 70
     1
102
RTVSPost2010Prop31
280
     0
102
RTVSPost2010PropOp31
 70
     1
102
RTVSPost2010Prop32
280
     0
102
RTVSPost2010PropOp32
 70
     1
102
RTVSPost2010Prop33
280
     0
102
RTVSPost2010PropOp33
 70
     1
102
RTVSPost2010Prop34
280
     0
102
RTVSPost2010PropOp34
 70
     1
102
RTVSPost2010Prop35
280
     0
102
RTVSPost2010PropOp35
 70
     1
102
RTVSPost2010Prop36
280
     0
102
RTVSPost2010PropOp36
 70
     1
102
RTVSPost2010Prop37
 90
       50
102
RTVSPost2010PropOp37
 70
     1
102
RTVSPost2010Prop38
140
0.0
102
RTVSPost2010PropOp38
 70
     1
102
RTVSPost2010Prop39
140
1.0
102
RTVSPost2010PropOp39
 70
     1
102
RTVSPost2010Prop40
 90
        0
102
RTVSPost2010PropOp40
 70
     1
102
RTVSPost2010Prop41ColorIndex
 90
       18
102
RTVSPost2010Prop41ColorRGB
 90
        0
102
RTVSPost2010PropOp41
 70
     1
102
RTVSPost2010Prop42
 90
       50
102
RTVSPost2010PropOp42
 70
     1
102
RTVSPost2010Prop43
 90
        3
102
RTVSPost2010PropOp43
 70
     1
102
RTVSPost2010Prop44ColorIndex
 90
        5
102
RTVSPost2010Prop44ColorRGB
 90
      255
102
RTVSPost2010PropOp44
 70
     1
102
RTVSPost2010Prop45
280
     0
102
RTVSPost2010PropOp45
 70
     1
102
RTVSPost2010Prop46
 90
       50
102
RTVSPost2010PropOp46
 70
     1
102
RTVSPost2010Prop47
 90
       50
102
RTVSPost2010PropOp47
 70
     1
102
RTVSPost2010Prop48
 90
       50
102
RTVSPost2010PropOp48
 70
     1
102
RTVSPost2010Prop49
280
     0
102
RTVSPost2010PropOp49
 70
     1
102
RTVSPost2010Prop50
 90
       50
102
RTVSPost2010PropOp50
 70
     1
102
RTVSPost2010Prop51ColorIndex
 90
      256
102
RTVSPost2010Prop51ColorRGB
 90
-16777216
102
RTVSPost2010PropOp51
 70
     0
102
RTVSPost2010Prop52
140
1.0
102
RTVSPost2010PropOp52
 70
     0
102
RTVSPost2010Prop53
 90
        2
102
RTVSPost2010PropOp53
 70
     1
102
RTVSPost2010Prop54
  1
strokes_ogs.tif
102
RTVSPost2010PropOp54
 70
     1
102
RTVSPost2010Prop55
280
     0
102
RTVSPost2010PropOp55
 70
     1
102
RTVSPost2010Prop56
140
1.0
102
RTVSPost2010PropOp56
 70
     1
102
RTVSPost2010Prop57
140
1.0
102
RTVSPost2010PropOp57
 70
     1
102
RTVSPropertyOp0
 70
     1
102
RTVSPropertyOp1
 70
     1
102
RTVSPropertyOp2
 70
     1
102
RTVSPropertyOp3
 70
     1
102
RTVSPropertyOp4
 70
     1
102
RTVSPropertyOp5
 70
     1
102
RTVSPropertyOp6
 70
     1
102
RTVSPropertyOp7
 70
     1
102
RTVSPropertyOp8
 70
     1
102
RTVSPropertyOp9
 70
     1
102
RTVSPropertyOp10
 70
     1
102
RTVSPropertyOp11
 70
     1
102
RTVSPropertyOp12
 70
     1
102
RTVSPropertyOp13
 70
     1
102
RTVSPropertyOp14
 70
     1
102
RTVSPropertyOp15
 70
     1
102
RTVSPropertyOp16
 70
     1
102
RTVSPropertyOp17
 70
     1
102
RTVSPropertyOp18
 70
     1
102
RTVSPropertyOp19
 70
     1
102
RTVSPropertyOp20
 70
     1
102
RTVSPropertyOp21
 70
     1
102
RTVSPropertyOp22
 70
     1
102
RTVSPropertyOp23
 70
     1
102
RTVSPropertyOp24
 70
     1
102
RTVSPropertyOp25
 70
     1
102
RTVSPropertyOp26
 70
     1
102
RTVSPropertyOp27
 70
     1
102
RTVSPropertyOp28
 70
     1
102
RTVSPropertyOp29
 70
     1
102
RTVSPropertyOp30
 70
     1
102
RTVSPropertyOp31
 70
     1
102
RTVSPropertyOp32
 70
     1
102
RTVSPropertyOp33
 70
     1
102
RTVSPropertyOp34
 70
     1
102
RTVSPropertyOp35
 70
     1
102
RTVSPropertyOp36
 70
     1
102
RTVSPropertyOp37
 70
     1
102
RTVSPropertyOp38
 70
     1
102
RTVSPropertyOp39
 70
     1
102
RTVSPropertyOp40
 70
     1
102
RTVSPropertyOp41
 70
     1
102
RTVSPropertyOp42
 70
     1
102
RTVSPropertyOp43
 70
     1
102
RTVSPropertyOp44
 70
     1
102
RTVSPropertyOp45
 70
     1
102
RTVSPropertyOp46
 70
     1
102
RTVSPropertyOp47
 70
     1
102
RTVSPropertyOp48
 70
     1
102
RTVSPropertyOp49
 70
     1
102
RTVSPropertyOp50
 70
     1
102
RTVSPropertyOp51
 70
     0
102
RTVSPropertyOp52
 70
     0
102
RTVSPropertyOp53
 70
     1
102
RTVSPropertyOp54
 70
     1
102
RTVSPropertyOp55
 70
     1
102
RTVSPropertyOp56
 70
     1
102
RTVSPropertyOp57
 70
     1
102
RTVSPropertyOp58
 70
     1
102
RTVSPropertyOp59
 70
     1
102
RTVSPropertyOp60
 70
     1
102
RTVSPropertyOp61
 70
     1
102
RTVSPropertyOp62
 70
     1
  0
XRECORD
  5
3C2D2
102
{ACAD_REACTORS
330
3C2D1
102
}
330
3C2D1
100
AcDbXrecord
280
     1
102
RTVSPost2010Prop28
280
     0
102
RTVSPost2010PropOp28
 70
     1
102
RTVSPost2010Prop29
280
     1
102
RTVSPost2010PropOp29
 70
     1
102
RTVSPost2010Prop30
280
     1
102
RTVSPost2010PropOp30
 70
     1
102
RTVSPost2010Prop31
280
     0
102
RTVSPost2010PropOp31
 70
     1
102
RTVSPost2010Prop32
280
     0
102
RTVSPost2010PropOp32
 70
     1
102
RTVSPost2010Prop33
280
     0
102
RTVSPost2010PropOp33
 70
     1
102
RTVSPost2010Prop34
280
     0
102
RTVSPost2010PropOp34
 70
     1
102
RTVSPost2010Prop35
280
     0
102
RTVSPost2010PropOp35
 70
     1
102
RTVSPost2010Prop36
280
     0
102
RTVSPost2010PropOp36
 70
     1
102
RTVSPost2010Prop37
 90
       50
102
RTVSPost2010PropOp37
 70
     1
102
RTVSPost2010Prop38
140
0.0
102
RTVSPost2010PropOp38
 70
     1
102
RTVSPost2010Prop39
140
1.0
102
RTVSPost2010PropOp39
 70
     1
102
RTVSPost2010Prop40
 90
        0
102
RTVSPost2010PropOp40
 70
     1
102
RTVSPost2010Prop41ColorIndex
 90
       18
102
RTVSPost2010Prop41ColorRGB
 90
        0
102
RTVSPost2010PropOp41
 70
     1
102
RTVSPost2010Prop42
 90
       50
102
RTVSPost2010PropOp42
 70
     1
102
RTVSPost2010Prop43
 90
        3
102
RTVSPost2010PropOp43
 70
     1
102
RTVSPost2010Prop44ColorIndex
 90
        5
102
RTVSPost2010Prop44ColorRGB
 90
      255
102
RTVSPost2010PropOp44
 70
     1
102
RTVSPost2010Prop45
280
     0
102
RTVSPost2010PropOp45
 70
     1
102
RTVSPost2010Prop46
 90
       50
102
RTVSPost2010PropOp46
 70
     1
102
RTVSPost2010Prop47
 90
       50
102
RTVSPost2010PropOp47
 70
     1
102
RTVSPost2010Prop48
 90
       50
102
RTVSPost2010PropOp48
 70
     1
102
RTVSPost2010Prop49
280
     0
102
RTVSPost2010PropOp49
 70
     1
102
RTVSPost2010Prop50
 90
       50
102
RTVSPost2010PropOp50
 70
     1
102
RTVSPost2010Prop51ColorIndex
 90
      256
102
RTVSPost2010Prop51ColorRGB
 90
-16777216
102
RTVSPost2010PropOp51
 70
     0
102
RTVSPost2010Prop52
140
1.0
102
RTVSPost2010PropOp52
 70
     0
102
RTVSPost2010Prop53
 90
        2
102
RTVSPost2010PropOp53
 70
     1
102
RTVSPost2010Prop54
  1
strokes_ogs.tif
102
RTVSPost2010PropOp54
 70
     1
102
RTVSPost2010Prop55
280
     0
102
RTVSPost2010PropOp55
 70
     1
102
RTVSPost2010Prop56
140
1.0
102
RTVSPost2010PropOp56
 70
     1
102
RTVSPost2010Prop57
140
1.0
102
RTVSPost2010PropOp57
 70
     1
102
RTVSPropertyOp0
 70
     1
102
RTVSPropertyOp1
 70
     1
102
RTVSPropertyOp2
 70
     1
102
RTVSPropertyOp3
 70
     1
102
RTVSPropertyOp4
 70
     1
102
RTVSPropertyOp5
 70
     1
102
RTVSPropertyOp6
 70
     1
102
RTVSPropertyOp7
 70
     1
102
RTVSPropertyOp8
 70
     1
102
RTVSPropertyOp9
 70
     1
102
RTVSPropertyOp10
 70
     1
102
RTVSPropertyOp11
 70
     1
102
RTVSPropertyOp12
 70
     1
102
RTVSPropertyOp13
 70
     1
102
RTVSPropertyOp14
 70
     1
102
RTVSPropertyOp15
 70
     1
102
RTVSPropertyOp16
 70
     1
102
RTVSPropertyOp17
 70
     1
102
RTVSPropertyOp18
 70
     1
102
RTVSPropertyOp19
 70
     1
102
RTVSPropertyOp20
 70
     1
102
RTVSPropertyOp21
 70
     1
102
RTVSPropertyOp22
 70
     1
102
RTVSPropertyOp23
 70
     1
102
RTVSPropertyOp24
 70
     1
102
RTVSPropertyOp25
 70
     1
102
RTVSPropertyOp26
 70
     1
102
RTVSPropertyOp27
 70
     1
102
RTVSPropertyOp28
 70
     1
102
RTVSPropertyOp29
 70
     1
102
RTVSPropertyOp30
 70
     1
102
RTVSPropertyOp31
 70
     1
102
RTVSPropertyOp32
 70
     1
102
RTVSPropertyOp33
 70
     1
102
RTVSPropertyOp34
 70
     1
102
RTVSPropertyOp35
 70
     1
102
RTVSPropertyOp36
 70
     1
102
RTVSPropertyOp37
 70
     1
102
RTVSPropertyOp38
 70
     1
102
RTVSPropertyOp39
 70
     1
102
RTVSPropertyOp40
 70
     1
102
RTVSPropertyOp41
 70
     1
102
RTVSPropertyOp42
 70
     1
102
RTVSPropertyOp43
 70
     1
102
RTVSPropertyOp44
 70
     1
102
RTVSPropertyOp45
 70
     1
102
RTVSPropertyOp46
 70
     1
102
RTVSPropertyOp47
 70
     1
102
RTVSPropertyOp48
 70
     1
102
RTVSPropertyOp49
 70
     1
102
RTVSPropertyOp50
 70
     1
102
RTVSPropertyOp51
 70
     0
102
RTVSPropertyOp52
 70
     0
102
RTVSPropertyOp53
 70
     1
102
RTVSPropertyOp54
 70
     1
102
RTVSPropertyOp55
 70
     1
102
RTVSPropertyOp56
 70
     1
102
RTVSPropertyOp57
 70
     1
102
RTVSPropertyOp58
 70
     1
102
RTVSPropertyOp59
 70
     1
102
RTVSPropertyOp60
 70
     1
102
RTVSPropertyOp61
 70
     1
102
RTVSPropertyOp62
 70
     1
  0
XRECORD
  5
3C2CC
102
{ACAD_REACTORS
330
3C2CB
102
}
330
3C2CB
100
AcDbXrecord
280
     1
102
RTVSPost2010Prop28
280
     0
102
RTVSPost2010PropOp28
 70
     1
102
RTVSPost2010Prop29
280
     1
102
RTVSPost2010PropOp29
 70
     1
102
RTVSPost2010Prop30
280
     1
102
RTVSPost2010PropOp30
 70
     1
102
RTVSPost2010Prop31
280
     0
102
RTVSPost2010PropOp31
 70
     1
102
RTVSPost2010Prop32
280
     0
102
RTVSPost2010PropOp32
 70
     1
102
RTVSPost2010Prop33
280
     0
102
RTVSPost2010PropOp33
 70
     1
102
RTVSPost2010Prop34
280
     0
102
RTVSPost2010PropOp34
 70
     1
102
RTVSPost2010Prop35
280
     0
102
RTVSPost2010PropOp35
 70
     1
102
RTVSPost2010Prop36
280
     0
102
RTVSPost2010PropOp36
 70
     1
102
RTVSPost2010Prop37
 90
       50
102
RTVSPost2010PropOp37
 70
     1
102
RTVSPost2010Prop38
140
0.0
102
RTVSPost2010PropOp38
 70
     1
102
RTVSPost2010Prop39
140
1.0
102
RTVSPost2010PropOp39
 70
     1
102
RTVSPost2010Prop40
 90
        0
102
RTVSPost2010PropOp40
 70
     1
102
RTVSPost2010Prop41ColorIndex
 90
       18
102
RTVSPost2010Prop41ColorRGB
 90
        0
102
RTVSPost2010PropOp41
 70
     1
102
RTVSPost2010Prop42
 90
       50
102
RTVSPost2010PropOp42
 70
     1
102
RTVSPost2010Prop43
 90
        3
102
RTVSPost2010PropOp43
 70
     1
102
RTVSPost2010Prop44ColorIndex
 90
        5
102
RTVSPost2010Prop44ColorRGB
 90
      255
102
RTVSPost2010PropOp44
 70
     1
102
RTVSPost2010Prop45
280
     0
102
RTVSPost2010PropOp45
 70
     1
102
RTVSPost2010Prop46
 90
       50
102
RTVSPost2010PropOp46
 70
     1
102
RTVSPost2010Prop47
 90
       50
102
RTVSPost2010PropOp47
 70
     1
102
RTVSPost2010Prop48
 90
       50
102
RTVSPost2010PropOp48
 70
     1
102
RTVSPost2010Prop49
280
     0
102
RTVSPost2010PropOp49
 70
     1
102
RTVSPost2010Prop50
 90
       50
102
RTVSPost2010PropOp50
 70
     1
102
RTVSPost2010Prop51ColorIndex
 90
      256
102
RTVSPost2010Prop51ColorRGB
 90
-16777216
102
RTVSPost2010PropOp51
 70
     0
102
RTVSPost2010Prop52
140
1.0
102
RTVSPost2010PropOp52
 70
     0
102
RTVSPost2010Prop53
 90
        2
102
RTVSPost2010PropOp53
 70
     1
102
RTVSPost2010Prop54
  1
strokes_ogs.tif
102
RTVSPost2010PropOp54
 70
     1
102
RTVSPost2010Prop55
280
     0
102
RTVSPost2010PropOp55
 70
     1
102
RTVSPost2010Prop56
140
1.0
102
RTVSPost2010PropOp56
 70
     1
102
RTVSPost2010Prop57
140
1.0
102
RTVSPost2010PropOp57
 70
     1
102
RTVSPropertyOp0
 70
     1
102
RTVSPropertyOp1
 70
     1
102
RTVSPropertyOp2
 70
     1
102
RTVSPropertyOp3
 70
     1
102
RTVSPropertyOp4
 70
     1
102
RTVSPropertyOp5
 70
     1
102
RTVSPropertyOp6
 70
     1
102
RTVSPropertyOp7
 70
     1
102
RTVSPropertyOp8
 70
     1
102
RTVSPropertyOp9
 70
     1
102
RTVSPropertyOp10
 70
     1
102
RTVSPropertyOp11
 70
     1
102
RTVSPropertyOp12
 70
     1
102
RTVSPropertyOp13
 70
     1
102
RTVSPropertyOp14
 70
     1
102
RTVSPropertyOp15
 70
     1
102
RTVSPropertyOp16
 70
     1
102
RTVSPropertyOp17
 70
     1
102
RTVSPropertyOp18
 70
     1
102
RTVSPropertyOp19
 70
     1
102
RTVSPropertyOp20
 70
     1
102
RTVSPropertyOp21
 70
     1
102
RTVSPropertyOp22
 70
     1
102
RTVSPropertyOp23
 70
     1
102
RTVSPropertyOp24
 70
     1
102
RTVSPropertyOp25
 70
     1
102
RTVSPropertyOp26
 70
     1
102
RTVSPropertyOp27
 70
     1
102
RTVSPropertyOp28
 70
     1
102
RTVSPropertyOp29
 70
     1
102
RTVSPropertyOp30
 70
     1
102
RTVSPropertyOp31
 70
     1
102
RTVSPropertyOp32
 70
     1
102
RTVSPropertyOp33
 70
     1
102
RTVSPropertyOp34
 70
     1
102
RTVSPropertyOp35
 70
     1
102
RTVSPropertyOp36
 70
     1
102
RTVSPropertyOp37
 70
     1
102
RTVSPropertyOp38
 70
     1
102
RTVSPropertyOp39
 70
     1
102
RTVSPropertyOp40
 70
     1
102
RTVSPropertyOp41
 70
     1
102
RTVSPropertyOp42
 70
     1
102
RTVSPropertyOp43
 70
     1
102
RTVSPropertyOp44
 70
     1
102
RTVSPropertyOp45
 70
     1
102
RTVSPropertyOp46
 70
     1
102
RTVSPropertyOp47
 70
     1
102
RTVSPropertyOp48
 70
     1
102
RTVSPropertyOp49
 70
     1
102
RTVSPropertyOp50
 70
     1
102
RTVSPropertyOp51
 70
     0
102
RTVSPropertyOp52
 70
     0
102
RTVSPropertyOp53
 70
     1
102
RTVSPropertyOp54
 70
     1
102
RTVSPropertyOp55
 70
     1
102
RTVSPropertyOp56
 70
     1
102
RTVSPropertyOp57
 70
     1
102
RTVSPropertyOp58
 70
     1
102
RTVSPropertyOp59
 70
     1
102
RTVSPropertyOp60
 70
     1
102
RTVSPropertyOp61
 70
     1
102
RTVSPropertyOp62
 70
     1
  0
XRECORD
  5
3C2CE
102
{ACAD_REACTORS
330
3C2CD
102
}
330
3C2CD
100
AcDbXrecord
280
     1
102
RTVSPost2010Prop28
280
     0
102
RTVSPost2010PropOp28
 70
     1
102
RTVSPost2010Prop29
280
     1
102
RTVSPost2010PropOp29
 70
     1
102
RTVSPost2010Prop30
280
     1
102
RTVSPost2010PropOp30
 70
     1
102
RTVSPost2010Prop31
280
     0
102
RTVSPost2010PropOp31
 70
     1
102
RTVSPost2010Prop32
280
     0
102
RTVSPost2010PropOp32
 70
     1
102
RTVSPost2010Prop33
280
     0
102
RTVSPost2010PropOp33
 70
     1
102
RTVSPost2010Prop34
280
     0
102
RTVSPost2010PropOp34
 70
     1
102
RTVSPost2010Prop35
280
     0
102
RTVSPost2010PropOp35
 70
     1
102
RTVSPost2010Prop36
280
     0
102
RTVSPost2010PropOp36
 70
     1
102
RTVSPost2010Prop37
 90
       50
102
RTVSPost2010PropOp37
 70
     1
102
RTVSPost2010Prop38
140
0.0
102
RTVSPost2010PropOp38
 70
     1
102
RTVSPost2010Prop39
140
1.0
102
RTVSPost2010PropOp39
 70
     1
102
RTVSPost2010Prop40
 90
        0
102
RTVSPost2010PropOp40
 70
     1
102
RTVSPost2010Prop41ColorIndex
 90
       18
102
RTVSPost2010Prop41ColorRGB
 90
        0
102
RTVSPost2010PropOp41
 70
     1
102
RTVSPost2010Prop42
 90
       50
102
RTVSPost2010PropOp42
 70
     1
102
RTVSPost2010Prop43
 90
        3
102
RTVSPost2010PropOp43
 70
     1
102
RTVSPost2010Prop44ColorIndex
 90
        5
102
RTVSPost2010Prop44ColorRGB
 90
      255
102
RTVSPost2010PropOp44
 70
     1
102
RTVSPost2010Prop45
280
     0
102
RTVSPost2010PropOp45
 70
     1
102
RTVSPost2010Prop46
 90
       50
102
RTVSPost2010PropOp46
 70
     1
102
RTVSPost2010Prop47
 90
       50
102
RTVSPost2010PropOp47
 70
     1
102
RTVSPost2010Prop48
 90
       50
102
RTVSPost2010PropOp48
 70
     1
102
RTVSPost2010Prop49
280
     0
102
RTVSPost2010PropOp49
 70
     1
102
RTVSPost2010Prop50
 90
       50
102
RTVSPost2010PropOp50
 70
     1
102
RTVSPost2010Prop51ColorIndex
 90
      256
102
RTVSPost2010Prop51ColorRGB
 90
-16777216
102
RTVSPost2010PropOp51
 70
     0
102
RTVSPost2010Prop52
140
1.0
102
RTVSPost2010PropOp52
 70
     0
102
RTVSPost2010Prop53
 90
        2
102
RTVSPost2010PropOp53
 70
     1
102
RTVSPost2010Prop54
  1
strokes_ogs.tif
102
RTVSPost2010PropOp54
 70
     1
102
RTVSPost2010Prop55
280
     0
102
RTVSPost2010PropOp55
 70
     1
102
RTVSPost2010Prop56
140
1.0
102
RTVSPost2010PropOp56
 70
     1
102
RTVSPost2010Prop57
140
1.0
102
RTVSPost2010PropOp57
 70
     1
102
RTVSPropertyOp0
 70
     1
102
RTVSPropertyOp1
 70
     1
102
RTVSPropertyOp2
 70
     1
102
RTVSPropertyOp3
 70
     1
102
RTVSPropertyOp4
 70
     1
102
RTVSPropertyOp5
 70
     1
102
RTVSPropertyOp6
 70
     1
102
RTVSPropertyOp7
 70
     1
102
RTVSPropertyOp8
 70
     1
102
RTVSPropertyOp9
 70
     1
102
RTVSPropertyOp10
 70
     1
102
RTVSPropertyOp11
 70
     1
102
RTVSPropertyOp12
 70
     1
102
RTVSPropertyOp13
 70
     1
102
RTVSPropertyOp14
 70
     1
102
RTVSPropertyOp15
 70
     1
102
RTVSPropertyOp16
 70
     1
102
RTVSPropertyOp17
 70
     1
102
RTVSPropertyOp18
 70
     1
102
RTVSPropertyOp19
 70
     1
102
RTVSPropertyOp20
 70
     1
102
RTVSPropertyOp21
 70
     1
102
RTVSPropertyOp22
 70
     1
102
RTVSPropertyOp23
 70
     1
102
RTVSPropertyOp24
 70
     1
102
RTVSPropertyOp25
 70
     1
102
RTVSPropertyOp26
 70
     1
102
RTVSPropertyOp27
 70
     1
102
RTVSPropertyOp28
 70
     1
102
RTVSPropertyOp29
 70
     1
102
RTVSPropertyOp30
 70
     1
102
RTVSPropertyOp31
 70
     1
102
RTVSPropertyOp32
 70
     1
102
RTVSPropertyOp33
 70
     1
102
RTVSPropertyOp34
 70
     1
102
RTVSPropertyOp35
 70
     1
102
RTVSPropertyOp36
 70
     1
102
RTVSPropertyOp37
 70
     1
102
RTVSPropertyOp38
 70
     1
102
RTVSPropertyOp39
 70
     1
102
RTVSPropertyOp40
 70
     1
102
RTVSPropertyOp41
 70
     1
102
RTVSPropertyOp42
 70
     1
102
RTVSPropertyOp43
 70
     1
102
RTVSPropertyOp44
 70
     1
102
RTVSPropertyOp45
 70
     1
102
RTVSPropertyOp46
 70
     1
102
RTVSPropertyOp47
 70
     1
102
RTVSPropertyOp48
 70
     1
102
RTVSPropertyOp49
 70
     1
102
RTVSPropertyOp50
 70
     1
102
RTVSPropertyOp51
 70
     0
102
RTVSPropertyOp52
 70
     0
102
RTVSPropertyOp53
 70
     1
102
RTVSPropertyOp54
 70
     1
102
RTVSPropertyOp55
 70
     1
102
RTVSPropertyOp56
 70
     1
102
RTVSPropertyOp57
 70
     1
102
RTVSPropertyOp58
 70
     1
102
RTVSPropertyOp59
 70
     1
102
RTVSPropertyOp60
 70
     1
102
RTVSPropertyOp61
 70
     1
102
RTVSPropertyOp62
 70
     1
  0
XRECORD
  5
3C2BA
102
{ACAD_REACTORS
330
3C2B9
102
}
330
3C2B9
100
AcDbXrecord
280
     1
102
RTVSPost2010Prop28
280
     0
102
RTVSPost2010PropOp28
 70
     1
102
RTVSPost2010Prop29
280
     1
102
RTVSPost2010PropOp29
 70
     1
102
RTVSPost2010Prop30
280
     1
102
RTVSPost2010PropOp30
 70
     1
102
RTVSPost2010Prop31
280
     0
102
RTVSPost2010PropOp31
 70
     1
102
RTVSPost2010Prop32
280
     0
102
RTVSPost2010PropOp32
 70
     1
102
RTVSPost2010Prop33
280
     0
102
RTVSPost2010PropOp33
 70
     1
102
RTVSPost2010Prop34
280
     0
102
RTVSPost2010PropOp34
 70
     1
102
RTVSPost2010Prop35
280
     0
102
RTVSPost2010PropOp35
 70
     1
102
RTVSPost2010Prop36
280
     0
102
RTVSPost2010PropOp36
 70
     1
102
RTVSPost2010Prop37
 90
       50
102
RTVSPost2010PropOp37
 70
     1
102
RTVSPost2010Prop38
140
0.0
102
RTVSPost2010PropOp38
 70
     1
102
RTVSPost2010Prop39
140
1.0
102
RTVSPost2010PropOp39
 70
     1
102
RTVSPost2010Prop40
 90
        0
102
RTVSPost2010PropOp40
 70
     1
102
RTVSPost2010Prop41ColorIndex
 90
       18
102
RTVSPost2010Prop41ColorRGB
 90
        0
102
RTVSPost2010PropOp41
 70
     1
102
RTVSPost2010Prop42
 90
       50
102
RTVSPost2010PropOp42
 70
     1
102
RTVSPost2010Prop43
 90
        3
102
RTVSPost2010PropOp43
 70
     1
102
RTVSPost2010Prop44ColorIndex
 90
        5
102
RTVSPost2010Prop44ColorRGB
 90
      255
102
RTVSPost2010PropOp44
 70
     1
102
RTVSPost2010Prop45
280
     0
102
RTVSPost2010PropOp45
 70
     1
102
RTVSPost2010Prop46
 90
       50
102
RTVSPost2010PropOp46
 70
     1
102
RTVSPost2010Prop47
 90
       50
102
RTVSPost2010PropOp47
 70
     1
102
RTVSPost2010Prop48
 90
       50
102
RTVSPost2010PropOp48
 70
     1
102
RTVSPost2010Prop49
280
     0
102
RTVSPost2010PropOp49
 70
     1
102
RTVSPost2010Prop50
 90
       50
102
RTVSPost2010PropOp50
 70
     1
102
RTVSPost2010Prop51ColorIndex
 90
      256
102
RTVSPost2010Prop51ColorRGB
 90
-16777216
102
RTVSPost2010PropOp51
 70
     0
102
RTVSPost2010Prop52
140
1.0
102
RTVSPost2010PropOp52
 70
     0
102
RTVSPost2010Prop53
 90
        2
102
RTVSPost2010PropOp53
 70
     1
102
RTVSPost2010Prop54
  1
strokes_ogs.tif
102
RTVSPost2010PropOp54
 70
     1
102
RTVSPost2010Prop55
280
     0
102
RTVSPost2010PropOp55
 70
     1
102
RTVSPost2010Prop56
140
1.0
102
RTVSPost2010PropOp56
 70
     1
102
RTVSPost2010Prop57
140
1.0
102
RTVSPost2010PropOp57
 70
     1
102
RTVSPropertyOp0
 70
     1
102
RTVSPropertyOp1
 70
     1
102
RTVSPropertyOp2
 70
     1
102
RTVSPropertyOp3
 70
     1
102
RTVSPropertyOp4
 70
     1
102
RTVSPropertyOp5
 70
     1
102
RTVSPropertyOp6
 70
     1
102
RTVSPropertyOp7
 70
     1
102
RTVSPropertyOp8
 70
     1
102
RTVSPropertyOp9
 70
     1
102
RTVSPropertyOp10
 70
     1
102
RTVSPropertyOp11
 70
     1
102
RTVSPropertyOp12
 70
     1
102
RTVSPropertyOp13
 70
     1
102
RTVSPropertyOp14
 70
     1
102
RTVSPropertyOp15
 70
     1
102
RTVSPropertyOp16
 70
     1
102
RTVSPropertyOp17
 70
     1
102
RTVSPropertyOp18
 70
     1
102
RTVSPropertyOp19
 70
     1
102
RTVSPropertyOp20
 70
     1
102
RTVSPropertyOp21
 70
     1
102
RTVSPropertyOp22
 70
     1
102
RTVSPropertyOp23
 70
     1
102
RTVSPropertyOp24
 70
     1
102
RTVSPropertyOp25
 70
     1
102
RTVSPropertyOp26
 70
     1
102
RTVSPropertyOp27
 70
     1
102
RTVSPropertyOp28
 70
     1
102
RTVSPropertyOp29
 70
     1
102
RTVSPropertyOp30
 70
     1
102
RTVSPropertyOp31
 70
     1
102
RTVSPropertyOp32
 70
     1
102
RTVSPropertyOp33
 70
     1
102
RTVSPropertyOp34
 70
     1
102
RTVSPropertyOp35
 70
     1
102
RTVSPropertyOp36
 70
     1
102
RTVSPropertyOp37
 70
     1
102
RTVSPropertyOp38
 70
     1
102
RTVSPropertyOp39
 70
     1
102
RTVSPropertyOp40
 70
     1
102
RTVSPropertyOp41
 70
     1
102
RTVSPropertyOp42
 70
     1
102
RTVSPropertyOp43
 70
     1
102
RTVSPropertyOp44
 70
     1
102
RTVSPropertyOp45
 70
     1
102
RTVSPropertyOp46
 70
     1
102
RTVSPropertyOp47
 70
     1
102
RTVSPropertyOp48
 70
     1
102
RTVSPropertyOp49
 70
     1
102
RTVSPropertyOp50
 70
     1
102
RTVSPropertyOp51
 70
     0
102
RTVSPropertyOp52
 70
     0
102
RTVSPropertyOp53
 70
     1
102
RTVSPropertyOp54
 70
     1
102
RTVSPropertyOp55
 70
     1
102
RTVSPropertyOp56
 70
     1
102
RTVSPropertyOp57
 70
     1
102
RTVSPropertyOp58
 70
     1
102
RTVSPropertyOp59
 70
     1
102
RTVSPropertyOp60
 70
     1
102
RTVSPropertyOp61
 70
     1
102
RTVSPropertyOp62
 70
     1
  0
XRECORD
  5
3C2C8
102
{ACAD_REACTORS
330
3C2C7
102
}
330
3C2C7
100
AcDbXrecord
280
     1
102
RTVSPost2010Prop28
280
     0
102
RTVSPost2010PropOp28
 70
     1
102
RTVSPost2010Prop29
280
     1
102
RTVSPost2010PropOp29
 70
     1
102
RTVSPost2010Prop30
280
     1
102
RTVSPost2010PropOp30
 70
     1
102
RTVSPost2010Prop31
280
     0
102
RTVSPost2010PropOp31
 70
     1
102
RTVSPost2010Prop32
280
     0
102
RTVSPost2010PropOp32
 70
     1
102
RTVSPost2010Prop33
280
     0
102
RTVSPost2010PropOp33
 70
     1
102
RTVSPost2010Prop34
280
     0
102
RTVSPost2010PropOp34
 70
     1
102
RTVSPost2010Prop35
280
     0
102
RTVSPost2010PropOp35
 70
     1
102
RTVSPost2010Prop36
280
     0
102
RTVSPost2010PropOp36
 70
     1
102
RTVSPost2010Prop37
 90
       50
102
RTVSPost2010PropOp37
 70
     1
102
RTVSPost2010Prop38
140
0.0
102
RTVSPost2010PropOp38
 70
     1
102
RTVSPost2010Prop39
140
1.0
102
RTVSPost2010PropOp39
 70
     1
102
RTVSPost2010Prop40
 90
        0
102
RTVSPost2010PropOp40
 70
     1
102
RTVSPost2010Prop41ColorIndex
 90
       18
102
RTVSPost2010Prop41ColorRGB
 90
        0
102
RTVSPost2010PropOp41
 70
     1
102
RTVSPost2010Prop42
 90
       50
102
RTVSPost2010PropOp42
 70
     1
102
RTVSPost2010Prop43
 90
        3
102
RTVSPost2010PropOp43
 70
     1
102
RTVSPost2010Prop44ColorIndex
 90
        5
102
RTVSPost2010Prop44ColorRGB
 90
      255
102
RTVSPost2010PropOp44
 70
     1
102
RTVSPost2010Prop45
280
     0
102
RTVSPost2010PropOp45
 70
     1
102
RTVSPost2010Prop46
 90
       50
102
RTVSPost2010PropOp46
 70
     1
102
RTVSPost2010Prop47
 90
       50
102
RTVSPost2010PropOp47
 70
     1
102
RTVSPost2010Prop48
 90
       50
102
RTVSPost2010PropOp48
 70
     1
102
RTVSPost2010Prop49
280
     0
102
RTVSPost2010PropOp49
 70
     1
102
RTVSPost2010Prop50
 90
       50
102
RTVSPost2010PropOp50
 70
     1
102
RTVSPost2010Prop51ColorIndex
 90
      256
102
RTVSPost2010Prop51ColorRGB
 90
-16777216
102
RTVSPost2010PropOp51
 70
     0
102
RTVSPost2010Prop52
140
1.0
102
RTVSPost2010PropOp52
 70
     0
102
RTVSPost2010Prop53
 90
        2
102
RTVSPost2010PropOp53
 70
     1
102
RTVSPost2010Prop54
  1
strokes_ogs.tif
102
RTVSPost2010PropOp54
 70
     1
102
RTVSPost2010Prop55
280
     0
102
RTVSPost2010PropOp55
 70
     1
102
RTVSPost2010Prop56
140
1.0
102
RTVSPost2010PropOp56
 70
     1
102
RTVSPost2010Prop57
140
1.0
102
RTVSPost2010PropOp57
 70
     1
102
RTVSPropertyOp0
 70
     1
102
RTVSPropertyOp1
 70
     1
102
RTVSPropertyOp2
 70
     1
102
RTVSPropertyOp3
 70
     1
102
RTVSPropertyOp4
 70
     1
102
RTVSPropertyOp5
 70
     1
102
RTVSPropertyOp6
 70
     1
102
RTVSPropertyOp7
 70
     1
102
RTVSPropertyOp8
 70
     1
102
RTVSPropertyOp9
 70
     1
102
RTVSPropertyOp10
 70
     1
102
RTVSPropertyOp11
 70
     1
102
RTVSPropertyOp12
 70
     1
102
RTVSPropertyOp13
 70
     1
102
RTVSPropertyOp14
 70
     1
102
RTVSPropertyOp15
 70
     1
102
RTVSPropertyOp16
 70
     1
102
RTVSPropertyOp17
 70
     1
102
RTVSPropertyOp18
 70
     1
102
RTVSPropertyOp19
 70
     1
102
RTVSPropertyOp20
 70
     1
102
RTVSPropertyOp21
 70
     1
102
RTVSPropertyOp22
 70
     1
102
RTVSPropertyOp23
 70
     1
102
RTVSPropertyOp24
 70
     1
102
RTVSPropertyOp25
 70
     1
102
RTVSPropertyOp26
 70
     1
102
RTVSPropertyOp27
 70
     1
102
RTVSPropertyOp28
 70
     1
102
RTVSPropertyOp29
 70
     1
102
RTVSPropertyOp30
 70
     1
102
RTVSPropertyOp31
 70
     1
102
RTVSPropertyOp32
 70
     1
102
RTVSPropertyOp33
 70
     1
102
RTVSPropertyOp34
 70
     1
102
RTVSPropertyOp35
 70
     1
102
RTVSPropertyOp36
 70
     1
102
RTVSPropertyOp37
 70
     1
102
RTVSPropertyOp38
 70
     1
102
RTVSPropertyOp39
 70
     1
102
RTVSPropertyOp40
 70
     1
102
RTVSPropertyOp41
 70
     1
102
RTVSPropertyOp42
 70
     1
102
RTVSPropertyOp43
 70
     1
102
RTVSPropertyOp44
 70
     1
102
RTVSPropertyOp45
 70
     1
102
RTVSPropertyOp46
 70
     1
102
RTVSPropertyOp47
 70
     1
102
RTVSPropertyOp48
 70
     1
102
RTVSPropertyOp49
 70
     1
102
RTVSPropertyOp50
 70
     1
102
RTVSPropertyOp51
 70
     0
102
RTVSPropertyOp52
 70
     0
102
RTVSPropertyOp53
 70
     1
102
RTVSPropertyOp54
 70
     1
102
RTVSPropertyOp55
 70
     1
102
RTVSPropertyOp56
 70
     1
102
RTVSPropertyOp57
 70
     1
102
RTVSPropertyOp58
 70
     1
102
RTVSPropertyOp59
 70
     1
102
RTVSPropertyOp60
 70
     1
102
RTVSPropertyOp61
 70
     1
102
RTVSPropertyOp62
 70
     1
  0
XRECORD
  5
3C2D0
102
{ACAD_REACTORS
330
3C2CF
102
}
330
3C2CF
100
AcDbXrecord
280
     1
102
RTVSPost2010Prop28
280
     0
102
RTVSPost2010PropOp28
 70
     1
102
RTVSPost2010Prop29
280
     1
102
RTVSPost2010PropOp29
 70
     1
102
RTVSPost2010Prop30
280
     1
102
RTVSPost2010PropOp30
 70
     1
102
RTVSPost2010Prop31
280
     0
102
RTVSPost2010PropOp31
 70
     1
102
RTVSPost2010Prop32
280
     0
102
RTVSPost2010PropOp32
 70
     1
102
RTVSPost2010Prop33
280
     0
102
RTVSPost2010PropOp33
 70
     1
102
RTVSPost2010Prop34
280
     0
102
RTVSPost2010PropOp34
 70
     1
102
RTVSPost2010Prop35
280
     0
102
RTVSPost2010PropOp35
 70
     1
102
RTVSPost2010Prop36
280
     0
102
RTVSPost2010PropOp36
 70
     1
102
RTVSPost2010Prop37
 90
       50
102
RTVSPost2010PropOp37
 70
     1
102
RTVSPost2010Prop38
140
0.0
102
RTVSPost2010PropOp38
 70
     1
102
RTVSPost2010Prop39
140
1.0
102
RTVSPost2010PropOp39
 70
     1
102
RTVSPost2010Prop40
 90
        0
102
RTVSPost2010PropOp40
 70
     1
102
RTVSPost2010Prop41ColorIndex
 90
       18
102
RTVSPost2010Prop41ColorRGB
 90
        0
102
RTVSPost2010PropOp41
 70
     1
102
RTVSPost2010Prop42
 90
       50
102
RTVSPost2010PropOp42
 70
     1
102
RTVSPost2010Prop43
 90
        3
102
RTVSPost2010PropOp43
 70
     1
102
RTVSPost2010Prop44ColorIndex
 90
        5
102
RTVSPost2010Prop44ColorRGB
 90
      255
102
RTVSPost2010PropOp44
 70
     1
102
RTVSPost2010Prop45
280
     0
102
RTVSPost2010PropOp45
 70
     1
102
RTVSPost2010Prop46
 90
       50
102
RTVSPost2010PropOp46
 70
     1
102
RTVSPost2010Prop47
 90
       50
102
RTVSPost2010PropOp47
 70
     1
102
RTVSPost2010Prop48
 90
       50
102
RTVSPost2010PropOp48
 70
     1
102
RTVSPost2010Prop49
280
     0
102
RTVSPost2010PropOp49
 70
     1
102
RTVSPost2010Prop50
 90
       50
102
RTVSPost2010PropOp50
 70
     1
102
RTVSPost2010Prop51ColorIndex
 90
      256
102
RTVSPost2010Prop51ColorRGB
 90
-16777216
102
RTVSPost2010PropOp51
 70
     0
102
RTVSPost2010Prop52
140
1.0
102
RTVSPost2010PropOp52
 70
     0
102
RTVSPost2010Prop53
 90
        2
102
RTVSPost2010PropOp53
 70
     1
102
RTVSPost2010Prop54
  1
strokes_ogs.tif
102
RTVSPost2010PropOp54
 70
     1
102
RTVSPost2010Prop55
280
     0
102
RTVSPost2010PropOp55
 70
     1
102
RTVSPost2010Prop56
140
1.0
102
RTVSPost2010PropOp56
 70
     1
102
RTVSPost2010Prop57
140
1.0
102
RTVSPost2010PropOp57
 70
     1
102
RTVSPropertyOp0
 70
     1
102
RTVSPropertyOp1
 70
     1
102
RTVSPropertyOp2
 70
     1
102
RTVSPropertyOp3
 70
     1
102
RTVSPropertyOp4
 70
     1
102
RTVSPropertyOp5
 70
     1
102
RTVSPropertyOp6
 70
     1
102
RTVSPropertyOp7
 70
     1
102
RTVSPropertyOp8
 70
     1
102
RTVSPropertyOp9
 70
     1
102
RTVSPropertyOp10
 70
     1
102
RTVSPropertyOp11
 70
     1
102
RTVSPropertyOp12
 70
     1
102
RTVSPropertyOp13
 70
     1
102
RTVSPropertyOp14
 70
     1
102
RTVSPropertyOp15
 70
     1
102
RTVSPropertyOp16
 70
     1
102
RTVSPropertyOp17
 70
     1
102
RTVSPropertyOp18
 70
     1
102
RTVSPropertyOp19
 70
     1
102
RTVSPropertyOp20
 70
     1
102
RTVSPropertyOp21
 70
     1
102
RTVSPropertyOp22
 70
     1
102
RTVSPropertyOp23
 70
     1
102
RTVSPropertyOp24
 70
     1
102
RTVSPropertyOp25
 70
     1
102
RTVSPropertyOp26
 70
     1
102
RTVSPropertyOp27
 70
     1
102
RTVSPropertyOp28
 70
     1
102
RTVSPropertyOp29
 70
     1
102
RTVSPropertyOp30
 70
     1
102
RTVSPropertyOp31
 70
     1
102
RTVSPropertyOp32
 70
     1
102
RTVSPropertyOp33
 70
     1
102
RTVSPropertyOp34
 70
     1
102
RTVSPropertyOp35
 70
     1
102
RTVSPropertyOp36
 70
     1
102
RTVSPropertyOp37
 70
     1
102
RTVSPropertyOp38
 70
     1
102
RTVSPropertyOp39
 70
     1
102
RTVSPropertyOp40
 70
     1
102
RTVSPropertyOp41
 70
     1
102
RTVSPropertyOp42
 70
     1
102
RTVSPropertyOp43
 70
     1
102
RTVSPropertyOp44
 70
     1
102
RTVSPropertyOp45
 70
     1
102
RTVSPropertyOp46
 70
     1
102
RTVSPropertyOp47
 70
     1
102
RTVSPropertyOp48
 70
     1
102
RTVSPropertyOp49
 70
     1
102
RTVSPropertyOp50
 70
     1
102
RTVSPropertyOp51
 70
     0
102
RTVSPropertyOp52
 70
     0
102
RTVSPropertyOp53
 70
     1
102
RTVSPropertyOp54
 70
     1
102
RTVSPropertyOp55
 70
     1
102
RTVSPropertyOp56
 70
     1
102
RTVSPropertyOp57
 70
     1
102
RTVSPropertyOp58
 70
     1
102
RTVSPropertyOp59
 70
     1
102
RTVSPropertyOp60
 70
     1
102
RTVSPropertyOp61
 70
     1
102
RTVSPropertyOp62
 70
     1
  0
ENDSEC
  0
EOF
