0
SECTION
2
HEADER
9
$ACADVER
1
AC1015
9
$DWGCODEPAGE
3
ANSI_1252
9
$HANDSEED
5
2bd
9
$ANGBASE
50
0
9
$ANGDIR
70
0
9
$ATTMODE
70
1
9
$AUNITS
70
0
9
$AUPREC
70
0
9
$CECOLOR
62
256
9
$CELTSCALE
40
1
9
$CELTYPE
6
ByLayer
9
$CELWEIGHT
370
18
9
$CLAYER
8
0
9
$CMLJUST
70
0
9
$CMLSCALE
40
1
9
$CMLSTYLE
2
Standard
9
$DIMSTYLE
2
Standard
9
$TEXTSIZE
40
0.2
9
$TEXTSTYLE
7
Standard
9
$LUNITS
70
2
9
$LUPREC
70
4
9
$EXTNAMES
290
1
9
$INSUNITS
70
4
9
$LTSCALE
40
1
9
$LWDISPLAY
290
1
9
$PDMODE
70
0
9
$PDSIZE
40
0
9
$PLINEGEN
70
0
0
ENDSEC
0
SECTION
2
CLASSES
0
CLASS
1
RASTERVARIABLES
2
AcDbRasterVariables
3
ISM
90
0
280
0
281
0
0
ENDSEC
0
SECTION
2
TABLES
0
TABLE
2
VPORT
5
2b3
100
AcDbSymbolTable
0
VPORT
5
1
100
AcDbSymbolTableRecord
100
AcDbViewportTableRecord
2
*Active
70
0
10
0
20
0
11
1
21
1
12
-1
22
1
13
0
23
0
14
0.5
24
0.5
15
10
25
10
16
0
26
0
36
1
17
0
27
0
37
0
0
ENDTAB
0
TABLE
2
LTYPE
5
2b4
100
AcDbSymbolTable
0
LTYPE
5
14
100
AcDbSymbolTableRecord
100
AcDbLinetypeTableRecord
70
0
2
ByBlock
3

72
65
73
0
40
0
0
LTYPE
5
15
100
AcDbSymbolTableRecord
100
AcDbLinetypeTableRecord
70
0
2
ByLayer
3

72
65
73
0
40
0
0
LTYPE
5
16
100
AcDbSymbolTableRecord
100
AcDbLinetypeTableRecord
70
0
2
CONTINUOUS
3
Solid line
72
65
73
0
40
0
0
LTYPE
5
6A
100
AcDbSymbolTableRecord
100
AcDbLinetypeTableRecord
70
0
2
CENTER
3
____ _ ____ _ ____ _ ____
72
65
73
4
40
47.5
49
22
74
0
49
-8.5
74
0
49
8.5
74
0
49
-8.5
74
0
0
LTYPE
5
6B
100
AcDbSymbolTableRecord
100
AcDbLinetypeTableRecord
70
0
2
DASHED
3
__ __ __ __ __ __ __ __ __
72
65
73
2
40
25.72
49
12.86
74
0
49
-12.86
74
0
0
ENDTAB
0
TABLE
2
LAYER
5
2b5
100
AcDbSymbolTable
0
LAYER
5
10
100
AcDbSymbolTableRecord
100
AcDbLayerTableRecord
2
0
70
0
62
7
6
CONTINUOUS
290
1
370
-3
390
0
0
LAYER
5
6D
100
AcDbSymbolTableRecord
100
AcDbLayerTableRecord
2
2
70
0
62
7
6
CONTINUOUS
290
1
370
-3
390
0
0
LAYER
5
6F
100
AcDbSymbolTableRecord
100
AcDbLayerTableRecord
2
80
70
0
62
-6
6
CONTINUOUS
290
1
370
-3
390
0
0
LAYER
5
71
100
AcDbSymbolTableRecord
100
AcDbLayerTableRecord
2
81
70
0
62
-3
6
CONTINUOUS
290
1
370
-3
390
0
0
LAYER
5
74
100
AcDbSymbolTableRecord
100
AcDbLayerTableRecord
2
1
70
0
62
4
6
CONTINUOUS
290
1
370
-3
390
0
0
LAYER
5
86
100
AcDbSymbolTableRecord
100
AcDbLayerTableRecord
2
4
70
0
62
-2
6
CENTER
290
1
370
-3
390
0
0
LAYER
5
29f
100
AcDbSymbolTableRecord
100
AcDbLayerTableRecord
2
SK4
70
0
62
2
6
CENTER
290
1
370
-3
390
0
0
LAYER
5
2a0
100
AcDbSymbolTableRecord
100
AcDbLayerTableRecord
2
SK1
70
0
62
4
6
CONTINUOUS
290
1
370
-3
390
0
0
LAYER
5
2a1
100
AcDbSymbolTableRecord
100
AcDbLayerTableRecord
2
SK6
70
0
62
5
6
CONTINUOUS
290
1
370
-3
390
0
0
LAYER
5
2a2
100
AcDbSymbolTableRecord
100
AcDbLayerTableRecord
2
SK2
70
0
62
7
6
CONTINUOUS
290
1
370
-3
390
0
0
ENDTAB
0
TABLE
2
STYLE
5
2b6
100
AcDbSymbolTable
0
STYLE
5
11
100
AcDbSymbolTableRecord
100
AcDbTextStyleTableRecord
2
Standard
3
txt
70
0
71
0
40
0
41
1
42
0
50
0
0
STYLE
5
1E7
100
AcDbSymbolTableRecord
100
AcDbTextStyleTableRecord
2
iso_b_vert
3
simplex.shx
70
0
71
0
40
0
41
1
42
0
50
0
0
STYLE
5
1E8
100
AcDbSymbolTableRecord
100
AcDbTextStyleTableRecord
2
DWGDirectTextStyle
3
simplex
70
0
71
0
40
0
41
1
42
0
50
0
0
ENDTAB
0
TABLE
2
DIMSTYLE
5
2b7
100
AcDbSymbolTable
100
AcDbDimStyleTable
0
DIMSTYLE
105
27
100
AcDbSymbolTableRecord
100
AcDbDimStyleTableRecord
2
Standard
70
0
3
<>
41
0.18
42
0.0625
44
0.18
140
0.18
147
0.09
73
0
74
0
77
1
271
2
275
0
278
52
280
0
340
11
0
ENDTAB
0
TABLE
2
VIEW
5
2b8
100
AcDbSymbolTable
0
ENDTAB
0
TABLE
2
UCS
5
2b9
100
AcDbSymbolTable
0
ENDTAB
0
TABLE
2
APPID
5
2ba
100
AcDbSymbolTable
0
APPID
5
12
100
AcDbSymbolTableRecord
100
AcDbRegAppTableRecord
2
ACAD
70
0
0
ENDTAB
0
TABLE
2
BLOCK_RECORD
5
2bb
100
AcDbSymbolTable
0
BLOCK_RECORD
5
1F
100
AcDbSymbolTableRecord
100
AcDbBlockTableRecord
2
*Model_Space
340
0
70
0
0
BLOCK_RECORD
5
1B
100
AcDbSymbolTableRecord
100
AcDbBlockTableRecord
2
*Paper_Space
340
0
70
0
0
BLOCK_RECORD
5
23
100
AcDbSymbolTableRecord
100
AcDbBlockTableRecord
2
*Paper_Space0
340
0
70
0
0
BLOCK_RECORD
5
1EA
100
AcDbSymbolTableRecord
100
AcDbBlockTableRecord
2
DimnDraft3D11
340
0
70
0
0
BLOCK_RECORD
5
1F8
100
AcDbSymbolTableRecord
100
AcDbBlockTableRecord
2
DimnDraft3D2
340
0
70
0
0
BLOCK_RECORD
5
207
100
AcDbSymbolTableRecord
100
AcDbBlockTableRecord
2
_CLOSED
340
0
70
0
0
BLOCK_RECORD
5
20E
100
AcDbSymbolTableRecord
100
AcDbBlockTableRecord
2
DimnDraft3D3
340
0
70
0
0
BLOCK_RECORD
5
21C
100
AcDbSymbolTableRecord
100
AcDbBlockTableRecord
2
DimnDraft3D4
340
0
70
0
0
BLOCK_RECORD
5
22A
100
AcDbSymbolTableRecord
100
AcDbBlockTableRecord
2
DimnDraft3D5
340
0
70
0
0
BLOCK_RECORD
5
238
100
AcDbSymbolTableRecord
100
AcDbBlockTableRecord
2
DimnDraft3D6
340
0
70
0
0
ENDTAB
0
ENDSEC
0
SECTION
2
BLOCKS
0
BLOCK
5
20
100
AcDbEntity
8
0
100
AcDbBlockBegin
2
*Model_Space
70
0
10
0
20
0
30
0
3
*Model_Space
0
ENDBLK
5
21
100
AcDbEntity
8
0
100
AcDbBlockEnd
0
BLOCK
5
1C
100
AcDbEntity
8
0
100
AcDbBlockBegin
2
*Paper_Space
70
0
10
0
20
0
30
0
3
*Paper_Space
0
ENDBLK
5
1D
100
AcDbEntity
8
0
100
AcDbBlockEnd
0
BLOCK
5
24
100
AcDbEntity
8
0
100
AcDbBlockBegin
2
*Paper_Space0
70
0
10
0
20
0
30
0
3
*Paper_Space0
0
ENDBLK
5
25
100
AcDbEntity
8
0
100
AcDbBlockEnd
0
BLOCK
5
1EB
100
AcDbEntity
8
0
100
AcDbBlockBegin
2
DimnDraft3D11
70
0
10
0
20
0
30
0
3
DimnDraft3D11
0
LINE
5
1ED
100
AcDbEntity
8
2
62
256
6
ByLayer
370
25
48
1
60
0
100
AcDbLine
10
42
20
-29
30
0
11
42
21
-44.25
31
0
39
0
210
0
220
0
230
1
0
LINE
5
1EE
100
AcDbEntity
8
2
62
256
6
ByLayer
370
25
48
1
60
0
100
AcDbLine
10
0
20
-22
30
0
11
0
21
-44.25
31
0
39
0
210
0
220
0
230
1
0
LINE
5
1EF
100
AcDbEntity
8
2
62
256
6
ByLayer
370
25
48
1
60
0
100
AcDbLine
10
42
20
-42.25
30
0
11
0
21
-42.25
31
0
39
0
210
0
220
0
230
1
0
LINE
5
1F0
100
AcDbEntity
8
2
62
256
6
ByLayer
370
25
48
1
60
0
100
AcDbLine
10
42
20
-42.25
30
0
11
38.825002
21
-42.667997
31
0
39
0
210
0
220
0
230
1
0
LINE
5
1F1
100
AcDbEntity
8
2
62
256
6
ByLayer
370
25
48
1
60
0
100
AcDbLine
10
42
20
-42.25
30
0
11
38.824998
21
-41.832003
31
0
39
0
210
0
220
0
230
1
0
LINE
5
1F2
100
AcDbEntity
8
2
62
256
6
ByLayer
370
25
48
1
60
0
100
AcDbLine
10
38.825002
20
-42.667997
30
0
11
38.824998
21
-41.832003
31
0
39
0
210
0
220
0
230
1
0
LINE
5
1F3
100
AcDbEntity
8
2
62
256
6
ByLayer
370
25
48
1
60
0
100
AcDbLine
10
0
20
-42.25
30
0
11
3.174998
21
-41.832003
31
0
39
0
210
0
220
0
230
1
0
LINE
5
1F4
100
AcDbEntity
8
2
62
256
6
ByLayer
370
25
48
1
60
0
100
AcDbLine
10
0
20
-42.25
30
0
11
3.175002
21
-42.667997
31
0
39
0
210
0
220
0
230
1
0
LINE
5
1F5
100
AcDbEntity
8
2
62
256
6
ByLayer
370
25
48
1
60
0
100
AcDbLine
10
3.174998
20
-41.832003
30
0
11
3.175002
21
-42.667997
31
0
39
0
210
0
220
0
230
1
0
MTEXT
5
1F6
100
AcDbEntity
8
2
62
256
6
ByLayer
370
18
48
1
60
0
100
AcDbMText
10
16.606579
20
-41.125
30
0
210
0
220
0
230
1
1
\W0.7640;42.0
40
4.5
41
0
44
1.084337
50
0
71
7
72
5
7
iso_b_vert
0
ENDBLK
5
1EC
100
AcDbEntity
8
0
100
AcDbBlockEnd
0
BLOCK
5
204
100
AcDbEntity
8
0
100
AcDbBlockBegin
2
DimnDraft3D2
70
0
10
0
20
0
30
0
3
DimnDraft3D2
0
MTEXT
5
1F9
100
AcDbEntity
8
SK2
62
256
6
ByLayer
370
18
48
1
60
0
100
AcDbMText
10
-32.875
20
-1.8
30
0
210
0
220
0
230
1
1
\W0.7361;40
40
4.5
41
0
44
1.084337
50
90
71
7
72
5
7
iso_b_vert
0
LINE
5
1FB
100
AcDbEntity
8
SK2
62
256
6
ByLayer
370
13
48
1
60
0
100
AcDbLine
10
-2
20
-20
30
0
11
-33.75
21
-20
31
0
39
0
210
0
220
0
230
1
0
LINE
5
1FC
100
AcDbEntity
8
SK2
62
256
6
ByLayer
370
13
48
1
60
0
100
AcDbLine
10
-2
20
20
30
0
11
-33.75
21
20
31
0
39
0
210
0
220
0
230
1
0
LINE
5
1FD
100
AcDbEntity
8
SK2
62
256
6
ByLayer
370
13
48
1
60
0
100
AcDbLine
10
-31.75
20
-20
30
0
11
-31.75
21
20
31
0
39
0
210
0
220
0
230
1
0
LINE
5
1FE
100
AcDbEntity
8
SK2
62
256
6
ByLayer
370
13
48
1
60
0
100
AcDbLine
10
-31.75
20
-20
30
0
11
-32.167997
21
-16.825002
31
0
39
0
210
0
220
0
230
1
0
LINE
5
1FF
100
AcDbEntity
8
SK2
62
256
6
ByLayer
370
13
48
1
60
0
100
AcDbLine
10
-31.75
20
-20
30
0
11
-31.332003
21
-16.824998
31
0
39
0
210
0
220
0
230
1
0
LINE
5
200
100
AcDbEntity
8
SK2
62
256
6
ByLayer
370
13
48
1
60
0
100
AcDbLine
10
-32.167997
20
-16.825002
30
0
11
-31.332003
21
-16.824998
31
0
39
0
210
0
220
0
230
1
0
LINE
5
201
100
AcDbEntity
8
SK2
62
256
6
ByLayer
370
13
48
1
60
0
100
AcDbLine
10
-31.75
20
20
30
0
11
-31.332003
21
16.825002
31
0
39
0
210
0
220
0
230
1
0
LINE
5
202
100
AcDbEntity
8
SK2
62
256
6
ByLayer
370
13
48
1
60
0
100
AcDbLine
10
-31.75
20
20
30
0
11
-32.167997
21
16.824998
31
0
39
0
210
0
220
0
230
1
0
LINE
5
203
100
AcDbEntity
8
SK2
62
256
6
ByLayer
370
13
48
1
60
0
100
AcDbLine
10
-31.332003
20
16.825002
30
0
11
-32.167997
21
16.824998
31
0
39
0
210
0
220
0
230
1
0
ENDBLK
5
205
100
AcDbEntity
8
0
100
AcDbBlockEnd
0
BLOCK
5
208
100
AcDbEntity
8
0
100
AcDbBlockBegin
2
_CLOSED
70
0
10
0
20
0
30
0
3
_CLOSED
0
LINE
5
20A
100
AcDbEntity
8
0
62
256
6
ByLayer
370
-2
48
1
60
0
100
AcDbLine
10
-1
20
0.166667
30
0
11
0
21
0
31
0
39
0
210
0
220
0
230
1
0
LINE
5
20B
100
AcDbEntity
8
0
62
256
6
ByLayer
370
-2
48
1
60
0
100
AcDbLine
10
0
20
0
30
0
11
-1
21
-0.166667
31
0
39
0
210
0
220
0
230
1
0
LINE
5
20C
100
AcDbEntity
8
0
62
256
6
ByLayer
370
-2
48
1
60
0
100
AcDbLine
10
-1
20
0.166667
30
0
11
-1
21
-0.166667
31
0
39
0
210
0
220
0
230
1
0
LINE
5
20D
100
AcDbEntity
8
0
62
256
6
ByLayer
370
-2
48
1
60
0
100
AcDbLine
10
0
20
0
30
0
11
-1
21
0
31
0
39
0
210
0
220
0
230
1
0
ENDBLK
5
209
100
AcDbEntity
8
0
100
AcDbBlockEnd
0
BLOCK
5
219
100
AcDbEntity
8
0
100
AcDbBlockBegin
2
DimnDraft3D3
70
0
10
0
20
0
30
0
3
DimnDraft3D3
0
MTEXT
5
20F
100
AcDbEntity
8
2
62
256
6
ByLayer
370
18
48
1
60
0
100
AcDbMText
10
86.125
20
-12.932733
30
0
210
0
220
0
230
1
1
\W0.6562;18.7
40
4.5
41
0
44
1.084337
50
90
71
7
72
5
7
iso_b_vert
0
LINE
5
210
100
AcDbEntity
8
2
62
256
6
ByLayer
370
13
48
1
60
0
100
AcDbLine
10
44
20
0
30
0
11
89.25
21
0
31
0
39
0
210
0
220
0
230
1
0
LINE
5
211
100
AcDbEntity
8
2
62
256
6
ByLayer
370
13
48
1
60
0
100
AcDbLine
10
52.322692
20
-18.677308
30
0
11
89.25
21
-18.677308
31
0
39
0
210
0
220
0
230
1
0
LINE
5
212
100
AcDbEntity
8
2
62
256
6
ByLayer
370
13
48
1
60
0
100
AcDbLine
10
87.25
20
11.25
30
0
11
87.25
21
-29.927308
31
0
39
0
210
0
220
0
230
1
0
LINE
5
213
100
AcDbEntity
8
2
62
256
6
ByLayer
370
13
48
1
60
0
100
AcDbLine
10
87.25
20
0
30
0
11
86.832003
21
3.174998
31
0
39
0
210
0
220
0
230
1
0
LINE
5
214
100
AcDbEntity
8
2
62
256
6
ByLayer
370
13
48
1
60
0
100
AcDbLine
10
87.25
20
0
30
0
11
87.667997
21
3.175002
31
0
39
0
210
0
220
0
230
1
0
LINE
5
215
100
AcDbEntity
8
2
62
256
6
ByLayer
370
13
48
1
60
0
100
AcDbLine
10
86.832003
20
3.174998
30
0
11
87.667997
21
3.175002
31
0
39
0
210
0
220
0
230
1
0
LINE
5
216
100
AcDbEntity
8
2
62
256
6
ByLayer
370
13
48
1
60
0
100
AcDbLine
10
87.25
20
-18.677308
30
0
11
87.667997
21
-21.852306
31
0
39
0
210
0
220
0
230
1
0
LINE
5
217
100
AcDbEntity
8
2
62
256
6
ByLayer
370
13
48
1
60
0
100
AcDbLine
10
87.25
20
-18.677308
30
0
11
86.832003
21
-21.852309
31
0
39
0
210
0
220
0
230
1
0
LINE
5
218
100
AcDbEntity
8
2
62
256
6
ByLayer
370
13
48
1
60
0
100
AcDbLine
10
87.667997
20
-21.852306
30
0
11
86.832003
21
-21.852309
31
0
39
0
210
0
220
0
230
1
0
ENDBLK
5
21A
100
AcDbEntity
8
0
100
AcDbBlockEnd
0
BLOCK
5
227
100
AcDbEntity
8
0
100
AcDbBlockBegin
2
DimnDraft3D4
70
0
10
0
20
0
30
0
3
DimnDraft3D4
0
MTEXT
5
21D
100
AcDbEntity
8
2
62
256
6
ByLayer
370
18
48
1
60
0
100
AcDbMText
10
96.125
20
-17.656579
30
0
210
0
220
0
230
1
1
\W0.7346;27.0
40
4.5
41
0
44
1.084337
50
90
71
7
72
5
7
iso_b_vert
0
LINE
5
21E
100
AcDbEntity
8
2
62
256
6
ByLayer
370
13
48
1
60
0
100
AcDbLine
10
44
20
0
30
0
11
99.25
21
0
31
0
39
0
210
0
220
0
230
1
0
LINE
5
21F
100
AcDbEntity
8
2
62
256
6
ByLayer
370
13
48
1
60
0
100
AcDbLine
10
44
20
-27
30
0
11
99.25
21
-27
31
0
39
0
210
0
220
0
230
1
0
LINE
5
220
100
AcDbEntity
8
2
62
256
6
ByLayer
370
13
48
1
60
0
100
AcDbLine
10
97.25
20
0
30
0
11
97.25
21
-27
31
0
39
0
210
0
220
0
230
1
0
LINE
5
221
100
AcDbEntity
8
2
62
256
6
ByLayer
370
13
48
1
60
0
100
AcDbLine
10
97.25
20
0
30
0
11
97.667997
21
-3.174998
31
0
39
0
210
0
220
0
230
1
0
LINE
5
222
100
AcDbEntity
8
2
62
256
6
ByLayer
370
13
48
1
60
0
100
AcDbLine
10
97.25
20
0
30
0
11
96.832003
21
-3.175002
31
0
39
0
210
0
220
0
230
1
0
LINE
5
223
100
AcDbEntity
8
2
62
256
6
ByLayer
370
13
48
1
60
0
100
AcDbLine
10
97.667997
20
-3.174998
30
0
11
96.832003
21
-3.175002
31
0
39
0
210
0
220
0
230
1
0
LINE
5
224
100
AcDbEntity
8
2
62
256
6
ByLayer
370
13
48
1
60
0
100
AcDbLine
10
97.25
20
-27
30
0
11
96.832003
21
-23.825002
31
0
39
0
210
0
220
0
230
1
0
LINE
5
225
100
AcDbEntity
8
2
62
256
6
ByLayer
370
13
48
1
60
0
100
AcDbLine
10
97.25
20
-27
30
0
11
97.667997
21
-23.824998
31
0
39
0
210
0
220
0
230
1
0
LINE
5
226
100
AcDbEntity
8
2
62
256
6
ByLayer
370
13
48
1
60
0
100
AcDbLine
10
96.832003
20
-23.825002
30
0
11
97.667997
21
-23.824998
31
0
39
0
210
0
220
0
230
1
0
ENDBLK
5
228
100
AcDbEntity
8
0
100
AcDbBlockEnd
0
BLOCK
5
235
100
AcDbEntity
8
0
100
AcDbBlockBegin
2
DimnDraft3D5
70
0
10
0
20
0
30
0
3
DimnDraft3D5
0
MTEXT
5
22B
100
AcDbEntity
8
2
62
256
6
ByLayer
370
18
48
1
60
0
100
AcDbMText
10
21.004767
20
-51.125
30
0
210
0
220
0
230
1
1
\W0.7346;50.3
40
4.5
41
0
44
1.084337
50
0
71
7
72
5
7
iso_b_vert
0
LINE
5
22C
100
AcDbEntity
8
2
62
256
6
ByLayer
370
13
48
1
60
0
100
AcDbLine
10
0
20
-22
30
0
11
0
21
-54.25
31
0
39
0
210
0
220
0
230
1
0
LINE
5
22D
100
AcDbEntity
8
2
62
256
6
ByLayer
370
13
48
1
60
0
100
AcDbLine
10
50.322692
20
-20.677308
30
0
11
50.322692
21
-54.25
31
0
39
0
210
0
220
0
230
1
0
LINE
5
22E
100
AcDbEntity
8
2
62
256
6
ByLayer
370
13
48
1
60
0
100
AcDbLine
10
0
20
-52.25
30
0
11
50.322692
21
-52.25
31
0
39
0
210
0
220
0
230
1
0
LINE
5
22F
100
AcDbEntity
8
2
62
256
6
ByLayer
370
13
48
1
60
0
100
AcDbLine
10
0
20
-52.25
30
0
11
3.174998
21
-51.832003
31
0
39
0
210
0
220
0
230
1
0
LINE
5
230
100
AcDbEntity
8
2
62
256
6
ByLayer
370
13
48
1
60
0
100
AcDbLine
10
0
20
-52.25
30
0
11
3.175002
21
-52.667997
31
0
39
0
210
0
220
0
230
1
0
LINE
5
231
100
AcDbEntity
8
2
62
256
6
ByLayer
370
13
48
1
60
0
100
AcDbLine
10
3.174998
20
-51.832003
30
0
11
3.175002
21
-52.667997
31
0
39
0
210
0
220
0
230
1
0
LINE
5
232
100
AcDbEntity
8
2
62
256
6
ByLayer
370
13
48
1
60
0
100
AcDbLine
10
50.322692
20
-52.25
30
0
11
47.147694
21
-52.667997
31
0
39
0
210
0
220
0
230
1
0
LINE
5
233
100
AcDbEntity
8
2
62
256
6
ByLayer
370
13
48
1
60
0
100
AcDbLine
10
50.322692
20
-52.25
30
0
11
47.147691
21
-51.832003
31
0
39
0
210
0
220
0
230
1
0
LINE
5
234
100
AcDbEntity
8
2
62
256
6
ByLayer
370
13
48
1
60
0
100
AcDbLine
10
47.147694
20
-52.667997
30
0
11
47.147691
21
-51.832003
31
0
39
0
210
0
220
0
230
1
0
ENDBLK
5
236
100
AcDbEntity
8
0
100
AcDbBlockEnd
0
BLOCK
5
243
100
AcDbEntity
8
0
100
AcDbBlockBegin
2
DimnDraft3D6
70
0
10
0
20
0
30
0
3
DimnDraft3D6
0
MTEXT
5
239
100
AcDbEntity
8
2
62
256
6
ByLayer
370
18
48
1
60
0
100
AcDbMText
10
56.223531
20
3.815396
30
0
210
0
220
0
230
1
1
\W0.7785;45%%d
40
4.5
41
0
44
1.084337
50
337.5
71
7
72
5
7
iso_b_vert
0
LINE
5
23A
100
AcDbEntity
8
2
62
256
6
ByLayer
370
13
48
1
60
0
100
AcDbLine
10
52.065688
20
-16.934312
30
0
11
67.232233
21
-1.767767
31
0
39
0
210
0
220
0
230
1
0
LINE
5
23B
100
AcDbEntity
8
2
62
256
6
ByLayer
370
13
48
1
60
0
100
AcDbLine
10
50.322692
20
-16.348526
30
0
11
50.322692
21
5.236394
31
0
39
0
210
0
220
0
230
1
0
ARC
5
23C
100
AcDbEntity
8
2
62
256
6
ByLayer
370
13
48
1
60
0
100
AcDbCircle
39
0
10
50.322692
20
-18.677308
30
0
40
21.9137021538063
210
0
220
0
230
1
100
AcDbArc
50
45
51
90
0
LINE
5
23D
100
AcDbEntity
8
2
62
256
6
ByLayer
370
13
48
1
60
0
100
AcDbLine
10
65.818019
20
-3.181981
30
0
11
63.208574
21
-1.325605
31
0
39
0
210
0
220
0
230
1
0
LINE
5
23E
100
AcDbEntity
8
2
62
256
6
ByLayer
370
13
48
1
60
0
100
AcDbLine
10
65.818019
20
-3.181981
30
0
11
63.777952
21
-0.713483
31
0
39
0
210
0
220
0
230
1
0
LINE
5
23F
100
AcDbEntity
8
2
62
256
6
ByLayer
370
13
48
1
60
0
100
AcDbLine
10
63.208574
20
-1.325605
30
0
11
63.777952
21
-0.713483
31
0
39
0
210
0
220
0
230
1
0
LINE
5
240
100
AcDbEntity
8
2
62
256
6
ByLayer
370
13
48
1
60
0
100
AcDbLine
10
50.322692
20
3.236394
30
0
11
53.510726
21
3.53934
31
0
39
0
210
0
220
0
230
1
0
LINE
5
241
100
AcDbEntity
8
2
62
256
6
ByLayer
370
13
48
1
60
0
100
AcDbLine
10
50.322692
20
3.236394
30
0
11
53.480507
21
2.703893
31
0
39
0
210
0
220
0
230
1
0
LINE
5
242
100
AcDbEntity
8
2
62
256
6
ByLayer
370
13
48
1
60
0
100
AcDbLine
10
53.510726
20
3.53934
30
0
11
53.480507
21
2.703893
31
0
39
0
210
0
220
0
230
1
0
ENDBLK
5
244
100
AcDbEntity
8
0
100
AcDbBlockEnd
0
ENDSEC
0
SECTION
2
ENTITIES
0
ARC
5
11C
100
AcDbEntity
8
1
62
256
6
ByLayer
370
18
48
1
60
0
100
AcDbCircle
39
0
10
-16.841712
20
8.229317
30
0
40
0.25
210
0
220
0
230
-1
100
AcDbArc
50
260
51
351.872932
0
ARC
5
11D
100
AcDbEntity
8
SK1
62
256
6
ByLayer
370
18
48
1
60
0
100
AcDbCircle
39
0
10
0.6
20
-15
30
0
40
0.999999999999989
210
0
220
0
230
-1
100
AcDbArc
50
113.578178
51
126.869898
0
ARC
5
11E
100
AcDbEntity
8
SK1
62
256
6
ByLayer
370
18
48
1
60
0
100
AcDbCircle
39
0
10
0.6
20
15
30
0
40
0.999999999999989
210
0
220
0
230
-1
100
AcDbArc
50
233.130102
51
246.421822
0
ARC
5
11F
100
AcDbEntity
8
1
62
256
6
ByLayer
370
18
48
1
60
0
100
AcDbCircle
39
0
10
13.376863
20
7.734525
30
0
40
3.25
210
0
220
0
230
1
100
AcDbArc
50
8.127068
51
21.835092
0
ELLIPSE
5
120
100
AcDbEntity
8
1
62
256
6
ByLayer
370
18
48
1
60
0
100
AcDbEllipse
10
41.716525
20
-18.390614
30
0
11
-3.88908729652598
21
-3.88908729652605
31
0
210
0
220
0
230
1
40
0.990268
41
-2.00712863979349
42
-1.75958502152427
0
ELLIPSE
5
121
100
AcDbEntity
8
1
62
256
6
ByLayer
370
18
48
1
60
0
100
AcDbEllipse
10
41.982233
20
-18.656322
30
0
11
3.37752183087591
21
3.37752183087598
31
0
210
0
220
0
230
1
40
0.990268
41
1.22799189686218
42
1.26097645581337
0
ELLIPSE
5
122
100
AcDbEntity
8
1
62
256
6
ByLayer
370
18
48
1
60
0
100
AcDbEllipse
10
41.982233
20
-18.656322
30
0
11
3.37752183087591
21
3.37752183087598
31
0
210
0
220
0
230
1
40
0.990268
41
-2.9995398203484
42
-2.97332114885654
0
ELLIPSE
5
123
100
AcDbEntity
8
1
62
256
6
ByLayer
370
18
48
1
60
0
100
AcDbEllipse
10
41.716525
20
-18.390614
30
0
11
-3.88908729652598
21
-3.88908729652605
31
0
210
0
220
0
230
1
40
0.990268
41
0.115049967507037
42
0.261799387799138
0
ELLIPSE
5
124
100
AcDbEntity
8
1
62
256
6
ByLayer
370
18
48
1
60
0
100
AcDbEllipse
10
40.685483
20
-10.624381
30
0
11
1.12253201513362
21
1.12253201513365
31
0
210
0
220
0
230
1
40
0.990268
41
0.7689050421656
42
0.977526286597418
0
ELLIPSE
5
125
100
AcDbEntity
8
1
62
256
6
ByLayer
370
18
48
1
60
0
100
AcDbEllipse
10
26.759416
20
-17.774635
30
0
11
-0.268700576850886
21
-0.268700576850891
31
0
210
0
220
0
230
1
40
0.990268
41
0.429104837925046
42
0.544806318595319
0
ELLIPSE
5
126
100
AcDbEntity
8
1
62
256
6
ByLayer
370
18
48
1
60
0
100
AcDbEllipse
10
26.564731
20
-18.553578
30
0
11
0.30052038200428
21
0.300520382004286
31
0
210
0
220
0
230
1
40
0.990268
41
-8.87311465491111E-06
42
0.544806318595295
0
ELLIPSE
5
127
100
AcDbEntity
8
1
62
256
6
ByLayer
370
18
48
1
60
0
100
AcDbEllipse
10
28.724362
20
-16.850864
30
0
11
-0.268700576850886
21
-0.268700576850891
31
0
210
0
220
0
230
1
40
0.990268
41
1.89865463419673
42
2.71250485419726
0
ELLIPSE
5
128
100
AcDbEntity
8
1
62
256
6
ByLayer
370
18
48
1
60
0
100
AcDbEllipse
10
27.281686
20
-18.903936
30
0
11
-0.268700576850886
21
-0.268700576850891
31
0
210
0
220
0
230
1
40
0.990268
41
0.429102886325612
42
1.59200386979192
0
ELLIPSE
5
129
100
AcDbEntity
8
1
62
256
6
ByLayer
370
18
48
1
60
0
100
AcDbEllipse
10
29.441317
20
-17.201222
30
0
11
0.30052038200428
21
0.300520382004286
31
0
210
0
220
0
230
1
40
0.990268
41
1.89865463419671
42
3.14158432898251
0
ELLIPSE
5
12A
100
AcDbEntity
8
1
62
256
6
ByLayer
370
18
48
1
60
0
100
AcDbEllipse
10
27.857312
20
-19.45542
30
0
11
0.30052038200428
21
0.300520382004286
31
0
210
0
220
0
230
1
40
0.990268
41
1.69656586667054E-05
42
1.5920038697919
0
ELLIPSE
5
12B
100
AcDbEntity
8
1
62
256
6
ByLayer
370
18
48
1
60
0
100
AcDbEllipse
10
29.246633
20
-17.980164
30
0
11
-0.268700576850886
21
-0.268700576850891
31
0
210
0
220
0
230
1
40
0.990268
41
0.85145708300013
42
2.71246349637744
0
ELLIPSE
5
12C
100
AcDbEntity
8
1
62
256
6
ByLayer
370
18
48
1
60
0
100
AcDbEllipse
10
28.525295
20
-19.006701
30
0
11
-0.268700576850886
21
-0.268700576850891
31
0
210
0
220
0
230
1
40
0.990268
41
0.285446270348222
42
2.63920142098851
0
ELLIPSE
5
12D
100
AcDbEntity
8
1
62
256
6
ByLayer
370
18
48
1
60
0
100
AcDbEllipse
10
27.899694
20
-17.774069
30
0
11
2.82842712474616
21
2.82842712474622
31
0
210
0
220
0
230
1
40
0.990268
41
0.914833695725082
42
3.14153555696589
0
ELLIPSE
5
12E
100
AcDbEntity
8
1
62
256
6
ByLayer
370
18
48
1
60
0
100
AcDbEllipse
10
27.899694
20
-17.774069
30
0
11
2.82842712474616
21
2.82842712474622
31
0
210
0
220
0
230
1
40
0.990268
41
-0.770729019682518
42
0
0
ELLIPSE
5
12F
100
AcDbEntity
8
1
62
256
6
ByLayer
370
18
48
1
60
0
100
AcDbEllipse
10
27.899694
20
-17.774069
30
0
11
2.82842712474616
21
2.82842712474622
31
0
210
0
220
0
230
1
40
0.990268
41
4.10677414744368E-05
42
0.495234537356954
0
ELLIPSE
5
130
100
AcDbEntity
8
1
62
256
6
ByLayer
370
18
48
1
60
0
100
AcDbEllipse
10
28.003024
20
-17.8774
30
0
11
0.813172798364522
21
0.813172798364537
31
0
210
0
220
0
230
1
40
0.990268
41
0.808903391616286
42
1.42534268770768
0
ELLIPSE
5
131
100
AcDbEntity
8
1
62
256
6
ByLayer
370
18
48
1
60
0
100
AcDbEllipse
10
28.003024
20
-17.8774
30
0
11
0.813172798364522
21
0.813172798364537
31
0
210
0
220
0
230
1
40
0.990268
41
2.13377187642986
42
2.76670434671561
0
ELLIPSE
5
132
100
AcDbEntity
8
1
62
256
6
ByLayer
370
18
48
1
60
0
100
AcDbEllipse
10
28.003024
20
-17.8774
30
0
11
0.813172798364522
21
0.813172798364537
31
0
210
0
220
0
230
1
40
0.990268
41
3.14153568868254
42
0
0
ELLIPSE
5
133
100
AcDbEntity
8
1
62
256
6
ByLayer
370
18
48
1
60
0
100
AcDbEllipse
10
28.003024
20
-17.8774
30
0
11
0.813172798364522
21
0.813172798364537
31
0
210
0
220
0
230
1
40
0.990268
41
0
42
0.259811201569483
0
ELLIPSE
5
134
100
AcDbEntity
8
1
62
256
6
ByLayer
370
18
48
1
60
0
100
AcDbEllipse
10
27.919376
20
-17.793751
30
0
11
0.813172798364522
21
0.813172798364537
31
0
210
0
220
0
230
1
40
0.990268
41
-3.02923939192681
42
-0.0518932620061041
0
ELLIPSE
5
135
100
AcDbEntity
8
1
62
256
6
ByLayer
370
18
48
1
60
0
100
AcDbEllipse
10
40.973629
20
-9.789994
30
0
11
-0.561266007566817
21
-0.561266007566827
31
0
210
0
220
0
230
1
40
0.990268
41
-3.14159265358978
42
-1.68919539560948
0
ELLIPSE
5
136
100
AcDbEntity
8
1
62
256
6
ByLayer
370
18
48
1
60
0
100
AcDbEllipse
10
26.735866
20
-17.722472
30
0
11
2.7111359741564
21
3.14201236942744
31
0
210
0
220
0
230
1
40
0.988257
41
-2.86027306847415
42
-2.51615799704746
0
ELLIPSE
5
137
100
AcDbEntity
8
1
62
256
6
ByLayer
370
18
48
1
60
0
100
AcDbEllipse
10
21.826177
20
-22.920065
30
0
11
1.95985733071547
21
2.27133424295959
31
0
210
0
220
0
230
1
40
0.988257
41
0.251157406134149
42
0.625434656542338
0
ELLIPSE
5
138
100
AcDbEntity
8
1
62
256
6
ByLayer
370
18
48
1
60
0
100
AcDbEllipse
10
28.763428
20
-17.886788
30
0
11
2.7111359741564
21
3.14201236942744
31
0
210
0
220
0
230
1
40
0.988257
41
-2.51615799704746
42
0.169069312201362
0
ELLIPSE
5
139
100
AcDbEntity
8
1
62
256
6
ByLayer
370
18
48
1
60
0
100
AcDbEllipse
10
21.902966
20
-12.32332
30
0
11
-2.74193925662336
21
-1.25002285432266
31
0
210
0
220
0
230
1
40
0.988829
41
-1.5675206468892
42
-0.514989742427711
0
ELLIPSE
5
13A
100
AcDbEntity
8
1
62
256
6
ByLayer
370
18
48
1
60
0
100
AcDbEllipse
10
39.759867
20
-22.168596
30
0
11
-1.03100520234962
21
-0.305175916421653
31
0
210
0
220
0
230
1
40
0.133742
41
0.886604320116118
42
1.41020309571856
0
ELLIPSE
5
13B
100
AcDbEntity
8
1
62
256
6
ByLayer
370
18
48
1
60
0
100
AcDbEllipse
10
22.747387
20
-12.719364
30
0
11
1.50905390796319
21
1.3125381148222
31
0
210
0
220
0
230
1
40
0.812153
41
0.825397607024547
42
2.27461233075112
0
ELLIPSE
5
13C
100
AcDbEntity
8
1
62
256
6
ByLayer
370
18
48
1
60
0
100
AcDbEllipse
10
25.707026
20
-10.671044
30
0
11
-2.97270737365387
21
0.425270785803729
31
0
210
0
220
0
230
1
40
0.456451
41
-0.0515112970636649
42
0.485802660260913
0
ELLIPSE
5
13D
100
AcDbEntity
8
1
62
256
6
ByLayer
370
18
48
1
60
0
100
AcDbEllipse
10
43.138706
20
-16.411026
30
0
11
-1.45764837074755
21
7.55650705686529
31
0
210
0
220
0
230
1
40
0.578723
41
1.02573531369831
42
1.10503775310766
0
ELLIPSE
5
13E
100
AcDbEntity
8
1
62
256
6
ByLayer
370
18
48
1
60
0
100
AcDbEllipse
10
21.137365
20
-20.614528
30
0
11
-2.74193925661934
21
-1.25002285433048
31
0
210
0
220
0
230
1
40
0.988829
41
-0.514989742430599
42
0.537541162031002
0
ELLIPSE
5
13F
100
AcDbEntity
8
1
62
256
6
ByLayer
370
18
48
1
60
0
100
AcDbEllipse
10
24.560094
20
-22.281089
30
0
11
-4.98991115448653
21
0.339342609699692
31
0
210
0
220
0
230
1
40
0.131204
41
-0.466130182757614
42
-0.36073650804939
0
ELLIPSE
5
140
100
AcDbEntity
8
1
62
256
6
ByLayer
370
18
48
1
60
0
100
AcDbEllipse
10
25.466789
20
-12.461872
30
0
11
-4.96656612485959
21
0.590628429336157
31
0
210
0
220
0
230
1
40
0.310004
41
0.365714640122361
42
0.471108315344824
0
ELLIPSE
5
141
100
AcDbEntity
8
1
62
256
6
ByLayer
370
18
48
1
60
0
100
AcDbEllipse
10
21.911783
20
-21.768679
30
0
11
-0.863555437154779
21
1.8039600901795
31
0
210
0
220
0
230
1
40
0.870996
41
1.13227825419529
42
2.58149297792188
0
ELLIPSE
5
142
100
AcDbEntity
8
1
62
256
6
ByLayer
370
18
48
1
60
0
100
AcDbEllipse
10
40.420706
20
-15.011925
30
0
11
-0.948846714847745
21
0.518309738853541
31
0
210
0
220
0
230
1
40
0.285329
41
-1.3408722964512
42
-0.817273520837501
0
ELLIPSE
5
143
100
AcDbEntity
8
1
62
256
6
ByLayer
370
18
48
1
60
0
100
AcDbEllipse
10
24.354154
20
-22.19989
30
0
11
-3.58042260469994
21
-1.27880914445547
31
0
210
0
220
0
230
1
40
0.470149
41
0.48243525159826
42
0.803778504570872
0
ELLIPSE
5
144
100
AcDbEntity
8
1
62
256
6
ByLayer
370
18
48
1
60
0
100
AcDbEllipse
10
25.251547
20
-14.792875
30
0
11
4.97881916218304
21
-0.459738784832195
31
0
210
0
220
0
230
1
40
0.089459
41
-2.53048103342983
42
-2.0372830995098
0
ELLIPSE
5
145
100
AcDbEntity
8
1
62
256
6
ByLayer
370
18
48
1
60
0
100
AcDbEllipse
10
25.119755
20
-13.908682
30
0
11
-2.69050439824685
21
3.54982541549436
31
0
210
0
220
0
230
1
40
0.562638
41
-0.467265117122478
42
-0.145921864144744
0
ELLIPSE
5
146
100
AcDbEntity
8
1
62
256
6
ByLayer
370
18
48
1
60
0
100
AcDbEllipse
10
25.173705
20
-15.63588
30
0
11
-4.70523415034006
21
3.41916499785421
31
0
210
0
220
0
230
1
40
0.018838
41
0.474155015461762
42
1.34590589606028
0
ELLIPSE
5
147
100
AcDbEntity
8
1
62
256
6
ByLayer
370
18
48
1
60
0
100
AcDbEllipse
10
25.173705
20
-15.63588
30
0
11
-2.55439447877876
21
5.22676326083992
31
0
210
0
220
0
230
1
40
0.039104
41
-1.3933976082791
42
-0.4690815287255
0
ELLIPSE
5
148
100
AcDbEntity
8
1
62
256
6
ByLayer
370
18
48
1
60
0
100
AcDbEllipse
10
24.775336
20
-19.950086
30
0
11
4.97881916218304
21
-0.459738784832195
31
0
210
0
220
0
230
1
40
0.089459
41
-2.53048103342983
42
-2.03728309950981
0
ELLIPSE
5
149
100
AcDbEntity
8
1
62
256
6
ByLayer
370
18
48
1
60
0
100
AcDbEllipse
10
24.853178
20
-19.10708
30
0
11
-3.42079229235133
21
-4.72163312824133
31
0
210
0
220
0
230
1
40
0.117874
41
0.336880642085109
42
1.26119672164234
0
ELLIPSE
5
14A
100
AcDbEntity
8
1
62
256
6
ByLayer
370
18
48
1
60
0
100
AcDbEllipse
10
24.456945
20
-24.209004
30
0
11
-2.99892012714387
21
0.147586188254822
31
0
210
0
220
0
230
1
40
0.277966
41
-0.474890215000841
42
0.0624237423262901
0
ELLIPSE
5
14B
100
AcDbEntity
8
1
62
256
6
ByLayer
370
18
48
1
60
0
100
AcDbEllipse
10
42.686393
20
-21.309421
30
0
11
-4.75598997381741
21
-2.61488100674457
31
0
210
0
220
0
230
1
40
0.5394
41
-0.349225730947564
42
-0.269923290588566
0
ELLIPSE
5
14C
100
AcDbEntity
8
1
62
256
6
ByLayer
370
18
48
1
60
0
100
AcDbEllipse
10
24.853178
20
-19.10708
30
0
11
-5.24459187077163
21
-2.54469482098163
31
0
210
0
220
0
230
1
40
0.112876
41
0.394814791546637
42
1.26656567214213
0
ELLIPSE
5
14D
100
AcDbEntity
8
1
62
256
6
ByLayer
370
18
48
1
60
0
100
AcDbEllipse
10
28.224447
20
-18.098823
30
0
11
-1.62634559672904
21
-1.62634559672907
31
0
210
0
220
0
230
1
40
0.990268
41
0
42
6.28318530717959
0
ELLIPSE
5
14E
100
AcDbEntity
8
1
62
256
6
ByLayer
370
18
48
1
60
0
100
AcDbEllipse
10
28.224447
20
-18.098823
30
0
11
0.830850467894185
21
0.830850467894201
31
0
210
0
220
0
230
1
40
0.990268
41
-2.50670480449076
42
-2.38021710109337
0
ELLIPSE
5
14F
100
AcDbEntity
8
1
62
256
6
ByLayer
370
18
48
1
60
0
100
AcDbEllipse
10
28.945785
20
-17.072287
30
0
11
-0.268700576850886
21
-0.268700576850891
31
0
210
0
220
0
230
1
40
0.990268
41
1.89865463419673
42
-1.54958878379791
0
ELLIPSE
5
150
100
AcDbEntity
8
1
62
256
6
ByLayer
370
18
48
1
60
0
100
AcDbEllipse
10
28.139146
20
-18.013522
30
0
11
-2.82842712474616
21
-2.82842712474622
31
0
210
0
220
0
230
1
40
0.990268
41
0
42
6.28318530717959
0
ELLIPSE
5
151
100
AcDbEntity
8
1
62
256
6
ByLayer
370
18
48
1
60
0
100
AcDbEllipse
10
28.37016
20
-16.520803
30
0
11
0.30052038200428
21
0.300520382004286
31
0
210
0
220
0
230
1
40
0.990268
41
2.94585218539331
42
-2.61909667134052
0
ELLIPSE
5
152
100
AcDbEntity
8
1
62
256
6
ByLayer
370
18
48
1
60
0
100
AcDbEllipse
10
28.224447
20
-18.098823
30
0
11
0.830850467894185
21
0.830850467894201
31
0
210
0
220
0
230
1
40
0.990268
41
0.634887849099012
42
0.761375552496406
0
ELLIPSE
5
153
100
AcDbEntity
8
1
62
256
6
ByLayer
370
18
48
1
60
0
100
AcDbEllipse
10
28.37016
20
-16.520803
30
0
11
0.30052038200428
21
0.300520382004286
31
0
210
0
220
0
230
1
40
0.990268
41
-2.26782523424364
42
-1.54958878379789
0
ELLIPSE
5
154
100
AcDbEntity
8
1
62
256
6
ByLayer
370
18
48
1
60
0
100
AcDbEllipse
10
29.468056
20
-18.201587
30
0
11
-0.268700576850886
21
-0.268700576850891
31
0
210
0
220
0
230
1
40
0.990268
41
0.85145708300013
42
-2.5967863349945
0
ELLIPSE
5
155
100
AcDbEntity
8
1
62
256
6
ByLayer
370
18
48
1
60
0
100
AcDbEllipse
10
26.786154
20
-18.775001
30
0
11
0.30052038200428
21
0.300520382004286
31
0
210
0
220
0
230
1
40
0.990268
41
-1.24293801939305
42
-0.524701568947307
0
ELLIPSE
5
156
100
AcDbEntity
8
1
62
256
6
ByLayer
370
18
48
1
60
0
100
AcDbEllipse
10
26.931867
20
-17.196981
30
0
11
0.30052038200428
21
0.300520382004286
31
0
210
0
220
0
230
1
40
0.990268
41
-1.22062768304702
42
-0.502391232601292
0
ELLIPSE
5
157
100
AcDbEntity
8
1
62
256
6
ByLayer
370
18
48
1
60
0
100
AcDbEllipse
10
28.078735
20
-19.676843
30
0
11
0.30052038200428
21
0.300520382004286
31
0
210
0
220
0
230
1
40
0.990268
41
-0.195740468196498
42
0.522495982249264
0
ELLIPSE
5
158
100
AcDbEntity
8
1
62
256
6
ByLayer
370
18
48
1
60
0
100
AcDbEllipse
10
29.517028
20
-19.000665
30
0
11
0.30052038200428
21
0.300520382004286
31
0
210
0
220
0
230
1
40
0.990268
41
1.92096497054276
42
2.6392014209885
0
ELLIPSE
5
159
100
AcDbEntity
8
1
62
256
6
ByLayer
370
18
48
1
60
0
100
AcDbEllipse
10
29.66274
20
-17.422645
30
0
11
0.30052038200428
21
0.300520382004286
31
0
210
0
220
0
230
1
40
0.990268
41
2.96816252173933
42
-2.59678633499448
0
ELLIPSE
5
15A
100
AcDbEntity
8
1
62
256
6
ByLayer
370
18
48
1
60
0
100
AcDbEllipse
10
28.224447
20
-18.098823
30
0
11
0.830850467894185
21
0.830850467894201
31
0
210
0
220
0
230
1
40
0.990268
41
2.72928295149222
42
2.85577065488962
0
ELLIPSE
5
15B
100
AcDbEntity
8
1
62
256
6
ByLayer
370
18
48
1
60
0
100
AcDbEllipse
10
28.078735
20
-19.676843
30
0
11
0.30052038200428
21
0.300520382004286
31
0
210
0
220
0
230
1
40
0.990268
41
0.873767419346136
42
1.5920038697919
0
ELLIPSE
5
15C
100
AcDbEntity
8
1
62
256
6
ByLayer
370
18
48
1
60
0
100
AcDbEllipse
10
28.224447
20
-18.098823
30
0
11
0.830850467894185
21
0.830850467894201
31
0
210
0
220
0
230
1
40
0.990268
41
-0.412309702097571
42
-0.285821998700191
0
ELLIPSE
5
15D
100
AcDbEntity
8
1
62
256
6
ByLayer
370
18
48
1
60
0
100
AcDbEllipse
10
27.503109
20
-19.125359
30
0
11
-0.268700576850886
21
-0.268700576850891
31
0
210
0
220
0
230
1
40
0.990268
41
-1.24293801939308
42
1.59200386979191
0
ELLIPSE
5
15E
100
AcDbEntity
8
1
62
256
6
ByLayer
370
18
48
1
60
0
100
AcDbEllipse
10
28.224447
20
-18.098823
30
0
11
0.830850467894185
21
0.830850467894201
31
0
210
0
220
0
230
1
40
0.990268
41
1.68208540029562
42
1.80857310369302
0
ELLIPSE
5
15F
100
AcDbEntity
8
1
62
256
6
ByLayer
370
18
48
1
60
0
100
AcDbEllipse
10
26.786154
20
-18.775001
30
0
11
0.30052038200428
21
0.300520382004286
31
0
210
0
220
0
230
1
40
0.990268
41
-0.173430131850413
42
0.544806318595306
0
ELLIPSE
5
160
100
AcDbEntity
8
1
62
256
6
ByLayer
370
18
48
1
60
0
100
AcDbEllipse
10
28.224447
20
-18.098823
30
0
11
0.830850467894185
21
0.830850467894201
31
0
210
0
220
0
230
1
40
0.990268
41
-1.45950725329418
42
-1.33301954989678
0
ELLIPSE
5
161
100
AcDbEntity
8
1
62
256
6
ByLayer
370
18
48
1
60
0
100
AcDbEllipse
10
28.746718
20
-19.228124
30
0
11
-0.268700576850886
21
-0.268700576850891
31
0
210
0
220
0
230
1
40
0.990268
41
-0.195740468196467
42
2.6392014209885
0
ELLIPSE
5
162
100
AcDbEntity
8
1
62
256
6
ByLayer
370
18
48
1
60
0
100
AcDbEllipse
10
29.66274
20
-17.422645
30
0
11
0.30052038200428
21
0.300520382004286
31
0
210
0
220
0
230
1
40
0.990268
41
1.89865463419671
42
2.6168910846425
0
ELLIPSE
5
163
100
AcDbEntity
8
1
62
256
6
ByLayer
370
18
48
1
60
0
100
AcDbEllipse
10
29.517028
20
-19.000665
30
0
11
0.30052038200428
21
0.300520382004286
31
0
210
0
220
0
230
1
40
0.990268
41
0.851457083000116
42
1.56969353344587
0
ELLIPSE
5
164
100
AcDbEntity
8
1
62
256
6
ByLayer
370
18
48
1
60
0
100
AcDbEllipse
10
26.980839
20
-17.996058
30
0
11
-0.268700576850886
21
-0.268700576850891
31
0
210
0
220
0
230
1
40
0.990268
41
-2.29013557058965
42
0.544806318595327
0
ELLIPSE
5
165
100
AcDbEntity
8
1
62
256
6
ByLayer
370
18
48
1
60
0
100
AcDbEllipse
10
29.295604
20
-18.779242
30
0
11
0.30052038200428
21
0.300520382004286
31
0
210
0
220
0
230
1
40
0.990268
41
0.851457083000121
42
2.63920142098849
0
ELLIPSE
5
166
100
AcDbEntity
8
1
62
256
6
ByLayer
370
18
48
1
60
0
100
AcDbEllipse
10
27.702177
20
-16.969522
30
0
11
-0.268700576850886
21
-0.268700576850891
31
0
210
0
220
0
230
1
40
0.990268
41
2.94585218539331
42
-0.502391232601269
0
ELLIPSE
5
167
100
AcDbEntity
8
1
62
256
6
ByLayer
370
18
48
1
60
0
100
AcDbEllipse
10
26.931867
20
-17.196981
30
0
11
0.30052038200428
21
0.300520382004286
31
0
210
0
220
0
230
1
40
0.990268
41
-2.29013557058967
42
-1.57189912014392
0
ELLIPSE
5
168
100
AcDbEntity
8
1
62
256
6
ByLayer
370
18
48
1
60
0
100
AcDbEllipse
10
39.229829
20
-20.77918
30
0
11
-7.54429230456115
21
-2.78448426546726
31
0
210
0
220
0
230
1
40
0.767882
41
-2.00474735745263
42
-1.94117669819758
0
ELLIPSE
5
169
100
AcDbEntity
8
1
62
256
6
ByLayer
370
18
48
1
60
0
100
AcDbEllipse
10
42.311079
20
-18.439745
30
0
11
-3.18198051533944
21
-3.18198051533949
31
0
210
0
220
0
230
1
40
0.990268
41
1.6580627893946
42
2.87979326579063
0
ELLIPSE
5
16A
100
AcDbEntity
8
1
62
256
6
ByLayer
370
18
48
1
60
0
100
AcDbEllipse
10
39.849314
20
-14.070366
30
0
11
-4.36754822106568
21
8.45223079478782
31
0
210
0
220
0
230
1
40
0.721729
41
2.43525936677881
42
2.49883002616176
0
ELLIPSE
5
16B
100
AcDbEntity
8
1
62
256
6
ByLayer
370
18
48
1
60
0
100
AcDbEllipse
10
44.660947
20
-18.183087
30
0
11
-1.08917214736833
21
-2.42666868038027
31
0
210
0
220
0
230
1
40
0.572768
41
2.74765992363719
42
-2.51456782309554
0
ELLIPSE
5
16C
100
AcDbEntity
8
1
62
256
6
ByLayer
370
18
48
1
60
0
100
AcDbEllipse
10
44.46049
20
-20.353968
30
0
11
-1.40819469433575
21
-1.06491119977904
31
0
210
0
220
0
230
1
40
0.888799
41
0.801148467612459
42
1.82210602805871
0
ELLIPSE
5
16D
100
AcDbEntity
8
1
62
256
6
ByLayer
370
18
48
1
60
0
100
AcDbEllipse
10
42.311079
20
-18.439745
30
0
11
-3.18198051533944
21
-3.18198051533949
31
0
210
0
220
0
230
1
40
0.990268
41
1.1344640137963
42
1.6580627893946
0
ELLIPSE
5
16E
100
AcDbEntity
8
1
62
256
6
ByLayer
370
18
48
1
60
0
100
AcDbEllipse
10
42.645674
20
-18.77434
30
0
11
2.3069367246205
21
2.30693672462055
31
0
210
0
220
0
230
1
40
0.990268
41
-1.4835298641952
42
-0.26179938779916
0
ELLIPSE
5
16F
100
AcDbEntity
8
1
62
256
6
ByLayer
370
18
48
1
60
0
100
AcDbEllipse
10
42.645674
20
-18.77434
30
0
11
-2.53778696600232
21
-2.53778696600237
31
0
210
0
220
0
230
1
40
0.990268
41
1.1344640137963
42
1.22822851335426
0
ELLIPSE
5
170
100
AcDbEntity
8
1
62
256
6
ByLayer
370
18
48
1
60
0
100
AcDbEllipse
10
42.311079
20
-18.439745
30
0
11
-3.18198051533944
21
-3.18198051533949
31
0
210
0
220
0
230
1
40
0.990268
41
2.87979326579063
42
-2.87979326579065
0
ELLIPSE
5
171
100
AcDbEntity
8
1
62
256
6
ByLayer
370
18
48
1
60
0
100
AcDbEllipse
10
42.645674
20
-18.77434
30
0
11
-2.53778696600232
21
-2.53778696600237
31
0
210
0
220
0
230
1
40
0.990268
41
-2.97355776534861
42
-2.87979326579065
0
ELLIPSE
5
172
100
AcDbEntity
8
1
62
256
6
ByLayer
370
18
48
1
60
0
100
AcDbEllipse
10
42.05112
20
-18.725209
30
0
11
2.371738807825
21
2.37173880782504
31
0
210
0
220
0
230
1
40
0.990268
41
-2.06821516361329
42
0.322885911618936
0
ELLIPSE
5
173
100
AcDbEntity
8
1
62
256
6
ByLayer
370
18
48
1
60
0
100
AcDbEllipse
10
16.948929
20
0
30
0
11
-9.36741787978288
21
-19.7417491527512
31
0
210
0
220
0
230
1
40
0.341999
41
-1.09631952749986
42
-0.152726244898338
0
ELLIPSE
5
174
100
AcDbEntity
8
1
62
256
6
ByLayer
370
18
48
1
60
0
100
AcDbEllipse
10
-0.948929
20
0
30
0
11
-9.36741787978242
21
19.7417491527508
31
0
210
0
220
0
230
1
40
0.341999
41
-2.98886640869145
42
-2.04527312608992
0
ELLIPSE
5
175
100
AcDbEntity
8
1
62
256
6
ByLayer
370
18
48
1
60
0
100
AcDbEllipse
10
6.257591
20
0
30
0
11
-24.5717503445359
21
0.88966134276148
31
0
210
0
220
0
230
1
40
0.813137
41
1.89256185552601
42
2.05286168225464
0
ELLIPSE
5
176
100
AcDbEntity
8
1
62
256
6
ByLayer
370
18
48
1
60
0
100
AcDbEllipse
10
16.948929
20
0
30
0
11
-9.36741787978226
21
19.7417491527506
31
0
210
0
220
0
230
1
40
0.341999
41
0.152726244898342
42
1.09631952749988
0
ELLIPSE
5
177
100
AcDbEntity
8
1
62
256
6
ByLayer
370
18
48
1
60
0
100
AcDbEllipse
10
18.631496
20
-7.502492
30
0
11
-5.60999618791531
21
0.408870916685881
31
0
210
0
220
0
230
1
40
0.70821
41
3.12790644373399
42
-2.74688600974093
0
ELLIPSE
5
178
100
AcDbEntity
8
1
62
256
6
ByLayer
370
18
48
1
60
0
100
AcDbEllipse
10
18.124357
20
-7.418555
30
0
11
-6.31573299455132
21
1.04531041579012
31
0
210
0
220
0
230
1
40
0.624839
41
-2.61836764392337
42
-2.41752469734185
0
ELLIPSE
5
179
100
AcDbEntity
8
1
62
256
6
ByLayer
370
18
48
1
60
0
100
AcDbEllipse
10
39.725002
20
-13.085948
30
0
11
-1.77017998994867
21
-1.77017998994867
31
0
210
0
220
0
230
1
40
0.50533
41
-1.91312681179446
42
-1.5707963267949
0
ELLIPSE
5
17A
100
AcDbEntity
8
1
62
256
6
ByLayer
370
18
48
1
60
0
100
AcDbEllipse
10
16.787398
20
6.493192
30
0
11
-0.00987943652001846
21
3.99245274426299
31
0
210
0
220
0
230
1
40
0.082138
41
-0.117060764141608
42
0.557685835055828
0
ELLIPSE
5
17B
100
AcDbEntity
8
1
62
256
6
ByLayer
370
18
48
1
60
0
100
AcDbEllipse
10
16.787398
20
6.493192
30
0
11
-0.0118553238238657
21
4.79094329310738
31
0
210
0
220
0
230
1
40
0.082138
41
1.54067911374402
42
-2.3324656680398
0
ELLIPSE
5
17C
100
AcDbEntity
8
1
62
256
6
ByLayer
370
18
48
1
60
0
100
AcDbEllipse
10
-0.948929
20
0
30
0
11
-9.36741787978214
21
-19.7417491527504
31
0
210
0
220
0
230
1
40
0.341999
41
2.0452731260899
42
2.98886640869145
0
ELLIPSE
5
17D
100
AcDbEntity
8
1
62
256
6
ByLayer
370
18
48
1
60
0
100
AcDbEllipse
10
17.749773
20
0
30
0
11
2.3429066846326E-14
21
20.0000000000004
31
0
210
0
220
0
230
1
40
0.087489
41
0.741560414067215
42
2.70402504841227
0
ELLIPSE
5
17E
100
AcDbEntity
8
1
62
256
6
ByLayer
370
18
48
1
60
0
100
AcDbEllipse
10
19.668352
20
0
30
0
11
-8.16361142190731
21
-19.0202635403403
31
0
210
0
220
0
230
1
40
0.757386
41
0.111427345864666
42
0.359239765629606
0
ELLIPSE
5
17F
100
AcDbEntity
8
1
62
256
6
ByLayer
370
18
48
1
60
0
100
AcDbEllipse
10
49.536014
20
-18.352379
30
0
11
-0.561266007566817
21
-0.561266007566827
31
0
210
0
220
0
230
1
40
0.990268
41
1.5707963267949
42
-3.14159265358978
0
ELLIPSE
5
180
100
AcDbEntity
8
1
62
256
6
ByLayer
370
18
48
1
60
0
100
AcDbEllipse
10
41.678289
20
-26.210103
30
0
11
-0.561266007566817
21
-0.561266007566827
31
0
210
0
220
0
230
1
40
0.990268
41
0
42
1.57079632679488
0
ELLIPSE
5
181
100
AcDbEntity
8
1
62
256
6
ByLayer
370
18
48
1
60
0
100
AcDbEllipse
10
41.75476
20
-10.571126
30
0
11
-0.561266007566817
21
-0.561266007566827
31
0
210
0
220
0
230
1
40
0.990268
41
3.14159265358978
42
-1.57079632679488
0
POINT
5
6C
100
AcDbEntity
8
2
62
256
6
ByLayer
370
18
48
1
60
0
100
AcDbPoint
10
42
20
27
30
0
39
0
210
0
220
0
230
1
50
360
0
POINT
5
6E
100
AcDbEntity
8
80
62
256
6
ByLayer
370
18
48
1
60
0
100
AcDbPoint
10
0
20
0
30
0
39
0
210
0
220
0
230
1
50
360
0
POINT
5
70
100
AcDbEntity
8
81
62
256
6
ByLayer
370
18
48
1
60
0
100
AcDbPoint
10
42
20
-27
30
0
39
0
210
0
220
0
230
1
50
360
0
SPLINE
5
182
100
AcDbEntity
8
SK1
62
256
6
ByLayer
370
18
48
1
60
0
100
AcDbSpline
70
4
71
2
72
6
73
3
40
0
40
0
40
0
40
1
40
1
40
1
41
1
10
-22.5
20
-13.493394380475
30
0
41
1
10
-12.099999999963
20
-13.7545958471854
30
0
41
1
10
-1.70000000000002
20
-14.0157970602974
30
0
0
SPLINE
5
183
100
AcDbEntity
8
SK1
62
256
6
ByLayer
370
18
48
1
60
0
100
AcDbSpline
70
4
71
2
72
6
73
3
40
0
40
0
40
0
40
1
40
1
40
1
41
1
10
-1.69999999999999
20
14.0157977997179
30
0
41
1
10
-12.0999999999449
20
13.7545973909209
30
0
41
1
10
-22.5
20
13.4933966698402
30
0
0
SPLINE
5
184
100
AcDbEntity
8
SK1
62
256
6
ByLayer
370
18
48
1
60
0
100
AcDbSpline
70
4
71
3
72
13
73
9
40
0
40
0
40
0
40
0
40
0.239457531297589
40
0.368361583423433
40
0.500001014483274
40
0.631640276582825
40
0.760543863002551
40
1
40
1
40
1
40
1
41
1
10
-1.49503997793928
20
13.8251858327438
30
0
41
1
10
-1.52111030874426
20
13.8247841935567
30
0
41
1
10
-1.55884064236667
20
13.830956449625
30
0
41
1
10
-1.60627712752265
20
13.8540002532836
30
0
41
1
10
-1.6388637868167
20
13.8791676243503
30
0
41
1
10
-1.66563592205634
20
13.9104491790265
30
0
41
1
10
-1.69103284110332
20
13.9566683539303
30
0
41
1
10
-1.6990919864528
20
13.9940409390257
30
0
41
1
10
-1.69999999999999
20
14.0200984156386
30
0
0
SPLINE
5
185
100
AcDbEntity
8
SK1
62
256
6
ByLayer
370
18
48
1
60
0
100
AcDbSpline
70
4
71
3
72
13
73
9
40
0
40
0
40
0
40
0
40
0.239456137017857
40
0.368359723444941
40
0.499998985547708
40
0.631638416605807
40
0.760542468725193
40
1
40
1
40
1
40
1
41
1
10
-1.70000000000002
20
-14.0200984122732
30
0
41
1
10
-1.69909198645308
20
-13.9940409356568
30
0
41
1
10
-1.69103284110358
20
-13.9566683505561
30
0
41
1
10
-1.66563592205676
20
-13.9104491756451
30
0
41
1
10
-1.6388637868173
20
-13.8791676209635
30
0
41
1
10
-1.6062771275233
20
-13.8540002498915
30
0
41
1
10
-1.55884064236793
20
-13.8309564462263
30
0
41
1
10
-1.52111030874491
20
-13.8247841901529
30
0
41
1
10
-1.49503997793931
20
-13.8251858293361
30
0
0
SPLINE
5
186
100
AcDbEntity
8
SK1
62
256
6
ByLayer
370
18
48
1
60
0
100
AcDbSpline
70
4
71
2
72
6
73
3
40
0
40
0
40
0
40
1
40
1
40
1
41
1
10
-22.5
20
13.4970856697526
30
0
41
1
10
-23.2499999989322
20
13.0640911753538
30
0
41
1
10
-24
20
12.6310964932105
30
0
0
SPLINE
5
187
100
AcDbEntity
8
SK1
62
256
6
ByLayer
370
18
48
1
60
0
100
AcDbSpline
70
4
71
2
72
6
73
3
40
0
40
0
40
0
40
1
40
1
40
1
41
1
10
-24
20
-12.6310961283886
30
0
41
1
10
-23.2499999989318
20
-13.0640908004416
30
0
41
1
10
-22.5
20
-13.4970852847173
30
0
0
SPLINE
5
188
100
AcDbEntity
8
SK1
62
256
6
ByLayer
370
18
48
1
60
0
100
AcDbSpline
70
4
71
2
72
6
73
3
40
0
40
0
40
0
40
1
40
1
40
1
41
1
10
-0.394976888875277
20
13.7403788260786
30
0
41
1
10
-0.945008433407281
20
13.7266599565288
30
0
41
1
10
-1.49503997793928
20
13.7129410868425
30
0
0
SPLINE
5
189
100
AcDbEntity
8
SK1
62
256
6
ByLayer
370
18
48
1
60
0
100
AcDbSpline
70
4
71
2
72
6
73
3
40
0
40
0
40
0
40
1
40
1
40
1
41
1
10
-1.49503997793931
20
-13.7129423752897
30
0
41
1
10
-0.94500843340731
20
-13.7266611372792
30
0
41
1
10
-0.394976888875306
20
-13.740379899128
30
0
0
SPLINE
5
18A
100
AcDbEntity
8
1
62
256
6
ByLayer
370
18
48
1
60
0
100
AcDbSpline
70
4
71
3
72
14
73
10
40
0
40
0
40
0
40
0
40
0.270764732767086
40
0.270764732767086
40
0.549295414242973
40
0.549295414242973
40
0.829301580165541
40
0.829301580165541
40
1
40
1
40
1
40
1
41
1
10
17.0903707958269
20
-19.9798071097458
30
0
41
1
10
17.1590628439074
20
-19.9760335952684
30
0
41
1
10
17.2427913988283
20
-19.9721932305342
30
0
41
1
10
17.429662276477
20
-19.965716655187
30
0
41
1
10
17.5358710945166
20
-19.9630487193209
30
0
41
1
10
17.7542599433144
20
-19.9600007736653
30
0
41
1
10
17.8694700674004
20
-19.9595999626386
30
0
41
1
10
18.0489156506558
20
-19.960895463141
30
0
41
1
10
18.1166242982374
20
-19.961840564855
30
0
41
1
10
18.1820325591438
20
-19.9631466863879
30
0
0
SPLINE
5
18B
100
AcDbEntity
8
1
62
256
6
ByLayer
370
18
48
1
60
0
100
AcDbSpline
70
4
71
3
72
20
73
16
40
0
40
0
40
0
40
0
40
0.145759110803473
40
0.145759110803473
40
0.313336508242423
40
0.313336508242423
40
0.480869971948573
40
0.480869971948573
40
0.648476953268896
40
0.648476953268896
40
0.816004846956651
40
0.816004846956651
40
0.983578154281425
40
0.983578154281425
40
1
40
1
40
1
40
1
41
1
10
33.4237863188114
20
-19.171198727343
30
0
41
1
10
33.3387675724582
20
-19.2374762402065
30
0
41
1
10
33.2624149835162
20
-19.3166971614424
30
0
41
1
10
33.1275830225152
20
-19.5044182955276
30
0
41
1
10
33.0714236513919
20
-19.6182236829104
30
0
41
1
10
32.9998805267615
20
-19.853393309409
30
0
41
1
10
32.9834859750034
20
-19.9779912705797
30
0
41
1
10
32.992351052511
20
-20.2208353592488
30
0
41
1
10
33.0178236826698
20
-20.3424720121619
30
0
41
1
10
33.105928942136
20
-20.565398036254
30
0
41
1
10
33.16973085007
20
-20.6697608630467
30
0
41
1
10
33.3262380962592
20
-20.8470716752308
30
0
41
1
10
33.4212500302035
20
-20.9225355006627
30
0
41
1
10
33.5351156207174
20
-20.9838986389487
30
0
41
1
10
33.5453882502608
20
-20.9892017044099
30
0
41
1
10
33.5557616642154
20
-20.9943280635674
30
0
0
SPLINE
5
18C
100
AcDbEntity
8
SK1
62
256
6
ByLayer
370
18
48
1
60
0
100
AcDbSpline
70
4
71
3
72
24
73
20
40
0
40
0
40
0
40
0
40
0.0014544386988701
40
0.0014544386988701
40
0.36195642305966
40
0.36195642305966
40
0.727731599250109
40
0.727731599250109
40
0.782013304695221
40
0.782013304695221
40
0.83700250193758
40
0.83700250193758
40
0.873144196436341
40
0.873144196436341
40
0.909511909647745
40
0.909511909647745
40
0.952113857168631
40
0.952113857168631
40
1
40
1
40
1
40
1
41
1
10
-0.217773520819946
20
-13.9477771104646
30
0
41
1
10
-0.217796303830596
20
-13.9477385212396
30
0
41
1
10
-0.21781911376317
20
-13.9476999169831
30
0
41
1
10
-0.223510113646853
20
-13.9380759054837
30
0
41
1
10
-0.230869554015214
20
-13.9275300777214
30
0
41
1
10
-0.252993763945881
20
-13.9036085654018
30
0
41
1
10
-0.266169306055218
20
-13.8900912648142
30
0
41
1
10
-0.299313210098944
20
-13.8713678522793
30
0
41
1
10
-0.304168151080091
20
-13.8688119846588
30
0
41
1
10
-0.315233613826876
20
-13.8635902765912
30
0
41
1
10
-0.321588767727207
20
-13.8608655729355
30
0
41
1
10
-0.333434048045575
20
-13.8565368608439
30
0
41
1
10
-0.338587345813778
20
-13.8548370746726
30
0
41
1
10
-0.349158334685967
20
-13.8517865918864
30
0
41
1
10
-0.354704697438706
20
-13.8504050227189
30
0
41
1
10
-0.366193697521965
20
-13.847969712967
30
0
41
1
10
-0.372213730133439
20
-13.8469665678177
30
0
41
1
10
-0.383950527302659
20
-13.8454141457692
30
0
41
1
10
-0.389694590782
20
-13.8449066720063
30
0
41
1
10
-0.394976888882184
20
-13.8446015176357
30
0
0
SPLINE
5
18D
100
AcDbEntity
8
1
62
256
6
ByLayer
370
18
48
1
60
0
100
AcDbSpline
70
4
71
3
72
8
73
4
40
0
40
0
40
0
40
0
40
1
40
1
40
1
40
1
41
1
10
17.0803645201175
20
3.18752084452385
30
0
41
1
10
17.1117304787411
20
3.60109749853706
30
0
41
1
10
17.1768308352432
20
4.06912539726386
30
0
41
1
10
17.2360063786745
20
4.57036548891733
30
0
0
SPLINE
5
18E
100
AcDbEntity
8
SK1
62
256
6
ByLayer
370
18
48
1
60
0
100
AcDbSpline
70
4
71
3
72
120
73
116
40
0
40
0
40
0
40
0
40
0.0053555999422319
40
0.0131272595906839
40
0.020898919239136
40
0.028670578887588
40
0.0364422385360401
40
0.0442138981844922
40
0.0519855578329442
40
0.0597572174813963
40
0.0675288771298483
40
0.0753005367783004
40
0.0830721964267524
40
0.0908438560752045
40
0.0986155157236565
40
0.106387175372109
40
0.114158835020561
40
0.121930494669013
40
0.129702154317465
40
0.137473813965917
40
0.145245473614369
40
0.153017133262821
40
0.160788792911273
40
0.176332112208177
40
0.191875431505081
40
0.207418750801985
40
0.222962070098889
40
0.230733729747341
40
0.238505389395793
40
0.246277049044246
40
0.254048708692698
40
0.269592027989602
40
0.285135347286506
40
0.292907006934958
40
0.30067866658341
40
0.308450326231862
40
0.316221985880314
40
0.323993645528766
40
0.331765305177218
40
0.347308624474122
40
0.355080284122574
40
0.362851943771026
40
0.37839526306793
40
0.393938582364835
40
0.401710242013287
40
0.409481901661739
40
0.425025220958643
40
0.432796880607095
40
0.436682710431321
40
0.440568540255547
40
0.448340199903999
40
0.456111859552451
40
0.471655178849355
40
0.479426838497807
40
0.487198498146259
40
0.494970157794711
40
0.502741817443163
40
0.510513477091615
40
0.518285136740067
40
0.52605679638852
40
0.533828456036972
40
0.541600115685424
40
0.549371775333876
40
0.56491509463078
40
0.572686754279232
40
0.580458413927684
40
0.588230073576136
40
0.592115903400362
40
0.596001733224588
40
0.60377339287304
40
0.611545052521492
40
0.619316712169944
40
0.627088371818396
40
0.634860031466848
40
0.6426316911153
40
0.658175010412205
40
0.673718329709109
40
0.681489989357561
40
0.689261649006013
40
0.704804968302917
40
0.712576627951369
40
0.720348287599821
40
0.728119947248273
40
0.735891606896725
40
0.743663266545177
40
0.751434926193629
40
0.759206585842081
40
0.766978245490533
40
0.782521564787437
40
0.790293224435889
40
0.798064884084342
40
0.805836543732794
40
0.813608203381246
40
0.821379863029698
40
0.82915152267815
40
0.844694841975054
40
0.852466501623506
40
0.860238161271958
40
0.86800982092041
40
0.875781480568862
40
0.891324799865766
40
0.899096459514218
40
0.90686811916267
40
0.914639778811122
40
0.922411438459574
40
0.930183098108026
40
0.937954757756479
40
0.945726417404931
40
0.953498077053383
40
0.961269736701835
40
0.969041396350287
40
0.976813055998739
40
0.984584715647191
40
0.992356375295643
40
1
40
1
40
1
40
1
41
1
10
-1.69999999999999
20
2.5837250319525
30
0
41
1
10
-1.69999999999999
20
2.62111400924692
30
0
41
1
10
-1.69999999999999
20
2.71257747842986
30
0
41
1
10
-1.69999999999999
20
2.85743848960826
30
0
41
1
10
-1.69999999999999
20
3.01805529196176
30
0
41
1
10
-1.69999999999999
20
3.17766896347746
30
0
41
1
10
-1.69999999999999
20
3.33626946559079
30
0
41
1
10
-1.69999999999999
20
3.49384788295134
30
0
41
1
10
-1.69999999999999
20
3.65039703338328
30
0
41
1
10
-1.69999999999999
20
3.80591068333544
30
0
41
1
10
-1.69999999999999
20
3.9603838288908
30
0
41
1
10
-1.69999999999999
20
4.11381118090259
30
0
41
1
10
-1.69999999999999
20
4.26618881241484
30
0
41
1
10
-1.69999999999999
20
4.41751369191317
30
0
41
1
10
-1.69999999999999
20
4.56778315161375
30
0
41
1
10
-1.69999999999999
20
4.7169946256985
30
0
41
1
10
-1.69999999999999
20
4.86514572624662
30
0
41
1
10
-1.69999999999999
20
5.01223421717728
30
0
41
1
10
-1.69999999999999
20
5.15825863689906
30
0
41
1
10
-1.69999999999999
20
5.30321731736851
30
0
41
1
10
-1.69999999999999
20
5.44710902267545
30
0
41
1
10
-1.69999999999999
20
5.58993219435266
30
0
41
1
10
-1.69999999999999
20
5.77892152593586
30
0
41
1
10
-1.69999999999999
20
6.01251450148573
30
0
41
1
10
-1.69999999999999
20
6.28851702131561
30
0
41
1
10
-1.69999999999999
20
6.56021849497904
30
0
41
1
10
-1.69999999999999
20
6.78305839594086
30
0
41
1
10
-1.69999999999999
20
6.95914718913937
30
0
41
1
10
-1.69999999999999
20
7.0901422748378
30
0
41
1
10
-1.69999999999999
20
7.22005471809891
30
0
41
1
10
-1.69999999999999
20
7.391814483107
30
0
41
1
10
-1.69999999999999
20
7.60382757721297
30
0
41
1
10
-1.69999999999999
20
7.8122141211507
30
0
41
1
10
-1.69999999999999
20
7.97672004102668
30
0
41
1
10
-1.69999999999999
20
8.09901466976936
30
0
41
1
10
-1.69999999999999
20
8.22021382021134
30
0
41
1
10
-1.69999999999999
20
8.34031608257325
30
0
41
1
10
-1.69999999999999
20
8.45931946186533
30
0
41
1
10
-1.69999999999999
20
8.61651163422607
30
0
41
1
10
-1.69999999999999
20
8.77152769372714
30
0
41
1
10
-1.69999999999999
20
8.92429762219672
30
0
41
1
10
-1.69999999999999
20
9.07558728630886
30
0
41
1
10
-1.69999999999999
20
9.26193699842017
30
0
41
1
10
-1.69999999999999
20
9.44455857133374
30
0
41
1
10
-1.69999999999999
20
9.5883900992504
30
0
41
1
10
-1.69999999999999
20
9.73071863089592
30
0
41
1
10
-1.69999999999999
20
9.87081045044334
30
0
41
1
10
-1.69999999999999
20
9.99138145148612
30
0
41
1
10
-1.69999999999999
20
10.059706595653
30
0
41
1
10
-1.69999999999999
20
10.127650582945
30
0
41
1
10
-1.69999999999999
20
10.2118742978003
30
0
41
1
10
-1.69999999999999
20
10.3450861597474
30
0
41
1
10
-1.69999999999999
20
10.4760157822056
30
0
41
1
10
-1.69999999999999
20
10.6046008653873
30
0
41
1
10
-1.69999999999999
20
10.6998796625668
30
0
41
1
10
-1.69999999999999
20
10.7939888545435
30
0
41
1
10
-1.69999999999999
20
10.8869237943964
30
0
41
1
10
-1.69999999999999
20
10.9786794570574
30
0
41
1
10
-1.69999999999999
20
11.069250952524
30
0
41
1
10
-1.69999999999999
20
11.1586337774266
30
0
41
1
10
-1.69999999999999
20
11.2468221981049
30
0
41
1
10
-1.69999999999999
20
11.3338110691597
30
0
41
1
10
-1.69999999999999
20
11.4481829097131
30
0
41
1
10
-1.69999999999999
20
11.5601529310588
30
0
41
1
10
-1.69999999999999
20
11.6696587897978
30
0
41
1
10
-1.69999999999999
20
11.7505641463283
30
0
41
1
10
-1.69999999999999
20
11.8169591619061
30
0
41
1
10
-1.69999999999999
20
11.869448828233
30
0
41
1
10
-1.69999999999999
20
11.9215236271769
30
0
41
1
10
-1.69999999999999
20
11.9858436943514
30
0
41
1
10
-1.69999999999999
20
12.0617686735772
30
0
41
1
10
-1.69999999999999
20
12.1364317035572
30
0
41
1
10
-1.69999999999999
20
12.2098248313331
30
0
41
1
10
-1.69999999999999
20
12.2819407102379
30
0
41
1
10
-1.69999999999999
20
12.3763763795169
30
0
41
1
10
-1.69999999999999
20
12.4912006631364
30
0
41
1
10
-1.69999999999999
20
12.6016599065257
30
0
41
1
10
-1.69999999999999
20
12.687362440577
30
0
41
1
10
-1.69999999999999
20
12.7712834981639
30
0
41
1
10
-1.69999999999999
20
12.8525264302737
30
0
41
1
10
-1.69999999999999
20
12.9310230820619
30
0
41
1
10
-1.69999999999999
20
12.9885221046098
30
0
41
1
10
-1.69999999999999
20
13.0446338377524
30
0
41
1
10
-1.69999999999999
20
13.0993474417035
30
0
41
1
10
-1.69999999999999
20
13.1526505331688
30
0
41
1
10
-1.69999999999999
20
13.2045321176789
30
0
41
1
10
-1.69999999999999
20
13.2549799687684
30
0
41
1
10
-1.69999999999999
20
13.3203101272292
30
0
41
1
10
-1.69999999999999
20
13.3827344481881
30
0
41
1
10
-1.69999999999999
20
13.4421723383994
30
0
41
1
10
-1.69999999999999
20
13.4852529409442
30
0
41
1
10
-1.69999999999999
20
13.5268172136993
30
0
41
1
10
-1.69999999999999
20
13.5668499598694
30
0
41
1
10
-1.69999999999999
20
13.6053356175566
30
0
41
1
10
-1.69999999999999
20
13.6545611570253
30
0
41
1
10
-1.69999999999999
20
13.7006353167884
30
0
41
1
10
-1.69999999999999
20
13.7434661079967
30
0
41
1
10
-1.69999999999999
20
13.7739560268625
30
0
41
1
10
-1.69999999999999
20
13.8027899277569
30
0
41
1
10
-1.69999999999999
20
13.8389980176944
30
0
41
1
10
-1.69999999999999
20
13.8718187984145
30
0
41
1
10
-1.69999999999999
20
13.9011479145568
30
0
41
1
10
-1.69999999999999
20
13.9213794981548
30
0
41
1
10
-1.69999999999999
20
13.9398197437578
30
0
41
1
10
-1.69999999999999
20
13.9564420504847
30
0
41
1
10
-1.69999999999999
20
13.9712195410175
30
0
41
1
10
-1.69999999999999
20
13.9841238377961
30
0
41
1
10
-1.69999999999999
20
13.9951249982352
30
0
41
1
10
-1.69999999999999
20
14.0041924220526
30
0
41
1
10
-1.69999999999999
20
14.0112932507837
30
0
41
1
10
-1.69999999999999
20
14.0163938901866
30
0
41
1
10
-1.69999999999999
20
14.019458382701
30
0
41
1
10
-1.69999999999999
20
14.0204497516689
30
0
41
1
10
-1.69999999999996
20
14.0193347369039
30
0
41
1
10
-1.69999999999996
20
14.0171811880606
30
0
41
1
10
-1.69999999999996
20
14.0157592855415
30
0
0
SPLINE
5
18F
100
AcDbEntity
8
SK1
62
256
6
ByLayer
370
18
48
1
60
0
100
AcDbSpline
70
4
71
3
72
118
73
114
40
0
40
0
40
0
40
0
40
0.0076461638425733
40
0.0154178036385647
40
0.0231894434345561
40
0.0309610832305476
40
0.0387327230265389
40
0.0465043628225304
40
0.0542760026185218
40
0.0620476424145132
40
0.0698192822105046
40
0.077590922006496
40
0.0931342015984788
40
0.108677481190462
40
0.124220760782444
40
0.131992400578436
40
0.139764040374427
40
0.147535680170419
40
0.15530731996641
40
0.170850599558393
40
0.178622239354384
40
0.186393879150376
40
0.194165518946367
40
0.201937158742359
40
0.20970879853835
40
0.217480438334341
40
0.233023717926324
40
0.240795357722316
40
0.248566997518307
40
0.256338637314298
40
0.26411027711029
40
0.271881916906281
40
0.279653556702273
40
0.287425196498264
40
0.295196836294256
40
0.310740115886238
40
0.31851175568223
40
0.326283395478221
40
0.341826675070204
40
0.357369954662187
40
0.365141594458178
40
0.37291323425417
40
0.380684874050161
40
0.388456513846152
40
0.396228153642144
40
0.403999793438135
40
0.407885613336131
40
0.411771433234127
40
0.419543073030118
40
0.427314712826109
40
0.435086352622101
40
0.450629632214084
40
0.458401272010075
40
0.466172911806067
40
0.473944551602058
40
0.481716191398049
40
0.489487831194041
40
0.497259470990032
40
0.505031110786023
40
0.512802750582015
40
0.520574390378006
40
0.528346030173998
40
0.543889309765981
40
0.551660949561972
40
0.559432589357963
40
0.563318409255959
40
0.567204229153955
40
0.574975868949946
40
0.590519148541929
40
0.59829078833792
40
0.606062428133912
40
0.621605707725895
40
0.637148987317878
40
0.644920627113869
40
0.65269226690986
40
0.668235546501843
40
0.676007186297835
40
0.683778826093826
40
0.691550465889817
40
0.699322105685809
40
0.7070937454818
40
0.714865385277792
40
0.730408664869774
40
0.745951944461757
40
0.753723584257749
40
0.76149522405374
40
0.769266863849732
40
0.777038503645723
40
0.792581783237706
40
0.808125062829688
40
0.823668342421671
40
0.839211622013654
40
0.846983261809645
40
0.854754901605637
40
0.862526541401628
40
0.87029818119762
40
0.878069820993611
40
0.885841460789602
40
0.893613100585594
40
0.901384740381585
40
0.909156380177577
40
0.916928019973568
40
0.92469965976956
40
0.932471299565551
40
0.940242939361542
40
0.948014579157534
40
0.955786218953525
40
0.963557858749517
40
0.971329498545508
40
0.979101138341499
40
0.986872778137491
40
0.994644417933482
40
1
40
1
40
1
40
1
41
1
10
-1.70000000000002
20
-14.0157582212587
30
0
41
1
10
-1.70000000000002
20
-14.0171808697891
30
0
41
1
10
-1.69999999999999
20
-14.0193350222373
30
0
41
1
10
-1.70000000000002
20
-14.0204498319149
30
0
41
1
10
-1.70000000000002
20
-14.0194577493028
30
0
41
1
10
-1.70000000000002
20
-14.0163929237538
30
0
41
1
10
-1.70000000000002
20
-14.0112928179986
30
0
41
1
10
-1.70000000000002
20
-14.0041925984504
30
0
41
1
10
-1.70000000000002
20
-13.9951252442004
30
0
41
1
10
-1.70000000000002
20
-13.9841239086368
30
0
41
1
10
-1.70000000000002
20
-13.9712195253815
30
0
41
1
10
-1.70000000000002
20
-13.9515178138587
30
0
41
1
10
-1.70000000000002
20
-13.9222750232465
30
0
41
1
10
-1.70000000000002
20
-13.8800204120324
30
0
41
1
10
-1.70000000000002
20
-13.838998019961
30
0
41
1
10
-1.70000000000002
20
-13.8027899045868
30
0
41
1
10
-1.70000000000002
20
-13.773955994413
30
0
41
1
10
-1.70000000000002
20
-13.7434660879001
30
0
41
1
10
-1.70000000000002
20
-13.7006353174901
30
0
41
1
10
-1.70000000000002
20
-13.6545611373555
30
0
41
1
10
-1.70000000000002
20
-13.6053355893185
30
0
41
1
10
-1.70000000000002
20
-13.5668499361124
30
0
41
1
10
-1.70000000000002
20
-13.5268172028035
30
0
41
1
10
-1.70000000000002
20
-13.485252935173
30
0
41
1
10
-1.70000000000002
20
-13.4421723218484
30
0
41
1
10
-1.70000000000002
20
-13.3827344162836
30
0
41
1
10
-1.70000000000002
20
-13.3203101073726
30
0
41
1
10
-1.70000000000002
20
-13.2549799608479
30
0
41
1
10
-1.70000000000002
20
-13.2045321061977
30
0
41
1
10
-1.70000000000002
20
-13.1526505121852
30
0
41
1
10
-1.70000000000002
20
-13.099347414251
30
0
41
1
10
-1.70000000000002
20
-13.0446338149516
30
0
41
1
10
-1.70000000000002
20
-12.9885220902628
30
0
41
1
10
-1.70000000000002
20
-12.9310230723471
30
0
41
1
10
-1.70000000000002
20
-12.8525264142953
30
0
41
1
10
-1.70000000000002
20
-12.7712834714132
30
0
41
1
10
-1.70000000000002
20
-12.6873624197502
30
0
41
1
10
-1.70000000000002
20
-12.6016598943421
30
0
41
1
10
-1.70000000000002
20
-12.4912006491746
30
0
41
1
10
-1.70000000000002
20
-12.3763763558488
30
0
41
1
10
-1.70000000000002
20
-12.2819406900945
30
0
41
1
10
-1.70000000000002
20
-12.2098248156179
30
0
41
1
10
-1.70000000000002
20
-12.1364316894724
30
0
41
1
10
-1.70000000000002
20
-12.0617686582407
30
0
41
1
10
-1.70000000000002
20
-11.9858436758677
30
0
41
1
10
-1.70000000000002
20
-11.9215236068653
30
0
41
1
10
-1.70000000000002
20
-11.8694488081267
30
0
41
1
10
-1.70000000000002
20
-11.8169591426362
30
0
41
1
10
-1.70000000000002
20
-11.7505641289662
30
0
41
1
10
-1.70000000000002
20
-11.6696587742526
30
0
41
1
10
-1.70000000000002
20
-11.5601529159528
30
0
41
1
10
-1.70000000000002
20
-11.448182891669
30
0
41
1
10
-1.70000000000002
20
-11.3338110499831
30
0
41
1
10
-1.70000000000002
20
-11.2468221792499
30
0
41
1
10
-1.70000000000002
20
-11.1586337603462
30
0
41
1
10
-1.70000000000002
20
-11.0692509372408
30
0
41
1
10
-1.70000000000002
20
-10.9786794422307
30
0
41
1
10
-1.70000000000002
20
-10.8869237783616
30
0
41
1
10
-1.70000000000002
20
-10.7939888359847
30
0
41
1
10
-1.70000000000002
20
-10.6998796425436
30
0
41
1
10
-1.70000000000002
20
-10.6046008465563
30
0
41
1
10
-1.70000000000002
20
-10.4760157679139
30
0
41
1
10
-1.70000000000002
20
-10.3450861470912
30
0
41
1
10
-1.70000000000002
20
-10.2118742799613
30
0
41
1
10
-1.70000000000002
20
-10.1276505623382
30
0
41
1
10
-1.70000000000002
20
-10.0597065749413
30
0
41
1
10
-1.70000000000002
20
-9.9913814320609
30
0
41
1
10
-1.70000000000002
20
-9.87081043657869
30
0
41
1
10
-1.70000000000002
20
-9.73071862052217
30
0
41
1
10
-1.70000000000002
20
-9.58839008121353
30
0
41
1
10
-1.70000000000002
20
-9.44455854729449
30
0
41
1
10
-1.70000000000002
20
-9.26193698423123
30
0
41
1
10
-1.70000000000002
20
-9.07558727703642
30
0
41
1
10
-1.70000000000002
20
-8.92429760284432
30
0
41
1
10
-1.70000000000002
20
-8.77152766795058
30
0
41
1
10
-1.70000000000002
20
-8.61651162008161
30
0
41
1
10
-1.70000000000002
20
-8.45931945344486
30
0
41
1
10
-1.70000000000002
20
-8.34031606829598
30
0
41
1
10
-1.70000000000002
20
-8.22021379775831
30
0
41
1
10
-1.70000000000002
20
-8.09901464495698
30
0
41
1
10
-1.70000000000002
20
-7.9767200242907
30
0
41
1
10
-1.70000000000002
20
-7.81221411547432
30
0
41
1
10
-1.70000000000002
20
-7.60382755625838
30
0
41
1
10
-1.70000000000002
20
-7.39181445781463
30
0
41
1
10
-1.70000000000002
20
-7.22005470774221
30
0
41
1
10
-1.70000000000002
20
-7.09014226669851
30
0
41
1
10
-1.70000000000002
20
-6.95914717066265
30
0
41
1
10
-1.70000000000002
20
-6.7830583657493
30
0
41
1
10
-1.70000000000002
20
-6.56021848903171
30
0
41
1
10
-1.70000000000002
20
-6.28851700104781
30
0
41
1
10
-1.70000000000002
20
-6.01251447744062
30
0
41
1
10
-1.70000000000002
20
-5.77892152059965
30
0
41
1
10
-1.70000000000002
20
-5.58993216915877
30
0
41
1
10
-1.70000000000002
20
-5.44710899667646
30
0
41
1
10
-1.70000000000002
20
-5.30321729486519
30
0
41
1
10
-1.70000000000002
20
-5.15825857839869
30
0
41
1
10
-1.70000000000002
20
-5.01223405348068
30
0
41
1
10
-1.70000000000002
20
-4.86514556778678
30
0
41
1
10
-1.70000000000002
20
-4.71699468615466
30
0
41
1
10
-1.70000000000002
20
-4.56778337246482
30
0
41
1
10
-1.70000000000002
20
-4.41751381174834
30
0
41
1
10
-1.70000000000002
20
-4.26618872973953
30
0
41
1
10
-1.70000000000002
20
-4.11381092681606
30
0
41
1
10
-1.70000000000002
20
-3.96038358832212
30
0
41
1
10
-1.70000000000002
20
-3.80591077742719
30
0
41
1
10
-1.70000000000002
20
-3.65039714326571
30
0
41
1
10
-1.70000000000002
20
-3.49384789900151
30
0
41
1
10
-1.70000000000002
20
-3.33626943234702
30
0
41
1
10
-1.70000000000002
20
-3.17766893265431
30
0
41
1
10
-1.70000000000002
20
-3.01805527431182
30
0
41
1
10
-1.69999999999999
20
-2.85743846779499
30
0
41
1
10
-1.69999999999999
20
-2.71257747642741
30
0
41
1
10
-1.69999999999999
20
-2.62111404232408
30
0
41
1
10
-1.69999999999999
20
-2.58372509632827
30
0
0
SPLINE
5
190
100
AcDbEntity
8
SK1
62
256
6
ByLayer
370
18
48
1
60
0
100
AcDbSpline
70
4
71
3
72
287
73
283
40
0
40
0
40
0
40
0
40
0.0011530240125373
40
0.0046414678056571
40
0.0081299115987768
40
0.0116183553918966
40
0.0151067991850163
40
0.0185952429781361
40
0.0220836867712558
40
0.0255721305643756
40
0.0290605743574953
40
0.032549018150615
40
0.0395259057368545
40
0.046502793323094
40
0.0534796809093335
40
0.0569681247024533
40
0.060456568495573
40
0.0639450122886927
40
0.0674334560818125
40
0.074410343668052
40
0.0778987874611718
40
0.0813872312542915
40
0.0848756750474112
40
0.088364118840531
40
0.0918525626336507
40
0.0953410064267705
40
0.10231789401301
40
0.10580633780613
40
0.10929478159925
40
0.112783225392369
40
0.116271669185489
40
0.119760112978609
40
0.123248556771728
40
0.126737000564848
40
0.130225444357968
40
0.137202331944207
40
0.140690775737327
40
0.144179219530447
40
0.151156107116686
40
0.158132994702926
40
0.161621438496046
40
0.165109882289165
40
0.168598326082285
40
0.172086769875405
40
0.175575213668524
40
0.179063657461644
40
0.180807879358204
40
0.182552101254764
40
0.186040545047884
40
0.189528988841004
40
0.193017432634123
40
0.199994320220363
40
0.203482764013483
40
0.206971207806602
40
0.210459651599722
40
0.213948095392842
40
0.217436539185962
40
0.220924982979081
40
0.224413426772201
40
0.227901870565321
40
0.231390314358441
40
0.23487875815156
40
0.2418556457378
40
0.245344089530919
40
0.248832533324039
40
0.250576755220599
40
0.252320977117159
40
0.255809420910279
40
0.262786308496518
40
0.266274752289638
40
0.269763196082758
40
0.276740083668997
40
0.283716971255237
40
0.287205415048356
40
0.290693858841476
40
0.297670746427716
40
0.301159190220835
40
0.304647634013955
40
0.308136077807075
40
0.311624521600195
40
0.315112965393314
40
0.318601409186434
40
0.325578296772674
40
0.332555184358913
40
0.336043628152033
40
0.339532071945153
40
0.343020515738272
40
0.346508959531392
40
0.353485847117632
40
0.360462734703871
40
0.367439622290111
40
0.37441650987635
40
0.37790495366947
40
0.381393397462589
40
0.384881841255709
40
0.388370285048829
40
0.391858728841949
40
0.395347172635069
40
0.398835616428188
40
0.402324060221308
40
0.405812504014428
40
0.409300947807547
40
0.412789391600667
40
0.416277835393787
40
0.419766279186907
40
0.423254722980026
40
0.426743166773146
40
0.430231610566266
40
0.433720054359386
40
0.437208498152505
40
0.440696941945625
40
0.444185385738745
40
0.447673829531865
40
0.449418051428425
40
0.451162273324984
40
0.454650717118104
40
0.456394939014664
40
0.458139160911224
40
0.459883382807784
40
0.461627604704344
40
0.463371826600903
40
0.465116048497463
40
0.466860270394023
40
0.468604492290583
40
0.472092936083703
40
0.473837157980263
40
0.475581379876823
40
0.477325601773383
40
0.479069823669942
40
0.480814045566502
40
0.482558267463062
40
0.484302489359622
40
0.486046711256182
40
0.487790933152742
40
0.489535155049302
40
0.491279376945861
40
0.493023598842421
40
0.494767820738981
40
0.496512042635541
40
0.498256264532101
40
0.500000486428661
40
0.501744708325221
40
0.503488930221781
40
0.50523315211834
40
0.5069773740149
40
0.50872159591146
40
0.51046581780802
40
0.51221003970458
40
0.51395426160114
40
0.5156984834977
40
0.51744270539426
40
0.519186927290819
40
0.520931149187379
40
0.522675371083939
40
0.524419592980499
40
0.526163814877059
40
0.527908036773619
40
0.531396480566738
40
0.533140702463298
40
0.534884924359858
40
0.536629146256418
40
0.538373368152978
40
0.540117590049538
40
0.541861811946098
40
0.543606033842658
40
0.545350255739218
40
0.548838699532337
40
0.550582921428897
40
0.552327143325457
40
0.555815587118577
40
0.559304030911697
40
0.562792474704816
40
0.566280918497936
40
0.569769362291056
40
0.573257806084175
40
0.576746249877295
40
0.580234693670415
40
0.583723137463535
40
0.587211581256654
40
0.590700025049774
40
0.594188468842894
40
0.597676912636014
40
0.601165356429133
40
0.604653800222253
40
0.608142244015373
40
0.611630687808493
40
0.615119131601612
40
0.618607575394732
40
0.622096019187852
40
0.625584462980972
40
0.632561350567211
40
0.639538238153451
40
0.64651512573969
40
0.65349201332593
40
0.656980457119049
40
0.660468900912169
40
0.663957344705289
40
0.667445788498409
40
0.674422676084648
40
0.681399563670888
40
0.684888007464007
40
0.688376451257127
40
0.691864895050247
40
0.695353338843366
40
0.698841782636486
40
0.702330226429606
40
0.709307114015845
40
0.712795557808965
40
0.716284001602085
40
0.723260889188324
40
0.730237776774564
40
0.733726220567684
40
0.737214664360803
40
0.744191551947043
40
0.747679995740163
40
0.749424217636722
40
0.751168439533282
40
0.754656883326402
40
0.758145327119522
40
0.765122214705761
40
0.768610658498881
40
0.772099102292001
40
0.775587546085121
40
0.779075989878241
40
0.78256443367136
40
0.78605287746448
40
0.7895413212576
40
0.793029765050719
40
0.796518208843839
40
0.800006652636959
40
0.806983540223198
40
0.810471984016318
40
0.813960427809438
40
0.817448871602558
40
0.819193093499117
40
0.820937315395677
40
0.824425759188797
40
0.827914202981917
40
0.831402646775037
40
0.834891090568156
40
0.838379534361276
40
0.841867978154396
40
0.848844865740635
40
0.855821753326875
40
0.859310197119994
40
0.862798640913114
40
0.869775528499354
40
0.873263972292473
40
0.876752416085593
40
0.880240859878713
40
0.883729303671833
40
0.887217747464952
40
0.890706191258072
40
0.894194635051192
40
0.897683078844312
40
0.904659966430551
40
0.908148410223671
40
0.911636854016791
40
0.91512529780991
40
0.91861374160303
40
0.92210218539615
40
0.92559062918927
40
0.932567516775509
40
0.936055960568629
40
0.939544404361749
40
0.943032848154868
40
0.946521291947988
40
0.953498179534228
40
0.956986623327347
40
0.960475067120467
40
0.963963510913587
40
0.967451954706707
40
0.970940398499826
40
0.974428842292946
40
0.977917286086066
40
0.981405729879186
40
0.984894173672305
40
0.988382617465425
40
0.991871061258545
40
0.995359505051665
40
0.998847948844784
40
1
40
1
40
1
40
1
41
1
10
-22.5
20
-13.4956358842493
30
0
41
1
10
-22.5000000000001
20
-13.4959444097495
30
0
41
1
10
-22.5
20
-13.4970336941221
30
0
41
1
10
-22.5
20
-13.4978716184631
30
0
41
1
10
-22.5
20
-13.4969161903088
30
0
41
1
10
-22.5
20
-13.4939625245411
30
0
41
1
10
-22.5
20
-13.4890441905268
30
0
41
1
10
-22.5
20
-13.4821928739338
30
0
41
1
10
-22.5
20
-13.4734382711797
30
0
41
1
10
-22.5
20
-13.4628104278487
30
0
41
1
10
-22.5
20
-13.4503375493537
30
0
41
1
10
-22.5
20
-13.4312436783152
30
0
41
1
10
-22.5
20
-13.402990048048
30
0
41
1
10
-22.5
20
-13.3620642251226
30
0
41
1
10
-22.5
20
-13.3223661774289
30
0
41
1
10
-22.5
20
-13.2871835761245
30
0
41
1
10
-22.5
20
-13.2592104836087
30
0
41
1
10
-22.5
20
-13.2296213566399
30
0
41
1
10
-22.5
20
-13.1879639126742
30
0
41
1
10
-22.5
20
-13.1433841284413
30
0
41
1
10
-22.5
20
-13.0954724183383
30
0
41
1
10
-22.5
20
-13.0580720783436
30
0
41
1
10
-22.5
20
-13.0191589474765
30
0
41
1
10
-22.5
20
-12.9787481075024
30
0
41
1
10
-22.5
20
-12.9368537004398
30
0
41
1
10
-22.5
20
-12.8789379874313
30
0
41
1
10
-22.5
20
-12.8184132188765
30
0
41
1
10
-22.5
20
-12.7547247883428
30
0
41
1
10
-22.5
20
-12.7056201369325
30
0
41
1
10
-22.5
20
-12.6551113810006
30
0
41
1
10
-22.5
20
-12.6032111684973
30
0
41
1
10
-22.5
20
-12.5499297998313
30
0
41
1
10
-22.5
20
-12.4952790326449
30
0
41
1
10
-22.5
20
-12.4392702770472
30
0
41
1
10
-22.5
20
-12.3626709718698
30
0
41
1
10
-22.5
20
-12.2837700633603
30
0
41
1
10
-22.5
20
-12.2018541666219
30
0
41
1
10
-22.5
20
-12.1181901660327
30
0
41
1
10
-22.5
20
-12.0106580823311
30
0
41
1
10
-22.5
20
-11.8988607853737
30
0
41
1
10
-22.5
20
-11.8066390784571
30
0
41
1
10
-22.5
20
-11.7363216027855
30
0
41
1
10
-22.5
20
-11.6647550005754
30
0
41
1
10
-22.5
20
-11.59194615036
30
0
41
1
10
-22.5
20
-11.5179033392113
30
0
41
1
10
-22.5
20
-11.4552554262223
30
0
41
1
10
-22.5
20
-11.4043880916922
30
0
41
1
10
-22.5
20
-11.3531143221947
30
0
41
1
10
-22.5
20
-11.2884404549429
30
0
41
1
10
-22.5
20
-11.2095312020911
30
0
41
1
10
-22.5
20
-11.1025558247745
30
0
41
1
10
-22.5
20
-10.9936883814227
30
0
41
1
10
-22.5
20
-10.881957392112
30
0
41
1
10
-22.5
20
-10.7971107518714
30
0
41
1
10
-22.5
20
-10.7110949831286
30
0
41
1
10
-22.5
20
-10.6239149454148
30
0
41
1
10
-22.5
20
-10.5355769819029
30
0
41
1
10
-22.5
20
-10.4460865275718
30
0
41
1
10
-22.5
20
-10.3554481215356
30
0
41
1
10
-22.5
20
-10.2636670923514
30
0
41
1
10
-22.5
20
-10.1707494549495
30
0
41
1
10
-22.5
20
-10.0451570413025
30
0
41
1
10
-22.5
20
-9.91789359302007
30
0
41
1
10
-22.5
20
-9.78780083934146
30
0
41
1
10
-22.5
20
-9.70579078784201
30
0
41
1
10
-22.5
20
-9.63944489130401
30
0
41
1
10
-22.5
20
-9.57273011219266
30
0
41
1
10
-22.5
20
-9.45508832781684
30
0
41
1
10
-22.5
20
-9.31898450356374
30
0
41
1
10
-22.5
20
-9.1800498391992
30
0
41
1
10
-22.5
20
-9.03966368952013
30
0
41
1
10
-22.5
20
-8.86197296792946
30
0
41
1
10
-22.5
20
-8.68069429175793
30
0
41
1
10
-22.5
20
-8.53310893756455
30
0
41
1
10
-22.5
20
-8.38410353449393
30
0
41
1
10
-22.5
20
-8.23370690743866
30
0
41
1
10
-22.5
20
-8.08045168982591
30
0
41
1
10
-22.5
20
-7.96465014223949
30
0
41
1
10
-22.5
20
-7.84779993569688
30
0
41
1
10
-22.5
20
-7.72990617143799
30
0
41
1
10
-22.5
20
-7.61097083499581
30
0
41
1
10
-22.5
20
-7.45073654157576
30
0
41
1
10
-22.5
20
-7.24848505186407
30
0
41
1
10
-22.5
20
-7.04280518235288
30
0
41
1
10
-22.5
20
-6.87569112826708
30
0
41
1
10
-22.5
20
-6.74956632065383
30
0
41
1
10
-22.5
20
-6.62242827644153
30
0
41
1
10
-22.5
20
-6.45125553312127
30
0
41
1
10
-22.5
20
-6.23550102644128
30
0
41
1
10
-22.5
20
-5.97220551217546
30
0
41
1
10
-22.5
20
-5.70495651005666
30
0
41
1
10
-22.5
20
-5.47933703035864
30
0
41
1
10
-22.5
20
-5.29623480232561
30
0
41
1
10
-22.5
20
-5.15823567759483
30
0
41
1
10
-22.5
20
-5.01927995326389
30
0
41
1
10
-22.5
20
-4.87937450907219
30
0
41
1
10
-22.5
20
-4.73852599905976
30
0
41
1
10
-22.5
20
-4.59674211262626
30
0
41
1
10
-22.5
20
-4.45403157575555
30
0
41
1
10
-22.5
20
-4.31040309161108
30
0
41
1
10
-22.5
20
-4.16586580001646
30
0
41
1
10
-22.5
20
-4.02043049501103
30
0
41
1
10
-22.5
20
-3.87410976932691
30
0
41
1
10
-22.5
20
-3.72691565105666
30
0
41
1
10
-22.5
20
-3.57886126909131
30
0
41
1
10
-22.5
20
-3.42996277697037
30
0
41
1
10
-22.5
20
-3.28023687778398
30
0
41
1
10
-22.5
20
-3.12970257053465
30
0
41
1
10
-22.5
20
-2.97838003358393
30
0
41
1
10
-22.5
20
-2.82629216765807
30
0
41
1
10
-22.5
20
-2.67346525953187
30
0
41
1
10
-22.5
20
-2.51992549648588
30
0
41
1
10
-22.5
20
-2.39172828921556
30
0
41
1
10
-22.5
20
-2.28823684006227
30
0
41
1
10
-22.5
20
-2.18454587114539
30
0
41
1
10
-22.5
20
-2.08161602870012
30
0
41
1
10
-22.5
20
-1.97729727415893
30
0
41
1
10
-22.5
20
-1.89920682890116
30
0
41
1
10
-22.5
20
-1.82098464012648
30
0
41
1
10
-22.5
20
-1.74263823347053
30
0
41
1
10
-22.5
20
-1.66417084854149
30
0
41
1
10
-22.5
20
-1.58559123041408
30
0
41
1
10
-22.5
20
-1.50690426712362
30
0
41
1
10
-22.5
20
-1.40144074045125
30
0
41
1
10
-22.5
20
-1.29707563275713
30
0
41
1
10
-22.5
20
-1.19121858421377
30
0
41
1
10
-22.5
20
-1.1120955356478
30
0
41
1
10
-22.5
20
-1.03290644237788
30
0
41
1
10
-22.5
20
-0.953656066810112
30
0
41
1
10
-22.5
20
-0.874352168955824
30
0
41
1
10
-22.5
20
-0.79500019850525
30
0
41
1
10
-22.5
20
-0.715606608921291
30
0
41
1
10
-22.5
20
-0.636176666807842
30
0
41
1
10
-22.5
20
-0.556715993884069
30
0
41
1
10
-22.5
20
-0.47722933826293
30
0
41
1
10
-22.5
20
-0.397721593521027
30
0
41
1
10
-22.5
20
-0.318196568076132
30
0
41
1
10
-22.5
20
-0.238658582119797
30
0
41
1
10
-22.5
20
-0.159110826532384
30
0
41
1
10
-22.5
20
-0.0795570008675668
30
0
41
1
10
-22.5
20
4.3520458E-09
30
0
41
1
10
-22.5
20
0.0795570195283233
30
0
41
1
10
-22.5
20
0.15911086362101
30
0
41
1
10
-22.5
20
0.238658616598542
30
0
41
1
10
-22.5
20
0.318196574925054
30
0
41
1
10
-22.5
20
0.397721596430102
30
0
41
1
10
-22.5
20
0.477229377935004
30
0
41
1
10
-22.5
20
0.556716044364038
30
0
41
1
10
-22.5
20
0.636176672545048
30
0
41
1
10
-22.5
20
0.715606595157254
30
0
41
1
10
-22.5
20
0.795000235128697
30
0
41
1
10
-22.5
20
0.874352236673644
30
0
41
1
10
-22.5
20
0.953656082912005
30
0
41
1
10
-22.5
20
1.03290641330761
30
0
41
1
10
-22.5
20
1.11209555133377
30
0
41
1
10
-22.5
20
1.19121866112908
30
0
41
1
10
-22.5
20
1.29707565327638
30
0
41
1
10
-22.5
20
1.4014407103939
30
0
41
1
10
-22.5
20
1.50690430877856
30
0
41
1
10
-22.5
20
1.58559131690839
30
0
41
1
10
-22.5
20
1.66417088377821
30
0
41
1
10
-22.5
20
1.74263820265685
30
0
41
1
10
-22.5
20
1.82098461234614
30
0
41
1
10
-22.5
20
1.89920687090046
30
0
41
1
10
-22.5
20
1.97729736527981
30
0
41
1
10
-22.5
20
2.08161605220539
30
0
41
1
10
-22.5
20
2.18454583019772
30
0
41
1
10
-22.5
20
2.28823685042079
30
0
41
1
10
-22.5
20
2.39172837491472
30
0
41
1
10
-22.5
20
2.51992552331166
30
0
41
1
10
-22.5
20
2.67346522993282
30
0
41
1
10
-22.5
20
2.82629223006828
30
0
41
1
10
-22.5
20
2.9783800820847
30
0
41
1
10
-22.5
20
3.12970236953152
30
0
41
1
10
-22.5
20
3.28023637585133
30
0
41
1
10
-22.5
20
3.42996282061057
30
0
41
1
10
-22.5
20
3.57886234252632
30
0
41
1
10
-22.5
20
3.72691655621921
30
0
41
1
10
-22.5
20
3.87410940415097
30
0
41
1
10
-22.5
20
4.02042950258556
30
0
41
1
10
-22.5
20
4.16586499181523
30
0
41
1
10
-22.5
20
4.31040320562684
30
0
41
1
10
-22.5
20
4.45403251641872
30
0
41
1
10
-22.5
20
4.59674271442697
30
0
41
1
10
-22.5
20
4.73852585442469
30
0
41
1
10
-22.5
20
4.87937424460154
30
0
41
1
10
-22.5
20
5.01927991936708
30
0
41
1
10
-22.5
20
5.1582357150678
30
0
41
1
10
-22.5
20
5.29623478947161
30
0
41
1
10
-22.5
20
5.47933703089234
30
0
41
1
10
-22.5
20
5.70495655337436
30
0
41
1
10
-22.5
20
5.97220551419215
30
0
41
1
10
-22.5
20
6.23550104742762
30
0
41
1
10
-22.5
20
6.45125557139403
30
0
41
1
10
-22.5
20
6.62242825981923
30
0
41
1
10
-22.5
20
6.74956631857708
30
0
41
1
10
-22.5
20
6.87569116366487
30
0
41
1
10
-22.5
20
7.04280522024897
30
0
41
1
10
-22.5
20
7.2484850530243
30
0
41
1
10
-22.5
20
7.45073654783442
30
0
41
1
10
-22.5
20
7.61097087712022
30
0
41
1
10
-22.5
20
7.72990620240674
30
0
41
1
10
-22.5
20
7.84779994085656
30
0
41
1
10
-22.5
20
7.96465013686174
30
0
41
1
10
-22.5
20
8.08045169790762
30
0
41
1
10
-22.5
20
8.23370694014304
30
0
41
1
10
-22.5
20
8.38410356414292
30
0
41
1
10
-22.5
20
8.53310893988206
30
0
41
1
10
-22.5
20
8.68069429599311
30
0
41
1
10
-22.5
20
8.86197299364812
30
0
41
1
10
-22.5
20
9.03966371444793
30
0
41
1
10
-22.5
20
9.18004984465045
30
0
41
1
10
-22.5
20
9.31898451102217
30
0
41
1
10
-22.5
20
9.45508835059127
30
0
41
1
10
-22.5
20
9.5727301387586
30
0
41
1
10
-22.5
20
9.63944491324966
30
0
41
1
10
-22.5
20
9.7057908040384
30
0
41
1
10
-22.5
20
9.78780084928573
30
0
41
1
10
-22.5
20
9.9178936032643
30
0
41
1
10
-22.5
20
10.0451570606616
30
0
41
1
10
-22.5
20
10.170749478242
30
0
41
1
10
-22.5
20
10.2636671117607
30
0
41
1
10
-22.5
20
10.3554481360507
30
0
41
1
10
-22.5
20
10.4460865401309
30
0
41
1
10
-22.5
20
10.535576996235
30
0
41
1
10
-22.5
20
10.6239149629423
30
0
41
1
10
-22.5
20
10.7110950034659
30
0
41
1
10
-22.5
20
10.7971107724731
30
0
41
1
10
-22.5
20
10.881957410682
30
0
41
1
10
-22.5
20
10.9936883968037
30
0
41
1
10
-22.5
20
11.1025558384385
30
0
41
1
10
-22.5
20
11.2095312195268
30
0
41
1
10
-22.5
20
11.2884404756242
30
0
41
1
10
-22.5
20
11.3531143441572
30
0
41
1
10
-22.5
20
11.4043881128182
30
0
41
1
10
-22.5
20
11.4552554448703
30
0
41
1
10
-22.5
20
11.5179033535968
30
0
41
1
10
-22.5
20
11.5919461625789
30
0
41
1
10
-22.5
20
11.6647550151641
30
0
41
1
10
-22.5
20
11.7363216229303
30
0
41
1
10
-22.5
20
11.8066391033683
30
0
41
1
10
-22.5
20
11.8988608066557
30
0
41
1
10
-22.5
20
12.0106580919609
30
0
41
1
10
-22.5
20
12.1181901818313
30
0
41
1
10
-22.5
20
12.2018541939414
30
0
41
1
10
-22.5
20
12.283770087634
30
0
41
1
10
-22.5
20
12.3626709807028
30
0
41
1
10
-22.5
20
12.4392702870471
30
0
41
1
10
-22.5
20
12.4952790541086
30
0
41
1
10
-22.5
20
12.5499298292216
30
0
41
1
10
-22.5
20
12.6032111946844
30
0
41
1
10
-22.5
20
12.6551113940766
30
0
41
1
10
-22.5
20
12.7056201424592
30
0
41
1
10
-22.5
20
12.7547247990428
30
0
41
1
10
-22.5
20
12.8184132466048
30
0
41
1
10
-22.5
20
12.8789380178894
30
0
41
1
10
-22.5
20
12.9368537080862
30
0
41
1
10
-22.5
20
12.9787481114295
30
0
41
1
10
-22.5
20
13.0191589652136
30
0
41
1
10
-22.5
20
13.0580721081214
30
0
41
1
10
-22.5
20
13.0954724456839
30
0
41
1
10
-22.5
20
13.143384141029
30
0
41
1
10
-22.5
20
13.1879639125281
30
0
41
1
10
-22.5
20
13.2296213845592
30
0
41
1
10
-22.5
20
13.2592105165633
30
0
41
1
10
-22.5
20
13.2871835921006
30
0
41
1
10
-22.5
20
13.3223661764574
30
0
41
1
10
-22.5
20
13.3540536969875
30
0
41
1
10
-22.5
20
13.3825245595673
30
0
41
1
10
-22.5
20
13.4021158939438
30
0
41
1
10
-22.5
20
13.4199649415155
30
0
41
1
10
-22.5
20
13.4360470510206
30
0
41
1
10
-22.5
20
13.4503375548199
30
0
41
1
10
-22.5
20
13.4628103286331
30
0
41
1
10
-22.5
20
13.4734380181859
30
0
41
1
10
-22.5
20
13.4821927509398
30
0
41
1
10
-22.5
20
13.4890446841777
30
0
41
1
10
-22.5
20
13.4939634903146
30
0
41
1
10
-22.5
20
13.496916801474
30
0
41
1
10
-22.5
20
13.4978715423881
30
0
41
1
10
-22.5
20
13.497033466084
30
0
41
1
10
-22.5
20
13.4959444912638
30
0
41
1
10
-22.5
20
13.4956362833674
30
0
0
SPLINE
5
191
100
AcDbEntity
8
SK1
62
256
6
ByLayer
370
18
48
1
60
0
100
AcDbSpline
70
4
71
3
72
119
73
115
40
0
40
0
40
0
40
0
40
0.0017654123679228
40
0.0096870353759439
40
0.017608658383965
40
0.0255302813919862
40
0.0334519044000073
40
0.0413735274080285
40
0.0492951504160496
40
0.0572167734240707
40
0.0651383964320919
40
0.073060019440113
40
0.0809816424481341
40
0.0889032654561553
40
0.0968248884641764
40
0.104746511472198
40
0.112668134480219
40
0.12058975748824
40
0.128511380496261
40
0.136433003504282
40
0.144354626512303
40
0.152276249520324
40
0.160197872528345
40
0.176041118544388
40
0.19188436456043
40
0.207727610576472
40
0.223570856592515
40
0.231492479600536
40
0.239414102608557
40
0.247335725616578
40
0.255257348624599
40
0.271100594640641
40
0.286943840656684
40
0.294865463664705
40
0.302787086672726
40
0.310708709680747
40
0.318630332688768
40
0.326551955696789
40
0.33447357870481
40
0.350316824720853
40
0.358238447728874
40
0.366160070736895
40
0.382003316752937
40
0.39784656276898
40
0.405768185777001
40
0.413689808785022
40
0.429533054801064
40
0.437454677809085
40
0.441415489313096
40
0.445376300817106
40
0.453297923825127
40
0.461219546833149
40
0.477062792849191
40
0.484984415857212
40
0.492906038865233
40
0.500827661873254
40
0.508749284881275
40
0.516670907889297
40
0.524592530897318
40
0.532514153905339
40
0.54043577691336
40
0.548357399921381
40
0.556279022929402
40
0.572122268945444
40
0.580043891953466
40
0.587965514961487
40
0.595887137969508
40
0.599847949473518
40
0.603808760977529
40
0.61173038398555
40
0.619652006993571
40
0.627573630001592
40
0.635495253009614
40
0.643416876017635
40
0.651338499025656
40
0.667181745041698
40
0.68302499105774
40
0.690946614065762
40
0.698868237073783
40
0.714711483089825
40
0.722633106097846
40
0.730554729105867
40
0.738476352113888
40
0.746397975121909
40
0.754319598129931
40
0.762241221137952
40
0.770162844145973
40
0.778084467153994
40
0.793927713170036
40
0.801849336178057
40
0.809770959186079
40
0.8176925821941
40
0.825614205202121
40
0.833535828210142
40
0.841457451218163
40
0.857300697234205
40
0.865222320242226
40
0.873143943250248
40
0.881065566258269
40
0.88898718926629
40
0.904830435282332
40
0.912752058290353
40
0.920673681298374
40
0.928595304306395
40
0.936516927314417
40
0.944438550322438
40
0.952360173330459
40
0.96028179633848
40
0.968203419346501
40
0.976125042354522
40
0.984046665362543
40
0.991968288370565
40
0.999889911378586
40
1
40
1
40
1
40
1
41
1
10
-1.49503997793928
20
2.59465115086957
30
0
41
1
10
-1.49503997793928
20
2.606473243442
30
0
41
1
10
-1.49503997793928
20
2.67130382016646
30
0
41
1
10
-1.49503997793928
20
2.78881794693001
30
0
41
1
10
-1.49503997793928
20
2.94652921585708
30
0
41
1
10
-1.49503997793928
20
3.10333581737226
30
0
41
1
10
-1.49503997793928
20
3.25922160409144
30
0
41
1
10
-1.49503997793928
20
3.4141725129254
30
0
41
1
10
-1.49503997793928
20
3.56817684914566
30
0
41
1
10
-1.49503997793928
20
3.72122348266291
30
0
41
1
10
-1.49503997793928
20
3.87330241838259
30
0
41
1
10
-1.49503997793928
20
4.02440435063471
30
0
41
1
10
-1.49503997793928
20
4.17452257114442
30
0
41
1
10
-1.49503997793928
20
4.32365075555245
30
0
41
1
10
-1.49503997793928
20
4.47178250674139
30
0
41
1
10
-1.49503997793928
20
4.61891187892093
30
0
41
1
10
-1.49503997793928
20
4.7650335666859
30
0
41
1
10
-1.49503997793928
20
4.91014320448997
30
0
41
1
10
-1.49503997793928
20
5.05423700692032
30
0
41
1
10
-1.49503997793928
20
5.19731095699922
30
0
41
1
10
-1.49503997793928
20
5.33936160781602
30
0
41
1
10
-1.49503997793928
20
5.48038543010182
30
0
41
1
10
-1.49503997793928
20
5.66717892451575
30
0
41
1
10
-1.49503997793928
20
5.89779786635279
30
0
41
1
10
-1.49503997793928
20
6.17053537924178
30
0
41
1
10
-1.49503997793928
20
6.43910150489376
30
0
41
1
10
-1.49503997793928
20
6.65929861735816
30
0
41
1
10
-1.49503997793928
20
6.83355374310955
30
0
41
1
10
-1.49503997793928
20
6.96311018885424
30
0
41
1
10
-1.49503997793928
20
7.09160988853208
30
0
41
1
10
-1.49503997793928
20
7.26163684175143
30
0
41
1
10
-1.49503997793928
20
7.47128768043942
30
0
41
1
10
-1.49503997793928
20
7.67738590051292
30
0
41
1
10
-1.49503997793928
20
7.84029855153605
30
0
41
1
10
-1.49503997793928
20
7.96134018717208
30
0
41
1
10
-1.49503997793928
20
8.08130644558901
30
0
41
1
10
-1.49503997793928
20
8.2001957134178
30
0
41
1
10
-1.49503997793928
20
8.31800484031692
30
0
41
1
10
-1.49503997793928
20
8.47372856948019
30
0
41
1
10
-1.49503997793928
20
8.62702161678089
30
0
41
1
10
-1.49503997793928
20
8.7783873974316
30
0
41
1
10
-1.49503997793928
20
8.92829538452324
30
0
41
1
10
-1.49503997793928
20
9.11275364912453
30
0
41
1
10
-1.49503997793928
20
9.2935360539519
30
0
41
1
10
-1.49503997793928
20
9.43608247629777
30
0
41
1
10
-1.49503997793928
20
9.57714512355727
30
0
41
1
10
-1.49503997793928
20
9.71574945872365
30
0
41
1
10
-1.49503997793928
20
9.835227886979
30
0
41
1
10
-1.49503997793928
20
9.90295237623948
30
0
41
1
10
-1.49503997793928
20
9.97030028641953
30
0
41
1
10
-1.49503997793928
20
10.0536983203575
30
0
41
1
10
-1.49503997793928
20
10.1857467801784
30
0
41
1
10
-1.49503997793928
20
10.3153089526253
30
0
41
1
10
-1.49503997793928
20
10.4427777956644
30
0
41
1
10
-1.49503997793928
20
10.537175897834
30
0
41
1
10
-1.49503997793928
20
10.630416702033
30
0
41
1
10
-1.49503997793928
20
10.7224950525573
30
0
41
1
10
-1.49503997793928
20
10.8134058114344
30
0
41
1
10
-1.49503997793928
20
10.9031442186804
30
0
41
1
10
-1.49503997793928
20
10.9917054227684
30
0
41
1
10
-1.49503997793928
20
11.0790834618892
30
0
41
1
10
-1.49503997793928
20
11.165273297363
30
0
41
1
10
-1.49503997793928
20
11.2786601205037
30
0
41
1
10
-1.49503997793928
20
11.3894729046301
30
0
41
1
10
-1.49503997793928
20
11.4980349156059
30
0
41
1
10
-1.49503997793928
20
11.5781957427673
30
0
41
1
10
-1.49503997793928
20
11.6439487843731
30
0
41
1
10
-1.49503997793928
20
11.6959849306732
30
0
41
1
10
-1.49503997793928
20
11.747609354201
30
0
41
1
10
-1.49503997793928
20
11.8113057197552
30
0
41
1
10
-1.49503997793928
20
11.886528664654
30
0
41
1
10
-1.49503997793928
20
11.960500101414
30
0
41
1
10
-1.49503997793928
20
12.0332119519516
30
0
41
1
10
-1.49503997793928
20
12.1046570427268
30
0
41
1
10
-1.49503997793928
20
12.1982669205398
30
0
41
1
10
-1.49503997793928
20
12.3119621581916
30
0
41
1
10
-1.49503997793928
20
12.4213295969168
30
0
41
1
10
-1.49503997793928
20
12.5062717787185
30
0
41
1
10
-1.49503997793928
20
12.5894449263383
30
0
41
1
10
-1.49503997793928
20
12.6698142967672
30
0
41
1
10
-1.49503997793928
20
12.7476032540011
30
0
41
1
10
-1.49503997793928
20
12.8045464232669
30
0
41
1
10
-1.49503997793928
20
12.8601132308426
30
0
41
1
10
-1.49503997793928
20
12.9142926213842
30
0
41
1
10
-1.49503997793928
20
12.9670724454163
30
0
41
1
10
-1.49503997793928
20
13.0184419731185
30
0
41
1
10
-1.49503997793928
20
13.0683888234861
30
0
41
1
10
-1.49503997793928
20
13.133106637017
30
0
41
1
10
-1.49503997793928
20
13.1948224412614
30
0
41
1
10
-1.49503997793928
20
13.2536925631392
30
0
41
1
10
-1.49503997793928
20
13.296330722945
30
0
41
1
10
-1.49503997793928
20
13.3374647797226
30
0
41
1
10
-1.49503997793928
20
13.3770799229021
30
0
41
1
10
-1.49503997793928
20
13.4151607649325
30
0
41
1
10
-1.49503997793928
20
13.4638962511352
30
0
41
1
10
-1.49503997793928
20
13.5094130161235
30
0
41
1
10
-1.49503997793928
20
13.551806168738
30
0
41
1
10
-1.49503997793928
20
13.5819601013665
30
0
41
1
10
-1.49503997793928
20
13.6104729213425
30
0
41
1
10
-1.49503997793928
20
13.646298505966
30
0
41
1
10
-1.49503997793928
20
13.6786965897716
30
0
41
1
10
-1.49503997793928
20
13.7077055842542
30
0
41
1
10
-1.49503997793928
20
13.7276983600542
30
0
41
1
10
-1.49503997793928
20
13.7459180935577
30
0
41
1
10
-1.49503997793928
20
13.7623389110759
30
0
41
1
10
-1.49503997793928
20
13.7769347594832
30
0
41
1
10
-1.49503997793928
20
13.7896781016746
30
0
41
1
10
-1.49503997793928
20
13.800539960484
30
0
41
1
10
-1.49503997793928
20
13.8094907530557
30
0
41
1
10
-1.49503997793928
20
13.8164987457743
30
0
41
1
10
-1.49503997793928
20
13.821531562835
30
0
41
1
10
-1.49503997793928
20
13.8245545856003
30
0
41
1
10
-1.49503997793928
20
13.8252109194062
30
0
41
1
10
-1.49503997793931
20
13.8251847303779
30
0
41
1
10
-1.49503997793936
20
13.8251837302779
30
0
0
SPLINE
5
192
100
AcDbEntity
8
SK1
62
256
6
ByLayer
370
18
48
1
60
0
100
AcDbSpline
70
4
71
3
72
117
73
113
40
0
40
0
40
0
40
0
40
0.000112721065591
40
0.0080343232341323
40
0.0159559254026736
40
0.023877527571215
40
0.0317991297397563
40
0.0397207319082976
40
0.047642334076839
40
0.0555639362453803
40
0.0634855384139216
40
0.0793287427510043
40
0.095171947088087
40
0.11101515142517
40
0.118936753593711
40
0.126858355762252
40
0.134779957930794
40
0.142701560099335
40
0.158544764436418
40
0.166466366604959
40
0.1743879687735
40
0.182309570942042
40
0.190231173110583
40
0.198152775279124
40
0.206074377447666
40
0.221917581784748
40
0.22983918395329
40
0.237760786121831
40
0.245682388290372
40
0.253603990458914
40
0.261525592627455
40
0.269447194795996
40
0.277368796964538
40
0.285290399133079
40
0.301133603470162
40
0.309055205638703
40
0.316976807807244
40
0.332820012144327
40
0.34866321648141
40
0.356584818649951
40
0.364506420818492
40
0.372428022987034
40
0.380349625155575
40
0.388271227324116
40
0.396192829492658
40
0.400153630576928
40
0.404114431661199
40
0.41203603382974
40
0.419957635998282
40
0.427879238166823
40
0.443722442503906
40
0.451644044672447
40
0.459565646840988
40
0.46748724900953
40
0.475408851178071
40
0.483330453346612
40
0.491252055515154
40
0.499173657683695
40
0.507095259852236
40
0.515016862020778
40
0.522938464189319
40
0.538781668526402
40
0.546703270694943
40
0.554624872863484
40
0.558585673947755
40
0.562546475032026
40
0.570468077200567
40
0.58631128153765
40
0.594232883706191
40
0.602154485874732
40
0.617997690211815
40
0.633840894548898
40
0.641762496717439
40
0.64968409888598
40
0.665527303223063
40
0.673448905391604
40
0.681370507560146
40
0.689292109728687
40
0.697213711897228
40
0.70513531406577
40
0.713056916234311
40
0.728900120571394
40
0.744743324908477
40
0.752664927077018
40
0.760586529245559
40
0.7685081314141
40
0.776429733582642
40
0.792272937919724
40
0.808116142256807
40
0.82395934659389
40
0.839802550930972
40
0.847724153099514
40
0.855645755268055
40
0.863567357436596
40
0.871488959605138
40
0.879410561773679
40
0.88733216394222
40
0.895253766110762
40
0.903175368279303
40
0.911096970447844
40
0.919018572616386
40
0.926940174784927
40
0.934861776953469
40
0.94278337912201
40
0.950704981290551
40
0.958626583459092
40
0.966548185627634
40
0.974469787796175
40
0.982391389964716
40
0.990312992133258
40
0.998234594301799
40
1
40
1
40
1
40
1
41
1
10
-1.49503997793931
20
-13.8251837282454
30
0
41
1
10
-1.49503997793931
20
-13.8251847283454
30
0
41
1
10
-1.49503997793931
20
-13.8252108751494
30
0
41
1
10
-1.49503997793931
20
-13.8245539604948
30
0
41
1
10
-1.49503997793931
20
-13.8215305966481
30
0
41
1
10
-1.49503997793931
20
-13.8164982902869
30
0
41
1
10
-1.49503997793931
20
-13.8094909095343
30
0
41
1
10
-1.49503997793931
20
-13.8005402090708
30
0
41
1
10
-1.49503997793931
20
-13.7896781830989
30
0
41
1
10
-1.49503997793931
20
-13.7769347476405
30
0
41
1
10
-1.49503997793931
20
-13.7574597557179
30
0
41
1
10
-1.49503997793931
20
-13.7285859139399
30
0
41
1
10
-1.49503997793931
20
-13.6868269300449
30
0
41
1
10
-1.49503997793931
20
-13.6462985077496
30
0
41
1
10
-1.49503997793931
20
-13.6104729008558
30
0
41
1
10
-1.49503997793931
20
-13.5819600687286
30
0
41
1
10
-1.49503997793931
20
-13.5518061457236
30
0
41
1
10
-1.49503997793931
20
-13.509413016618
30
0
41
1
10
-1.49503997793931
20
-13.4638962341071
30
0
41
1
10
-1.49503997793931
20
-13.4151607370273
30
0
41
1
10
-1.49503997793931
20
-13.3770798968994
30
0
41
1
10
-1.49503997793931
20
-13.3374647662751
30
0
41
1
10
-1.49503997793931
20
-13.2963307178616
30
0
41
1
10
-1.49503997793931
20
-13.2536925499096
30
0
41
1
10
-1.49503997793931
20
-13.1948224098965
30
0
41
1
10
-1.49503997793931
20
-13.1331066142243
30
0
41
1
10
-1.49503997793931
20
-13.0683888145289
30
0
41
1
10
-1.49503997793931
20
-13.0184419638584
30
0
41
1
10
-1.49503997793931
20
-12.9670724273821
30
0
41
1
10
-1.49503997793931
20
-12.9142925944038
30
0
41
1
10
-1.49503997793931
20
-12.860113205584
30
0
41
1
10
-1.49503997793931
20
-12.8045464062654
30
0
41
1
10
-1.49503997793931
20
-12.74760324418
30
0
41
1
10
-1.49503997793931
20
-12.6698142834541
30
0
41
1
10
-1.49503997793931
20
-12.5894449005116
30
0
41
1
10
-1.49503997793931
20
-12.50627175547
30
0
41
1
10
-1.49503997793931
20
-12.4213295833849
30
0
41
1
10
-1.49503997793931
20
-12.3119621458456
30
0
41
1
10
-1.49503997793931
20
-12.1982668977617
30
0
41
1
10
-1.49503997793931
20
-12.1046570208051
30
0
41
1
10
-1.49503997793931
20
-12.0332119345842
30
0
41
1
10
-1.49503997793931
20
-11.9605000871413
30
0
41
1
10
-1.49503997793931
20
-11.8865286504803
30
0
41
1
10
-1.49503997793931
20
-11.8113057028001
30
0
41
1
10
-1.49503997793931
20
-11.7476093345099
30
0
41
1
10
-1.49503997793931
20
-11.6959849101866
30
0
41
1
10
-1.49503997793931
20
-11.643948764099
30
0
41
1
10
-1.49503997793931
20
-11.5781957241672
30
0
41
1
10
-1.49503997793931
20
-11.4980348993556
30
0
41
1
10
-1.49503997793931
20
-11.3894728900619
30
0
41
1
10
-1.49503997793931
20
-11.278660103453
30
0
41
1
10
-1.49503997793931
20
-11.1652732784127
30
0
41
1
10
-1.49503997793931
20
-11.0790834423827
30
0
41
1
10
-1.49503997793931
20
-10.9917054044732
30
0
41
1
10
-1.49503997793931
20
-10.9031442025602
30
0
41
1
10
-1.49503997793931
20
-10.8134057967923
30
0
41
1
10
-1.49503997793931
20
-10.7224950378189
30
0
41
1
10
-1.49503997793931
20
-10.6304166849825
30
0
41
1
10
-1.49503997793931
20
-10.5371758780398
30
0
41
1
10
-1.49503997793931
20
-10.4427777751693
30
0
41
1
10
-1.49503997793931
20
-10.3153089364435
30
0
41
1
10
-1.49503997793931
20
-10.1857467684219
30
0
41
1
10
-1.49503997793931
20
-10.0536983054632
30
0
41
1
10
-1.49503997793931
20
-9.97030026745779
30
0
41
1
10
-1.49503997793931
20
-9.90295235506755
30
0
41
1
10
-1.49503997793931
20
-9.83522786489038
30
0
41
1
10
-1.49503997793931
20
-9.71574944153573
30
0
41
1
10
-1.49503997793931
20
-9.57714511427093
30
0
41
1
10
-1.49503997793931
20
-9.43608246295526
30
0
41
1
10
-1.49503997793931
20
-9.29353602958125
30
0
41
1
10
-1.49503997793931
20
-9.11275363063513
30
0
41
1
10
-1.49503997793931
20
-8.92829537712967
30
0
41
1
10
-1.49503997793931
20
-8.77838738443313
30
0
41
1
10
-1.49503997793931
20
-8.62702158955997
30
0
41
1
10
-1.49503997793931
20
-8.47372854841302
30
0
41
1
10
-1.49503997793931
20
-8.31800483202281
30
0
41
1
10
-1.49503997793931
20
-8.20019570647173
30
0
41
1
10
-1.49503997793931
20
-8.08130642958628
30
0
41
1
10
-1.49503997793931
20
-7.96134016006346
30
0
41
1
10
-1.49503997793931
20
-7.84029852533041
30
0
41
1
10
-1.49503997793931
20
-7.67738589461936
30
0
41
1
10
-1.49503997793931
20
-7.47128766686797
30
0
41
1
10
-1.49503997793931
20
-7.261636811758
30
0
41
1
10
-1.49503997793931
20
-7.09160986883526
30
0
41
1
10
-1.49503997793931
20
-6.96311018452545
30
0
41
1
10
-1.49503997793931
20
-6.83355373772449
30
0
41
1
10
-1.49503997793931
20
-6.65929858415237
30
0
41
1
10
-1.49503997793931
20
-6.43910149333703
30
0
41
1
10
-1.49503997793931
20
-6.17053536578155
30
0
41
1
10
-1.49503997793931
20
-5.89779783511918
30
0
41
1
10
-1.49503997793931
20
-5.66717892097088
30
0
41
1
10
-1.49503997793931
20
-5.48038541909952
30
0
41
1
10
-1.49503997793931
20
-5.33936157753735
30
0
41
1
10
-1.49503997793931
20
-5.19731095553269
30
0
41
1
10
-1.49503997793931
20
-5.05423706888553
30
0
41
1
10
-1.49503997793931
20
-4.91014315579861
30
0
41
1
10
-1.49503997793931
20
-4.7650332428635
30
0
41
1
10
-1.49503997793931
20
-4.61891156596767
30
0
41
1
10
-1.49503997793931
20
-4.47178260268984
30
0
41
1
10
-1.49503997793931
20
-4.32365113214263
30
0
41
1
10
-1.49503997793931
20
-4.17452288947305
30
0
41
1
10
-1.49503997793931
20
-4.02440432752809
30
0
41
1
10
-1.49503997793931
20
-3.87330192992579
30
0
41
1
10
-1.49503997793931
20
-3.7212231412766
30
0
41
1
10
-1.49503997793931
20
-3.56817690176541
30
0
41
1
10
-1.49503997793931
20
-3.41417271020586
30
0
41
1
10
-1.49503997793931
20
-3.25922165821993
30
0
41
1
10
-1.49503997793931
20
-3.1033357799555
30
0
41
1
10
-1.49503997793931
20
-2.94652918151195
30
0
41
1
10
-1.49503997793931
20
-2.78881794429316
30
0
41
1
10
-1.49503997793931
20
-2.67130381064959
30
0
41
1
10
-1.49503997793931
20
-2.60647323876154
30
0
41
1
10
-1.49503997793931
20
-2.5946511583831
30
0
0
SPLINE
5
193
100
AcDbEntity
8
SK1
62
256
6
ByLayer
370
18
48
1
60
0
100
AcDbSpline
70
4
71
3
72
287
73
283
40
0
40
0
40
0
40
0
40
0.0005770522526737
40
0.0040695174805196
40
0.0075619827083655
40
0.0110544479362114
40
0.0145469131640572
40
0.0180393783919031
40
0.0215318436197491
40
0.0250243088475949
40
0.0285167740754408
40
0.0320092393032866
40
0.0389941697589785
40
0.0459791002146702
40
0.052964030670362
40
0.0564564958982079
40
0.0599489611260537
40
0.0634414263538997
40
0.0669338915817455
40
0.0739188220374373
40
0.0774112872652832
40
0.080903752493129
40
0.0843962177209749
40
0.0878886829488208
40
0.0913811481766667
40
0.0948736134045126
40
0.101858543860204
40
0.10535100908805
40
0.108843474315896
40
0.112335939543742
40
0.115828404771588
40
0.119320869999434
40
0.12281333522728
40
0.126305800455125
40
0.129798265682971
40
0.136783196138663
40
0.140275661366509
40
0.143768126594355
40
0.150753057050047
40
0.157737987505739
40
0.161230452733584
40
0.16472291796143
40
0.168215383189276
40
0.171707848417122
40
0.175200313644968
40
0.178692778872814
40
0.180439011486737
40
0.18218524410066
40
0.185677709328506
40
0.189170174556351
40
0.192662639784197
40
0.199647570239889
40
0.203140035467735
40
0.206632500695581
40
0.210124965923427
40
0.213617431151273
40
0.217109896379119
40
0.220602361606965
40
0.22409482683481
40
0.227587292062656
40
0.231079757290502
40
0.234572222518348
40
0.24155715297404
40
0.245049618201886
40
0.248542083429732
40
0.250288316043654
40
0.252034548657577
40
0.255527013885423
40
0.262511944341115
40
0.266004409568961
40
0.269496874796807
40
0.276481805252499
40
0.28346673570819
40
0.286959200936036
40
0.290451666163882
40
0.297436596619574
40
0.30092906184742
40
0.304421527075266
40
0.307913992303112
40
0.311406457530958
40
0.314898922758803
40
0.318391387986649
40
0.325376318442341
40
0.332361248898033
40
0.335853714125879
40
0.339346179353725
40
0.34283864458157
40
0.346331109809416
40
0.353316040265108
40
0.3603009707208
40
0.367285901176492
40
0.374270831632184
40
0.377763296860029
40
0.381255762087875
40
0.384748227315721
40
0.388240692543567
40
0.391733157771413
40
0.395225622999259
40
0.398718088227105
40
0.402210553454951
40
0.405703018682796
40
0.409195483910642
40
0.412687949138488
40
0.416180414366334
40
0.41967287959418
40
0.423165344822026
40
0.426657810049872
40
0.430150275277718
40
0.433642740505564
40
0.437135205733409
40
0.440627670961255
40
0.444120136189101
40
0.447612601416947
40
0.44935883403087
40
0.451105066644793
40
0.454597531872639
40
0.456343764486562
40
0.458089997100485
40
0.459836229714408
40
0.461582462328331
40
0.463328694942253
40
0.465074927556177
40
0.466821160170099
40
0.468567392784022
40
0.472059858011868
40
0.473806090625791
40
0.475552323239714
40
0.477298555853637
40
0.47904478846756
40
0.480791021081483
40
0.482537253695406
40
0.484283486309329
40
0.486029718923252
40
0.487775951537175
40
0.489522184151098
40
0.49126841676502
40
0.493014649378944
40
0.494760881992867
40
0.496507114606789
40
0.498253347220712
40
0.499999579834635
40
0.501745812448558
40
0.503492045062481
40
0.505238277676404
40
0.506984510290327
40
0.50873074290425
40
0.510476975518173
40
0.512223208132096
40
0.513969440746019
40
0.515715673359942
40
0.517461905973865
40
0.519208138587788
40
0.520954371201711
40
0.522700603815634
40
0.524446836429556
40
0.526193069043479
40
0.527939301657402
40
0.531431766885248
40
0.533177999499171
40
0.534924232113094
40
0.536670464727017
40
0.53841669734094
40
0.540162929954863
40
0.541909162568786
40
0.543655395182709
40
0.545401627796632
40
0.548894093024478
40
0.550640325638401
40
0.552386558252324
40
0.555879023480169
40
0.559371488708015
40
0.562863953935861
40
0.566356419163707
40
0.569848884391553
40
0.573341349619399
40
0.576833814847245
40
0.580326280075091
40
0.583818745302937
40
0.587311210530783
40
0.590803675758628
40
0.594296140986474
40
0.59778860621432
40
0.601281071442166
40
0.604773536670012
40
0.608266001897858
40
0.611758467125704
40
0.61525093235355
40
0.618743397581396
40
0.622235862809241
40
0.625728328037087
40
0.632713258492779
40
0.639698188948471
40
0.646683119404162
40
0.653668049859854
40
0.6571605150877
40
0.660652980315546
40
0.664145445543392
40
0.667637910771238
40
0.67462284122693
40
0.681607771682621
40
0.685100236910467
40
0.688592702138313
40
0.692085167366159
40
0.695577632594005
40
0.699070097821851
40
0.702562563049697
40
0.709547493505388
40
0.713039958733234
40
0.71653242396108
40
0.723517354416772
40
0.730502284872464
40
0.73399475010031
40
0.737487215328156
40
0.744472145783847
40
0.747964611011693
40
0.749710843625616
40
0.751457076239539
40
0.754949541467385
40
0.758442006695231
40
0.765426937150923
40
0.768919402378768
40
0.772411867606614
40
0.77590433283446
40
0.779396798062306
40
0.782889263290152
40
0.786381728517998
40
0.789874193745844
40
0.79336665897369
40
0.796859124201536
40
0.800351589429381
40
0.807336519885073
40
0.810828985112919
40
0.814321450340765
40
0.817813915568611
40
0.819560148182534
40
0.821306380796457
40
0.824798846024303
40
0.828291311252149
40
0.831783776479995
40
0.83527624170784
40
0.838768706935686
40
0.842261172163532
40
0.849246102619224
40
0.856231033074916
40
0.859723498302761
40
0.863215963530607
40
0.870200893986299
40
0.873693359214145
40
0.877185824441991
40
0.880678289669837
40
0.884170754897683
40
0.887663220125529
40
0.891155685353375
40
0.89464815058122
40
0.898140615809066
40
0.905125546264758
40
0.908618011492604
40
0.91211047672045
40
0.915602941948296
40
0.919095407176141
40
0.922587872403987
40
0.926080337631833
40
0.933065268087525
40
0.936557733315371
40
0.940050198543217
40
0.943542663771063
40
0.947035128998909
40
0.9540200594546
40
0.957512524682446
40
0.961004989910292
40
0.964497455138138
40
0.967989920365984
40
0.97148238559383
40
0.974974850821676
40
0.978467316049522
40
0.981959781277367
40
0.985452246505213
40
0.988944711733059
40
0.992437176960905
40
0.995929642188751
40
0.999422107416597
40
1
40
1
40
1
40
1
41
1
10
-24.0000000000001
20
-12.6301466105268
30
0
41
1
10
-24.0000000000001
20
-12.6302729712188
30
0
41
1
10
-24.0000000000001
20
-12.631101948362
30
0
41
1
10
-24
20
-12.6318299492431
30
0
41
1
10
-24
20
-12.6309352666138
30
0
41
1
10
-24
20
-12.6281658201647
30
0
41
1
10
-24
20
-12.623548726994
30
0
41
1
10
-24
20
-12.6171099043118
30
0
41
1
10
-24
20
-12.6088736083307
30
0
41
1
10
-24
20
-12.5988647342338
30
0
41
1
10
-24
20
-12.5871069661154
30
0
41
1
10
-24
20
-12.5690204374689
30
0
41
1
10
-24
20
-12.5424060911485
30
0
41
1
10
-24
20
-12.503682399881
30
0
41
1
10
-24
20
-12.4661791191829
30
0
41
1
10
-24
20
-12.4326960489613
30
0
41
1
10
-24
20
-12.4061495447384
30
0
41
1
10
-24
20
-12.3780532328158
30
0
41
1
10
-24
20
-12.3383402816862
30
0
41
1
10
-24
20
-12.2962370819873
30
0
41
1
10
-24
20
-12.2505027270977
30
0
41
1
10
-24
20
-12.2149010201899
30
0
41
1
10
-24
20
-12.1778433481664
30
0
41
1
10
-24
20
-12.139344023803
30
0
41
1
10
-24
20
-12.099415454628
30
0
41
1
10
-24
20
-12.0440223921017
30
0
41
1
10
-24
20
-11.9866456328948
30
0
41
1
10
-24
20
-11.9256779328097
30
0
41
1
10
-24
20
-11.8787993022056
30
0
41
1
10
-24
20
-11.8305656793587
30
0
41
1
10
-24
20
-11.78099039585
30
0
41
1
10
-24
20
-11.7300825884547
30
0
41
1
10
-24
20
-11.6778529900837
30
0
41
1
10
-24
20
-11.6243139686469
30
0
41
1
10
-24
20
-11.5508590476174
30
0
41
1
10
-24
20
-11.4758394707541
30
0
41
1
10
-24
20
-11.3972466128896
30
0
41
1
10
-24
20
-11.3169609533628
30
0
41
1
10
-24
20
-11.2142799019792
30
0
41
1
10
-24
20
-11.1074990885261
30
0
41
1
10
-24
20
-11.0189464603389
30
0
41
1
10
-24
20
-10.9516093773873
30
0
41
1
10
-24
20
-10.8830697782116
30
0
41
1
10
-24
20
-10.8133337656712
30
0
41
1
10
-24
20
-10.742410178912
30
0
41
1
10
-24
20
-10.6825334430363
30
0
41
1
10
-24
20
-10.6336671760819
30
0
41
1
10
-24
20
-10.5844084477175
30
0
41
1
10
-24
20
-10.5225869468266
30
0
41
1
10
-24
20
-10.4469857296791
30
0
41
1
10
-24
20
-10.3442039867662
30
0
41
1
10
-24
20
-10.2404782892815
30
0
41
1
10
-24
20
-10.1331238471369
30
0
41
1
10
-24
20
-10.0518274139735
30
0
41
1
10
-24
20
-9.96941226524032
30
0
41
1
10
-24
20
-9.88588278908517
30
0
41
1
10
-24
20
-9.80124634105391
30
0
41
1
10
-24
20
-9.7155099005698
30
0
41
1
10
-24
20
-9.62867742465988
30
0
41
1
10
-24
20
-9.54075474090098
30
0
41
1
10
-24
20
-9.45175012870754
30
0
41
1
10
-24
20
-9.3311173029677
30
0
41
1
10
-24
20
-9.20992961158595
30
0
41
1
10
-24
20
-9.08500600225793
30
0
41
1
10
-24
20
-9.00666454438803
30
0
41
1
10
-24
20
-8.9429670806384
30
0
41
1
10
-24
20
-8.87892107357058
30
0
41
1
10
-24
20
-8.76613371827503
30
0
41
1
10
-24
20
-8.63663898523421
30
0
41
1
10
-24
20
-8.50332881313909
30
0
41
1
10
-24
20
-8.36865251940398
30
0
41
1
10
-24
20
-8.19913342470034
30
0
41
1
10
-24
20
-8.02625870426019
30
0
41
1
10
-24
20
-7.88481232676435
30
0
41
1
10
-24
20
-7.74204568631336
30
0
41
1
10
-24
20
-7.59930458489879
30
0
41
1
10
-24
20
-7.45257386795714
30
0
41
1
10
-24
20
-7.34207855908446
30
0
41
1
10
-24
20
-7.23061782890773
30
0
41
1
10
-24
20
-7.11820191301103
30
0
41
1
10
-24
20
-7.0048337434387
30
0
41
1
10
-24
20
-6.85167857584688
30
0
41
1
10
-24
20
-6.65959441745025
30
0
41
1
10
-24
20
-6.4644102785592
30
0
41
1
10
-24
20
-6.3049952945903
30
0
41
1
10
-24
20
-6.18514753468793
30
0
41
1
10
-24
20
-6.0644015816757
30
0
41
1
10
-24
20
-5.90137597131744
30
0
41
1
10
-24
20
-5.69736367955664
30
0
41
1
10
-24
20
-5.44799894794269
30
0
41
1
10
-24
20
-5.19525670130324
30
0
41
1
10
-24
20
-4.98285125019771
30
0
41
1
10
-24
20
-4.80950544532161
30
0
41
1
10
-24
20
-4.67950096380326
30
0
41
1
10
-24
20
-4.54872537799756
30
0
41
1
10
-24
20
-4.41719445888796
30
0
41
1
10
-24
20
-4.28492388892988
30
0
41
1
10
-24
20
-4.15193103870834
30
0
41
1
10
-24
20
-4.01823650200186
30
0
41
1
10
-24
20
-3.88386015063668
30
0
41
1
10
-24
20
-3.74882265025215
30
0
41
1
10
-24
20
-3.61314816606935
30
0
41
1
10
-24
20
-3.47686551917988
30
0
41
1
10
-24
20
-3.34000139230264
30
0
41
1
10
-24
20
-3.20258393847709
30
0
41
1
10
-24
20
-3.06464837689455
30
0
41
1
10
-24
20
-2.92623045230167
30
0
41
1
10
-24
20
-2.78737006373558
30
0
41
1
10
-24
20
-2.64810891556721
30
0
41
1
10
-24
20
-2.50849315364212
30
0
41
1
10
-24
20
-2.36857603859872
30
0
41
1
10
-24
20
-2.2284072733809
30
0
41
1
10
-24
20
-2.1123126773407
30
0
41
1
10
-24
20
-2.01771125590742
30
0
41
1
10
-24
20
-1.92310511773124
30
0
41
1
10
-24
20
-1.83137149621408
30
0
41
1
10
-24
20
-1.73663368976395
30
0
41
1
10
-24
20
-1.66636839269285
30
0
41
1
10
-24
20
-1.59612143913759
30
0
41
1
10
-24
20
-1.52590617425696
30
0
41
1
10
-24
20
-1.45572440081645
30
0
41
1
10
-24
20
-1.38559146347785
30
0
41
1
10
-24
20
-1.31551245865839
30
0
41
1
10
-24
20
-1.22103102890802
30
0
41
1
10
-24
20
-1.13019491172778
30
0
41
1
10
-24
20
-1.03590357373662
30
0
41
1
10
-24
20
-0.966211278320657
30
0
41
1
10
-24
20
-0.896616942008507
30
0
41
1
10
-24
20
-0.827119549474389
30
0
41
1
10
-24
20
-0.757724503129225
30
0
41
1
10
-24
20
-0.688430802184286
30
0
41
1
10
-24
20
-0.619238394305057
30
0
41
1
10
-24
20
-0.55014382234242
30
0
41
1
10
-24
20
-0.481142957403989
30
0
41
1
10
-24
20
-0.412229055265953
30
0
41
1
10
-24
20
-0.343394373554929
30
0
41
1
10
-24
20
-0.274627961865036
30
0
41
1
10
-24
20
-0.205919183519995
30
0
41
1
10
-24
20
-0.137254128872399
30
0
41
1
10
-24
20
-0.0686195806150636
30
0
41
1
10
-24
20
-1.20069501E-08
30
0
41
1
10
-24
20
0.068619583765468
30
0
41
1
10
-24
20
0.137254182226428
30
0
41
1
10
-24
20
0.20591922960034
30
0
41
1
10
-24
20
0.274627932715703
30
0
41
1
10
-24
20
0.343394334295596
30
0
41
1
10
-24
20
0.412229116407701
30
0
41
1
10
-24
20
0.481143047124078
30
0
41
1
10
-24
20
0.550143789897788
30
0
41
1
10
-24
20
0.619238310392831
30
0
41
1
10
-24
20
0.688430856535234
30
0
41
1
10
-24
20
0.757724640342843
30
0
41
1
10
-24
20
0.827119544713696
30
0
41
1
10
-24
20
0.896616816711372
30
0
41
1
10
-24
20
0.966211277672727
30
0
41
1
10
-24
20
1.0359037380106
30
0
41
1
10
-24
20
1.13019491751672
30
0
41
1
10
-24
20
1.22103090337819
30
0
41
1
10
-24
20
1.31551253110211
30
0
41
1
10
-24
20
1.38559165365197
30
0
41
1
10
-24
20
1.4557244473703
30
0
41
1
10
-24
20
1.52590604398475
30
0
41
1
10
-24
20
1.59612132289772
30
0
41
1
10
-24
20
1.66636846888795
30
0
41
1
10
-24
20
1.73663389391055
30
0
41
1
10
-24
20
1.83137150908337
30
0
41
1
10
-24
20
1.92310496383303
30
0
41
1
10
-24
20
2.01771124909402
30
0
41
1
10
-24
20
2.1123128709645
30
0
41
1
10
-24
20
2.22840729138048
30
0
41
1
10
-24
20
2.36857592379667
30
0
41
1
10
-24
20
2.50849329023111
30
0
41
1
10
-24
20
2.6481089933641
30
0
41
1
10
-24
20
2.78736947452723
30
0
41
1
10
-24
20
2.92622914514118
30
0
41
1
10
-24
20
3.06464867495964
30
0
41
1
10
-24
20
3.20258694679342
30
0
41
1
10
-24
20
3.34000339886191
30
0
41
1
10
-24
20
3.47686412773237
30
0
41
1
10
-24
20
3.61314539193523
30
0
41
1
10
-24
20
3.74882070125761
30
0
41
1
10
-24
20
3.88386081960976
30
0
41
1
10
-24
20
4.01823910176788
30
0
41
1
10
-24
20
4.15193237523468
30
0
41
1
10
-24
20
4.2849232333127
30
0
41
1
10
-24
20
4.41719365917407
30
0
41
1
10
-24
20
4.54872525063166
30
0
41
1
10
-24
20
4.67950102029138
30
0
41
1
10
-24
20
4.80950536941273
30
0
41
1
10
-24
20
4.98285124277231
30
0
41
1
10
-24
20
5.19525677656029
30
0
41
1
10
-24
20
5.44799891971272
30
0
41
1
10
-24
20
5.69736372546629
30
0
41
1
10
-24
20
5.90137602298267
30
0
41
1
10
-24
20
6.06440150688553
30
0
41
1
10
-24
20
6.18514751568063
30
0
41
1
10
-24
20
6.30499537148734
30
0
41
1
10
-24
20
6.46441033734268
30
0
41
1
10
-24
20
6.65959438580626
30
0
41
1
10
-24
20
6.85167858307045
30
0
41
1
10
-24
20
7.00483382763795
30
0
41
1
10
-24
20
7.11820195418235
30
0
41
1
10
-24
20
7.23061780540783
30
0
41
1
10
-24
20
7.34207852113335
30
0
41
1
10
-24
20
7.45257387547736
30
0
41
1
10
-24
20
7.5993046483614
30
0
41
1
10
-24
20
7.74204572237988
30
0
41
1
10
-24
20
7.88481230085071
30
0
41
1
10
-24
20
8.02625870014728
30
0
41
1
10
-24
20
8.19913346952646
30
0
41
1
10
-24
20
8.36865254580425
30
0
41
1
10
-24
20
8.50332879773276
30
0
41
1
10
-24
20
8.63663898786115
30
0
41
1
10
-24
20
8.76613375581508
30
0
41
1
10
-24
20
8.87892111197039
30
0
41
1
10
-24
20
8.94296710462896
30
0
41
1
10
-24
20
9.00666455327521
30
0
41
1
10
-24
20
9.08500599911849
30
0
41
1
10
-24
20
9.20992961783278
30
0
41
1
10
-24
20
9.33111733072482
30
0
41
1
10
-24
20
9.45175015939361
30
0
41
1
10
-24
20
9.54075475929307
30
0
41
1
10
-24
20
9.62867743247335
30
0
41
1
10
-24
20
9.71550990736881
30
0
41
1
10
-24
20
9.80124635456622
30
0
41
1
10
-24
20
9.88588281033208
30
0
41
1
10
-24
20
9.96941229097473
30
0
41
1
10
-24
20
10.0518274374697
30
0
41
1
10
-24
20
10.1331238647016
30
0
41
1
10
-24
20
10.240478300249
30
0
41
1
10
-24
20
10.3442039980406
30
0
41
1
10
-24
20
10.4469857502475
30
0
41
1
10
-24
20
10.5225869730087
30
0
41
1
10
-24
20
10.5844084741421
30
0
41
1
10
-24
20
10.6336671988976
30
0
41
1
10
-24
20
10.6825334589273
30
0
41
1
10
-24
20
10.7424101865056
30
0
41
1
10
-24
20
10.8133337727233
30
0
41
1
10
-24
20
10.8830697936353
30
0
41
1
10
-24
20
10.951609404873
30
0
41
1
10
-24
20
11.0189464931514
30
0
41
1
10
-24
20
11.1074991058537
30
0
41
1
10
-24
20
11.2142799044294
30
0
41
1
10
-24
20
11.3169609751523
30
0
41
1
10
-24
20
11.3972466509688
30
0
41
1
10
-24
20
11.4758394909226
30
0
41
1
10
-24
20
11.5508590446085
30
0
41
1
10
-24
20
11.6243139791192
30
0
41
1
10
-24
20
11.6778530233415
30
0
41
1
10
-24
20
11.7300826287653
30
0
41
1
10
-24
20
11.7809904199399
30
0
41
1
10
-24
20
11.8305656793297
30
0
41
1
10
-24
20
11.8787992978643
30
0
41
1
10
-24
20
11.9256779481161
30
0
41
1
10
-24
20
11.9866456736684
30
0
41
1
10
-24
20
12.0440224201629
30
0
41
1
10
-24
20
12.099415447517
30
0
41
1
10
-24
20
12.1393440246739
30
0
41
1
10
-24
20
12.1778433772408
30
0
41
1
10
-24
20
12.2149010599454
30
0
41
1
10
-24
20
12.250502752964
30
0
41
1
10
-24
20
12.2962370828382
30
0
41
1
10
-24
20
12.3383402824608
30
0
41
1
10
-24
20
12.3780532736994
30
0
41
1
10
-24
20
12.4061495785297
30
0
41
1
10
-24
20
12.432696053015
30
0
41
1
10
-24
20
12.4661791203579
30
0
41
1
10
-24
20
12.4959885477691
30
0
41
1
10
-24
20
12.523037071398
30
0
41
1
10
-24
20
12.5415673540695
30
0
41
1
10
-24
20
12.55843663992
30
0
41
1
10
-24
20
12.5736235086906
30
0
41
1
10
-24
20
12.5871069547276
30
0
41
1
10
-24
20
12.5988645879939
30
0
41
1
10
-24
20
12.6088733436888
30
0
41
1
10
-24
20
12.617109869821
30
0
41
1
10
-24
20
12.6235493215146
30
0
41
1
10
-24
20
12.6281667848456
30
0
41
1
10
-24
20
12.6309358409331
30
0
41
1
10
-24
20
12.6318298800804
30
0
41
1
10
-24
20
12.6311015700951
30
0
41
1
10
-24
20
12.6302722754553
30
0
41
1
10
-24
20
12.6301456983242
30
0
0
SPLINE
5
194
100
AcDbEntity
8
1
62
256
6
ByLayer
370
18
48
1
60
0
100
AcDbSpline
70
4
71
2
72
8
73
5
40
0
40
0
40
0
40
0.0890455897795935
40
0.760107825775625
40
1
40
1
40
1
41
1.02613459695995
10
18.619731149209
20
-4.45175132279251
30
0
41
1.02613459695995
10
18.532865760228
20
-4.50485583809246
30
0
41
1.02613459695995
10
17.7998146813483
20
-5.00154040968287
30
0
41
1.02613459695995
10
17.0841775725368
20
-5.92946286277978
30
0
41
1.02613459695995
10
16.9104060090758
20
-6.24118821809568
30
0
0
SPLINE
5
195
100
AcDbEntity
8
1
62
256
6
ByLayer
370
18
48
1
60
0
100
AcDbSpline
70
4
71
2
72
6
73
3
40
0
40
0
40
0
40
1
40
1
40
1
41
0.926753838115597
10
16.9615333110136
20
-9.29205805161562
30
0
41
0.869251168659065
10
17.5899024964945
20
-9.61436566843933
30
0
41
0.876719039568491
10
17.9727747222989
20
-10.4223408668783
30
0
0
SPLINE
5
196
100
AcDbEntity
8
1
62
256
6
ByLayer
370
18
48
1
60
0
100
AcDbSpline
70
4
71
2
72
8
73
5
40
0
40
0
40
0
40
0.100953020418195
40
0.657876967336756
40
1
40
1
40
1
41
1
10
18.8727924184712
20
-4.41004634779014
30
0
41
1
10
18.7536331716894
20
-4.48004985905416
30
0
41
1
10
17.989145260346
20
-4.99803470577456
30
0
41
1
10
17.1381140189509
20
-6.10151437089249
30
0
41
1
10
16.8576292776706
20
-6.7203616702478
30
0
0
SPLINE
5
197
100
AcDbEntity
8
1
62
256
6
ByLayer
370
18
48
1
60
0
100
AcDbSpline
70
4
71
2
72
8
73
5
40
0
40
0
40
0
40
0.0947119571661729
40
0.705105946414377
40
1
40
1
40
1
41
1
10
18.7438463235435
20
-4.43215758283952
30
0
41
1
10
18.642074237189
20
-4.4932491341458
30
0
41
1
10
17.8944799708471
20
-4.99978755772872
30
0
41
1
10
17.1126081787364
20
-6.01359243510223
30
0
41
1
10
16.8847385431776
20
-6.46687304753587
30
0
0
SPLINE
5
198
100
AcDbEntity
8
1
62
256
6
ByLayer
370
18
48
1
60
0
100
AcDbSpline
70
4
71
3
72
58
73
54
40
0
40
0
40
0
40
0
40
0.0272561789497722
40
0.0272561789497722
40
0.0674836585730966
40
0.0674836585730966
40
0.107702268933588
40
0.107702268933588
40
0.147923837549779
40
0.147923837549779
40
0.188147877868231
40
0.188147877868231
40
0.22836232186371
40
0.22836232186371
40
0.268592824573499
40
0.268592824573499
40
0.308808946564318
40
0.308808946564318
40
0.349040039851051
40
0.349040039851051
40
0.389256601623402
40
0.389256601623402
40
0.429476264501013
40
0.429476264501013
40
0.46970004591978
40
0.46970004591978
40
0.509916652584849
40
0.509916652584849
40
0.550148134820819
40
0.550148134820819
40
0.590362503911061
40
0.590362503911061
40
0.630591400289069
40
0.630591400289069
40
0.670809188852861
40
0.670809188852861
40
0.711032310470661
40
0.711032310470661
40
0.751254848321715
40
0.751254848321715
40
0.791469679590466
40
0.791469679590466
40
0.831699169773046
40
0.831699169773046
40
0.871915156103987
40
0.871915156103987
40
0.912147457591458
40
0.912147457591458
40
0.952363183093738
40
0.952363183093738
40
0.992584355545638
40
0.992584355545638
40
1
40
1
40
1
40
1
41
1
10
33.5769617526816
20
-20.9981229884843
30
0
41
1
10
33.501562383825
20
-20.9705931608748
30
0
41
1
10
33.4292922168593
20
-20.9340313483117
30
0
41
1
10
33.2651671669539
20
-20.8242470682151
30
0
41
1
10
33.1775186435397
20
-20.7399689563847
30
0
41
1
10
33.0376805812624
20
-20.5480005986451
30
0
41
1
10
32.9836297019207
20
-20.4377199293991
30
0
41
1
10
32.9163855093651
20
-20.2069639457731
30
0
41
1
10
32.9021922008884
20
-20.0832535125065
30
0
41
1
10
32.9149860222736
20
-19.8395977155958
30
0
41
1
10
32.9422772108836
20
-19.7163860153497
30
0
41
1
10
33.0345031758929
20
-19.4879773110854
30
0
41
1
10
33.1006893124042
20
-19.3796232156421
30
0
41
1
10
33.2620893590059
20
-19.1923012570361
30
0
41
1
10
33.3595627097233
20
-19.1107815082553
30
0
41
1
10
33.5723135383288
20
-18.9860108353695
30
0
41
1
10
33.6905161246033
20
-18.9410224378069
30
0
41
1
10
33.9310423744099
20
-18.8931995726718
30
0
41
1
10
34.0566055235045
20
-18.8896647786631
30
0
41
1
10
34.2977807690844
20
-18.9242179678337
30
0
41
1
10
34.416764257812
20
-18.9627893925194
30
0
41
1
10
34.6320238636155
20
-19.0761884301124
30
0
41
1
10
34.7312182810299
20
-19.1525553970122
30
0
41
1
10
34.8962779228677
20
-19.3320067358393
30
0
41
1
10
34.9645027832992
20
-19.4376051353751
30
0
41
1
10
35.0613830329428
20
-19.6631088987517
30
0
41
1
10
35.0913897391493
20
-19.7861155550713
30
0
41
1
10
35.1093069692773
20
-20.0322899490819
30
0
41
1
10
35.0974664532465
20
-20.1588600372418
30
0
41
1
10
35.0347855509706
20
-20.3980203925077
30
0
41
1
10
34.9831178432804
20
-20.5139161510766
30
0
41
1
10
34.8476023589737
20
-20.7192383925592
30
0
41
1
10
34.7617331428333
20
-20.8114557743081
30
0
41
1
10
34.5686421749696
20
-20.959788335156
30
0
41
1
10
34.4588321158093
20
-21.0179790329171
30
0
41
1
10
34.2310332969098
20
-21.0928867367332
30
0
41
1
10
34.1097958351339
20
-21.1106019729959
30
0
41
1
10
33.8727673666399
20
-21.1035852283382
30
0
41
1
10
33.7538578980156
20
-21.0788087419196
30
0
41
1
10
33.535466814336
20
-20.9910784512043
30
0
41
1
10
33.4329585184602
20
-20.9269297408335
30
0
41
1
10
33.2579118526479
20
-20.7684650899613
30
0
41
1
10
33.1830414676444
20
-20.6719763573665
30
0
41
1
10
33.0717385988333
20
-20.4609529650984
30
0
41
1
10
33.0337569542265
20
-20.3435279413683
30
0
41
1
10
32.9992696882741
20
-20.1041365304274
30
0
41
1
10
33.002200024298
20
-19.9787751358741
30
0
41
1
10
33.0485081062644
20
-19.7380281044779
30
0
41
1
10
33.0925435420854
20
-19.6193549004206
30
0
41
1
10
33.2152060415269
20
-19.4051022355173
30
0
41
1
10
33.2954565734788
20
-19.306503077992
30
0
41
1
10
33.405088739838
20
-19.209549288215
30
0
41
1
10
33.4226636471879
20
-19.1949514480457
30
0
41
1
10
33.4406919722232
20
-19.1808841654749
30
0
0
SPLINE
5
199
100
AcDbEntity
8
1
62
256
6
ByLayer
370
18
48
1
60
0
100
AcDbSpline
70
4
71
3
72
8
73
4
40
0
40
0
40
0
40
0
40
1
40
1
40
1
40
1
41
1
10
20.6579329353171
20
-9.61612113001684
30
0
41
1
10
20.8679806349259
20
-9.5450650883196
30
0
41
1
10
21.0780788581877
20
-9.49867684798829
30
0
41
1
10
21.2842817898553
20
-9.47166516342315
30
0
0
SPLINE
5
19A
100
AcDbEntity
8
1
62
256
6
ByLayer
370
18
48
1
60
0
100
AcDbSpline
70
4
71
3
72
8
73
4
40
0
40
0
40
0
40
0
40
1
40
1
40
1
40
1
41
1
10
19.4150142677061
20
-23.0765196943784
30
0
41
1
10
19.5594617382752
20
-23.1715840389742
30
0
41
1
10
19.7063606903116
20
-23.2543968127693
30
0
41
1
10
19.8536550857164
20
-23.3267202620301
30
0
0
SPLINE
5
19B
100
AcDbEntity
8
1
62
256
6
ByLayer
370
18
48
1
60
0
100
AcDbSpline
70
4
71
3
72
8
73
4
40
0
40
0
40
0
40
0
40
1
40
1
40
1
40
1
41
1
10
24.417295663058
20
-21.0010085203243
30
0
41
1
10
24.3924384634821
20
-20.9768112047672
30
0
41
1
10
24.367006140578
20
-20.9530306279107
30
0
41
1
10
24.3410367436344
20
-20.9297058060579
30
0
0
SPLINE
5
19C
100
AcDbEntity
8
1
62
256
6
ByLayer
370
18
48
1
60
0
100
AcDbSpline
70
4
71
3
72
16
73
12
40
0
40
0
40
0
40
0
40
0.25
40
0.25
40
0.5
40
0.5
40
0.75
40
0.75
40
0.875
40
0.875
40
1
40
1
40
1
40
1
41
1
10
44.0310602417187
20
-20.9726272597378
30
0
41
1
10
42.910766024894
20
-21.1851602568818
30
0
41
1
10
41.7428784951688
20
-21.4263426500298
30
0
41
1
10
39.222998025418
20
-22.0195320140806
30
0
41
1
10
37.9618976767304
20
-22.3171520632382
30
0
41
1
10
35.3988425235476
20
-22.9511603340266
30
0
41
1
10
34.042476013549
20
-23.3144447440442
30
0
41
1
10
32.1553787149878
20
-23.9124192421022
30
0
41
1
10
31.5440192985732
20
-24.1239575526546
30
0
41
1
10
30.5120125592134
20
-24.5309150301797
30
0
41
1
10
30.0900668859169
20
-24.7272733724527
30
0
41
1
10
29.7602435654979
20
-24.9053318375693
30
0
0
SPLINE
5
19D
100
AcDbEntity
8
1
62
256
6
ByLayer
370
18
48
1
60
0
100
AcDbSpline
70
4
71
3
72
18
73
14
40
0
40
0
40
0
40
0
40
0.150186459400633
40
0.150186459400633
40
0.339592137529986
40
0.339592137529986
40
0.52353964259595
40
0.52353964259595
40
0.716564624108249
40
0.716564624108249
40
0.935518218901374
40
0.935518218901374
40
1
40
1
40
1
40
1
41
1
10
38.5767693909797
20
-13.7711113509257
30
0
41
1
10
38.5760856530662
20
-13.7784804730752
30
0
41
1
10
38.57806672621
20
-13.7871692912214
30
0
41
1
10
38.5887296845341
20
-13.808933744049
30
0
41
1
10
38.5992392988343
20
-13.8228894896155
30
0
41
1
10
38.6271520039965
20
-13.8516159968442
30
0
41
1
10
38.6446781254096
20
-13.8667073646457
30
0
41
1
10
38.6850757981636
20
-13.8971682142679
30
0
41
1
10
38.7086238827997
20
-13.9128783008148
30
0
41
1
10
38.7611250408956
20
-13.9445968469502
30
0
41
1
10
38.7909798989472
20
-13.9607442254925
30
0
41
1
10
38.8296942407868
20
-13.9797486116652
30
0
41
1
10
38.8385714520601
20
-13.9839777718548
30
0
41
1
10
38.8474476116606
20
-13.9880838052475
30
0
0
SPLINE
5
19E
100
AcDbEntity
8
1
62
256
6
ByLayer
370
18
48
1
60
0
100
AcDbSpline
70
4
71
3
72
12
73
8
40
0
40
0
40
0
40
0
40
0.412488217320855
40
0.412488217320855
40
0.702829232095143
40
0.702829232095143
40
1
40
1
40
1
40
1
41
1
10
44.9582560376785
20
-20.0190659262757
30
0
41
1
10
44.9804013866877
20
-19.9863376758684
30
0
41
1
10
45.0020810575899
20
-19.9508886680232
30
0
41
1
10
45.0364419965944
20
-19.8887520613359
30
0
41
1
10
45.0500349576249
20
-19.8623183216045
30
0
41
1
10
45.0758093643305
20
-19.8083575096336
30
0
41
1
10
45.0880270111968
20
-19.7806583381124
30
0
41
1
10
45.0992593282812
20
-19.7530380781209
30
0
0
SPLINE
5
19F
100
AcDbEntity
8
1
62
256
6
ByLayer
370
18
48
1
60
0
100
AcDbSpline
70
4
71
3
72
18
73
14
40
0
40
0
40
0
40
0
40
0.0739908643221355
40
0.0739908643221355
40
0.163840977644154
40
0.163840977644154
40
0.285126848313322
40
0.285126848313322
40
0.44367096244091
40
0.44367096244091
40
0.655194408808953
40
0.655194408808953
40
1
40
1
40
1
40
1
41
1
10
19.9070625362681
20
-21.7325027620911
30
0
41
1
10
19.9266673395097
20
-21.7958189062004
30
0
41
1
10
19.9467383532443
20
-21.8724307342525
30
0
41
1
10
19.9933831379584
20
-22.0516950667018
30
0
41
1
10
20.0213791418995
20
-22.1590574000259
30
0
41
1
10
20.0940368738742
20
-22.4074575050527
30
0
41
1
10
20.1424792217342
20
-22.551773085252
30
0
41
1
10
20.2663984616131
20
-22.8621316421665
30
0
41
1
10
20.3475889646846
20
-23.027044854621
30
0
41
1
10
20.5475921559439
20
-23.3637092802527
30
0
41
1
10
20.6724357933627
20
-23.5255061175508
30
0
41
1
10
21.0027883508813
20
-23.8692995075443
30
0
41
1
10
21.213920001242
20
-24.0124483533316
30
0
41
1
10
21.4613068386961
20
-24.1137082529687
30
0
0
SPLINE
5
1A0
100
AcDbEntity
8
1
62
256
6
ByLayer
370
18
48
1
60
0
100
AcDbSpline
70
4
71
3
72
11
73
7
40
0
40
0
40
0
40
0
40
0.379837525225136
40
0.569756287837704
40
0.759675050450272
40
1
40
1
40
1
40
1
41
1.02830968163241
10
30.6996858691271
20
-11.5658164978544
30
0
41
1.02565532568264
10
33.0881733139704
20
-12.5063757500472
30
0
41
1.02058995167321
10
36.064312433567
20
-14.0161492635565
30
0
41
1.0133636309892
10
40.7508427051517
20
-17.0272371485234
30
0
41
1.01212905948733
10
42.7313844688769
20
-17.1672879258355
30
0
41
1.0095816818588
10
44.3951686837602
20
-17.8705693510385
30
0
41
1.00899450091457
10
45.137972477902
20
-18.0727961494579
30
0
0
SPLINE
5
1A1
100
AcDbEntity
8
1
62
256
6
ByLayer
370
18
48
1
60
0
100
AcDbSpline
70
4
71
3
72
8
73
4
40
0
40
0
40
0
40
0
40
1
40
1
40
1
40
1
41
1
10
24.9241118362235
20
-14.615195175779
30
0
41
1
10
24.9540707321682
20
-14.5953150414066
30
0
41
1
10
24.9835895186949
20
-14.5748405672183
30
0
41
1
10
25.0126238222731
20
-14.5538012263623
30
0
0
SPLINE
5
1A2
100
AcDbEntity
8
1
62
256
6
ByLayer
370
18
48
1
60
0
100
AcDbSpline
70
4
71
3
72
18
73
14
40
0
40
0
40
0
40
0
40
0.0367931396620233
40
0.0367931396620233
40
0.29197981781701
40
0.29197981781701
40
0.505668143229405
40
0.505668143229405
40
0.721016338466075
40
0.721016338466075
40
0.911566759950599
40
0.911566759950599
40
1
40
1
40
1
40
1
41
1
10
38.0368508340868
20
-22.7665791207146
30
0
41
1
10
38.0314269856277
20
-22.7680575847316
30
0
41
1
10
38.0259983688211
20
-22.7695546838866
30
0
41
1
10
37.9832721886599
20
-22.7814773704332
30
0
41
1
10
37.9454539968984
20
-22.7928881729714
30
0
41
1
10
37.8808131931604
20
-22.8142761441994
30
0
41
1
10
37.8525040406047
20
-22.8244276131156
30
0
41
1
10
37.8034589840259
20
-22.8439369132757
30
0
41
1
10
37.782091285795
20
-22.8535792228485
30
0
41
1
10
37.7527632137184
20
-22.8695146562204
30
0
41
1
10
37.7431571092372
20
-22.8762776703369
30
0
41
1
10
37.7362367342604
20
-22.8843134288102
30
0
41
1
10
37.7350503306323
20
-22.8866295416998
30
0
41
1
10
37.7348644039155
20
-22.8886642322849
30
0
0
SPLINE
5
1A3
100
AcDbEntity
8
1
62
256
6
ByLayer
370
18
48
1
60
0
100
AcDbSpline
70
4
71
3
72
8
73
4
40
0
40
0
40
0
40
0
40
1
40
1
40
1
40
1
41
1
10
27.5725947950024
20
-13.8316883795214
30
0
41
1
10
26.6629674960165
20
-13.7565220050633
30
0
41
1
10
25.7429990507976
20
-14.0245440549517
30
0
41
1
10
25.0126238222732
20
-14.5538012263623
30
0
0
SPLINE
5
1A4
100
AcDbEntity
8
1
62
256
6
ByLayer
370
18
48
1
60
0
100
AcDbSpline
70
4
71
3
72
8
73
4
40
0
40
0
40
0
40
0
40
1
40
1
40
1
40
1
41
1
10
24.417295663058
20
-21.0010085203242
30
0
41
1
10
25.049224865192
20
-21.6161618994101
30
0
41
1
10
25.8845475074391
20
-21.9867108526328
30
0
41
1
10
26.8124883060045
20
-22.0633905494906
30
0
0
SPLINE
5
1A5
100
AcDbEntity
8
1
62
256
6
ByLayer
370
18
48
1
60
0
100
AcDbSpline
70
4
71
3
72
13
73
9
40
0
40
0
40
0
40
0
40
0.250649945521669
40
0.250649945521669
40
0.250649945521669
40
0.653057935862512
40
0.653057935862512
40
1
40
1
40
1
40
1
41
1
10
33.2446979090797
20
-16.7895755979028
30
0
41
1
10
33.3372695159043
20
-17.0638218456628
30
0
41
1
10
33.4010322746484
20
-17.3501347484812
30
0
41
1
10
33.4340952407596
20
-17.6390676953669
30
0
41
1
10
33.4867174000358
20
-18.0989258792943
30
0
41
1
10
33.4615244486326
20
-18.5760273791305
30
0
41
1
10
33.2735213958705
20
-19.4245272674984
30
0
41
1
10
33.1281200413803
20
-19.8103854542746
30
0
41
1
10
32.9330959951053
20
-20.164121386627
30
0
0
SPLINE
5
1A6
100
AcDbEntity
8
1
62
256
6
ByLayer
370
18
48
1
60
0
100
AcDbSpline
70
4
71
3
72
8
73
4
40
0
40
0
40
0
40
0
40
1
40
1
40
1
40
1
41
1
10
29.5206971103131
20
-24.3338752695843
30
0
41
1
10
29.6759806433511
20
-24.0172349486289
30
0
41
1
10
29.8557464042983
20
-23.2296947536801
30
0
41
1
10
30.0133093310094
20
-22.1757784091077
30
0
0
SPLINE
5
1A7
100
AcDbEntity
8
1
62
256
6
ByLayer
370
18
48
1
60
0
100
AcDbSpline
70
4
71
3
72
8
73
4
40
0
40
0
40
0
40
0
40
1
40
1
40
1
40
1
41
1
10
44.0310602417187
20
-20.9726272597378
30
0
41
1
10
44.2281375002569
20
-20.7887578721922
30
0
41
1
10
44.4262456064126
20
-20.6019912731747
30
0
41
1
10
44.6244093033049
20
-20.4121856611745
30
0
0
SPLINE
5
1A8
100
AcDbEntity
8
1
62
256
6
ByLayer
370
18
48
1
60
0
100
AcDbSpline
70
4
71
3
72
8
73
4
40
0
40
0
40
0
40
0
40
1
40
1
40
1
40
1
41
1
10
44.6244093033049
20
-20.4121856611745
30
0
41
1
10
44.7515299307949
20
-20.2904266867661
30
0
41
1
10
44.8644489761209
20
-20.1561332663876
30
0
41
1
10
44.9582560376785
20
-20.0190659262757
30
0
0
SPLINE
5
1A9
100
AcDbEntity
8
1
62
256
6
ByLayer
370
18
48
1
60
0
100
AcDbSpline
70
4
71
3
72
8
73
4
40
0
40
0
40
0
40
0
40
1
40
1
40
1
40
1
41
1
10
19.7729220371948
20
-21.1706810772767
30
0
41
1
10
19.8043025313587
20
-21.3570195901834
30
0
41
1
10
19.84918241232
20
-21.5455717215858
30
0
41
1
10
19.9070625362672
20
-21.7325027620927
30
0
0
SPLINE
5
1AA
100
AcDbEntity
8
1
62
256
6
ByLayer
370
18
48
1
60
0
100
AcDbSpline
70
4
71
3
72
8
73
4
40
0
40
0
40
0
40
0
40
1
40
1
40
1
40
1
41
1
10
29.7602435654979
20
-24.9053318375693
30
0
41
1
10
29.5915738009148
20
-24.8946714063059
30
0
41
1
10
29.4232984558746
20
-24.8841652241686
30
0
41
1
10
29.2558392399934
20
-24.8739497992196
30
0
0
SPLINE
5
1AB
100
AcDbEntity
8
1
62
256
6
ByLayer
370
18
48
1
60
0
100
AcDbSpline
70
4
71
1
72
4
73
2
40
0
40
0
40
1
40
1
41
1
10
45.2417007240428
20
-18.3621499671022
30
0
41
1
10
45.1134899909588
20
-19.7506298511934
30
0
0
SPLINE
5
1AC
100
AcDbEntity
8
1
62
256
6
ByLayer
370
18
48
1
60
0
100
AcDbSpline
70
4
71
3
72
11
73
7
40
0
40
0
40
0
40
0
40
0.267973217054011
40
0.487581251937808
40
0.707189286821605
40
1
40
1
40
1
40
1
41
1.02490899991337
10
32.93309594807
20
-20.1641213842573
30
0
41
1.02299818100183
10
34.2703317292603
20
-20.231492155264
30
0
41
1.01918124209525
10
36.6094067576718
20
-20.2985203926493
30
0
41
1.0133636309892
10
40.4938964908064
20
-20.0970236810377
30
0
41
1.01210337903089
10
42.5435526254912
20
-20.0640858793281
30
0
41
1.00942740489664
10
44.322847766086
20
-19.8848487102908
30
0
41
1.00890738029382
10
45.1134899909588
20
-19.7506298511934
30
0
0
SPLINE
5
1AD
100
AcDbEntity
8
1
62
256
6
ByLayer
370
18
48
1
60
0
100
AcDbSpline
70
4
71
3
72
11
73
7
40
0
40
0
40
0
40
0
40
0.267973217480478
40
0.487581252236334
40
0.707189286992191
40
1
40
1
40
1
40
1
41
1.02490899992583
10
33.2446978535842
20
-16.7895755924524
30
0
41
1.02299818101095
10
34.576080257331
20
-16.9203365417216
30
0
41
1.01918124210004
10
36.8984758469352
20
-17.1679976173999
30
0
41
1.0133636309892
10
40.71014316062
20
-17.7551436853829
30
0
41
1.01210337903089
10
42.7402032946107
20
-17.9344240975178
30
0
41
1.00942740489664
10
44.4775515109326
20
-18.2094582609574
30
0
41
1.00890738029382
10
45.2417007240428
20
-18.3621499671022
30
0
0
SPLINE
5
1AE
100
AcDbEntity
8
1
62
256
6
ByLayer
370
18
48
1
60
0
100
AcDbSpline
70
4
71
3
72
16
73
12
40
0
40
0
40
0
40
0
40
0.125
40
0.125
40
0.249999999999999
40
0.249999999999999
40
0.499999999999999
40
0.499999999999999
40
0.75
40
0.75
40
1
40
1
40
1
40
1
41
1
10
31.075319370556
20
-10.6634953121769
30
0
41
1
10
31.3579604793588
20
-10.9977235806529
30
0
41
1
10
31.722059157745
20
-11.3518248405977
30
0
41
1
10
32.6645684804489
20
-12.0821051341138
30
0
41
1
10
33.2215458511185
20
-12.4423324353059
30
0
41
1
10
34.9876233777877
20
-13.4529456031282
30
0
41
1
10
36.2467964603772
20
-14.0174361419556
30
0
41
1
10
38.6484745608179
20
-14.9791640368568
30
0
41
1
10
39.8356906070578
20
-15.422569099647
30
0
41
1
10
42.2085516775646
20
-16.3050594194802
30
0
41
1
10
43.3313552772012
20
-16.6454656236122
30
0
41
1
10
44.4045404060946
20
-16.9279604610116
30
0
0
SPLINE
5
1AF
100
AcDbEntity
8
1
62
256
6
ByLayer
370
18
48
1
60
0
100
AcDbSpline
70
4
71
3
72
8
73
4
40
0
40
0
40
0
40
0
40
1
40
1
40
1
40
1
41
1
10
20.5385232718962
20
-12.8794726265606
30
0
41
1
10
20.6000866424363
20
-12.7389405594013
30
0
41
1
10
20.6753545166751
20
-12.5984007624822
30
0
41
1
10
20.7631915886244
20
-12.4609079525889
30
0
0
SPLINE
5
1B0
100
AcDbEntity
8
1
62
256
6
ByLayer
370
18
48
1
60
0
100
AcDbSpline
70
4
71
3
72
8
73
4
40
0
40
0
40
0
40
0
40
1
40
1
40
1
40
1
41
1
10
28.8479244194528
20
-22.2315872969491
30
0
41
1
10
29.2396606294167
20
-22.263958126936
30
0
41
1
10
29.6280538274096
20
-22.2439379429059
30
0
41
1
10
30.0133093303211
20
-22.175778398431
30
0
0
SPLINE
5
1B1
100
AcDbEntity
8
1
62
256
6
ByLayer
370
18
48
1
60
0
100
AcDbSpline
70
4
71
3
72
13
73
9
40
0
40
0
40
0
40
0
40
0.287855605153641
40
0.287855605153641
40
0.605649284587146
40
0.605649284587146
40
0.605649284587146
40
1
40
1
40
1
40
1
41
1
10
32.9330959951053
20
-20.164121386627
30
0
41
1
10
32.7632045875253
20
-20.4721696285256
30
0
41
1
10
32.5446897562805
20
-20.756875571012
30
0
41
1
10
32.0219073781127
20
-21.2753183855432
30
0
41
1
10
31.7054513264559
20
-21.5076003298235
30
0
41
1
10
31.3669837677301
20
-21.6933935209966
30
0
41
1
10
30.9489563301649
20
-21.9228590919823
30
0
41
1
10
30.4851301470232
20
-22.0876945789638
30
0
41
1
10
30.0133093326676
20
-22.1757783980158
30
0
0
SPLINE
5
1B2
100
AcDbEntity
8
1
62
256
6
ByLayer
370
18
48
1
60
0
100
AcDbSpline
70
4
71
3
72
8
73
4
40
0
40
0
40
0
40
0
40
1
40
1
40
1
40
1
41
1
10
23.5561563263511
20
-20.434169419361
30
0
41
1
10
23.2056716304548
20
-20.279728082925
30
0
41
1
10
22.8434286447554
20
-20.1885933107591
30
0
41
1
10
22.4993725636023
20
-20.1411273023842
30
0
0
SPLINE
5
1B3
100
AcDbEntity
8
1
62
256
6
ByLayer
370
18
48
1
60
0
100
AcDbSpline
70
4
71
3
72
12
73
8
40
0
40
0
40
0
40
0
40
0.499999999999999
40
0.499999999999999
40
0.749999999999999
40
0.749999999999999
40
1
40
1
40
1
40
1
41
1
10
22.7482561500953
20
-10.1764723621769
30
0
41
1
10
22.358103874074
20
-10.3382407969553
30
0
41
1
10
22.0257249435622
20
-10.5961932234573
30
0
41
1
10
21.4865728177414
20
-11.2173392655939
30
0
41
1
10
21.3099476386442
20
-11.4635353719393
30
0
41
1
10
20.9960181442773
20
-12.0013109162139
30
0
41
1
10
20.8655862146962
20
-12.3006279643793
30
0
41
1
10
20.763191588625
20
-12.4609079525908
30
0
0
SPLINE
5
1B4
100
AcDbEntity
8
1
62
256
6
ByLayer
370
18
48
1
60
0
100
AcDbSpline
70
4
71
3
72
8
73
4
40
0
40
0
40
0
40
0
40
1
40
1
40
1
40
1
41
1
10
29.6080309084507
20
-13.9998851269798
30
0
41
1
10
29.999767118286
20
-14.0322559569561
30
0
41
1
10
30.3780927407671
20
-14.1212642884883
30
0
41
1
10
30.7441521687209
20
-14.2609918929724
30
0
0
SPLINE
5
1B5
100
AcDbEntity
8
1
62
256
6
ByLayer
370
18
48
1
60
0
100
AcDbSpline
70
4
71
3
72
8
73
4
40
0
40
0
40
0
40
0
40
1
40
1
40
1
40
1
41
1
10
24.0616526084382
20
-14.9598116781785
30
0
41
1
10
23.6902508636846
20
-15.0318950707921
30
0
41
1
10
23.3196399390673
20
-15.0313823127061
30
0
41
1
10
22.9755838579142
20
-14.9839163043312
30
0
0
SPLINE
5
1B6
100
AcDbEntity
8
1
62
256
6
ByLayer
370
18
48
1
60
0
100
AcDbSpline
70
4
71
3
72
10
73
6
40
0
40
0
40
0
40
0
40
0.56071244705334
40
0.56071244705334
40
1
40
1
40
1
40
1
41
1
10
23.5561563263511
20
-20.434169419361
30
0
41
1
10
23.7135702125669
20
-20.5035339629356
30
0
41
1
10
23.8720250447554
20
-20.5874637643477
30
0
41
1
10
24.1337107159915
20
-20.7583219155259
30
0
41
1
10
24.2435661092536
20
-20.842161024493
30
0
41
1
10
24.3410367436344
20
-20.9297058060579
30
0
0
SPLINE
5
1B7
100
AcDbEntity
8
1
62
256
6
ByLayer
370
18
48
1
60
0
100
AcDbSpline
70
4
71
3
72
8
73
4
40
0
40
0
40
0
40
0
40
1
40
1
40
1
40
1
41
1
10
44.4045404060946
20
-16.9279604610116
30
0
41
1
10
44.5638230896006
20
-17.1533938353985
30
0
41
1
10
44.7237469091318
20
-17.3801504461133
30
0
41
1
10
44.8834192967927
20
-17.6071929972541
30
0
0
SPLINE
5
1B8
100
AcDbEntity
8
1
62
256
6
ByLayer
370
18
48
1
60
0
100
AcDbSpline
70
4
71
3
72
12
73
8
40
0
40
0
40
0
40
0
40
0.402184145094038
40
0.402184145094038
40
0.696777465474673
40
0.696777465474673
40
1
40
1
40
1
40
1
41
1
10
45.2279458173457
20
-18.3594059139307
30
0
41
1
10
45.219695851783
20
-18.3218331489799
30
0
41
1
10
45.2097450859287
20
-18.2830787571245
30
0
41
1
10
45.189912252482
20
-18.2159058891855
30
0
41
1
10
45.1806610507293
20
-18.1872779562906
30
0
41
1
10
45.1605041959038
20
-18.1298777667661
30
0
41
1
10
45.149475417285
20
-18.1008971779697
30
0
41
1
10
45.1379724868766
20
-18.0727961519012
30
0
0
SPLINE
5
1B9
100
AcDbEntity
8
1
62
256
6
ByLayer
370
18
48
1
60
0
100
AcDbSpline
70
4
71
3
72
12
73
8
40
0
40
0
40
0
40
0
40
0.323114842069759
40
0.323114842069759
40
0.710369726849214
40
0.710369726849214
40
1
40
1
40
1
40
1
41
1
10
30.7441521713107
20
-14.260991893961
30
0
41
1
10
31.1127417309123
20
-14.4010560032261
30
0
41
1
10
31.4656252192471
20
-14.5952537794386
30
0
41
1
10
32.1621242453809
20
-15.1106082924466
30
0
41
1
10
32.5011176077976
20
-15.4570036248724
30
0
41
1
10
32.9688921107672
20
-16.1367209259725
30
0
41
1
10
33.1329324013328
20
-16.4585766527907
30
0
41
1
10
33.2446979090797
20
-16.7895755979028
30
0
0
SPLINE
5
1BA
100
AcDbEntity
8
1
62
256
6
ByLayer
370
18
48
1
60
0
100
AcDbSpline
70
4
71
3
72
8
73
4
40
0
40
0
40
0
40
0
40
1
40
1
40
1
40
1
41
1
10
45.1379724868766
20
-18.0727961519012
30
0
41
1
10
45.0716897229471
20
-17.9117844415215
30
0
41
1
10
44.9858480182514
20
-17.752839208041
30
0
41
1
10
44.8834192967927
20
-17.6071929972541
30
0
0
SPLINE
5
1BB
100
AcDbEntity
8
1
62
256
6
ByLayer
370
18
48
1
60
0
100
AcDbSpline
70
4
71
3
72
8
73
4
40
0
40
0
40
0
40
0
40
1
40
1
40
1
40
1
41
1
10
31.075319370556
20
-10.6634953121769
30
0
41
1
10
30.9066496059741
20
-10.6528348809135
30
0
41
1
10
30.7383742609349
20
-10.642328698776
30
0
41
1
10
30.5709150450548
20
-10.6321132738271
30
0
0
SPLINE
5
1BC
100
AcDbEntity
8
1
62
256
6
ByLayer
370
18
48
1
60
0
100
AcDbSpline
70
4
71
3
72
10
73
6
40
0
40
0
40
0
40
0
40
0.56071244705334
40
0.56071244705334
40
1
40
1
40
1
40
1
41
1
10
24.0616526084382
20
-14.9598116781785
30
0
41
1
10
24.2284610102702
20
-14.9274367211667
30
0
41
1
10
24.3992792454801
20
-14.877474952184
30
0
41
1
10
24.6879872637228
20
-14.7556900122791
30
0
41
1
10
24.8116674618159
20
-14.689811052037
30
0
41
1
10
24.9241118362235
20
-14.615195175779
30
0
0
SPLINE
5
1BD
100
AcDbEntity
8
1
62
256
6
ByLayer
370
18
48
1
60
0
100
AcDbSpline
70
4
71
2
72
6
73
3
40
0
40
0
40
0
40
1
40
1
40
1
41
1.02830968163241
10
29.5206971103131
20
-24.3338752695843
30
0
41
1.02830968163241
10
29.3882681751533
20
-24.603912534402
30
0
41
1.02830968163241
10
29.2558392399934
20
-24.8739497992196
30
0
0
SPLINE
5
1BE
100
AcDbEntity
8
1
62
256
6
ByLayer
370
18
48
1
60
0
100
AcDbSpline
70
4
71
3
72
8
73
4
40
0
40
0
40
0
40
0
40
1
40
1
40
1
40
1
41
1
10
30.7441521718884
20
-14.2609918797286
30
0
41
1
10
30.7914097189853
20
-13.0967701564868
30
0
41
1
10
30.7751829214845
20
-12.1132374039377
30
0
41
1
10
30.6996858691271
20
-11.5658164978544
30
0
0
SPLINE
5
1BF
100
AcDbEntity
8
1
62
256
6
ByLayer
370
18
48
1
60
0
100
AcDbSpline
70
4
71
3
72
8
73
4
40
0
40
0
40
0
40
0
40
1
40
1
40
1
40
1
41
1
10
43.4945065390867
20
-21.2882969740546
30
0
41
1
10
43.3037060564495
20
-21.3465622982975
30
0
41
1
10
43.1084780469872
20
-21.4032225529364
30
0
41
1
10
42.9144196136341
20
-21.456647217297
30
0
0
SPLINE
5
1C0
100
AcDbEntity
8
1
62
256
6
ByLayer
370
18
48
1
60
0
100
AcDbSpline
70
4
71
3
72
11
73
7
40
0
40
0
40
0
40
0
40
0.379837525225133
40
0.569756287837699
40
0.759675050450266
40
1
40
1
40
1
40
1
41
1.02830968163241
10
29.5206971103131
20
-24.3338752695843
30
0
41
1.02565532568264
10
32.0379619308923
20
-23.8798180848457
30
0
41
1.02058995167321
10
35.2353717330358
20
-22.9933032044762
30
0
41
1.0133636309892
10
40.4045145203866
20
-20.7778569778801
30
0
41
1.01212905948733
10
42.3999678369593
20
-20.7564205640038
30
0
41
1.0095816818588
10
44.1803214441864
20
-20.1972939795023
30
0
41
1.00899450091457
10
44.9582560282796
20
-20.0190659284291
30
0
0
SPLINE
5
1C1
100
AcDbEntity
8
1
62
256
6
ByLayer
370
18
48
1
60
0
100
AcDbSpline
70
4
71
1
72
4
73
2
40
0
40
0
40
1
40
1
41
1
10
30.6996858691271
20
-11.5658164978544
30
0
41
1
10
30.5709150450548
20
-10.6321132738271
30
0
0
SPLINE
5
1C2
100
AcDbEntity
8
1
62
256
6
ByLayer
370
18
48
1
60
0
100
AcDbSpline
70
4
71
3
72
14
73
10
40
0
40
0
40
0
40
0
40
0.0829586012802395
40
0.0829586012802395
40
0.459195015075153
40
0.459195015075153
40
0.835474799669122
40
0.835474799669122
40
1
40
1
40
1
40
1
41
1
10
29.3153742670863
20
-17.667303153568
30
0
41
1
10
29.3129807472498
20
-17.6639489718712
30
0
41
1
10
29.3106164352656
20
-17.6605365679167
30
0
41
1
10
29.297819426414
20
-17.64147799375
30
0
41
1
10
29.2879741601043
20
-17.6245101409743
30
0
41
1
10
29.2714135213236
20
-17.5901889356478
30
0
41
1
10
29.2645207568816
20
-17.5724504177226
30
0
41
1
10
29.2571526135652
20
-17.5481411674167
30
0
41
1
10
29.2552116533887
20
-17.5408151681974
30
0
41
1
10
29.2535657463299
20
-17.5336551323671
30
0
0
SPLINE
5
1C3
100
AcDbEntity
8
1
62
256
6
ByLayer
370
18
48
1
60
0
100
AcDbSpline
70
4
71
3
72
12
73
8
40
0
40
0
40
0
40
0
40
0.392678099449935
40
0.392678099449935
40
0.791279335966135
40
0.791279335966135
40
1
40
1
40
1
40
1
41
1
10
28.4054255680935
20
-16.941902115925
30
0
41
1
10
28.3863543026409
20
-16.9428693539812
30
0
41
1
10
28.3661176238033
20
-16.9429396857036
30
0
41
1
10
28.3259730973135
20
-16.9408438907765
30
0
41
1
10
28.3055888160725
20
-16.9386019216422
30
0
41
1
10
28.276956935852
20
-16.9337878950344
30
0
41
1
10
28.2673714506865
20
-16.9318595839351
30
0
41
1
10
28.2582497032035
20
-16.9297403479307
30
0
0
SPLINE
5
1C4
100
AcDbEntity
8
1
62
256
6
ByLayer
370
18
48
1
60
0
100
AcDbSpline
70
4
71
3
72
14
73
10
40
0
40
0
40
0
40
0
40
0.16452520033095
40
0.16452520033095
40
0.540804984924853
40
0.540804984924853
40
0.9170413987197
40
0.9170413987197
40
1
40
1
40
1
40
1
41
1
10
29.1343960255184
20
-18.8242238403013
30
0
41
1
10
29.1373820707971
20
-18.8168706219342
30
0
41
1
10
29.1406823112799
20
-18.8094760644826
30
0
41
1
10
29.1525174738123
20
-18.7854089723863
30
0
41
1
10
29.1625988594971
20
-18.7686157756328
30
0
41
1
10
29.185177100515
20
-18.7377683366814
30
0
41
1
10
29.1979192944338
20
-18.7233634204688
30
0
41
1
10
29.2138890573604
20
-18.7080621161432
30
0
41
1
10
29.2168180414452
20
-18.7053593077908
30
0
41
1
10
29.2197633696552
20
-18.7027375870951
30
0
0
SPLINE
5
1C5
100
AcDbEntity
8
1
62
256
6
ByLayer
370
18
48
1
60
0
100
AcDbSpline
70
4
71
3
72
12
73
8
40
0
40
0
40
0
40
0
40
0.392678099452522
40
0.392678099452522
40
0.791279335968745
40
0.791279335968745
40
1
40
1
40
1
40
1
41
1
10
28.0434690849608
20
-19.2557434893933
30
0
41
1
10
28.0610497317403
20
-19.2532856326638
30
0
41
1
10
28.0802551763203
20
-19.2521840666836
30
0
41
1
10
28.1196771475796
20
-19.2535573063801
30
0
41
1
10
28.1403926415968
20
-19.2561304882908
30
0
41
1
10
28.1704683931384
20
-19.2623883862197
30
0
41
1
10
28.1807228686919
20
-19.2649856877072
30
0
41
1
10
28.1906449498508
20
-19.2679052573876
30
0
0
SPLINE
5
1C6
100
AcDbEntity
8
1
62
256
6
ByLayer
370
18
48
1
60
0
100
AcDbSpline
70
4
71
3
72
14
73
10
40
0
40
0
40
0
40
0
40
0.164525200330954
40
0.164525200330954
40
0.540804984924845
40
0.540804984924845
40
0.917041398719713
40
0.917041398719713
40
1
40
1
40
1
40
1
41
1
10
27.3144986275354
20
-17.3734217650164
30
0
41
1
10
27.3108847623581
20
-17.3801471634849
30
0
41
1
10
27.3070376724332
20
-17.3869948714944
30
0
41
1
10
27.2937366903229
20
-17.4095961440129
30
0
41
1
10
27.2831567847335
20
-17.4258908208619
30
0
41
1
10
27.2608396764109
20
-17.4569993925085
30
0
41
1
10
27.2488566547327
20
-17.4721634809617
30
0
41
1
10
27.234391361627
20
-17.4889692551082
30
0
41
1
10
27.2317590836541
20
-17.4919687695725
30
0
41
1
10
27.2291312833987
20
-17.4949080182229
30
0
0
SPLINE
5
1C7
100
AcDbEntity
8
1
62
256
6
ByLayer
370
18
48
1
60
0
100
AcDbSpline
70
4
71
3
72
14
73
10
40
0
40
0
40
0
40
0
40
0.0829586012803196
40
0.0829586012803196
40
0.459195015075154
40
0.459195015075154
40
0.835474799669043
40
0.835474799669043
40
1
40
1
40
1
40
1
41
1
10
27.1335203859677
20
-18.5303424517499
30
0
41
1
10
27.1355963778495
20
-18.5333791054921
30
0
41
1
10
27.1376639837218
20
-18.5364948033347
30
0
41
1
10
27.1489565227526
20
-18.5540489076805
30
0
41
1
10
27.1580426168217
20
-18.5702575882155
30
0
41
1
10
27.174342122907
20
-18.6043176608468
30
0
41
1
10
27.1817334072536
20
-18.6225546986765
30
0
41
1
10
27.1905673701479
20
-18.6483297685604
30
0
41
1
10
27.1930551797664
20
-18.6562026172217
30
0
41
1
10
27.1953289067239
20
-18.6639904729507
30
0
0
SPLINE
5
1C8
100
AcDbEntity
8
1
62
256
6
ByLayer
370
18
48
1
60
0
100
AcDbSpline
70
4
71
3
72
12
73
8
40
0
40
0
40
0
40
0
40
0.249931463373963
40
0.249931463373963
40
0.624921094071386
40
0.624921094071386
40
1
40
1
40
1
40
1
41
1
10
18.619731149209
20
-4.45175132279249
30
0
41
1
10
18.6299313918429
20
-4.45021728992694
30
0
41
1
10
18.6401674850715
20
-4.4486580149381
30
0
41
1
10
18.6658487936577
20
-4.44469746716064
30
0
41
1
10
18.6813385821424
20
-4.44226513889706
30
0
41
1
10
18.7124754043574
20
-4.43729194040048
30
0
41
1
10
18.7281234002849
20
-4.43475089688042
30
0
41
1
10
18.7438463235435
20
-4.43215758283952
30
0
0
SPLINE
5
1C9
100
AcDbEntity
8
1
62
256
6
ByLayer
370
18
48
1
60
0
100
AcDbSpline
70
4
71
2
72
6
73
3
40
0
40
0
40
0
40
1
40
1
40
1
41
1.02613459695995
10
23.5328081549334
20
-7.8491477914788
30
0
41
0.907898829499799
10
23.6479792358629
20
-6.60188303249067
30
0
41
0.882691150627509
10
23.2882519845292
20
-5.58742889954567
30
0
0
SPLINE
5
1CA
100
AcDbEntity
8
1
62
256
6
ByLayer
370
18
48
1
60
0
100
AcDbSpline
70
4
71
3
72
16
73
12
40
0
40
0
40
0
40
0
40
0.114691258188362
40
0.114691258188362
40
0.256006982052503
40
0.256006982052503
40
0.47848150969845
40
0.47848150969845
40
0.904237458570186
40
0.904237458570186
40
1
40
1
40
1
40
1
41
1
10
9.07679491924313
20
19.1222825906926
30
0
41
1
10
9.09376079941589
20
19.1222825906926
30
0
41
1
10
9.11093746787591
20
19.1213397893258
30
0
41
1
10
9.14653890153818
20
19.117563257367
30
0
41
1
10
9.1649283126321
20
19.1143205262483
30
0
41
1
10
9.20694798227836
20
19.1044641374227
30
0
41
1
10
9.22859635065214
20
19.0968571256395
30
0
41
1
10
9.28185513895582
20
19.0732678361841
30
0
41
1
10
9.30640600056211
20
19.0554522237109
30
0
41
1
10
9.32912053427444
20
19.0329978954363
30
0
41
1
10
9.33300496589206
20
19.0288038685174
30
0
41
1
10
9.33660254037849
20
19.0245744101322
30
0
0
SPLINE
5
1CB
100
AcDbEntity
8
1
62
256
6
ByLayer
370
18
48
1
60
0
100
AcDbSpline
70
4
71
3
72
16
73
12
40
0
40
0
40
0
40
0
40
0.114691258188368
40
0.114691258188368
40
0.256006982052502
40
0.256006982052502
40
0.47848150969846
40
0.47848150969846
40
0.904237458570168
40
0.904237458570168
40
1
40
1
40
1
40
1
41
1
10
6.9232050807569
20
5.85988980456935
30
0
41
1
10
6.90623920058414
20
5.85988980456935
30
0
41
1
10
6.88906253212411
20
5.8629683550426
30
0
41
1
10
6.85346109846185
20
5.87527238052311
30
0
41
1
10
6.83507168736793
20
5.88582364044447
30
0
41
1
10
6.79305201772169
20
5.91775860341619
30
0
41
1
10
6.77140364934789
20
5.94228809980598
30
0
41
1
10
6.71814486104421
20
6.01773563791645
30
0
41
1
10
6.69359399943792
20
6.07398601286488
30
0
41
1
10
6.67087946572559
20
6.14371014971229
30
0
41
1
10
6.66699503410797
20
6.15668833929709
30
0
41
1
10
6.66339745962154
20
6.16973001948568
30
0
0
SPLINE
5
1CC
100
AcDbEntity
8
1
62
256
6
ByLayer
370
18
48
1
60
0
100
AcDbSpline
70
4
71
3
72
16
73
12
40
0
40
0
40
0
40
0
40
0.228357578216028
40
0.228357578216028
40
0.456396423615203
40
0.456396423615203
40
0.688781907744161
40
0.688781907744161
40
0.914877139067678
40
0.914877139067678
40
1
40
1
40
1
40
1
41
1
10
13.3419203775241
20
-19.2361383015777
30
0
41
1
10
13.2467407337152
20
-19.2582742399065
30
0
41
1
10
13.1646917207013
20
-19.2848429838469
30
0
41
1
10
13.0390875652483
20
-19.3409164363136
30
0
41
1
10
12.9936962551178
20
-19.3711818048752
30
0
41
1
10
12.9446680263594
20
-19.4311776906465
30
0
41
1
10
12.9411858289979
20
-19.4617508533366
30
0
41
1
10
12.9789028761133
20
-19.5173342544705
30
0
41
1
10
13.0195711749436
20
-19.5432925375231
30
0
41
1
10
13.1027469391637
20
-19.5741853034486
30
0
41
1
10
13.1286792726913
20
-19.5822799681452
30
0
41
1
10
13.1572358782107
20
-19.5898386098127
30
0
0
SPLINE
5
1CD
100
AcDbEntity
8
1
62
256
6
ByLayer
370
18
48
1
60
0
100
AcDbSpline
70
4
71
3
72
13
73
9
40
0
40
0
40
0
40
0
40
0.411226004529845
40
0.411226004529845
40
0.81747354930165
40
0.81747354930165
40
0.81747354930165
40
1
40
1
40
1
40
1
41
1
10
16.9958398726509
20
-7.96661086368087
30
0
41
1
10
16.9954189038373
20
-7.62450988155706
30
0
41
1
10
17.0000354157895
20
-7.27637018305396
30
0
41
1
10
17.0191436119125
20
-6.63281299583954
30
0
41
1
10
17.033805985704
20
-6.32762036537881
30
0
41
1
10
17.0524421664026
20
-6.06618577964198
30
0
41
1
10
17.0609234245517
20
-5.94720784920762
30
0
41
1
10
17.0702893756255
20
-5.8358423795496
30
0
41
1
10
17.0803645201175
20
-5.73454046388295
30
0
0
SPLINE
5
1CE
100
AcDbEntity
8
1
62
256
6
ByLayer
370
18
48
1
60
0
100
AcDbSpline
70
4
71
3
72
10
73
6
40
0
40
0
40
0
40
0
40
0.518901810990011
40
0.518901810990011
40
1
40
1
40
1
40
1
41
1
10
18.8727924184811
20
-4.41004634778434
30
0
41
1
10
19.2044972707027
20
-4.35112701256588
30
0
41
1
10
19.5783394896019
20
-4.32096892826149
30
0
41
1
10
20.3217342227676
20
-4.33281451235024
30
0
41
1
10
20.6980759589721
20
-4.37094845212408
30
0
41
1
10
21.0651433124846
20
-4.43403560282803
30
0
0
SPLINE
5
1CF
100
AcDbEntity
8
1
62
256
6
ByLayer
370
18
48
1
60
0
100
AcDbSpline
70
4
71
3
72
12
73
8
40
0
40
0
40
0
40
0
40
0.249931719450626
40
0.249931719450626
40
0.624921402474576
40
0.624921402474576
40
1
40
1
40
1
40
1
41
1
10
18.7438463235434
20
-4.43215758283969
30
0
41
1
10
18.7544546611712
20
-4.43040786044594
30
0
41
1
10
18.7650974605876
20
-4.4286342867004
30
0
41
1
10
18.7917921440011
20
-4.42414159051245
30
0
41
1
10
18.8078868679958
20
-4.42139323400784
30
0
41
1
10
18.8402273003835
20
-4.4157949931926
30
0
41
1
10
18.8564740012223
20
-4.41294491948224
30
0
41
1
10
18.8727924184811
20
-4.41004634778434
30
0
0
SPLINE
5
1D0
100
AcDbEntity
8
1
62
256
6
ByLayer
370
18
48
1
60
0
100
AcDbSpline
70
4
71
3
72
16
73
12
40
0
40
0
40
0
40
0
40
0.464304267159304
40
0.464304267159304
40
0.647533485141974
40
0.647533485141974
40
0.833383675860506
40
0.833383675860506
40
0.950238074309851
40
0.950238074309851
40
1
40
1
40
1
40
1
41
1
10
9.33660254037846
20
6.16973001948568
30
0
41
1
10
9.31929643456959
20
6.10699311212738
30
0
41
1
10
9.29554416795261
20
6.04466199750289
30
0
41
1
10
9.24667293447291
20
5.96658891111872
30
0
41
1
10
9.23079711658974
20
5.94525308185362
30
0
41
1
10
9.19394564855392
20
5.90694983484815
30
0
41
1
10
9.17240809259957
20
5.88959453036583
30
0
41
1
10
9.13286934844768
20
5.86981268651903
30
0
41
1
10
9.1161352553444
20
5.86416869949437
30
0
41
1
10
9.09170798023393
20
5.86046107106304
30
0
41
1
10
9.08424032311152
20
5.85988980456932
30
0
41
1
10
9.07679491924313
20
5.85988980456932
30
0
0
SPLINE
5
1D1
100
AcDbEntity
8
1
62
256
6
ByLayer
370
18
48
1
60
0
100
AcDbSpline
70
4
71
3
72
16
73
12
40
0
40
0
40
0
40
0
40
0.114691258188364
40
0.114691258188364
40
0.256006982052491
40
0.256006982052491
40
0.478481509698431
40
0.478481509698431
40
0.904237458570125
40
0.904237458570125
40
1
40
1
40
1
40
1
41
1
10
9.0767949192431
20
-5.85988980456938
30
0
41
1
10
9.09376079941586
20
-5.85988980456938
30
0
41
1
10
9.11093746787589
20
-5.86296835504263
30
0
41
1
10
9.14653890153815
20
-5.87527238052311
30
0
41
1
10
9.16492831263207
20
-5.88582364044447
30
0
41
1
10
9.20694798227831
20
-5.91775860341622
30
0
41
1
10
9.22859635065211
20
-5.94228809980598
30
0
41
1
10
9.28185513895579
20
-6.01773563791645
30
0
41
1
10
9.30640600056208
20
-6.07398601286491
30
0
41
1
10
9.32912053427441
20
-6.14371014971232
30
0
41
1
10
9.33300496589203
20
-6.15668833929709
30
0
41
1
10
9.33660254037846
20
-6.16973001948571
30
0
0
SPLINE
5
1D2
100
AcDbEntity
8
1
62
256
6
ByLayer
370
18
48
1
60
0
100
AcDbSpline
70
4
71
3
72
16
73
12
40
0
40
0
40
0
40
0
40
0.46430426715929
40
0.46430426715929
40
0.647533485141967
40
0.647533485141967
40
0.833383675860504
40
0.833383675860504
40
0.950238074309844
40
0.950238074309844
40
1
40
1
40
1
40
1
41
1
10
6.66339745962154
20
-6.16973001948571
30
0
41
1
10
6.68070356543041
20
-6.10699311212741
30
0
41
1
10
6.70445583204739
20
-6.04466199750291
30
0
41
1
10
6.75332706552709
20
-5.96658891111875
30
0
41
1
10
6.76920288341026
20
-5.94525308185365
30
0
41
1
10
6.80605435144608
20
-5.90694983484818
30
0
41
1
10
6.82759190740043
20
-5.88959453036586
30
0
41
1
10
6.86713065155232
20
-5.86981268651906
30
0
41
1
10
6.8838647446556
20
-5.8641686994944
30
0
41
1
10
6.90829201976607
20
-5.86046107106307
30
0
41
1
10
6.91575967688848
20
-5.85988980456935
30
0
41
1
10
6.92320508075687
20
-5.85988980456935
30
0
0
SPLINE
5
1D3
100
AcDbEntity
8
1
62
256
6
ByLayer
370
18
48
1
60
0
100
AcDbSpline
70
4
71
3
72
16
73
12
40
0
40
0
40
0
40
0
40
0.114691258188364
40
0.114691258188364
40
0.256006982052499
40
0.256006982052499
40
0.478481509698429
40
0.478481509698429
40
0.904237458570111
40
0.904237458570111
40
1
40
1
40
1
40
1
41
1
10
6.92320508075687
20
-19.1222825906926
30
0
41
1
10
6.90623920058411
20
-19.1222825906926
30
0
41
1
10
6.88906253212409
20
-19.1213397893258
30
0
41
1
10
6.85346109846182
20
-19.117563257367
30
0
41
1
10
6.8350716873679
20
-19.1143205262484
30
0
41
1
10
6.79305201772166
20
-19.1044641374228
30
0
41
1
10
6.77140364934786
20
-19.0968571256395
30
0
41
1
10
6.71814486104418
20
-19.0732678361841
30
0
41
1
10
6.69359399943792
20
-19.0554522237109
30
0
41
1
10
6.67087946572556
20
-19.0329978954364
30
0
41
1
10
6.66699503410794
20
-19.0288038685174
30
0
41
1
10
6.66339745962151
20
-19.0245744101322
30
0
0
SPLINE
5
1D4
100
AcDbEntity
8
1
62
256
6
ByLayer
370
18
48
1
60
0
100
AcDbSpline
70
4
71
2
72
9
73
6
40
0
40
0
40
0
40
0.419655468653538
40
0.629483202980308
40
0.944224804470461
40
1
40
1
40
1
41
1.02613459695995
10
23.5328081549334
20
-7.8491477914788
30
0
41
1.02613459695995
10
22.5951390476119
20
-7.69533828632732
30
0
41
1.02613459695995
10
21.2258618499203
20
-8.18754627858226
30
0
41
1.02613459695995
10
20.1472366000742
20
-8.91837737011434
30
0
41
1.02613459695995
10
19.5266351869823
20
-9.72307290440266
30
0
41
1.02613459695995
10
19.436822605584
20
-9.86076044999254
30
0
0
SPLINE
5
1D5
100
AcDbEntity
8
1
62
256
6
ByLayer
370
18
48
1
60
0
100
AcDbSpline
70
4
71
3
72
16
73
12
40
0
40
0
40
0
40
0
40
0.464304267159312
40
0.464304267159312
40
0.64753348514198
40
0.64753348514198
40
0.833383675860513
40
0.833383675860513
40
0.950238074309858
40
0.950238074309858
40
1
40
1
40
1
40
1
41
1
10
9.33660254037844
20
-19.0245744101322
30
0
41
1
10
9.31929643456957
20
-19.0449201888242
30
0
41
1
10
9.29554416795258
20
-19.0647708693882
30
0
41
1
10
9.24667293447285
20
-19.0892734034403
30
0
41
1
10
9.23079711658971
20
-19.0959253431035
30
0
41
1
10
9.19394564855389
20
-19.1078085849622
30
0
41
1
10
9.17240809259954
20
-19.1131587398644
30
0
41
1
10
9.13286934844766
20
-19.1192406569511
30
0
41
1
10
9.11613525534437
20
-19.1209710216545
30
0
41
1
10
9.09170798023391
20
-19.1221075563677
30
0
41
1
10
9.08424032311149
20
-19.1222825906926
30
0
41
1
10
9.0767949192431
20
-19.1222825906926
30
0
0
SPLINE
5
1D6
100
AcDbEntity
8
1
62
256
6
ByLayer
370
18
48
1
60
0
100
AcDbSpline
70
4
71
3
72
10
73
6
40
0
40
0
40
0
40
0
40
0.527542122904703
40
0.527542122904703
40
1
40
1
40
1
40
1
41
1
10
21.0651433124845
20
-4.434035602828
30
0
41
1
10
21.5035815974918
20
-4.50938913643967
30
0
41
1
10
21.9349077500565
20
-4.65967436957442
30
0
41
1
10
22.6771023469345
20
-5.06278387480575
30
0
41
1
10
23.0036978358409
20
-5.30668671296266
30
0
41
1
10
23.2882519845322
20
-5.58742889955403
30
0
0
SPLINE
5
1D7
100
AcDbEntity
8
1
62
256
6
ByLayer
370
18
48
1
60
0
100
AcDbSpline
70
4
71
3
72
12
73
8
40
0
40
0
40
0
40
0
40
0.322677661062952
40
0.322677661062952
40
0.649984413157127
40
0.649984413157127
40
1
40
1
40
1
40
1
41
1
10
17.0803645201175
20
-5.73454046388298
30
0
41
1
10
17.1056034767622
20
-5.48077192889139
30
0
41
1
10
17.1679704187833
20
-5.2684708736322
30
0
41
1
10
17.3930727335247
20
-4.9270861572675
30
0
41
1
10
17.559948656443
20
-4.79355058252338
30
0
41
1
10
18.0030174326417
20
-4.58045631795477
30
0
41
1
10
18.2918373853128
20
-4.50106385664824
30
0
41
1
10
18.619731149209
20
-4.45175132279249
30
0
0
SPLINE
5
1D8
100
AcDbEntity
8
1
62
256
6
ByLayer
370
18
48
1
60
0
100
AcDbSpline
70
4
71
3
72
42
73
38
40
0
40
0
40
0
40
0
40
0.0001456802868751
40
0.0001456802868751
40
0.000193781594573
40
0.000193781594573
40
0.000231512778575
40
0.000231512778575
40
0.0002608510079934
40
0.0002608510079934
40
0.000290105339971
40
0.000290105339971
40
0.000338624783978
40
0.000338624783978
40
0.0004943090624644
40
0.0004943090624644
40
0.0012382896465917
40
0.0012382896465917
40
0.0042003685117349
40
0.0042003685117349
40
0.0160477511253419
40
0.0160477511253419
40
0.0634549160255714
40
0.0634549160255714
40
0.254713593172026
40
0.254713593172026
40
0.445726642761438
40
0.445726642761438
40
0.588325336596992
40
0.588325336596992
40
0.775840335425119
40
0.775840335425119
40
0.886032080512342
40
0.886032080512342
40
0.994826733587428
40
0.994826733587428
40
1
40
1
40
1
40
1
41
1
10
17.9728013325132
20
-10.4222758407969
30
0
41
1
10
17.9728163574082
20
-10.4223582333016
30
0
41
1
10
17.9728331540782
20
-10.4224405964048
30
0
41
1
10
17.9728680700607
20
-10.4225379355598
30
0
41
1
10
17.9728779961653
20
-10.4225612164673
30
0
41
1
10
17.9728994709837
20
-10.4225970211555
30
0
41
1
10
17.9729104456868
20
-10.4226109768927
30
0
41
1
10
17.9729327969828
20
-10.4226280822232
30
0
41
1
10
17.9729437802155
20
-10.4226329634429
30
0
41
1
10
17.9729664772277
20
-10.422636100034
30
0
41
1
10
17.9729784093353
20
-10.422634462609
30
0
41
1
10
17.9730093409495
20
-10.4226239663263
30
0
41
1
10
17.973028393437
20
-10.4226113016238
30
0
41
1
10
17.9731039419405
20
-10.4225489458415
30
0
41
1
10
17.9731553224136
20
-10.4224806254246
30
0
41
1
10
17.9734405452806
20
-10.4220853051831
30
0
41
1
10
17.9736485213091
20
-10.4217112088259
30
0
41
1
10
17.9747060226329
20
-10.4198954417732
30
0
41
1
10
17.9755336761349
20
-10.41841882347
30
0
41
1
10
17.9797048305929
20
-10.4110730542523
30
0
41
1
10
17.9830654244538
20
-10.4052019389833
30
0
41
1
10
18.0000380391045
20
-10.3759326700369
30
0
41
1
10
18.0141207124632
20
-10.352756305495
30
0
41
1
10
18.0874353099192
20
-10.2379201903537
30
0
41
1
10
18.1550620115676
20
-10.1498969546837
30
0
41
1
10
18.3110952826338
20
-9.99075393117667
30
0
41
1
10
18.3842885454412
20
-9.89272648890196
30
0
41
1
10
18.5629417898456
20
-9.80044139469169
30
0
41
1
10
18.6530172433514
20
-9.78785868046631
30
0
41
1
10
18.8551495345249
20
-9.75659269344581
30
0
41
1
10
18.9729794368096
20
-9.73544683538734
30
0
41
1
10
19.1508057958271
20
-9.73845798637353
30
0
41
1
10
19.2158591281553
20
-9.7494270781097
30
0
41
1
10
19.3321250822496
20
-9.79019974195967
30
0
41
1
10
19.3848980394452
20
-9.82002578034817
30
0
41
1
10
19.4325442699204
20
-9.85733554941635
30
0
41
1
10
19.4346843435621
20
-9.85905462197618
30
0
41
1
10
19.436822605584
20
-9.86076044999248
30
0
0
SPLINE
5
1D9
100
AcDbEntity
8
1
62
256
6
ByLayer
370
18
48
1
60
0
100
AcDbSpline
70
4
71
3
72
16
73
12
40
0
40
0
40
0
40
0
40
0.464304267159293
40
0.464304267159293
40
0.647533485141969
40
0.647533485141969
40
0.833383675860506
40
0.833383675860506
40
0.950238074309852
40
0.950238074309852
40
1
40
1
40
1
40
1
41
1
10
6.66339745962156
20
19.0245744101322
30
0
41
1
10
6.68070356543043
20
19.0449201888242
30
0
41
1
10
6.70445583204742
20
19.0647708693882
30
0
41
1
10
6.75332706552712
20
19.0892734034403
30
0
41
1
10
6.76920288341029
20
19.0959253431034
30
0
41
1
10
6.80605435144611
20
19.1078085849622
30
0
41
1
10
6.82759190740046
20
19.1131587398644
30
0
41
1
10
6.86713065155234
20
19.1192406569511
30
0
41
1
10
6.88386474465563
20
19.1209710216544
30
0
41
1
10
6.90829201976609
20
19.1221075563677
30
0
41
1
10
6.91575967688851
20
19.1222825906926
30
0
41
1
10
6.9232050807569
20
19.1222825906926
30
0
0
SPLINE
5
1DA
100
AcDbEntity
8
SK1
62
256
6
ByLayer
370
18
48
1
60
0
100
AcDbSpline
70
4
71
3
72
24
73
20
40
0
40
0
40
0
40
0
40
0.470757791634908
40
0.470757791634908
40
0.661826126045254
40
0.661826126045254
40
0.85568916651581
40
0.85568916651581
40
0.884460546127643
40
0.884460546127643
40
0.91360691814161
40
0.91360691814161
40
0.932763100125268
40
0.932763100125268
40
0.95203909678233
40
0.95203909678233
40
0.974618894615272
40
0.974618894615272
40
1
40
1
40
1
40
1
41
1
10
-0.199999999999989
20
5.70317605472911
30
0
41
1
10
-0.199999999999989
20
5.58107998739831
30
0
41
1
10
-0.203895983734896
20
5.45705658909691
30
0
41
1
10
-0.223509916035709
20
5.28128624620587
30
0
41
1
10
-0.23086916609185
20
5.23019697507434
30
0
41
1
10
-0.252992963272021
20
5.12819212434212
30
0
41
1
10
-0.266168518183207
20
5.0748758166919
30
0
41
1
10
-0.299311339940942
20
5.02202983998879
30
0
41
1
10
-0.304166370278011
20
5.01525404855027
30
0
41
1
10
-0.315232060467935
20
5.00279573504582
30
0
41
1
10
-0.321587352348558
20
4.99699852204864
30
0
41
1
10
-0.333432884234497
20
4.98975078853741
30
0
41
1
10
-0.33858625385443
20
4.98746585289803
30
0
41
1
10
-0.3491574393544
20
4.98479989040243
30
0
41
1
10
-0.354703931885922
20
4.98441392730476
30
0
41
1
10
-0.366193082216228
20
4.98556317954746
30
0
41
1
10
-0.372213152675158
20
4.98741181161262
30
0
41
1
10
-0.383950186909431
20
4.99285513665984
30
0
41
1
10
-0.3896944310344
20
4.99667072159761
30
0
41
1
10
-0.394976888882155
20
5.00092508225598
30
0
0
SPLINE
5
1DB
100
AcDbEntity
8
SK1
62
256
6
ByLayer
370
18
48
1
60
0
100
AcDbSpline
70
4
71
3
72
24
73
20
40
0
40
0
40
0
40
0
40
0.408002420194574
40
0.408002420194574
40
0.586477084363329
40
0.586477084363329
40
0.763728221544513
40
0.763728221544513
40
0.83464833042642
40
0.83464833042642
40
0.871680147904128
40
0.871680147904128
40
0.909315863704638
40
0.909315863704638
40
0.941446160303591
40
0.941446160303591
40
0.988233002766673
40
0.988233002766673
40
1
40
1
40
1
40
1
41
1
10
-1.30710678118655
20
-3.62781725664615
30
0
41
1
10
-1.25754709276271
20
-3.87919081380429
30
0
41
1
10
-1.19771793926941
20
-4.12580048883993
30
0
41
1
10
-1.07980138365164
20
-4.46640123366592
30
0
41
1
10
-1.03947389583291
20
-4.56855181342542
30
0
41
1
10
-0.943165684412492
20
-4.76452984977917
30
0
41
1
10
-0.887972849225292
20
-4.86076144162979
30
0
41
1
10
-0.781589632759733
20
-4.97623115222154
30
0
41
1
10
-0.746942513659576
20
-5.00751721259149
30
0
41
1
10
-0.685298347589736
20
-5.04425501792002
30
0
41
1
10
-0.662073057062742
20
-5.05499571071985
30
0
41
1
10
-0.612858105189787
20
-5.06918922724967
30
0
41
1
10
-0.586087478285805
20
-5.07253385323432
30
0
41
1
10
-0.537899014579097
20
-5.06994558199364
30
0
41
1
10
-0.515734678473706
20
-5.06532466911642
30
0
41
1
10
-0.46525565361901
20
-5.04798484569733
30
0
41
1
10
-0.437776087568892
20
-5.03248974169182
30
0
41
1
10
-0.406986543980821
20
-5.01034621255963
30
0
41
1
10
-0.400907252385935
20
-5.00570060770795
30
0
41
1
10
-0.394976888875306
20
-5.00092441402839
30
0
0
SPLINE
5
1DC
100
AcDbEntity
8
SK1
62
256
6
ByLayer
370
18
48
1
60
0
100
AcDbSpline
70
4
71
3
72
22
73
18
40
0
40
0
40
0
40
0
40
0.0408146055975421
40
0.0408146055975421
40
0.0823243808208714
40
0.0823243808208714
40
0.113722137960843
40
0.113722137960843
40
0.144934004837801
40
0.144934004837801
40
0.197663645148653
40
0.197663645148653
40
0.33040493622216
40
0.33040493622216
40
0.796191409884692
40
0.796191409884692
40
1
40
1
40
1
40
1
41
1
10
-0.394976888875277
20
5.00092508226666
30
0
41
1
10
-0.415530107853925
20
5.01747813555139
30
0
41
1
10
-0.438024560131566
20
5.03261131985604
30
0
41
1
10
-0.487324802537927
20
5.05682200266617
30
0
41
1
10
-0.514951385379703
20
5.065973715838
30
0
41
1
10
-0.565001076851473
20
5.07238571210249
30
0
41
1
10
-0.587551462055302
20
5.07198375916977
30
0
41
1
10
-0.630654498772827
20
5.06497384681828
30
0
41
1
10
-0.651690830573216
20
5.05839846240309
30
0
41
1
10
-0.704063404944179
20
5.03546962035063
30
0
41
1
10
-0.733646054998758
20
5.01537181535585
30
0
41
1
10
-0.825717517678271
20
4.93804001611764
30
0
41
1
10
-0.875568215521128
20
4.86927174197922
30
0
41
1
10
-1.06893868726922
20
4.55513362670803
30
0
41
1
10
-1.15213866111816
20
4.27852588598478
30
0
41
1
10
-1.25478905452405
20
3.87761185644086
30
0
41
1
10
-1.28234760083203
20
3.75339907142145
30
0
41
1
10
-1.30710678118763
20
3.62781610099955
30
0
0
SPLINE
5
1DD
100
AcDbEntity
8
SK1
62
256
6
ByLayer
370
18
48
1
60
0
100
AcDbSpline
70
4
71
3
72
98
73
94
40
0
40
0
40
0
40
0
40
0.0012808740763045
40
0.0105737783742241
40
0.0198666826721437
40
0.0291595869700633
40
0.0384524912679829
40
0.0477453955659025
40
0.0663312041617417
40
0.0849170127575809
40
0.10350282135342
40
0.11279572565134
40
0.122088629949259
40
0.131381534247179
40
0.140674438545099
40
0.159260247140938
40
0.168553151438857
40
0.177846055736777
40
0.187138960034696
40
0.196431864332616
40
0.205724768630536
40
0.215017672928455
40
0.233603481524295
40
0.242896385822214
40
0.252189290120134
40
0.261482194418053
40
0.270775098715973
40
0.280068003013893
40
0.289360907311812
40
0.298653811609732
40
0.307946715907651
40
0.326532524503491
40
0.33582542880141
40
0.34511833309933
40
0.363704141695169
40
0.382289950291008
40
0.391582854588928
40
0.400875758886847
40
0.410168663184767
40
0.419461567482687
40
0.428754471780606
40
0.438047376078526
40
0.442693828227486
40
0.447340280376445
40
0.456633184674365
40
0.465926088972284
40
0.475218993270204
40
0.493804801866043
40
0.503097706163963
40
0.512390610461883
40
0.521683514759802
40
0.530976419057722
40
0.540269323355641
40
0.549562227653561
40
0.558855131951481
40
0.5681480362494
40
0.57744094054732
40
0.586733844845239
40
0.605319653441079
40
0.614612557738998
40
0.623905462036918
40
0.628551914185878
40
0.633198366334837
40
0.642491270632757
40
0.661077079228596
40
0.670369983526516
40
0.679662887824435
40
0.698248696420275
40
0.716834505016114
40
0.726127409314034
40
0.735420313611953
40
0.754006122207792
40
0.763299026505712
40
0.772591930803632
40
0.781884835101551
40
0.791177739399471
40
0.80047064369739
40
0.80976354799531
40
0.828349356591149
40
0.846935165186988
40
0.856228069484908
40
0.865520973782828
40
0.874813878080747
40
0.884106782378667
40
0.902692590974506
40
0.921278399570345
40
0.939864208166184
40
0.958450016762024
40
0.967742921059943
40
0.977035825357863
40
0.986328729655782
40
0.995621633953702
40
1
40
1
40
1
40
1
41
1
10
-0.394976888875306
20
-13.8446015176322
30
0
41
1
10
-0.394976888875306
20
-13.8443369604552
30
0
41
1
10
-0.394976888875306
20
-13.842101166137
30
0
41
1
10
-0.394976888875306
20
-13.8370982474882
30
0
41
1
10
-0.394976888875306
20
-13.8281310063336
30
0
41
1
10
-0.394976888875306
20
-13.8172492272358
30
0
41
1
10
-0.394976888875306
20
-13.8044829705053
30
0
41
1
10
-0.394976888875306
20
-13.7849758313288
30
0
41
1
10
-0.394976888875306
20
-13.7560496751861
30
0
41
1
10
-0.394976888875306
20
-13.7142204148031
30
0
41
1
10
-0.394976888875306
20
-13.6736219510479
30
0
41
1
10
-0.394976888875306
20
-13.6377421071264
30
0
41
1
10
-0.394976888875306
20
-13.6091837483775
30
0
41
1
10
-0.394976888875306
20
-13.5789821852606
30
0
41
1
10
-0.394976888875306
20
-13.5365270016785
30
0
41
1
10
-0.394976888875306
20
-13.4909311840823
30
0
41
1
10
-0.394976888875306
20
-13.4421262012037
30
0
41
1
10
-0.394976888875306
20
-13.4039879614121
30
0
41
1
10
-0.394976888875306
20
-13.3643136176474
30
0
41
1
10
-0.394976888875306
20
-13.3231185671574
30
0
41
1
10
-0.394976888875306
20
-13.2804176635455
30
0
41
1
10
-0.394976888875306
20
-13.2214670183476
30
0
41
1
10
-0.394976888875306
20
-13.1596507604527
30
0
41
1
10
-0.394976888875306
20
-13.094846134259
30
0
41
1
10
-0.394976888875306
20
-13.0448282447276
30
0
41
1
10
-0.394976888875306
20
-12.9933861020735
30
0
41
1
10
-0.394976888875306
20
-12.9405320737836
30
0
41
1
10
-0.394976888875306
20
-12.8862769376535
30
0
41
1
10
-0.394976888875306
20
-12.8306328717281
30
0
41
1
10
-0.394976888875306
20
-12.7736108931729
30
0
41
1
10
-0.394976888875306
20
-12.6957215859151
30
0
41
1
10
-0.394976888875306
20
-12.6152283382819
30
0
41
1
10
-0.394976888875306
20
-12.5319491453114
30
0
41
1
10
-0.394976888875306
20
-12.4468991604423
30
0
41
1
10
-0.394976888875306
20
-12.3373769122162
30
0
41
1
10
-0.394976888875306
20
-12.2235215734124
30
0
41
1
10
-0.394976888875306
20
-12.1297946053789
30
0
41
1
10
-0.394976888875306
20
-12.0582544060742
30
0
41
1
10
-0.394976888875306
20
-11.9854459580753
30
0
41
1
10
-0.394976888875306
20
-11.9113764581405
30
0
41
1
10
-0.394976888875306
20
-11.8360539668501
30
0
41
1
10
-0.394976888875306
20
-11.7722691621604
30
0
41
1
10
-0.394976888875306
20
-11.7205808778945
30
0
41
1
10
-0.394976888875306
20
-11.6684804259269
30
0
41
1
10
-0.394976888875306
20
-11.6026363586083
30
0
41
1
10
-0.394976888875306
20
-11.5223699646631
30
0
41
1
10
-0.394976888875306
20
-11.4136741241806
30
0
41
1
10
-0.394976888875306
20
-11.3026972493618
30
0
41
1
10
-0.394976888875306
20
-11.1891707558493
30
0
41
1
10
-0.394976888875306
20
-11.102867622286
30
0
41
1
10
-0.394976888875306
20
-11.0153746780185
30
0
41
1
10
-0.394976888875306
20
-10.9266969759659
30
0
41
1
10
-0.394976888875306
20
-10.8368404439692
30
0
41
1
10
-0.394976888875306
20
-10.74580988339
30
0
41
1
10
-0.394976888875306
20
-10.6536100721469
30
0
41
1
10
-0.394976888875306
20
-10.5602461340712
30
0
41
1
10
-0.394976888875306
20
-10.4657231550753
30
0
41
1
10
-0.394976888875306
20
-10.3380960413352
30
0
41
1
10
-0.394976888875306
20
-10.2083399780688
30
0
41
1
10
-0.394976888875306
20
-10.0761265525343
30
0
41
1
10
-0.394976888875306
20
-9.99261143893298
30
0
41
1
10
-0.394976888875306
20
-9.92517900727512
30
0
41
1
10
-0.394976888875306
20
-9.85736934874495
30
0
41
1
10
-0.394976888875306
20
-9.73773600630287
30
0
41
1
10
-0.394976888875306
20
-9.59892076352932
30
0
41
1
10
-0.394976888875306
20
-9.45767861814849
30
0
41
1
10
-0.394976888875306
20
-9.3149499665038
30
0
41
1
10
-0.394976888875306
20
-9.13390678694702
30
0
41
1
10
-0.394976888875306
20
-8.94918033853523
30
0
41
1
10
-0.394976888875306
20
-8.79907643306458
30
0
41
1
10
-0.394976888875306
20
-8.64751154095558
30
0
41
1
10
-0.394976888875306
20
-8.49397418950429
30
0
41
1
10
-0.394976888875306
20
-8.33804225713789
30
0
41
1
10
-0.394976888875306
20
-8.22006379392718
30
0
41
1
10
-0.394976888875306
20
-8.10100252302422
30
0
41
1
10
-0.394976888875306
20
-7.98086143927398
30
0
41
1
10
-0.394976888875306
20
-7.85964213989763
30
0
41
1
10
-0.394976888875306
20
-7.69650359349293
30
0
41
1
10
-0.394976888875306
20
-7.49008089634199
30
0
41
1
10
-0.394976888875306
20
-7.28009509164627
30
0
41
1
10
-0.394976888875306
20
-7.10982244878713
30
0
41
1
10
-0.394976888875306
20
-6.98112244545175
30
0
41
1
10
-0.394976888875306
20
-6.85136200824962
30
0
41
1
10
-0.394976888875306
20
-6.67684685573994
30
0
41
1
10
-0.394976888875306
20
-6.45627503636445
30
0
41
1
10
-0.394976888875306
20
-6.18726433662556
30
0
41
1
10
-0.394976888875306
20
-5.91406385279547
30
0
41
1
10
-0.394976888875306
20
-5.68302324019061
30
0
41
1
10
-0.394976888875306
20
-5.49591838220567
30
0
41
1
10
-0.394976888875306
20
-5.35463940810163
30
0
41
1
10
-0.394976888875306
20
-5.21232773385495
30
0
41
1
10
-0.394976888875306
20
-5.09425517295406
30
0
41
1
10
-0.394976888875306
20
-5.02359271293304
30
0
41
1
10
-0.394976888875306
20
-5.0009244140283
30
0
0
SPLINE
5
1DE
100
AcDbEntity
8
SK1
62
256
6
ByLayer
370
18
48
1
60
0
100
AcDbSpline
70
4
71
3
72
100
73
96
40
0
40
0
40
0
40
0
40
0.0043783247532282
40
0.0136712309453665
40
0.0229641371375048
40
0.0322570433296431
40
0.0415499495217814
40
0.0601357619060581
40
0.0787215742903348
40
0.0973073866746114
40
0.115893199058888
40
0.125186105251026
40
0.134479011443165
40
0.143771917635303
40
0.153064823827441
40
0.171650636211718
40
0.190236448595995
40
0.199529354788133
40
0.208822260980271
40
0.21811516717241
40
0.227408073364548
40
0.236700979556686
40
0.245993885748825
40
0.264579698133101
40
0.27387260432524
40
0.283165510517378
40
0.301751322901655
40
0.320337135285931
40
0.32963004147807
40
0.338922947670208
40
0.357508760054485
40
0.366801666246623
40
0.371448119342692
40
0.376094572438761
40
0.385387478630899
40
0.394680384823038
40
0.413266197207314
40
0.422559103399453
40
0.431852009591591
40
0.441144915783729
40
0.450437821975868
40
0.459730728168006
40
0.469023634360144
40
0.478316540552283
40
0.487609446744421
40
0.496902352936559
40
0.506195259128698
40
0.524781071512974
40
0.534073977705113
40
0.543366883897251
40
0.552659790089389
40
0.557306243185458
40
0.561952696281528
40
0.571245602473666
40
0.580538508665804
40
0.589831414857943
40
0.599124321050081
40
0.608417227242219
40
0.617710133434358
40
0.636295945818634
40
0.654881758202911
40
0.664174664395049
40
0.673467570587188
40
0.692053382971464
40
0.701346289163602
40
0.710639195355741
40
0.719932101547879
40
0.729225007740017
40
0.738517913932156
40
0.747810820124294
40
0.757103726316433
40
0.766396632508571
40
0.784982444892847
40
0.794275351084986
40
0.803568257277124
40
0.812861163469262
40
0.822154069661401
40
0.831446975853539
40
0.840739882045677
40
0.859325694429954
40
0.868618600622092
40
0.877911506814231
40
0.887204413006369
40
0.896497319198507
40
0.915083131582784
40
0.924376037774922
40
0.933668943967061
40
0.942961850159199
40
0.952254756351337
40
0.961547662543476
40
0.970840568735614
40
0.980133474927752
40
0.98942638111989
40
0.998719287312029
40
1
40
1
40
1
40
1
41
1
10
-0.394976888875277
20
5.00092508225416
30
0
41
1
10
-0.394976888875277
20
5.02359314607176
30
0
41
1
10
-0.394976888875277
20
5.09425535366776
30
0
41
1
10
-0.394976888875277
20
5.21232773830431
30
0
41
1
10
-0.394976888875277
20
5.35463943777347
30
0
41
1
10
-0.394976888875277
20
5.49591839522026
30
0
41
1
10
-0.394976888875277
20
5.68302324398948
30
0
41
1
10
-0.394976888875277
20
5.91406388300979
30
0
41
1
10
-0.394976888875277
20
6.18726435105106
30
0
41
1
10
-0.394976888875277
20
6.45627504712579
30
0
41
1
10
-0.394976888875277
20
6.6768468885183
30
0
41
1
10
-0.394976888875277
20
6.85136201549099
30
0
41
1
10
-0.394976888875277
20
6.98112245032084
30
0
41
1
10
-0.394976888875277
20
7.10982246715957
30
0
41
1
10
-0.394976888875277
20
7.28009512097313
30
0
41
1
10
-0.394976888875277
20
7.49008091096033
30
0
41
1
10
-0.394976888875277
20
7.69650359935568
30
0
41
1
10
-0.394976888875277
20
7.85964216476054
30
0
41
1
10
-0.394976888875277
20
7.98086146605701
30
0
41
1
10
-0.394976888875277
20
8.10100253994159
30
0
41
1
10
-0.394976888875277
20
8.22006380191277
30
0
41
1
10
-0.394976888875277
20
8.3380422654499
30
0
41
1
10
-0.394976888875277
20
8.49397420958985
30
0
41
1
10
-0.394976888875277
20
8.64751156797169
30
0
41
1
10
-0.394976888875277
20
8.79907644696402
30
0
41
1
10
-0.394976888875277
20
8.94918034619519
30
0
41
1
10
-0.394976888875277
20
9.13390680482667
30
0
41
1
10
-0.394976888875277
20
9.31494999082747
30
0
41
1
10
-0.394976888875277
20
9.45767863215664
30
0
41
1
10
-0.394976888875277
20
9.59892077296985
30
0
41
1
10
-0.394976888875277
20
9.73773602301958
30
0
41
1
10
-0.394976888875277
20
9.85736937045593
30
0
41
1
10
-0.394976888875277
20
9.92517902838179
30
0
41
1
10
-0.394976888875277
20
9.99261145812801
30
0
41
1
10
-0.394976888875277
20
10.0761265678462
30
0
41
1
10
-0.394976888875277
20
10.2083399899529
30
0
41
1
10
-0.394976888875277
20
10.338096057249
30
0
41
1
10
-0.394976888875277
20
10.4657231753345
30
0
41
1
10
-0.394976888875277
20
10.5602461538978
30
0
41
1
10
-0.394976888875277
20
10.6536100894112
30
0
41
1
10
-0.394976888875277
20
10.7458098983122
30
0
41
1
10
-0.394976888875277
20
10.8368404586376
30
0
41
1
10
-0.394976888875277
20
10.9266969919675
30
0
41
1
10
-0.394976888875277
20
11.0153746961414
30
0
41
1
10
-0.394976888875277
20
11.1028676417001
30
0
41
1
10
-0.394976888875277
20
11.1891707748317
30
0
41
1
10
-0.394976888875277
20
11.3026972665534
30
0
41
1
10
-0.394976888875277
20
11.413674138825
30
0
41
1
10
-0.394976888875277
20
11.5223699808134
30
0
41
1
10
-0.394976888875277
20
11.6026363770329
30
0
41
1
10
-0.394976888875277
20
11.6684804460587
30
0
41
1
10
-0.394976888875277
20
11.7205808983271
30
0
41
1
10
-0.394976888875277
20
11.7722691819395
30
0
41
1
10
-0.394976888875277
20
11.836053984022
30
0
41
1
10
-0.394976888875277
20
11.9113764724791
30
0
41
1
10
-0.394976888875277
20
11.9854459723214
30
0
41
1
10
-0.394976888875277
20
12.0582544232072
30
0
41
1
10
-0.394976888875277
20
12.1297946270485
30
0
41
1
10
-0.394976888875277
20
12.2235215963167
30
0
41
1
10
-0.394976888875277
20
12.3373769247913
30
0
41
1
10
-0.394976888875277
20
12.446899173783
30
0
41
1
10
-0.394976888875277
20
12.5319491682166
30
0
41
1
10
-0.394976888875277
20
12.6152283642396
30
0
41
1
10
-0.394976888875277
20
12.6957215996061
30
0
41
1
10
-0.394976888875277
20
12.773610902979
30
0
41
1
10
-0.394976888875277
20
12.8306328883531
30
0
41
1
10
-0.394976888875277
20
12.8862769625636
30
0
41
1
10
-0.394976888875277
20
12.940532100831
30
0
41
1
10
-0.394976888875277
20
12.9933861205259
30
0
41
1
10
-0.394976888875277
20
13.0448282543027
30
0
41
1
10
-0.394976888875277
20
13.0948461430692
30
0
41
1
10
-0.394976888875277
20
13.1596507828291
30
0
41
1
10
-0.394976888875277
20
13.221467049789
30
0
41
1
10
-0.394976888875277
20
13.2804176772461
30
0
41
1
10
-0.394976888875277
20
13.3231185723383
30
0
41
1
10
-0.394976888875277
20
13.3643136307331
30
0
41
1
10
-0.394976888875277
20
13.4039879870964
30
0
41
1
10
-0.394976888875277
20
13.4421262291561
30
0
41
1
10
-0.394976888875277
20
13.490931201485
30
0
41
1
10
-0.394976888875277
20
13.5365270011545
30
0
41
1
10
-0.394976888875277
20
13.5789822078612
30
0
41
1
10
-0.394976888875277
20
13.6091837809887
30
0
41
1
10
-0.394976888875277
20
13.6377421279937
30
0
41
1
10
-0.394976888875277
20
13.6736219491958
30
0
41
1
10
-0.394976888875277
20
13.706079968468
30
0
41
1
10
-0.394976888875277
20
13.7351343539634
30
0
41
1
10
-0.394976888875277
20
13.7551609910392
30
0
41
1
10
-0.394976888875277
20
13.7734119916164
30
0
41
1
10
-0.394976888875277
20
13.7898613788954
30
0
41
1
10
-0.394976888875277
20
13.8044829828858
30
0
41
1
10
-0.394976888875277
20
13.8172491473121
30
0
41
1
10
-0.394976888875277
20
13.8281307581185
30
0
41
1
10
-0.394976888875277
20
13.8370980881852
30
0
41
1
10
-0.394976888875277
20
13.8421014019358
30
0
41
1
10
-0.394976888875277
20
13.8443373794894
30
0
41
1
10
-0.394976888875277
20
13.8446019297682
30
0
0
SPLINE
5
1DF
100
AcDbEntity
8
SK1
62
256
6
ByLayer
370
18
48
1
60
0
100
AcDbSpline
70
4
71
3
72
22
73
18
40
0
40
0
40
0
40
0
40
0.0262442859026881
40
0.0262442859026881
40
0.0530261157854851
40
0.0530261157854851
40
0.0713559655737795
40
0.0713559655737795
40
0.0895874012639089
40
0.0895874012639089
40
0.119482247898519
40
0.119482247898519
40
0.178618886842945
40
0.178618886842945
40
0.388022338076953
40
0.388022338076953
40
1
40
1
40
1
40
1
41
1
10
-0.394976888875306
20
-5.0009244140283
30
0
41
1
10
-0.389542958903149
20
-4.99654803778401
30
0
41
1
10
-0.383617633691586
20
-4.99263335383438
30
0
41
1
10
-0.370682657201087
20
-4.98677476419829
30
0
41
1
10
-0.363425194676552
20
-4.98483424058901
30
0
41
1
10
-0.350979181144169
20
-4.98462903203949
30
0
41
1
10
-0.345738268039327
20
-4.98542011278013
30
0
41
1
10
-0.335836240990062
20
-4.98861553627458
30
0
41
1
10
-0.331061456711979
20
-4.99102841332402
30
0
41
1
10
-0.319537139874143
20
-4.9986715699325
30
0
41
1
10
-0.313226756018622
20
-5.00478758784652
30
0
41
1
10
-0.29682625826149
20
-5.02421063341325
30
0
41
1
10
-0.288455270980251
20
-5.03906576138257
30
0
41
1
10
-0.256353055935392
20
-5.10678482490906
30
0
41
1
10
-0.244000373144985
20
-5.16381228581221
30
0
41
1
10
-0.204596889637315
20
-5.38213882730372
30
0
41
1
10
-0.200000000000046
20
-5.54465158381666
30
0
41
1
10
-0.200000000000046
20
-5.70317614351262
30
0
0
SPLINE
5
1E0
100
AcDbEntity
8
SK1
62
256
6
ByLayer
370
18
48
1
60
0
100
AcDbSpline
70
4
71
3
72
8
73
4
40
0
40
0
40
0
40
0
40
1
40
1
40
1
40
1
41
1
10
-1.30710678118655
20
-3.62781725664615
30
0
41
1
10
-1.37345758266253
20
-3.29127686428785
30
0
41
1
10
-1.4372955614198
20
-2.946602671997
30
0
41
1
10
-1.49503997793931
20
-2.59465115838313
30
0
0
SPLINE
5
1E1
100
AcDbEntity
8
SK1
62
256
6
ByLayer
370
18
48
1
60
0
100
AcDbSpline
70
4
71
3
72
32
73
28
40
0
40
0
40
0
40
0
40
0.335339404831972
40
0.335339404831972
40
0.429287156787091
40
0.429287156787091
40
0.47567705376244
40
0.47567705376244
40
0.494539743197707
40
0.494539743197707
40
0.513645880085613
40
0.513645880085613
40
0.520504273461007
40
0.520504273461007
40
0.527488218290634
40
0.527488218290634
40
0.533551201014328
40
0.533551201014328
40
0.540998152878254
40
0.540998152878254
40
0.554393631774451
40
0.554393631774451
40
0.598967269657032
40
0.598967269657032
40
0.809317334416222
40
0.809317334416222
40
1
40
1
40
1
40
1
41
1
10
-1.49503997793931
20
-2.59465115838304
30
0
41
1
10
-1.51545804662706
20
-2.47020327904033
30
0
41
1
10
-1.5371392192427
20
-2.34554891087819
30
0
41
1
10
-1.57392592094843
20
-2.19043955590803
30
0
41
1
10
-1.58255890853934
20
-2.15670217135892
30
0
41
1
10
-1.59805956936563
20
-2.1081468839686
30
0
41
1
10
-1.60359902440038
20
-2.09231222948606
30
0
41
1
10
-1.61296122457534
20
-2.07152520286885
30
0
41
1
10
-1.6158696741316
20
-2.0656737244498
30
0
41
1
10
-1.62242426172162
20
-2.05481886173052
30
0
41
1
10
-1.62611615645159
20
-2.04963161073078
30
0
41
1
10
-1.63217263701876
20
-2.04479089552191
30
0
41
1
10
-1.63391092603902
20
-2.04372430879368
30
0
41
1
10
-1.63759701012464
20
-2.04243943769597
30
0
41
1
10
-1.63960513001732
20
-2.04224314885471
30
0
41
1
10
-1.6432714201469
20
-2.04303363449085
30
0
41
1
10
-1.64498274878696
20
-2.04388024545895
30
0
41
1
10
-1.64846923771176
20
-2.04652261877811
30
0
41
1
10
-1.65023197368771
20
-2.04850621085967
30
0
41
1
10
-1.65459297944471
20
-2.05462030362457
30
0
41
1
10
-1.65687449353447
20
-2.05928542847226
30
0
41
1
10
-1.66535432668744
20
-2.07982184742582
30
0
41
1
10
-1.66919635898847
20
-2.09736547364699
30
0
41
1
10
-1.68800967157858
20
-2.19569498442294
30
0
41
1
10
-1.6917465712958
20
-2.27904221250566
30
0
41
1
10
-1.69840552504974
20
-2.43548746422863
30
0
41
1
10
-1.69970172620592
20
-2.50976932903754
30
0
41
1
10
-1.69999999999999
20
-2.58372509632824
30
0
0
SPLINE
5
1E2
100
AcDbEntity
8
SK1
62
256
6
ByLayer
370
18
48
1
60
0
100
AcDbSpline
70
4
71
3
72
10
73
6
40
0
40
0
40
0
40
0
40
0.5
40
0.5
40
1
40
1
40
1
40
1
41
1
10
-1.70000000000002
20
-2.58372509632821
30
0
41
1
10
-1.83222262461143
20
-1.751855044526
30
0
41
1
10
-1.92871617486691
20
-0.884329181036094
30
0
41
1
10
-1.92842303871006
20
0.888588835776119
30
0
41
1
10
-1.83224326233341
20
1.75172436897285
30
0
41
1
10
-1.69999999999999
20
2.58372503195247
30
0
0
SPLINE
5
1E3
100
AcDbEntity
8
SK1
62
256
6
ByLayer
370
18
48
1
60
0
100
AcDbSpline
70
4
71
3
72
30
73
26
40
0
40
0
40
0
40
0
40
0.337353368376273
40
0.337353368376273
40
0.421572476570396
40
0.421572476570396
40
0.437870507614647
40
0.437870507614647
40
0.454360744150349
40
0.454360744150349
40
0.46102437321649
40
0.46102437321649
40
0.467802724987302
40
0.467802724987302
40
0.473791453396888
40
0.473791453396888
40
0.481264268969724
40
0.481264268969724
40
0.494804301393218
40
0.494804301393218
40
0.541069262252274
40
0.541069262252274
40
0.762218024196531
40
0.762218024196531
40
1
40
1
40
1
40
1
41
1
10
-1.69999999999999
20
2.5837250319525
30
0
41
1
10
-1.69946915813009
20
2.45210484593008
30
0
41
1
10
-1.69760670671556
20
2.31884997747196
30
0
41
1
10
-1.67915375522099
20
2.15294187932722
30
0
41
1
10
-1.67485152519237
20
2.11932442567118
30
0
41
1
10
-1.66472347048304
20
2.08095979549279
30
0
41
1
10
-1.66287560510222
20
2.07475454077749
30
0
41
1
10
-1.65846712486041
20
2.06274931231135
30
0
41
1
10
-1.65588139752759
20
2.05680133794195
30
0
41
1
10
-1.65120237663186
20
2.04976806653173
30
0
41
1
10
-1.64969999009787
20
2.04787870491481
30
0
41
1
10
-1.64639510213217
20
2.0447894938039
30
0
41
1
10
-1.64453557847699
20
2.04357912964019
30
0
41
1
10
-1.64096575658939
20
2.04240828386776
30
0
41
1
10
-1.63922229186966
20
2.04230771235822
30
0
41
1
10
-1.63551182442282
20
2.04297037181766
30
0
41
1
10
-1.63353448434609
20
2.04393506875687
30
0
41
1
10
-1.62845259442082
20
2.04750201060256
30
0
41
1
10
-1.62558657915471
20
2.0508033417303
30
0
41
1
10
-1.61425491864986
20
2.06649024761731
30
0
41
1
10
-1.60795428020353
20
2.08189579117942
30
0
41
1
10
-1.57473680217674
20
2.17064161742221
30
0
41
1
10
-1.55852136531561
20
2.25243693059593
30
0
41
1
10
-1.5247433730911
20
2.41950302647342
30
0
41
1
10
-1.50941945205861
20
2.5070083929059
30
0
41
1
10
-1.49503997793928
20
2.59465115086951
30
0
0
SPLINE
5
1E4
100
AcDbEntity
8
SK1
62
256
6
ByLayer
370
18
48
1
60
0
100
AcDbSpline
70
4
71
3
72
8
73
4
40
0
40
0
40
0
40
0
40
1
40
1
40
1
40
1
41
1
10
-1.49503997793928
20
2.59465115086957
30
0
41
1
10
-1.43729564430089
20
2.94660231507382
30
0
41
1
10
-1.37345704405578
20
3.29127575598179
30
0
41
1
10
-1.30710678118655
20
3.6278161010051
30
0
0
SPLINE
5
1E5
100
AcDbEntity
8
SK1
62
256
6
ByLayer
370
18
48
1
60
0
100
AcDbSpline
70
4
71
3
72
22
73
18
40
0
40
0
40
0
40
0
40
0.0262443259631879
40
0.0262443259631879
40
0.0530261953238149
40
0.0530261953238149
40
0.0713561417138391
40
0.0713561417138391
40
0.089587671732252
40
0.089587671732252
40
0.119482760569379
40
0.119482760569379
40
0.178619847888867
40
0.178619847888867
40
0.388025243769701
40
0.388025243769701
40
1
40
1
40
1
40
1
41
1
10
-0.394976888875277
20
13.8446019297682
30
0
41
1
10
-0.389542940031532
20
13.8449158599001
30
0
41
1
10
-0.383617593481006
20
13.8454439659091
30
0
41
1
10
-0.370682577094897
20
13.8471856765741
30
0
41
1
10
-0.36342509579049
20
13.8484584409772
30
0
41
1
10
-0.350979043087165
20
13.8513238322133
30
0
41
1
10
-0.345738104843377
20
13.8527220431424
30
0
41
1
10
-0.335836036111374
20
13.8557300394867
30
0
41
1
10
-0.331061234651401
20
13.8573680363077
30
0
41
1
10
-0.319536857691588
20
13.8617043765564
30
0
41
1
10
-0.313226439154846
20
13.8644842406524
30
0
41
1
10
-0.296825865103955
20
13.8724174982475
30
0
41
1
10
-0.288454852011256
20
13.8774557840676
30
0
41
1
10
-0.256352537857225
20
13.8987262995108
30
0
41
1
10
-0.243999907013631
20
13.9124642192994
30
0
41
1
10
-0.204596917519382
20
13.9605471889767
30
0
41
1
10
-0.200000000000046
20
13.9849787272997
30
0
41
1
10
-0.200000000000046
20
14.0034375364996
30
0
0
INSERT
5
1F7
100
AcDbEntity
8
2
62
256
6
ByLayer
370
25
48
1
60
0
100
AcDbBlockReference
2
DimnDraft3D11
10
0
20
0
30
0
41
1
42
1
43
1
50
0
210
0
220
0
230
1
0
LINE
5
72
100
AcDbEntity
8
80
62
256
6
ByLayer
370
18
48
1
60
0
100
AcDbLine
10
0
20
0
30
0
11
-5
21
0
31
0
39
0
210
0
220
0
230
1
0
LINE
5
73
100
AcDbEntity
8
1
62
256
6
ByLayer
370
18
48
1
60
0
100
AcDbLine
10
11.316217
20
20
30
0
11
0.3
21
20
31
0
39
0
210
0
220
0
230
1
0
LINE
5
75
100
AcDbEntity
8
1
62
256
6
ByLayer
370
18
48
1
60
0
100
AcDbLine
10
0.3
20
20
30
0
11
0
21
19.7
31
0
39
0
210
0
220
0
230
1
0
LINE
5
76
100
AcDbEntity
8
1
62
256
6
ByLayer
370
18
48
1
60
0
100
AcDbLine
10
0
20
-19.7
30
0
11
0.3
21
-20
31
0
39
0
210
0
220
0
230
1
0
LINE
5
77
100
AcDbEntity
8
1
62
256
6
ByLayer
370
18
48
1
60
0
100
AcDbLine
10
17.311558
20
8.058307
30
0
11
16.885124
21
7.983115
31
0
39
0
210
0
220
0
230
1
0
LINE
5
78
100
AcDbEntity
8
1
62
256
6
ByLayer
370
18
48
1
60
0
100
AcDbLine
10
18.591639
20
4.080609
30
0
11
18.783896
21
4.17026
31
0
39
0
210
0
220
0
230
1
0
LINE
5
79
100
AcDbEntity
8
1
62
256
6
ByLayer
370
18
48
1
60
0
100
AcDbLine
10
19.809956
20
6.989337
30
0
11
19.720306
21
7.181594
31
0
39
0
210
0
220
0
230
1
0
LINE
5
7A
100
AcDbEntity
8
1
62
256
6
ByLayer
370
18
48
1
60
0
100
AcDbLine
10
27.086675
20
-18.474481
30
0
11
26.865252
21
-18.253057
31
0
39
0
210
0
220
0
230
1
0
LINE
5
7B
100
AcDbEntity
8
1
62
256
6
ByLayer
370
18
48
1
60
0
100
AcDbLine
10
29.140797
20
-17.501742
30
0
11
29.36222
21
-17.723165
31
0
39
0
210
0
220
0
230
1
0
LINE
5
7C
100
AcDbEntity
8
1
62
256
6
ByLayer
370
18
48
1
60
0
100
AcDbLine
10
28.379255
20
-19.376322
30
0
11
28.157832
21
-19.154899
31
0
39
0
210
0
220
0
230
1
0
LINE
5
7D
100
AcDbEntity
8
1
62
256
6
ByLayer
370
18
48
1
60
0
100
AcDbLine
10
25.071266
20
-20.602496
30
0
11
25.310719
21
-20.841949
31
0
39
0
210
0
220
0
230
1
0
LINE
5
7E
100
AcDbEntity
8
1
62
256
6
ByLayer
370
18
48
1
60
0
100
AcDbLine
10
30.967573
20
-15.185095
30
0
11
30.728121
21
-14.945642
31
0
39
0
210
0
220
0
230
1
0
LINE
5
7F
100
AcDbEntity
8
1
62
256
6
ByLayer
370
18
48
1
60
0
100
AcDbLine
10
19.848322
20
-23.323788
30
0
11
21.343737
21
-24.060788
31
0
39
0
210
0
220
0
230
1
0
LINE
5
80
100
AcDbEntity
8
1
62
256
6
ByLayer
370
18
48
1
60
0
100
AcDbLine
10
0.3
20
-20
30
0
11
16.358173
21
-20
31
0
39
0
210
0
220
0
230
1
0
LINE
5
81
100
AcDbEntity
8
1
62
256
6
ByLayer
370
18
48
1
60
0
100
AcDbLine
10
27.885094
20
-16.636778
30
0
11
28.06964
21
-16.821323
31
0
39
0
210
0
220
0
230
1
0
LINE
5
82
100
AcDbEntity
8
1
62
256
6
ByLayer
370
18
48
1
60
0
100
AcDbLine
10
23.687624
20
-20.495376
30
0
11
23.166697
21
-20.238642
31
0
39
0
210
0
220
0
230
1
0
LINE
5
83
100
AcDbEntity
8
1
62
256
6
ByLayer
370
18
48
1
60
0
100
AcDbLine
10
19.720306
20
7.181594
30
0
11
17.311558
21
8.058307
31
0
39
0
210
0
220
0
230
1
0
LINE
5
84
100
AcDbEntity
8
1
62
256
6
ByLayer
370
18
48
1
60
0
100
AcDbLine
10
16.421132
20
4.870609
30
0
11
18.591639
21
4.080609
31
0
39
0
210
0
220
0
230
1
0
LINE
5
85
100
AcDbEntity
8
4
62
256
6
ByLayer
370
18
48
0.05
60
0
100
AcDbLine
10
0
20
0
30
0
11
42
21
0
31
0
39
0
210
0
220
0
230
1
0
LINE
5
87
100
AcDbEntity
8
81
62
256
6
ByLayer
370
18
48
1
60
0
100
AcDbLine
10
42
20
-27
30
0
11
52
21
-27
31
0
39
0
210
0
220
0
230
1
0
LINE
5
88
100
AcDbEntity
8
SK4
62
256
6
ByLayer
370
18
48
0.05
60
0
100
AcDbLine
10
-29
20
0
30
0
11
42
21
0
31
0
39
0
210
0
220
0
230
1
0
LINE
5
8A
100
AcDbEntity
8
1
62
256
6
ByLayer
370
18
48
1
60
0
100
AcDbLine
10
39.635295
20
-22.35351
30
0
11
41.974413
21
-21.715899
31
0
39
0
210
0
220
0
230
1
0
LINE
5
8B
100
AcDbEntity
8
1
62
256
6
ByLayer
370
18
48
1
60
0
100
AcDbLine
10
44.03106
20
-20.972627
30
0
11
43.528511
21
-21.268291
31
0
39
0
210
0
220
0
230
1
0
LINE
5
8C
100
AcDbEntity
8
1
62
256
6
ByLayer
370
18
48
1
60
0
100
AcDbLine
10
16.567907
20
14.74831
30
0
11
11.316217
21
20
31
0
39
0
210
0
220
0
230
1
0
LINE
5
8D
100
AcDbEntity
8
1
62
256
6
ByLayer
370
18
48
1
60
0
100
AcDbLine
10
0.3
20
0
30
0
11
0.3
21
-20
31
0
39
0
210
0
220
0
230
1
0
LINE
5
8E
100
AcDbEntity
8
1
62
256
6
ByLayer
370
18
48
1
60
0
100
AcDbLine
10
0.3
20
20
30
0
11
0.3
21
0
31
0
39
0
210
0
220
0
230
1
0
LINE
5
8F
100
AcDbEntity
8
1
62
256
6
ByLayer
370
18
48
1
60
0
100
AcDbLine
10
0
20
0
30
0
11
0
21
-19.7
31
0
39
0
210
0
220
0
230
1
0
LINE
5
90
100
AcDbEntity
8
1
62
256
6
ByLayer
370
18
48
1
60
0
100
AcDbLine
10
0
20
19.7
30
0
11
0
21
0
31
0
39
0
210
0
220
0
230
1
0
LINE
5
91
100
AcDbEntity
8
SK1
62
256
6
ByLayer
370
18
48
1
60
0
100
AcDbLine
10
-0.2
20
14.083485
30
0
11
-0.2
21
5.703176
31
0
39
0
210
0
220
0
230
1
0
LINE
5
93
100
AcDbEntity
8
SK1
62
256
6
ByLayer
370
18
48
1
60
0
100
AcDbLine
10
-0.2
20
-5.703176
30
0
11
-0.2
21
-14.083485
31
0
39
0
210
0
220
0
230
1
0
LINE
5
94
100
AcDbEntity
8
1
62
256
6
ByLayer
370
18
48
1
60
0
100
AcDbLine
10
16.809278
20
10.440259
30
0
11
16.815887
21
10.458416
31
0
39
0
210
0
220
0
230
1
0
LINE
5
95
100
AcDbEntity
8
1
62
256
6
ByLayer
370
18
48
1
60
0
100
AcDbLine
10
17.357044
20
11.945234
30
0
11
17.357044
21
8.041768
31
0
39
0
210
0
220
0
230
1
0
LINE
5
96
100
AcDbEntity
8
1
62
256
6
ByLayer
370
18
48
1
60
0
100
AcDbLine
10
13.185275
20
-19.286184
30
0
11
13.157236
21
-19.589839
31
0
39
0
210
0
220
0
230
1
0
LINE
5
97
100
AcDbEntity
8
1
62
256
6
ByLayer
370
18
48
1
60
0
100
AcDbLine
10
24.067508
20
-9.801281
30
0
11
24.237004
21
-7.965699
31
0
39
0
210
0
220
0
230
1
0
LINE
5
98
100
AcDbEntity
8
1
62
256
6
ByLayer
370
18
48
1
60
0
100
AcDbLine
10
41.159537
20
-9.84332
30
0
11
38.058854
21
-12.944004
31
0
39
0
210
0
220
0
230
1
0
LINE
5
99
100
AcDbEntity
8
1
62
256
6
ByLayer
370
18
48
1
60
0
100
AcDbLine
10
39.027393
20
-24.908397
30
0
11
37.351881
21
-23.247587
31
0
39
0
210
0
220
0
230
1
0
LINE
5
9A
100
AcDbEntity
8
1
62
256
6
ByLayer
370
18
48
1
60
0
100
AcDbLine
10
39.027393
20
-24.908397
30
0
11
33.146521
21
-24.393888
31
0
39
0
210
0
220
0
230
1
0
LINE
5
9B
100
AcDbEntity
8
1
62
256
6
ByLayer
370
18
48
1
60
0
100
AcDbLine
10
19.436823
20
-9.86076
30
0
11
19.353733
21
-10.760595
31
0
39
0
210
0
220
0
230
1
0
LINE
5
9C
100
AcDbEntity
8
1
62
256
6
ByLayer
370
18
48
1
60
0
100
AcDbLine
10
38.071839
20
-12.95006
30
0
11
38.830476
21
-12.191423
31
0
39
0
210
0
220
0
230
1
0
LINE
5
9D
100
AcDbEntity
8
1
62
256
6
ByLayer
370
18
48
1
60
0
100
AcDbLine
10
39.27578
20
-24.930129
30
0
11
39.027393
21
-24.908397
31
0
39
0
210
0
220
0
230
1
0
LINE
5
9E
100
AcDbEntity
8
1
62
256
6
ByLayer
370
18
48
1
60
0
100
AcDbLine
10
43.555056
20
-15.730793
30
0
11
43.314504
21
-16.011564
31
0
39
0
210
0
220
0
230
1
0
LINE
5
9F
100
AcDbEntity
8
1
62
256
6
ByLayer
370
18
48
1
60
0
100
AcDbLine
10
42.535302
20
-15.641806
30
0
11
39.967472
21
-14.370991
31
0
39
0
210
0
220
0
230
1
0
LINE
5
A0
100
AcDbEntity
8
1
62
256
6
ByLayer
370
18
48
1
60
0
100
AcDbLine
10
42.983464
20
-21.920945
30
0
11
42.809155
21
-21.484328
31
0
39
0
210
0
220
0
230
1
0
LINE
5
A1
100
AcDbEntity
8
1
62
256
6
ByLayer
370
18
48
1
60
0
100
AcDbLine
10
41.974427
20
-21.715896
30
0
11
39.212573
21
-22.546296
31
0
39
0
210
0
220
0
230
1
0
LINE
5
A2
100
AcDbEntity
8
1
62
256
6
ByLayer
370
18
48
1
60
0
100
AcDbLine
10
16.809279
20
10.440263
30
0
11
16.743651
21
10.46415
31
0
39
0
210
0
220
0
230
1
0
LINE
5
A3
100
AcDbEntity
8
1
62
256
6
ByLayer
370
18
48
1
60
0
100
AcDbLine
10
16.605452
20
9.880252
30
0
11
16.809279
21
10.440263
31
0
39
0
210
0
220
0
230
1
0
LINE
5
A4
100
AcDbEntity
8
1
62
256
6
ByLayer
370
18
48
1
60
0
100
AcDbLine
10
16.594223
20
8.193975
30
0
11
16.393729
21
7.643123
31
0
39
0
210
0
220
0
230
1
0
LINE
5
A5
100
AcDbEntity
8
1
62
256
6
ByLayer
370
18
48
1
60
0
100
AcDbLine
10
16.39484
20
6.636071
30
0
11
16.393733
21
6.63303
31
0
39
0
210
0
220
0
230
1
0
LINE
5
A6
100
AcDbEntity
8
1
62
256
6
ByLayer
370
18
48
1
60
0
100
AcDbLine
10
16.885124
20
7.983115
30
0
11
16.39484
21
6.636071
31
0
39
0
210
0
220
0
230
1
0
LINE
5
A7
100
AcDbEntity
8
1
62
256
6
ByLayer
370
18
48
1
60
0
100
AcDbLine
10
16.403622
20
5.563773
30
0
11
17.311558
21
8.058307
31
0
39
0
210
0
220
0
230
1
0
LINE
5
A8
100
AcDbEntity
8
1
62
256
6
ByLayer
370
18
48
1
60
0
100
AcDbLine
10
18.591639
20
4.080609
30
0
11
19.155972
21
5.631102
31
0
39
0
210
0
220
0
230
1
0
LINE
5
A9
100
AcDbEntity
8
1
62
256
6
ByLayer
370
18
48
1
60
0
100
AcDbLine
10
19.155972
20
5.631102
30
0
11
19.720306
21
7.181594
31
0
39
0
210
0
220
0
230
1
0
LINE
5
AA
100
AcDbEntity
8
1
62
256
6
ByLayer
370
18
48
1
60
0
100
AcDbLine
10
18.783896
20
4.17026
30
0
11
19.809956
21
6.989337
31
0
39
0
210
0
220
0
230
1
0
LINE
5
AB
100
AcDbEntity
8
1
62
256
6
ByLayer
370
18
48
1
60
0
100
AcDbLine
10
27.913993
20
-16.654199
30
0
11
28.017498
21
-16.757704
31
0
39
0
210
0
220
0
230
1
0
LINE
5
AC
100
AcDbEntity
8
1
62
256
6
ByLayer
370
18
48
1
60
0
100
AcDbLine
10
30.728121
20
-14.945642
30
0
11
30.728005
21
-14.945527
31
0
39
0
210
0
220
0
230
1
0
LINE
5
AD
100
AcDbEntity
8
1
62
256
6
ByLayer
370
18
48
1
60
0
100
AcDbLine
10
41.154664
20
-9.971029
30
0
11
41.198956
21
-10.015322
31
0
39
0
210
0
220
0
230
1
0
LINE
5
AE
100
AcDbEntity
8
1
62
256
6
ByLayer
370
18
48
1
60
0
100
AcDbLine
10
41.198956
20
-10.015322
30
0
11
38.203322
21
-13.010956
31
0
39
0
210
0
220
0
230
1
0
LINE
5
AF
100
AcDbEntity
8
1
62
256
6
ByLayer
370
18
48
1
60
0
100
AcDbLine
10
37.541538
20
-23.195883
30
0
11
41.117023
21
-26.771369
31
0
39
0
210
0
220
0
230
1
0
LINE
5
B0
100
AcDbEntity
8
1
62
256
6
ByLayer
370
18
48
1
60
0
100
AcDbLine
10
26.355813
20
-21.838323
30
0
11
27.317733
21
-21.916278
31
0
39
0
210
0
220
0
230
1
0
LINE
5
B1
100
AcDbEntity
8
1
62
256
6
ByLayer
370
18
48
1
60
0
100
AcDbLine
10
28.245374
20
-21.991455
30
0
11
28.383375
21
-22.002639
31
0
39
0
210
0
220
0
230
1
0
LINE
5
B2
100
AcDbEntity
8
1
62
256
6
ByLayer
370
18
48
1
60
0
100
AcDbLine
10
42.535288
20
-15.6418
30
0
11
40.348458
21
-14.630191
31
0
39
0
210
0
220
0
230
1
0
LINE
5
B3
100
AcDbEntity
8
1
62
256
6
ByLayer
370
18
48
1
60
0
100
AcDbLine
10
44.40454
20
-16.92796
30
0
11
43.981183
21
-16.365995
31
0
39
0
210
0
220
0
230
1
0
LINE
5
B4
100
AcDbEntity
8
1
62
256
6
ByLayer
370
18
48
1
60
0
100
AcDbLine
10
22.512139
20
-9.512829
30
0
11
23.617324
21
-10.057508
31
0
39
0
210
0
220
0
230
1
0
LINE
5
B5
100
AcDbEntity
8
1
62
256
6
ByLayer
370
18
48
1
60
0
100
AcDbLine
10
28.847924
20
-22.231587
30
0
11
28.383375
21
-22.002639
31
0
39
0
210
0
220
0
230
1
0
LINE
5
B6
100
AcDbEntity
8
1
62
256
6
ByLayer
370
18
48
1
60
0
100
AcDbLine
10
26.812488
20
-22.063391
30
0
11
26.355813
21
-21.838323
31
0
39
0
210
0
220
0
230
1
0
LINE
5
B7
100
AcDbEntity
8
1
62
256
6
ByLayer
370
18
48
1
60
0
100
AcDbLine
10
39.879347
20
-14.459849
30
0
11
39.853925
21
-14.453671
31
0
39
0
210
0
220
0
230
1
0
LINE
5
B8
100
AcDbEntity
8
1
62
256
6
ByLayer
370
18
48
1
60
0
100
AcDbLine
10
19.264435
20
-19.239508
30
0
11
19.722331
21
-14.280651
31
0
39
0
210
0
220
0
230
1
0
LINE
5
B9
100
AcDbEntity
8
1
62
256
6
ByLayer
370
18
48
1
60
0
100
AcDbLine
10
39.853925
20
-14.453671
30
0
11
38.847448
21
-13.988084
31
0
39
0
210
0
220
0
230
1
0
LINE
5
BA
100
AcDbEntity
8
1
62
256
6
ByLayer
370
18
48
1
60
0
100
AcDbLine
10
19.914565
20
-14.158426
30
0
11
19.722331
21
-14.280651
31
0
39
0
210
0
220
0
230
1
0
LINE
5
BB
100
AcDbEntity
8
1
62
256
6
ByLayer
370
18
48
1
60
0
100
AcDbLine
10
18.907872
20
-12.075823
30
0
11
20.538523
21
-12.879473
31
0
39
0
210
0
220
0
230
1
0
LINE
5
BC
100
AcDbEntity
8
1
62
256
6
ByLayer
370
18
48
1
60
0
100
AcDbLine
10
21.150243
20
-14.671904
30
0
11
20.674032
21
-19.829115
31
0
39
0
210
0
220
0
230
1
0
LINE
5
BD
100
AcDbEntity
8
1
62
256
6
ByLayer
370
18
48
1
60
0
100
AcDbLine
10
32.92744
20
-10.570332
30
0
11
24.42463
21
-9.867708
31
0
39
0
210
0
220
0
230
1
0
LINE
5
BE
100
AcDbEntity
8
1
62
256
6
ByLayer
370
18
48
1
60
0
100
AcDbLine
10
21.808635
20
-23.696595
30
0
11
29.520697
21
-24.333875
31
0
39
0
210
0
220
0
230
1
0
LINE
5
BF
100
AcDbEntity
8
1
62
256
6
ByLayer
370
18
48
1
60
0
100
AcDbLine
10
18.783868
20
-19.002665
30
0
11
19.264435
21
-19.239508
31
0
39
0
210
0
220
0
230
1
0
LINE
5
C0
100
AcDbEntity
8
1
62
256
6
ByLayer
370
18
48
1
60
0
100
AcDbLine
10
19.241763
20
-14.043808
30
0
11
19.722331
21
-14.280651
31
0
39
0
210
0
220
0
230
1
0
LINE
5
C1
100
AcDbEntity
8
1
62
256
6
ByLayer
370
18
48
1
60
0
100
AcDbLine
10
31.612365
20
-24.812168
30
0
11
37.726499
21
-23.145542
31
0
39
0
210
0
220
0
230
1
0
LINE
5
C2
100
AcDbEntity
8
1
62
256
6
ByLayer
370
18
48
1
60
0
100
AcDbLine
10
18.907872
20
-12.075823
30
0
11
18.142271
21
-20.367031
31
0
39
0
210
0
220
0
230
1
0
LINE
5
C3
100
AcDbEntity
8
1
62
256
6
ByLayer
370
18
48
1
60
0
100
AcDbLine
10
19.429196
20
-19.414814
30
0
11
19.914565
21
-14.158426
31
0
39
0
210
0
220
0
230
1
0
LINE
5
C4
100
AcDbEntity
8
1
62
256
6
ByLayer
370
18
48
1
60
0
100
AcDbLine
10
29.760244
20
-24.905332
30
0
11
31.612365
21
-24.812168
31
0
39
0
210
0
220
0
230
1
0
LINE
5
C5
100
AcDbEntity
8
1
62
256
6
ByLayer
370
18
48
1
60
0
100
AcDbLine
10
22.302249
20
-24.299345
30
0
11
29.255839
21
-24.87395
31
0
39
0
210
0
220
0
230
1
0
LINE
5
C6
100
AcDbEntity
8
1
62
256
6
ByLayer
370
18
48
1
60
0
100
AcDbLine
10
18.883096
20
-19.145675
30
0
11
19.429196
21
-19.414814
31
0
39
0
210
0
220
0
230
1
0
LINE
5
C7
100
AcDbEntity
8
1
62
256
6
ByLayer
370
18
48
1
60
0
100
AcDbLine
10
19.368466
20
-13.889286
30
0
11
19.241763
21
-14.043808
31
0
39
0
210
0
220
0
230
1
0
LINE
5
C8
100
AcDbEntity
8
1
62
256
6
ByLayer
370
18
48
1
60
0
100
AcDbLine
10
19.429196
20
-19.414814
30
0
11
19.264435
21
-19.239508
31
0
39
0
210
0
220
0
230
1
0
LINE
5
C9
100
AcDbEntity
8
1
62
256
6
ByLayer
370
18
48
1
60
0
100
AcDbLine
10
18.142271
20
-20.367031
30
0
11
19.772922
21
-21.170681
31
0
39
0
210
0
220
0
230
1
0
LINE
5
CA
100
AcDbEntity
8
1
62
256
6
ByLayer
370
18
48
1
60
0
100
AcDbLine
10
19.772922
20
-21.170681
30
0
11
20.538523
21
-12.879473
31
0
39
0
210
0
220
0
230
1
0
LINE
5
CB
100
AcDbEntity
8
1
62
256
6
ByLayer
370
18
48
1
60
0
100
AcDbLine
10
38.036851
20
-22.766579
30
0
11
39.113418
21
-22.473122
31
0
39
0
210
0
220
0
230
1
0
LINE
5
CC
100
AcDbEntity
8
1
62
256
6
ByLayer
370
18
48
1
60
0
100
AcDbLine
10
38.643518
20
-13.214539
30
0
11
32.92744
21
-10.570332
31
0
39
0
210
0
220
0
230
1
0
LINE
5
CD
100
AcDbEntity
8
1
62
256
6
ByLayer
370
18
48
1
60
0
100
AcDbLine
10
30.570915
20
-10.632113
30
0
11
23.617324
21
-10.057508
31
0
39
0
210
0
220
0
230
1
0
LINE
5
CE
100
AcDbEntity
8
1
62
256
6
ByLayer
370
18
48
1
60
0
100
AcDbLine
10
18.783868
20
-19.002665
30
0
11
19.241763
21
-14.043808
31
0
39
0
210
0
220
0
230
1
0
LINE
5
CF
100
AcDbEntity
8
1
62
256
6
ByLayer
370
18
48
1
60
0
100
AcDbLine
10
39.113418
20
-22.473122
30
0
11
39.139852
21
-22.468336
31
0
39
0
210
0
220
0
230
1
0
LINE
5
D0
100
AcDbEntity
8
1
62
256
6
ByLayer
370
18
48
1
60
0
100
AcDbLine
10
18.883096
20
-19.145675
30
0
11
18.783868
21
-19.002665
31
0
39
0
210
0
220
0
230
1
0
LINE
5
D1
100
AcDbEntity
8
1
62
256
6
ByLayer
370
18
48
1
60
0
100
AcDbLine
10
22.583757
20
-9.525136
30
0
11
24.42463
21
-9.867708
31
0
39
0
210
0
220
0
230
1
0
LINE
5
D2
100
AcDbEntity
8
1
62
256
6
ByLayer
370
18
48
1
60
0
100
AcDbLine
10
22.987623
20
-10.928536
30
0
11
30.699686
21
-11.565816
31
0
39
0
210
0
220
0
230
1
0
LINE
5
D3
100
AcDbEntity
8
1
62
256
6
ByLayer
370
18
48
1
60
0
100
AcDbLine
10
19.368466
20
-13.889286
30
0
11
19.914565
21
-14.158426
31
0
39
0
210
0
220
0
230
1
0
LINE
5
D4
100
AcDbEntity
8
1
62
256
6
ByLayer
370
18
48
1
60
0
100
AcDbLine
10
29.608031
20
-13.999885
30
0
11
27.572595
21
-13.831688
31
0
39
0
210
0
220
0
230
1
0
LINE
5
D5
100
AcDbEntity
8
1
62
256
6
ByLayer
370
18
48
1
60
0
100
AcDbLine
10
22.499373
20
-20.141127
30
0
11
22.100914
21
-19.944751
31
0
39
0
210
0
220
0
230
1
0
LINE
5
D6
100
AcDbEntity
8
1
62
256
6
ByLayer
370
18
48
1
60
0
100
AcDbLine
10
22.100914
20
-19.944751
30
0
11
20.674032
21
-19.829115
31
0
39
0
210
0
220
0
230
1
0
LINE
5
D7
100
AcDbEntity
8
1
62
256
6
ByLayer
370
18
48
1
60
0
100
AcDbLine
10
26.812488
20
-22.063391
30
0
11
28.847924
21
-22.231587
31
0
39
0
210
0
220
0
230
1
0
LINE
5
D8
100
AcDbEntity
8
1
62
256
6
ByLayer
370
18
48
1
60
0
100
AcDbLine
10
31.075319
20
-10.663495
30
0
11
32.92744
21
-10.570332
31
0
39
0
210
0
220
0
230
1
0
LINE
5
D9
100
AcDbEntity
8
1
62
256
6
ByLayer
370
18
48
1
60
0
100
AcDbLine
10
26.667515
20
-18.142335
30
0
11
26.888938
21
-18.363758
31
0
39
0
210
0
220
0
230
1
0
LINE
5
DA
100
AcDbEntity
8
1
62
256
6
ByLayer
370
18
48
1
60
0
100
AcDbLine
10
27.55341
20
-19.164264
30
0
11
27.774833
21
-19.385687
31
0
39
0
210
0
220
0
230
1
0
LINE
5
DB
100
AcDbEntity
8
1
62
256
6
ByLayer
370
18
48
1
60
0
100
AcDbLine
10
29.26975
20
-18.357369
30
0
11
29.491173
21
-18.578792
31
0
39
0
210
0
220
0
230
1
0
LINE
5
DC
100
AcDbEntity
8
1
62
256
6
ByLayer
370
18
48
1
60
0
100
AcDbLine
10
28.888919
20
-18.899329
30
0
11
29.110342
21
-19.120752
31
0
39
0
210
0
220
0
230
1
0
LINE
5
DD
100
AcDbEntity
8
1
62
256
6
ByLayer
370
18
48
1
60
0
100
AcDbLine
10
29.062801
20
-17.01625
30
0
11
29.284224
21
-17.237673
31
0
39
0
210
0
220
0
230
1
0
LINE
5
DE
100
AcDbEntity
8
1
62
256
6
ByLayer
370
18
48
1
60
0
100
AcDbLine
10
44.727414
20
-15.851994
30
0
11
45.465272
21
-17.137278
31
0
39
0
210
0
220
0
230
1
0
LINE
5
DF
100
AcDbEntity
8
1
62
256
6
ByLayer
370
18
48
1
60
0
100
AcDbLine
10
42.237686
20
-14.404521
30
0
11
40.909102
21
-14.294735
31
0
39
0
210
0
220
0
230
1
0
LINE
5
E0
100
AcDbEntity
8
1
62
256
6
ByLayer
370
18
48
1
60
0
100
AcDbLine
10
42.237686
20
-14.404521
30
0
11
42.186659
21
-13.182934
31
0
39
0
210
0
220
0
230
1
0
LINE
5
E1
100
AcDbEntity
8
1
62
256
6
ByLayer
370
18
48
1
60
0
100
AcDbLine
10
43.850791
20
-22.124487
30
0
11
41.442967
21
-23.011059
31
0
39
0
210
0
220
0
230
1
0
LINE
5
E2
100
AcDbEntity
8
1
62
256
6
ByLayer
370
18
48
1
60
0
100
AcDbLine
10
39.68876
20
-22.725342
30
0
11
38.956729
21
-23.143958
31
0
39
0
210
0
220
0
230
1
0
LINE
5
E3
100
AcDbEntity
8
1
62
256
6
ByLayer
370
18
48
1
60
0
100
AcDbLine
10
40.114384
20
-22.901273
30
0
11
39.979845
21
-22.824037
31
0
39
0
210
0
220
0
230
1
0
LINE
5
E4
100
AcDbEntity
8
1
62
256
6
ByLayer
370
18
48
1
60
0
100
AcDbLine
10
41.225078
20
-23.596533
30
0
11
39.496221
21
-23.45367
31
0
39
0
210
0
220
0
230
1
0
LINE
5
E5
100
AcDbEntity
8
1
62
256
6
ByLayer
370
18
48
1
60
0
100
AcDbLine
10
40.114384
20
-22.901273
30
0
11
39.496221
21
-23.45367
31
0
39
0
210
0
220
0
230
1
0
LINE
5
E6
100
AcDbEntity
8
1
62
256
6
ByLayer
370
18
48
1
60
0
100
AcDbLine
10
41.442967
20
-23.011059
30
0
11
41.225078
21
-23.596533
31
0
39
0
210
0
220
0
230
1
0
LINE
5
E7
100
AcDbEntity
8
1
62
256
6
ByLayer
370
18
48
1
60
0
100
AcDbLine
10
43.822104
20
-22.640296
30
0
11
41.225078
21
-23.596533
31
0
39
0
210
0
220
0
230
1
0
LINE
5
E8
100
AcDbEntity
8
1
62
256
6
ByLayer
370
18
48
1
60
0
100
AcDbLine
10
44.446552
20
-15.67259
30
0
11
42.237686
21
-14.404521
31
0
39
0
210
0
220
0
230
1
0
LINE
5
E9
100
AcDbEntity
8
1
62
256
6
ByLayer
370
18
48
1
60
0
100
AcDbLine
10
38.956729
20
-23.143958
30
0
11
39.496221
21
-23.45367
31
0
39
0
210
0
220
0
230
1
0
LINE
5
EA
100
AcDbEntity
8
1
62
256
6
ByLayer
370
18
48
1
60
0
100
AcDbLine
10
40.457802
20
-13.040071
30
0
11
40.909102
21
-14.294735
31
0
39
0
210
0
220
0
230
1
0
LINE
5
EB
100
AcDbEntity
8
1
62
256
6
ByLayer
370
18
48
1
60
0
100
AcDbLine
10
39.979845
20
-22.824037
30
0
11
39.68876
21
-22.725342
31
0
39
0
210
0
220
0
230
1
0
LINE
5
EC
100
AcDbEntity
8
1
62
256
6
ByLayer
370
18
48
1
60
0
100
AcDbLine
10
45.122529
20
-20.849069
30
0
11
45.72743
21
-21.30144
31
0
39
0
210
0
220
0
230
1
0
LINE
5
ED
100
AcDbEntity
8
1
62
256
6
ByLayer
370
18
48
1
60
0
100
AcDbLine
10
40.461922
20
-14.352252
30
0
11
40.762445
21
-14.348735
31
0
39
0
210
0
220
0
230
1
0
LINE
5
EE
100
AcDbEntity
8
1
62
256
6
ByLayer
370
18
48
1
60
0
100
AcDbLine
10
40.909102
20
-14.294735
30
0
11
40.762445
21
-14.348735
31
0
39
0
210
0
220
0
230
1
0
LINE
5
EF
100
AcDbEntity
8
1
62
256
6
ByLayer
370
18
48
1
60
0
100
AcDbLine
10
40.461922
20
-14.352252
30
0
11
39.869716
21
-13.256607
31
0
39
0
210
0
220
0
230
1
0
LINE
5
F0
100
AcDbEntity
8
1
62
256
6
ByLayer
370
18
48
1
60
0
100
AcDbLine
10
44.569094
20
-14.550645
30
0
11
42.186659
21
-13.182934
31
0
39
0
210
0
220
0
230
1
0
LINE
5
F1
100
AcDbEntity
8
1
62
256
6
ByLayer
370
18
48
1
60
0
100
AcDbLine
10
43.850791
20
-22.124487
30
0
11
43.822104
21
-22.640296
31
0
39
0
210
0
220
0
230
1
0
LINE
5
F2
100
AcDbEntity
8
1
62
256
6
ByLayer
370
18
48
1
60
0
100
AcDbLine
10
44.446552
20
-15.67259
30
0
11
44.569094
21
-14.550645
31
0
39
0
210
0
220
0
230
1
0
LINE
5
F3
100
AcDbEntity
8
1
62
256
6
ByLayer
370
18
48
1
60
0
100
AcDbLine
10
41.442967
20
-23.011059
30
0
11
40.114384
21
-22.901273
31
0
39
0
210
0
220
0
230
1
0
LINE
5
F4
100
AcDbEntity
8
1
62
256
6
ByLayer
370
18
48
1
60
0
100
AcDbLine
10
44.160281
20
-21.993866
30
0
11
45.122529
21
-20.849069
31
0
39
0
210
0
220
0
230
1
0
LINE
5
F5
100
AcDbEntity
8
1
62
256
6
ByLayer
370
18
48
1
60
0
100
AcDbLine
10
39.869716
20
-13.256607
30
0
11
40.457802
21
-13.040071
31
0
39
0
210
0
220
0
230
1
0
LINE
5
F6
100
AcDbEntity
8
1
62
256
6
ByLayer
370
18
48
1
60
0
100
AcDbLine
10
45.465272
20
-17.137278
30
0
11
46.200178
21
-16.18173
31
0
39
0
210
0
220
0
230
1
0
LINE
5
F7
100
AcDbEntity
8
1
62
256
6
ByLayer
370
18
48
1
60
0
100
AcDbLine
10
40.762445
20
-14.348735
30
0
11
43.555056
21
-15.730793
31
0
39
0
210
0
220
0
230
1
0
LINE
5
F8
100
AcDbEntity
8
1
62
256
6
ByLayer
370
18
48
1
60
0
100
AcDbLine
10
39.979845
20
-22.824037
30
0
11
42.983464
21
-21.920945
31
0
39
0
210
0
220
0
230
1
0
LINE
5
F9
100
AcDbEntity
8
1
62
256
6
ByLayer
370
18
48
1
60
0
100
AcDbLine
10
42.186659
20
-13.182934
30
0
11
40.457802
21
-13.040071
31
0
39
0
210
0
220
0
230
1
0
LINE
5
FA
100
AcDbEntity
8
1
62
256
6
ByLayer
370
18
48
1
60
0
100
AcDbLine
10
6.663397
20
-6.16973
30
0
11
6.663397
21
-19.024574
31
0
39
0
210
0
220
0
230
1
0
LINE
5
FB
100
AcDbEntity
8
1
62
256
6
ByLayer
370
18
48
1
60
0
100
AcDbLine
10
21.065143
20
-4.434036
30
0
11
21.065143
21
10.251074
31
0
39
0
210
0
220
0
230
1
0
LINE
5
FC
100
AcDbEntity
8
1
62
256
6
ByLayer
370
18
48
1
60
0
100
AcDbLine
10
17.080365
20
-5.73454
30
0
11
17.080365
21
3.187521
31
0
39
0
210
0
220
0
230
1
0
LINE
5
FD
100
AcDbEntity
8
1
62
256
6
ByLayer
370
18
48
1
60
0
100
AcDbLine
10
17.090371
20
-19.979807
30
0
11
17.972909
21
-10.422205
31
0
39
0
210
0
220
0
230
1
0
LINE
5
FE
100
AcDbEntity
8
1
62
256
6
ByLayer
370
18
48
1
60
0
100
AcDbLine
10
41.220963
20
-9.904746
30
0
11
41.159537
21
-9.84332
31
0
39
0
210
0
220
0
230
1
0
LINE
5
FF
100
AcDbEntity
8
1
62
256
6
ByLayer
370
18
48
1
60
0
100
AcDbLine
10
30.79492
20
0.521298
30
0
11
41.159537
21
-9.84332
31
0
39
0
210
0
220
0
230
1
0
LINE
5
100
100
AcDbEntity
8
1
62
256
6
ByLayer
370
18
48
1
60
0
100
AcDbLine
10
6.663397
20
19.024574
30
0
11
6.663397
21
6.16973
31
0
39
0
210
0
220
0
230
1
0
LINE
5
101
100
AcDbEntity
8
1
62
256
6
ByLayer
370
18
48
1
60
0
100
AcDbLine
10
9.076795
20
19.122283
30
0
11
9.076795
21
5.85989
31
0
39
0
210
0
220
0
230
1
0
LINE
5
102
100
AcDbEntity
8
1
62
256
6
ByLayer
370
18
48
1
60
0
100
AcDbLine
10
30.79492
20
0.521298
30
0
11
21.065143
21
10.251074
31
0
39
0
210
0
220
0
230
1
0
LINE
5
103
100
AcDbEntity
8
1
62
256
6
ByLayer
370
18
48
1
60
0
100
AcDbLine
10
6.923205
20
-5.85989
30
0
11
6.923205
21
-19.122283
31
0
39
0
210
0
220
0
230
1
0
LINE
5
104
100
AcDbEntity
8
1
62
256
6
ByLayer
370
18
48
1
60
0
100
AcDbLine
10
36.873948
20
-14.251761
30
0
11
35.197426
21
-15.928283
31
0
39
0
210
0
220
0
230
1
0
LINE
5
105
100
AcDbEntity
8
1
62
256
6
ByLayer
370
18
48
1
60
0
100
AcDbLine
10
21.065143
20
10.251074
30
0
11
17.080365
21
14.235853
31
0
39
0
210
0
220
0
230
1
0
LINE
5
106
100
AcDbEntity
8
1
62
256
6
ByLayer
370
18
48
1
60
0
100
AcDbLine
10
17.080365
20
11.185063
30
0
11
17.080365
21
14.235853
31
0
39
0
210
0
220
0
230
1
0
LINE
5
107
100
AcDbEntity
8
1
62
256
6
ByLayer
370
18
48
1
60
0
100
AcDbLine
10
9.076795
20
-5.85989
30
0
11
9.076795
21
-19.122283
31
0
39
0
210
0
220
0
230
1
0
LINE
5
108
100
AcDbEntity
8
1
62
256
6
ByLayer
370
18
48
1
60
0
100
AcDbLine
10
23.921486
20
-6.352137
30
0
11
30.79492
21
0.521298
31
0
39
0
210
0
220
0
230
1
0
LINE
5
109
100
AcDbEntity
8
1
62
256
6
ByLayer
370
18
48
1
60
0
100
AcDbLine
10
6.923205
20
19.122283
30
0
11
6.923205
21
5.85989
31
0
39
0
210
0
220
0
230
1
0
LINE
5
10A
100
AcDbEntity
8
1
62
256
6
ByLayer
370
18
48
1
60
0
100
AcDbLine
10
17.080365
20
11.185063
30
0
11
16.815887
21
10.458416
31
0
39
0
210
0
220
0
230
1
0
LINE
5
10B
100
AcDbEntity
8
1
62
256
6
ByLayer
370
18
48
1
60
0
100
AcDbLine
10
9.076795
20
5.85989
30
0
11
6.923205
21
5.85989
31
0
39
0
210
0
220
0
230
1
0
LINE
5
10C
100
AcDbEntity
8
1
62
256
6
ByLayer
370
18
48
1
60
0
100
AcDbLine
10
9.336603
20
19.024574
30
0
11
9.336603
21
6.16973
31
0
39
0
210
0
220
0
230
1
0
LINE
5
10D
100
AcDbEntity
8
1
62
256
6
ByLayer
370
18
48
1
60
0
100
AcDbLine
10
24.237004
20
-7.965699
30
0
11
23.532808
21
-7.849148
31
0
39
0
210
0
220
0
230
1
0
LINE
5
10E
100
AcDbEntity
8
1
62
256
6
ByLayer
370
18
48
1
60
0
100
AcDbLine
10
17.008329
20
-18.115701
30
0
11
16.99584
21
-7.966611
31
0
39
0
210
0
220
0
230
1
0
LINE
5
10F
100
AcDbEntity
8
1
62
256
6
ByLayer
370
18
48
1
60
0
100
AcDbLine
10
17.357044
20
11.945234
30
0
11
17.080365
21
11.185063
31
0
39
0
210
0
220
0
230
1
0
LINE
5
110
100
AcDbEntity
8
1
62
256
6
ByLayer
370
18
48
1
60
0
100
AcDbLine
10
16.605465
20
9.880287
30
0
11
16.393699
21
9.298465
31
0
39
0
210
0
220
0
230
1
0
LINE
5
111
100
AcDbEntity
8
1
62
256
6
ByLayer
370
18
48
1
60
0
100
AcDbLine
10
17.080365
20
14.235853
30
0
11
16.567907
21
14.74831
31
0
39
0
210
0
220
0
230
1
0
LINE
5
112
100
AcDbEntity
8
1
62
256
6
ByLayer
370
18
48
1
60
0
100
AcDbLine
10
6.923205
20
-5.85989
30
0
11
9.076795
21
-5.85989
31
0
39
0
210
0
220
0
230
1
0
LINE
5
113
100
AcDbEntity
8
1
62
256
6
ByLayer
370
18
48
1
60
0
100
AcDbLine
10
41.220963
20
-9.904746
30
0
11
39.476601
21
-11.649108
31
0
39
0
210
0
220
0
230
1
0
LINE
5
114
100
AcDbEntity
8
1
62
256
6
ByLayer
370
18
48
1
60
0
100
AcDbLine
10
6.923205
20
19.122283
30
0
11
9.076795
21
19.122283
31
0
39
0
210
0
220
0
230
1
0
LINE
5
115
100
AcDbEntity
8
1
62
256
6
ByLayer
370
18
48
1
60
0
100
AcDbLine
10
9.336603
20
-6.16973
30
0
11
9.336603
21
-19.024574
31
0
39
0
210
0
220
0
230
1
0
LINE
5
116
100
AcDbEntity
8
1
62
256
6
ByLayer
370
18
48
1
60
0
100
AcDbLine
10
9.076795
20
-19.122283
30
0
11
6.923205
21
-19.122283
31
0
39
0
210
0
220
0
230
1
0
LINE
5
117
100
AcDbEntity
8
1
62
256
6
ByLayer
370
18
48
1
60
0
100
AcDbLine
10
16.393699
20
6.636487
30
0
11
16.393699
21
9.298465
31
0
39
0
210
0
220
0
230
1
0
LINE
5
118
100
AcDbEntity
8
1
62
256
6
ByLayer
370
18
48
1
60
0
100
AcDbLine
10
42.234093
20
-26.765907
30
0
11
50.091817
21
-18.908183
31
0
39
0
210
0
220
0
230
1
0
LINE
5
119
100
AcDbEntity
8
1
62
256
6
ByLayer
370
18
48
1
60
0
100
AcDbLine
10
50.09728
20
-17.791113
30
0
11
42.316026
21
-10.00986
31
0
39
0
210
0
220
0
230
1
0
LINE
5
11A
100
AcDbEntity
8
1
62
256
6
ByLayer
370
18
48
1
60
0
100
AcDbLine
10
41.534895
20
-9.228728
30
0
11
42.316026
21
-10.00986
31
0
39
0
210
0
220
0
230
1
0
LINE
5
11B
100
AcDbEntity
8
SK1
62
256
6
ByLayer
370
18
48
1
60
0
100
AcDbLine
10
-1.307107
20
3.627816
30
0
11
-1.307107
21
-3.627817
31
0
39
0
210
0
220
0
230
1
0
MTEXT
5
1E6
100
AcDbEntity
8
SK6
62
256
6
ByLayer
370
18
48
1
60
0
100
AcDbMText
10
-7.625
20
29.125
30
0
210
0
220
0
230
1
1
\W0.7460;C4-DSSNL-27042-12-2
40
3.5
41
0
44
1.084337
50
0
71
7
72
5
7
iso_b_vert
0
DIMENSION
5
206
100
AcDbEntity
8
SK2
62
256
6
ByLayer
370
13
48
1
60
0
100
AcDbDimension
2
DimnDraft3D2
10
-31.75
20
20
30
0
11
-31.75
21
-2.925
31
0
70
32
71
5
72
1
41
1
210
0
220
0
230
1
3
Standard
100
AcDbAlignedDimension
13
-2
23
-20
33
0
14
-2
24
20
34
0
50
90
100
AcDbRotatedDimension
1001
ACAD
1000
DSTYLE
1002
{
1070
    74
1070
     0
1070
   279
1070
     0
1070
   172
1070
     1
1070
   173
1070
     1
1070
   340
1005
1E7
1070
    77
1070
     1
1070
    73
1070
     0
1070
   171
1070
     3
1070
   274
1070
     4
1070
   177
1070
     2
1070
   176
1070
     2
1070
   178
1070
     7
1070
    78
1070
     8
1070
    41
1041
3.175
1070
   147
1041
2.25
1070
    42
1041
2.0
1070
    44
1041
2.0
1070
   140
1041
4.5
1070
   343
1005
207
1070
   344
1005
207
1002
}
0
DIMENSION
5
21B
100
AcDbEntity
8
2
62
256
6
ByLayer
370
13
48
1
60
0
100
AcDbDimension
2
DimnDraft3D3
10
87.25
20
-18.677308
30
0
11
87.25
21
-14.057733
31
0
70
32
71
5
72
1
41
1
210
0
220
0
230
1
3
Standard
100
AcDbAlignedDimension
13
44
23
0
33
0
14
52.322692
24
-18.677308
34
0
50
90
100
AcDbRotatedDimension
1001
ACAD
1000
DSTYLE
1002
{
1070
    74
1070
     0
1070
   279
1070
     0
1070
   172
1070
     1
1070
   173
1070
     1
1070
   340
1005
1E7
1070
    77
1070
     1
1070
    73
1070
     0
1070
   171
1070
     3
1070
   274
1070
     4
1070
   177
1070
     2
1070
   176
1070
     2
1070
   178
1070
     7
1070
    78
1070
     8
1070
    41
1041
3.175
1070
   147
1041
2.25
1070
    42
1041
2.0
1070
    44
1041
2.0
1070
   140
1041
4.5
1070
   343
1005
207
1070
   344
1005
207
1002
}
0
DIMENSION
5
229
100
AcDbEntity
8
2
62
256
6
ByLayer
370
13
48
1
60
0
100
AcDbDimension
2
DimnDraft3D4
10
97.25
20
-27
30
0
11
97.25
21
-18.781579
31
0
70
32
71
5
72
1
41
1
210
0
220
0
230
1
3
Standard
100
AcDbAlignedDimension
13
44
23
0
33
0
14
44
24
-27
34
0
50
90
100
AcDbRotatedDimension
1001
ACAD
1000
DSTYLE
1002
{
1070
    74
1070
     0
1070
   279
1070
     0
1070
   172
1070
     1
1070
   173
1070
     1
1070
   340
1005
1E7
1070
    77
1070
     1
1070
    73
1070
     0
1070
   171
1070
     3
1070
   274
1070
     4
1070
   177
1070
     2
1070
   176
1070
     2
1070
   178
1070
     7
1070
    78
1070
     8
1070
    41
1041
3.175
1070
   147
1041
2.25
1070
    42
1041
2.0
1070
    44
1041
2.0
1070
   140
1041
4.5
1070
   343
1005
207
1070
   344
1005
207
1002
}
0
DIMENSION
5
237
100
AcDbEntity
8
2
62
256
6
ByLayer
370
13
48
1
60
0
100
AcDbDimension
2
DimnDraft3D5
10
50.322692
20
-52.25
30
0
11
19.879767
21
-52.25
31
0
70
32
71
5
72
1
41
1
210
0
220
0
230
1
3
Standard
100
AcDbAlignedDimension
13
0
23
-22
33
0
14
50.322692
24
-20.677308
34
0
50
0
100
AcDbRotatedDimension
1001
ACAD
1000
DSTYLE
1002
{
1070
   279
1070
     0
1070
   172
1070
     1
1070
   173
1070
     1
1070
   340
1005
1E7
1070
    77
1070
     1
1070
    73
1070
     0
1070
   171
1070
     3
1070
   274
1070
     4
1070
   177
1070
     2
1070
   176
1070
     2
1070
   178
1070
     7
1070
    78
1070
     8
1070
    41
1041
3.175
1070
   147
1041
2.25
1070
    42
1041
2.0
1070
    44
1041
2.0
1070
   140
1041
4.5
1070
   343
1005
207
1070
   344
1005
207
1002
}
0
DIMENSION
5
245
100
AcDbEntity
8
2
62
256
6
ByLayer
370
13
48
1
60
0
100
AcDbDimension
2
DimnDraft3D6
10
50.322692
20
-18.348526
30
0
11
60.430778
21
5.725771
31
0
70
34
71
5
72
1
41
1
210
0
220
0
230
1
3
Standard
100
AcDb2LineAngularDimension
13
50.651474
23
-18.348526
33
0
14
50.322692
24
-18.677308
34
0
15
50.322692
25
-18.677308
35
0
16
58.708703
26
1.568313
36
0
40
0
0
ENDSEC
0
SECTION
2
OBJECTS
0
DICTIONARY
5
2b0
330
0
100
AcDbDictionary
280
0
281
1
3
ACAD_GROUP
350
2b1
3
ACAD_MLINESTYLE
350
2b2
0
DICTIONARY
5
2b1
330
0
100
AcDbDictionary
280
0
281
1
0
DICTIONARY
5
2b2
330
0
100
AcDbDictionary
280
0
281
1
3
Standard
350
18
0
MLINESTYLE
5
18
330
2b2
100
AcDbMlineStyle
2
Standard
70
0
3

62
256
51
90
52
90
71
2
49
-0.5
62
256
6
ByLayer
49
0.5
62
256
6
ByLayer
0
RASTERVARIABLES
5
29e
330

100
AcDbRasterVariables
90
0
70
1
71
1
72
1
0
ENDSEC
0
EOF
