0
SECTION
2
HEADER
9
$ACADVER
1
AC1015
9
$DWGCODEPAGE
3
ANSI_1252
9
$HANDSEED
5
27c
9
$ANGBASE
50
0
9
$ANGDIR
70
0
9
$ATTMODE
70
1
9
$AUNITS
70
0
9
$AUPREC
70
0
9
$CECOLOR
62
256
9
$CELTSCALE
40
1
9
$CELTYPE
6
ByLayer
9
$CELWEIGHT
370
18
9
$CLAYER
8
0
9
$CMLJUST
70
0
9
$CMLSCALE
40
1
9
$CMLSTYLE
2
Standard
9
$DIMSTYLE
2
Standard
9
$TEXTSIZE
40
0.2
9
$TEXTSTYLE
7
Standard
9
$LUNITS
70
2
9
$LUPREC
70
4
9
$EXTNAMES
290
1
9
$INSUNITS
70
4
9
$LTSCALE
40
1
9
$LWDISPLAY
290
1
9
$PDMODE
70
0
9
$PDSIZE
40
0
9
$PLINEGEN
70
0
0
ENDSEC
0
SECTION
2
CLASSES
0
CLASS
1
RASTERVARIABLES
2
AcDbRasterVariables
3
ISM
90
0
280
0
281
0
0
ENDSEC
0
SECTION
2
TABLES
0
TABLE
2
VPORT
5
272
100
AcDbSymbolTable
0
VPORT
5
1
100
AcDbSymbolTableRecord
100
AcDbViewportTableRecord
2
*Active
70
0
10
0
20
0
11
1
21
1
12
-1
22
1
13
0
23
0
14
0.5
24
0.5
15
10
25
10
16
0
26
0
36
1
17
0
27
0
37
0
0
ENDTAB
0
TABLE
2
LTYPE
5
273
100
AcDbSymbolTable
0
LTYPE
5
14
100
AcDbSymbolTableRecord
100
AcDbLinetypeTableRecord
70
0
2
ByBlock
3

72
65
73
0
40
0
0
LTYPE
5
15
100
AcDbSymbolTableRecord
100
AcDbLinetypeTableRecord
70
0
2
ByLayer
3

72
65
73
0
40
0
0
LTYPE
5
16
100
AcDbSymbolTableRecord
100
AcDbLinetypeTableRecord
70
0
2
CONTINUOUS
3
Solid line
72
65
73
0
40
0
0
LTYPE
5
6A
100
AcDbSymbolTableRecord
100
AcDbLinetypeTableRecord
70
0
2
CENTER
3
____ _ ____ _ ____ _ ____
72
65
73
4
40
47.5
49
22
74
0
49
-8.5
74
0
49
8.5
74
0
49
-8.5
74
0
0
LTYPE
5
6B
100
AcDbSymbolTableRecord
100
AcDbLinetypeTableRecord
70
0
2
DASHED
3
__ __ __ __ __ __ __ __ __
72
65
73
2
40
25.72
49
12.86
74
0
49
-12.86
74
0
0
ENDTAB
0
TABLE
2
LAYER
5
274
100
AcDbSymbolTable
0
LAYER
5
10
100
AcDbSymbolTableRecord
100
AcDbLayerTableRecord
2
0
70
0
62
7
6
CONTINUOUS
290
1
370
-3
390
0
0
LAYER
5
6D
100
AcDbSymbolTableRecord
100
AcDbLayerTableRecord
2
2
70
0
62
7
6
CONTINUOUS
290
1
370
-3
390
0
0
LAYER
5
6F
100
AcDbSymbolTableRecord
100
AcDbLayerTableRecord
2
80
70
0
62
-6
6
CONTINUOUS
290
1
370
-3
390
0
0
LAYER
5
71
100
AcDbSymbolTableRecord
100
AcDbLayerTableRecord
2
81
70
0
62
-3
6
CONTINUOUS
290
1
370
-3
390
0
0
LAYER
5
74
100
AcDbSymbolTableRecord
100
AcDbLayerTableRecord
2
1
70
0
62
4
6
CONTINUOUS
290
1
370
-3
390
0
0
LAYER
5
8D
100
AcDbSymbolTableRecord
100
AcDbLayerTableRecord
2
4
70
0
62
-2
6
CENTER
290
1
370
-3
390
0
0
LAYER
5
25e
100
AcDbSymbolTableRecord
100
AcDbLayerTableRecord
2
SK4
70
0
62
2
6
CENTER
290
1
370
-3
390
0
0
LAYER
5
25f
100
AcDbSymbolTableRecord
100
AcDbLayerTableRecord
2
SK1
70
0
62
4
6
CONTINUOUS
290
1
370
-3
390
0
0
LAYER
5
260
100
AcDbSymbolTableRecord
100
AcDbLayerTableRecord
2
SK6
70
0
62
5
6
CONTINUOUS
290
1
370
-3
390
0
0
LAYER
5
261
100
AcDbSymbolTableRecord
100
AcDbLayerTableRecord
2
SK2
70
0
62
7
6
CONTINUOUS
290
1
370
-3
390
0
0
ENDTAB
0
TABLE
2
STYLE
5
275
100
AcDbSymbolTable
0
STYLE
5
11
100
AcDbSymbolTableRecord
100
AcDbTextStyleTableRecord
2
Standard
3
txt
70
0
71
0
40
0
41
1
42
0
50
0
0
STYLE
5
1C2
100
AcDbSymbolTableRecord
100
AcDbTextStyleTableRecord
2
iso_b_vert
3
simplex.shx
70
0
71
0
40
0
41
1
42
0
50
0
0
STYLE
5
1C3
100
AcDbSymbolTableRecord
100
AcDbTextStyleTableRecord
2
DWGDirectTextStyle
3
simplex
70
0
71
0
40
0
41
1
42
0
50
0
0
ENDTAB
0
TABLE
2
DIMSTYLE
5
276
100
AcDbSymbolTable
100
AcDbDimStyleTable
0
DIMSTYLE
105
27
100
AcDbSymbolTableRecord
100
AcDbDimStyleTableRecord
2
Standard
70
0
3
<>
41
0.18
42
0.0625
44
0.18
140
0.18
147
0.09
73
0
74
0
77
1
271
2
275
0
278
52
280
0
340
11
0
ENDTAB
0
TABLE
2
VIEW
5
277
100
AcDbSymbolTable
0
ENDTAB
0
TABLE
2
UCS
5
278
100
AcDbSymbolTable
0
ENDTAB
0
TABLE
2
APPID
5
279
100
AcDbSymbolTable
0
APPID
5
12
100
AcDbSymbolTableRecord
100
AcDbRegAppTableRecord
2
ACAD
70
0
0
ENDTAB
0
TABLE
2
BLOCK_RECORD
5
27a
100
AcDbSymbolTable
0
BLOCK_RECORD
5
1F
100
AcDbSymbolTableRecord
100
AcDbBlockTableRecord
2
*Model_Space
340
0
70
0
0
BLOCK_RECORD
5
1B
100
AcDbSymbolTableRecord
100
AcDbBlockTableRecord
2
*Paper_Space
340
0
70
0
0
BLOCK_RECORD
5
23
100
AcDbSymbolTableRecord
100
AcDbBlockTableRecord
2
*Paper_Space0
340
0
70
0
0
BLOCK_RECORD
5
1C5
100
AcDbSymbolTableRecord
100
AcDbBlockTableRecord
2
DimnDraft3D1
340
0
70
0
0
BLOCK_RECORD
5
1D3
100
AcDbSymbolTableRecord
100
AcDbBlockTableRecord
2
_CLOSED
340
0
70
0
0
BLOCK_RECORD
5
1DA
100
AcDbSymbolTableRecord
100
AcDbBlockTableRecord
2
DimnDraft3D2
340
0
70
0
0
BLOCK_RECORD
5
1E8
100
AcDbSymbolTableRecord
100
AcDbBlockTableRecord
2
DimnDraft3D3
340
0
70
0
0
BLOCK_RECORD
5
1F7
100
AcDbSymbolTableRecord
100
AcDbBlockTableRecord
2
DimnDraft3D4
340
0
70
0
0
ENDTAB
0
ENDSEC
0
SECTION
2
BLOCKS
0
BLOCK
5
20
100
AcDbEntity
8
0
100
AcDbBlockBegin
2
*Model_Space
70
0
10
0
20
0
30
0
3
*Model_Space
0
ENDBLK
5
21
100
AcDbEntity
8
0
100
AcDbBlockEnd
0
BLOCK
5
1C
100
AcDbEntity
8
0
100
AcDbBlockBegin
2
*Paper_Space
70
0
10
0
20
0
30
0
3
*Paper_Space
0
ENDBLK
5
1D
100
AcDbEntity
8
0
100
AcDbBlockEnd
0
BLOCK
5
24
100
AcDbEntity
8
0
100
AcDbBlockBegin
2
*Paper_Space0
70
0
10
0
20
0
30
0
3
*Paper_Space0
0
ENDBLK
5
25
100
AcDbEntity
8
0
100
AcDbBlockEnd
0
BLOCK
5
1D0
100
AcDbEntity
8
0
100
AcDbBlockBegin
2
DimnDraft3D1
70
0
10
0
20
0
30
0
3
DimnDraft3D1
0
MTEXT
5
1C6
100
AcDbEntity
8
2
62
256
6
ByLayer
370
18
48
1
60
0
100
AcDbMText
10
38.254365
20
-38.909465
30
0
210
0
220
0
230
1
1
\W0.7399;93%%d
40
4.5
41
0
44
1.084337
50
313.5
71
7
72
5
7
iso_b_vert
0
LINE
5
1C7
100
AcDbEntity
8
2
62
256
6
ByLayer
370
13
48
1
60
0
100
AcDbLine
10
37.188006
20
-26.109201
30
0
11
31.59172
21
-25.815912
31
0
39
0
210
0
220
0
230
1
0
LINE
5
1C8
100
AcDbEntity
8
2
62
256
6
ByLayer
370
13
48
1
60
0
100
AcDbLine
10
55
20
-29
30
0
11
55
21
-50.483093
31
0
39
0
210
0
220
0
230
1
0
ARC
5
1C9
100
AcDbEntity
8
2
62
256
6
ByLayer
370
13
48
1
60
0
100
AcDbCircle
39
0
10
55
20
-27.042688
30
0
40
21.440404684557
210
0
220
0
230
1
100
AcDbArc
50
177
51
270
0
LINE
5
1CA
100
AcDbEntity
8
2
62
256
6
ByLayer
370
13
48
1
60
0
100
AcDbLine
10
33.588979
20
-25.920584
30
0
11
33.958013
21
-29.101645
31
0
39
0
210
0
220
0
230
1
0
LINE
5
1CB
100
AcDbEntity
8
2
62
256
6
ByLayer
370
13
48
1
60
0
100
AcDbLine
10
33.588979
20
-25.920584
30
0
11
33.122119
21
-29.088769
31
0
39
0
210
0
220
0
230
1
0
LINE
5
1CC
100
AcDbEntity
8
2
62
256
6
ByLayer
370
13
48
1
60
0
100
AcDbLine
10
33.958013
20
-29.101645
30
0
11
33.122119
21
-29.088769
31
0
39
0
210
0
220
0
230
1
0
LINE
5
1CD
100
AcDbEntity
8
2
62
256
6
ByLayer
370
13
48
1
60
0
100
AcDbLine
10
55
20
-48.483093
30
0
11
51.811726
21
-48.783502
31
0
39
0
210
0
220
0
230
1
0
LINE
5
1CE
100
AcDbEntity
8
2
62
256
6
ByLayer
370
13
48
1
60
0
100
AcDbLine
10
55
20
-48.483093
30
0
11
51.842609
21
-47.94808
31
0
39
0
210
0
220
0
230
1
0
LINE
5
1CF
100
AcDbEntity
8
2
62
256
6
ByLayer
370
13
48
1
60
0
100
AcDbLine
10
51.811726
20
-48.783502
30
0
11
51.842609
21
-47.94808
31
0
39
0
210
0
220
0
230
1
0
ENDBLK
5
1D1
100
AcDbEntity
8
0
100
AcDbBlockEnd
0
BLOCK
5
1D4
100
AcDbEntity
8
0
100
AcDbBlockBegin
2
_CLOSED
70
0
10
0
20
0
30
0
3
_CLOSED
0
LINE
5
1D6
100
AcDbEntity
8
0
62
256
6
ByLayer
370
-2
48
1
60
0
100
AcDbLine
10
-1
20
0.166667
30
0
11
0
21
0
31
0
39
0
210
0
220
0
230
1
0
LINE
5
1D7
100
AcDbEntity
8
0
62
256
6
ByLayer
370
-2
48
1
60
0
100
AcDbLine
10
0
20
0
30
0
11
-1
21
-0.166667
31
0
39
0
210
0
220
0
230
1
0
LINE
5
1D8
100
AcDbEntity
8
0
62
256
6
ByLayer
370
-2
48
1
60
0
100
AcDbLine
10
-1
20
0.166667
30
0
11
-1
21
-0.166667
31
0
39
0
210
0
220
0
230
1
0
LINE
5
1D9
100
AcDbEntity
8
0
62
256
6
ByLayer
370
-2
48
1
60
0
100
AcDbLine
10
0
20
0
30
0
11
-1
21
0
31
0
39
0
210
0
220
0
230
1
0
ENDBLK
5
1D5
100
AcDbEntity
8
0
100
AcDbBlockEnd
0
BLOCK
5
1E5
100
AcDbEntity
8
0
100
AcDbBlockBegin
2
DimnDraft3D2
70
0
10
0
20
0
30
0
3
DimnDraft3D2
0
MTEXT
5
1DB
100
AcDbEntity
8
2
62
256
6
ByLayer
370
18
48
1
60
0
100
AcDbMText
10
23.343421
20
-53.125
30
0
210
0
220
0
230
1
1
\W0.7346;55.0
40
4.5
41
0
44
1.084337
50
0
71
7
72
5
7
iso_b_vert
0
LINE
5
1DC
100
AcDbEntity
8
2
62
256
6
ByLayer
370
13
48
1
60
0
100
AcDbLine
10
0
20
-22
30
0
11
0
21
-56.25
31
0
39
0
210
0
220
0
230
1
0
LINE
5
1DD
100
AcDbEntity
8
2
62
256
6
ByLayer
370
13
48
1
60
0
100
AcDbLine
10
55
20
-29
30
0
11
55
21
-56.25
31
0
39
0
210
0
220
0
230
1
0
LINE
5
1DE
100
AcDbEntity
8
2
62
256
6
ByLayer
370
13
48
1
60
0
100
AcDbLine
10
0
20
-54.25
30
0
11
55
21
-54.25
31
0
39
0
210
0
220
0
230
1
0
LINE
5
1DF
100
AcDbEntity
8
2
62
256
6
ByLayer
370
13
48
1
60
0
100
AcDbLine
10
0
20
-54.25
30
0
11
3.174998
21
-53.832003
31
0
39
0
210
0
220
0
230
1
0
LINE
5
1E0
100
AcDbEntity
8
2
62
256
6
ByLayer
370
13
48
1
60
0
100
AcDbLine
10
0
20
-54.25
30
0
11
3.175002
21
-54.667997
31
0
39
0
210
0
220
0
230
1
0
LINE
5
1E1
100
AcDbEntity
8
2
62
256
6
ByLayer
370
13
48
1
60
0
100
AcDbLine
10
3.174998
20
-53.832003
30
0
11
3.175002
21
-54.667997
31
0
39
0
210
0
220
0
230
1
0
LINE
5
1E2
100
AcDbEntity
8
2
62
256
6
ByLayer
370
13
48
1
60
0
100
AcDbLine
10
55
20
-54.25
30
0
11
51.825002
21
-54.667997
31
0
39
0
210
0
220
0
230
1
0
LINE
5
1E3
100
AcDbEntity
8
2
62
256
6
ByLayer
370
13
48
1
60
0
100
AcDbLine
10
55
20
-54.25
30
0
11
51.824998
21
-53.832003
31
0
39
0
210
0
220
0
230
1
0
LINE
5
1E4
100
AcDbEntity
8
2
62
256
6
ByLayer
370
13
48
1
60
0
100
AcDbLine
10
51.825002
20
-54.667997
30
0
11
51.824998
21
-53.832003
31
0
39
0
210
0
220
0
230
1
0
ENDBLK
5
1E6
100
AcDbEntity
8
0
100
AcDbBlockEnd
0
BLOCK
5
1F4
100
AcDbEntity
8
0
100
AcDbBlockBegin
2
DimnDraft3D3
70
0
10
0
20
0
30
0
3
DimnDraft3D3
0
MTEXT
5
1E9
100
AcDbEntity
8
SK2
62
256
6
ByLayer
370
18
48
1
60
0
100
AcDbMText
10
-32.875
20
-1.8
30
0
210
0
220
0
230
1
1
\W0.7361;40
40
4.5
41
0
44
1.084337
50
90
71
7
72
5
7
iso_b_vert
0
LINE
5
1EB
100
AcDbEntity
8
SK2
62
256
6
ByLayer
370
13
48
1
60
0
100
AcDbLine
10
-2
20
-20
30
0
11
-33.75
21
-20
31
0
39
0
210
0
220
0
230
1
0
LINE
5
1EC
100
AcDbEntity
8
SK2
62
256
6
ByLayer
370
13
48
1
60
0
100
AcDbLine
10
-2
20
20
30
0
11
-33.75
21
20
31
0
39
0
210
0
220
0
230
1
0
LINE
5
1ED
100
AcDbEntity
8
SK2
62
256
6
ByLayer
370
13
48
1
60
0
100
AcDbLine
10
-31.75
20
-20
30
0
11
-31.75
21
20
31
0
39
0
210
0
220
0
230
1
0
LINE
5
1EE
100
AcDbEntity
8
SK2
62
256
6
ByLayer
370
13
48
1
60
0
100
AcDbLine
10
-31.75
20
-20
30
0
11
-32.167997
21
-16.825002
31
0
39
0
210
0
220
0
230
1
0
LINE
5
1EF
100
AcDbEntity
8
SK2
62
256
6
ByLayer
370
13
48
1
60
0
100
AcDbLine
10
-31.75
20
-20
30
0
11
-31.332003
21
-16.824998
31
0
39
0
210
0
220
0
230
1
0
LINE
5
1F0
100
AcDbEntity
8
SK2
62
256
6
ByLayer
370
13
48
1
60
0
100
AcDbLine
10
-32.167997
20
-16.825002
30
0
11
-31.332003
21
-16.824998
31
0
39
0
210
0
220
0
230
1
0
LINE
5
1F1
100
AcDbEntity
8
SK2
62
256
6
ByLayer
370
13
48
1
60
0
100
AcDbLine
10
-31.75
20
20
30
0
11
-31.332003
21
16.825002
31
0
39
0
210
0
220
0
230
1
0
LINE
5
1F2
100
AcDbEntity
8
SK2
62
256
6
ByLayer
370
13
48
1
60
0
100
AcDbLine
10
-31.75
20
20
30
0
11
-32.167997
21
16.824998
31
0
39
0
210
0
220
0
230
1
0
LINE
5
1F3
100
AcDbEntity
8
SK2
62
256
6
ByLayer
370
13
48
1
60
0
100
AcDbLine
10
-31.332003
20
16.825002
30
0
11
-32.167997
21
16.824998
31
0
39
0
210
0
220
0
230
1
0
ENDBLK
5
1F5
100
AcDbEntity
8
0
100
AcDbBlockEnd
0
BLOCK
5
202
100
AcDbEntity
8
0
100
AcDbBlockBegin
2
DimnDraft3D4
70
0
10
0
20
0
30
0
3
DimnDraft3D4
0
MTEXT
5
1F8
100
AcDbEntity
8
2
62
256
6
ByLayer
370
18
48
1
60
0
100
AcDbMText
10
76.125
20
-17.656579
30
0
210
0
220
0
230
1
1
\W0.7346;27.0
40
4.5
41
0
44
1.084337
50
90
71
7
72
5
7
iso_b_vert
0
LINE
5
1F9
100
AcDbEntity
8
2
62
256
6
ByLayer
370
13
48
1
60
0
100
AcDbLine
10
57
20
0
30
0
11
79.25
21
0
31
0
39
0
210
0
220
0
230
1
0
LINE
5
1FA
100
AcDbEntity
8
2
62
256
6
ByLayer
370
13
48
1
60
0
100
AcDbLine
10
57
20
-27
30
0
11
79.25
21
-27
31
0
39
0
210
0
220
0
230
1
0
LINE
5
1FB
100
AcDbEntity
8
2
62
256
6
ByLayer
370
13
48
1
60
0
100
AcDbLine
10
77.25
20
0
30
0
11
77.25
21
-27
31
0
39
0
210
0
220
0
230
1
0
LINE
5
1FC
100
AcDbEntity
8
2
62
256
6
ByLayer
370
13
48
1
60
0
100
AcDbLine
10
77.25
20
0
30
0
11
77.667997
21
-3.174998
31
0
39
0
210
0
220
0
230
1
0
LINE
5
1FD
100
AcDbEntity
8
2
62
256
6
ByLayer
370
13
48
1
60
0
100
AcDbLine
10
77.25
20
0
30
0
11
76.832003
21
-3.175002
31
0
39
0
210
0
220
0
230
1
0
LINE
5
1FE
100
AcDbEntity
8
2
62
256
6
ByLayer
370
13
48
1
60
0
100
AcDbLine
10
77.667997
20
-3.174998
30
0
11
76.832003
21
-3.175002
31
0
39
0
210
0
220
0
230
1
0
LINE
5
1FF
100
AcDbEntity
8
2
62
256
6
ByLayer
370
13
48
1
60
0
100
AcDbLine
10
77.25
20
-27
30
0
11
76.832003
21
-23.825002
31
0
39
0
210
0
220
0
230
1
0
LINE
5
200
100
AcDbEntity
8
2
62
256
6
ByLayer
370
13
48
1
60
0
100
AcDbLine
10
77.25
20
-27
30
0
11
77.667997
21
-23.824998
31
0
39
0
210
0
220
0
230
1
0
LINE
5
201
100
AcDbEntity
8
2
62
256
6
ByLayer
370
13
48
1
60
0
100
AcDbLine
10
76.832003
20
-23.825002
30
0
11
77.667997
21
-23.824998
31
0
39
0
210
0
220
0
230
1
0
ENDBLK
5
203
100
AcDbEntity
8
0
100
AcDbBlockEnd
0
ENDSEC
0
SECTION
2
ENTITIES
0
ARC
5
10C
100
AcDbEntity
8
1
62
256
6
ByLayer
370
18
48
1
60
0
100
AcDbCircle
39
0
10
-16.841712
20
8.229317
30
0
40
0.25
210
0
220
0
230
-1
100
AcDbArc
50
260
51
351.872932
0
ARC
5
10D
100
AcDbEntity
8
SK1
62
256
6
ByLayer
370
18
48
1
60
0
100
AcDbCircle
39
0
10
0.6
20
-15
30
0
40
0.999999999999989
210
0
220
0
230
-1
100
AcDbArc
50
113.578178
51
126.869898
0
ARC
5
10E
100
AcDbEntity
8
SK1
62
256
6
ByLayer
370
18
48
1
60
0
100
AcDbCircle
39
0
10
0.6
20
15
30
0
40
0.999999999999989
210
0
220
0
230
-1
100
AcDbArc
50
233.130102
51
246.421822
0
ARC
5
10F
100
AcDbEntity
8
1
62
256
6
ByLayer
370
18
48
1
60
0
100
AcDbCircle
39
0
10
13.376863
20
7.734525
30
0
40
3.25
210
0
220
0
230
1
100
AcDbArc
50
8.127068
51
21.835092
0
ELLIPSE
5
110
100
AcDbEntity
8
1
62
256
6
ByLayer
370
18
48
1
60
0
100
AcDbEllipse
10
29.232839
20
-17.464359
30
0
11
-0.265178536275319
21
-0.272177045135845
31
0
210
0
220
0
230
1
40
0.987534
41
0.342180053776477
42
0.403396498438476
0
ELLIPSE
5
111
100
AcDbEntity
8
1
62
256
6
ByLayer
370
18
48
1
60
0
100
AcDbEllipse
10
30.797237
20
-16.176699
30
0
11
0.296581257676346
21
0.304408537322982
31
0
210
0
220
0
230
1
40
0.987534
41
2.8044423652365
42
-3.14158584376966
0
ELLIPSE
5
112
100
AcDbEntity
8
1
62
256
6
ByLayer
370
18
48
1
60
0
100
AcDbEllipse
10
28.939684
20
-18.212431
30
0
11
0.296581257676346
21
0.304408537322982
31
0
210
0
220
0
230
1
40
0.987534
41
-1.88105429020171E-05
42
0.403396498438459
0
ELLIPSE
5
113
100
AcDbEntity
8
1
62
256
6
ByLayer
370
18
48
1
60
0
100
AcDbEllipse
10
31.295164
20
-16.796593
30
0
11
-0.265178536275319
21
-0.272177045135845
31
0
210
0
220
0
230
1
40
0.987534
41
1.75724481403987
42
2.79939683891867
0
ELLIPSE
5
114
100
AcDbEntity
8
1
62
256
6
ByLayer
370
18
48
1
60
0
100
AcDbEllipse
10
29.603347
20
-18.650691
30
0
11
-0.265178536275319
21
-0.272177045135845
31
0
210
0
220
0
230
1
40
0.987534
41
0.342174994296262
42
1.45059404963504
0
ELLIPSE
5
115
100
AcDbEntity
8
1
62
256
6
ByLayer
370
18
48
1
60
0
100
AcDbEllipse
10
31.958827
20
-17.234853
30
0
11
0.296581257676346
21
0.304408537322982
31
0
210
0
220
0
230
1
40
0.987534
41
1.75724481403988
42
3.14157244993312
0
ELLIPSE
5
116
100
AcDbEntity
8
1
62
256
6
ByLayer
370
18
48
1
60
0
100
AcDbEllipse
10
30.101273
20
-19.270585
30
0
11
0.296581257676346
21
0.304408537322982
31
0
210
0
220
0
230
1
40
0.987534
41
6.81496145248122E-06
42
1.45059404963504
0
ELLIPSE
5
117
100
AcDbEntity
8
1
62
256
6
ByLayer
370
18
48
1
60
0
100
AcDbEllipse
10
30.35906
20
-17.635766
30
0
11
2.79135301342443
21
2.86502152774571
31
0
210
0
220
0
230
1
40
0.987534
41
0.778645851564994
42
3.1415882062199
0
ELLIPSE
5
118
100
AcDbEntity
8
1
62
256
6
ByLayer
370
18
48
1
60
0
100
AcDbEllipse
10
30.35906
20
-17.635766
30
0
11
2.79135301342443
21
2.86502152774571
31
0
210
0
220
0
230
1
40
0.987534
41
9.36334057278076E-05
42
0.778645851564991
0
ELLIPSE
5
119
100
AcDbEntity
8
1
62
256
6
ByLayer
370
18
48
1
60
0
100
AcDbEllipse
10
31.665672
20
-17.982924
30
0
11
-0.265178536275319
21
-0.272177045135845
31
0
210
0
220
0
230
1
40
0.987534
41
0.710047262843258
42
2.79935548313881
0
ELLIPSE
5
11A
100
AcDbEntity
8
1
62
256
6
ByLayer
370
18
48
1
60
0
100
AcDbEllipse
10
30.819763
20
-18.909974
30
0
11
-0.265178536275319
21
-0.272177045135845
31
0
210
0
220
0
230
1
40
0.987534
41
0.342171625757644
42
2.49779160083163
0
ELLIPSE
5
11B
100
AcDbEntity
8
1
62
256
6
ByLayer
370
18
48
1
60
0
100
AcDbEllipse
10
30.449255
20
-17.723642
30
0
11
0.802513991359523
21
0.823693689226891
31
0
210
0
220
0
230
1
40
0.987534
41
0.778645720303551
42
1.29806188987334
0
ELLIPSE
5
11C
100
AcDbEntity
8
1
62
256
6
ByLayer
370
18
48
1
60
0
100
AcDbEllipse
10
30.449255
20
-17.723642
30
0
11
0.802513991359523
21
0.823693689226891
31
0
210
0
220
0
230
1
40
0.987534
41
1.9216681320461
42
2.58847133294151
0
ELLIPSE
5
11D
100
AcDbEntity
8
1
62
256
6
ByLayer
370
18
48
1
60
0
100
AcDbEllipse
10
30.449255
20
-17.723642
30
0
11
0.802513991359523
21
0.823693689226891
31
0
210
0
220
0
230
1
40
0.987534
41
3.0000200745046
42
0
0
ELLIPSE
5
11E
100
AcDbEntity
8
1
62
256
6
ByLayer
370
18
48
1
60
0
100
AcDbEllipse
10
30.449255
20
-17.723642
30
0
11
0.802513991359523
21
0.823693689226891
31
0
210
0
220
0
230
1
40
0.987534
41
0
42
0.177495564077596
0
ELLIPSE
5
11F
100
AcDbEntity
8
1
62
256
6
ByLayer
370
18
48
1
60
0
100
AcDbEllipse
10
30.449255
20
-17.723642
30
0
11
0.802513991359523
21
0.823693689226891
31
0
210
0
220
0
230
1
40
0.987534
41
0.634989872114792
42
0.778645720303551
0
ELLIPSE
5
120
100
AcDbEntity
8
1
62
256
6
ByLayer
370
18
48
1
60
0
100
AcDbEllipse
10
30.392883
20
-17.668719
30
0
11
0.802513991359523
21
0.823693689226891
31
0
210
0
220
0
230
1
40
0.987534
41
-3.10694123397071
42
-0.0345619915316854
0
ELLIPSE
5
121
100
AcDbEntity
8
1
62
256
6
ByLayer
370
18
48
1
60
0
100
AcDbEllipse
10
43.98594
20
-20.141341
30
0
11
1.80042269365876
21
1.84793888539598
31
0
210
0
220
0
230
1
40
0.987534
41
-2.33842919789536
42
0
0
ELLIPSE
5
122
100
AcDbEntity
8
1
62
256
6
ByLayer
370
18
48
1
60
0
100
AcDbEllipse
10
43.98594
20
-20.141341
30
0
11
1.80042269365876
21
1.84793888539598
31
0
210
0
220
0
230
1
40
0.987534
41
0
42
0.330451779101577
0
ELLIPSE
5
123
100
AcDbEntity
8
1
62
256
6
ByLayer
370
18
48
1
60
0
100
AcDbEllipse
10
43.270015
20
-19.443824
30
0
11
-1.80042269365874
21
-1.847938885396
31
0
210
0
220
0
230
1
40
0.987534
41
2.94406046991728
42
-0.779610452520276
0
ELLIPSE
5
124
100
AcDbEntity
8
1
62
256
6
ByLayer
370
18
48
1
60
0
100
AcDbEllipse
10
43.270015
20
-19.443824
30
0
11
-1.80042269365874
21
-1.847938885396
31
0
210
0
220
0
230
1
40
0.987534
41
2.64305661912535
42
2.94406046991728
0
ELLIPSE
5
125
100
AcDbEntity
8
1
62
256
6
ByLayer
370
18
48
1
60
0
100
AcDbEllipse
10
46.999402
20
-15.662213
30
0
11
0.831125359747124
21
0.853060159886285
31
0
210
0
220
0
230
1
40
0.987534
41
-4.44879703321767E-06
42
0.233835969021917
0
ELLIPSE
5
126
100
AcDbEntity
8
1
62
256
6
ByLayer
370
18
48
1
60
0
100
AcDbEllipse
10
23.547344
20
-21.884977
30
0
11
1.97548026366513
21
2.25775944862812
31
0
210
0
220
0
230
1
40
0.985051
41
0.187717665000393
42
0.503892937168489
0
ELLIPSE
5
127
100
AcDbEntity
8
1
62
256
6
ByLayer
370
18
48
1
60
0
100
AcDbEllipse
10
29.071512
20
-17.35021
30
0
11
2.73274769807009
21
3.12323390393557
31
0
210
0
220
0
230
1
40
0.985051
41
-2.9305376261347
42
-2.6376997164213
0
ELLIPSE
5
128
100
AcDbEntity
8
1
62
256
6
ByLayer
370
18
48
1
60
0
100
AcDbEllipse
10
28.994141
20
-17.333838
30
0
11
-1.71208289517645
21
-1.9567248554777
31
0
210
0
220
0
230
1
40
0.985051
41
-1.1673853428627
42
-0.976435586115003
0
ELLIPSE
5
129
100
AcDbEntity
8
1
62
256
6
ByLayer
370
18
48
1
60
0
100
AcDbEllipse
10
31.054151
20
-17.769745
30
0
11
-2.7327476980701
21
-3.12323390393556
31
0
210
0
220
0
230
1
40
0.985051
41
0.50389293716849
42
-3.02298661995741
0
ELLIPSE
5
12A
100
AcDbEntity
8
1
62
256
6
ByLayer
370
18
48
1
60
0
100
AcDbEllipse
10
42.958437
20
-19.221133
30
0
11
1.90160924039539
21
1.95179591577676
31
0
210
0
220
0
230
1
40
0.987534
41
-0.550862972481138
42
-0.32388276835977
0
ELLIPSE
5
12B
100
AcDbEntity
8
1
62
256
6
ByLayer
370
18
48
1
60
0
100
AcDbEllipse
10
45.530129
20
-14.372825
30
0
11
1.11654120536977
21
1.14600861109829
31
0
210
0
220
0
230
1
40
0.987534
41
2.69989447186825E-06
42
0.713801513320352
0
ELLIPSE
5
12C
100
AcDbEntity
8
1
62
256
6
ByLayer
370
18
48
1
60
0
100
AcDbEllipse
10
40.014935
20
-23.545441
30
0
11
1.11654120536977
21
1.14600861109828
31
0
210
0
220
0
230
1
40
0.987534
41
2.89546307831327
42
-3.14158983163963
0
ELLIPSE
5
12D
100
AcDbEntity
8
1
62
256
6
ByLayer
370
18
48
1
60
0
100
AcDbEllipse
10
40.512418
20
-24.030133
30
0
11
-1.11654120536976
21
-1.14600861109829
31
0
210
0
220
0
230
1
40
0.987534
41
-0.246129575276532
42
0.713801513320355
0
ELLIPSE
5
12E
100
AcDbEntity
8
1
62
256
6
ByLayer
370
18
48
1
60
0
100
AcDbEllipse
10
46.027612
20
-14.857516
30
0
11
-1.11654120536976
21
-1.14600861109829
31
0
210
0
220
0
230
1
40
0.987534
41
2.89546307831327
42
-2.42779114026944
0
ELLIPSE
5
12F
100
AcDbEntity
8
1
62
256
6
ByLayer
370
18
48
1
60
0
100
AcDbEllipse
10
28.945579
20
-10.341011
30
0
11
-3.36435260981348
21
0.985138713419804
31
0
210
0
220
0
230
1
40
0.454664
41
-0.0978252986103495
42
0.625392807788636
0
ELLIPSE
5
130
100
AcDbEntity
8
1
62
256
6
ByLayer
370
18
48
1
60
0
100
AcDbEllipse
10
21.300698
20
-8.236168
30
0
11
6.82934418825403
21
-1.53624801329764
31
0
210
0
220
0
230
1
40
0.083175
41
0.797732830958251
42
0.812513867698232
0
ELLIPSE
5
131
100
AcDbEntity
8
1
62
256
6
ByLayer
370
18
48
1
60
0
100
AcDbEllipse
10
27.781105
20
-13.166459
30
0
11
-2.40333798682458
21
3.82847615118488
31
0
210
0
220
0
230
1
40
0.535969
41
-0.479772778851184
42
-0.120157045494455
0
ELLIPSE
5
132
100
AcDbEntity
8
1
62
256
6
ByLayer
370
18
48
1
60
0
100
AcDbEllipse
10
23.626946
20
-20.358778
30
0
11
-0.44433754174247
21
1.95001644839172
31
0
210
0
220
0
230
1
40
0.807679
41
1.25118760271147
42
2.66386309697106
0
ELLIPSE
5
133
100
AcDbEntity
8
1
62
256
6
ByLayer
370
18
48
1
60
0
100
AcDbEllipse
10
26.029536
20
-23.304194
30
0
11
-3.45654390322304
21
0.579964293025202
31
0
210
0
220
0
230
1
40
0.288972
41
-0.612366121437078
42
0.110851984962352
0
ELLIPSE
5
134
100
AcDbEntity
8
1
62
256
6
ByLayer
370
18
48
1
60
0
100
AcDbEllipse
10
26.359069
20
-21.407498
30
0
11
-5.40555369304461
21
1.03051174885727
31
0
210
0
220
0
230
1
40
0.153994
41
-0.601516401774912
42
-0.548524098926428
0
ELLIPSE
5
135
100
AcDbEntity
8
1
62
256
6
ByLayer
370
18
48
1
60
0
100
AcDbEllipse
10
25.46691
20
-12.17927
30
0
11
1.49832280026797
21
1.3247749945546
31
0
210
0
220
0
230
1
40
0.754402
41
0.707667574872054
42
2.12034306913166
0
ELLIPSE
5
136
100
AcDbEntity
8
1
62
256
6
ByLayer
370
18
48
1
60
0
100
AcDbEllipse
10
44.427066
20
-20.489973
30
0
11
-0.244919138432604
21
-2.36066737614842
31
0
210
0
220
0
230
1
40
0.796311
41
1.56563282528592
42
2.42084415876484
0
ELLIPSE
5
137
100
AcDbEntity
8
1
62
256
6
ByLayer
370
18
48
1
60
0
100
AcDbEllipse
10
27.976521
20
-14.217161
30
0
11
5.36591329077102
21
-1.20705201044815
31
0
210
0
220
0
230
1
40
0.083175
41
-2.42477914533364
42
-1.9830114060476
0
ELLIPSE
5
138
100
AcDbEntity
8
1
62
256
6
ByLayer
370
18
48
1
60
0
100
AcDbEllipse
10
23.246831
20
-19.759666
30
0
11
-2.66344707802443
21
-1.40123612186427
31
0
210
0
220
0
230
1
40
0.988643
41
-0.699939923636467
42
0.351749139427685
0
ELLIPSE
5
139
100
AcDbEntity
8
1
62
256
6
ByLayer
370
18
48
1
60
0
100
AcDbEllipse
10
26.839262
20
-19.272809
30
0
11
5.36591329077102
21
-1.20705201044815
31
0
210
0
220
0
230
1
40
0.083175
41
-2.42477914533364
42
-1.9830114060476
0
ELLIPSE
5
13A
100
AcDbEntity
8
1
62
256
6
ByLayer
370
18
48
1
60
0
100
AcDbEllipse
10
25.083941
20
-11.592849
30
0
11
-2.66344707802917
21
-1.40123612185496
31
0
210
0
220
0
230
1
40
0.988643
41
-1.75162898669723
42
-0.699939923633137
0
ELLIPSE
5
13B
100
AcDbEntity
8
1
62
256
6
ByLayer
370
18
48
1
60
0
100
AcDbEllipse
10
25.943995
20
-21.333275
30
0
11
-3.82773442480525
21
-0.907594688930956
31
0
210
0
220
0
230
1
40
0.449589
41
0.399114564343997
42
0.758730297698176
0
ELLIPSE
5
13C
100
AcDbEntity
8
1
62
256
6
ByLayer
370
18
48
1
60
0
100
AcDbEllipse
10
44.427066
20
-20.489973
30
0
11
-1.67589864628509
21
-1.43101267968556
31
0
210
0
220
0
230
1
40
0.772193
41
1.34318189257231
42
2.19839322604913
0
ELLIPSE
5
13D
100
AcDbEntity
8
1
62
256
6
ByLayer
370
18
48
1
60
0
100
AcDbEllipse
10
28.456715
20
-12.082473
30
0
11
-5.32236497417679
21
1.39900146796739
31
0
210
0
220
0
230
1
40
0.320139
41
0.554915053826592
42
0.60790735672784
0
ELLIPSE
5
13E
100
AcDbEntity
8
1
62
256
6
ByLayer
370
18
48
1
60
0
100
AcDbEllipse
10
30.546887
20
-17.818763
30
0
11
-2.79135301342441
21
-2.86502152774573
31
0
210
0
220
0
230
1
40
0.987534
41
0
42
6.28318530717959
0
ELLIPSE
5
13F
100
AcDbEntity
8
1
62
256
6
ByLayer
370
18
48
1
60
0
100
AcDbEllipse
10
30.977628
20
-16.352451
30
0
11
0.296581257676346
21
0.304408537322982
31
0
210
0
220
0
230
1
40
0.987534
41
2.80444236523648
42
-1.69099860395473
0
ELLIPSE
5
140
100
AcDbEntity
8
1
62
256
6
ByLayer
370
18
48
1
60
0
100
AcDbEllipse
10
31.000154
20
-19.085726
30
0
11
-0.265178536275319
21
-0.272177045135845
31
0
210
0
220
0
230
1
40
0.987534
41
-0.337150288353341
42
2.49779160083164
0
ELLIPSE
5
141
100
AcDbEntity
8
1
62
256
6
ByLayer
370
18
48
1
60
0
100
AcDbEllipse
10
30.629646
20
-17.899394
30
0
11
-1.60502798271903
21
-1.6473873784538
31
0
210
0
220
0
230
1
40
0.987534
41
0
42
6.28318530717959
0
ELLIPSE
5
142
100
AcDbEntity
8
1
62
256
6
ByLayer
370
18
48
1
60
0
100
AcDbEllipse
10
31.475555
20
-16.972345
30
0
11
-0.265178536275319
21
-0.272177045135845
31
0
210
0
220
0
230
1
40
0.987534
41
1.75724481403985
42
-1.69099860395476
0
ELLIPSE
5
143
100
AcDbEntity
8
1
62
256
6
ByLayer
370
18
48
1
60
0
100
AcDbEllipse
10
31.846062
20
-18.158677
30
0
11
-0.265178536275319
21
-0.272177045135845
31
0
210
0
220
0
230
1
40
0.987534
41
0.710047262843244
42
-2.73819615515133
0
ELLIPSE
5
144
100
AcDbEntity
8
1
62
256
6
ByLayer
370
18
48
1
60
0
100
AcDbEllipse
10
29.468056
20
-16.84124
30
0
11
0.296581257676346
21
0.304408537322982
31
0
210
0
220
0
230
1
40
0.987534
41
-2.43154539074654
42
-0.643801052758167
0
ELLIPSE
5
145
100
AcDbEntity
8
1
62
256
6
ByLayer
370
18
48
1
60
0
100
AcDbEllipse
10
31.610845
20
-18.781796
30
0
11
0.296581257676346
21
0.304408537322982
31
0
210
0
220
0
230
1
40
0.987534
41
0.71004726284328
42
2.49779160083164
0
ELLIPSE
5
146
100
AcDbEntity
8
1
62
256
6
ByLayer
370
18
48
1
60
0
100
AcDbEllipse
10
29.120074
20
-18.388183
30
0
11
0.296581257676346
21
0.304408537322982
31
0
210
0
220
0
230
1
40
0.987534
41
-1.38434783954993
42
0.403396498438459
0
ELLIPSE
5
147
100
AcDbEntity
8
1
62
256
6
ByLayer
370
18
48
1
60
0
100
AcDbEllipse
10
30.259138
20
-16.713062
30
0
11
-0.265178536275319
21
-0.272177045135845
31
0
210
0
220
0
230
1
40
0.987534
41
2.80444236523643
42
-0.643801052758138
0
ELLIPSE
5
148
100
AcDbEntity
8
1
62
256
6
ByLayer
370
18
48
1
60
0
100
AcDbEllipse
10
29.413229
20
-17.640111
30
0
11
-0.265178536275319
21
-0.272177045135845
31
0
210
0
220
0
230
1
40
0.987534
41
-2.43154539074652
42
0.403396498438438
0
ELLIPSE
5
149
100
AcDbEntity
8
1
62
256
6
ByLayer
370
18
48
1
60
0
100
AcDbEllipse
10
31.791236
20
-18.957548
30
0
11
0.296581257676346
21
0.304408537322982
31
0
210
0
220
0
230
1
40
0.987534
41
0.71004726284328
42
2.49779160083164
0
ELLIPSE
5
14A
100
AcDbEntity
8
1
62
256
6
ByLayer
370
18
48
1
60
0
100
AcDbEllipse
10
30.281664
20
-19.446337
30
0
11
0.296581257676346
21
0.304408537322982
31
0
210
0
220
0
230
1
40
0.987534
41
-0.337150288353348
42
1.45059404963505
0
ELLIPSE
5
14B
100
AcDbEntity
8
1
62
256
6
ByLayer
370
18
48
1
60
0
100
AcDbEllipse
10
29.783737
20
-18.826443
30
0
11
-0.265178536275319
21
-0.272177045135845
31
0
210
0
220
0
230
1
40
0.987534
41
-1.38434783954992
42
1.45059404963504
0
ELLIPSE
5
14C
100
AcDbEntity
8
1
62
256
6
ByLayer
370
18
48
1
60
0
100
AcDbEllipse
10
32.139218
20
-17.410605
30
0
11
0.296581257676346
21
0.304408537322982
31
0
210
0
220
0
230
1
40
0.987534
41
1.75724481403986
42
-2.73819615515135
0
ELLIPSE
5
14D
100
AcDbEntity
8
1
62
256
6
ByLayer
370
18
48
1
60
0
100
AcDbEllipse
10
16.948929
20
0
30
0
11
-9.36741787978286
21
-19.7417491527512
31
0
210
0
220
0
230
1
40
0.341999
41
-1.09631952749986
42
-0.152726244898338
0
ELLIPSE
5
14E
100
AcDbEntity
8
1
62
256
6
ByLayer
370
18
48
1
60
0
100
AcDbEllipse
10
-0.948929
20
0
30
0
11
-9.36741787978212
21
-19.7417491527504
31
0
210
0
220
0
230
1
40
0.341999
41
2.0452731260899
42
2.98886640869145
0
ELLIPSE
5
14F
100
AcDbEntity
8
1
62
256
6
ByLayer
370
18
48
1
60
0
100
AcDbEllipse
10
17.149649
20
-14.467454
30
0
11
-0.0240719561890214
21
4.43301629403506
31
0
210
0
220
0
230
1
40
0.0197
41
0.601816750859491
42
1.00510684704314
0
ELLIPSE
5
150
100
AcDbEntity
8
1
62
256
6
ByLayer
370
18
48
1
60
0
100
AcDbEllipse
10
34.550236
20
-11.678272
30
0
11
-1.71978253398851
21
1.67556163616706
31
0
210
0
220
0
230
-1
40
0.987532
41
0.246581890064085
42
1.81872432583696
0
ELLIPSE
5
151
100
AcDbEntity
8
1
62
256
6
ByLayer
370
18
48
1
60
0
100
AcDbEllipse
10
21.065143
20
6.467288
30
0
11
-3.20165810646751
21
-17.4174375527999
31
0
210
0
220
0
230
1
40
0.137666
41
-0.28774120245359
42
0.644824203280882
0
ELLIPSE
5
152
100
AcDbEntity
8
1
62
256
6
ByLayer
370
18
48
1
60
0
100
AcDbEllipse
10
25.487164
20
0
30
0
11
-11.4367213108121
21
-18.4821913954464
31
0
210
0
220
0
230
1
40
0.668247
41
0.0958997566223
42
0.35174120635012
0
ELLIPSE
5
153
100
AcDbEntity
8
1
62
256
6
ByLayer
370
18
48
1
60
0
100
AcDbEllipse
10
34.294178
20
-11.835019
30
0
11
-1.71988086451186
21
1.67565743831026
31
0
210
0
220
0
230
-1
40
0.987532
41
-0.143460729374271
42
0.246581890064084
0
ELLIPSE
5
154
100
AcDbEntity
8
1
62
256
6
ByLayer
370
18
48
1
60
0
100
AcDbEllipse
10
16.787398
20
6.493192
30
0
11
-0.011855323823871
21
4.79094329310738
31
0
210
0
220
0
230
1
40
0.082138
41
1.54067911374402
42
-2.3324656680398
0
ELLIPSE
5
155
100
AcDbEntity
8
1
62
256
6
ByLayer
370
18
48
1
60
0
100
AcDbEllipse
10
16.787398
20
6.493192
30
0
11
-0.00987943652002289
21
3.99245274426299
31
0
210
0
220
0
230
1
40
0.082138
41
-0.117060764141608
42
0.557685835055828
0
ELLIPSE
5
156
100
AcDbEntity
8
1
62
256
6
ByLayer
370
18
48
1
60
0
100
AcDbEllipse
10
16.948929
20
0
30
0
11
-9.36741787978228
21
19.7417491527506
31
0
210
0
220
0
230
1
40
0.341999
41
0.152726244898342
42
1.09631952749988
0
ELLIPSE
5
157
100
AcDbEntity
8
1
62
256
6
ByLayer
370
18
48
1
60
0
100
AcDbEllipse
10
8.15381
20
0
30
0
11
-26.1078629914981
21
-3.96723057414748
31
0
210
0
220
0
230
1
40
0.75083
41
1.74425002921237
42
1.80135654165467
0
ELLIPSE
5
158
100
AcDbEntity
8
1
62
256
6
ByLayer
370
18
48
1
60
0
100
AcDbEllipse
10
-0.948929
20
0
30
0
11
-9.36741787978243
21
19.7417491527508
31
0
210
0
220
0
230
1
40
0.341999
41
-2.98886640869145
42
-2.04527312608992
0
ELLIPSE
5
159
100
AcDbEntity
8
1
62
256
6
ByLayer
370
18
48
1
60
0
100
AcDbEllipse
10
17.749773
20
0
30
0
11
1.22460635382238E-15
21
20
31
0
210
0
220
0
230
1
40
0.087489
41
0.392575063395544
42
2.71134649115553
0
ELLIPSE
5
15A
100
AcDbEntity
8
1
62
256
6
ByLayer
370
18
48
1
60
0
100
AcDbEllipse
10
54.210851
20
-26.21078
30
0
11
-0.554083573164745
21
-0.568706773257528
31
0
210
0
220
0
230
1
40
0.987534
41
0.713801513320348
42
2.89546307831326
0
ELLIPSE
5
15B
100
AcDbEntity
8
1
62
256
6
ByLayer
370
18
48
1
60
0
100
AcDbEllipse
10
47.715326
20
-16.359729
30
0
11
-0.831125359747117
21
-0.853060159886292
31
0
210
0
220
0
230
1
40
0.987534
41
2.89546307831326
42
-2.90775668456788
0
ELLIPSE
5
15C
100
AcDbEntity
8
1
62
256
6
ByLayer
370
18
48
1
60
0
100
AcDbEllipse
10
40.256554
20
-23.922952
30
0
11
-0.831125359747117
21
-0.853060159886292
31
0
210
0
220
0
230
1
40
0.987534
41
-0.246129575276529
42
0.233835969021915
0
ELLIPSE
5
15D
100
AcDbEntity
8
1
62
256
6
ByLayer
370
18
48
1
60
0
100
AcDbEllipse
10
42.40206
20
-25.19651
30
0
11
-0.831125359747117
21
-0.853060159886292
31
0
210
0
220
0
230
1
40
0.987534
41
0.233835969021915
42
0.713801513320349
0
ELLIPSE
5
15E
100
AcDbEntity
8
1
62
256
6
ByLayer
370
18
48
1
60
0
100
AcDbEllipse
10
45.569821
20
-15.086171
30
0
11
-0.831125359747117
21
-0.853060159886292
31
0
210
0
220
0
230
1
40
0.987534
41
-2.90775668456788
42
-2.42779114026944
0
POINT
5
6C
100
AcDbEntity
8
2
62
256
6
ByLayer
370
18
48
1
60
0
100
AcDbPoint
10
55
20
27
30
0
39
0
210
0
220
0
230
1
50
360
0
POINT
5
6E
100
AcDbEntity
8
80
62
256
6
ByLayer
370
18
48
1
60
0
100
AcDbPoint
10
0
20
0
30
0
39
0
210
0
220
0
230
1
50
360
0
POINT
5
70
100
AcDbEntity
8
81
62
256
6
ByLayer
370
18
48
1
60
0
100
AcDbPoint
10
55
20
-27
30
0
39
0
210
0
220
0
230
1
50
360
0
SPLINE
5
15F
100
AcDbEntity
8
SK1
62
256
6
ByLayer
370
18
48
1
60
0
100
AcDbSpline
70
4
71
2
72
6
73
3
40
0
40
0
40
0
40
1
40
1
40
1
41
1
10
-22.5
20
-13.493394380475
30
0
41
1
10
-12.099999999963
20
-13.7545958471854
30
0
41
1
10
-1.69999999999999
20
-14.0157970602974
30
0
0
SPLINE
5
160
100
AcDbEntity
8
SK1
62
256
6
ByLayer
370
18
48
1
60
0
100
AcDbSpline
70
4
71
2
72
6
73
3
40
0
40
0
40
0
40
1
40
1
40
1
41
1
10
-1.69999999999999
20
14.0157977997179
30
0
41
1
10
-12.0999999999449
20
13.7545973909208
30
0
41
1
10
-22.5
20
13.4933966698402
30
0
0
SPLINE
5
161
100
AcDbEntity
8
SK1
62
256
6
ByLayer
370
18
48
1
60
0
100
AcDbSpline
70
4
71
3
72
13
73
9
40
0
40
0
40
0
40
0
40
0.239457531297589
40
0.368361583423433
40
0.500001014483274
40
0.631640276582825
40
0.760543863002551
40
1
40
1
40
1
40
1
41
1
10
-1.49503997793928
20
13.8251858327438
30
0
41
1
10
-1.52111030874428
20
13.8247841935567
30
0
41
1
10
-1.5588406423667
20
13.830956449625
30
0
41
1
10
-1.60627712752267
20
13.8540002532836
30
0
41
1
10
-1.63886378681673
20
13.8791676243503
30
0
41
1
10
-1.66563592205637
20
13.9104491790265
30
0
41
1
10
-1.69103284110332
20
13.9566683539303
30
0
41
1
10
-1.6990919864528
20
13.9940409390257
30
0
41
1
10
-1.69999999999999
20
14.0200984156386
30
0
0
SPLINE
5
162
100
AcDbEntity
8
SK1
62
256
6
ByLayer
370
18
48
1
60
0
100
AcDbSpline
70
4
71
3
72
13
73
9
40
0
40
0
40
0
40
0
40
0.239456137017857
40
0.368359723444941
40
0.499998985547708
40
0.631638416605807
40
0.760542468725193
40
1
40
1
40
1
40
1
41
1
10
-1.69999999999999
20
-14.0200984122732
30
0
41
1
10
-1.69909198645308
20
-13.9940409356568
30
0
41
1
10
-1.69103284110358
20
-13.9566683505561
30
0
41
1
10
-1.66563592205674
20
-13.9104491756451
30
0
41
1
10
-1.63886378681727
20
-13.8791676209635
30
0
41
1
10
-1.6062771275233
20
-13.8540002498915
30
0
41
1
10
-1.5588406423679
20
-13.8309564462263
30
0
41
1
10
-1.52111030874491
20
-13.8247841901529
30
0
41
1
10
-1.49503997793931
20
-13.8251858293361
30
0
0
SPLINE
5
163
100
AcDbEntity
8
SK1
62
256
6
ByLayer
370
18
48
1
60
0
100
AcDbSpline
70
4
71
2
72
6
73
3
40
0
40
0
40
0
40
1
40
1
40
1
41
1
10
-22.5
20
13.4970856697526
30
0
41
1
10
-23.2499999989322
20
13.0640911753538
30
0
41
1
10
-24
20
12.6310964932104
30
0
0
SPLINE
5
164
100
AcDbEntity
8
SK1
62
256
6
ByLayer
370
18
48
1
60
0
100
AcDbSpline
70
4
71
2
72
6
73
3
40
0
40
0
40
0
40
1
40
1
40
1
41
1
10
-24
20
-12.6310961283886
30
0
41
1
10
-23.2499999989318
20
-13.0640908004416
30
0
41
1
10
-22.5
20
-13.4970852847173
30
0
0
SPLINE
5
165
100
AcDbEntity
8
SK1
62
256
6
ByLayer
370
18
48
1
60
0
100
AcDbSpline
70
4
71
2
72
6
73
3
40
0
40
0
40
0
40
1
40
1
40
1
41
1
10
-0.394976888875277
20
13.7403788260786
30
0
41
1
10
-0.945008433407281
20
13.7266599565288
30
0
41
1
10
-1.49503997793928
20
13.7129410868425
30
0
0
SPLINE
5
166
100
AcDbEntity
8
SK1
62
256
6
ByLayer
370
18
48
1
60
0
100
AcDbSpline
70
4
71
2
72
6
73
3
40
0
40
0
40
0
40
1
40
1
40
1
41
1
10
-1.49503997793931
20
-13.7129423752897
30
0
41
1
10
-0.945008433407281
20
-13.7266611372792
30
0
41
1
10
-0.394976888875306
20
-13.740379899128
30
0
0
SPLINE
5
167
100
AcDbEntity
8
1
62
256
6
ByLayer
370
18
48
1
60
0
100
AcDbSpline
70
4
71
3
72
8
73
4
40
0
40
0
40
0
40
0
40
1
40
1
40
1
40
1
41
1
10
31.1096036973663
20
-16.7507777696306
30
0
41
1
10
31.1071259174509
20
-16.7636388338044
30
0
41
1
10
31.1045593998135
20
-16.7764887787528
30
0
41
1
10
31.1019041271335
20
-16.7893280759106
30
0
0
SPLINE
5
168
100
AcDbEntity
8
1
62
256
6
ByLayer
370
18
48
1
60
0
100
AcDbSpline
70
4
71
3
72
8
73
4
40
0
40
0
40
0
40
0
40
1
40
1
40
1
40
1
41
1
10
21.812263257889
20
-22.3959517219169
30
0
41
1
10
21.6124354565288
20
-22.2795370513024
30
0
41
1
10
21.4124451138508
20
-22.1421170753795
30
0
41
1
10
21.2237623315725
20
-21.9823493692088
30
0
0
SPLINE
5
169
100
AcDbEntity
8
1
62
256
6
ByLayer
370
18
48
1
60
0
100
AcDbSpline
70
4
71
3
72
16
73
12
40
0
40
0
40
0
40
0
40
0.227999791804373
40
0.227999791804373
40
0.462367941626241
40
0.462367941626241
40
0.702196301505674
40
0.702196301505674
40
0.949813460203603
40
0.949813460203603
40
1
40
1
40
1
40
1
41
1
10
19.0058758527744
20
-19.9837158828309
30
0
41
1
10
19.0713703367879
20
-19.9871177894414
30
0
41
1
10
19.1521323174745
20
-19.9895693159388
30
0
41
1
10
19.3332953193565
20
-19.9930710297281
30
0
41
1
10
19.4366187688275
20
-19.9941462349256
30
0
41
1
10
19.6518636262114
20
-19.995406941165
30
0
41
1
10
19.7668070597522
20
-19.9955979617163
30
0
41
1
10
19.9944865721296
20
-19.9952273242453
30
0
41
1
10
20.1101346991046
20
-19.9946334271374
30
0
41
1
10
20.2383783331589
20
-19.9932224792682
30
0
41
1
10
20.2598280856159
20
-19.9929578335569
30
0
41
1
10
20.2809367636525
20
-19.9926650323688
30
0
0
SPLINE
5
16A
100
AcDbEntity
8
SK1
62
256
6
ByLayer
370
18
48
1
60
0
100
AcDbSpline
70
4
71
3
72
22
73
18
40
0
40
0
40
0
40
0
40
0.0542788415511322
40
0.0542788415511322
40
0.109669437046236
40
0.109669437046236
40
0.147579660274695
40
0.147579660274695
40
0.185286337538657
40
0.185286337538657
40
0.247115732297109
40
0.247115732297109
40
0.369423792214989
40
0.369423792214989
40
0.802518637893672
40
0.802518637893672
40
1
40
1
40
1
40
1
41
1
10
-0.394976888875277
20
13.8446019297682
30
0
41
1
10
-0.389542940031561
20
13.8449158599001
30
0
41
1
10
-0.383617593481006
20
13.8454439659091
30
0
41
1
10
-0.370682577094897
20
13.8471856765741
30
0
41
1
10
-0.363425095790518
20
13.8484584409772
30
0
41
1
10
-0.350979043087193
20
13.8513238322133
30
0
41
1
10
-0.345738104843406
20
13.8527220431424
30
0
41
1
10
-0.335836036111374
20
13.8557300394867
30
0
41
1
10
-0.331061234651429
20
13.8573680363077
30
0
41
1
10
-0.319536857691617
20
13.8617043765564
30
0
41
1
10
-0.313226439154875
20
13.8644842406524
30
0
41
1
10
-0.296825865103983
20
13.8724174982475
30
0
41
1
10
-0.288454852011284
20
13.8774557840676
30
0
41
1
10
-0.256352537857253
20
13.8987262995108
30
0
41
1
10
-0.243999907013631
20
13.9124642192994
30
0
41
1
10
-0.229363924159344
20
13.9303243240481
30
0
41
1
10
-0.225387714743704
20
13.9356346474794
30
0
41
1
10
-0.221937450539627
20
13.9406885005316
30
0
0
SPLINE
5
16B
100
AcDbEntity
8
SK1
62
256
6
ByLayer
370
18
48
1
60
0
100
AcDbSpline
70
4
71
3
72
24
73
20
40
0
40
0
40
0
40
0
40
0.0014544386995729
40
0.0014544386995729
40
0.361956423060109
40
0.361956423060109
40
0.7277315992503
40
0.7277315992503
40
0.782013304695375
40
0.782013304695375
40
0.837002501937695
40
0.837002501937695
40
0.87314419643643
40
0.87314419643643
40
0.909511909647809
40
0.909511909647809
40
0.952113857168665
40
0.952113857168665
40
1
40
1
40
1
40
1
41
1
10
-0.21777352081989
20
-13.9477771104646
30
0
41
1
10
-0.217796303830539
20
-13.9477385212397
30
0
41
1
10
-0.217819113763142
20
-13.9476999169831
30
0
41
1
10
-0.223510113646853
20
-13.9380759054837
30
0
41
1
10
-0.230869554015214
20
-13.9275300777214
30
0
41
1
10
-0.252993763945881
20
-13.9036085654018
30
0
41
1
10
-0.266169306055218
20
-13.8900912648142
30
0
41
1
10
-0.299313210098944
20
-13.8713678522793
30
0
41
1
10
-0.304168151080091
20
-13.8688119846588
30
0
41
1
10
-0.315233613826848
20
-13.8635902765912
30
0
41
1
10
-0.321588767727178
20
-13.8608655729355
30
0
41
1
10
-0.333434048045547
20
-13.8565368608439
30
0
41
1
10
-0.338587345813778
20
-13.8548370746726
30
0
41
1
10
-0.349158334685967
20
-13.8517865918864
30
0
41
1
10
-0.354704697438706
20
-13.8504050227189
30
0
41
1
10
-0.366193697521936
20
-13.847969712967
30
0
41
1
10
-0.37221373013341
20
-13.8469665678177
30
0
41
1
10
-0.383950527302631
20
-13.8454141457692
30
0
41
1
10
-0.389694590782
20
-13.8449066720063
30
0
41
1
10
-0.394976888882155
20
-13.8446015176357
30
0
0
SPLINE
5
16C
100
AcDbEntity
8
1
62
256
6
ByLayer
370
18
48
1
60
0
100
AcDbSpline
70
4
71
3
72
8
73
4
40
0
40
0
40
0
40
0
40
1
40
1
40
1
40
1
41
1
10
17.0803645201175
20
3.18752084452387
30
0
41
1
10
17.111730478741
20
3.60109749853711
30
0
41
1
10
17.1768308352431
20
4.06912539726392
30
0
41
1
10
17.2360063786745
20
4.57036548891739
30
0
0
SPLINE
5
16D
100
AcDbEntity
8
SK1
62
256
6
ByLayer
370
18
48
1
60
0
100
AcDbSpline
70
4
71
3
72
120
73
116
40
0
40
0
40
0
40
0
40
0.0053555999418454
40
0.0131272595897366
40
0.0208989192376277
40
0.0286705788855189
40
0.0364422385334101
40
0.0442138981813013
40
0.0519855578291925
40
0.0597572174770837
40
0.0675288771249749
40
0.0753005367728661
40
0.0830721964207572
40
0.0908438560686484
40
0.0986155157165396
40
0.106387175364431
40
0.114158835012322
40
0.121930494660213
40
0.129702154308104
40
0.137473813955996
40
0.145245473603887
40
0.153017133251778
40
0.160788792899669
40
0.176332112195452
40
0.191875431491234
40
0.207418750787016
40
0.222962070082799
40
0.23073372973069
40
0.238505389378581
40
0.246277049026472
40
0.254048708674363
40
0.269592027970146
40
0.285135347265928
40
0.292907006913819
40
0.30067866656171
40
0.308450326209602
40
0.316221985857493
40
0.323993645505384
40
0.331765305153275
40
0.347308624449058
40
0.355080284096949
40
0.36285194374484
40
0.378395263040622
40
0.393938582336405
40
0.401710241984296
40
0.409481901632187
40
0.42502522092797
40
0.432796880575861
40
0.436682710399806
40
0.440568540223752
40
0.448340199871643
40
0.456111859519534
40
0.471655178815316
40
0.479426838463208
40
0.487198498111099
40
0.49497015775899
40
0.502741817406881
40
0.510513477054772
40
0.518285136702664
40
0.526056796350555
40
0.533828455998446
40
0.541600115646337
40
0.549371775294228
40
0.564915094590011
40
0.572686754237902
40
0.580458413885793
40
0.588230073533684
40
0.59211590335763
40
0.596001733181576
40
0.603773392829467
40
0.611545052477358
40
0.619316712125249
40
0.62708837177314
40
0.634860031421032
40
0.642631691068923
40
0.658175010364705
40
0.673718329660487
40
0.681489989308379
40
0.68926164895627
40
0.704804968252052
40
0.712576627899943
40
0.720348287547835
40
0.728119947195726
40
0.735891606843617
40
0.743663266491508
40
0.751434926139399
40
0.759206585787291
40
0.766978245435182
40
0.782521564730964
40
0.790293224378855
40
0.798064884026746
40
0.805836543674638
40
0.813608203322529
40
0.82137986297042
40
0.829151522618311
40
0.844694841914094
40
0.852466501561985
40
0.860238161209876
40
0.868009820857767
40
0.875781480505658
40
0.891324799801441
40
0.899096459449332
40
0.906868119097223
40
0.914639778745114
40
0.922411438393005
40
0.930183098040896
40
0.937954757688788
40
0.945726417336679
40
0.95349807698457
40
0.961269736632461
40
0.969041396280352
40
0.976813055928244
40
0.984584715576135
40
0.992356375224026
40
1
40
1
40
1
40
1
41
1
10
-1.69999999999999
20
2.5837250319525
30
0
41
1
10
-1.69999999999999
20
2.62111400924692
30
0
41
1
10
-1.69999999999999
20
2.71257747842986
30
0
41
1
10
-1.69999999999999
20
2.85743848960826
30
0
41
1
10
-1.69999999999999
20
3.01805529196176
30
0
41
1
10
-1.69999999999999
20
3.17766896347746
30
0
41
1
10
-1.69999999999999
20
3.33626946559076
30
0
41
1
10
-1.69999999999999
20
3.49384788295134
30
0
41
1
10
-1.69999999999999
20
3.65039703338328
30
0
41
1
10
-1.69999999999999
20
3.80591068333541
30
0
41
1
10
-1.69999999999999
20
3.9603838288908
30
0
41
1
10
-1.69999999999999
20
4.11381118090259
30
0
41
1
10
-1.69999999999999
20
4.26618881241484
30
0
41
1
10
-1.69999999999999
20
4.41751369191317
30
0
41
1
10
-1.69999999999999
20
4.56778315161375
30
0
41
1
10
-1.69999999999999
20
4.7169946256985
30
0
41
1
10
-1.69999999999999
20
4.86514572624662
30
0
41
1
10
-1.69999999999999
20
5.01223421717728
30
0
41
1
10
-1.69999999999999
20
5.15825863689906
30
0
41
1
10
-1.69999999999999
20
5.30321731736851
30
0
41
1
10
-1.69999999999999
20
5.44710902267545
30
0
41
1
10
-1.69999999999999
20
5.58993219435266
30
0
41
1
10
-1.69999999999999
20
5.77892152593586
30
0
41
1
10
-1.69999999999999
20
6.01251450148573
30
0
41
1
10
-1.69999999999999
20
6.28851702131561
30
0
41
1
10
-1.69999999999999
20
6.56021849497904
30
0
41
1
10
-1.69999999999999
20
6.78305839594086
30
0
41
1
10
-1.69999999999999
20
6.95914718913937
30
0
41
1
10
-1.69999999999999
20
7.0901422748378
30
0
41
1
10
-1.69999999999999
20
7.22005471809891
30
0
41
1
10
-1.69999999999999
20
7.391814483107
30
0
41
1
10
-1.69999999999999
20
7.60382757721297
30
0
41
1
10
-1.69999999999999
20
7.81221412115067
30
0
41
1
10
-1.69999999999999
20
7.97672004102665
30
0
41
1
10
-1.69999999999999
20
8.09901466976936
30
0
41
1
10
-1.69999999999999
20
8.22021382021134
30
0
41
1
10
-1.69999999999999
20
8.34031608257325
30
0
41
1
10
-1.69999999999999
20
8.45931946186533
30
0
41
1
10
-1.69999999999999
20
8.61651163422607
30
0
41
1
10
-1.69999999999999
20
8.77152769372714
30
0
41
1
10
-1.69999999999999
20
8.92429762219672
30
0
41
1
10
-1.69999999999999
20
9.07558728630886
30
0
41
1
10
-1.69999999999999
20
9.26193699842017
30
0
41
1
10
-1.69999999999999
20
9.44455857133374
30
0
41
1
10
-1.69999999999999
20
9.58839009925038
30
0
41
1
10
-1.69999999999999
20
9.73071863089592
30
0
41
1
10
-1.69999999999999
20
9.87081045044334
30
0
41
1
10
-1.69999999999999
20
9.99138145148612
30
0
41
1
10
-1.69999999999999
20
10.059706595653
30
0
41
1
10
-1.69999999999999
20
10.127650582945
30
0
41
1
10
-1.69999999999999
20
10.2118742978003
30
0
41
1
10
-1.69999999999999
20
10.3450861597474
30
0
41
1
10
-1.69999999999999
20
10.4760157822056
30
0
41
1
10
-1.69999999999999
20
10.6046008653873
30
0
41
1
10
-1.69999999999999
20
10.6998796625668
30
0
41
1
10
-1.69999999999999
20
10.7939888545435
30
0
41
1
10
-1.69999999999999
20
10.8869237943964
30
0
41
1
10
-1.69999999999999
20
10.9786794570574
30
0
41
1
10
-1.69999999999999
20
11.069250952524
30
0
41
1
10
-1.69999999999999
20
11.1586337774266
30
0
41
1
10
-1.69999999999999
20
11.2468221981049
30
0
41
1
10
-1.69999999999999
20
11.3338110691597
30
0
41
1
10
-1.69999999999999
20
11.4481829097131
30
0
41
1
10
-1.69999999999999
20
11.5601529310588
30
0
41
1
10
-1.69999999999999
20
11.6696587897978
30
0
41
1
10
-1.69999999999999
20
11.7505641463283
30
0
41
1
10
-1.69999999999999
20
11.8169591619061
30
0
41
1
10
-1.69999999999999
20
11.869448828233
30
0
41
1
10
-1.69999999999999
20
11.9215236271769
30
0
41
1
10
-1.69999999999999
20
11.9858436943514
30
0
41
1
10
-1.69999999999999
20
12.0617686735772
30
0
41
1
10
-1.69999999999999
20
12.1364317035572
30
0
41
1
10
-1.69999999999999
20
12.2098248313331
30
0
41
1
10
-1.69999999999999
20
12.2819407102379
30
0
41
1
10
-1.69999999999999
20
12.3763763795169
30
0
41
1
10
-1.69999999999999
20
12.4912006631364
30
0
41
1
10
-1.69999999999999
20
12.6016599065257
30
0
41
1
10
-1.69999999999999
20
12.687362440577
30
0
41
1
10
-1.69999999999999
20
12.7712834981639
30
0
41
1
10
-1.69999999999999
20
12.8525264302737
30
0
41
1
10
-1.69999999999999
20
12.9310230820619
30
0
41
1
10
-1.69999999999999
20
12.9885221046098
30
0
41
1
10
-1.69999999999999
20
13.0446338377524
30
0
41
1
10
-1.69999999999999
20
13.0993474417035
30
0
41
1
10
-1.69999999999999
20
13.1526505331688
30
0
41
1
10
-1.69999999999999
20
13.2045321176789
30
0
41
1
10
-1.69999999999999
20
13.2549799687684
30
0
41
1
10
-1.69999999999999
20
13.3203101272292
30
0
41
1
10
-1.69999999999999
20
13.3827344481881
30
0
41
1
10
-1.69999999999999
20
13.4421723383994
30
0
41
1
10
-1.69999999999999
20
13.4852529409442
30
0
41
1
10
-1.69999999999999
20
13.5268172136993
30
0
41
1
10
-1.69999999999999
20
13.5668499598694
30
0
41
1
10
-1.69999999999999
20
13.6053356175566
30
0
41
1
10
-1.69999999999999
20
13.6545611570253
30
0
41
1
10
-1.69999999999999
20
13.7006353167884
30
0
41
1
10
-1.69999999999999
20
13.7434661079967
30
0
41
1
10
-1.69999999999999
20
13.7739560268625
30
0
41
1
10
-1.69999999999999
20
13.8027899277569
30
0
41
1
10
-1.69999999999999
20
13.8389980176944
30
0
41
1
10
-1.69999999999999
20
13.8718187984145
30
0
41
1
10
-1.69999999999999
20
13.9011479145568
30
0
41
1
10
-1.69999999999999
20
13.9213794981548
30
0
41
1
10
-1.69999999999999
20
13.9398197437578
30
0
41
1
10
-1.69999999999999
20
13.9564420504847
30
0
41
1
10
-1.69999999999999
20
13.9712195410175
30
0
41
1
10
-1.69999999999999
20
13.9841238377961
30
0
41
1
10
-1.69999999999999
20
13.9951249982352
30
0
41
1
10
-1.69999999999999
20
14.0041924220526
30
0
41
1
10
-1.69999999999999
20
14.0112932507837
30
0
41
1
10
-1.69999999999999
20
14.0163938901866
30
0
41
1
10
-1.69999999999999
20
14.019458382701
30
0
41
1
10
-1.69999999999999
20
14.0204497516689
30
0
41
1
10
-1.69999999999999
20
14.0193347369004
30
0
41
1
10
-1.70000000000002
20
14.0171811880404
30
0
41
1
10
-1.69999999999993
20
14.0157592855012
30
0
0
SPLINE
5
16E
100
AcDbEntity
8
SK1
62
256
6
ByLayer
370
18
48
1
60
0
100
AcDbSpline
70
4
71
3
72
118
73
114
40
0
40
0
40
0
40
0
40
0.0076461639190052
40
0.015417803714398
40
0.0231894435097908
40
0.0309610833051837
40
0.0387327231005765
40
0.0465043628959693
40
0.0542760026913621
40
0.062047642486755
40
0.0698192822821478
40
0.0775909220775407
40
0.0931342016683263
40
0.108677481259112
40
0.124220760849898
40
0.13199240064529
40
0.139764040440683
40
0.147535680236076
40
0.155307320031469
40
0.170850599622255
40
0.178622239417647
40
0.18639387921304
40
0.194165519008433
40
0.201937158803826
40
0.209708798599219
40
0.217480438394612
40
0.233023717985397
40
0.24079535778079
40
0.248566997576183
40
0.256338637371576
40
0.264110277166969
40
0.271881916962361
40
0.279653556757754
40
0.287425196553147
40
0.29519683634854
40
0.310740115939326
40
0.318511755734719
40
0.326283395530111
40
0.341826675120897
40
0.357369954711683
40
0.365141594507075
40
0.372913234302468
40
0.380684874097861
40
0.388456513893254
40
0.396228153688647
40
0.40399979348404
40
0.407885613381736
40
0.411771433279432
40
0.419543073074825
40
0.427314712870218
40
0.435086352665611
40
0.450629632256397
40
0.458401272051789
40
0.466172911847182
40
0.473944551642575
40
0.481716191437968
40
0.489487831233361
40
0.497259471028754
40
0.505031110824146
40
0.512802750619539
40
0.520574390414932
40
0.528346030210325
40
0.543889309801111
40
0.551660949596503
40
0.559432589391896
40
0.563318409289593
40
0.567204229187289
40
0.574975868982682
40
0.590519148573467
40
0.59829078836886
40
0.606062428164253
40
0.621605707755039
40
0.637148987345824
40
0.644920627141217
40
0.65269226693661
40
0.668235546527396
40
0.676007186322789
40
0.683778826118182
40
0.691550465913574
40
0.699322105708967
40
0.70709374550436
40
0.714865385299753
40
0.730408664890538
40
0.745951944481324
40
0.753723584276717
40
0.76149522407211
40
0.769266863867503
40
0.777038503662895
40
0.792581783253681
40
0.808125062844467
40
0.823668342435252
40
0.839211622026038
40
0.846983261821431
40
0.854754901616824
40
0.862526541412217
40
0.870298181207609
40
0.878069821003002
40
0.885841460798395
40
0.893613100593788
40
0.901384740389181
40
0.909156380184574
40
0.916928019979966
40
0.924699659775359
40
0.932471299570752
40
0.940242939366145
40
0.948014579161538
40
0.955786218956931
40
0.963557858752323
40
0.971329498547716
40
0.979101138343109
40
0.986872778138502
40
0.994644417933895
40
1
40
1
40
1
40
1
41
1
10
-1.70000000000002
20
-14.0157582212158
30
0
41
1
10
-1.70000000000002
20
-14.0171808697676
30
0
41
1
10
-1.69999999999996
20
-14.0193350222336
30
0
41
1
10
-1.69999999999999
20
-14.0204498319149
30
0
41
1
10
-1.69999999999999
20
-14.0194577493028
30
0
41
1
10
-1.69999999999999
20
-14.0163929237538
30
0
41
1
10
-1.69999999999999
20
-14.0112928179987
30
0
41
1
10
-1.69999999999999
20
-14.0041925984504
30
0
41
1
10
-1.69999999999999
20
-13.9951252442004
30
0
41
1
10
-1.69999999999999
20
-13.9841239086368
30
0
41
1
10
-1.69999999999999
20
-13.9712195253815
30
0
41
1
10
-1.69999999999999
20
-13.9515178138587
30
0
41
1
10
-1.69999999999999
20
-13.9222750232465
30
0
41
1
10
-1.69999999999999
20
-13.8800204120324
30
0
41
1
10
-1.69999999999999
20
-13.838998019961
30
0
41
1
10
-1.69999999999999
20
-13.8027899045868
30
0
41
1
10
-1.69999999999999
20
-13.773955994413
30
0
41
1
10
-1.69999999999999
20
-13.7434660879001
30
0
41
1
10
-1.69999999999999
20
-13.7006353174901
30
0
41
1
10
-1.69999999999999
20
-13.6545611373555
30
0
41
1
10
-1.69999999999999
20
-13.6053355893185
30
0
41
1
10
-1.69999999999999
20
-13.5668499361124
30
0
41
1
10
-1.69999999999999
20
-13.5268172028035
30
0
41
1
10
-1.69999999999999
20
-13.485252935173
30
0
41
1
10
-1.69999999999999
20
-13.4421723218484
30
0
41
1
10
-1.69999999999999
20
-13.3827344162836
30
0
41
1
10
-1.69999999999999
20
-13.3203101073726
30
0
41
1
10
-1.69999999999999
20
-13.254979960848
30
0
41
1
10
-1.69999999999999
20
-13.2045321061977
30
0
41
1
10
-1.69999999999999
20
-13.1526505121852
30
0
41
1
10
-1.69999999999999
20
-13.099347414251
30
0
41
1
10
-1.69999999999999
20
-13.0446338149516
30
0
41
1
10
-1.69999999999999
20
-12.9885220902628
30
0
41
1
10
-1.69999999999999
20
-12.9310230723471
30
0
41
1
10
-1.69999999999999
20
-12.8525264142953
30
0
41
1
10
-1.69999999999999
20
-12.7712834714132
30
0
41
1
10
-1.69999999999999
20
-12.6873624197502
30
0
41
1
10
-1.69999999999999
20
-12.6016598943421
30
0
41
1
10
-1.69999999999999
20
-12.4912006491746
30
0
41
1
10
-1.69999999999999
20
-12.3763763558488
30
0
41
1
10
-1.69999999999999
20
-12.2819406900945
30
0
41
1
10
-1.69999999999999
20
-12.209824815618
30
0
41
1
10
-1.69999999999999
20
-12.1364316894724
30
0
41
1
10
-1.69999999999999
20
-12.0617686582407
30
0
41
1
10
-1.69999999999999
20
-11.9858436758677
30
0
41
1
10
-1.69999999999999
20
-11.9215236068653
30
0
41
1
10
-1.69999999999999
20
-11.8694488081267
30
0
41
1
10
-1.69999999999999
20
-11.8169591426362
30
0
41
1
10
-1.69999999999999
20
-11.7505641289662
30
0
41
1
10
-1.69999999999999
20
-11.6696587742526
30
0
41
1
10
-1.69999999999999
20
-11.5601529159528
30
0
41
1
10
-1.69999999999999
20
-11.448182891669
30
0
41
1
10
-1.69999999999999
20
-11.3338110499831
30
0
41
1
10
-1.69999999999999
20
-11.2468221792499
30
0
41
1
10
-1.69999999999999
20
-11.1586337603462
30
0
41
1
10
-1.69999999999999
20
-11.0692509372408
30
0
41
1
10
-1.69999999999999
20
-10.9786794422307
30
0
41
1
10
-1.69999999999999
20
-10.8869237783616
30
0
41
1
10
-1.69999999999999
20
-10.7939888359847
30
0
41
1
10
-1.69999999999999
20
-10.6998796425436
30
0
41
1
10
-1.69999999999999
20
-10.6046008465563
30
0
41
1
10
-1.69999999999999
20
-10.4760157679139
30
0
41
1
10
-1.69999999999999
20
-10.3450861470912
30
0
41
1
10
-1.69999999999999
20
-10.2118742799613
30
0
41
1
10
-1.69999999999999
20
-10.1276505623382
30
0
41
1
10
-1.69999999999999
20
-10.0597065749413
30
0
41
1
10
-1.69999999999999
20
-9.9913814320609
30
0
41
1
10
-1.69999999999999
20
-9.87081043657869
30
0
41
1
10
-1.69999999999999
20
-9.73071862052217
30
0
41
1
10
-1.69999999999999
20
-9.58839008121353
30
0
41
1
10
-1.69999999999999
20
-9.44455854729449
30
0
41
1
10
-1.69999999999999
20
-9.26193698423123
30
0
41
1
10
-1.69999999999999
20
-9.07558727703642
30
0
41
1
10
-1.69999999999999
20
-8.92429760284432
30
0
41
1
10
-1.69999999999999
20
-8.77152766795061
30
0
41
1
10
-1.69999999999999
20
-8.61651162008161
30
0
41
1
10
-1.69999999999999
20
-8.45931945344486
30
0
41
1
10
-1.69999999999999
20
-8.34031606829598
30
0
41
1
10
-1.69999999999999
20
-8.22021379775831
30
0
41
1
10
-1.69999999999999
20
-8.09901464495698
30
0
41
1
10
-1.69999999999999
20
-7.9767200242907
30
0
41
1
10
-1.69999999999999
20
-7.81221411547432
30
0
41
1
10
-1.69999999999999
20
-7.60382755625838
30
0
41
1
10
-1.69999999999999
20
-7.39181445781463
30
0
41
1
10
-1.69999999999999
20
-7.22005470774221
30
0
41
1
10
-1.69999999999999
20
-7.09014226669851
30
0
41
1
10
-1.69999999999999
20
-6.95914717066265
30
0
41
1
10
-1.69999999999999
20
-6.7830583657493
30
0
41
1
10
-1.69999999999999
20
-6.56021848903171
30
0
41
1
10
-1.69999999999999
20
-6.28851700104784
30
0
41
1
10
-1.69999999999999
20
-6.01251447744062
30
0
41
1
10
-1.69999999999999
20
-5.77892152059965
30
0
41
1
10
-1.69999999999999
20
-5.58993216915877
30
0
41
1
10
-1.69999999999999
20
-5.44710899667646
30
0
41
1
10
-1.69999999999999
20
-5.30321729486519
30
0
41
1
10
-1.69999999999999
20
-5.15825857839869
30
0
41
1
10
-1.69999999999999
20
-5.01223405348068
30
0
41
1
10
-1.69999999999999
20
-4.86514556778678
30
0
41
1
10
-1.69999999999999
20
-4.71699468615466
30
0
41
1
10
-1.69999999999999
20
-4.56778337246482
30
0
41
1
10
-1.69999999999999
20
-4.41751381174834
30
0
41
1
10
-1.69999999999999
20
-4.26618872973953
30
0
41
1
10
-1.69999999999999
20
-4.11381092681606
30
0
41
1
10
-1.69999999999999
20
-3.96038358832212
30
0
41
1
10
-1.69999999999999
20
-3.80591077742719
30
0
41
1
10
-1.69999999999999
20
-3.65039714326571
30
0
41
1
10
-1.69999999999999
20
-3.49384789900154
30
0
41
1
10
-1.69999999999999
20
-3.33626943234705
30
0
41
1
10
-1.69999999999999
20
-3.17766893265431
30
0
41
1
10
-1.69999999999999
20
-3.01805527431182
30
0
41
1
10
-1.69999999999999
20
-2.85743846779499
30
0
41
1
10
-1.69999999999999
20
-2.71257747642741
30
0
41
1
10
-1.69999999999999
20
-2.62111404232408
30
0
41
1
10
-1.69999999999999
20
-2.58372509632827
30
0
0
SPLINE
5
16F
100
AcDbEntity
8
SK1
62
256
6
ByLayer
370
18
48
1
60
0
100
AcDbSpline
70
4
71
3
72
287
73
283
40
0
40
0
40
0
40
0
40
0.0011530358898755
40
0.004641479683779
40
0.0081299234776825
40
0.011618367271586
40
0.0151068110654895
40
0.018595254859393
40
0.0220836986532965
40
0.0255721424472
40
0.0290605862411035
40
0.0325490300350069
40
0.0395259176228139
40
0.0465028052106209
40
0.0534796927984279
40
0.0569681365923314
40
0.0604565803862349
40
0.0639450241801384
40
0.0674334679740419
40
0.0744103555618489
40
0.0778987993557524
40
0.0813872431496559
40
0.0848756869435594
40
0.0883641307374629
40
0.0918525745313664
40
0.0953410183252698
40
0.102317905913077
40
0.10580634970698
40
0.109294793500884
40
0.112783237294787
40
0.116271681088691
40
0.119760124882594
40
0.123248568676498
40
0.126737012470401
40
0.130225456264305
40
0.137202343852112
40
0.140690787646015
40
0.144179231439919
40
0.151156119027726
40
0.158133006615533
40
0.161621450409436
40
0.16510989420334
40
0.168598337997243
40
0.172086781791147
40
0.17557522558505
40
0.179063669378954
40
0.180807891275905
40
0.182552113172857
40
0.186040556966761
40
0.189529000760664
40
0.193017444554568
40
0.199994332142375
40
0.203482775936278
40
0.206971219730182
40
0.210459663524085
40
0.213948107317989
40
0.217436551111892
40
0.220924994905796
40
0.224413438699699
40
0.227901882493603
40
0.231390326287506
40
0.23487877008141
40
0.241855657669217
40
0.24534410146312
40
0.248832545257024
40
0.250576767153975
40
0.252320989050927
40
0.255809432844831
40
0.262786320432638
40
0.266274764226541
40
0.269763208020445
40
0.276740095608252
40
0.283716983196058
40
0.287205426989962
40
0.290693870783865
40
0.297670758371673
40
0.301159202165576
40
0.30464764595948
40
0.308136089753383
40
0.311624533547286
40
0.31511297734119
40
0.318601421135093
40
0.325578308722901
40
0.332555196310708
40
0.336043640104611
40
0.339532083898515
40
0.343020527692418
40
0.346508971486321
40
0.353485859074128
40
0.360462746661936
40
0.367439634249742
40
0.374416521837549
40
0.377904965631453
40
0.381393409425356
40
0.38488185321926
40
0.388370297013163
40
0.391858740807067
40
0.39534718460097
40
0.398835628394874
40
0.402324072188777
40
0.405812515982681
40
0.409300959776584
40
0.412789403570488
40
0.416277847364391
40
0.419766291158295
40
0.423254734952198
40
0.426743178746102
40
0.430231622540005
40
0.433720066333909
40
0.437208510127812
40
0.440696953921716
40
0.444185397715619
40
0.447673841509523
40
0.449418063406475
40
0.451162285303426
40
0.45465072909733
40
0.456394950994282
40
0.458139172891233
40
0.459883394788185
40
0.461627616685137
40
0.463371838582089
40
0.46511606047904
40
0.466860282375992
40
0.468604504272944
40
0.472092948066847
40
0.473837169963799
40
0.475581391860751
40
0.477325613757703
40
0.479069835654654
40
0.480814057551606
40
0.482558279448558
40
0.48430250134551
40
0.486046723242461
40
0.487790945139413
40
0.489535167036365
40
0.491279388933317
40
0.493023610830268
40
0.49476783272722
40
0.496512054624172
40
0.498256276521123
40
0.500000498418075
40
0.501744720315027
40
0.503488942211979
40
0.50523316410893
40
0.506977386005882
40
0.508721607902834
40
0.510465829799786
40
0.512210051696738
40
0.513954273593689
40
0.515698495490641
40
0.517442717387593
40
0.519186939284544
40
0.520931161181496
40
0.522675383078448
40
0.5244196049754
40
0.526163826872352
40
0.527908048769303
40
0.531396492563207
40
0.533140714460158
40
0.53488493635711
40
0.536629158254062
40
0.538373380151014
40
0.540117602047965
40
0.541861823944917
40
0.543606045841869
40
0.545350267738821
40
0.548838711532724
40
0.550582933429676
40
0.552327155326628
40
0.555815599120531
40
0.559304042914435
40
0.562792486708338
40
0.566280930502242
40
0.569769374296145
40
0.573257818090049
40
0.576746261883952
40
0.580234705677856
40
0.583723149471759
40
0.587211593265663
40
0.590700037059566
40
0.59418848085347
40
0.597676924647373
40
0.601165368441277
40
0.60465381223518
40
0.608142256029083
40
0.611630699822987
40
0.615119143616891
40
0.618607587410794
40
0.622096031204697
40
0.625584474998601
40
0.632561362586408
40
0.639538250174215
40
0.646515137762022
40
0.653492025349829
40
0.656980469143732
40
0.660468912937636
40
0.66395735673154
40
0.667445800525443
40
0.67442268811325
40
0.681399575701057
40
0.68488801949496
40
0.688376463288864
40
0.691864907082767
40
0.695353350876671
40
0.698841794670574
40
0.702330238464478
40
0.709307126052285
40
0.712795569846188
40
0.716284013640092
40
0.723260901227899
40
0.730237788815706
40
0.733726232609609
40
0.737214676403513
40
0.74419156399132
40
0.747680007785223
40
0.749424229682175
40
0.751168451579127
40
0.75465689537303
40
0.758145339166934
40
0.765122226754741
40
0.768610670548644
40
0.772099114342548
40
0.775587558136451
40
0.779076001930355
40
0.782564445724258
40
0.786052889518162
40
0.789541333312065
40
0.793029777105969
40
0.796518220899872
40
0.800006664693776
40
0.806983552281583
40
0.810471996075486
40
0.81396043986939
40
0.817448883663293
40
0.819193105560245
40
0.820937327457197
40
0.8244257712511
40
0.827914215045004
40
0.831402658838907
40
0.834891102632811
40
0.838379546426714
40
0.841867990220618
40
0.848844877808425
40
0.855821765396232
40
0.859310209190135
40
0.862798652984039
40
0.869775540571846
40
0.873263984365749
40
0.876752428159653
40
0.880240871953556
40
0.883729315747459
40
0.887217759541363
40
0.890706203335267
40
0.89419464712917
40
0.897683090923073
40
0.904659978510881
40
0.908148422304784
40
0.911636866098688
40
0.915125309892591
40
0.918613753686495
40
0.922102197480398
40
0.925590641274302
40
0.932567528862109
40
0.936055972656012
40
0.939544416449915
40
0.943032860243819
40
0.946521304037722
40
0.95349819162553
40
0.956986635419433
40
0.960475079213337
40
0.96396352300724
40
0.967451966801144
40
0.970940410595047
40
0.974428854388951
40
0.977917298182854
40
0.981405741976757
40
0.984894185770661
40
0.988382629564564
40
0.991871073358468
40
0.995359517152372
40
0.998847960946275
40
1
40
1
40
1
40
1
41
1
10
-22.5
20
-13.4956358747152
30
0
41
1
10
-22.5
20
-13.4959444041748
30
0
41
1
10
-22.5
20
-13.497033692898
30
0
41
1
10
-22.5
20
-13.4978716184631
30
0
41
1
10
-22.5
20
-13.4969161903089
30
0
41
1
10
-22.5
20
-13.4939625245411
30
0
41
1
10
-22.5
20
-13.4890441905268
30
0
41
1
10
-22.5
20
-13.4821928739338
30
0
41
1
10
-22.5
20
-13.4734382711797
30
0
41
1
10
-22.5
20
-13.4628104278487
30
0
41
1
10
-22.5
20
-13.4503375493538
30
0
41
1
10
-22.5
20
-13.4312436783152
30
0
41
1
10
-22.5
20
-13.402990048048
30
0
41
1
10
-22.5
20
-13.3620642251226
30
0
41
1
10
-22.5
20
-13.3223661774289
30
0
41
1
10
-22.5
20
-13.2871835761246
30
0
41
1
10
-22.5
20
-13.2592104836088
30
0
41
1
10
-22.5
20
-13.2296213566399
30
0
41
1
10
-22.5
20
-13.1879639126742
30
0
41
1
10
-22.5
20
-13.1433841284413
30
0
41
1
10
-22.5
20
-13.0954724183383
30
0
41
1
10
-22.5
20
-13.0580720783436
30
0
41
1
10
-22.5
20
-13.0191589474766
30
0
41
1
10
-22.5
20
-12.9787481075024
30
0
41
1
10
-22.5
20
-12.9368537004398
30
0
41
1
10
-22.5
20
-12.8789379874313
30
0
41
1
10
-22.5
20
-12.8184132188765
30
0
41
1
10
-22.5
20
-12.7547247883428
30
0
41
1
10
-22.5
20
-12.7056201369325
30
0
41
1
10
-22.5
20
-12.6551113810006
30
0
41
1
10
-22.5
20
-12.6032111684974
30
0
41
1
10
-22.5
20
-12.5499297998313
30
0
41
1
10
-22.5
20
-12.4952790326449
30
0
41
1
10
-22.5
20
-12.4392702770472
30
0
41
1
10
-22.5
20
-12.3626709718699
30
0
41
1
10
-22.5
20
-12.2837700633604
30
0
41
1
10
-22.5
20
-12.2018541666219
30
0
41
1
10
-22.5
20
-12.1181901660327
30
0
41
1
10
-22.5
20
-12.0106580823312
30
0
41
1
10
-22.5
20
-11.8988607853737
30
0
41
1
10
-22.5
20
-11.8066390784571
30
0
41
1
10
-22.5
20
-11.7363216027856
30
0
41
1
10
-22.5
20
-11.6647550005754
30
0
41
1
10
-22.5
20
-11.59194615036
30
0
41
1
10
-22.5
20
-11.5179033392113
30
0
41
1
10
-22.5
20
-11.4552554262223
30
0
41
1
10
-22.5
20
-11.4043880916922
30
0
41
1
10
-22.5
20
-11.3531143221947
30
0
41
1
10
-22.5
20
-11.2884404549429
30
0
41
1
10
-22.5
20
-11.2095312020911
30
0
41
1
10
-22.5
20
-11.1025558247745
30
0
41
1
10
-22.5
20
-10.9936883814227
30
0
41
1
10
-22.5
20
-10.881957392112
30
0
41
1
10
-22.5
20
-10.7971107518715
30
0
41
1
10
-22.5
20
-10.7110949831286
30
0
41
1
10
-22.5
20
-10.6239149454148
30
0
41
1
10
-22.5
20
-10.5355769819029
30
0
41
1
10
-22.5
20
-10.4460865275718
30
0
41
1
10
-22.5
20
-10.3554481215356
30
0
41
1
10
-22.5
20
-10.2636670923514
30
0
41
1
10
-22.5
20
-10.1707494549495
30
0
41
1
10
-22.5
20
-10.0451570413025
30
0
41
1
10
-22.5
20
-9.9178935930201
30
0
41
1
10
-22.5
20
-9.78780083934149
30
0
41
1
10
-22.5
20
-9.70579078784201
30
0
41
1
10
-22.5
20
-9.63944489130401
30
0
41
1
10
-22.5
20
-9.57273011219269
30
0
41
1
10
-22.5
20
-9.45508832781687
30
0
41
1
10
-22.5
20
-9.31898450356377
30
0
41
1
10
-22.5
20
-9.18004983919923
30
0
41
1
10
-22.5
20
-9.03966368952013
30
0
41
1
10
-22.5
20
-8.86197296792949
30
0
41
1
10
-22.5
20
-8.68069429175793
30
0
41
1
10
-22.5
20
-8.53310893756458
30
0
41
1
10
-22.5
20
-8.38410353449396
30
0
41
1
10
-22.5
20
-8.23370690743869
30
0
41
1
10
-22.5
20
-8.08045168982594
30
0
41
1
10
-22.5
20
-7.96465014223952
30
0
41
1
10
-22.5
20
-7.84779993569691
30
0
41
1
10
-22.5
20
-7.72990617143802
30
0
41
1
10
-22.5
20
-7.61097083499584
30
0
41
1
10
-22.5
20
-7.45073654157579
30
0
41
1
10
-22.5
20
-7.24848505186407
30
0
41
1
10
-22.5
20
-7.04280518235291
30
0
41
1
10
-22.5
20
-6.87569112826711
30
0
41
1
10
-22.5
20
-6.74956632065386
30
0
41
1
10
-22.5
20
-6.62242827644155
30
0
41
1
10
-22.5
20
-6.45125553312127
30
0
41
1
10
-22.5
20
-6.23550102644131
30
0
41
1
10
-22.5
20
-5.97220551217549
30
0
41
1
10
-22.5
20
-5.70495651005669
30
0
41
1
10
-22.5
20
-5.47933703035866
30
0
41
1
10
-22.5
20
-5.29623480232564
30
0
41
1
10
-22.5
20
-5.15823567759486
30
0
41
1
10
-22.5
20
-5.01927995326392
30
0
41
1
10
-22.5
20
-4.87937450907222
30
0
41
1
10
-22.5
20
-4.73852599905979
30
0
41
1
10
-22.5
20
-4.59674211262629
30
0
41
1
10
-22.5
20
-4.45403157575558
30
0
41
1
10
-22.5
20
-4.31040309161108
30
0
41
1
10
-22.5
20
-4.16586580001649
30
0
41
1
10
-22.5
20
-4.02043049501106
30
0
41
1
10
-22.5
20
-3.87410976932693
30
0
41
1
10
-22.5
20
-3.72691565105669
30
0
41
1
10
-22.5
20
-3.57886126909131
30
0
41
1
10
-22.5
20
-3.4299627769704
30
0
41
1
10
-22.5
20
-3.28023687778401
30
0
41
1
10
-22.5
20
-3.12970257053468
30
0
41
1
10
-22.5
20
-2.97838003358396
30
0
41
1
10
-22.5
20
-2.8262921676581
30
0
41
1
10
-22.5
20
-2.67346525953189
30
0
41
1
10
-22.5
20
-2.51992549648591
30
0
41
1
10
-22.5
20
-2.39172828921559
30
0
41
1
10
-22.5
20
-2.2882368400623
30
0
41
1
10
-22.5
20
-2.18454587114542
30
0
41
1
10
-22.5
20
-2.08161602870015
30
0
41
1
10
-22.5
20
-1.97729727415896
30
0
41
1
10
-22.5
20
-1.89920682890118
30
0
41
1
10
-22.5
20
-1.82098464012651
30
0
41
1
10
-22.5
20
-1.74263823347056
30
0
41
1
10
-22.5
20
-1.66417084854152
30
0
41
1
10
-22.5
20
-1.58559123041411
30
0
41
1
10
-22.5
20
-1.50690426712365
30
0
41
1
10
-22.5
20
-1.40144074045128
30
0
41
1
10
-22.5
20
-1.29707563275716
30
0
41
1
10
-22.5
20
-1.19121858421377
30
0
41
1
10
-22.5
20
-1.11209553564783
30
0
41
1
10
-22.5
20
-1.03290644237791
30
0
41
1
10
-22.5
20
-0.95365606681014
30
0
41
1
10
-22.5
20
-0.874352168955852
30
0
41
1
10
-22.5
20
-0.795000198505278
30
0
41
1
10
-22.5
20
-0.71560660892132
30
0
41
1
10
-22.5
20
-0.63617666680787
30
0
41
1
10
-22.5
20
-0.556715993884097
30
0
41
1
10
-22.5
20
-0.477229338262958
30
0
41
1
10
-22.5
20
-0.397721593521055
30
0
41
1
10
-22.5
20
-0.318196568076161
30
0
41
1
10
-22.5
20
-0.238658582119825
30
0
41
1
10
-22.5
20
-0.159110826532412
30
0
41
1
10
-22.5
20
-0.0795570008675952
30
0
41
1
10
-22.5
20
4.3520458E-09
30
0
41
1
10
-22.5
20
0.0795570195282949
30
0
41
1
10
-22.5
20
0.159110863620981
30
0
41
1
10
-22.5
20
0.238658616598514
30
0
41
1
10
-22.5
20
0.318196574925025
30
0
41
1
10
-22.5
20
0.397721596430074
30
0
41
1
10
-22.5
20
0.477229377934975
30
0
41
1
10
-22.5
20
0.556716044364009
30
0
41
1
10
-22.5
20
0.63617667254502
30
0
41
1
10
-22.5
20
0.715606595157226
30
0
41
1
10
-22.5
20
0.795000235128668
30
0
41
1
10
-22.5
20
0.874352236673616
30
0
41
1
10
-22.5
20
0.953656082911976
30
0
41
1
10
-22.5
20
1.03290641330761
30
0
41
1
10
-22.5
20
1.11209555133374
30
0
41
1
10
-22.5
20
1.19121866112906
30
0
41
1
10
-22.5
20
1.29707565327635
30
0
41
1
10
-22.5
20
1.40144071039387
30
0
41
1
10
-22.5
20
1.50690430877853
30
0
41
1
10
-22.5
20
1.58559131690836
30
0
41
1
10
-22.5
20
1.66417088377818
30
0
41
1
10
-22.5
20
1.74263820265685
30
0
41
1
10
-22.5
20
1.82098461234611
30
0
41
1
10
-22.5
20
1.89920687090043
30
0
41
1
10
-22.5
20
1.97729736527978
30
0
41
1
10
-22.5
20
2.08161605220536
30
0
41
1
10
-22.5
20
2.18454583019772
30
0
41
1
10
-22.5
20
2.28823685042079
30
0
41
1
10
-22.5
20
2.39172837491469
30
0
41
1
10
-22.5
20
2.51992552331163
30
0
41
1
10
-22.5
20
2.67346522993279
30
0
41
1
10
-22.5
20
2.82629223006825
30
0
41
1
10
-22.5
20
2.9783800820847
30
0
41
1
10
-22.5
20
3.12970236953149
30
0
41
1
10
-22.5
20
3.2802363758513
30
0
41
1
10
-22.5
20
3.42996282061054
30
0
41
1
10
-22.5
20
3.57886234252629
30
0
41
1
10
-22.5
20
3.72691655621918
30
0
41
1
10
-22.5
20
3.87410940415094
30
0
41
1
10
-22.5
20
4.02042950258553
30
0
41
1
10
-22.5
20
4.1658649918152
30
0
41
1
10
-22.5
20
4.31040320562681
30
0
41
1
10
-22.5
20
4.45403251641869
30
0
41
1
10
-22.5
20
4.59674271442694
30
0
41
1
10
-22.5
20
4.73852585442467
30
0
41
1
10
-22.5
20
4.87937424460151
30
0
41
1
10
-22.5
20
5.01927991936705
30
0
41
1
10
-22.5
20
5.15823571506778
30
0
41
1
10
-22.5
20
5.29623478947158
30
0
41
1
10
-22.5
20
5.47933703089231
30
0
41
1
10
-22.5
20
5.70495655337433
30
0
41
1
10
-22.5
20
5.97220551419213
30
0
41
1
10
-22.5
20
6.23550104742759
30
0
41
1
10
-22.5
20
6.451255571394
30
0
41
1
10
-22.5
20
6.6224282598192
30
0
41
1
10
-22.5
20
6.74956631857708
30
0
41
1
10
-22.5
20
6.87569116366487
30
0
41
1
10
-22.5
20
7.04280522024894
30
0
41
1
10
-22.5
20
7.24848505302427
30
0
41
1
10
-22.5
20
7.4507365478344
30
0
41
1
10
-22.5
20
7.6109708771202
30
0
41
1
10
-22.5
20
7.72990620240671
30
0
41
1
10
-22.5
20
7.84779994085653
30
0
41
1
10
-22.5
20
7.96465013686171
30
0
41
1
10
-22.5
20
8.08045169790759
30
0
41
1
10
-22.5
20
8.23370694014301
30
0
41
1
10
-22.5
20
8.38410356414289
30
0
41
1
10
-22.5
20
8.53310893988203
30
0
41
1
10
-22.5
20
8.68069429599308
30
0
41
1
10
-22.5
20
8.8619729936481
30
0
41
1
10
-22.5
20
9.0396637144479
30
0
41
1
10
-22.5
20
9.18004984465043
30
0
41
1
10
-22.5
20
9.31898451102214
30
0
41
1
10
-22.5
20
9.45508835059127
30
0
41
1
10
-22.5
20
9.57273013875857
30
0
41
1
10
-22.5
20
9.63944491324963
30
0
41
1
10
-22.5
20
9.7057908040384
30
0
41
1
10
-22.5
20
9.7878008492857
30
0
41
1
10
-22.5
20
9.91789360326428
30
0
41
1
10
-22.5
20
10.0451570606616
30
0
41
1
10
-22.5
20
10.1707494782419
30
0
41
1
10
-22.5
20
10.2636671117607
30
0
41
1
10
-22.5
20
10.3554481360506
30
0
41
1
10
-22.5
20
10.4460865401309
30
0
41
1
10
-22.5
20
10.5355769962349
30
0
41
1
10
-22.5
20
10.6239149629423
30
0
41
1
10
-22.5
20
10.7110950034658
30
0
41
1
10
-22.5
20
10.7971107724731
30
0
41
1
10
-22.5
20
10.881957410682
30
0
41
1
10
-22.5
20
10.9936883968037
30
0
41
1
10
-22.5
20
11.1025558384385
30
0
41
1
10
-22.5
20
11.2095312195267
30
0
41
1
10
-22.5
20
11.2884404756242
30
0
41
1
10
-22.5
20
11.3531143441571
30
0
41
1
10
-22.5
20
11.4043881128182
30
0
41
1
10
-22.5
20
11.4552554448703
30
0
41
1
10
-22.5
20
11.5179033535968
30
0
41
1
10
-22.5
20
11.5919461625789
30
0
41
1
10
-22.5
20
11.664755015164
30
0
41
1
10
-22.5
20
11.7363216229303
30
0
41
1
10
-22.5
20
11.8066391033683
30
0
41
1
10
-22.5
20
11.8988608066557
30
0
41
1
10
-22.5
20
12.0106580919609
30
0
41
1
10
-22.5
20
12.1181901818312
30
0
41
1
10
-22.5
20
12.2018541939414
30
0
41
1
10
-22.5
20
12.2837700876339
30
0
41
1
10
-22.5
20
12.3626709807027
30
0
41
1
10
-22.5
20
12.4392702870471
30
0
41
1
10
-22.5
20
12.4952790541085
30
0
41
1
10
-22.5
20
12.5499298292215
30
0
41
1
10
-22.5
20
12.6032111946844
30
0
41
1
10
-22.5
20
12.6551113940766
30
0
41
1
10
-22.5
20
12.7056201424592
30
0
41
1
10
-22.5
20
12.7547247990428
30
0
41
1
10
-22.5
20
12.8184132466048
30
0
41
1
10
-22.5
20
12.8789380178894
30
0
41
1
10
-22.5
20
12.9368537080862
30
0
41
1
10
-22.5
20
12.9787481114295
30
0
41
1
10
-22.5
20
13.0191589652135
30
0
41
1
10
-22.5
20
13.0580721081213
30
0
41
1
10
-22.5
20
13.0954724456838
30
0
41
1
10
-22.5
20
13.143384141029
30
0
41
1
10
-22.5
20
13.1879639125281
30
0
41
1
10
-22.5
20
13.2296213845592
30
0
41
1
10
-22.5
20
13.2592105165633
30
0
41
1
10
-22.5
20
13.2871835921006
30
0
41
1
10
-22.5
20
13.3223661764574
30
0
41
1
10
-22.5
20
13.3540536969874
30
0
41
1
10
-22.5
20
13.3825245595672
30
0
41
1
10
-22.5
20
13.4021158939438
30
0
41
1
10
-22.5
20
13.4199649415155
30
0
41
1
10
-22.5
20
13.4360470510206
30
0
41
1
10
-22.5
20
13.4503375548199
30
0
41
1
10
-22.5
20
13.4628103286331
30
0
41
1
10
-22.5
20
13.4734380181859
30
0
41
1
10
-22.5
20
13.4821927509398
30
0
41
1
10
-22.5
20
13.4890446841776
30
0
41
1
10
-22.5
20
13.4939634903146
30
0
41
1
10
-22.5
20
13.4969168014739
30
0
41
1
10
-22.5
20
13.4978715423881
30
0
41
1
10
-22.5
20
13.4970334673316
30
0
41
1
10
-22.5
20
13.4959444969436
30
0
41
1
10
-22.5
20
13.4956362930801
30
0
0
SPLINE
5
170
100
AcDbEntity
8
SK1
62
256
6
ByLayer
370
18
48
1
60
0
100
AcDbSpline
70
4
71
3
72
119
73
115
40
0
40
0
40
0
40
0
40
0.0017654123580115
40
0.0096870353215597
40
0.0176086582851078
40
0.025530281248656
40
0.0334519042122041
40
0.0413735271757523
40
0.0492951501393004
40
0.0572167731028486
40
0.0651383960663967
40
0.0730600190299449
40
0.080981641993493
40
0.0889032649570412
40
0.0968248879205893
40
0.104746510884138
40
0.112668133847686
40
0.120589756811234
40
0.128511379774782
40
0.13643300273833
40
0.144354625701878
40
0.152276248665426
40
0.160197871628975
40
0.176041117556071
40
0.191884363483167
40
0.207727609410263
40
0.22357085533736
40
0.231492478300908
40
0.239414101264456
40
0.247335724228004
40
0.255257347191552
40
0.271100593118648
40
0.286943839045745
40
0.294865462009293
40
0.302787084972841
40
0.310708707936389
40
0.318630330899937
40
0.326551953863486
40
0.334473576827034
40
0.35031682275413
40
0.358238445717678
40
0.366160068681226
40
0.382003314608323
40
0.397846560535419
40
0.405768183498967
40
0.413689806462515
40
0.429533052389611
40
0.43745467535316
40
0.441415486834934
40
0.445376298316708
40
0.453297921280256
40
0.461219544243804
40
0.4770627901709
40
0.484984413134449
40
0.492906036097997
40
0.500827659061545
40
0.508749282025093
40
0.516670904988641
40
0.524592527952189
40
0.532514150915738
40
0.540435773879286
40
0.548357396842834
40
0.556279019806382
40
0.572122265733478
40
0.580043888697026
40
0.587965511660574
40
0.595887134624123
40
0.599847946105897
40
0.603808757587671
40
0.611730380551219
40
0.619652003514767
40
0.627573626478315
40
0.635495249441863
40
0.643416872405411
40
0.65133849536896
40
0.667181741296056
40
0.683024987223152
40
0.6909466101867
40
0.698868233150249
40
0.714711479077345
40
0.722633102040893
40
0.730554725004441
40
0.738476347967989
40
0.746397970931537
40
0.754319593895086
40
0.762241216858634
40
0.770162839822182
40
0.77808446278573
40
0.793927708712826
40
0.801849331676375
40
0.809770954639923
40
0.817692577603471
40
0.825614200567019
40
0.833535823530567
40
0.841457446494115
40
0.857300692421211
40
0.86522231538476
40
0.873143938348308
40
0.881065561311856
40
0.888987184275404
40
0.9048304302025
40
0.912752053166048
40
0.920673676129597
40
0.928595299093145
40
0.936516922056693
40
0.944438545020241
40
0.952360167983789
40
0.960281790947337
40
0.968203413910885
40
0.976125036874434
40
0.984046659837982
40
0.99196828280153
40
0.999889905765078
40
1
40
1
40
1
40
1
41
1
10
-1.49503997793928
20
2.59465115086957
30
0
41
1
10
-1.49503997793928
20
2.606473243442
30
0
41
1
10
-1.49503997793928
20
2.67130382016646
30
0
41
1
10
-1.49503997793928
20
2.78881794693001
30
0
41
1
10
-1.49503997793928
20
2.94652921585708
30
0
41
1
10
-1.49503997793928
20
3.10333581737226
30
0
41
1
10
-1.49503997793928
20
3.25922160409144
30
0
41
1
10
-1.49503997793928
20
3.4141725129254
30
0
41
1
10
-1.49503997793928
20
3.56817684914566
30
0
41
1
10
-1.49503997793928
20
3.72122348266291
30
0
41
1
10
-1.49503997793928
20
3.87330241838259
30
0
41
1
10
-1.49503997793928
20
4.02440435063471
30
0
41
1
10
-1.49503997793928
20
4.17452257114442
30
0
41
1
10
-1.49503997793928
20
4.32365075555242
30
0
41
1
10
-1.49503997793928
20
4.47178250674139
30
0
41
1
10
-1.49503997793928
20
4.61891187892093
30
0
41
1
10
-1.49503997793928
20
4.7650335666859
30
0
41
1
10
-1.49503997793928
20
4.91014320448997
30
0
41
1
10
-1.49503997793928
20
5.05423700692032
30
0
41
1
10
-1.49503997793928
20
5.19731095699922
30
0
41
1
10
-1.49503997793928
20
5.33936160781602
30
0
41
1
10
-1.49503997793928
20
5.48038543010182
30
0
41
1
10
-1.49503997793928
20
5.66717892451575
30
0
41
1
10
-1.49503997793928
20
5.89779786635279
30
0
41
1
10
-1.49503997793928
20
6.17053537924178
30
0
41
1
10
-1.49503997793928
20
6.43910150489376
30
0
41
1
10
-1.49503997793928
20
6.65929861735816
30
0
41
1
10
-1.49503997793928
20
6.83355374310952
30
0
41
1
10
-1.49503997793928
20
6.96311018885424
30
0
41
1
10
-1.49503997793928
20
7.09160988853208
30
0
41
1
10
-1.49503997793928
20
7.26163684175143
30
0
41
1
10
-1.49503997793928
20
7.47128768043942
30
0
41
1
10
-1.49503997793928
20
7.67738590051292
30
0
41
1
10
-1.49503997793928
20
7.84029855153605
30
0
41
1
10
-1.49503997793928
20
7.96134018717205
30
0
41
1
10
-1.49503997793928
20
8.08130644558901
30
0
41
1
10
-1.49503997793928
20
8.2001957134178
30
0
41
1
10
-1.49503997793928
20
8.31800484031689
30
0
41
1
10
-1.49503997793928
20
8.47372856948019
30
0
41
1
10
-1.49503997793928
20
8.62702161678089
30
0
41
1
10
-1.49503997793928
20
8.7783873974316
30
0
41
1
10
-1.49503997793928
20
8.92829538452324
30
0
41
1
10
-1.49503997793928
20
9.11275364912453
30
0
41
1
10
-1.49503997793928
20
9.2935360539519
30
0
41
1
10
-1.49503997793928
20
9.43608247629777
30
0
41
1
10
-1.49503997793928
20
9.57714512355727
30
0
41
1
10
-1.49503997793928
20
9.71574945872365
30
0
41
1
10
-1.49503997793928
20
9.835227886979
30
0
41
1
10
-1.49503997793928
20
9.90295237623948
30
0
41
1
10
-1.49503997793928
20
9.97030028641953
30
0
41
1
10
-1.49503997793928
20
10.0536983203575
30
0
41
1
10
-1.49503997793928
20
10.1857467801784
30
0
41
1
10
-1.49503997793928
20
10.3153089526253
30
0
41
1
10
-1.49503997793928
20
10.4427777956644
30
0
41
1
10
-1.49503997793928
20
10.537175897834
30
0
41
1
10
-1.49503997793928
20
10.630416702033
30
0
41
1
10
-1.49503997793928
20
10.7224950525573
30
0
41
1
10
-1.49503997793928
20
10.8134058114344
30
0
41
1
10
-1.49503997793928
20
10.9031442186804
30
0
41
1
10
-1.49503997793928
20
10.9917054227684
30
0
41
1
10
-1.49503997793928
20
11.0790834618892
30
0
41
1
10
-1.49503997793928
20
11.165273297363
30
0
41
1
10
-1.49503997793928
20
11.2786601205037
30
0
41
1
10
-1.49503997793928
20
11.3894729046301
30
0
41
1
10
-1.49503997793928
20
11.4980349156059
30
0
41
1
10
-1.49503997793928
20
11.5781957427673
30
0
41
1
10
-1.49503997793928
20
11.6439487843731
30
0
41
1
10
-1.49503997793928
20
11.6959849306732
30
0
41
1
10
-1.49503997793928
20
11.747609354201
30
0
41
1
10
-1.49503997793928
20
11.8113057197552
30
0
41
1
10
-1.49503997793928
20
11.886528664654
30
0
41
1
10
-1.49503997793928
20
11.960500101414
30
0
41
1
10
-1.49503997793928
20
12.0332119519516
30
0
41
1
10
-1.49503997793928
20
12.1046570427268
30
0
41
1
10
-1.49503997793928
20
12.1982669205398
30
0
41
1
10
-1.49503997793928
20
12.3119621581916
30
0
41
1
10
-1.49503997793928
20
12.4213295969168
30
0
41
1
10
-1.49503997793928
20
12.5062717787185
30
0
41
1
10
-1.49503997793928
20
12.5894449263383
30
0
41
1
10
-1.49503997793928
20
12.6698142967672
30
0
41
1
10
-1.49503997793928
20
12.7476032540011
30
0
41
1
10
-1.49503997793928
20
12.8045464232669
30
0
41
1
10
-1.49503997793928
20
12.8601132308426
30
0
41
1
10
-1.49503997793928
20
12.9142926213842
30
0
41
1
10
-1.49503997793928
20
12.9670724454163
30
0
41
1
10
-1.49503997793928
20
13.0184419731185
30
0
41
1
10
-1.49503997793928
20
13.0683888234861
30
0
41
1
10
-1.49503997793928
20
13.133106637017
30
0
41
1
10
-1.49503997793928
20
13.1948224412614
30
0
41
1
10
-1.49503997793928
20
13.2536925631392
30
0
41
1
10
-1.49503997793928
20
13.296330722945
30
0
41
1
10
-1.49503997793928
20
13.3374647797226
30
0
41
1
10
-1.49503997793928
20
13.3770799229021
30
0
41
1
10
-1.49503997793928
20
13.4151607649325
30
0
41
1
10
-1.49503997793928
20
13.4638962511352
30
0
41
1
10
-1.49503997793928
20
13.5094130161235
30
0
41
1
10
-1.49503997793928
20
13.551806168738
30
0
41
1
10
-1.49503997793928
20
13.5819601013665
30
0
41
1
10
-1.49503997793928
20
13.6104729213425
30
0
41
1
10
-1.49503997793928
20
13.646298505966
30
0
41
1
10
-1.49503997793928
20
13.6786965897716
30
0
41
1
10
-1.49503997793928
20
13.7077055842542
30
0
41
1
10
-1.49503997793928
20
13.7276983600542
30
0
41
1
10
-1.49503997793928
20
13.7459180935577
30
0
41
1
10
-1.49503997793928
20
13.7623389110759
30
0
41
1
10
-1.49503997793928
20
13.7769347594832
30
0
41
1
10
-1.49503997793928
20
13.7896781016746
30
0
41
1
10
-1.49503997793928
20
13.800539960484
30
0
41
1
10
-1.49503997793928
20
13.8094907530557
30
0
41
1
10
-1.49503997793928
20
13.8164987457743
30
0
41
1
10
-1.49503997793928
20
13.821531562835
30
0
41
1
10
-1.49503997793928
20
13.8245545856003
30
0
41
1
10
-1.49503997793931
20
13.8252109196372
30
0
41
1
10
-1.49503997793929
20
13.8251847303265
30
0
41
1
10
-1.49503997793928
20
13.8251837302265
30
0
0
SPLINE
5
171
100
AcDbEntity
8
SK1
62
256
6
ByLayer
370
18
48
1
60
0
100
AcDbSpline
70
4
71
3
72
117
73
113
40
0
40
0
40
0
40
0
40
0.0001127260764821
40
0.0080343282053247
40
0.0159559303341673
40
0.0238775324630099
40
0.0317991345918524
40
0.039720736720695
40
0.0476423388495376
40
0.0555639409783802
40
0.0634855431072227
40
0.0793287473649079
40
0.095171951622593
40
0.111015155880278
40
0.118936758009121
40
0.126858360137963
40
0.134779962266806
40
0.142701564395648
40
0.158544768653334
40
0.166466370782176
40
0.174387972911019
40
0.182309575039861
40
0.190231177168704
40
0.198152779297546
40
0.206074381426389
40
0.221917585684074
40
0.229839187812917
40
0.237760789941759
40
0.245682392070602
40
0.253603994199445
40
0.261525596328287
40
0.26944719845713
40
0.277368800585972
40
0.285290402714815
40
0.3011336069725
40
0.309055209101342
40
0.316976811230185
40
0.33282001548787
40
0.348663219745555
40
0.356584821874398
40
0.364506424003241
40
0.372428026132083
40
0.380349628260926
40
0.388271230389768
40
0.396192832518611
40
0.400153633583032
40
0.404114434647453
40
0.412036036776296
40
0.419957638905138
40
0.427879241033981
40
0.443722445291666
40
0.451644047420509
40
0.459565649549351
40
0.467487251678194
40
0.475408853807037
40
0.483330455935879
40
0.491252058064722
40
0.499173660193564
40
0.507095262322407
40
0.51501686445125
40
0.522938466580092
40
0.538781670837777
40
0.54670327296662
40
0.554624875095462
40
0.558585676159884
40
0.562546477224305
40
0.570468079353147
40
0.586311283610833
40
0.594232885739675
40
0.602154487868518
40
0.617997692126203
40
0.633840896383888
40
0.641762498512731
40
0.649684100641573
40
0.665527304899258
40
0.673448907028101
40
0.681370509156943
40
0.689292111285786
40
0.697213713414629
40
0.705135315543471
40
0.713056917672314
40
0.728900121929999
40
0.744743326187684
40
0.752664928316527
40
0.760586530445369
40
0.768508132574212
40
0.776429734703054
40
0.792272938960739
40
0.808116143218425
40
0.82395934747611
40
0.839802551733795
40
0.847724153862637
40
0.85564575599148
40
0.863567358120322
40
0.871488960249165
40
0.879410562378008
40
0.88733216450685
40
0.895253766635693
40
0.903175368764536
40
0.911096970893378
40
0.919018573022221
40
0.926940175151063
40
0.934861777279906
40
0.942783379408748
40
0.950704981537591
40
0.958626583666433
40
0.966548185795276
40
0.974469787924119
40
0.982391390052961
40
0.990312992181804
40
0.998234594310646
40
1
40
1
40
1
40
1
41
1
10
-1.49503997793931
20
-13.8251837281995
30
0
41
1
10
-1.49503997793931
20
-13.8251847282995
30
0
41
1
10
-1.49503997793931
20
-13.8252108753557
30
0
41
1
10
-1.49503997793931
20
-13.8245539604948
30
0
41
1
10
-1.49503997793931
20
-13.8215305966481
30
0
41
1
10
-1.49503997793931
20
-13.8164982902869
30
0
41
1
10
-1.49503997793931
20
-13.8094909095343
30
0
41
1
10
-1.49503997793931
20
-13.8005402090708
30
0
41
1
10
-1.49503997793931
20
-13.7896781830989
30
0
41
1
10
-1.49503997793931
20
-13.7769347476405
30
0
41
1
10
-1.49503997793931
20
-13.7574597557179
30
0
41
1
10
-1.49503997793931
20
-13.7285859139399
30
0
41
1
10
-1.49503997793931
20
-13.6868269300449
30
0
41
1
10
-1.49503997793931
20
-13.6462985077496
30
0
41
1
10
-1.49503997793931
20
-13.6104729008558
30
0
41
1
10
-1.49503997793931
20
-13.5819600687286
30
0
41
1
10
-1.49503997793931
20
-13.5518061457236
30
0
41
1
10
-1.49503997793931
20
-13.509413016618
30
0
41
1
10
-1.49503997793931
20
-13.4638962341071
30
0
41
1
10
-1.49503997793931
20
-13.4151607370273
30
0
41
1
10
-1.49503997793931
20
-13.3770798968994
30
0
41
1
10
-1.49503997793931
20
-13.3374647662751
30
0
41
1
10
-1.49503997793931
20
-13.2963307178616
30
0
41
1
10
-1.49503997793931
20
-13.2536925499096
30
0
41
1
10
-1.49503997793931
20
-13.1948224098965
30
0
41
1
10
-1.49503997793931
20
-13.1331066142243
30
0
41
1
10
-1.49503997793931
20
-13.0683888145289
30
0
41
1
10
-1.49503997793931
20
-13.0184419638584
30
0
41
1
10
-1.49503997793931
20
-12.9670724273821
30
0
41
1
10
-1.49503997793931
20
-12.9142925944038
30
0
41
1
10
-1.49503997793931
20
-12.860113205584
30
0
41
1
10
-1.49503997793931
20
-12.8045464062654
30
0
41
1
10
-1.49503997793931
20
-12.74760324418
30
0
41
1
10
-1.49503997793931
20
-12.6698142834541
30
0
41
1
10
-1.49503997793931
20
-12.5894449005116
30
0
41
1
10
-1.49503997793931
20
-12.50627175547
30
0
41
1
10
-1.49503997793931
20
-12.4213295833849
30
0
41
1
10
-1.49503997793931
20
-12.3119621458456
30
0
41
1
10
-1.49503997793931
20
-12.1982668977617
30
0
41
1
10
-1.49503997793931
20
-12.1046570208051
30
0
41
1
10
-1.49503997793931
20
-12.0332119345842
30
0
41
1
10
-1.49503997793931
20
-11.9605000871413
30
0
41
1
10
-1.49503997793931
20
-11.8865286504803
30
0
41
1
10
-1.49503997793931
20
-11.8113057028001
30
0
41
1
10
-1.49503997793931
20
-11.7476093345099
30
0
41
1
10
-1.49503997793931
20
-11.6959849101866
30
0
41
1
10
-1.49503997793931
20
-11.643948764099
30
0
41
1
10
-1.49503997793931
20
-11.5781957241672
30
0
41
1
10
-1.49503997793931
20
-11.4980348993556
30
0
41
1
10
-1.49503997793931
20
-11.3894728900619
30
0
41
1
10
-1.49503997793931
20
-11.278660103453
30
0
41
1
10
-1.49503997793931
20
-11.1652732784127
30
0
41
1
10
-1.49503997793931
20
-11.0790834423827
30
0
41
1
10
-1.49503997793931
20
-10.9917054044732
30
0
41
1
10
-1.49503997793931
20
-10.9031442025602
30
0
41
1
10
-1.49503997793931
20
-10.8134057967923
30
0
41
1
10
-1.49503997793931
20
-10.7224950378189
30
0
41
1
10
-1.49503997793931
20
-10.6304166849825
30
0
41
1
10
-1.49503997793931
20
-10.5371758780398
30
0
41
1
10
-1.49503997793931
20
-10.4427777751693
30
0
41
1
10
-1.49503997793931
20
-10.3153089364435
30
0
41
1
10
-1.49503997793931
20
-10.1857467684219
30
0
41
1
10
-1.49503997793931
20
-10.0536983054632
30
0
41
1
10
-1.49503997793931
20
-9.97030026745779
30
0
41
1
10
-1.49503997793931
20
-9.90295235506755
30
0
41
1
10
-1.49503997793931
20
-9.83522786489038
30
0
41
1
10
-1.49503997793931
20
-9.71574944153573
30
0
41
1
10
-1.49503997793931
20
-9.57714511427093
30
0
41
1
10
-1.49503997793931
20
-9.43608246295526
30
0
41
1
10
-1.49503997793931
20
-9.29353602958125
30
0
41
1
10
-1.49503997793931
20
-9.11275363063515
30
0
41
1
10
-1.49503997793931
20
-8.92829537712967
30
0
41
1
10
-1.49503997793931
20
-8.77838738443313
30
0
41
1
10
-1.49503997793931
20
-8.62702158956
30
0
41
1
10
-1.49503997793931
20
-8.47372854841302
30
0
41
1
10
-1.49503997793931
20
-8.31800483202281
30
0
41
1
10
-1.49503997793931
20
-8.20019570647173
30
0
41
1
10
-1.49503997793931
20
-8.08130642958628
30
0
41
1
10
-1.49503997793931
20
-7.96134016006346
30
0
41
1
10
-1.49503997793931
20
-7.84029852533041
30
0
41
1
10
-1.49503997793931
20
-7.67738589461936
30
0
41
1
10
-1.49503997793931
20
-7.47128766686797
30
0
41
1
10
-1.49503997793931
20
-7.261636811758
30
0
41
1
10
-1.49503997793931
20
-7.09160986883526
30
0
41
1
10
-1.49503997793931
20
-6.96311018452545
30
0
41
1
10
-1.49503997793931
20
-6.83355373772449
30
0
41
1
10
-1.49503997793931
20
-6.6592985841524
30
0
41
1
10
-1.49503997793931
20
-6.43910149333703
30
0
41
1
10
-1.49503997793931
20
-6.17053536578155
30
0
41
1
10
-1.49503997793931
20
-5.89779783511918
30
0
41
1
10
-1.49503997793931
20
-5.66717892097088
30
0
41
1
10
-1.49503997793931
20
-5.48038541909952
30
0
41
1
10
-1.49503997793931
20
-5.33936157753735
30
0
41
1
10
-1.49503997793931
20
-5.19731095553271
30
0
41
1
10
-1.49503997793931
20
-5.05423706888553
30
0
41
1
10
-1.49503997793931
20
-4.91014315579861
30
0
41
1
10
-1.49503997793931
20
-4.7650332428635
30
0
41
1
10
-1.49503997793931
20
-4.61891156596767
30
0
41
1
10
-1.49503997793931
20
-4.47178260268984
30
0
41
1
10
-1.49503997793931
20
-4.32365113214263
30
0
41
1
10
-1.49503997793931
20
-4.17452288947305
30
0
41
1
10
-1.49503997793931
20
-4.02440432752809
30
0
41
1
10
-1.49503997793931
20
-3.87330192992579
30
0
41
1
10
-1.49503997793931
20
-3.7212231412766
30
0
41
1
10
-1.49503997793931
20
-3.56817690176541
30
0
41
1
10
-1.49503997793931
20
-3.41417271020586
30
0
41
1
10
-1.49503997793931
20
-3.25922165821993
30
0
41
1
10
-1.49503997793931
20
-3.1033357799555
30
0
41
1
10
-1.49503997793931
20
-2.94652918151195
30
0
41
1
10
-1.49503997793931
20
-2.78881794429316
30
0
41
1
10
-1.49503997793931
20
-2.67130381064959
30
0
41
1
10
-1.49503997793931
20
-2.60647323876154
30
0
41
1
10
-1.49503997793931
20
-2.59465115838313
30
0
0
SPLINE
5
172
100
AcDbEntity
8
SK1
62
256
6
ByLayer
370
18
48
1
60
0
100
AcDbSpline
70
4
71
3
72
287
73
283
40
0
40
0
40
0
40
0
40
0.0005770541041046
40
0.0040695193303122
40
0.0075619845565199
40
0.0110544497827275
40
0.0145469150089351
40
0.0180393802351427
40
0.0215318454613504
40
0.025024310687558
40
0.0285167759137656
40
0.0320092411399732
40
0.0389941715923885
40
0.0459791020448037
40
0.0529640324972189
40
0.0564564977234266
40
0.0599489629496342
40
0.0634414281758418
40
0.0669338934020494
40
0.0739188238544646
40
0.0774112890806723
40
0.0809037543068798
40
0.0843962195330875
40
0.0878886847592951
40
0.0913811499855028
40
0.0948736152117104
40
0.101858545664126
40
0.105351010890333
40
0.108843476116541
40
0.112335941342748
40
0.115828406568956
40
0.119320871795164
40
0.122813337021371
40
0.126305802247579
40
0.129798267473786
40
0.136783197926202
40
0.140275663152409
40
0.143768128378617
40
0.150753058831032
40
0.157737989283447
40
0.161230454509655
40
0.164722919735863
40
0.16821538496207
40
0.171707850188278
40
0.175200315414486
40
0.178692780640693
40
0.180439013253797
40
0.182185245866901
40
0.185677711093108
40
0.189170176319316
40
0.192662641545524
40
0.199647571997939
40
0.203140037224147
40
0.206632502450354
40
0.210124967676562
40
0.213617432902769
40
0.217109898128977
40
0.220602363355185
40
0.224094828581392
40
0.2275872938076
40
0.231079759033808
40
0.234572224260015
40
0.24155715471243
40
0.245049619938638
40
0.248542085164846
40
0.250288317777949
40
0.252034550391053
40
0.255527015617261
40
0.262511946069676
40
0.266004411295884
40
0.269496876522091
40
0.276481806974507
40
0.283466737426922
40
0.286959202653129
40
0.290451667879337
40
0.297436598331752
40
0.30092906355796
40
0.304421528784168
40
0.307913994010375
40
0.311406459236583
40
0.31489892446279
40
0.318391389688998
40
0.325376320141413
40
0.332361250593828
40
0.335853715820036
40
0.339346181046244
40
0.342838646272451
40
0.346331111498659
40
0.353316041951074
40
0.360300972403489
40
0.367285902855905
40
0.37427083330832
40
0.377763298534527
40
0.381255763760735
40
0.384748228986943
40
0.38824069421315
40
0.391733159439358
40
0.395225624665565
40
0.398718089891773
40
0.402210555117981
40
0.405703020344188
40
0.409195485570396
40
0.412687950796604
40
0.416180416022811
40
0.419672881249019
40
0.423165346475226
40
0.426657811701434
40
0.430150276927642
40
0.433642742153849
40
0.437135207380057
40
0.440627672606265
40
0.444120137832472
40
0.44761260305868
40
0.449358835671784
40
0.451105068284887
40
0.454597533511095
40
0.456343766124199
40
0.458089998737303
40
0.459836231350407
40
0.46158246396351
40
0.463328696576614
40
0.465074929189718
40
0.466821161802822
40
0.468567394415926
40
0.472059859642133
40
0.473806092255237
40
0.475552324868341
40
0.477298557481445
40
0.479044790094548
40
0.480791022707652
40
0.482537255320756
40
0.48428348793386
40
0.486029720546964
40
0.487775953160068
40
0.489522185773171
40
0.491268418386275
40
0.493014650999379
40
0.494760883612483
40
0.496507116225587
40
0.49825334883869
40
0.499999581451794
40
0.501745814064898
40
0.503492046678002
40
0.505238279291106
40
0.506984511904209
40
0.508730744517313
40
0.510476977130417
40
0.512223209743521
40
0.513969442356625
40
0.515715674969728
40
0.517461907582832
40
0.519208140195936
40
0.52095437280904
40
0.522700605422144
40
0.524446838035248
40
0.526193070648351
40
0.527939303261455
40
0.531431768487663
40
0.533178001100767
40
0.53492423371387
40
0.536670466326974
40
0.538416698940078
40
0.540162931553182
40
0.541909164166286
40
0.543655396779389
40
0.545401629392493
40
0.548894094618701
40
0.550640327231805
40
0.552386559844908
40
0.555879025071116
40
0.559371490297324
40
0.562863955523531
40
0.566356420749739
40
0.569848885975946
40
0.573341351202154
40
0.576833816428362
40
0.580326281654569
40
0.583818746880777
40
0.587311212106985
40
0.590803677333192
40
0.5942961425594
40
0.597788607785607
40
0.601281073011815
40
0.604773538238023
40
0.60826600346423
40
0.611758468690438
40
0.615250933916646
40
0.618743399142853
40
0.622235864369061
40
0.625728329595269
40
0.632713260047684
40
0.639698190500099
40
0.646683120952514
40
0.653668051404929
40
0.657160516631137
40
0.660652981857345
40
0.664145447083552
40
0.66763791230976
40
0.674622842762175
40
0.68160777321459
40
0.685100238440798
40
0.688592703667006
40
0.692085168893213
40
0.695577634119421
40
0.699070099345628
40
0.702562564571836
40
0.709547495024251
40
0.713039960250459
40
0.716532425476667
40
0.723517355929082
40
0.730502286381497
40
0.733994751607705
40
0.737487216833912
40
0.744472147286327
40
0.747964612512535
40
0.749710845125639
40
0.751457077738743
40
0.75494954296495
40
0.758442008191158
40
0.765426938643573
40
0.768919403869781
40
0.772411869095988
40
0.775904334322196
40
0.779396799548404
40
0.782889264774611
40
0.786381730000819
40
0.789874195227026
40
0.793366660453234
40
0.796859125679442
40
0.800351590905649
40
0.807336521358065
40
0.810828986584272
40
0.81432145181048
40
0.817813917036687
40
0.819560149649791
40
0.821306382262895
40
0.824798847489103
40
0.82829131271531
40
0.831783777941518
40
0.835276243167725
40
0.838768708393933
40
0.842261173620141
40
0.849246104072556
40
0.856231034524971
40
0.859723499751179
40
0.863215964977387
40
0.870200895429802
40
0.873693360656009
40
0.877185825882217
40
0.880678291108425
40
0.884170756334632
40
0.88766322156084
40
0.891155686787047
40
0.894648152013255
40
0.898140617239463
40
0.905125547691878
40
0.908618012918086
40
0.912110478144293
40
0.915602943370501
40
0.919095408596708
40
0.922587873822916
40
0.926080339049124
40
0.933065269501539
40
0.936557734727747
40
0.940050199953954
40
0.943542665180162
40
0.94703513040637
40
0.954020060858785
40
0.957512526084992
40
0.9610049913112
40
0.964497456537407
40
0.967989921763615
40
0.971482386989823
40
0.97497485221603
40
0.978467317442238
40
0.981959782668446
40
0.985452247894653
40
0.988944713120861
40
0.992437178347068
40
0.995929643573276
40
0.999422108799484
40
1
40
1
40
1
40
1
41
1
10
-24
20
-12.6301466093104
30
0
41
1
10
-24
20
-12.6302729704645
30
0
41
1
10
-24
20
-12.6311019481838
30
0
41
1
10
-24
20
-12.6318299492432
30
0
41
1
10
-24
20
-12.6309352666138
30
0
41
1
10
-24
20
-12.6281658201647
30
0
41
1
10
-24
20
-12.623548726994
30
0
41
1
10
-24
20
-12.6171099043118
30
0
41
1
10
-24
20
-12.6088736083307
30
0
41
1
10
-24
20
-12.5988647342338
30
0
41
1
10
-24
20
-12.5871069661154
30
0
41
1
10
-24
20
-12.569020437469
30
0
41
1
10
-24
20
-12.5424060911485
30
0
41
1
10
-24
20
-12.5036823998811
30
0
41
1
10
-24
20
-12.466179119183
30
0
41
1
10
-24
20
-12.4326960489613
30
0
41
1
10
-24
20
-12.4061495447384
30
0
41
1
10
-24
20
-12.3780532328159
30
0
41
1
10
-24
20
-12.3383402816863
30
0
41
1
10
-24
20
-12.2962370819873
30
0
41
1
10
-24
20
-12.2505027270978
30
0
41
1
10
-24
20
-12.2149010201899
30
0
41
1
10
-24
20
-12.1778433481664
30
0
41
1
10
-24
20
-12.139344023803
30
0
41
1
10
-24
20
-12.0994154546281
30
0
41
1
10
-24
20
-12.0440223921018
30
0
41
1
10
-24
20
-11.9866456328948
30
0
41
1
10
-24
20
-11.9256779328098
30
0
41
1
10
-24
20
-11.8787993022056
30
0
41
1
10
-24
20
-11.8305656793587
30
0
41
1
10
-24
20
-11.78099039585
30
0
41
1
10
-24
20
-11.7300825884547
30
0
41
1
10
-24
20
-11.6778529900837
30
0
41
1
10
-24
20
-11.6243139686469
30
0
41
1
10
-24
20
-11.5508590476175
30
0
41
1
10
-24
20
-11.4758394707542
30
0
41
1
10
-24
20
-11.3972466128896
30
0
41
1
10
-24
20
-11.3169609533628
30
0
41
1
10
-24
20
-11.2142799019792
30
0
41
1
10
-24
20
-11.1074990885262
30
0
41
1
10
-24
20
-11.0189464603389
30
0
41
1
10
-24
20
-10.9516093773873
30
0
41
1
10
-24
20
-10.8830697782116
30
0
41
1
10
-24
20
-10.8133337656712
30
0
41
1
10
-24
20
-10.7424101789121
30
0
41
1
10
-24
20
-10.6825334430363
30
0
41
1
10
-24
20
-10.6336671760819
30
0
41
1
10
-24
20
-10.5844084477176
30
0
41
1
10
-24
20
-10.5225869468266
30
0
41
1
10
-24
20
-10.4469857296791
30
0
41
1
10
-24
20
-10.3442039867663
30
0
41
1
10
-24
20
-10.2404782892815
30
0
41
1
10
-24
20
-10.133123847137
30
0
41
1
10
-24
20
-10.0518274139735
30
0
41
1
10
-24
20
-9.96941226524035
30
0
41
1
10
-24
20
-9.8858827890852
30
0
41
1
10
-24
20
-9.80124634105394
30
0
41
1
10
-24
20
-9.71550990056983
30
0
41
1
10
-24
20
-9.62867742465991
30
0
41
1
10
-24
20
-9.54075474090101
30
0
41
1
10
-24
20
-9.45175012870757
30
0
41
1
10
-24
20
-9.33111730296773
30
0
41
1
10
-24
20
-9.20992961158598
30
0
41
1
10
-24
20
-9.08500600225796
30
0
41
1
10
-24
20
-9.00666454438806
30
0
41
1
10
-24
20
-8.94296708063843
30
0
41
1
10
-24
20
-8.87892107357061
30
0
41
1
10
-24
20
-8.76613371827506
30
0
41
1
10
-24
20
-8.63663898523424
30
0
41
1
10
-24
20
-8.50332881313912
30
0
41
1
10
-24
20
-8.36865251940401
30
0
41
1
10
-24
20
-8.19913342470036
30
0
41
1
10
-24
20
-8.02625870426021
30
0
41
1
10
-24
20
-7.88481232676438
30
0
41
1
10
-24
20
-7.74204568631339
30
0
41
1
10
-24
20
-7.59930458489882
30
0
41
1
10
-24
20
-7.45257386795717
30
0
41
1
10
-24
20
-7.34207855908448
30
0
41
1
10
-24
20
-7.23061782890775
30
0
41
1
10
-24
20
-7.11820191301106
30
0
41
1
10
-24
20
-7.00483374343872
30
0
41
1
10
-24
20
-6.8516785758469
30
0
41
1
10
-24
20
-6.65959441745028
30
0
41
1
10
-24
20
-6.46441027855923
30
0
41
1
10
-24
20
-6.30499529459033
30
0
41
1
10
-24
20
-6.18514753468796
30
0
41
1
10
-24
20
-6.06440158167572
30
0
41
1
10
-24
20
-5.90137597131746
30
0
41
1
10
-24
20
-5.69736367955667
30
0
41
1
10
-24
20
-5.44799894794272
30
0
41
1
10
-24
20
-5.19525670130326
30
0
41
1
10
-24
20
-4.98285125019771
30
0
41
1
10
-24
20
-4.80950544532163
30
0
41
1
10
-24
20
-4.67950096380329
30
0
41
1
10
-24
20
-4.54872537799758
30
0
41
1
10
-24
20
-4.41719445888799
30
0
41
1
10
-24
20
-4.28492388892991
30
0
41
1
10
-24
20
-4.15193103870837
30
0
41
1
10
-24
20
-4.01823650200188
30
0
41
1
10
-24
20
-3.88386015063668
30
0
41
1
10
-24
20
-3.74882265025218
30
0
41
1
10
-24
20
-3.61314816606938
30
0
41
1
10
-24
20
-3.47686551917991
30
0
41
1
10
-24
20
-3.34000139230267
30
0
41
1
10
-24
20
-3.20258393847712
30
0
41
1
10
-24
20
-3.06464837689458
30
0
41
1
10
-24
20
-2.9262304523017
30
0
41
1
10
-24
20
-2.78737006373561
30
0
41
1
10
-24
20
-2.64810891556724
30
0
41
1
10
-24
20
-2.50849315364215
30
0
41
1
10
-24
20
-2.36857603859875
30
0
41
1
10
-24
20
-2.22840727338092
30
0
41
1
10
-24
20
-2.11231267734073
30
0
41
1
10
-24
20
-2.01771125590744
30
0
41
1
10
-24
20
-1.92310511773127
30
0
41
1
10
-24
20
-1.8313714962141
30
0
41
1
10
-24
20
-1.73663368976398
30
0
41
1
10
-24
20
-1.66636839269287
30
0
41
1
10
-24
20
-1.59612143913762
30
0
41
1
10
-24
20
-1.52590617425699
30
0
41
1
10
-24
20
-1.45572440081648
30
0
41
1
10
-24
20
-1.38559146347788
30
0
41
1
10
-24
20
-1.31551245865842
30
0
41
1
10
-24
20
-1.22103102890804
30
0
41
1
10
-24
20
-1.13019491172781
30
0
41
1
10
-24
20
-1.03590357373665
30
0
41
1
10
-24
20
-0.966211278320685
30
0
41
1
10
-24
20
-0.896616942008535
30
0
41
1
10
-24
20
-0.827119549474418
30
0
41
1
10
-24
20
-0.757724503129253
30
0
41
1
10
-24
20
-0.688430802184314
30
0
41
1
10
-24
20
-0.619238394305086
30
0
41
1
10
-24
20
-0.550143822342449
30
0
41
1
10
-24
20
-0.481142957404018
30
0
41
1
10
-24
20
-0.412229055265982
30
0
41
1
10
-24
20
-0.343394373554958
30
0
41
1
10
-24
20
-0.274627961865065
30
0
41
1
10
-24
20
-0.205919183520024
30
0
41
1
10
-24
20
-0.137254128872428
30
0
41
1
10
-24
20
-0.068619580615092
30
0
41
1
10
-24
20
-1.20069785E-08
30
0
41
1
10
-24
20
0.0686195837654395
30
0
41
1
10
-24
20
0.1372541822264
30
0
41
1
10
-24
20
0.205919229600312
30
0
41
1
10
-24
20
0.274627932715674
30
0
41
1
10
-24
20
0.343394334295567
30
0
41
1
10
-24
20
0.412229116407673
30
0
41
1
10
-24
20
0.48114304712405
30
0
41
1
10
-24
20
0.55014378989776
30
0
41
1
10
-24
20
0.619238310392802
30
0
41
1
10
-24
20
0.688430856535206
30
0
41
1
10
-24
20
0.757724640342815
30
0
41
1
10
-24
20
0.827119544713668
30
0
41
1
10
-24
20
0.896616816711344
30
0
41
1
10
-24
20
0.966211277672699
30
0
41
1
10
-24
20
1.03590373801057
30
0
41
1
10
-24
20
1.13019491751672
30
0
41
1
10
-24
20
1.22103090337816
30
0
41
1
10
-24
20
1.31551253110209
30
0
41
1
10
-24
20
1.38559165365194
30
0
41
1
10
-24
20
1.45572444737027
30
0
41
1
10
-24
20
1.52590604398475
30
0
41
1
10
-24
20
1.59612132289769
30
0
41
1
10
-24
20
1.66636846888792
30
0
41
1
10
-24
20
1.73663389391052
30
0
41
1
10
-24
20
1.83137150908334
30
0
41
1
10
-24
20
1.923104963833
30
0
41
1
10
-24
20
2.01771124909399
30
0
41
1
10
-24
20
2.11231287096447
30
0
41
1
10
-24
20
2.22840729138045
30
0
41
1
10
-24
20
2.36857592379664
30
0
41
1
10
-24
20
2.50849329023109
30
0
41
1
10
-24
20
2.64810899336408
30
0
41
1
10
-24
20
2.7873694745272
30
0
41
1
10
-24
20
2.92622914514115
30
0
41
1
10
-24
20
3.06464867495961
30
0
41
1
10
-24
20
3.20258694679339
30
0
41
1
10
-24
20
3.34000339886188
30
0
41
1
10
-24
20
3.47686412773234
30
0
41
1
10
-24
20
3.61314539193521
30
0
41
1
10
-24
20
3.74882070125759
30
0
41
1
10
-24
20
3.88386081960974
30
0
41
1
10
-24
20
4.01823910176785
30
0
41
1
10
-24
20
4.15193237523465
30
0
41
1
10
-24
20
4.28492323331267
30
0
41
1
10
-24
20
4.41719365917407
30
0
41
1
10
-24
20
4.54872525063163
30
0
41
1
10
-24
20
4.67950102029136
30
0
41
1
10
-24
20
4.8095053694127
30
0
41
1
10
-24
20
4.98285124277228
30
0
41
1
10
-24
20
5.19525677656026
30
0
41
1
10
-24
20
5.44799891971269
30
0
41
1
10
-24
20
5.69736372546626
30
0
41
1
10
-24
20
5.90137602298265
30
0
41
1
10
-24
20
6.0644015068855
30
0
41
1
10
-24
20
6.1851475156806
30
0
41
1
10
-24
20
6.30499537148731
30
0
41
1
10
-24
20
6.46441033734266
30
0
41
1
10
-24
20
6.65959438580623
30
0
41
1
10
-24
20
6.85167858307042
30
0
41
1
10
-24
20
7.00483382763792
30
0
41
1
10
-24
20
7.11820195418233
30
0
41
1
10
-24
20
7.2306178054078
30
0
41
1
10
-24
20
7.34207852113332
30
0
41
1
10
-24
20
7.45257387547733
30
0
41
1
10
-24
20
7.5993046483614
30
0
41
1
10
-24
20
7.74204572237986
30
0
41
1
10
-24
20
7.88481230085068
30
0
41
1
10
-24
20
8.02625870014725
30
0
41
1
10
-24
20
8.19913346952643
30
0
41
1
10
-24
20
8.36865254580422
30
0
41
1
10
-24
20
8.50332879773273
30
0
41
1
10
-24
20
8.63663898786112
30
0
41
1
10
-24
20
8.76613375581505
30
0
41
1
10
-24
20
8.87892111197036
30
0
41
1
10
-24
20
8.94296710462893
30
0
41
1
10
-24
20
9.00666455327519
30
0
41
1
10
-24
20
9.08500599911847
30
0
41
1
10
-24
20
9.20992961783276
30
0
41
1
10
-24
20
9.33111733072479
30
0
41
1
10
-24
20
9.45175015939358
30
0
41
1
10
-24
20
9.54075475929304
30
0
41
1
10
-24
20
9.62867743247332
30
0
41
1
10
-24
20
9.71550990736878
30
0
41
1
10
-24
20
9.80124635456619
30
0
41
1
10
-24
20
9.88588281033205
30
0
41
1
10
-24
20
9.9694122909747
30
0
41
1
10
-24
20
10.0518274374696
30
0
41
1
10
-24
20
10.1331238647016
30
0
41
1
10
-24
20
10.240478300249
30
0
41
1
10
-24
20
10.3442039980406
30
0
41
1
10
-24
20
10.4469857502475
30
0
41
1
10
-24
20
10.5225869730086
30
0
41
1
10
-24
20
10.5844084741421
30
0
41
1
10
-24
20
10.6336671988976
30
0
41
1
10
-24
20
10.6825334589273
30
0
41
1
10
-24
20
10.7424101865055
30
0
41
1
10
-24
20
10.8133337727233
30
0
41
1
10
-24
20
10.8830697936353
30
0
41
1
10
-24
20
10.951609404873
30
0
41
1
10
-24
20
11.0189464931514
30
0
41
1
10
-24
20
11.1074991058536
30
0
41
1
10
-24
20
11.2142799044294
30
0
41
1
10
-24
20
11.3169609751523
30
0
41
1
10
-24
20
11.3972466509688
30
0
41
1
10
-24
20
11.4758394909226
30
0
41
1
10
-24
20
11.5508590446085
30
0
41
1
10
-24
20
11.6243139791192
30
0
41
1
10
-24
20
11.6778530233414
30
0
41
1
10
-24
20
11.7300826287653
30
0
41
1
10
-24
20
11.7809904199399
30
0
41
1
10
-24
20
11.8305656793297
30
0
41
1
10
-24
20
11.8787992978643
30
0
41
1
10
-24
20
11.9256779481161
30
0
41
1
10
-24
20
11.9866456736684
30
0
41
1
10
-24
20
12.0440224201629
30
0
41
1
10
-24
20
12.099415447517
30
0
41
1
10
-24
20
12.1393440246738
30
0
41
1
10
-24
20
12.1778433772408
30
0
41
1
10
-24
20
12.2149010599454
30
0
41
1
10
-24
20
12.250502752964
30
0
41
1
10
-24
20
12.2962370828382
30
0
41
1
10
-24
20
12.3383402824608
30
0
41
1
10
-24
20
12.3780532736994
30
0
41
1
10
-24
20
12.4061495785297
30
0
41
1
10
-24
20
12.4326960530149
30
0
41
1
10
-24
20
12.4661791203578
30
0
41
1
10
-24
20
12.4959885477691
30
0
41
1
10
-24
20
12.523037071398
30
0
41
1
10
-24
20
12.5415673540695
30
0
41
1
10
-24
20
12.55843663992
30
0
41
1
10
-24
20
12.5736235086905
30
0
41
1
10
-24
20
12.5871069547276
30
0
41
1
10
-24
20
12.5988645879939
30
0
41
1
10
-24
20
12.6088733436887
30
0
41
1
10
-24
20
12.617109869821
30
0
41
1
10
-24
20
12.6235493215145
30
0
41
1
10
-24
20
12.6281667848456
30
0
41
1
10
-24
20
12.630935840933
30
0
41
1
10
-24
20
12.6318298800803
30
0
41
1
10
-24
20
12.6311015702282
30
0
41
1
10
-24
20
12.6302722760186
30
0
41
1
10
-24
20
12.6301456992326
30
0
0
SPLINE
5
173
100
AcDbEntity
8
1
62
256
6
ByLayer
370
18
48
1
60
0
100
AcDbSpline
70
4
71
3
72
8
73
4
40
0
40
0
40
0
40
0
40
1
40
1
40
1
40
1
41
1
10
21.5255669879721
20
-22.1949824337769
30
0
41
1
10
21.640243512186
20
-22.6148832344219
30
0
41
1
10
21.7550588063217
20
-23.0347165736273
30
0
41
1
10
21.8699876256684
20
-23.4544944374005
30
0
0
SPLINE
5
174
100
AcDbEntity
8
1
62
256
6
ByLayer
370
18
48
1
60
0
100
AcDbSpline
70
4
71
3
72
10
73
6
40
0
40
0
40
0
40
0
40
0.5
40
0.5
40
1
40
1
40
1
40
1
41
1
10
25.6410582117915
20
-9.21118265604312
30
0
41
1
10
25.2089943521568
20
-9.36353528998541
30
0
41
1
10
24.9073440342571
20
-9.6326486286824
30
0
41
1
10
24.2387419403314
20
-10.4643776629631
30
0
41
1
10
23.8844143965896
20
-11.0987835105647
30
0
41
1
10
23.6970242304325
20
-11.7911325319663
30
0
0
SPLINE
5
175
100
AcDbEntity
8
1
62
256
6
ByLayer
370
18
48
1
60
0
100
AcDbSpline
70
4
71
3
72
8
73
4
40
0
40
0
40
0
40
0
40
1
40
1
40
1
40
1
41
1
10
23.8320741015643
20
-11.9072920622767
30
0
41
1
10
24.4942041076033
20
-12.4518347407881
30
0
41
1
10
25.4516331311834
20
-13.3238276633595
30
0
41
1
10
26.4636111232005
20
-14.256134121935
30
0
0
SPLINE
5
176
100
AcDbEntity
8
1
62
256
6
ByLayer
370
18
48
1
60
0
100
AcDbSpline
70
4
71
3
72
10
73
6
40
0
40
0
40
0
40
0
40
0.264715639145583
40
0.264715639145583
40
1
40
1
40
1
40
1
41
1
10
43.663601773528
20
-20.4057565842132
30
0
41
1
10
43.5809421822656
20
-20.341777904284
30
0
41
1
10
43.498405156991
20
-20.2763258783718
30
0
41
1
10
43.1871804466717
20
-20.0243831005999
30
0
41
1
10
42.9593180531929
20
-19.8295913767415
30
0
41
1
10
42.7327338492665
20
-19.6278524531087
30
0
0
SPLINE
5
177
100
AcDbEntity
8
1
62
256
6
ByLayer
370
18
48
1
60
0
100
AcDbSpline
70
4
71
3
72
8
73
4
40
0
40
0
40
0
40
0
40
1
40
1
40
1
40
1
41
1
10
31.4144301446418
20
-22.1446890033734
30
0
41
1
10
31.1247502277132
20
-22.1384718571009
30
0
41
1
10
30.8403416704637
20
-22.1061273988715
30
0
41
1
10
30.5616205334368
20
-22.0467172215878
30
0
0
SPLINE
5
178
100
AcDbEntity
8
1
62
256
6
ByLayer
370
18
48
1
60
0
100
AcDbSpline
70
4
71
3
72
8
73
4
40
0
40
0
40
0
40
0
40
1
40
1
40
1
40
1
41
1
10
30.3859295812942
20
-13.5527527731042
30
0
41
1
10
29.4842901653917
20
-13.3605658506622
30
0
41
1
10
28.5651703404136
20
-13.5183415279563
30
0
41
1
10
27.7920023423451
20
-13.9567286653468
30
0
0
SPLINE
5
179
100
AcDbEntity
8
1
62
256
6
ByLayer
370
18
48
1
60
0
100
AcDbSpline
70
4
71
3
72
12
73
8
40
0
40
0
40
0
40
0
40
0.286978363858294
40
0.286978363858294
40
0.569998995185616
40
0.569998995185616
40
1
40
1
40
1
40
1
41
1
10
35.2031826926009
20
-20.0893400536501
30
0
41
1
10
35.3162838706591
20
-19.8843009422158
30
0
41
1
10
35.4129785892828
20
-19.6692914814515
30
0
41
1
10
35.5685874558596
20
-19.2315645288131
30
0
41
1
10
35.6285392296729
20
-19.0074917979691
30
0
41
1
10
35.732611993134
20
-18.4392385352519
30
0
41
1
10
35.7533293584299
20
-18.0878626854529
30
0
41
1
10
35.7308720774669
20
-17.743512815771
30
0
0
SPLINE
5
17A
100
AcDbEntity
8
1
62
256
6
ByLayer
370
18
48
1
60
0
100
AcDbSpline
70
4
71
3
72
8
73
4
40
0
40
0
40
0
40
0
40
1
40
1
40
1
40
1
41
1
10
45.5526804342366
20
-18.4871685246037
30
0
41
1
10
45.6093568360123
20
-18.5411111742773
30
0
41
1
10
45.6651411109914
20
-18.6004251522605
30
0
41
1
10
45.7189391550111
20
-18.6642115588407
30
0
0
SPLINE
5
17B
100
AcDbEntity
8
1
62
256
6
ByLayer
370
18
48
1
60
0
100
AcDbSpline
70
4
71
3
72
8
73
4
40
0
40
0
40
0
40
0
40
1
40
1
40
1
40
1
41
1
10
40.3900679149598
20
-13.9126385249309
30
0
41
1
10
41.0548839869052
20
-14.3782012963323
30
0
41
1
10
41.7438133384991
20
-14.7361959044899
30
0
41
1
10
42.3637858098333
20
-14.9297916644779
30
0
0
SPLINE
5
17C
100
AcDbEntity
8
1
62
256
6
ByLayer
370
18
48
1
60
0
100
AcDbSpline
70
4
71
3
72
8
73
4
40
0
40
0
40
0
40
0
40
1
40
1
40
1
40
1
41
1
10
27.5953179647267
20
-14.0570278113968
30
0
41
1
10
27.6625586963107
20
-14.0263768841861
30
0
41
1
10
27.7282699544081
20
-13.9928650020506
30
0
41
1
10
27.7920023423451
20
-13.9567286653468
30
0
0
SPLINE
5
17D
100
AcDbEntity
8
1
62
256
6
ByLayer
370
18
48
1
60
0
100
AcDbSpline
70
4
71
3
72
10
73
6
40
0
40
0
40
0
40
0
40
0.967465556419481
40
0.967465556419481
40
1
40
1
40
1
40
1
41
1
10
42.4606065503224
20
-20.8375861493778
30
0
41
1
10
42.8524011913447
20
-20.686403530519
30
0
41
1
10
43.2416969873487
20
-20.5448940468234
30
0
41
1
10
43.6378245702187
20
-20.4142138697026
30
0
41
1
10
43.6507167404721
20
-20.409976207272
30
0
41
1
10
43.6636017735437
20
-20.4057565842081
30
0
0
SPLINE
5
17E
100
AcDbEntity
8
1
62
256
6
ByLayer
370
18
48
1
60
0
100
AcDbSpline
70
4
71
3
72
10
73
6
40
0
40
0
40
0
40
0
40
0.5
40
0.5
40
1
40
1
40
1
40
1
41
1
10
30.1164230506277
20
-24.5958526782615
30
0
41
1
10
31.4236827589228
20
-24.8616310716752
30
0
41
1
10
32.7389989406766
20
-24.9166539053983
30
0
41
1
10
35.3753612187104
20
-24.8768062790683
30
0
41
1
10
36.7052787614314
20
-24.732560234436
30
0
41
1
10
38.011912585594
20
-24.484656282991
30
0
0
SPLINE
5
17F
100
AcDbEntity
8
1
62
256
6
ByLayer
370
18
48
1
60
0
100
AcDbSpline
70
4
71
3
72
12
73
8
40
0
40
0
40
0
40
0
40
0.108854002841677
40
0.502629245107336
40
0.699516866240165
40
0.896404487372995
40
1
40
1
40
1
40
1
41
1.0244126255267
10
35.2031825437582
20
-20.0893400360396
30
0
41
1.02394775696077
10
35.5414283391564
20
-20.1293593979418
30
0
41
1.02173322391444
10
37.144119588066
20
-20.3096071187939
30
0
41
1.01876555595691
10
39.4094449021166
20
-20.4997032635466
30
0
41
1.01610930227499
10
40.9345230403335
20
-20.5864563762471
30
0
41
1.01814069306376
10
41.6200778607934
20
-20.714694713796
30
0
41
1.0200519600697
10
42.2351840193872
20
-20.8066634519342
30
0
41
1.02076673234771
10
42.4606065503044
20
-20.8375861493754
30
0
0
SPLINE
5
180
100
AcDbEntity
8
1
62
256
6
ByLayer
370
18
48
1
60
0
100
AcDbSpline
70
4
71
2
72
6
73
3
40
0
40
0
40
0
40
1
40
1
40
1
41
1
10
42.6607663601036
20
-15.0305348646381
30
0
41
1
10
43.4083213960139
20
-15.7057038093662
30
0
41
1
10
44.0734370427718
20
-16.4393001758891
30
0
0
SPLINE
5
181
100
AcDbEntity
8
1
62
256
6
ByLayer
370
18
48
1
60
0
100
AcDbSpline
70
4
71
3
72
8
73
4
40
0
40
0
40
0
40
0
40
1
40
1
40
1
40
1
41
1
10
33.1916274404924
20
-14.2442120801116
30
0
41
1
10
32.9323305428469
20
-14.1284136903398
30
0
41
1
10
32.6572409751546
20
-14.036889046424
30
0
41
1
10
32.3768599733986
20
-13.9771250644061
30
0
0
SPLINE
5
182
100
AcDbEntity
8
1
62
256
6
ByLayer
370
18
48
1
60
0
100
AcDbSpline
70
4
71
3
72
10
73
6
40
0
40
0
40
0
40
0
40
0.5
40
0.5
40
1
40
1
40
1
40
1
41
1
10
41.9757531888273
20
-18.0113774419981
30
0
41
1
10
42.3292329052658
20
-17.6171245571855
30
0
41
1
10
42.7118916653824
20
-17.2804834361965
30
0
41
1
10
43.65324644041
20
-16.9547731317779
30
0
41
1
10
44.2241826682056
20
-16.9943013936668
30
0
41
1
10
44.811761939767
20
-17.4279185137635
30
0
0
SPLINE
5
183
100
AcDbEntity
8
1
62
256
6
ByLayer
370
18
48
1
60
0
100
AcDbSpline
70
4
71
3
72
8
73
4
40
0
40
0
40
0
40
0
40
1
40
1
40
1
40
1
41
1
10
44.9256898617164
20
-22.19057735662
30
0
41
1
10
44.8485763343715
20
-22.2304392276386
30
0
41
1
10
44.7713673519517
20
-22.266368140111
30
0
41
1
10
44.6954706525707
20
-22.2978687434874
30
0
0
SPLINE
5
184
100
AcDbEntity
8
1
62
256
6
ByLayer
370
18
48
1
60
0
100
AcDbSpline
70
4
71
3
72
8
73
4
40
0
40
0
40
0
40
0
40
1
40
1
40
1
40
1
41
1
10
25.2952644967939
20
-19.4499837958484
30
0
41
1
10
25.0637112199809
20
-19.3409912407121
30
0
41
1
10
24.8302933376555
20
-19.2594829325501
30
0
41
1
10
24.5974766397643
20
-19.1981419194765
30
0
0
SPLINE
5
185
100
AcDbEntity
8
1
62
256
6
ByLayer
370
18
48
1
60
0
100
AcDbSpline
70
4
71
3
72
10
73
6
40
0
40
0
40
0
40
0
40
0.5
40
0.5
40
1
40
1
40
1
40
1
41
1
10
43.5605925573825
20
-22.9899542484341
30
0
41
1
10
42.8369442966313
20
-23.2132101813173
30
0
41
1
10
42.2671673743888
20
-23.1358753518616
30
0
41
1
10
41.5017977309877
20
-22.6979006712632
30
0
41
1
10
41.2648930147261
20
-22.3500063386197
30
0
41
1
10
41.0858079203958
20
-21.967602279497
30
0
0
SPLINE
5
186
100
AcDbEntity
8
1
62
256
6
ByLayer
370
18
48
1
60
0
100
AcDbSpline
70
4
71
3
72
8
73
4
40
0
40
0
40
0
40
0
40
1
40
1
40
1
40
1
41
1
10
42.6608508668697
20
-15.0303634558522
30
0
41
1
10
42.5626206217103
20
-14.9945614217648
30
0
41
1
10
42.4635887318809
20
-14.9609566329824
30
0
41
1
10
42.3637858098333
20
-14.9297916644779
30
0
0
SPLINE
5
187
100
AcDbEntity
8
1
62
256
6
ByLayer
370
18
48
1
60
0
100
AcDbSpline
70
4
71
3
72
8
73
4
40
0
40
0
40
0
40
0
40
1
40
1
40
1
40
1
41
1
10
26.3702763474101
20
-20.276968676566
30
0
41
1
10
26.3273891261398
20
-20.2215416781514
30
0
41
1
10
26.281568310124
20
-20.1672700925337
30
0
41
1
10
26.2327482521549
20
-20.1142903544842
30
0
0
SPLINE
5
188
100
AcDbEntity
8
1
62
256
6
ByLayer
370
18
48
1
60
0
100
AcDbSpline
70
4
71
3
72
20
73
16
40
0
40
0
40
0
40
0
40
0.110576036200126
40
0.110576036200126
40
0.197179369122806
40
0.197179369122806
40
0.28429111738737
40
0.28429111738737
40
0.36590421791808
40
0.36590421791808
40
0.497270233392078
40
0.497270233392078
40
0.733496364826718
40
0.733496364826718
40
1
40
1
40
1
40
1
41
1
10
41.0858079203971
20
-21.9676022794971
30
0
41
1
10
41.0698639317325
20
-21.9335655780457
30
0
41
1
10
41.0616778502448
20
-21.8935310385163
30
0
41
1
10
41.0694981251128
20
-21.8116100302728
30
0
41
1
10
41.0809967620604
20
-21.771131606261
30
0
41
1
10
41.1219605487876
20
-21.6859587710847
30
0
41
1
10
41.1521502997436
20
-21.6401563103836
30
0
41
1
10
41.2233194832216
20
-21.5534909916949
30
0
41
1
10
41.2641511859127
20
-21.5115276163384
30
0
41
1
10
41.3775945028556
20
-21.4083593378754
30
0
41
1
10
41.4561452082503
20
-21.3490203788507
30
0
41
1
10
41.6775157612207
20
-21.1999872593516
30
0
41
1
10
41.8263076926268
20
-21.1194569488234
30
0
41
1
10
42.13615419878
20
-20.9685790699118
30
0
41
1
10
42.2997532181505
20
-20.8996234203165
30
0
41
1
10
42.4606065503224
20
-20.8375861493778
30
0
0
SPLINE
5
189
100
AcDbEntity
8
1
62
256
6
ByLayer
370
18
48
1
60
0
100
AcDbSpline
70
4
71
3
72
12
73
8
40
0
40
0
40
0
40
0
40
0.47134308667852
40
0.47134308667852
40
0.892619726108224
40
0.892619726108224
40
1
40
1
40
1
40
1
41
1
10
26.4636111232005
20
-14.256134121935
30
0
41
1
10
26.6400355086173
20
-14.2644117493891
30
0
41
1
10
26.8245061180915
20
-14.2571345040424
30
0
41
1
10
27.1678296046853
20
-14.2047017883041
30
0
41
1
10
27.3308649450237
20
-14.162730916113
30
0
41
1
10
27.5199441215359
20
-14.0900033225279
30
0
41
1
10
27.5580917082022
20
-14.0739969795211
30
0
41
1
10
27.5953179647267
20
-14.0570278113968
30
0
0
SPLINE
5
18A
100
AcDbEntity
8
1
62
256
6
ByLayer
370
18
48
1
60
0
100
AcDbSpline
70
4
71
3
72
11
73
7
40
0
40
0
40
0
40
0
40
0.423407924939447
40
0.740963868644032
40
0.899741840496325
40
1
40
1
40
1
40
1
41
1.02805999725224
10
33.3542610504303
20
-12.0148161573442
30
0
41
1.02767136955277
10
34.1668753237597
20
-12.3059001124117
30
0
41
1.02349884684923
10
36.8411360895067
20
-14.1973375936568
30
0
41
1.01876555595691
10
40.0807292362795
20
-16.8595457601277
30
0
41
1.01635405201137
10
41.3085520157344
20
-17.8367138226648
30
0
41
1.01722454828226
10
41.7784878573611
20
-17.9668590880909
30
0
41
1.01774327987904
10
41.9757531888279
20
-18.0113774419982
30
0
0
SPLINE
5
18B
100
AcDbEntity
8
1
62
256
6
ByLayer
370
18
48
1
60
0
100
AcDbSpline
70
4
71
3
72
11
73
7
40
0
40
0
40
0
40
0
40
0.564783939443776
40
0.564783939443776
40
0.564783939443776
40
1
40
1
40
1
40
1
41
1
10
40.2639038895306
20
-24.2647533791916
30
0
41
1
10
39.8962277512583
20
-24.2595712385692
30
0
41
1
10
39.4771145508952
20
-24.2688587126287
30
0
41
1
10
39.0448013239241
20
-24.3204117082217
30
0
41
1
10
38.7089174273061
20
-24.3604655857388
30
0
41
1
10
38.3599761861978
20
-24.4186191574029
30
0
41
1
10
38.0119125855944
20
-24.4846562829909
30
0
0
SPLINE
5
18C
100
AcDbEntity
8
1
62
256
6
ByLayer
370
18
48
1
60
0
100
AcDbSpline
70
4
71
3
72
8
73
4
40
0
40
0
40
0
40
0
40
1
40
1
40
1
40
1
41
1
10
25.2952644967939
20
-19.4499837958484
30
0
41
1
10
23.9923906906107
20
-19.8058956425923
30
0
41
1
10
22.7898971832429
20
-20.0610005430501
30
0
41
1
10
21.9921092563679
20
-20.0868002623629
30
0
0
SPLINE
5
18D
100
AcDbEntity
8
1
62
256
6
ByLayer
370
18
48
1
60
0
100
AcDbSpline
70
4
71
3
72
8
73
4
40
0
40
0
40
0
40
0
40
1
40
1
40
1
40
1
41
1
10
23.2974128475928
20
-22.255473980747
30
0
41
1
10
23.997446144841
20
-21.9730607687371
30
0
41
1
10
25.0906255805479
20
-21.1346913599604
30
0
41
1
10
26.2327482521483
20
-20.1142903544786
30
0
0
SPLINE
5
18E
100
AcDbEntity
8
1
62
256
6
ByLayer
370
18
48
1
60
0
100
AcDbSpline
70
4
71
3
72
15
73
11
40
0
40
0
40
0
40
0
40
0.227604479949748
40
0.227604479949748
40
0.479423709218441
40
0.479423709218441
40
0.785574270382839
40
0.785574270382839
40
0.785574270382839
40
1
40
1
40
1
40
1
41
1
10
35.7308720774669
20
-17.743512815771
30
0
41
1
10
35.7087896912939
20
-17.4051447657076
30
0
41
1
10
35.6354071958768
20
-17.062774852261
30
0
41
1
10
35.3925896687006
20
-16.3818581257915
30
0
41
1
10
35.2117820005646
20
-16.0393432996329
30
0
41
1
10
34.7270073494186
20
-15.3528437473873
30
0
41
1
10
34.3982494584119
20
-15.0143317311487
30
0
41
1
10
34.0300496270693
20
-14.7378572831833
30
0
41
1
10
33.7705765773852
20
-14.5430237659823
30
0
41
1
10
33.4878159840733
20
-14.3763323184864
30
0
41
1
10
33.1916274482483
20
-14.2442120835753
30
0
0
SPLINE
5
18F
100
AcDbEntity
8
1
62
256
6
ByLayer
370
18
48
1
60
0
100
AcDbSpline
70
4
71
3
72
8
73
4
40
0
40
0
40
0
40
0
40
1
40
1
40
1
40
1
41
1
10
44.0734992432912
20
-16.439403787962
30
0
41
1
10
44.3197273294192
20
-16.7683825908901
30
0
41
1
10
44.5662472684211
20
-17.0984632008502
30
0
41
1
10
44.811761939767
20
-17.4279185137635
30
0
0
SPLINE
5
190
100
AcDbEntity
8
1
62
256
6
ByLayer
370
18
48
1
60
0
100
AcDbSpline
70
4
71
3
72
8
73
4
40
0
40
0
40
0
40
0
40
1
40
1
40
1
40
1
41
1
10
26.3702763474101
20
-20.276968676566
30
0
41
1
10
26.8948471788614
20
-20.954918559585
30
0
41
1
10
27.666290465015
20
-21.4295696507413
30
0
41
1
10
28.5706901413324
20
-21.6223449302858
30
0
0
SPLINE
5
191
100
AcDbEntity
8
1
62
256
6
ByLayer
370
18
48
1
60
0
100
AcDbSpline
70
4
71
3
72
10
73
6
40
0
40
0
40
0
40
0
40
0.5
40
0.5
40
1
40
1
40
1
40
1
41
1
10
40.3900679149596
20
-13.9126385249307
30
0
41
1
10
39.3145352090477
20
-13.1594557899947
30
0
41
1
10
38.1848787768376
20
-12.4952977505298
30
0
41
1
10
35.796568221255
20
-11.3791618180444
30
0
41
1
10
34.5626911134079
20
-10.8892047824176
30
0
41
1
10
33.2648239557713
20
-10.5997314545263
30
0
0
SPLINE
5
192
100
AcDbEntity
8
1
62
256
6
ByLayer
370
18
48
1
60
0
100
AcDbSpline
70
4
71
3
72
11
73
7
40
0
40
0
40
0
40
0
40
0.423407924946022
40
0.740963868655539
40
0.899741840510297
40
1
40
1
40
1
40
1
41
1.02805999725224
10
30.6958995961384
20
-23.8324817888045
30
0
41
1.02767136955277
10
31.5557710034512
20
-23.9134855805525
30
0
41
1.02349884684923
10
34.7709208128354
20
-23.4004171389511
30
0
41
1.01876555595691
10
38.8521222610653
20
-22.3212809962704
30
0
41
1.01635405201144
10
40.3941008263671
20
-21.9018789921051
30
0
41
1.01722454828215
10
40.8840865705076
20
-21.9428930208115
30
0
41
1.0177432798788
10
41.0858079203135
20
-21.9676022794869
30
0
0
SPLINE
5
193
100
AcDbEntity
8
1
62
256
6
ByLayer
370
18
48
1
60
0
100
AcDbSpline
70
4
71
3
72
12
73
8
40
0
40
0
40
0
40
0
40
0.46693897235862
40
0.46693897235862
40
0.928803236876549
40
0.928803236876549
40
1
40
1
40
1
40
1
41
1
10
26.2327482521549
20
-20.1142903544842
30
0
41
1
10
26.1177884247392
20
-19.9895354525841
30
0
41
1
10
25.9787464520879
20
-19.8681361174761
30
0
41
1
10
25.6850547783421
20
-19.6572546054484
30
0
41
1
10
25.5268905795612
20
-19.5642039398781
30
0
41
1
10
25.344523468113
20
-19.4734897314579
30
0
41
1
10
25.3199020131661
20
-19.4615807203169
30
0
41
1
10
25.2952644967939
20
-19.4499837958484
30
0
0
SPLINE
5
194
100
AcDbEntity
8
1
62
256
6
ByLayer
370
18
48
1
60
0
100
AcDbSpline
70
4
71
3
72
8
73
4
40
0
40
0
40
0
40
0
40
1
40
1
40
1
40
1
41
1
10
27.5953179647267
20
-14.0570278113968
30
0
41
1
10
27.0124648926162
20
-12.5875026189614
30
0
41
1
10
26.4179553333178
20
-11.2166732318516
30
0
41
1
10
25.9557743018847
20
-10.4378083492867
30
0
0
SPLINE
5
195
100
AcDbEntity
8
1
62
256
6
ByLayer
370
18
48
1
60
0
100
AcDbSpline
70
4
71
3
72
10
73
6
40
0
40
0
40
0
40
0
40
0.5
40
0.5
40
1
40
1
40
1
40
1
41
1
10
21.8292833877379
20
-20.0941180908154
30
0
41
1
10
21.6999647825432
20
-20.8100255210464
30
0
41
1
10
21.7620487307368
20
-21.4644489369731
30
0
41
1
10
22.0498508917063
20
-22.3433196461303
30
0
41
1
10
22.2309289128541
20
-22.6101878273663
30
0
41
1
10
22.5756671463447
20
-22.8382861421513
30
0
0
SPLINE
5
196
100
AcDbEntity
8
1
62
256
6
ByLayer
370
18
48
1
60
0
100
AcDbSpline
70
4
71
3
72
20
73
16
40
0
40
0
40
0
40
0
40
0.332873226652389
40
0.332873226652389
40
0.501657261698205
40
0.501657261698205
40
0.631212321676505
40
0.631212321676505
40
0.722542323637665
40
0.722542323637665
40
0.814765347404189
40
0.814765347404189
40
0.896421359038802
40
0.896421359038802
40
1
40
1
40
1
40
1
41
1
10
42.7327338492666
20
-19.6278524531087
30
0
41
1
10
42.580110900342
20
-19.4920266592683
30
0
41
1
10
42.4279083822629
20
-19.3429640708419
30
0
41
1
10
42.2126093897484
20
-19.0837661574259
30
0
41
1
10
42.1418339177047
20
-18.9893731111026
30
0
41
1
10
42.0296430478258
20
-18.8083274369042
30
0
41
1
10
41.98444078916
20
-18.723383697737
30
0
41
1
10
41.9240611171335
20
-18.5737583178911
30
0
41
1
10
41.9036262266109
20
-18.5091667589717
30
0
41
1
10
41.8780714356509
20
-18.3839267100061
30
0
41
1
10
41.8729509615553
20
-18.3216794767378
30
0
41
1
10
41.8791446135504
20
-18.2173802222074
30
0
41
1
10
41.8885874482028
20
-18.1725640012626
30
0
41
1
10
41.9206076386383
20
-18.0848522213007
30
0
41
1
10
41.9462056011132
20
-18.0443282752656
30
0
41
1
10
41.9757531888273
20
-18.011377441998
30
0
0
SPLINE
5
197
100
AcDbEntity
8
1
62
256
6
ByLayer
370
18
48
1
60
0
100
AcDbSpline
70
4
71
3
72
8
73
4
40
0
40
0
40
0
40
0
40
1
40
1
40
1
40
1
41
1
10
40.2639038895306
20
-24.2647533791916
30
0
41
1
10
40.3703797317365
20
-24.266254082473
30
0
41
1
10
40.4771974934962
20
-24.2652470125125
30
0
41
1
10
40.5842232885852
20
-24.2619486947775
30
0
0
SPLINE
5
198
100
AcDbEntity
8
1
62
256
6
ByLayer
370
18
48
1
60
0
100
AcDbSpline
70
4
71
3
72
10
73
6
40
0
40
0
40
0
40
0
40
0.655488757716275
40
0.655488757716275
40
1
40
1
40
1
40
1
41
1
10
26.0898397606562
20
-8.8802066836266
30
0
41
1
10
25.7382472291329
20
-8.77149062045893
30
0
41
1
10
25.3342721985326
20
-8.69047165899445
30
0
41
1
10
24.6751199591147
20
-8.68379672748253
30
0
41
1
10
24.4376579321134
20
-8.70302627882378
30
0
41
1
10
24.2002245477304
20
-8.75057639926877
30
0
0
SPLINE
5
199
100
AcDbEntity
8
1
62
256
6
ByLayer
370
18
48
1
60
0
100
AcDbSpline
70
4
71
3
72
12
73
8
40
0
40
0
40
0
40
0
40
0.108853988607131
40
0.502629237162305
40
0.699516861439892
40
0.896404485717479
40
1
40
1
40
1
40
1
41
1.02441262532206
10
35.7308720774669
20
-17.7435128157711
30
0
41
1.02394775682001
10
36.0570465691095
20
-17.8371945783191
30
0
41
1.02173322384668
10
37.5998546413519
20
-18.2836509244515
30
0
41
1.01876555595691
10
39.7639587666273
20
-18.9237225760055
30
0
41
1.01610930227499
10
41.2101497565331
20
-19.3611661261615
30
0
41
1.01814069306376
10
41.8998015108546
20
-19.4711916678546
30
0
41
1.02005196006971
10
42.5100866031525
20
-19.5845923107565
30
0
41
1.02076673234773
10
42.7327338492562
20
-19.6278524531067
30
0
0
SPLINE
5
19A
100
AcDbEntity
8
1
62
256
6
ByLayer
370
18
48
1
60
0
100
AcDbSpline
70
4
71
3
72
8
73
4
40
0
40
0
40
0
40
0
40
1
40
1
40
1
40
1
41
1
10
42.4725188863595
20
-23.5565136540573
30
0
41
1
10
42.8344891928013
20
-23.3709639092583
30
0
41
1
10
43.1978134575332
20
-23.1817944139176
30
0
41
1
10
43.5605925574059
20
-22.9899542484269
30
0
0
SPLINE
5
19B
100
AcDbEntity
8
1
62
256
6
ByLayer
370
18
48
1
60
0
100
AcDbSpline
70
4
71
3
72
8
73
4
40
0
40
0
40
0
40
0
40
1
40
1
40
1
40
1
41
1
10
26.4636111232005
20
-14.256134121935
30
0
41
1
10
26.2102146018756
20
-14.2442450511769
30
0
41
1
10
25.9675517819689
20
-14.2038348340749
30
0
41
1
10
25.7347350840777
20
-14.1424938210014
30
0
0
SPLINE
5
19C
100
AcDbEntity
8
1
62
256
6
ByLayer
370
18
48
1
60
0
100
AcDbSpline
70
4
71
3
72
8
73
4
40
0
40
0
40
0
40
0
40
1
40
1
40
1
40
1
41
1
10
33.1916274518321
20
-14.2442120583174
30
0
41
1
10
33.3266907818333
20
-13.2922987337898
30
0
41
1
10
33.384722967321
20
-12.4967883499218
30
0
41
1
10
33.3542610504303
20
-12.0148161573442
30
0
0
SPLINE
5
19D
100
AcDbEntity
8
1
62
256
6
ByLayer
370
18
48
1
60
0
100
AcDbSpline
70
4
71
3
72
8
73
4
40
0
40
0
40
0
40
0
40
1
40
1
40
1
40
1
41
1
10
21.8431855073798
20
-20.0255043477138
30
0
41
1
10
21.8380414112525
20
-20.0483722718295
30
0
41
1
10
21.833415360489
20
-20.0712435014275
30
0
41
1
10
21.8292833877379
20
-20.0941180908154
30
0
0
SPLINE
5
19E
100
AcDbEntity
8
1
62
256
6
ByLayer
370
18
48
1
60
0
100
AcDbSpline
70
4
71
3
72
8
73
4
40
0
40
0
40
0
40
0
40
1
40
1
40
1
40
1
41
1
10
30.6958995961384
20
-23.8324817888045
30
0
41
1
10
30.8932669926633
20
-23.5724807133473
30
0
41
1
10
31.1496586568849
20
-22.9702293647392
30
0
41
1
10
31.4144301598877
20
-22.1446890037006
30
0
0
SPLINE
5
19F
100
AcDbEntity
8
1
62
256
6
ByLayer
370
18
48
1
60
0
100
AcDbSpline
70
4
71
1
72
4
73
2
40
0
40
0
40
1
40
1
41
1
10
33.3542610504303
20
-12.0148161573442
30
0
41
1
10
33.2648239557713
20
-10.5997314545263
30
0
0
SPLINE
5
1A0
100
AcDbEntity
8
1
62
256
6
ByLayer
370
18
48
1
60
0
100
AcDbSpline
70
4
71
2
72
6
73
3
40
0
40
0
40
0
40
1
40
1
40
1
41
1
10
42.472441423343
20
-23.5565665166715
30
0
41
1
10
41.5528474388391
20
-23.9525634146126
30
0
41
1
10
40.5842200904056
20
-24.2617581622559
30
0
0
SPLINE
5
1A1
100
AcDbEntity
8
1
62
256
6
ByLayer
370
18
48
1
60
0
100
AcDbSpline
70
4
71
2
72
6
73
3
40
0
40
0
40
0
40
1
40
1
40
1
41
1.02805999725224
10
30.6958995961384
20
-23.8324817888045
30
0
41
1.02805999725224
10
30.4061613233831
20
-24.214167233533
30
0
41
1.02805999725224
10
30.1164230506277
20
-24.5958526782615
30
0
0
SPLINE
5
1A2
100
AcDbEntity
8
1
62
256
6
ByLayer
370
18
48
1
60
0
100
AcDbSpline
70
4
71
3
72
8
73
4
40
0
40
0
40
0
40
0
40
1
40
1
40
1
40
1
41
1
10
23.68029530204
20
-11.8586881886384
30
0
41
1
10
23.6854393981673
20
-11.8358202645226
30
0
41
1
10
23.691022412846
20
-11.8133074017467
30
0
41
1
10
23.6970242304325
20
-11.7911325319663
30
0
0
SPLINE
5
1A3
100
AcDbEntity
8
1
62
256
6
ByLayer
370
18
48
1
60
0
100
AcDbSpline
70
4
71
3
72
15
73
11
40
0
40
0
40
0
40
0
40
0.322163720426457
40
0.322163720426457
40
0.644833452600231
40
0.644833452600231
40
0.912233455904557
40
0.912233455904557
40
0.912233455904557
40
1
40
1
40
1
40
1
41
1
10
31.4144301598877
20
-22.1446890037006
30
0
41
1
10
31.8988198650017
20
-22.1541443417324
30
0
41
1
10
32.3914780923577
20
-22.0799154844211
30
0
41
1
10
33.3134808507887
20
-21.7901451183118
30
0
41
1
10
33.7560410916594
20
-21.5701811385715
30
0
41
1
10
34.4647805798525
20
-21.0471359626424
30
0
41
1
10
34.7560883109277
20
-20.7574391416601
30
0
41
1
10
34.989335485757
20
-20.4293948220323
30
0
41
1
10
35.0668490792647
20
-20.3203778786856
30
0
41
1
10
35.1384731182289
20
-20.2066360931359
30
0
41
1
10
35.2031826926018
20
-20.08934005365
30
0
0
SPLINE
5
1A4
100
AcDbEntity
8
1
62
256
6
ByLayer
370
18
48
1
60
0
100
AcDbSpline
70
4
71
2
72
9
73
6
40
0
40
0
40
0
40
0.236563526737729
40
0.512589467940935
40
0.926628379745745
40
1
40
1
40
1
41
1.02613459695995
10
26.2773187970184
20
-7.23123148315902
30
0
41
1.02613459695995
10
25.8693329672316
20
-7.23294128823238
30
0
41
1.02613459695995
10
24.9709914102051
20
-7.42811363699395
30
0
41
1.02613459695995
10
23.7842648668125
20
-8.01683100069751
30
0
41
1.02613459695995
10
23.052725292464
20
-8.7366744852629
30
0
41
1.02613459695995
10
22.9441642180692
20
-8.86191186387548
30
0
0
SPLINE
5
1A5
100
AcDbEntity
8
1
62
256
6
ByLayer
370
18
48
1
60
0
100
AcDbSpline
70
4
71
2
72
6
73
3
40
0
40
0
40
0
40
1
40
1
40
1
41
1.01846338132603
10
19.9475622515132
20
-7.71776495277766
30
0
41
0.864796911668373
10
21.0071469415117
20
-7.86968838375198
30
0
41
0.876719039568487
10
21.4239369972862
20
-9.23376260487933
30
0
0
SPLINE
5
1A6
100
AcDbEntity
8
1
62
256
6
ByLayer
370
18
48
1
60
0
100
AcDbSpline
70
4
71
3
72
16
73
12
40
0
40
0
40
0
40
0
40
0.114691258188362
40
0.114691258188362
40
0.256006982052503
40
0.256006982052503
40
0.47848150969845
40
0.47848150969845
40
0.904237458570186
40
0.904237458570186
40
1
40
1
40
1
40
1
41
1
10
9.07679491924313
20
19.1222825906926
30
0
41
1
10
9.09376079941589
20
19.1222825906926
30
0
41
1
10
9.11093746787589
20
19.1213397893258
30
0
41
1
10
9.14653890153815
20
19.117563257367
30
0
41
1
10
9.1649283126321
20
19.1143205262483
30
0
41
1
10
9.20694798227834
20
19.1044641374228
30
0
41
1
10
9.22859635065211
20
19.0968571256395
30
0
41
1
10
9.28185513895582
20
19.0732678361841
30
0
41
1
10
9.30640600056208
20
19.0554522237109
30
0
41
1
10
9.32912053427441
20
19.0329978954363
30
0
41
1
10
9.33300496589206
20
19.0288038685174
30
0
41
1
10
9.33660254037846
20
19.0245744101322
30
0
0
SPLINE
5
1A7
100
AcDbEntity
8
1
62
256
6
ByLayer
370
18
48
1
60
0
100
AcDbSpline
70
4
71
3
72
8
73
4
40
0
40
0
40
0
40
0
40
1
40
1
40
1
40
1
41
1
10
21.0651433124845
20
19.7489873158093
30
0
41
1
10
21.0304207301919
20
19.7489873158093
30
0
41
1
10
20.995695084021
20
19.7488957415293
30
0
41
1
10
20.9609847588647
20
19.7487125483234
30
0
0
SPLINE
5
1A8
100
AcDbEntity
8
1
62
256
6
ByLayer
370
18
48
1
60
0
100
AcDbSpline
70
4
71
3
72
16
73
12
40
0
40
0
40
0
40
0
40
0.114691258188364
40
0.114691258188364
40
0.256006982052491
40
0.256006982052491
40
0.478481509698431
40
0.478481509698431
40
0.904237458570125
40
0.904237458570125
40
1
40
1
40
1
40
1
41
1
10
9.07679491924313
20
-5.85988980456938
30
0
41
1
10
9.09376079941589
20
-5.85988980456938
30
0
41
1
10
9.11093746787589
20
-5.8629683550426
30
0
41
1
10
9.14653890153815
20
-5.87527238052311
30
0
41
1
10
9.1649283126321
20
-5.88582364044447
30
0
41
1
10
9.20694798227834
20
-5.91775860341619
30
0
41
1
10
9.22859635065211
20
-5.94228809980598
30
0
41
1
10
9.28185513895579
20
-6.01773563791645
30
0
41
1
10
9.30640600056208
20
-6.07398601286488
30
0
41
1
10
9.32912053427441
20
-6.14371014971229
30
0
41
1
10
9.33300496589203
20
-6.15668833929709
30
0
41
1
10
9.33660254037846
20
-6.16973001948568
30
0
0
SPLINE
5
1A9
100
AcDbEntity
8
1
62
256
6
ByLayer
370
18
48
1
60
0
100
AcDbSpline
70
4
71
3
72
16
73
12
40
0
40
0
40
0
40
0
40
0.114691258188368
40
0.114691258188368
40
0.256006982052502
40
0.256006982052502
40
0.47848150969846
40
0.47848150969846
40
0.904237458570168
40
0.904237458570168
40
1
40
1
40
1
40
1
41
1
10
6.9232050807569
20
5.85988980456938
30
0
41
1
10
6.90623920058411
20
5.85988980456938
30
0
41
1
10
6.88906253212411
20
5.8629683550426
30
0
41
1
10
6.85346109846185
20
5.87527238052311
30
0
41
1
10
6.8350716873679
20
5.88582364044447
30
0
41
1
10
6.79305201772166
20
5.91775860341622
30
0
41
1
10
6.77140364934789
20
5.94228809980598
30
0
41
1
10
6.71814486104418
20
6.01773563791645
30
0
41
1
10
6.69359399943792
20
6.07398601286491
30
0
41
1
10
6.67087946572559
20
6.14371014971229
30
0
41
1
10
6.66699503410797
20
6.15668833929709
30
0
41
1
10
6.66339745962154
20
6.16973001948568
30
0
0
SPLINE
5
1AA
100
AcDbEntity
8
1
62
256
6
ByLayer
370
18
48
1
60
0
100
AcDbSpline
70
4
71
3
72
10
73
6
40
0
40
0
40
0
40
0
40
0.5
40
0.5
40
1
40
1
40
1
40
1
41
1
10
17.0803645201175
20
18.4785397031243
30
0
41
1
10
17.1607362481336
20
18.8589247873746
30
0
41
1
10
17.5682113664009
20
19.1459166129717
30
0
41
1
10
18.9669005807707
20
19.5099726158561
30
0
41
1
10
19.9225318765138
20
19.5880225669773
30
0
41
1
10
20.92079238
20
19.5953859168696
30
0
0
SPLINE
5
1AB
100
AcDbEntity
8
1
62
256
6
ByLayer
370
18
48
1
60
0
100
AcDbSpline
70
4
71
3
72
16
73
12
40
0
40
0
40
0
40
0
40
0.46430426715929
40
0.46430426715929
40
0.647533485141967
40
0.647533485141967
40
0.833383675860504
40
0.833383675860504
40
0.950238074309844
40
0.950238074309844
40
1
40
1
40
1
40
1
41
1
10
6.66339745962156
20
-6.16973001948568
30
0
41
1
10
6.68070356543041
20
-6.10699311212741
30
0
41
1
10
6.70445583204739
20
-6.04466199750289
30
0
41
1
10
6.75332706552712
20
-5.96658891111872
30
0
41
1
10
6.76920288341026
20
-5.94525308185362
30
0
41
1
10
6.80605435144608
20
-5.90694983484818
30
0
41
1
10
6.82759190740043
20
-5.88959453036586
30
0
41
1
10
6.86713065155234
20
-5.86981268651903
30
0
41
1
10
6.8838647446556
20
-5.8641686994944
30
0
41
1
10
6.90829201976607
20
-5.86046107106307
30
0
41
1
10
6.91575967688848
20
-5.85988980456935
30
0
41
1
10
6.92320508075687
20
-5.85988980456935
30
0
0
SPLINE
5
1AC
100
AcDbEntity
8
1
62
256
6
ByLayer
370
18
48
1
60
0
100
AcDbSpline
70
4
71
3
72
16
73
12
40
0
40
0
40
0
40
0
40
0.248188124848106
40
0.248188124848106
40
0.496245329874971
40
0.496245329874971
40
0.744716099538235
40
0.744716099538235
40
0.970369992592298
40
0.970369992592298
40
1
40
1
40
1
40
1
41
1
10
15.5936629342219
20
-18.6237481287753
30
0
41
1
10
15.4828349304765
20
-18.6558101067973
30
0
41
1
10
15.3862030128024
20
-18.6949094433625
30
0
41
1
10
15.2355025115186
20
-18.7786473816339
30
0
41
1
10
15.1792182614247
20
-18.8244922923739
30
0
41
1
10
15.1164602811922
20
-18.9158463267805
30
0
41
1
10
15.1092602712594
20
-18.9628101044814
30
0
41
1
10
15.1493212219158
20
-19.0458477915189
30
0
41
1
10
15.1926108437266
20
-19.0838246095496
30
0
41
1
10
15.2668742681974
20
-19.1206353693974
30
0
41
1
10
15.2760448339977
20
-19.1248962852432
30
0
41
1
10
15.2856043785007
20
-19.129064320593
30
0
0
SPLINE
5
1AD
100
AcDbEntity
8
1
62
256
6
ByLayer
370
18
48
1
60
0
100
AcDbSpline
70
4
71
3
72
42
73
38
40
0
40
0
40
0
40
0
40
0.0001456802241432
40
0.0001456802241432
40
0.0001937815140673
40
0.0001937815140673
40
0.0002315126763859
40
0.0002315126763859
40
0.0002608508972639
40
0.0002608508972639
40
0.0002901052180149
40
0.0002901052180149
40
0.0003386246462048
40
0.0003386246462048
40
0.0004943088120117
40
0.0004943088120117
40
0.001238288680514
40
0.001238288680514
40
0.0042003646927684
40
0.0042003646927684
40
0.0160477358934697
40
0.0160477358934697
40
0.0634548551009413
40
0.0634548551009413
40
0.254713345189268
40
0.254713345189268
40
0.445726205661548
40
0.445726205661548
40
0.588324781879906
40
0.588324781879906
40
0.775840015923328
40
0.775840015923328
40
0.886031786505843
40
0.886031786505843
40
0.994826735756
40
0.994826735756
40
1
40
1
40
1
40
1
41
1
10
21.4239710614907
20
-9.23370147168239
30
0
41
1
10
21.4239745568168
20
-9.23378511089857
30
0
41
1
10
21.4239797520332
20
-9.23386894557081
30
0
41
1
10
21.4240003126955
20
-9.23396993376053
30
0
41
1
10
21.4240067380247
20
-9.23399428710408
30
0
41
1
10
21.4240225632602
20
-9.2340325282949
30
0
41
1
10
21.4240312245109
20
-9.23404776387349
30
0
41
1
10
21.4240503595624
20
-9.234067566178
30
0
41
1
10
21.4240602280322
20
-9.23407380081088
30
0
41
1
10
21.4240815397789
20
-9.23407978977517
30
0
41
1
10
21.4240931778795
20
-9.2340796781441
30
0
41
1
10
21.4241241734196
20
-9.23407318706322
30
0
41
1
10
21.4241440844681
20
-9.23406303887356
30
0
41
1
10
21.4242246411644
20
-9.23401075883382
30
0
41
1
10
21.4242828518812
20
-9.23394949791219
30
0
41
1
10
21.4246081141973
20
-9.23359349450246
30
0
41
1
10
21.424856633874
20
-9.23324875243765
30
0
41
1
10
21.4261088951041
20
-9.23158155351459
30
0
41
1
10
21.4270963939071
20
-9.23022165476823
30
0
41
1
10
21.4320608421823
20
-9.22346335119801
30
0
41
1
10
21.4360556299759
20
-9.21806515479747
30
0
41
1
10
21.4561871851437
20
-9.19118124393097
30
0
41
1
10
21.4727650523358
20
-9.16997505304386
30
0
41
1
10
21.5584099255094
20
-9.06534831371454
30
0
41
1
10
21.6353799181409
20
-8.98659666613054
30
0
41
1
10
21.8080468173095
20
-8.84848749896139
30
0
41
1
10
21.8923323070508
20
-8.76051198403275
30
0
41
1
10
22.0798141035052
20
-8.69157788724183
30
0
41
1
10
22.1702370735603
20
-8.69049446123199
30
0
41
1
10
22.3743338812246
20
-8.68505111090545
30
0
41
1
10
22.4942275481139
20
-8.67897720213816
30
0
41
1
10
22.6715763495607
20
-8.70444731032927
30
0
41
1
10
22.735403044254
20
-8.72355158839761
30
0
41
1
10
22.847179774775
20
-8.77869074199396
30
0
41
1
10
22.8966875242138
20
-8.81494521706293
30
0
41
1
10
22.9402598040473
20
-8.85797404708296
30
0
41
1
10
22.942211858401
20
-8.85994964086342
30
0
41
1
10
22.9441642180692
20
-8.86191186387543
30
0
0
SPLINE
5
1AE
100
AcDbEntity
8
1
62
256
6
ByLayer
370
18
48
1
60
0
100
AcDbSpline
70
4
71
3
72
16
73
12
40
0
40
0
40
0
40
0
40
0.114691258188364
40
0.114691258188364
40
0.256006982052499
40
0.256006982052499
40
0.478481509698429
40
0.478481509698429
40
0.904237458570111
40
0.904237458570111
40
1
40
1
40
1
40
1
41
1
10
6.92320508075687
20
-19.1222825906926
30
0
41
1
10
6.90623920058411
20
-19.1222825906926
30
0
41
1
10
6.88906253212411
20
-19.1213397893258
30
0
41
1
10
6.85346109846185
20
-19.117563257367
30
0
41
1
10
6.83507168736793
20
-19.1143205262483
30
0
41
1
10
6.79305201772169
20
-19.1044641374228
30
0
41
1
10
6.77140364934789
20
-19.0968571256395
30
0
41
1
10
6.71814486104421
20
-19.0732678361841
30
0
41
1
10
6.69359399943792
20
-19.0554522237109
30
0
41
1
10
6.67087946572559
20
-19.0329978954364
30
0
41
1
10
6.66699503410797
20
-19.0288038685174
30
0
41
1
10
6.66339745962154
20
-19.0245744101322
30
0
0
SPLINE
5
1AF
100
AcDbEntity
8
1
62
256
6
ByLayer
370
18
48
1
60
0
100
AcDbSpline
70
4
71
3
72
16
73
12
40
0
40
0
40
0
40
0
40
0.464304267159312
40
0.464304267159312
40
0.64753348514198
40
0.64753348514198
40
0.833383675860513
40
0.833383675860513
40
0.950238074309858
40
0.950238074309858
40
1
40
1
40
1
40
1
41
1
10
9.33660254037844
20
-19.0245744101322
30
0
41
1
10
9.31929643456959
20
-19.0449201888242
30
0
41
1
10
9.29554416795261
20
-19.0647708693882
30
0
41
1
10
9.24667293447288
20
-19.0892734034403
30
0
41
1
10
9.23079711658974
20
-19.0959253431035
30
0
41
1
10
9.19394564855392
20
-19.1078085849622
30
0
41
1
10
9.17240809259957
20
-19.1131587398644
30
0
41
1
10
9.13286934844766
20
-19.1192406569511
30
0
41
1
10
9.1161352553444
20
-19.1209710216544
30
0
41
1
10
9.09170798023393
20
-19.1221075563677
30
0
41
1
10
9.08424032311152
20
-19.1222825906926
30
0
41
1
10
9.07679491924313
20
-19.1222825906926
30
0
0
SPLINE
5
1B0
100
AcDbEntity
8
1
62
256
6
ByLayer
370
18
48
1
60
0
100
AcDbSpline
70
4
71
3
72
8
73
4
40
0
40
0
40
0
40
0
40
1
40
1
40
1
40
1
41
1
10
19.9475622551137
20
-7.71776495329388
30
0
41
1
10
20.1975054437798
20
-7.05976950863334
30
0
41
1
10
20.583365921726
20
-6.47855740213868
30
0
41
1
10
21.0651433124845
20
-5.95554325584325
30
0
0
SPLINE
5
1B1
100
AcDbEntity
8
1
62
256
6
ByLayer
370
18
48
1
60
0
100
AcDbSpline
70
4
71
3
72
22
73
18
40
0
40
0
40
0
40
0
40
0.195027712337775
40
0.195027712337775
40
0.347423580004064
40
0.347423580004064
40
0.500500188828506
40
0.500500188828506
40
0.640268109983223
40
0.640268109983223
40
0.759512647489263
40
0.759512647489263
40
0.872160344725739
40
0.872160344725739
40
0.981009479760067
40
0.981009479760067
40
1
40
1
40
1
40
1
41
1
10
21.0651433124845
20
-5.95554325584325
30
0
41
1
10
21.3823961172507
20
-5.61113584273613
30
0
41
1
10
21.7303791256026
20
-5.28140333418392
30
0
41
1
10
22.4493468281549
20
-4.85835105151858
30
0
41
1
10
22.8032544652671
20
-4.73073841034983
30
0
41
1
10
23.5213866773221
20
-4.58735105975629
30
0
41
1
10
23.9002873929674
20
-4.57673416486497
30
0
41
1
10
24.5903329460298
20
-4.69877748289616
30
0
41
1
10
24.9152810382707
20
-4.8217155114817
30
0
41
1
10
25.4379193365631
20
-5.15700958495228
30
0
41
1
10
25.6545983191781
20
-5.3581959661833
30
0
41
1
10
25.9889260723608
20
-5.80435096133331
30
0
41
1
10
26.1158480063906
20
-6.05305157090569
30
0
41
1
10
26.2701040429881
20
-6.56315882956102
30
0
41
1
10
26.3025120511944
20
-6.83098610961792
30
0
41
1
10
26.2863556081829
20
-7.13889319940745
30
0
41
1
10
26.2825242520217
20
-7.18515059325125
30
0
41
1
10
26.2773187970184
20
-7.23123148315901
30
0
0
SPLINE
5
1B2
100
AcDbEntity
8
1
62
256
6
ByLayer
370
18
48
1
60
0
100
AcDbSpline
70
4
71
3
72
16
73
12
40
0
40
0
40
0
40
0
40
0.464304267159304
40
0.464304267159304
40
0.647533485141974
40
0.647533485141974
40
0.833383675860506
40
0.833383675860506
40
0.950238074309851
40
0.950238074309851
40
1
40
1
40
1
40
1
41
1
10
9.33660254037844
20
6.16973001948568
30
0
41
1
10
9.31929643456959
20
6.10699311212741
30
0
41
1
10
9.29554416795261
20
6.04466199750289
30
0
41
1
10
9.24667293447288
20
5.96658891111872
30
0
41
1
10
9.23079711658974
20
5.94525308185362
30
0
41
1
10
9.19394564855392
20
5.90694983484818
30
0
41
1
10
9.17240809259957
20
5.88959453036583
30
0
41
1
10
9.13286934844766
20
5.86981268651903
30
0
41
1
10
9.1161352553444
20
5.86416869949437
30
0
41
1
10
9.09170798023393
20
5.86046107106307
30
0
41
1
10
9.08424032311152
20
5.85988980456935
30
0
41
1
10
9.07679491924313
20
5.85988980456935
30
0
0
SPLINE
5
1B3
100
AcDbEntity
8
1
62
256
6
ByLayer
370
18
48
1
60
0
100
AcDbSpline
70
4
71
3
72
8
73
4
40
0
40
0
40
0
40
0
40
1
40
1
40
1
40
1
41
1
10
20.9609847588647
20
19.7487125483234
30
0
41
1
10
20.9475817320637
20
19.6976046271877
30
0
41
1
10
20.9341842105476
20
19.6464956774885
30
0
41
1
10
20.92079238
20
19.5953859168696
30
0
0
SPLINE
5
1B4
100
AcDbEntity
8
1
62
256
6
ByLayer
370
18
48
1
60
0
100
AcDbSpline
70
4
71
3
72
16
73
12
40
0
40
0
40
0
40
0
40
0.464304267159293
40
0.464304267159293
40
0.647533485141969
40
0.647533485141969
40
0.833383675860506
40
0.833383675860506
40
0.950238074309852
40
0.950238074309852
40
1
40
1
40
1
40
1
41
1
10
6.66339745962156
20
19.0245744101322
30
0
41
1
10
6.68070356543041
20
19.0449201888242
30
0
41
1
10
6.70445583204739
20
19.0647708693882
30
0
41
1
10
6.75332706552712
20
19.0892734034403
30
0
41
1
10
6.76920288341026
20
19.0959253431035
30
0
41
1
10
6.80605435144608
20
19.1078085849622
30
0
41
1
10
6.82759190740043
20
19.1131587398644
30
0
41
1
10
6.86713065155234
20
19.1192406569511
30
0
41
1
10
6.8838647446556
20
19.1209710216544
30
0
41
1
10
6.90829201976607
20
19.1221075563677
30
0
41
1
10
6.91575967688848
20
19.1222825906926
30
0
41
1
10
6.92320508075687
20
19.1222825906926
30
0
0
SPLINE
5
1B5
100
AcDbEntity
8
1
62
256
6
ByLayer
370
18
48
1
60
0
100
AcDbSpline
70
4
71
3
72
22
73
18
40
0
40
0
40
0
40
0
40
0.284347809770977
40
0.284347809770977
40
0.489314186406591
40
0.489314186406591
40
0.578684352668828
40
0.578684352668828
40
0.669800863520231
40
0.669800863520231
40
0.73024830221983
40
0.73024830221983
40
0.790522349263712
40
0.790522349263712
40
0.879824042061851
40
0.879824042061851
40
1
40
1
40
1
40
1
41
1
10
17.0803645201175
20
-10.8135496622125
30
0
41
1
10
17.0840538430498
20
-10.6548683662793
30
0
41
1
10
17.0890019221401
20
-10.4975206676857
30
0
41
1
10
17.1037178832483
20
-10.2400072942179
30
0
41
1
10
17.1117126169078
20
-10.1343251173686
30
0
41
1
10
17.1301270676309
20
-10.0025358183229
30
0
41
1
10
17.1367770367278
20
-9.96480428133006
30
0
41
1
10
17.1531621707728
20
-9.90114603506228
30
0
41
1
10
17.1632747378524
20
-9.87475883571028
30
0
41
1
10
17.1829007785423
20
-9.8517332072266
30
0
41
1
10
17.1916855418457
20
-9.84804937618125
30
0
41
1
10
17.2097150991692
20
-9.85301999459548
30
0
41
1
10
17.2191530779161
20
-9.86161400032242
30
0
41
1
10
17.2419022285221
20
-9.89376121391868
30
0
41
1
10
17.2552835989141
20
-9.9226627171461
30
0
41
1
10
17.2845542889281
20
-10.0002515507691
30
0
41
1
10
17.3001959947854
20
-10.053210708989
30
0
41
1
10
17.3146528979196
20
-10.1089903521751
30
0
0
SPLINE
5
1B6
100
AcDbEntity
8
SK1
62
256
6
ByLayer
370
18
48
1
60
0
100
AcDbSpline
70
4
71
3
72
22
73
18
40
0
40
0
40
0
40
0
40
0.0408146055975421
40
0.0408146055975421
40
0.0823243808208714
40
0.0823243808208714
40
0.113722137960843
40
0.113722137960843
40
0.144934004837801
40
0.144934004837801
40
0.197663645148653
40
0.197663645148653
40
0.33040493622216
40
0.33040493622216
40
0.796191409884692
40
0.796191409884692
40
1
40
1
40
1
40
1
41
1
10
-0.394976888875306
20
5.00092508226666
30
0
41
1
10
-0.415530107853925
20
5.01747813555136
30
0
41
1
10
-0.438024560131566
20
5.03261131985604
30
0
41
1
10
-0.487324802537927
20
5.05682200266617
30
0
41
1
10
-0.514951385379703
20
5.065973715838
30
0
41
1
10
-0.565001076851473
20
5.07238571210249
30
0
41
1
10
-0.587551462055302
20
5.07198375916977
30
0
41
1
10
-0.630654498772856
20
5.06497384681828
30
0
41
1
10
-0.651690830573216
20
5.05839846240309
30
0
41
1
10
-0.704063404944179
20
5.0354696203506
30
0
41
1
10
-0.733646054998758
20
5.01537181535585
30
0
41
1
10
-0.825717517678271
20
4.93804001611764
30
0
41
1
10
-0.875568215521128
20
4.86927174197922
30
0
41
1
10
-1.06893868726922
20
4.55513362670803
30
0
41
1
10
-1.15213866111816
20
4.27852588598478
30
0
41
1
10
-1.25478905452405
20
3.87761185644086
30
0
41
1
10
-1.28234760083203
20
3.75339907142145
30
0
41
1
10
-1.30710678118763
20
3.62781610099955
30
0
0
SPLINE
5
1B7
100
AcDbEntity
8
SK1
62
256
6
ByLayer
370
18
48
1
60
0
100
AcDbSpline
70
4
71
3
72
10
73
6
40
0
40
0
40
0
40
0
40
0.5
40
0.5
40
1
40
1
40
1
40
1
41
1
10
-1.69999999999999
20
-2.58372509632821
30
0
41
1
10
-1.83222262461143
20
-1.751855044526
30
0
41
1
10
-1.92871617486691
20
-0.884329181036094
30
0
41
1
10
-1.92842303871006
20
0.888588835776119
30
0
41
1
10
-1.83224326233341
20
1.75172436897285
30
0
41
1
10
-1.69999999999999
20
2.58372503195247
30
0
0
SPLINE
5
1B8
100
AcDbEntity
8
SK1
62
256
6
ByLayer
370
18
48
1
60
0
100
AcDbSpline
70
4
71
3
72
100
73
96
40
0
40
0
40
0
40
0
40
0.0043783247532282
40
0.0136712309453665
40
0.0229641371375048
40
0.0322570433296431
40
0.0415499495217814
40
0.0601357619060581
40
0.0787215742903348
40
0.0973073866746114
40
0.115893199058888
40
0.125186105251026
40
0.134479011443165
40
0.143771917635303
40
0.153064823827441
40
0.171650636211718
40
0.190236448595995
40
0.199529354788133
40
0.208822260980271
40
0.21811516717241
40
0.227408073364548
40
0.236700979556686
40
0.245993885748825
40
0.264579698133101
40
0.27387260432524
40
0.283165510517378
40
0.301751322901655
40
0.320337135285931
40
0.32963004147807
40
0.338922947670208
40
0.357508760054485
40
0.366801666246623
40
0.371448119342692
40
0.376094572438761
40
0.385387478630899
40
0.394680384823038
40
0.413266197207314
40
0.422559103399453
40
0.431852009591591
40
0.441144915783729
40
0.450437821975868
40
0.459730728168006
40
0.469023634360144
40
0.478316540552283
40
0.487609446744421
40
0.496902352936559
40
0.506195259128698
40
0.524781071512974
40
0.534073977705113
40
0.543366883897251
40
0.552659790089389
40
0.557306243185458
40
0.561952696281528
40
0.571245602473666
40
0.580538508665804
40
0.589831414857943
40
0.599124321050081
40
0.608417227242219
40
0.617710133434358
40
0.636295945818634
40
0.654881758202911
40
0.664174664395049
40
0.673467570587188
40
0.692053382971464
40
0.701346289163602
40
0.710639195355741
40
0.719932101547879
40
0.729225007740017
40
0.738517913932156
40
0.747810820124294
40
0.757103726316433
40
0.766396632508571
40
0.784982444892847
40
0.794275351084986
40
0.803568257277124
40
0.812861163469262
40
0.822154069661401
40
0.831446975853539
40
0.840739882045677
40
0.859325694429954
40
0.868618600622092
40
0.877911506814231
40
0.887204413006369
40
0.896497319198507
40
0.915083131582784
40
0.924376037774922
40
0.933668943967061
40
0.942961850159199
40
0.952254756351337
40
0.961547662543476
40
0.970840568735614
40
0.980133474927752
40
0.98942638111989
40
0.998719287312029
40
1
40
1
40
1
40
1
41
1
10
-0.394976888875277
20
5.00092508225416
30
0
41
1
10
-0.394976888875277
20
5.02359314607176
30
0
41
1
10
-0.394976888875277
20
5.09425535366776
30
0
41
1
10
-0.394976888875277
20
5.21232773830431
30
0
41
1
10
-0.394976888875277
20
5.35463943777347
30
0
41
1
10
-0.394976888875277
20
5.49591839522026
30
0
41
1
10
-0.394976888875277
20
5.68302324398948
30
0
41
1
10
-0.394976888875277
20
5.91406388300979
30
0
41
1
10
-0.394976888875277
20
6.18726435105106
30
0
41
1
10
-0.394976888875277
20
6.45627504712579
30
0
41
1
10
-0.394976888875277
20
6.6768468885183
30
0
41
1
10
-0.394976888875277
20
6.85136201549099
30
0
41
1
10
-0.394976888875277
20
6.98112245032084
30
0
41
1
10
-0.394976888875277
20
7.10982246715957
30
0
41
1
10
-0.394976888875277
20
7.28009512097313
30
0
41
1
10
-0.394976888875277
20
7.49008091096033
30
0
41
1
10
-0.394976888875277
20
7.69650359935568
30
0
41
1
10
-0.394976888875277
20
7.85964216476054
30
0
41
1
10
-0.394976888875277
20
7.98086146605701
30
0
41
1
10
-0.394976888875277
20
8.10100253994159
30
0
41
1
10
-0.394976888875277
20
8.22006380191277
30
0
41
1
10
-0.394976888875277
20
8.3380422654499
30
0
41
1
10
-0.394976888875277
20
8.49397420958985
30
0
41
1
10
-0.394976888875277
20
8.64751156797169
30
0
41
1
10
-0.394976888875277
20
8.79907644696402
30
0
41
1
10
-0.394976888875277
20
8.94918034619519
30
0
41
1
10
-0.394976888875277
20
9.13390680482667
30
0
41
1
10
-0.394976888875277
20
9.31494999082747
30
0
41
1
10
-0.394976888875277
20
9.45767863215664
30
0
41
1
10
-0.394976888875277
20
9.59892077296985
30
0
41
1
10
-0.394976888875277
20
9.73773602301958
30
0
41
1
10
-0.394976888875277
20
9.85736937045593
30
0
41
1
10
-0.394976888875277
20
9.92517902838179
30
0
41
1
10
-0.394976888875277
20
9.99261145812801
30
0
41
1
10
-0.394976888875277
20
10.0761265678462
30
0
41
1
10
-0.394976888875277
20
10.2083399899529
30
0
41
1
10
-0.394976888875277
20
10.338096057249
30
0
41
1
10
-0.394976888875277
20
10.4657231753345
30
0
41
1
10
-0.394976888875277
20
10.5602461538978
30
0
41
1
10
-0.394976888875277
20
10.6536100894112
30
0
41
1
10
-0.394976888875277
20
10.7458098983122
30
0
41
1
10
-0.394976888875277
20
10.8368404586376
30
0
41
1
10
-0.394976888875277
20
10.9266969919675
30
0
41
1
10
-0.394976888875277
20
11.0153746961414
30
0
41
1
10
-0.394976888875277
20
11.1028676417001
30
0
41
1
10
-0.394976888875277
20
11.1891707748317
30
0
41
1
10
-0.394976888875277
20
11.3026972665534
30
0
41
1
10
-0.394976888875277
20
11.413674138825
30
0
41
1
10
-0.394976888875277
20
11.5223699808134
30
0
41
1
10
-0.394976888875277
20
11.6026363770329
30
0
41
1
10
-0.394976888875277
20
11.6684804460587
30
0
41
1
10
-0.394976888875277
20
11.7205808983271
30
0
41
1
10
-0.394976888875277
20
11.7722691819395
30
0
41
1
10
-0.394976888875277
20
11.836053984022
30
0
41
1
10
-0.394976888875277
20
11.9113764724791
30
0
41
1
10
-0.394976888875277
20
11.9854459723214
30
0
41
1
10
-0.394976888875277
20
12.0582544232072
30
0
41
1
10
-0.394976888875277
20
12.1297946270485
30
0
41
1
10
-0.394976888875277
20
12.2235215963167
30
0
41
1
10
-0.394976888875277
20
12.3373769247913
30
0
41
1
10
-0.394976888875277
20
12.446899173783
30
0
41
1
10
-0.394976888875277
20
12.5319491682166
30
0
41
1
10
-0.394976888875277
20
12.6152283642396
30
0
41
1
10
-0.394976888875277
20
12.6957215996061
30
0
41
1
10
-0.394976888875277
20
12.773610902979
30
0
41
1
10
-0.394976888875277
20
12.8306328883531
30
0
41
1
10
-0.394976888875277
20
12.8862769625636
30
0
41
1
10
-0.394976888875277
20
12.940532100831
30
0
41
1
10
-0.394976888875277
20
12.9933861205259
30
0
41
1
10
-0.394976888875277
20
13.0448282543027
30
0
41
1
10
-0.394976888875277
20
13.0948461430692
30
0
41
1
10
-0.394976888875277
20
13.1596507828291
30
0
41
1
10
-0.394976888875277
20
13.221467049789
30
0
41
1
10
-0.394976888875277
20
13.2804176772461
30
0
41
1
10
-0.394976888875277
20
13.3231185723383
30
0
41
1
10
-0.394976888875277
20
13.3643136307331
30
0
41
1
10
-0.394976888875277
20
13.4039879870964
30
0
41
1
10
-0.394976888875277
20
13.4421262291561
30
0
41
1
10
-0.394976888875277
20
13.490931201485
30
0
41
1
10
-0.394976888875277
20
13.5365270011545
30
0
41
1
10
-0.394976888875277
20
13.5789822078612
30
0
41
1
10
-0.394976888875277
20
13.6091837809887
30
0
41
1
10
-0.394976888875277
20
13.6377421279937
30
0
41
1
10
-0.394976888875277
20
13.6736219491958
30
0
41
1
10
-0.394976888875277
20
13.706079968468
30
0
41
1
10
-0.394976888875277
20
13.7351343539634
30
0
41
1
10
-0.394976888875277
20
13.7551609910392
30
0
41
1
10
-0.394976888875277
20
13.7734119916164
30
0
41
1
10
-0.394976888875277
20
13.7898613788954
30
0
41
1
10
-0.394976888875277
20
13.8044829828858
30
0
41
1
10
-0.394976888875277
20
13.8172491473121
30
0
41
1
10
-0.394976888875277
20
13.8281307581185
30
0
41
1
10
-0.394976888875277
20
13.8370980881852
30
0
41
1
10
-0.394976888875277
20
13.8421014019358
30
0
41
1
10
-0.394976888875277
20
13.8443373794894
30
0
41
1
10
-0.394976888875277
20
13.8446019297682
30
0
0
SPLINE
5
1B9
100
AcDbEntity
8
SK1
62
256
6
ByLayer
370
18
48
1
60
0
100
AcDbSpline
70
4
71
3
72
8
73
4
40
0
40
0
40
0
40
0
40
1
40
1
40
1
40
1
41
1
10
-1.30710678118655
20
-3.62781725664615
30
0
41
1
10
-1.37345758266253
20
-3.29127686428785
30
0
41
1
10
-1.4372955614198
20
-2.946602671997
30
0
41
1
10
-1.49503997793931
20
-2.59465115838313
30
0
0
SPLINE
5
1BA
100
AcDbEntity
8
SK1
62
256
6
ByLayer
370
18
48
1
60
0
100
AcDbSpline
70
4
71
3
72
24
73
20
40
0
40
0
40
0
40
0
40
0.470757791634908
40
0.470757791634908
40
0.661826126045254
40
0.661826126045254
40
0.85568916651581
40
0.85568916651581
40
0.884460546127643
40
0.884460546127643
40
0.91360691814161
40
0.91360691814161
40
0.932763100125268
40
0.932763100125268
40
0.95203909678233
40
0.95203909678233
40
0.974618894615272
40
0.974618894615272
40
1
40
1
40
1
40
1
41
1
10
-0.199999999999989
20
5.70317605472911
30
0
41
1
10
-0.199999999999989
20
5.58107998739831
30
0
41
1
10
-0.203895983734896
20
5.45705658909691
30
0
41
1
10
-0.223509916035709
20
5.28128624620587
30
0
41
1
10
-0.23086916609185
20
5.23019697507434
30
0
41
1
10
-0.252992963272021
20
5.12819212434212
30
0
41
1
10
-0.266168518183207
20
5.0748758166919
30
0
41
1
10
-0.299311339940942
20
5.02202983998879
30
0
41
1
10
-0.304166370278011
20
5.01525404855027
30
0
41
1
10
-0.315232060467963
20
5.00279573504582
30
0
41
1
10
-0.321587352348587
20
4.99699852204864
30
0
41
1
10
-0.333432884234497
20
4.98975078853741
30
0
41
1
10
-0.33858625385443
20
4.98746585289803
30
0
41
1
10
-0.3491574393544
20
4.98479989040243
30
0
41
1
10
-0.354703931885922
20
4.98441392730476
30
0
41
1
10
-0.366193082216228
20
4.98556317954746
30
0
41
1
10
-0.372213152675158
20
4.98741181161262
30
0
41
1
10
-0.383950186909431
20
4.99285513665984
30
0
41
1
10
-0.3896944310344
20
4.99667072159761
30
0
41
1
10
-0.394976888882155
20
5.00092508225598
30
0
0
SPLINE
5
1BB
100
AcDbEntity
8
SK1
62
256
6
ByLayer
370
18
48
1
60
0
100
AcDbSpline
70
4
71
3
72
32
73
28
40
0
40
0
40
0
40
0
40
0.335339404831972
40
0.335339404831972
40
0.429287156787091
40
0.429287156787091
40
0.47567705376244
40
0.47567705376244
40
0.494539743197707
40
0.494539743197707
40
0.513645880085613
40
0.513645880085613
40
0.520504273461007
40
0.520504273461007
40
0.527488218290634
40
0.527488218290634
40
0.533551201014328
40
0.533551201014328
40
0.540998152878254
40
0.540998152878254
40
0.554393631774451
40
0.554393631774451
40
0.598967269657032
40
0.598967269657032
40
0.809317334416222
40
0.809317334416222
40
1
40
1
40
1
40
1
41
1
10
-1.49503997793931
20
-2.59465115838304
30
0
41
1
10
-1.51545804662706
20
-2.47020327904033
30
0
41
1
10
-1.5371392192427
20
-2.34554891087819
30
0
41
1
10
-1.57392592094843
20
-2.19043955590803
30
0
41
1
10
-1.58255890853934
20
-2.15670217135892
30
0
41
1
10
-1.5980595693656
20
-2.1081468839686
30
0
41
1
10
-1.60359902440038
20
-2.09231222948606
30
0
41
1
10
-1.61296122457534
20
-2.07152520286885
30
0
41
1
10
-1.6158696741316
20
-2.0656737244498
30
0
41
1
10
-1.62242426172162
20
-2.05481886173052
30
0
41
1
10
-1.62611615645159
20
-2.04963161073078
30
0
41
1
10
-1.63217263701876
20
-2.04479089552191
30
0
41
1
10
-1.63391092603902
20
-2.04372430879368
30
0
41
1
10
-1.63759701012464
20
-2.04243943769597
30
0
41
1
10
-1.63960513001732
20
-2.04224314885471
30
0
41
1
10
-1.64327142014687
20
-2.04303363449088
30
0
41
1
10
-1.64498274878696
20
-2.04388024545895
30
0
41
1
10
-1.64846923771176
20
-2.04652261877811
30
0
41
1
10
-1.65023197368771
20
-2.04850621085967
30
0
41
1
10
-1.65459297944469
20
-2.05462030362457
30
0
41
1
10
-1.65687449353447
20
-2.05928542847226
30
0
41
1
10
-1.66535432668744
20
-2.07982184742582
30
0
41
1
10
-1.66919635898847
20
-2.09736547364699
30
0
41
1
10
-1.68800967157858
20
-2.19569498442294
30
0
41
1
10
-1.6917465712958
20
-2.27904221250569
30
0
41
1
10
-1.69840552504974
20
-2.43548746422863
30
0
41
1
10
-1.69970172620592
20
-2.50976932903754
30
0
41
1
10
-1.69999999999999
20
-2.58372509632824
30
0
0
SPLINE
5
1BC
100
AcDbEntity
8
SK1
62
256
6
ByLayer
370
18
48
1
60
0
100
AcDbSpline
70
4
71
3
72
30
73
26
40
0
40
0
40
0
40
0
40
0.337353368376273
40
0.337353368376273
40
0.421572476570396
40
0.421572476570396
40
0.437870507614647
40
0.437870507614647
40
0.454360744150349
40
0.454360744150349
40
0.46102437321649
40
0.46102437321649
40
0.467802724987302
40
0.467802724987302
40
0.473791453396888
40
0.473791453396888
40
0.481264268969724
40
0.481264268969724
40
0.494804301393218
40
0.494804301393218
40
0.541069262252274
40
0.541069262252274
40
0.762218024196531
40
0.762218024196531
40
1
40
1
40
1
40
1
41
1
10
-1.69999999999999
20
2.5837250319525
30
0
41
1
10
-1.69946915813009
20
2.45210484593008
30
0
41
1
10
-1.69760670671556
20
2.31884997747196
30
0
41
1
10
-1.67915375522099
20
2.15294187932722
30
0
41
1
10
-1.67485152519237
20
2.11932442567118
30
0
41
1
10
-1.66472347048304
20
2.08095979549279
30
0
41
1
10
-1.66287560510222
20
2.07475454077749
30
0
41
1
10
-1.65846712486041
20
2.06274931231133
30
0
41
1
10
-1.65588139752759
20
2.05680133794195
30
0
41
1
10
-1.65120237663186
20
2.0497680665317
30
0
41
1
10
-1.64969999009787
20
2.04787870491481
30
0
41
1
10
-1.64639510213217
20
2.0447894938039
30
0
41
1
10
-1.64453557847699
20
2.04357912964019
30
0
41
1
10
-1.64096575658939
20
2.04240828386776
30
0
41
1
10
-1.63922229186966
20
2.04230771235822
30
0
41
1
10
-1.63551182442282
20
2.04297037181766
30
0
41
1
10
-1.63353448434609
20
2.04393506875687
30
0
41
1
10
-1.62845259442082
20
2.04750201060256
30
0
41
1
10
-1.62558657915471
20
2.0508033417303
30
0
41
1
10
-1.61425491864986
20
2.06649024761731
30
0
41
1
10
-1.60795428020356
20
2.08189579117942
30
0
41
1
10
-1.57473680217674
20
2.17064161742221
30
0
41
1
10
-1.55852136531561
20
2.25243693059593
30
0
41
1
10
-1.5247433730911
20
2.41950302647342
30
0
41
1
10
-1.50941945205861
20
2.5070083929059
30
0
41
1
10
-1.49503997793928
20
2.59465115086951
30
0
0
SPLINE
5
1BD
100
AcDbEntity
8
SK1
62
256
6
ByLayer
370
18
48
1
60
0
100
AcDbSpline
70
4
71
3
72
98
73
94
40
0
40
0
40
0
40
0
40
0.0012808740763045
40
0.0105737783742241
40
0.0198666826721437
40
0.0291595869700633
40
0.0384524912679829
40
0.0477453955659025
40
0.0663312041617417
40
0.0849170127575809
40
0.10350282135342
40
0.11279572565134
40
0.122088629949259
40
0.131381534247179
40
0.140674438545099
40
0.159260247140938
40
0.168553151438857
40
0.177846055736777
40
0.187138960034696
40
0.196431864332616
40
0.205724768630536
40
0.215017672928455
40
0.233603481524295
40
0.242896385822214
40
0.252189290120134
40
0.261482194418053
40
0.270775098715973
40
0.280068003013893
40
0.289360907311812
40
0.298653811609732
40
0.307946715907651
40
0.326532524503491
40
0.33582542880141
40
0.34511833309933
40
0.363704141695169
40
0.382289950291008
40
0.391582854588928
40
0.400875758886847
40
0.410168663184767
40
0.419461567482687
40
0.428754471780606
40
0.438047376078526
40
0.442693828227486
40
0.447340280376445
40
0.456633184674365
40
0.465926088972284
40
0.475218993270204
40
0.493804801866043
40
0.503097706163963
40
0.512390610461883
40
0.521683514759802
40
0.530976419057722
40
0.540269323355641
40
0.549562227653561
40
0.558855131951481
40
0.5681480362494
40
0.57744094054732
40
0.586733844845239
40
0.605319653441079
40
0.614612557738998
40
0.623905462036918
40
0.628551914185878
40
0.633198366334837
40
0.642491270632757
40
0.661077079228596
40
0.670369983526516
40
0.679662887824435
40
0.698248696420275
40
0.716834505016114
40
0.726127409314034
40
0.735420313611953
40
0.754006122207792
40
0.763299026505712
40
0.772591930803632
40
0.781884835101551
40
0.791177739399471
40
0.80047064369739
40
0.80976354799531
40
0.828349356591149
40
0.846935165186988
40
0.856228069484908
40
0.865520973782828
40
0.874813878080747
40
0.884106782378667
40
0.902692590974506
40
0.921278399570345
40
0.939864208166184
40
0.958450016762024
40
0.967742921059943
40
0.977035825357863
40
0.986328729655782
40
0.995621633953702
40
1
40
1
40
1
40
1
41
1
10
-0.394976888875306
20
-13.8446015176322
30
0
41
1
10
-0.394976888875306
20
-13.8443369604552
30
0
41
1
10
-0.394976888875306
20
-13.842101166137
30
0
41
1
10
-0.394976888875306
20
-13.8370982474882
30
0
41
1
10
-0.394976888875306
20
-13.8281310063336
30
0
41
1
10
-0.394976888875306
20
-13.8172492272358
30
0
41
1
10
-0.394976888875306
20
-13.8044829705053
30
0
41
1
10
-0.394976888875306
20
-13.7849758313288
30
0
41
1
10
-0.394976888875306
20
-13.7560496751861
30
0
41
1
10
-0.394976888875306
20
-13.7142204148031
30
0
41
1
10
-0.394976888875306
20
-13.6736219510479
30
0
41
1
10
-0.394976888875306
20
-13.6377421071264
30
0
41
1
10
-0.394976888875306
20
-13.6091837483775
30
0
41
1
10
-0.394976888875306
20
-13.5789821852606
30
0
41
1
10
-0.394976888875306
20
-13.5365270016785
30
0
41
1
10
-0.394976888875306
20
-13.4909311840823
30
0
41
1
10
-0.394976888875306
20
-13.4421262012037
30
0
41
1
10
-0.394976888875306
20
-13.4039879614121
30
0
41
1
10
-0.394976888875306
20
-13.3643136176474
30
0
41
1
10
-0.394976888875306
20
-13.3231185671574
30
0
41
1
10
-0.394976888875306
20
-13.2804176635455
30
0
41
1
10
-0.394976888875306
20
-13.2214670183476
30
0
41
1
10
-0.394976888875306
20
-13.1596507604527
30
0
41
1
10
-0.394976888875306
20
-13.094846134259
30
0
41
1
10
-0.394976888875306
20
-13.0448282447276
30
0
41
1
10
-0.394976888875306
20
-12.9933861020735
30
0
41
1
10
-0.394976888875306
20
-12.9405320737836
30
0
41
1
10
-0.394976888875306
20
-12.8862769376535
30
0
41
1
10
-0.394976888875306
20
-12.8306328717281
30
0
41
1
10
-0.394976888875306
20
-12.7736108931729
30
0
41
1
10
-0.394976888875306
20
-12.6957215859151
30
0
41
1
10
-0.394976888875306
20
-12.6152283382819
30
0
41
1
10
-0.394976888875306
20
-12.5319491453114
30
0
41
1
10
-0.394976888875306
20
-12.4468991604423
30
0
41
1
10
-0.394976888875306
20
-12.3373769122162
30
0
41
1
10
-0.394976888875306
20
-12.2235215734124
30
0
41
1
10
-0.394976888875306
20
-12.1297946053789
30
0
41
1
10
-0.394976888875306
20
-12.0582544060742
30
0
41
1
10
-0.394976888875306
20
-11.9854459580753
30
0
41
1
10
-0.394976888875306
20
-11.9113764581405
30
0
41
1
10
-0.394976888875306
20
-11.8360539668501
30
0
41
1
10
-0.394976888875306
20
-11.7722691621604
30
0
41
1
10
-0.394976888875306
20
-11.7205808778945
30
0
41
1
10
-0.394976888875306
20
-11.6684804259269
30
0
41
1
10
-0.394976888875306
20
-11.6026363586083
30
0
41
1
10
-0.394976888875306
20
-11.5223699646631
30
0
41
1
10
-0.394976888875306
20
-11.4136741241806
30
0
41
1
10
-0.394976888875306
20
-11.3026972493618
30
0
41
1
10
-0.394976888875306
20
-11.1891707558493
30
0
41
1
10
-0.394976888875306
20
-11.102867622286
30
0
41
1
10
-0.394976888875306
20
-11.0153746780185
30
0
41
1
10
-0.394976888875306
20
-10.9266969759659
30
0
41
1
10
-0.394976888875306
20
-10.8368404439692
30
0
41
1
10
-0.394976888875306
20
-10.74580988339
30
0
41
1
10
-0.394976888875306
20
-10.6536100721469
30
0
41
1
10
-0.394976888875306
20
-10.5602461340712
30
0
41
1
10
-0.394976888875306
20
-10.4657231550753
30
0
41
1
10
-0.394976888875306
20
-10.3380960413352
30
0
41
1
10
-0.394976888875306
20
-10.2083399780688
30
0
41
1
10
-0.394976888875306
20
-10.0761265525343
30
0
41
1
10
-0.394976888875306
20
-9.99261143893298
30
0
41
1
10
-0.394976888875306
20
-9.92517900727512
30
0
41
1
10
-0.394976888875306
20
-9.85736934874495
30
0
41
1
10
-0.394976888875306
20
-9.73773600630287
30
0
41
1
10
-0.394976888875306
20
-9.59892076352932
30
0
41
1
10
-0.394976888875306
20
-9.45767861814849
30
0
41
1
10
-0.394976888875306
20
-9.3149499665038
30
0
41
1
10
-0.394976888875306
20
-9.13390678694702
30
0
41
1
10
-0.394976888875306
20
-8.94918033853523
30
0
41
1
10
-0.394976888875306
20
-8.79907643306458
30
0
41
1
10
-0.394976888875306
20
-8.64751154095558
30
0
41
1
10
-0.394976888875306
20
-8.49397418950429
30
0
41
1
10
-0.394976888875306
20
-8.33804225713789
30
0
41
1
10
-0.394976888875306
20
-8.22006379392718
30
0
41
1
10
-0.394976888875306
20
-8.10100252302422
30
0
41
1
10
-0.394976888875306
20
-7.98086143927398
30
0
41
1
10
-0.394976888875306
20
-7.85964213989763
30
0
41
1
10
-0.394976888875306
20
-7.69650359349293
30
0
41
1
10
-0.394976888875306
20
-7.49008089634199
30
0
41
1
10
-0.394976888875306
20
-7.28009509164627
30
0
41
1
10
-0.394976888875306
20
-7.10982244878713
30
0
41
1
10
-0.394976888875306
20
-6.98112244545175
30
0
41
1
10
-0.394976888875306
20
-6.85136200824962
30
0
41
1
10
-0.394976888875306
20
-6.67684685573994
30
0
41
1
10
-0.394976888875306
20
-6.45627503636445
30
0
41
1
10
-0.394976888875306
20
-6.18726433662556
30
0
41
1
10
-0.394976888875306
20
-5.91406385279547
30
0
41
1
10
-0.394976888875306
20
-5.68302324019061
30
0
41
1
10
-0.394976888875306
20
-5.49591838220567
30
0
41
1
10
-0.394976888875306
20
-5.35463940810163
30
0
41
1
10
-0.394976888875306
20
-5.21232773385495
30
0
41
1
10
-0.394976888875306
20
-5.09425517295406
30
0
41
1
10
-0.394976888875306
20
-5.02359271293304
30
0
41
1
10
-0.394976888875306
20
-5.0009244140283
30
0
0
SPLINE
5
1BE
100
AcDbEntity
8
SK1
62
256
6
ByLayer
370
18
48
1
60
0
100
AcDbSpline
70
4
71
3
72
24
73
20
40
0
40
0
40
0
40
0
40
0.408002420194574
40
0.408002420194574
40
0.586477084363329
40
0.586477084363329
40
0.763728221544513
40
0.763728221544513
40
0.83464833042642
40
0.83464833042642
40
0.871680147904128
40
0.871680147904128
40
0.909315863704638
40
0.909315863704638
40
0.941446160303591
40
0.941446160303591
40
0.988233002766673
40
0.988233002766673
40
1
40
1
40
1
40
1
41
1
10
-1.30710678118655
20
-3.62781725664615
30
0
41
1
10
-1.25754709276271
20
-3.87919081380429
30
0
41
1
10
-1.19771793926938
20
-4.12580048883993
30
0
41
1
10
-1.07980138365164
20
-4.46640123366592
30
0
41
1
10
-1.03947389583291
20
-4.56855181342542
30
0
41
1
10
-0.943165684412492
20
-4.76452984977917
30
0
41
1
10
-0.887972849225292
20
-4.86076144162979
30
0
41
1
10
-0.781589632759733
20
-4.97623115222154
30
0
41
1
10
-0.746942513659576
20
-5.00751721259149
30
0
41
1
10
-0.685298347589708
20
-5.04425501792002
30
0
41
1
10
-0.662073057062713
20
-5.05499571071985
30
0
41
1
10
-0.612858105189787
20
-5.06918922724967
30
0
41
1
10
-0.586087478285805
20
-5.07253385323432
30
0
41
1
10
-0.537899014579097
20
-5.06994558199364
30
0
41
1
10
-0.515734678473706
20
-5.06532466911642
30
0
41
1
10
-0.465255653618982
20
-5.04798484569733
30
0
41
1
10
-0.437776087568892
20
-5.03248974169182
30
0
41
1
10
-0.406986543980821
20
-5.01034621255963
30
0
41
1
10
-0.400907252385935
20
-5.00570060770795
30
0
41
1
10
-0.394976888875277
20
-5.00092441402839
30
0
0
SPLINE
5
1BF
100
AcDbEntity
8
SK1
62
256
6
ByLayer
370
18
48
1
60
0
100
AcDbSpline
70
4
71
3
72
8
73
4
40
0
40
0
40
0
40
0
40
1
40
1
40
1
40
1
41
1
10
-1.49503997793931
20
2.59465115086957
30
0
41
1
10
-1.43729564430089
20
2.94660231507382
30
0
41
1
10
-1.37345704405578
20
3.29127575598179
30
0
41
1
10
-1.30710678118655
20
3.6278161010051
30
0
0
SPLINE
5
1C0
100
AcDbEntity
8
SK1
62
256
6
ByLayer
370
18
48
1
60
0
100
AcDbSpline
70
4
71
3
72
22
73
18
40
0
40
0
40
0
40
0
40
0.0262442859026881
40
0.0262442859026881
40
0.0530261157854851
40
0.0530261157854851
40
0.0713559655737795
40
0.0713559655737795
40
0.0895874012639089
40
0.0895874012639089
40
0.119482247898519
40
0.119482247898519
40
0.178618886842945
40
0.178618886842945
40
0.388022338076953
40
0.388022338076953
40
1
40
1
40
1
40
1
41
1
10
-0.394976888875306
20
-5.0009244140283
30
0
41
1
10
-0.389542958903149
20
-4.99654803778401
30
0
41
1
10
-0.383617633691586
20
-4.99263335383438
30
0
41
1
10
-0.370682657201087
20
-4.98677476419829
30
0
41
1
10
-0.363425194676552
20
-4.98483424058901
30
0
41
1
10
-0.350979181144169
20
-4.98462903203949
30
0
41
1
10
-0.345738268039327
20
-4.98542011278013
30
0
41
1
10
-0.335836240990062
20
-4.98861553627458
30
0
41
1
10
-0.331061456711979
20
-4.99102841332402
30
0
41
1
10
-0.319537139874143
20
-4.9986715699325
30
0
41
1
10
-0.313226756018622
20
-5.00478758784652
30
0
41
1
10
-0.29682625826149
20
-5.02421063341325
30
0
41
1
10
-0.288455270980251
20
-5.03906576138257
30
0
41
1
10
-0.256353055935392
20
-5.10678482490906
30
0
41
1
10
-0.244000373144985
20
-5.16381228581221
30
0
41
1
10
-0.204596889637315
20
-5.38213882730372
30
0
41
1
10
-0.200000000000046
20
-5.54465158381666
30
0
41
1
10
-0.200000000000046
20
-5.70317614351262
30
0
0
LINE
5
72
100
AcDbEntity
8
80
62
256
6
ByLayer
370
18
48
1
60
0
100
AcDbLine
10
0
20
0
30
0
11
-5
21
0
31
0
39
0
210
0
220
0
230
1
0
LINE
5
73
100
AcDbEntity
8
1
62
256
6
ByLayer
370
18
48
1
60
0
100
AcDbLine
10
31.662246
20
-17.539261
30
0
11
31.842636
21
-17.715014
31
0
39
0
210
0
220
0
230
1
0
LINE
5
75
100
AcDbEntity
8
1
62
256
6
ByLayer
370
18
48
1
60
0
100
AcDbLine
10
27.567707
20
-20.500787
30
0
11
27.755534
21
-20.683785
31
0
39
0
210
0
220
0
230
1
0
LINE
5
76
100
AcDbEntity
8
1
62
256
6
ByLayer
370
18
48
1
60
0
100
AcDbLine
10
33.33824
20
-14.953742
30
0
11
33.150413
21
-14.770744
31
0
39
0
210
0
220
0
230
1
0
LINE
5
77
100
AcDbEntity
8
1
62
256
6
ByLayer
370
18
48
1
60
0
100
AcDbLine
10
18.591639
20
4.080609
30
0
11
18.783896
21
4.17026
31
0
39
0
210
0
220
0
230
1
0
LINE
5
78
100
AcDbEntity
8
1
62
256
6
ByLayer
370
18
48
1
60
0
100
AcDbLine
10
19.720306
20
7.181594
30
0
11
17.311558
21
8.058307
31
0
39
0
210
0
220
0
230
1
0
LINE
5
79
100
AcDbEntity
8
1
62
256
6
ByLayer
370
18
48
1
60
0
100
AcDbLine
10
16.421132
20
4.870609
30
0
11
18.591639
21
4.080609
31
0
39
0
210
0
220
0
230
1
0
LINE
5
7A
100
AcDbEntity
8
1
62
256
6
ByLayer
370
18
48
1
60
0
100
AcDbLine
10
17.311558
20
8.058307
30
0
11
16.885124
21
7.983115
31
0
39
0
210
0
220
0
230
1
0
LINE
5
7B
100
AcDbEntity
8
1
62
256
6
ByLayer
370
18
48
1
60
0
100
AcDbLine
10
38.989934
20
-24.351715
30
0
11
39.425429
21
-24.776012
31
0
39
0
210
0
220
0
230
1
0
LINE
5
7C
100
AcDbEntity
8
1
62
256
6
ByLayer
370
18
48
1
60
0
100
AcDbLine
10
48.546452
20
-15.506669
30
0
11
47.830527
21
-14.809153
31
0
39
0
210
0
220
0
230
1
0
LINE
5
7D
100
AcDbEntity
8
1
62
256
6
ByLayer
370
18
48
1
60
0
100
AcDbLine
10
21.809962
20
-22.39461
30
0
11
22.656842
21
-22.888706
31
0
39
0
210
0
220
0
230
1
0
LINE
5
7E
100
AcDbEntity
8
1
62
256
6
ByLayer
370
18
48
1
60
0
100
AcDbLine
10
0.3
20
-20
30
0
11
20.252228
21
-20
31
0
39
0
210
0
220
0
230
1
0
LINE
5
7F
100
AcDbEntity
8
1
62
256
6
ByLayer
370
18
48
1
60
0
100
AcDbLine
10
20.920792
20
20
30
0
11
0.3
21
20
31
0
39
0
210
0
220
0
230
1
0
LINE
5
80
100
AcDbEntity
8
1
62
256
6
ByLayer
370
18
48
1
60
0
100
AcDbLine
10
0.3
20
20
30
0
11
0
21
19.7
31
0
39
0
210
0
220
0
230
1
0
LINE
5
81
100
AcDbEntity
8
1
62
256
6
ByLayer
370
18
48
1
60
0
100
AcDbLine
10
0
20
-19.7
30
0
11
0.3
21
-20
31
0
39
0
210
0
220
0
230
1
0
LINE
5
82
100
AcDbEntity
8
1
62
256
6
ByLayer
370
18
48
1
60
0
100
AcDbLine
10
25.435242
20
20.15
30
0
11
20.960985
21
20.15
31
0
39
0
210
0
220
0
230
1
0
LINE
5
83
100
AcDbEntity
8
1
62
256
6
ByLayer
370
18
48
1
60
0
100
AcDbLine
10
20.960985
20
20.15
30
0
11
20.920792
21
20
31
0
39
0
210
0
220
0
230
1
0
LINE
5
84
100
AcDbEntity
8
1
62
256
6
ByLayer
370
18
48
1
60
0
100
AcDbLine
10
21.504774
20
-22.179449
30
0
11
21.848276
21
-23.461418
31
0
39
0
210
0
220
0
230
1
0
LINE
5
85
100
AcDbEntity
8
1
62
256
6
ByLayer
370
18
48
1
60
0
100
AcDbLine
10
47.144154
20
-13.711507
30
0
11
46.64667
21
-13.226816
31
0
39
0
210
0
220
0
230
1
0
LINE
5
86
100
AcDbEntity
8
1
62
256
6
ByLayer
370
18
48
1
60
0
100
AcDbLine
10
30.578245
20
-19.141929
30
0
11
30.397855
21
-18.966177
31
0
39
0
210
0
220
0
230
1
0
LINE
5
87
100
AcDbEntity
8
1
62
256
6
ByLayer
370
18
48
1
60
0
100
AcDbLine
10
19.809956
20
6.989337
30
0
11
19.720306
21
7.181594
31
0
39
0
210
0
220
0
230
1
0
LINE
5
88
100
AcDbEntity
8
1
62
256
6
ByLayer
370
18
48
1
60
0
100
AcDbLine
10
25.573661
20
-19.595786
30
0
11
25.072525
21
-19.303408
31
0
39
0
210
0
220
0
230
1
0
LINE
5
89
100
AcDbEntity
8
1
62
256
6
ByLayer
370
18
48
1
60
0
100
AcDbLine
10
38.898394
20
-24.69145
30
0
11
39.395877
21
-25.176141
31
0
39
0
210
0
220
0
230
1
0
LINE
5
8A
100
AcDbEntity
8
1
62
256
6
ByLayer
370
18
48
1
60
0
100
AcDbLine
10
30.500656
20
-16.481107
30
0
11
30.681047
21
-16.656859
31
0
39
0
210
0
220
0
230
1
0
LINE
5
8B
100
AcDbEntity
8
1
62
256
6
ByLayer
370
18
48
1
60
0
100
AcDbLine
10
29.416656
20
-18.083774
30
0
11
29.236265
21
-17.908022
31
0
39
0
210
0
220
0
230
1
0
LINE
5
8C
100
AcDbEntity
8
4
62
256
6
ByLayer
370
18
48
0.05
60
0
100
AcDbLine
10
0
20
0
30
0
11
55
21
0
31
0
39
0
210
0
220
0
230
1
0
LINE
5
8E
100
AcDbEntity
8
81
62
256
6
ByLayer
370
18
48
1
60
0
100
AcDbLine
10
55
20
-27
30
0
11
65
21
-27
31
0
39
0
210
0
220
0
230
1
0
LINE
5
8F
100
AcDbEntity
8
SK4
62
256
6
ByLayer
370
18
48
0.05
60
0
100
AcDbLine
10
-29
20
0
30
0
11
55
21
0
31
0
39
0
210
0
220
0
230
1
0
LINE
5
91
100
AcDbEntity
8
1
62
256
6
ByLayer
370
18
48
1
60
0
100
AcDbLine
10
30.420475
20
-16.369582
30
0
11
30.598301
21
-16.542836
31
0
39
0
210
0
220
0
230
1
0
LINE
5
92
100
AcDbEntity
8
1
62
256
6
ByLayer
370
18
48
1
60
0
100
AcDbLine
10
16.809279
20
10.440263
30
0
11
16.743651
21
10.46415
31
0
39
0
210
0
220
0
230
1
0
LINE
5
93
100
AcDbEntity
8
1
62
256
6
ByLayer
370
18
48
1
60
0
100
AcDbLine
10
16.605452
20
9.880252
30
0
11
16.809279
21
10.440263
31
0
39
0
210
0
220
0
230
1
0
LINE
5
94
100
AcDbEntity
8
1
62
256
6
ByLayer
370
18
48
1
60
0
100
AcDbLine
10
16.594223
20
8.193975
30
0
11
16.393729
21
7.643123
31
0
39
0
210
0
220
0
230
1
0
LINE
5
95
100
AcDbEntity
8
1
62
256
6
ByLayer
370
18
48
1
60
0
100
AcDbLine
10
18.591639
20
4.080609
30
0
11
19.155972
21
5.631102
31
0
39
0
210
0
220
0
230
1
0
LINE
5
96
100
AcDbEntity
8
1
62
256
6
ByLayer
370
18
48
1
60
0
100
AcDbLine
10
19.155972
20
5.631102
30
0
11
19.720306
21
7.181594
31
0
39
0
210
0
220
0
230
1
0
LINE
5
97
100
AcDbEntity
8
1
62
256
6
ByLayer
370
18
48
1
60
0
100
AcDbLine
10
18.783896
20
4.17026
30
0
11
19.809956
21
6.989337
31
0
39
0
210
0
220
0
230
1
0
LINE
5
98
100
AcDbEntity
8
1
62
256
6
ByLayer
370
18
48
1
60
0
100
AcDbLine
10
16.403622
20
5.563773
30
0
11
17.311558
21
8.058307
31
0
39
0
210
0
220
0
230
1
0
LINE
5
99
100
AcDbEntity
8
1
62
256
6
ByLayer
370
18
48
1
60
0
100
AcDbLine
10
16.39484
20
6.636071
30
0
11
16.393733
21
6.63303
31
0
39
0
210
0
220
0
230
1
0
LINE
5
9A
100
AcDbEntity
8
1
62
256
6
ByLayer
370
18
48
1
60
0
100
AcDbLine
10
16.885124
20
7.983115
30
0
11
16.39484
21
6.636071
31
0
39
0
210
0
220
0
230
1
0
LINE
5
9B
100
AcDbEntity
8
1
62
256
6
ByLayer
370
18
48
1
60
0
100
AcDbLine
10
39.245218
20
-24.550322
30
0
11
39.10165
21
-24.315795
31
0
39
0
210
0
220
0
230
1
0
LINE
5
9C
100
AcDbEntity
8
1
62
256
6
ByLayer
370
18
48
1
60
0
100
AcDbLine
10
39.897413
20
-13.6027
30
0
11
45.646505
21
-13.903997
31
0
39
0
210
0
220
0
230
1
0
LINE
5
9D
100
AcDbEntity
8
1
62
256
6
ByLayer
370
18
48
1
60
0
100
AcDbLine
10
45.597911
20
-13.856653
30
0
11
45.646505
21
-13.903997
31
0
39
0
210
0
220
0
230
1
0
LINE
5
9E
100
AcDbEntity
8
1
62
256
6
ByLayer
370
18
48
1
60
0
100
AcDbLine
10
39.245218
20
-24.550322
30
0
11
39.044289
21
-24.35456
31
0
39
0
210
0
220
0
230
1
0
LINE
5
9F
100
AcDbEntity
8
1
62
256
6
ByLayer
370
18
48
1
60
0
100
AcDbLine
10
46.183128
20
-14.066147
30
0
11
45.994784
21
-13.882646
31
0
39
0
210
0
220
0
230
1
0
LINE
5
A0
100
AcDbEntity
8
1
62
256
6
ByLayer
370
18
48
1
60
0
100
AcDbLine
10
47.612708
20
-14.642189
30
0
11
46.231741
21
-13.822456
31
0
39
0
210
0
220
0
230
1
0
LINE
5
A1
100
AcDbEntity
8
1
62
256
6
ByLayer
370
18
48
1
60
0
100
AcDbLine
10
28.163892
20
-21.385006
30
0
11
29.515897
21
-21.671096
31
0
39
0
210
0
220
0
230
1
0
LINE
5
A2
100
AcDbEntity
8
1
62
256
6
ByLayer
370
18
48
1
60
0
100
AcDbLine
10
20.920792
20
20
30
0
11
20.920792
21
19.595386
31
0
39
0
210
0
220
0
230
1
0
LINE
5
A3
100
AcDbEntity
8
1
62
256
6
ByLayer
370
18
48
1
60
0
100
AcDbLine
10
0.3
20
0
30
0
11
0.3
21
-20
31
0
39
0
210
0
220
0
230
1
0
LINE
5
A4
100
AcDbEntity
8
1
62
256
6
ByLayer
370
18
48
1
60
0
100
AcDbLine
10
0.3
20
20
30
0
11
0.3
21
0
31
0
39
0
210
0
220
0
230
1
0
LINE
5
A5
100
AcDbEntity
8
1
62
256
6
ByLayer
370
18
48
1
60
0
100
AcDbLine
10
0
20
0
30
0
11
0
21
-19.7
31
0
39
0
210
0
220
0
230
1
0
LINE
5
A6
100
AcDbEntity
8
1
62
256
6
ByLayer
370
18
48
1
60
0
100
AcDbLine
10
0
20
19.7
30
0
11
0
21
0
31
0
39
0
210
0
220
0
230
1
0
LINE
5
A7
100
AcDbEntity
8
SK1
62
256
6
ByLayer
370
18
48
1
60
0
100
AcDbLine
10
-0.2
20
14.083485
30
0
11
-0.2
21
5.703176
31
0
39
0
210
0
220
0
230
1
0
LINE
5
A9
100
AcDbEntity
8
SK1
62
256
6
ByLayer
370
18
48
1
60
0
100
AcDbLine
10
-0.2
20
-5.703176
30
0
11
-0.2
21
-14.083485
31
0
39
0
210
0
220
0
230
1
0
LINE
5
AA
100
AcDbEntity
8
1
62
256
6
ByLayer
370
18
48
1
60
0
100
AcDbLine
10
16.809278
20
10.440259
30
0
11
16.815887
21
10.458416
31
0
39
0
210
0
220
0
230
1
0
LINE
5
AB
100
AcDbEntity
8
1
62
256
6
ByLayer
370
18
48
1
60
0
100
AcDbLine
10
17.357044
20
11.945234
30
0
11
17.357044
21
8.041768
31
0
39
0
210
0
220
0
230
1
0
LINE
5
AC
100
AcDbEntity
8
1
62
256
6
ByLayer
370
18
48
1
60
0
100
AcDbLine
10
17.314653
20
-10.10899
30
0
11
17.073164
21
-11.18252
31
0
39
0
210
0
220
0
230
1
0
LINE
5
AD
100
AcDbEntity
8
1
62
256
6
ByLayer
370
18
48
1
60
0
100
AcDbLine
10
15.380082
20
-18.709067
30
0
11
15.285604
21
-19.129064
31
0
39
0
210
0
220
0
230
1
0
LINE
5
AE
100
AcDbEntity
8
1
62
256
6
ByLayer
370
18
48
1
60
0
100
AcDbLine
10
20.960985
20
20.15
30
0
11
20.960985
21
19.748713
31
0
39
0
210
0
220
0
230
1
0
LINE
5
AF
100
AcDbEntity
8
1
62
256
6
ByLayer
370
18
48
1
60
0
100
AcDbLine
10
25.435242
20
20.15
30
0
11
25.680724
21
19.748987
31
0
39
0
210
0
220
0
230
1
0
LINE
5
B0
100
AcDbEntity
8
1
62
256
6
ByLayer
370
18
48
1
60
0
100
AcDbLine
10
26.090995
20
-8.880651
30
0
11
26.277319
21
-7.231231
31
0
39
0
210
0
220
0
230
1
0
LINE
5
B1
100
AcDbEntity
8
1
62
256
6
ByLayer
370
18
48
1
60
0
100
AcDbLine
10
35.716152
20
-9.611392
30
0
11
37.207378
21
-12.047408
31
0
39
0
210
0
220
0
230
1
0
LINE
5
B2
100
AcDbEntity
8
1
62
256
6
ByLayer
370
18
48
1
60
0
100
AcDbLine
10
36.024248
20
-9.820575
30
0
11
36.57634
21
-10.443037
31
0
39
0
210
0
220
0
230
1
0
LINE
5
B3
100
AcDbEntity
8
1
62
256
6
ByLayer
370
18
48
1
60
0
100
AcDbLine
10
36.905832
20
-10.976301
30
0
11
37.718144
21
-12.303267
31
0
39
0
210
0
220
0
230
1
0
LINE
5
B4
100
AcDbEntity
8
1
62
256
6
ByLayer
370
18
48
1
60
0
100
AcDbLine
10
24.429531
20
-23.588634
30
0
11
24.45196
21
-23.390078
31
0
39
0
210
0
220
0
230
1
0
LINE
5
B5
100
AcDbEntity
8
1
62
256
6
ByLayer
370
18
48
1
60
0
100
AcDbLine
10
22.944164
20
-8.861912
30
0
11
22.745749
21
-9.743961
31
0
39
0
210
0
220
0
230
1
0
LINE
5
B6
100
AcDbEntity
8
1
62
256
6
ByLayer
370
18
48
1
60
0
100
AcDbLine
10
38.926867
20
-24.348408
30
0
11
38.868476
21
-24.345347
31
0
39
0
210
0
220
0
230
1
0
LINE
5
B7
100
AcDbEntity
8
1
62
256
6
ByLayer
370
18
48
1
60
0
100
AcDbLine
10
25.704669
20
-23.655462
30
0
11
24.608655
21
-23.598022
31
0
39
0
210
0
220
0
230
1
0
LINE
5
B8
100
AcDbEntity
8
1
62
256
6
ByLayer
370
18
48
1
60
0
100
AcDbLine
10
24.608655
20
-23.598022
30
0
11
24.749419
21
-23.453543
31
0
39
0
210
0
220
0
230
1
0
LINE
5
B9
100
AcDbEntity
8
1
62
256
6
ByLayer
370
18
48
1
60
0
100
AcDbLine
10
39.106915
20
-24.357844
30
0
11
39.082193
21
-24.317459
31
0
39
0
210
0
220
0
230
1
0
LINE
5
BA
100
AcDbEntity
8
1
62
256
6
ByLayer
370
18
48
1
60
0
100
AcDbLine
10
39.590652
20
-13.409615
30
0
11
46.20911
21
-13.785489
31
0
39
0
210
0
220
0
230
1
0
LINE
5
BB
100
AcDbEntity
8
1
62
256
6
ByLayer
370
18
48
1
60
0
100
AcDbLine
10
39.781639
20
-13.529799
30
0
11
44.357678
21
-13.789681
31
0
39
0
210
0
220
0
230
1
0
LINE
5
BC
100
AcDbEntity
8
1
62
256
6
ByLayer
370
18
48
1
60
0
100
AcDbLine
10
45.713432
20
-13.866677
30
0
11
46.278452
21
-13.898765
31
0
39
0
210
0
220
0
230
1
0
LINE
5
BD
100
AcDbEntity
8
1
62
256
6
ByLayer
370
18
48
1
60
0
100
AcDbLine
10
35.454279
20
-9.481841
30
0
11
36.952241
21
-11.92886
31
0
39
0
210
0
220
0
230
1
0
LINE
5
BE
100
AcDbEntity
8
1
62
256
6
ByLayer
370
18
48
1
60
0
100
AcDbLine
10
47.934815
20
-14.910818
30
0
11
47.38625
21
-14.014701
31
0
39
0
210
0
220
0
230
1
0
LINE
5
BF
100
AcDbEntity
8
1
62
256
6
ByLayer
370
18
48
1
60
0
100
AcDbLine
10
40.409401
20
-25.618276
30
0
11
40.816904
21
-25.639632
31
0
39
0
210
0
220
0
230
1
0
LINE
5
C0
100
AcDbEntity
8
1
62
256
6
ByLayer
370
18
48
1
60
0
100
AcDbLine
10
38.833823
20
-24.350276
30
0
11
39.15378
21
-24.872948
31
0
39
0
210
0
220
0
230
1
0
LINE
5
C1
100
AcDbEntity
8
1
62
256
6
ByLayer
370
18
48
1
60
0
100
AcDbLine
10
46.13063
20
-13.269373
30
0
11
45.885194
21
-13.25651
31
0
39
0
210
0
220
0
230
1
0
LINE
5
C2
100
AcDbEntity
8
1
62
256
6
ByLayer
370
18
48
1
60
0
100
AcDbLine
10
45.633147
20
-12.784682
30
0
11
45.595235
21
-12.782695
31
0
39
0
210
0
220
0
230
1
0
LINE
5
C3
100
AcDbEntity
8
1
62
256
6
ByLayer
370
18
48
1
60
0
100
AcDbLine
10
38.622076
20
-24.332354
30
0
11
38.656297
21
-24.388256
31
0
39
0
210
0
220
0
230
1
0
LINE
5
C4
100
AcDbEntity
8
1
62
256
6
ByLayer
370
18
48
1
60
0
100
AcDbLine
10
46.13063
20
-13.269373
30
0
11
45.633147
21
-12.784682
31
0
39
0
210
0
220
0
230
1
0
LINE
5
C5
100
AcDbEntity
8
1
62
256
6
ByLayer
370
18
48
1
60
0
100
AcDbLine
10
39.15378
20
-24.872948
30
0
11
38.656297
21
-24.388256
31
0
39
0
210
0
220
0
230
1
0
LINE
5
C6
100
AcDbEntity
8
1
62
256
6
ByLayer
370
18
48
1
60
0
100
AcDbLine
10
24.203454
20
-18.968257
30
0
11
22.727925
21
-18.656029
31
0
39
0
210
0
220
0
230
1
0
LINE
5
C7
100
AcDbEntity
8
1
62
256
6
ByLayer
370
18
48
1
60
0
100
AcDbLine
10
30.116423
20
-24.595853
30
0
11
24.847836
21
-23.472839
31
0
39
0
210
0
220
0
230
1
0
LINE
5
C8
100
AcDbEntity
8
1
62
256
6
ByLayer
370
18
48
1
60
0
100
AcDbLine
10
28.57069
20
-21.622345
30
0
11
30.561621
21
-22.046717
31
0
39
0
210
0
220
0
230
1
0
LINE
5
C9
100
AcDbEntity
8
1
62
256
6
ByLayer
370
18
48
1
60
0
100
AcDbLine
10
26.596235
20
-9.175654
30
0
11
26.08984
21
-8.880207
31
0
39
0
210
0
220
0
230
1
0
LINE
5
CA
100
AcDbEntity
8
1
62
256
6
ByLayer
370
18
48
1
60
0
100
AcDbLine
10
33.264824
20
-10.599731
30
0
11
27.996237
21
-9.476718
31
0
39
0
210
0
220
0
230
1
0
LINE
5
CB
100
AcDbEntity
8
1
62
256
6
ByLayer
370
18
48
1
60
0
100
AcDbLine
10
21.843186
20
-20.025504
30
0
11
23.680295
21
-11.858688
31
0
39
0
210
0
220
0
230
1
0
LINE
5
CC
100
AcDbEntity
8
1
62
256
6
ByLayer
370
18
48
1
60
0
100
AcDbLine
10
26.596235
20
-9.175654
30
0
11
27.991803
21
-9.473123
31
0
39
0
210
0
220
0
230
1
0
LINE
5
CD
100
AcDbEntity
8
1
62
256
6
ByLayer
370
18
48
1
60
0
100
AcDbLine
10
24.597477
20
-19.198142
30
0
11
24.203454
21
-18.968257
31
0
39
0
210
0
220
0
230
1
0
LINE
5
CE
100
AcDbEntity
8
1
62
256
6
ByLayer
370
18
48
1
60
0
100
AcDbLine
10
22.154335
20
-10.968396
30
0
11
20.317226
21
-19.135212
31
0
39
0
210
0
220
0
230
1
0
LINE
5
CF
100
AcDbEntity
8
1
62
256
6
ByLayer
370
18
48
1
60
0
100
AcDbLine
10
45.436627
20
-18.279479
30
0
11
44.811762
21
-17.427919
31
0
39
0
210
0
220
0
230
1
0
LINE
5
D0
100
AcDbEntity
8
1
62
256
6
ByLayer
370
18
48
1
60
0
100
AcDbLine
10
27.991803
20
-9.473123
30
0
11
27.996237
21
-9.476718
31
0
39
0
210
0
220
0
230
1
0
LINE
5
D1
100
AcDbEntity
8
1
62
256
6
ByLayer
370
18
48
1
60
0
100
AcDbLine
10
28.57069
20
-21.622345
30
0
11
28.163892
21
-21.385006
31
0
39
0
210
0
220
0
230
1
0
LINE
5
D2
100
AcDbEntity
8
1
62
256
6
ByLayer
370
18
48
1
60
0
100
AcDbLine
10
44.500874
20
-22.439342
30
0
11
43.560593
21
-22.989954
31
0
39
0
210
0
220
0
230
1
0
LINE
5
D3
100
AcDbEntity
8
1
62
256
6
ByLayer
370
18
48
1
60
0
100
AcDbLine
10
25.955774
20
-10.437808
30
0
11
33.354261
21
-12.014816
31
0
39
0
210
0
220
0
230
1
0
LINE
5
D4
100
AcDbEntity
8
1
62
256
6
ByLayer
370
18
48
1
60
0
100
AcDbLine
10
24.842472
20
-23.473379
30
0
11
23.446904
21
-23.17591
31
0
39
0
210
0
220
0
230
1
0
LINE
5
D5
100
AcDbEntity
8
1
62
256
6
ByLayer
370
18
48
1
60
0
100
AcDbLine
10
30.561621
20
-22.046717
30
0
11
30.146531
21
-21.804541
31
0
39
0
210
0
220
0
230
1
0
LINE
5
D6
100
AcDbEntity
8
1
62
256
6
ByLayer
370
18
48
1
60
0
100
AcDbLine
10
23.680295
20
-11.858688
30
0
11
22.154335
21
-10.968396
31
0
39
0
210
0
220
0
230
1
0
LINE
5
D7
100
AcDbEntity
8
1
62
256
6
ByLayer
370
18
48
1
60
0
100
AcDbLine
10
44.695471
20
-22.297869
30
0
11
44.500874
21
-22.439342
31
0
39
0
210
0
220
0
230
1
0
LINE
5
D8
100
AcDbEntity
8
1
62
256
6
ByLayer
370
18
48
1
60
0
100
AcDbLine
10
24.842472
20
-23.473379
30
0
11
24.847836
21
-23.472839
31
0
39
0
210
0
220
0
230
1
0
LINE
5
D9
100
AcDbEntity
8
1
62
256
6
ByLayer
370
18
48
1
60
0
100
AcDbLine
10
43.663602
20
-20.405757
30
0
11
46.305603
21
-20.697192
31
0
39
0
210
0
220
0
230
1
0
LINE
5
DA
100
AcDbEntity
8
1
62
256
6
ByLayer
370
18
48
1
60
0
100
AcDbLine
10
21.843186
20
-20.025504
30
0
11
20.317226
21
-19.135212
31
0
39
0
210
0
220
0
230
1
0
LINE
5
DB
100
AcDbEntity
8
1
62
256
6
ByLayer
370
18
48
1
60
0
100
AcDbLine
10
22.727925
20
-18.656029
30
0
11
23.865183
21
-13.600381
31
0
39
0
210
0
220
0
230
1
0
LINE
5
DC
100
AcDbEntity
8
1
62
256
6
ByLayer
370
18
48
1
60
0
100
AcDbLine
10
45.436627
20
-18.279479
30
0
11
45.55268
21
-18.487169
31
0
39
0
210
0
220
0
230
1
0
LINE
5
DD
100
AcDbEntity
8
1
62
256
6
ByLayer
370
18
48
1
60
0
100
AcDbLine
10
32.37686
20
-13.977125
30
0
11
30.38593
21
-13.552753
31
0
39
0
210
0
220
0
230
1
0
LINE
5
DE
100
AcDbEntity
8
1
62
256
6
ByLayer
370
18
48
1
60
0
100
AcDbLine
10
23.297413
20
-22.255474
30
0
11
30.6959
21
-23.832482
31
0
39
0
210
0
220
0
230
1
0
LINE
5
DF
100
AcDbEntity
8
1
62
256
6
ByLayer
370
18
48
1
60
0
100
AcDbLine
10
27.991803
20
-9.473123
30
0
11
26.161303
21
-8.902395
31
0
39
0
210
0
220
0
230
1
0
LINE
5
E0
100
AcDbEntity
8
1
62
256
6
ByLayer
370
18
48
1
60
0
100
AcDbLine
10
45.125409
20
-22.073625
30
0
11
44.92569
21
-22.190577
31
0
39
0
210
0
220
0
230
1
0
LINE
5
E1
100
AcDbEntity
8
1
62
256
6
ByLayer
370
18
48
1
60
0
100
AcDbLine
10
45.851663
20
-18.845086
30
0
11
45.718939
21
-18.664212
31
0
39
0
210
0
220
0
230
1
0
LINE
5
E2
100
AcDbEntity
8
1
62
256
6
ByLayer
370
18
48
1
60
0
100
AcDbLine
10
31.639791
20
-18.360032
30
0
11
31.820181
21
-18.535784
31
0
39
0
210
0
220
0
230
1
0
LINE
5
E3
100
AcDbEntity
8
1
62
256
6
ByLayer
370
18
48
1
60
0
100
AcDbLine
10
31.193193
20
-18.849468
30
0
11
31.373584
21
-19.02522
31
0
39
0
210
0
220
0
230
1
0
LINE
5
E4
100
AcDbEntity
8
1
62
256
6
ByLayer
370
18
48
1
60
0
100
AcDbLine
10
29.094455
20
-17.817486
30
0
11
29.274846
21
-17.993238
31
0
39
0
210
0
220
0
230
1
0
LINE
5
E5
100
AcDbEntity
8
1
62
256
6
ByLayer
370
18
48
1
60
0
100
AcDbLine
10
29.838393
20
-18.943312
30
0
11
30.018783
21
-19.119064
31
0
39
0
210
0
220
0
230
1
0
LINE
5
E6
100
AcDbEntity
8
1
62
256
6
ByLayer
370
18
48
1
60
0
100
AcDbLine
10
31.608446
20
-17.003473
30
0
11
31.788837
21
-17.179225
31
0
39
0
210
0
220
0
230
1
0
LINE
5
E7
100
AcDbEntity
8
1
62
256
6
ByLayer
370
18
48
1
60
0
100
AcDbLine
10
17.019952
20
-18.177262
30
0
11
17.06302
21
-12.091766
31
0
39
0
210
0
220
0
230
1
0
LINE
5
E8
100
AcDbEntity
8
1
62
256
6
ByLayer
370
18
48
1
60
0
100
AcDbLine
10
17.357044
20
11.945234
30
0
11
17.080365
21
11.185063
31
0
39
0
210
0
220
0
230
1
0
LINE
5
E9
100
AcDbEntity
8
1
62
256
6
ByLayer
370
18
48
1
60
0
100
AcDbLine
10
9.076795
20
-5.85989
30
0
11
9.076795
21
-19.122283
31
0
39
0
210
0
220
0
230
1
0
LINE
5
EA
100
AcDbEntity
8
1
62
256
6
ByLayer
370
18
48
1
60
0
100
AcDbLine
10
33.030232
20
-9.795474
30
0
11
33.286363
21
-9.638843
31
0
39
0
210
0
220
0
230
1
0
LINE
5
EB
100
AcDbEntity
8
1
62
256
6
ByLayer
370
18
48
1
60
0
100
AcDbLine
10
25.680724
20
19.748987
30
0
11
21.065143
21
19.748987
31
0
39
0
210
0
220
0
230
1
0
LINE
5
EC
100
AcDbEntity
8
1
62
256
6
ByLayer
370
18
48
1
60
0
100
AcDbLine
10
17.080365
20
11.185063
30
0
11
16.815887
21
10.458416
31
0
39
0
210
0
220
0
230
1
0
LINE
5
ED
100
AcDbEntity
8
1
62
256
6
ByLayer
370
18
48
1
60
0
100
AcDbLine
10
19.005876
20
-19.983716
30
0
11
21.424084
21
-9.233645
31
0
39
0
210
0
220
0
230
1
0
LINE
5
EE
100
AcDbEntity
8
1
62
256
6
ByLayer
370
18
48
1
60
0
100
AcDbLine
10
6.923205
20
19.122283
30
0
11
6.923205
21
5.85989
31
0
39
0
210
0
220
0
230
1
0
LINE
5
EF
100
AcDbEntity
8
1
62
256
6
ByLayer
370
18
48
1
60
0
100
AcDbLine
10
24.429531
20
-23.588634
30
0
11
24.608655
21
-23.598022
31
0
39
0
210
0
220
0
230
1
0
LINE
5
F0
100
AcDbEntity
8
1
62
256
6
ByLayer
370
18
48
1
60
0
100
AcDbLine
10
6.923205
20
-5.85989
30
0
11
6.923205
21
-19.122283
31
0
39
0
210
0
220
0
230
1
0
LINE
5
F1
100
AcDbEntity
8
1
62
256
6
ByLayer
370
18
48
1
60
0
100
AcDbLine
10
6.923205
20
19.122283
30
0
11
9.076795
21
19.122283
31
0
39
0
210
0
220
0
230
1
0
LINE
5
F2
100
AcDbEntity
8
1
62
256
6
ByLayer
370
18
48
1
60
0
100
AcDbLine
10
6.663397
20
19.024574
30
0
11
6.663397
21
6.16973
31
0
39
0
210
0
220
0
230
1
0
LINE
5
F3
100
AcDbEntity
8
1
62
256
6
ByLayer
370
18
48
1
60
0
100
AcDbLine
10
36.905832
20
-10.976301
30
0
11
41.563173
21
-6.196045
31
0
39
0
210
0
220
0
230
1
0
LINE
5
F4
100
AcDbEntity
8
1
62
256
6
ByLayer
370
18
48
1
60
0
100
AcDbLine
10
38.926867
20
-24.348408
30
0
11
39.106915
21
-24.357844
31
0
39
0
210
0
220
0
230
1
0
LINE
5
F5
100
AcDbEntity
8
1
62
256
6
ByLayer
370
18
48
1
60
0
100
AcDbLine
10
24.429531
20
-23.588634
30
0
11
21.869988
21
-23.454494
31
0
39
0
210
0
220
0
230
1
0
LINE
5
F6
100
AcDbEntity
8
1
62
256
6
ByLayer
370
18
48
1
60
0
100
AcDbLine
10
9.336603
20
19.024574
30
0
11
9.336603
21
6.16973
31
0
39
0
210
0
220
0
230
1
0
LINE
5
F7
100
AcDbEntity
8
1
62
256
6
ByLayer
370
18
48
1
60
0
100
AcDbLine
10
9.076795
20
5.85989
30
0
11
6.923205
21
5.85989
31
0
39
0
210
0
220
0
230
1
0
LINE
5
F8
100
AcDbEntity
8
1
62
256
6
ByLayer
370
18
48
1
60
0
100
AcDbLine
10
6.663397
20
-6.16973
30
0
11
6.663397
21
-19.024574
31
0
39
0
210
0
220
0
230
1
0
LINE
5
F9
100
AcDbEntity
8
1
62
256
6
ByLayer
370
18
48
1
60
0
100
AcDbLine
10
9.076795
20
19.122283
30
0
11
9.076795
21
5.85989
31
0
39
0
210
0
220
0
230
1
0
LINE
5
FA
100
AcDbEntity
8
1
62
256
6
ByLayer
370
18
48
1
60
0
100
AcDbLine
10
41.563173
20
-6.196045
30
0
11
46.20911
21
-13.785489
31
0
39
0
210
0
220
0
230
1
0
LINE
5
FB
100
AcDbEntity
8
1
62
256
6
ByLayer
370
18
48
1
60
0
100
AcDbLine
10
9.336603
20
-6.16973
30
0
11
9.336603
21
-19.024574
31
0
39
0
210
0
220
0
230
1
0
LINE
5
FC
100
AcDbEntity
8
1
62
256
6
ByLayer
370
18
48
1
60
0
100
AcDbLine
10
41.563173
20
-6.196045
30
0
11
25.680724
21
19.748987
31
0
39
0
210
0
220
0
230
1
0
LINE
5
FD
100
AcDbEntity
8
1
62
256
6
ByLayer
370
18
48
1
60
0
100
AcDbLine
10
9.076795
20
-19.122283
30
0
11
6.923205
21
-19.122283
31
0
39
0
210
0
220
0
230
1
0
LINE
5
FE
100
AcDbEntity
8
1
62
256
6
ByLayer
370
18
48
1
60
0
100
AcDbLine
10
17.080365
20
11.185063
30
0
11
17.080365
21
18.47854
31
0
39
0
210
0
220
0
230
1
0
LINE
5
FF
100
AcDbEntity
8
1
62
256
6
ByLayer
370
18
48
1
60
0
100
AcDbLine
10
17.080365
20
-10.81355
30
0
11
17.080365
21
3.187521
31
0
39
0
210
0
220
0
230
1
0
LINE
5
100
100
AcDbEntity
8
1
62
256
6
ByLayer
370
18
48
1
60
0
100
AcDbLine
10
16.605465
20
9.880287
30
0
11
16.393699
21
9.298465
31
0
39
0
210
0
220
0
230
1
0
LINE
5
101
100
AcDbEntity
8
1
62
256
6
ByLayer
370
18
48
1
60
0
100
AcDbLine
10
21.065143
20
-5.955543
30
0
11
21.065143
21
19.748987
31
0
39
0
210
0
220
0
230
1
0
LINE
5
102
100
AcDbEntity
8
1
62
256
6
ByLayer
370
18
48
1
60
0
100
AcDbLine
10
16.393699
20
6.636487
30
0
11
16.393699
21
9.298465
31
0
39
0
210
0
220
0
230
1
0
LINE
5
103
100
AcDbEntity
8
1
62
256
6
ByLayer
370
18
48
1
60
0
100
AcDbLine
10
36.905832
20
-10.976301
30
0
11
36.57634
21
-10.443037
31
0
39
0
210
0
220
0
230
1
0
LINE
5
104
100
AcDbEntity
8
1
62
256
6
ByLayer
370
18
48
1
60
0
100
AcDbLine
10
6.923205
20
-5.85989
30
0
11
9.076795
21
-5.85989
31
0
39
0
210
0
220
0
230
1
0
LINE
5
105
100
AcDbEntity
8
1
62
256
6
ByLayer
370
18
48
1
60
0
100
AcDbLine
10
46.20911
20
-13.785489
30
0
11
46.278452
21
-13.898765
31
0
39
0
210
0
220
0
230
1
0
LINE
5
106
100
AcDbEntity
8
SK1
62
256
6
ByLayer
370
18
48
1
60
0
100
AcDbLine
10
-1.307107
20
3.627816
30
0
11
-1.307107
21
-3.627817
31
0
39
0
210
0
220
0
230
1
0
LINE
5
107
100
AcDbEntity
8
1
62
256
6
ByLayer
370
18
48
1
60
0
100
AcDbLine
10
48.726663
20
-15.732359
30
0
11
54.885075
21
-25.792533
31
0
39
0
210
0
220
0
230
1
0
LINE
5
108
100
AcDbEntity
8
1
62
256
6
ByLayer
370
18
48
1
60
0
100
AcDbLine
10
47.612708
20
-14.642189
30
0
11
48.328633
21
-15.339705
31
0
39
0
210
0
220
0
230
1
0
LINE
5
109
100
AcDbEntity
8
1
62
256
6
ByLayer
370
18
48
1
60
0
100
AcDbLine
10
48.328633
20
-15.339705
30
0
11
46.183128
21
-14.066147
31
0
39
0
210
0
220
0
230
1
0
LINE
5
10A
100
AcDbEntity
8
1
62
256
6
ByLayer
370
18
48
1
60
0
100
AcDbLine
10
39.643247
20
-24.942976
30
0
11
41.788753
21
-26.216534
31
0
39
0
210
0
220
0
230
1
0
LINE
5
10B
100
AcDbEntity
8
1
62
256
6
ByLayer
370
18
48
1
60
0
100
AcDbLine
10
54.159728
20
-26.998896
30
0
11
42.325376
21
-26.378684
31
0
39
0
210
0
220
0
230
1
0
MTEXT
5
1C1
100
AcDbEntity
8
SK6
62
256
6
ByLayer
370
18
48
1
60
0
100
AcDbMText
10
-1.125
20
29.2
30
0
210
0
220
0
230
1
1
\W0.7408;C4-DDJNL-27055-15
40
3.5
41
0
44
1.084337
50
0
71
7
72
5
7
iso_b_vert
0
DIMENSION
5
1D2
100
AcDbEntity
8
2
62
256
6
ByLayer
370
13
48
1
60
0
100
AcDbDimension
2
DimnDraft3D1
10
55
20
-25.4125
30
0
11
42.711865
21
-38.703693
31
0
70
34
71
5
72
1
41
1
210
0
220
0
230
1
3
Standard
100
AcDb2LineAngularDimension
13
39.185265
23
-26.213873
33
0
14
54.164708
24
-26.998912
34
0
15
55
25
-27
35
0
16
39.44768
26
-41.801289
36
0
40
0
0
DIMENSION
5
1E7
100
AcDbEntity
8
2
62
256
6
ByLayer
370
13
48
1
60
0
100
AcDbDimension
2
DimnDraft3D2
10
55
20
-54.25
30
0
11
22.218421
21
-54.25
31
0
70
32
71
5
72
1
41
1
210
0
220
0
230
1
3
Standard
100
AcDbAlignedDimension
13
0
23
-22
33
0
14
55
24
-29
34
0
50
0
100
AcDbRotatedDimension
1001
ACAD
1000
DSTYLE
1002
{
1070
   279
1070
     0
1070
   172
1070
     1
1070
   173
1070
     1
1070
   340
1005
1C2
1070
    77
1070
     1
1070
    73
1070
     0
1070
   171
1070
     3
1070
   274
1070
     4
1070
   177
1070
     2
1070
   176
1070
     2
1070
   178
1070
     7
1070
    78
1070
     8
1070
    41
1041
3.175
1070
   147
1041
2.25
1070
    42
1041
2.0
1070
    44
1041
2.0
1070
   140
1041
4.5
1070
   343
1005
1D3
1070
   344
1005
1D3
1002
}
0
DIMENSION
5
1F6
100
AcDbEntity
8
SK2
62
256
6
ByLayer
370
13
48
1
60
0
100
AcDbDimension
2
DimnDraft3D3
10
-31.75
20
20
30
0
11
-31.75
21
-2.925
31
0
70
32
71
5
72
1
41
1
210
0
220
0
230
1
3
Standard
100
AcDbAlignedDimension
13
-2
23
-20
33
0
14
-2
24
20
34
0
50
90
100
AcDbRotatedDimension
1001
ACAD
1000
DSTYLE
1002
{
1070
    74
1070
     0
1070
   279
1070
     0
1070
   172
1070
     1
1070
   173
1070
     1
1070
   340
1005
1C2
1070
    77
1070
     1
1070
    73
1070
     0
1070
   171
1070
     3
1070
   274
1070
     4
1070
   177
1070
     2
1070
   176
1070
     2
1070
   178
1070
     7
1070
    78
1070
     8
1070
    41
1041
3.175
1070
   147
1041
2.25
1070
    42
1041
2.0
1070
    44
1041
2.0
1070
   140
1041
4.5
1070
   343
1005
1D3
1070
   344
1005
1D3
1002
}
0
DIMENSION
5
204
100
AcDbEntity
8
2
62
256
6
ByLayer
370
13
48
1
60
0
100
AcDbDimension
2
DimnDraft3D4
10
77.25
20
-27
30
0
11
77.25
21
-18.781579
31
0
70
32
71
5
72
1
41
1
210
0
220
0
230
1
3
Standard
100
AcDbAlignedDimension
13
57
23
0
33
0
14
57
24
-27
34
0
50
90
100
AcDbRotatedDimension
1001
ACAD
1000
DSTYLE
1002
{
1070
    74
1070
     0
1070
   279
1070
     0
1070
   172
1070
     1
1070
   173
1070
     1
1070
   340
1005
1C2
1070
    77
1070
     1
1070
    73
1070
     0
1070
   171
1070
     3
1070
   274
1070
     4
1070
   177
1070
     2
1070
   176
1070
     2
1070
   178
1070
     7
1070
    78
1070
     8
1070
    41
1041
3.175
1070
   147
1041
2.25
1070
    42
1041
2.0
1070
    44
1041
2.0
1070
   140
1041
4.5
1070
   343
1005
1D3
1070
   344
1005
1D3
1002
}
0
ENDSEC
0
SECTION
2
OBJECTS
0
DICTIONARY
5
26f
330
0
100
AcDbDictionary
280
0
281
1
3
ACAD_GROUP
350
270
3
ACAD_MLINESTYLE
350
271
0
DICTIONARY
5
270
330
0
100
AcDbDictionary
280
0
281
1
0
DICTIONARY
5
271
330
0
100
AcDbDictionary
280
0
281
1
3
Standard
350
18
0
MLINESTYLE
5
18
330
271
100
AcDbMlineStyle
2
Standard
70
0
3

62
256
51
90
52
90
71
2
49
-0.5
62
256
6
ByLayer
49
0.5
62
256
6
ByLayer
0
RASTERVARIABLES
5
25d
330

100
AcDbRasterVariables
90
0
70
1
71
1
72
1
0
ENDSEC
0
EOF
