0
SECTION
2
HEADER
9
$ACADVER
1
AC1015
9
$DWGCODEPAGE
3
ANSI_1252
9
$HANDSEED
5
2b1
9
$ANGBASE
50
0
9
$ANGDIR
70
0
9
$ATTMODE
70
1
9
$AUNITS
70
0
9
$AUPREC
70
0
9
$CECOLOR
62
256
9
$CELTSCALE
40
1
9
$CELTYPE
6
ByLayer
9
$CELWEIGHT
370
18
9
$CLAYER
8
0
9
$CMLJUST
70
0
9
$CMLSCALE
40
1
9
$CMLSTYLE
2
Standard
9
$DIMSTYLE
2
Standard
9
$TEXTSIZE
40
0.2
9
$TEXTSTYLE
7
Standard
9
$LUNITS
70
2
9
$LUPREC
70
4
9
$EXTNAMES
290
1
9
$INSUNITS
70
4
9
$LTSCALE
40
1
9
$LWDISPLAY
290
1
9
$PDMODE
70
0
9
$PDSIZE
40
0
9
$PLINEGEN
70
0
0
ENDSEC
0
SECTION
2
CLASSES
0
CLASS
1
RASTERVARIABLES
2
AcDbRasterVariables
3
ISM
90
0
280
0
281
0
0
ENDSEC
0
SECTION
2
TABLES
0
TABLE
2
VPORT
5
2a7
100
AcDbSymbolTable
0
VPORT
5
1
100
AcDbSymbolTableRecord
100
AcDbViewportTableRecord
2
*Active
70
0
10
0
20
0
11
1
21
1
12
-1
22
1
13
0
23
0
14
0.5
24
0.5
15
10
25
10
16
0
26
0
36
1
17
0
27
0
37
0
0
ENDTAB
0
TABLE
2
LTYPE
5
2a8
100
AcDbSymbolTable
0
LTYPE
5
14
100
AcDbSymbolTableRecord
100
AcDbLinetypeTableRecord
70
0
2
ByBlock
3

72
65
73
0
40
0
0
LTYPE
5
15
100
AcDbSymbolTableRecord
100
AcDbLinetypeTableRecord
70
0
2
ByLayer
3

72
65
73
0
40
0
0
LTYPE
5
16
100
AcDbSymbolTableRecord
100
AcDbLinetypeTableRecord
70
0
2
CONTINUOUS
3
Solid line
72
65
73
0
40
0
0
LTYPE
5
6A
100
AcDbSymbolTableRecord
100
AcDbLinetypeTableRecord
70
0
2
CENTER
3
____ _ ____ _ ____ _ ____
72
65
73
4
40
47.5
49
22
74
0
49
-8.5
74
0
49
8.5
74
0
49
-8.5
74
0
0
LTYPE
5
6B
100
AcDbSymbolTableRecord
100
AcDbLinetypeTableRecord
70
0
2
DASHED
3
__ __ __ __ __ __ __ __ __
72
65
73
2
40
25.72
49
12.86
74
0
49
-12.86
74
0
0
ENDTAB
0
TABLE
2
LAYER
5
2a9
100
AcDbSymbolTable
0
LAYER
5
10
100
AcDbSymbolTableRecord
100
AcDbLayerTableRecord
2
0
70
0
62
7
6
CONTINUOUS
290
1
370
-3
390
0
0
LAYER
5
6D
100
AcDbSymbolTableRecord
100
AcDbLayerTableRecord
2
2
70
0
62
7
6
CONTINUOUS
290
1
370
-3
390
0
0
LAYER
5
6F
100
AcDbSymbolTableRecord
100
AcDbLayerTableRecord
2
80
70
0
62
-6
6
CONTINUOUS
290
1
370
-3
390
0
0
LAYER
5
71
100
AcDbSymbolTableRecord
100
AcDbLayerTableRecord
2
81
70
0
62
-3
6
CONTINUOUS
290
1
370
-3
390
0
0
LAYER
5
74
100
AcDbSymbolTableRecord
100
AcDbLayerTableRecord
2
1
70
0
62
4
6
CONTINUOUS
290
1
370
-3
390
0
0
LAYER
5
88
100
AcDbSymbolTableRecord
100
AcDbLayerTableRecord
2
4
70
0
62
-2
6
CENTER
290
1
370
-3
390
0
0
LAYER
5
293
100
AcDbSymbolTableRecord
100
AcDbLayerTableRecord
2
SK4
70
0
62
2
6
CENTER
290
1
370
-3
390
0
0
LAYER
5
294
100
AcDbSymbolTableRecord
100
AcDbLayerTableRecord
2
SK1
70
0
62
4
6
CONTINUOUS
290
1
370
-3
390
0
0
LAYER
5
295
100
AcDbSymbolTableRecord
100
AcDbLayerTableRecord
2
SK6
70
0
62
5
6
CONTINUOUS
290
1
370
-3
390
0
0
LAYER
5
296
100
AcDbSymbolTableRecord
100
AcDbLayerTableRecord
2
SK2
70
0
62
7
6
CONTINUOUS
290
1
370
-3
390
0
0
ENDTAB
0
TABLE
2
STYLE
5
2aa
100
AcDbSymbolTable
0
STYLE
5
11
100
AcDbSymbolTableRecord
100
AcDbTextStyleTableRecord
2
Standard
3
txt
70
0
71
0
40
0
41
1
42
0
50
0
0
STYLE
5
1DB
100
AcDbSymbolTableRecord
100
AcDbTextStyleTableRecord
2
iso_b_vert
3
simplex.shx
70
0
71
0
40
0
41
1
42
0
50
0
0
STYLE
5
1DC
100
AcDbSymbolTableRecord
100
AcDbTextStyleTableRecord
2
DWGDirectTextStyle
3
simplex
70
0
71
0
40
0
41
1
42
0
50
0
0
ENDTAB
0
TABLE
2
DIMSTYLE
5
2ab
100
AcDbSymbolTable
100
AcDbDimStyleTable
0
DIMSTYLE
105
27
100
AcDbSymbolTableRecord
100
AcDbDimStyleTableRecord
2
Standard
70
0
3
<>
41
0.18
42
0.0625
44
0.18
140
0.18
147
0.09
73
0
74
0
77
1
271
2
275
0
278
52
280
0
340
11
0
ENDTAB
0
TABLE
2
VIEW
5
2ac
100
AcDbSymbolTable
0
ENDTAB
0
TABLE
2
UCS
5
2ad
100
AcDbSymbolTable
0
ENDTAB
0
TABLE
2
APPID
5
2ae
100
AcDbSymbolTable
0
APPID
5
12
100
AcDbSymbolTableRecord
100
AcDbRegAppTableRecord
2
ACAD
70
0
0
ENDTAB
0
TABLE
2
BLOCK_RECORD
5
2af
100
AcDbSymbolTable
0
BLOCK_RECORD
5
1F
100
AcDbSymbolTableRecord
100
AcDbBlockTableRecord
2
*Model_Space
340
0
70
0
0
BLOCK_RECORD
5
1B
100
AcDbSymbolTableRecord
100
AcDbBlockTableRecord
2
*Paper_Space
340
0
70
0
0
BLOCK_RECORD
5
23
100
AcDbSymbolTableRecord
100
AcDbBlockTableRecord
2
*Paper_Space0
340
0
70
0
0
BLOCK_RECORD
5
1DE
100
AcDbSymbolTableRecord
100
AcDbBlockTableRecord
2
DimnDraft3D11
340
0
70
0
0
BLOCK_RECORD
5
1EC
100
AcDbSymbolTableRecord
100
AcDbBlockTableRecord
2
DimnDraft3D22
340
0
70
0
0
BLOCK_RECORD
5
1FA
100
AcDbSymbolTableRecord
100
AcDbBlockTableRecord
2
DimnDraft3D33
340
0
70
0
0
BLOCK_RECORD
5
208
100
AcDbSymbolTableRecord
100
AcDbBlockTableRecord
2
DimnDraft3D4
340
0
70
0
0
BLOCK_RECORD
5
216
100
AcDbSymbolTableRecord
100
AcDbBlockTableRecord
2
_CLOSED
340
0
70
0
0
BLOCK_RECORD
5
21D
100
AcDbSymbolTableRecord
100
AcDbBlockTableRecord
2
DimnDraft3D5
340
0
70
0
0
BLOCK_RECORD
5
22C
100
AcDbSymbolTableRecord
100
AcDbBlockTableRecord
2
DimnDraft3D6
340
0
70
0
0
ENDTAB
0
ENDSEC
0
SECTION
2
BLOCKS
0
BLOCK
5
20
100
AcDbEntity
8
0
100
AcDbBlockBegin
2
*Model_Space
70
0
10
0
20
0
30
0
3
*Model_Space
0
ENDBLK
5
21
100
AcDbEntity
8
0
100
AcDbBlockEnd
0
BLOCK
5
1C
100
AcDbEntity
8
0
100
AcDbBlockBegin
2
*Paper_Space
70
0
10
0
20
0
30
0
3
*Paper_Space
0
ENDBLK
5
1D
100
AcDbEntity
8
0
100
AcDbBlockEnd
0
BLOCK
5
24
100
AcDbEntity
8
0
100
AcDbBlockBegin
2
*Paper_Space0
70
0
10
0
20
0
30
0
3
*Paper_Space0
0
ENDBLK
5
25
100
AcDbEntity
8
0
100
AcDbBlockEnd
0
BLOCK
5
1DF
100
AcDbEntity
8
0
100
AcDbBlockBegin
2
DimnDraft3D11
70
0
10
0
20
0
30
0
3
DimnDraft3D11
0
LINE
5
1E1
100
AcDbEntity
8
2
62
256
6
ByLayer
370
25
48
1
60
0
100
AcDbLine
10
42
20
29
30
0
11
42
21
36.75
31
0
39
0
210
0
220
0
230
1
0
LINE
5
1E2
100
AcDbEntity
8
2
62
256
6
ByLayer
370
25
48
1
60
0
100
AcDbLine
10
0
20
22
30
0
11
0
21
36.75
31
0
39
0
210
0
220
0
230
1
0
LINE
5
1E3
100
AcDbEntity
8
2
62
256
6
ByLayer
370
25
48
1
60
0
100
AcDbLine
10
42
20
34.75
30
0
11
0
21
34.75
31
0
39
0
210
0
220
0
230
1
0
LINE
5
1E4
100
AcDbEntity
8
2
62
256
6
ByLayer
370
25
48
1
60
0
100
AcDbLine
10
42
20
34.75
30
0
11
38.825002
21
34.332003
31
0
39
0
210
0
220
0
230
1
0
LINE
5
1E5
100
AcDbEntity
8
2
62
256
6
ByLayer
370
25
48
1
60
0
100
AcDbLine
10
42
20
34.75
30
0
11
38.824998
21
35.167997
31
0
39
0
210
0
220
0
230
1
0
LINE
5
1E6
100
AcDbEntity
8
2
62
256
6
ByLayer
370
25
48
1
60
0
100
AcDbLine
10
38.825002
20
34.332003
30
0
11
38.824998
21
35.167997
31
0
39
0
210
0
220
0
230
1
0
LINE
5
1E7
100
AcDbEntity
8
2
62
256
6
ByLayer
370
25
48
1
60
0
100
AcDbLine
10
0
20
34.75
30
0
11
3.174998
21
35.167997
31
0
39
0
210
0
220
0
230
1
0
LINE
5
1E8
100
AcDbEntity
8
2
62
256
6
ByLayer
370
25
48
1
60
0
100
AcDbLine
10
0
20
34.75
30
0
11
3.175002
21
34.332003
31
0
39
0
210
0
220
0
230
1
0
LINE
5
1E9
100
AcDbEntity
8
2
62
256
6
ByLayer
370
25
48
1
60
0
100
AcDbLine
10
3.174998
20
35.167997
30
0
11
3.175002
21
34.332003
31
0
39
0
210
0
220
0
230
1
0
MTEXT
5
1EA
100
AcDbEntity
8
2
62
256
6
ByLayer
370
18
48
1
60
0
100
AcDbMText
10
16.606579
20
35.875
30
0
210
0
220
0
230
1
1
\W0.7640;42.0
40
4.5
41
0
44
1.084337
50
0
71
7
72
5
7
iso_b_vert
0
ENDBLK
5
1E0
100
AcDbEntity
8
0
100
AcDbBlockEnd
0
BLOCK
5
1ED
100
AcDbEntity
8
0
100
AcDbBlockBegin
2
DimnDraft3D22
70
0
10
0
20
0
30
0
3
DimnDraft3D22
0
LINE
5
1EF
100
AcDbEntity
8
2
62
256
6
ByLayer
370
25
48
1
60
0
100
AcDbLine
10
50.322692
20
20.677308
30
0
11
50.322692
21
46.75
31
0
39
0
210
0
220
0
230
1
0
LINE
5
1F0
100
AcDbEntity
8
2
62
256
6
ByLayer
370
25
48
1
60
0
100
AcDbLine
10
0
20
22
30
0
11
0
21
46.75
31
0
39
0
210
0
220
0
230
1
0
LINE
5
1F1
100
AcDbEntity
8
2
62
256
6
ByLayer
370
25
48
1
60
0
100
AcDbLine
10
50.322692
20
44.75
30
0
11
0
21
44.75
31
0
39
0
210
0
220
0
230
1
0
LINE
5
1F2
100
AcDbEntity
8
2
62
256
6
ByLayer
370
25
48
1
60
0
100
AcDbLine
10
50.322692
20
44.75
30
0
11
47.147694
21
44.332003
31
0
39
0
210
0
220
0
230
1
0
LINE
5
1F3
100
AcDbEntity
8
2
62
256
6
ByLayer
370
25
48
1
60
0
100
AcDbLine
10
50.322692
20
44.75
30
0
11
47.147691
21
45.167997
31
0
39
0
210
0
220
0
230
1
0
LINE
5
1F4
100
AcDbEntity
8
2
62
256
6
ByLayer
370
25
48
1
60
0
100
AcDbLine
10
47.147694
20
44.332003
30
0
11
47.147691
21
45.167997
31
0
39
0
210
0
220
0
230
1
0
LINE
5
1F5
100
AcDbEntity
8
2
62
256
6
ByLayer
370
25
48
1
60
0
100
AcDbLine
10
0
20
44.75
30
0
11
3.174998
21
45.167997
31
0
39
0
210
0
220
0
230
1
0
LINE
5
1F6
100
AcDbEntity
8
2
62
256
6
ByLayer
370
25
48
1
60
0
100
AcDbLine
10
0
20
44.75
30
0
11
3.175002
21
44.332003
31
0
39
0
210
0
220
0
230
1
0
LINE
5
1F7
100
AcDbEntity
8
2
62
256
6
ByLayer
370
25
48
1
60
0
100
AcDbLine
10
3.174998
20
45.167997
30
0
11
3.175002
21
44.332003
31
0
39
0
210
0
220
0
230
1
0
MTEXT
5
1F8
100
AcDbEntity
8
2
62
256
6
ByLayer
370
18
48
1
60
0
100
AcDbMText
10
21.004767
20
45.875
30
0
210
0
220
0
230
1
1
\W0.7346;50.3
40
4.5
41
0
44
1.084337
50
0
71
7
72
5
7
iso_b_vert
0
ENDBLK
5
1EE
100
AcDbEntity
8
0
100
AcDbBlockEnd
0
BLOCK
5
1FB
100
AcDbEntity
8
0
100
AcDbBlockBegin
2
DimnDraft3D33
70
0
10
0
20
0
30
0
3
DimnDraft3D33
0
LINE
5
1FD
100
AcDbEntity
8
2
62
256
6
ByLayer
370
25
48
1
60
0
100
AcDbLine
10
44
20
27
30
0
11
99.25
21
27
31
0
39
0
210
0
220
0
230
1
0
LINE
5
1FE
100
AcDbEntity
8
2
62
256
6
ByLayer
370
25
48
1
60
0
100
AcDbLine
10
44
20
0
30
0
11
99.25
21
0
31
0
39
0
210
0
220
0
230
1
0
LINE
5
1FF
100
AcDbEntity
8
2
62
256
6
ByLayer
370
25
48
1
60
0
100
AcDbLine
10
97.25
20
27
30
0
11
97.25
21
0
31
0
39
0
210
0
220
0
230
1
0
LINE
5
200
100
AcDbEntity
8
2
62
256
6
ByLayer
370
25
48
1
60
0
100
AcDbLine
10
97.25
20
27
30
0
11
97.667997
21
23.825002
31
0
39
0
210
0
220
0
230
1
0
LINE
5
201
100
AcDbEntity
8
2
62
256
6
ByLayer
370
25
48
1
60
0
100
AcDbLine
10
97.25
20
27
30
0
11
96.832003
21
23.824998
31
0
39
0
210
0
220
0
230
1
0
LINE
5
202
100
AcDbEntity
8
2
62
256
6
ByLayer
370
25
48
1
60
0
100
AcDbLine
10
97.667997
20
23.825002
30
0
11
96.832003
21
23.824998
31
0
39
0
210
0
220
0
230
1
0
LINE
5
203
100
AcDbEntity
8
2
62
256
6
ByLayer
370
25
48
1
60
0
100
AcDbLine
10
97.25
20
0
30
0
11
96.832003
21
3.174998
31
0
39
0
210
0
220
0
230
1
0
LINE
5
204
100
AcDbEntity
8
2
62
256
6
ByLayer
370
25
48
1
60
0
100
AcDbLine
10
97.25
20
0
30
0
11
97.667997
21
3.175002
31
0
39
0
210
0
220
0
230
1
0
LINE
5
205
100
AcDbEntity
8
2
62
256
6
ByLayer
370
25
48
1
60
0
100
AcDbLine
10
96.832003
20
3.174998
30
0
11
97.667997
21
3.175002
31
0
39
0
210
0
220
0
230
1
0
MTEXT
5
206
100
AcDbEntity
8
2
62
256
6
ByLayer
370
18
48
1
60
0
100
AcDbMText
10
96.125
20
9.343421
30
0
210
0
220
0
230
1
1
\W0.7346;27.0
40
4.5
41
0
44
1.084337
50
90
71
7
72
5
7
iso_b_vert
0
ENDBLK
5
1FC
100
AcDbEntity
8
0
100
AcDbBlockEnd
0
BLOCK
5
213
100
AcDbEntity
8
0
100
AcDbBlockBegin
2
DimnDraft3D4
70
0
10
0
20
0
30
0
3
DimnDraft3D4
0
MTEXT
5
209
100
AcDbEntity
8
2
62
256
6
ByLayer
370
18
48
1
60
0
100
AcDbMText
10
86.125
20
5.744575
30
0
210
0
220
0
230
1
1
\W0.6563;18.7
40
4.5
41
0
44
1.084337
50
90
71
7
72
5
7
iso_b_vert
0
LINE
5
20A
100
AcDbEntity
8
2
62
256
6
ByLayer
370
13
48
1
60
0
100
AcDbLine
10
44
20
0
30
0
11
89.25
21
0
31
0
39
0
210
0
220
0
230
1
0
LINE
5
20B
100
AcDbEntity
8
2
62
256
6
ByLayer
370
13
48
1
60
0
100
AcDbLine
10
52.322692
20
18.677308
30
0
11
89.25
21
18.677308
31
0
39
0
210
0
220
0
230
1
0
LINE
5
20C
100
AcDbEntity
8
2
62
256
6
ByLayer
370
13
48
1
60
0
100
AcDbLine
10
87.25
20
-11.25
30
0
11
87.25
21
29.927308
31
0
39
0
210
0
220
0
230
1
0
LINE
5
20D
100
AcDbEntity
8
2
62
256
6
ByLayer
370
13
48
1
60
0
100
AcDbLine
10
87.25
20
0
30
0
11
87.667997
21
-3.174998
31
0
39
0
210
0
220
0
230
1
0
LINE
5
20E
100
AcDbEntity
8
2
62
256
6
ByLayer
370
13
48
1
60
0
100
AcDbLine
10
87.25
20
0
30
0
11
86.832003
21
-3.175002
31
0
39
0
210
0
220
0
230
1
0
LINE
5
20F
100
AcDbEntity
8
2
62
256
6
ByLayer
370
13
48
1
60
0
100
AcDbLine
10
87.667997
20
-3.174998
30
0
11
86.832003
21
-3.175002
31
0
39
0
210
0
220
0
230
1
0
LINE
5
210
100
AcDbEntity
8
2
62
256
6
ByLayer
370
13
48
1
60
0
100
AcDbLine
10
87.25
20
18.677308
30
0
11
86.832003
21
21.852306
31
0
39
0
210
0
220
0
230
1
0
LINE
5
211
100
AcDbEntity
8
2
62
256
6
ByLayer
370
13
48
1
60
0
100
AcDbLine
10
87.25
20
18.677308
30
0
11
87.667997
21
21.852309
31
0
39
0
210
0
220
0
230
1
0
LINE
5
212
100
AcDbEntity
8
2
62
256
6
ByLayer
370
13
48
1
60
0
100
AcDbLine
10
86.832003
20
21.852306
30
0
11
87.667997
21
21.852309
31
0
39
0
210
0
220
0
230
1
0
ENDBLK
5
214
100
AcDbEntity
8
0
100
AcDbBlockEnd
0
BLOCK
5
217
100
AcDbEntity
8
0
100
AcDbBlockBegin
2
_CLOSED
70
0
10
0
20
0
30
0
3
_CLOSED
0
LINE
5
219
100
AcDbEntity
8
0
62
256
6
ByLayer
370
-2
48
1
60
0
100
AcDbLine
10
-1
20
0.166667
30
0
11
0
21
0
31
0
39
0
210
0
220
0
230
1
0
LINE
5
21A
100
AcDbEntity
8
0
62
256
6
ByLayer
370
-2
48
1
60
0
100
AcDbLine
10
0
20
0
30
0
11
-1
21
-0.166667
31
0
39
0
210
0
220
0
230
1
0
LINE
5
21B
100
AcDbEntity
8
0
62
256
6
ByLayer
370
-2
48
1
60
0
100
AcDbLine
10
-1
20
0.166667
30
0
11
-1
21
-0.166667
31
0
39
0
210
0
220
0
230
1
0
LINE
5
21C
100
AcDbEntity
8
0
62
256
6
ByLayer
370
-2
48
1
60
0
100
AcDbLine
10
0
20
0
30
0
11
-1
21
0
31
0
39
0
210
0
220
0
230
1
0
ENDBLK
5
218
100
AcDbEntity
8
0
100
AcDbBlockEnd
0
BLOCK
5
229
100
AcDbEntity
8
0
100
AcDbBlockBegin
2
DimnDraft3D5
70
0
10
0
20
0
30
0
3
DimnDraft3D5
0
MTEXT
5
21E
100
AcDbEntity
8
SK2
62
256
6
ByLayer
370
18
48
1
60
0
100
AcDbMText
10
-32.875
20
-1.8
30
0
210
0
220
0
230
1
1
\W0.7361;40
40
4.5
41
0
44
1.084337
50
90
71
7
72
5
7
iso_b_vert
0
LINE
5
220
100
AcDbEntity
8
SK2
62
256
6
ByLayer
370
13
48
1
60
0
100
AcDbLine
10
-2
20
-20
30
0
11
-33.75
21
-20
31
0
39
0
210
0
220
0
230
1
0
LINE
5
221
100
AcDbEntity
8
SK2
62
256
6
ByLayer
370
13
48
1
60
0
100
AcDbLine
10
-2
20
20
30
0
11
-33.75
21
20
31
0
39
0
210
0
220
0
230
1
0
LINE
5
222
100
AcDbEntity
8
SK2
62
256
6
ByLayer
370
13
48
1
60
0
100
AcDbLine
10
-31.75
20
-20
30
0
11
-31.75
21
20
31
0
39
0
210
0
220
0
230
1
0
LINE
5
223
100
AcDbEntity
8
SK2
62
256
6
ByLayer
370
13
48
1
60
0
100
AcDbLine
10
-31.75
20
-20
30
0
11
-32.167997
21
-16.825002
31
0
39
0
210
0
220
0
230
1
0
LINE
5
224
100
AcDbEntity
8
SK2
62
256
6
ByLayer
370
13
48
1
60
0
100
AcDbLine
10
-31.75
20
-20
30
0
11
-31.332003
21
-16.824998
31
0
39
0
210
0
220
0
230
1
0
LINE
5
225
100
AcDbEntity
8
SK2
62
256
6
ByLayer
370
13
48
1
60
0
100
AcDbLine
10
-32.167997
20
-16.825002
30
0
11
-31.332003
21
-16.824998
31
0
39
0
210
0
220
0
230
1
0
LINE
5
226
100
AcDbEntity
8
SK2
62
256
6
ByLayer
370
13
48
1
60
0
100
AcDbLine
10
-31.75
20
20
30
0
11
-31.332003
21
16.825002
31
0
39
0
210
0
220
0
230
1
0
LINE
5
227
100
AcDbEntity
8
SK2
62
256
6
ByLayer
370
13
48
1
60
0
100
AcDbLine
10
-31.75
20
20
30
0
11
-32.167997
21
16.824998
31
0
39
0
210
0
220
0
230
1
0
LINE
5
228
100
AcDbEntity
8
SK2
62
256
6
ByLayer
370
13
48
1
60
0
100
AcDbLine
10
-31.332003
20
16.825002
30
0
11
-32.167997
21
16.824998
31
0
39
0
210
0
220
0
230
1
0
ENDBLK
5
22A
100
AcDbEntity
8
0
100
AcDbBlockEnd
0
BLOCK
5
237
100
AcDbEntity
8
0
100
AcDbBlockBegin
2
DimnDraft3D6
70
0
10
0
20
0
30
0
3
DimnDraft3D6
0
MTEXT
5
22D
100
AcDbEntity
8
2
62
256
6
ByLayer
370
18
48
1
60
0
100
AcDbMText
10
58.806644
20
-10.051583
30
0
210
0
220
0
230
1
1
\W0.7785;45%%d
40
4.5
41
0
44
1.084337
50
22.5
71
7
72
5
7
iso_b_vert
0
LINE
5
22E
100
AcDbEntity
8
2
62
256
6
ByLayer
370
13
48
1
60
0
100
AcDbLine
10
50.322692
20
16.348526
30
0
11
50.322692
21
-14.236394
31
0
39
0
210
0
220
0
230
1
0
LINE
5
22F
100
AcDbEntity
8
2
62
256
6
ByLayer
370
13
48
1
60
0
100
AcDbLine
10
52.065688
20
16.934312
30
0
11
73.596194
21
-4.596194
31
0
39
0
210
0
220
0
230
1
0
ARC
5
230
100
AcDbEntity
8
2
62
256
6
ByLayer
370
13
48
1
60
0
100
AcDbCircle
39
0
10
50.322692
20
18.677308
30
0
40
30.9137021538062
210
0
220
0
230
1
100
AcDbArc
50
270
51
315
0
LINE
5
231
100
AcDbEntity
8
2
62
256
6
ByLayer
370
13
48
1
60
0
100
AcDbLine
10
50.322692
20
-12.236394
30
0
11
53.485924
21
-11.737093
31
0
39
0
210
0
220
0
230
1
0
LINE
5
232
100
AcDbEntity
8
2
62
256
6
ByLayer
370
13
48
1
60
0
100
AcDbLine
10
50.322692
20
-12.236394
30
0
11
53.507371
21
-12.572812
31
0
39
0
210
0
220
0
230
1
0
LINE
5
233
100
AcDbEntity
8
2
62
256
6
ByLayer
370
13
48
1
60
0
100
AcDbLine
10
53.485924
20
-11.737093
30
0
11
53.507371
21
-12.572812
31
0
39
0
210
0
220
0
230
1
0
LINE
5
234
100
AcDbEntity
8
2
62
256
6
ByLayer
370
13
48
1
60
0
100
AcDbLine
10
72.181981
20
-3.181981
30
0
11
70.167958
21
-5.671769
31
0
39
0
210
0
220
0
230
1
0
LINE
5
235
100
AcDbEntity
8
2
62
256
6
ByLayer
370
13
48
1
60
0
100
AcDbLine
10
72.181981
20
-3.181981
30
0
11
69.592177
21
-5.065666
31
0
39
0
210
0
220
0
230
1
0
LINE
5
236
100
AcDbEntity
8
2
62
256
6
ByLayer
370
13
48
1
60
0
100
AcDbLine
10
70.167958
20
-5.671769
30
0
11
69.592177
21
-5.065666
31
0
39
0
210
0
220
0
230
1
0
ENDBLK
5
238
100
AcDbEntity
8
0
100
AcDbBlockEnd
0
ENDSEC
0
SECTION
2
ENTITIES
0
ARC
5
116
100
AcDbEntity
8
1
62
256
6
ByLayer
370
18
48
1
60
0
100
AcDbCircle
39
0
10
-16.841712
20
-8.229317
30
0
40
0.25
210
0
220
0
230
-1
100
AcDbArc
50
8.127068
51
100
0
ARC
5
117
100
AcDbEntity
8
SK1
62
256
6
ByLayer
370
18
48
1
60
0
100
AcDbCircle
39
0
10
0.6
20
-15
30
0
40
0.999999999999989
210
0
220
0
230
-1
100
AcDbArc
50
113.578178
51
126.869898
0
ARC
5
118
100
AcDbEntity
8
SK1
62
256
6
ByLayer
370
18
48
1
60
0
100
AcDbCircle
39
0
10
0.6
20
15
30
0
40
0.999999999999989
210
0
220
0
230
-1
100
AcDbArc
50
233.130102
51
246.421822
0
ARC
5
119
100
AcDbEntity
8
1
62
256
6
ByLayer
370
18
48
1
60
0
100
AcDbCircle
39
0
10
13.376863
20
-7.734525
30
0
40
3.25
210
0
220
0
230
1
100
AcDbArc
50
338.164908
51
351.872932
0
ELLIPSE
5
11A
100
AcDbEntity
8
1
62
256
6
ByLayer
370
18
48
1
60
0
100
AcDbEllipse
10
40.685483
20
10.624381
30
0
11
1.12253201513364
21
-1.12253201513363
31
0
210
0
220
0
230
1
40
0.990268
41
-0.977526261728189
42
-0.769493794793247
0
ELLIPSE
5
11B
100
AcDbEntity
8
1
62
256
6
ByLayer
370
18
48
1
60
0
100
AcDbEllipse
10
40.973383
20
9.789748
30
0
11
-0.561266007566826
21
0.561266007566818
31
0
210
0
220
0
230
1
40
0.990268
41
1.68919539560949
42
3.14159265358979
0
ELLIPSE
5
11C
100
AcDbEntity
8
1
62
256
6
ByLayer
370
18
48
1
60
0
100
AcDbEllipse
10
21.826177
20
22.920065
30
0
11
1.95985733071547
21
-2.27133424295959
31
0
210
0
220
0
230
1
40
0.988257
41
-0.625434656542339
42
-0.251157406134153
0
ELLIPSE
5
11D
100
AcDbEntity
8
1
62
256
6
ByLayer
370
18
48
1
60
0
100
AcDbEllipse
10
26.735866
20
17.722472
30
0
11
2.71113597415641
21
-3.14201236942743
31
0
210
0
220
0
230
1
40
0.988257
41
2.51615799704746
42
2.86027306847415
0
ELLIPSE
5
11E
100
AcDbEntity
8
1
62
256
6
ByLayer
370
18
48
1
60
0
100
AcDbEllipse
10
28.763428
20
17.886788
30
0
11
2.71113597415641
21
-3.14201236942743
31
0
210
0
220
0
230
1
40
0.988257
41
-0.169069312201373
42
2.51615799704746
0
ELLIPSE
5
11F
100
AcDbEntity
8
1
62
256
6
ByLayer
370
18
48
1
60
0
100
AcDbEllipse
10
20.072769
20
21.05226
30
0
11
-0.927402318147282
21
2.85970971936773
31
0
210
0
220
0
230
1
40
0.892529
41
-0.128972526796475
42
1.32362126116293
0
ELLIPSE
5
120
100
AcDbEntity
8
1
62
256
6
ByLayer
370
18
48
1
60
0
100
AcDbEllipse
10
26.759416
20
17.774635
30
0
11
-0.26870057685089
21
0.268700576850886
31
0
210
0
220
0
230
1
40
0.990268
41
-0.544806318595319
42
-0.429104837925055
0
ELLIPSE
5
121
100
AcDbEntity
8
1
62
256
6
ByLayer
370
18
48
1
60
0
100
AcDbEllipse
10
26.564731
20
18.553578
30
0
11
0.300520382004283
21
-0.300520382004282
31
0
210
0
220
0
230
1
40
0.990268
41
-0.544806318595295
42
8.87311466335266E-06
0
ELLIPSE
5
122
100
AcDbEntity
8
1
62
256
6
ByLayer
370
18
48
1
60
0
100
AcDbEllipse
10
28.724362
20
16.850864
30
0
11
-0.26870057685089
21
0.268700576850886
31
0
210
0
220
0
230
1
40
0.990268
41
-2.71250485419726
42
-1.89865463419673
0
ELLIPSE
5
123
100
AcDbEntity
8
1
62
256
6
ByLayer
370
18
48
1
60
0
100
AcDbEllipse
10
27.281686
20
18.903936
30
0
11
-0.26870057685089
21
0.268700576850886
31
0
210
0
220
0
230
1
40
0.990268
41
-1.59200386979192
42
-0.429102886325625
0
ELLIPSE
5
124
100
AcDbEntity
8
1
62
256
6
ByLayer
370
18
48
1
60
0
100
AcDbEllipse
10
29.441317
20
17.201222
30
0
11
0.300520382004283
21
-0.300520382004282
31
0
210
0
220
0
230
1
40
0.990268
41
-3.14158432898251
42
-1.89865463419671
0
ELLIPSE
5
125
100
AcDbEntity
8
1
62
256
6
ByLayer
370
18
48
1
60
0
100
AcDbEllipse
10
27.857312
20
19.45542
30
0
11
0.300520382004283
21
-0.300520382004282
31
0
210
0
220
0
230
1
40
0.990268
41
-1.5920038697919
42
-1.6965658675147E-05
0
ELLIPSE
5
126
100
AcDbEntity
8
1
62
256
6
ByLayer
370
18
48
1
60
0
100
AcDbEllipse
10
29.246633
20
17.980164
30
0
11
-0.26870057685089
21
0.268700576850886
31
0
210
0
220
0
230
1
40
0.990268
41
-2.71246349637745
42
-0.85145708300013
0
ELLIPSE
5
127
100
AcDbEntity
8
1
62
256
6
ByLayer
370
18
48
1
60
0
100
AcDbEllipse
10
28.525295
20
19.006701
30
0
11
-0.26870057685089
21
0.268700576850886
31
0
210
0
220
0
230
1
40
0.990268
41
-2.63920142098851
42
-0.285446270348222
0
ELLIPSE
5
128
100
AcDbEntity
8
1
62
256
6
ByLayer
370
18
48
1
60
0
100
AcDbEllipse
10
27.899694
20
17.774069
30
0
11
2.8284271247462
21
-2.82842712474618
31
0
210
0
220
0
230
1
40
0.990268
41
3.14154338312958
42
-0.914841806926903
0
ELLIPSE
5
129
100
AcDbEntity
8
1
62
256
6
ByLayer
370
18
48
1
60
0
100
AcDbEllipse
10
27.899694
20
17.774069
30
0
11
2.8284271247462
21
-2.82842712474618
31
0
210
0
220
0
230
1
40
0.990268
41
-0.495144693117322
42
0
0
ELLIPSE
5
12A
100
AcDbEntity
8
1
62
256
6
ByLayer
370
18
48
1
60
0
100
AcDbEllipse
10
28.003024
20
17.8774
30
0
11
0.813172798364532
21
-0.813172798364528
31
0
210
0
220
0
230
1
40
0.990268
41
-1.42535029292113
42
-0.808812313095072
0
ELLIPSE
5
12B
100
AcDbEntity
8
1
62
256
6
ByLayer
370
18
48
1
60
0
100
AcDbEllipse
10
28.003024
20
17.8774
30
0
11
0.813172798364532
21
-0.813172798364528
31
0
210
0
220
0
230
1
40
0.990268
41
-2.76681023345216
42
-2.13377950115858
0
ELLIPSE
5
12C
100
AcDbEntity
8
1
62
256
6
ByLayer
370
18
48
1
60
0
100
AcDbEllipse
10
28.003024
20
17.8774
30
0
11
0.813172798364532
21
-0.813172798364528
31
0
210
0
220
0
230
1
40
0.990268
41
-0.259721692555335
42
0
0
ELLIPSE
5
12D
100
AcDbEntity
8
1
62
256
6
ByLayer
370
18
48
1
60
0
100
AcDbEllipse
10
28.003024
20
17.8774
30
0
11
0.813172798364532
21
-0.813172798364528
31
0
210
0
220
0
230
1
40
0.990268
41
0
42
3.1415433670742
0
ELLIPSE
5
12E
100
AcDbEntity
8
1
62
256
6
ByLayer
370
18
48
1
60
0
100
AcDbEllipse
10
27.919376
20
17.793751
30
0
11
0.813172798364532
21
-0.813172798364528
31
0
210
0
220
0
230
1
40
0.990268
41
0.0518855838184243
42
3.02923171448825
0
ELLIPSE
5
12F
100
AcDbEntity
8
1
62
256
6
ByLayer
370
18
48
1
60
0
100
AcDbEllipse
10
41.913345
20
18.587435
30
0
11
1.73241161390705
21
-1.73241161390703
31
0
210
0
220
0
230
1
40
0.990268
41
-0.120116804792428
42
0
0
ELLIPSE
5
130
100
AcDbEntity
8
1
62
256
6
ByLayer
370
18
48
1
60
0
100
AcDbEllipse
10
41.913345
20
18.587435
30
0
11
1.73241161390705
21
-1.73241161390703
31
0
210
0
220
0
230
1
40
0.990268
41
0
42
-2.45324059160193
0
ELLIPSE
5
131
100
AcDbEntity
8
1
62
256
6
ByLayer
370
18
48
1
60
0
100
AcDbEllipse
10
41.913345
20
18.587435
30
0
11
1.73241161390705
21
-1.73241161390703
31
0
210
0
220
0
230
1
40
0.990268
41
-0.218586200841501
42
-0.120116804792423
0
ELLIPSE
5
132
100
AcDbEntity
8
1
62
256
6
ByLayer
370
18
48
1
60
0
100
AcDbEllipse
10
41.716525
20
18.390614
30
0
11
-3.88908729652604
21
3.88908729652599
31
0
210
0
220
0
230
1
40
0.990268
41
-0.261799387799138
42
-0.124769193572801
0
ELLIPSE
5
133
100
AcDbEntity
8
1
62
256
6
ByLayer
370
18
48
1
60
0
100
AcDbEllipse
10
41.982233
20
18.656322
30
0
11
3.37752183087595
21
-3.37752183087594
31
0
210
0
220
0
230
1
40
0.990268
41
-1.24842025483351
42
-1.22799189686218
0
ELLIPSE
5
134
100
AcDbEntity
8
1
62
256
6
ByLayer
370
18
48
1
60
0
100
AcDbEllipse
10
41.982233
20
18.656322
30
0
11
3.37752183087595
21
-3.37752183087594
31
0
210
0
220
0
230
1
40
0.990268
41
2.97332114885654
42
2.98688582168118
0
ELLIPSE
5
135
100
AcDbEntity
8
1
62
256
6
ByLayer
370
18
48
1
60
0
100
AcDbEllipse
10
41.716525
20
18.390614
30
0
11
-3.88908729652604
21
3.88908729652599
31
0
210
0
220
0
230
1
40
0.990268
41
1.7691038877942
42
2.00712863979349
0
ELLIPSE
5
136
100
AcDbEntity
8
1
62
256
6
ByLayer
370
18
48
1
60
0
100
AcDbEllipse
10
19.668352
20
0
30
0
11
-8.16361142190231
21
19.020263540258
31
0
210
0
220
0
230
1
40
0.757386
41
-0.292338147432836
42
-0.111427345865891
0
ELLIPSE
5
137
100
AcDbEntity
8
1
62
256
6
ByLayer
370
18
48
1
60
0
100
AcDbEllipse
10
39.725002
20
13.085948
30
0
11
-1.77017998994867
21
1.77017998994867
31
0
210
0
220
0
230
1
40
0.50533
41
1.5707963267949
42
1.91312681179446
0
ELLIPSE
5
138
100
AcDbEntity
8
1
62
256
6
ByLayer
370
18
48
1
60
0
100
AcDbEllipse
10
16.948929
20
0
30
0
11
-9.36741787978231
21
-19.7417491527505
31
0
210
0
220
0
230
1
40
0.341999
41
-1.09631952749989
42
-0.152726244898338
0
ELLIPSE
5
139
100
AcDbEntity
8
1
62
256
6
ByLayer
370
18
48
1
60
0
100
AcDbEllipse
10
-0.948929
20
0
30
0
11
-9.36741787978247
21
-19.7417491527507
31
0
210
0
220
0
230
1
40
0.341999
41
2.04527312608992
42
2.98886640869145
0
ELLIPSE
5
13A
100
AcDbEntity
8
1
62
256
6
ByLayer
370
18
48
1
60
0
100
AcDbEllipse
10
17.749773
20
0
30
0
11
2.3429066846326E-14
21
20.0000000000004
31
0
210
0
220
0
230
1
40
0.087489
41
0.437567605177526
42
2.40003223952258
0
ELLIPSE
5
13B
100
AcDbEntity
8
1
62
256
6
ByLayer
370
18
48
1
60
0
100
AcDbEllipse
10
-0.948929
20
0
30
0
11
-9.36741787978209
21
19.7417491527504
31
0
210
0
220
0
230
1
40
0.341999
41
-2.98886640869145
42
-2.0452731260899
0
ELLIPSE
5
13C
100
AcDbEntity
8
1
62
256
6
ByLayer
370
18
48
1
60
0
100
AcDbEllipse
10
16.787398
20
-6.493192
30
0
11
-0.00987943651987509
21
-3.99245274425732
31
0
210
0
220
0
230
1
40
0.082138
41
-0.557685835056229
42
0.117060764141682
0
ELLIPSE
5
13D
100
AcDbEntity
8
1
62
256
6
ByLayer
370
18
48
1
60
0
100
AcDbEllipse
10
16.787398
20
-6.493192
30
0
11
-0.0118553238238807
21
-4.79094329310738
31
0
210
0
220
0
230
1
40
0.082138
41
2.3324656680398
42
-1.54067911374402
0
ELLIPSE
5
13E
100
AcDbEntity
8
1
62
256
6
ByLayer
370
18
48
1
60
0
100
AcDbEllipse
10
18.631496
20
7.502492
30
0
11
-5.60999618789071
21
-0.408870916693544
31
0
210
0
220
0
230
1
40
0.70821
41
2.74688600973887
42
-3.12790644373513
0
ELLIPSE
5
13F
100
AcDbEntity
8
1
62
256
6
ByLayer
370
18
48
1
60
0
100
AcDbEllipse
10
16.948929
20
0
30
0
11
-9.36741787978282
21
19.7417491527512
31
0
210
0
220
0
230
1
40
0.341999
41
0.15272624489834
42
1.09631952749986
0
ELLIPSE
5
140
100
AcDbEntity
8
1
62
256
6
ByLayer
370
18
48
1
60
0
100
AcDbEllipse
10
6.257591
20
0
30
0
11
-24.5717503445359
21
-0.88966134276142
31
0
210
0
220
0
230
1
40
0.813137
41
-2.05286168225464
42
-1.89256185552601
0
ELLIPSE
5
141
100
AcDbEntity
8
1
62
256
6
ByLayer
370
18
48
1
60
0
100
AcDbEllipse
10
18.124357
20
7.418555
30
0
11
-6.31573299455132
21
-1.04531041579012
31
-4.38470519122319E-17
210
6.9425119697206E-18
220
-1.92592994438724E-34
230
-1
40
0.624839
41
-2.61836764392336
42
-2.41752469734185
0
ELLIPSE
5
142
100
AcDbEntity
8
1
62
256
6
ByLayer
370
18
48
1
60
0
100
AcDbEllipse
10
26.786154
20
18.775001
30
0
11
0.300520382004283
21
-0.300520382004282
31
0
210
0
220
0
230
1
40
0.990268
41
0.524701568947307
42
1.24293801939305
0
ELLIPSE
5
143
100
AcDbEntity
8
1
62
256
6
ByLayer
370
18
48
1
60
0
100
AcDbEllipse
10
29.517028
20
19.000665
30
0
11
0.300520382004283
21
-0.300520382004282
31
0
210
0
220
0
230
1
40
0.990268
41
-2.6392014209885
42
-1.92096497054276
0
ELLIPSE
5
144
100
AcDbEntity
8
1
62
256
6
ByLayer
370
18
48
1
60
0
100
AcDbEllipse
10
26.931867
20
17.196981
30
0
11
0.300520382004283
21
-0.300520382004282
31
0
210
0
220
0
230
1
40
0.990268
41
0.502391232601292
42
1.22062768304702
0
ELLIPSE
5
145
100
AcDbEntity
8
1
62
256
6
ByLayer
370
18
48
1
60
0
100
AcDbEllipse
10
28.224447
20
18.098823
30
0
11
0.830850467894195
21
-0.830850467894191
31
0
210
0
220
0
230
1
40
0.990268
41
2.38021710109337
42
2.50670480449076
0
ELLIPSE
5
146
100
AcDbEntity
8
1
62
256
6
ByLayer
370
18
48
1
60
0
100
AcDbEllipse
10
26.786154
20
18.775001
30
0
11
0.300520382004283
21
-0.300520382004282
31
0
210
0
220
0
230
1
40
0.990268
41
-0.544806318595306
42
0.173430131850415
0
ELLIPSE
5
147
100
AcDbEntity
8
1
62
256
6
ByLayer
370
18
48
1
60
0
100
AcDbEllipse
10
26.931867
20
17.196981
30
0
11
0.300520382004283
21
-0.300520382004282
31
0
210
0
220
0
230
1
40
0.990268
41
1.57189912014392
42
2.29013557058967
0
ELLIPSE
5
148
100
AcDbEntity
8
1
62
256
6
ByLayer
370
18
48
1
60
0
100
AcDbEllipse
10
28.224447
20
18.098823
30
0
11
0.830850467894195
21
-0.830850467894191
31
0
210
0
220
0
230
1
40
0.990268
41
-2.85577065488962
42
-2.72928295149222
0
ELLIPSE
5
149
100
AcDbEntity
8
1
62
256
6
ByLayer
370
18
48
1
60
0
100
AcDbEllipse
10
27.702177
20
16.969522
30
0
11
-0.26870057685089
21
0.268700576850886
31
0
210
0
220
0
230
1
40
0.990268
41
0.502391232601273
42
-2.94585218539331
0
ELLIPSE
5
14A
100
AcDbEntity
8
1
62
256
6
ByLayer
370
18
48
1
60
0
100
AcDbEllipse
10
28.224447
20
18.098823
30
0
11
0.830850467894195
21
-0.830850467894191
31
0
210
0
220
0
230
1
40
0.990268
41
1.33301954989678
42
1.45950725329418
0
ELLIPSE
5
14B
100
AcDbEntity
8
1
62
256
6
ByLayer
370
18
48
1
60
0
100
AcDbEllipse
10
28.945785
20
17.072287
30
0
11
-0.26870057685089
21
0.268700576850886
31
0
210
0
220
0
230
1
40
0.990268
41
1.5495887837979
42
-1.89865463419673
0
ELLIPSE
5
14C
100
AcDbEntity
8
1
62
256
6
ByLayer
370
18
48
1
60
0
100
AcDbEllipse
10
28.139146
20
18.013522
30
0
11
-2.82842712474621
21
2.82842712474617
31
0
210
0
220
0
230
1
40
0.990268
41
0
42
6.28318530717959
0
ELLIPSE
5
14D
100
AcDbEntity
8
1
62
256
6
ByLayer
370
18
48
1
60
0
100
AcDbEllipse
10
28.37016
20
16.520803
30
0
11
0.300520382004283
21
-0.300520382004282
31
0
210
0
220
0
230
1
40
0.990268
41
2.61909667134052
42
-2.94585218539331
0
ELLIPSE
5
14E
100
AcDbEntity
8
1
62
256
6
ByLayer
370
18
48
1
60
0
100
AcDbEllipse
10
29.517028
20
19.000665
30
0
11
0.300520382004283
21
-0.300520382004282
31
0
210
0
220
0
230
1
40
0.990268
41
-1.56969353344587
42
-0.851457083000116
0
ELLIPSE
5
14F
100
AcDbEntity
8
1
62
256
6
ByLayer
370
18
48
1
60
0
100
AcDbEllipse
10
29.66274
20
17.422645
30
0
11
0.300520382004283
21
-0.300520382004282
31
0
210
0
220
0
230
1
40
0.990268
41
-2.6168910846425
42
-1.89865463419671
0
ELLIPSE
5
150
100
AcDbEntity
8
1
62
256
6
ByLayer
370
18
48
1
60
0
100
AcDbEllipse
10
28.224447
20
18.098823
30
0
11
-1.62634559672907
21
1.62634559672905
31
0
210
0
220
0
230
1
40
0.990268
41
0
42
6.28318530717959
0
ELLIPSE
5
151
100
AcDbEntity
8
1
62
256
6
ByLayer
370
18
48
1
60
0
100
AcDbEllipse
10
29.295604
20
18.779242
30
0
11
0.300520382004283
21
-0.300520382004282
31
0
210
0
220
0
230
1
40
0.990268
41
-2.63920142098849
42
-0.851457083000116
0
ELLIPSE
5
152
100
AcDbEntity
8
1
62
256
6
ByLayer
370
18
48
1
60
0
100
AcDbEllipse
10
29.66274
20
17.422645
30
0
11
0.300520382004283
21
-0.300520382004282
31
0
210
0
220
0
230
1
40
0.990268
41
2.59678633499448
42
-2.96816252173933
0
ELLIPSE
5
153
100
AcDbEntity
8
1
62
256
6
ByLayer
370
18
48
1
60
0
100
AcDbEllipse
10
28.746718
20
19.228124
30
0
11
-0.26870057685089
21
0.268700576850886
31
0
210
0
220
0
230
1
40
0.990268
41
-2.6392014209885
42
0.195740468196467
0
ELLIPSE
5
154
100
AcDbEntity
8
1
62
256
6
ByLayer
370
18
48
1
60
0
100
AcDbEllipse
10
28.224447
20
18.098823
30
0
11
0.830850467894195
21
-0.830850467894191
31
0
210
0
220
0
230
1
40
0.990268
41
-0.761375552496406
42
-0.634887849099012
0
ELLIPSE
5
155
100
AcDbEntity
8
1
62
256
6
ByLayer
370
18
48
1
60
0
100
AcDbEllipse
10
27.503109
20
19.125359
30
0
11
-0.26870057685089
21
0.268700576850886
31
0
210
0
220
0
230
1
40
0.990268
41
-1.59200386979192
42
1.24293801939308
0
ELLIPSE
5
156
100
AcDbEntity
8
1
62
256
6
ByLayer
370
18
48
1
60
0
100
AcDbEllipse
10
28.37016
20
16.520803
30
0
11
0.300520382004283
21
-0.300520382004282
31
0
210
0
220
0
230
1
40
0.990268
41
1.54958878379789
42
2.26782523424364
0
ELLIPSE
5
157
100
AcDbEntity
8
1
62
256
6
ByLayer
370
18
48
1
60
0
100
AcDbEllipse
10
29.468056
20
18.201587
30
0
11
-0.26870057685089
21
0.268700576850886
31
0
210
0
220
0
230
1
40
0.990268
41
2.5967863349945
42
-0.85145708300013
0
ELLIPSE
5
158
100
AcDbEntity
8
1
62
256
6
ByLayer
370
18
48
1
60
0
100
AcDbEllipse
10
26.980839
20
17.996058
30
0
11
-0.26870057685089
21
0.268700576850886
31
0
210
0
220
0
230
1
40
0.990268
41
-0.544806318595327
42
2.29013557058965
0
ELLIPSE
5
159
100
AcDbEntity
8
1
62
256
6
ByLayer
370
18
48
1
60
0
100
AcDbEllipse
10
28.224447
20
18.098823
30
0
11
0.830850467894195
21
-0.830850467894191
31
0
210
0
220
0
230
1
40
0.990268
41
-1.80857310369302
42
-1.68208540029562
0
ELLIPSE
5
15A
100
AcDbEntity
8
1
62
256
6
ByLayer
370
18
48
1
60
0
100
AcDbEllipse
10
28.078735
20
19.676843
30
0
11
0.300520382004283
21
-0.300520382004282
31
0
210
0
220
0
230
1
40
0.990268
41
-0.522495982249264
42
0.195740468196498
0
ELLIPSE
5
15B
100
AcDbEntity
8
1
62
256
6
ByLayer
370
18
48
1
60
0
100
AcDbEllipse
10
28.078735
20
19.676843
30
0
11
0.300520382004283
21
-0.300520382004282
31
0
210
0
220
0
230
1
40
0.990268
41
-1.5920038697919
42
-0.873767419346136
0
ELLIPSE
5
15C
100
AcDbEntity
8
1
62
256
6
ByLayer
370
18
48
1
60
0
100
AcDbEllipse
10
28.224447
20
18.098823
30
0
11
0.830850467894195
21
-0.830850467894191
31
0
210
0
220
0
230
1
40
0.990268
41
0.285821998700187
42
0.412309702097567
0
ELLIPSE
5
15D
100
AcDbEntity
8
1
62
256
6
ByLayer
370
18
48
1
60
0
100
AcDbEllipse
10
40.424874
20
14.966789
30
0
11
-0.948846714912354
21
-0.518309738910156
31
0
210
0
220
0
230
1
40
0.285329
41
0.81727352081855
42
1.34087229639942
0
ELLIPSE
5
15E
100
AcDbEntity
8
1
62
256
6
ByLayer
370
18
48
1
60
0
100
AcDbEllipse
10
42.703357
20
21.318385
30
0
11
-4.73551485244535
21
2.60362362781867
31
0
210
0
220
0
230
1
40
0.5394
41
0.259699319209579
42
0.339437587547857
0
ELLIPSE
5
15F
100
AcDbEntity
8
1
62
256
6
ByLayer
370
18
48
1
60
0
100
AcDbEllipse
10
43.153722
20
16.441078
30
0
11
-1.45137297254913
21
-7.52397534463769
31
0
210
0
220
0
230
1
40
0.578723
41
-1.09524961462036
42
-1.01551134687194
0
ELLIPSE
5
160
100
AcDbEntity
8
1
62
256
6
ByLayer
370
18
48
1
60
0
100
AcDbEllipse
10
23.925664
20
19.879874
30
0
11
-4.97881916218304
21
-0.459738784832185
31
0
210
0
220
0
230
1
40
0.089459
41
-1.30994096619142
42
-0.868909860835129
0
ELLIPSE
5
161
100
AcDbEntity
8
1
62
256
6
ByLayer
370
18
48
1
60
0
100
AcDbEllipse
10
24.324033
20
15.565668
30
0
11
-4.52332049558429
21
-5.39063868932542
31
0
210
0
220
0
230
1
40
0.00866
41
1.01206961877561
42
1.47613314700913
0
ELLIPSE
5
162
100
AcDbEntity
8
1
62
256
6
ByLayer
370
18
48
1
60
0
100
AcDbEllipse
10
19.325804
20
12.015858
30
0
11
-2.7411336336139
21
1.25217531654148
31
0
210
0
220
0
230
1
40
0.988877
41
1.73528453511718
42
1.74139474490258
0
ELLIPSE
5
163
100
AcDbEntity
8
1
62
256
6
ByLayer
370
18
48
1
60
0
100
AcDbEllipse
10
29.063554
20
22.589048
30
0
11
-9.4491630647856
21
1.28078877127091
31
0
210
0
220
0
230
1
40
0.101433
41
-0.430888556844502
42
0.288312343101199
0
ELLIPSE
5
164
100
AcDbEntity
8
1
62
256
6
ByLayer
370
18
48
1
60
0
100
AcDbEllipse
10
24.401875
20
14.722663
30
0
11
-4.97881916218304
21
-0.459738784832185
31
0
210
0
220
0
230
1
40
0.089459
41
-1.30994096619142
42
-0.868909860835127
0
ELLIPSE
5
165
100
AcDbEntity
8
1
62
256
6
ByLayer
370
18
48
1
60
0
100
AcDbEllipse
10
39.755699
20
22.213732
30
0
11
-1.03100520234337
21
0.305175916418786
31
0
210
0
220
0
230
1
40
0.133742
41
-1.41020309572577
42
-0.886604320121387
0
ELLIPSE
5
166
100
AcDbEntity
8
1
62
256
6
ByLayer
370
18
48
1
60
0
100
AcDbEllipse
10
16.956279
20
9.408554
30
0
11
6.97034682705626
21
0.643634298765063
31
0
210
0
220
0
230
1
40
0.089459
41
-1.17773393699329
42
-0.770472553435591
0
ELLIPSE
5
167
100
AcDbEntity
8
1
62
256
6
ByLayer
370
18
48
1
60
0
100
AcDbEllipse
10
29.829156
20
14.29784
30
0
11
-8.93349008485258
21
-4.17340011171229
31
0
210
0
220
0
230
1
40
0.155819
41
-0.320839848664922
42
0.398361051280412
0
ELLIPSE
5
168
100
AcDbEntity
8
1
62
256
6
ByLayer
370
18
48
1
60
0
100
AcDbEllipse
10
24.003506
20
19.036868
30
0
11
-5.41653244123429
21
4.54504811369953
31
0
210
0
220
0
230
1
40
0.098043
41
-1.38603979090415
42
-0.921976262589925
0
ELLIPSE
5
169
100
AcDbEntity
8
1
62
256
6
ByLayer
370
18
48
1
60
0
100
AcDbEllipse
10
20.83837
20
12.761051
30
0
11
-0.927402318146908
21
2.85970971936804
31
0
210
0
220
0
230
1
40
0.892529
41
1.32362126116311
42
2.89441758795795
0
ELLIPSE
5
16A
100
AcDbEntity
8
1
62
256
6
ByLayer
370
18
48
1
60
0
100
AcDbEllipse
10
42.645674
20
18.77434
30
0
11
2.30693672462053
21
-2.30693672462052
31
0
210
0
220
0
230
1
40
0.990268
41
0.26179938779916
42
1.4835298641952
0
ELLIPSE
5
16B
100
AcDbEntity
8
1
62
256
6
ByLayer
370
18
48
1
60
0
100
AcDbEllipse
10
42.311079
20
18.439745
30
0
11
-3.18198051533949
21
3.18198051533944
31
0
210
0
220
0
230
1
40
0.990268
41
-2.87979326579063
42
-1.6580627893946
0
ELLIPSE
5
16C
100
AcDbEntity
8
1
62
256
6
ByLayer
370
18
48
1
60
0
100
AcDbEllipse
10
42.645674
20
18.77434
30
0
11
-2.53778696600236
21
2.53778696600233
31
0
210
0
220
0
230
1
40
0.990268
41
-1.22822851335426
42
-1.1344640137963
0
ELLIPSE
5
16D
100
AcDbEntity
8
1
62
256
6
ByLayer
370
18
48
1
60
0
100
AcDbEllipse
10
42.05112
20
18.725209
30
0
11
2.37173880782503
21
-2.37173880782501
31
0
210
0
220
0
230
1
40
0.990268
41
-0.322885911618938
42
2.06821516361329
0
ELLIPSE
5
16E
100
AcDbEntity
8
1
62
256
6
ByLayer
370
18
48
1
60
0
100
AcDbEllipse
10
39.229829
20
20.77918
30
0
11
-7.54429230456114
21
2.78448426546728
31
0
210
0
220
0
230
1
40
0.767882
41
1.94117669819758
42
2.00474735745263
0
ELLIPSE
5
16F
100
AcDbEntity
8
1
62
256
6
ByLayer
370
18
48
1
60
0
100
AcDbEllipse
10
42.645674
20
18.77434
30
0
11
-2.53778696600236
21
2.53778696600233
31
0
210
0
220
0
230
1
40
0.990268
41
2.87979326579065
42
2.97355776534861
0
ELLIPSE
5
170
100
AcDbEntity
8
1
62
256
6
ByLayer
370
18
48
1
60
0
100
AcDbEllipse
10
44.660947
20
18.183087
30
0
11
-1.08917214736832
21
2.42666868038027
31
0
210
0
220
0
230
1
40
0.572768
41
2.51456782309554
42
-2.74765992363719
0
ELLIPSE
5
171
100
AcDbEntity
8
1
62
256
6
ByLayer
370
18
48
1
60
0
100
AcDbEllipse
10
39.849314
20
14.070366
30
0
11
-4.3675482210657
21
-8.4522307947878
31
0
210
0
220
0
230
1
40
0.721729
41
-2.49883002616176
42
-2.43525936677881
0
ELLIPSE
5
172
100
AcDbEntity
8
1
62
256
6
ByLayer
370
18
48
1
60
0
100
AcDbEllipse
10
44.46049
20
20.353968
30
0
11
-1.40819469433575
21
1.06491119977905
31
0
210
0
220
0
230
1
40
0.888799
41
-1.82210602805871
42
-0.801148467612458
0
ELLIPSE
5
173
100
AcDbEntity
8
1
62
256
6
ByLayer
370
18
48
1
60
0
100
AcDbEllipse
10
42.311079
20
18.439745
30
0
11
-3.18198051533949
21
3.18198051533944
31
0
210
0
220
0
230
1
40
0.990268
41
2.87979326579065
42
-2.87979326579063
0
ELLIPSE
5
174
100
AcDbEntity
8
1
62
256
6
ByLayer
370
18
48
1
60
0
100
AcDbEllipse
10
42.311079
20
18.439745
30
0
11
-3.18198051533949
21
3.18198051533944
31
0
210
0
220
0
230
1
40
0.990268
41
-1.6580627893946
42
-1.1344640137963
0
ELLIPSE
5
175
100
AcDbEntity
8
1
62
256
6
ByLayer
370
18
48
1
60
0
100
AcDbEllipse
10
49.536014
20
18.352379
30
0
11
-0.561266007566826
21
0.561266007566818
31
0
210
0
220
0
230
1
40
0.990268
41
3.14159265358979
42
-1.57079632679489
0
ELLIPSE
5
176
100
AcDbEntity
8
1
62
256
6
ByLayer
370
18
48
1
60
0
100
AcDbEllipse
10
41.75476
20
10.571126
30
0
11
-0.561266007566826
21
0.561266007566818
31
0
210
0
220
0
230
1
40
0.990268
41
1.57079632679488
42
3.14159265358979
0
ELLIPSE
5
177
100
AcDbEntity
8
1
62
256
6
ByLayer
370
18
48
1
60
0
100
AcDbEllipse
10
41.678289
20
26.210103
30
0
11
-0.561266007566826
21
0.561266007566818
31
0
210
0
220
0
230
1
40
0.990268
41
-1.5707963267949
42
0
0
POINT
5
6C
100
AcDbEntity
8
2
62
256
6
ByLayer
370
18
48
1
60
0
100
AcDbPoint
10
42
20
27
30
0
39
0
210
0
220
0
230
1
50
360
0
POINT
5
6E
100
AcDbEntity
8
80
62
256
6
ByLayer
370
18
48
1
60
0
100
AcDbPoint
10
0
20
0
30
0
39
0
210
0
220
0
230
1
50
360
0
POINT
5
70
100
AcDbEntity
8
81
62
256
6
ByLayer
370
18
48
1
60
0
100
AcDbPoint
10
42
20
27
30
0
39
0
210
0
220
0
230
1
50
360
0
SPLINE
5
178
100
AcDbEntity
8
SK1
62
256
6
ByLayer
370
18
48
1
60
0
100
AcDbSpline
70
4
71
2
72
6
73
3
40
0
40
0
40
0
40
1
40
1
40
1
41
1
10
-22.5
20
-13.4933966698402
30
0
41
1
10
-12.0999999999449
20
-13.7545973909208
30
0
41
1
10
-1.70000000000002
20
-14.0157977997179
30
0
0
SPLINE
5
179
100
AcDbEntity
8
SK1
62
256
6
ByLayer
370
18
48
1
60
0
100
AcDbSpline
70
4
71
2
72
6
73
3
40
0
40
0
40
0
40
1
40
1
40
1
41
1
10
-1.69999999999999
20
14.0157970602974
30
0
41
1
10
-12.099999999963
20
13.7545958471854
30
0
41
1
10
-22.5
20
13.493394380475
30
0
0
SPLINE
5
17A
100
AcDbEntity
8
SK1
62
256
6
ByLayer
370
18
48
1
60
0
100
AcDbSpline
70
4
71
3
72
13
73
9
40
0
40
0
40
0
40
0
40
0.239456136997449
40
0.368359723417175
40
0.499998985516726
40
0.631638416576567
40
0.760542468702411
40
1
40
1
40
1
40
1
41
1
10
-1.70000000000002
20
-14.0200984156386
30
0
41
1
10
-1.69909198645283
20
-13.9940409390257
30
0
41
1
10
-1.69103284110335
20
-13.9566683539303
30
0
41
1
10
-1.66563592205637
20
-13.9104491790265
30
0
41
1
10
-1.63886378681673
20
-13.8791676243502
30
0
41
1
10
-1.60627712752267
20
-13.8540002532836
30
0
41
1
10
-1.5588406423667
20
-13.830956449625
30
0
41
1
10
-1.52111030874431
20
-13.8247841935567
30
0
41
1
10
-1.49503997793931
20
-13.8251858327438
30
0
0
SPLINE
5
17B
100
AcDbEntity
8
SK1
62
256
6
ByLayer
370
18
48
1
60
0
100
AcDbSpline
70
4
71
3
72
13
73
9
40
0
40
0
40
0
40
0
40
0.239457531274807
40
0.368361583394193
40
0.500001014452292
40
0.631640276555059
40
0.760543862982143
40
1
40
1
40
1
40
1
41
1
10
-1.49503997793928
20
13.8251858293361
30
0
41
1
10
-1.52111030874488
20
13.8247841901529
30
0
41
1
10
-1.5588406423679
20
13.8309564462263
30
0
41
1
10
-1.60627712752327
20
13.8540002498915
30
0
41
1
10
-1.63886378681724
20
13.8791676209635
30
0
41
1
10
-1.66563592205674
20
13.9104491756451
30
0
41
1
10
-1.69103284110355
20
13.9566683505561
30
0
41
1
10
-1.69909198645305
20
13.9940409356568
30
0
41
1
10
-1.69999999999999
20
14.0200984122732
30
0
0
SPLINE
5
17C
100
AcDbEntity
8
SK1
62
256
6
ByLayer
370
18
48
1
60
0
100
AcDbSpline
70
4
71
2
72
6
73
3
40
0
40
0
40
0
40
1
40
1
40
1
41
1
10
-24
20
-12.6310964932104
30
0
41
1
10
-23.2499999989323
20
-13.0640911753538
30
0
41
1
10
-22.5
20
-13.4970856697526
30
0
0
SPLINE
5
17D
100
AcDbEntity
8
SK1
62
256
6
ByLayer
370
18
48
1
60
0
100
AcDbSpline
70
4
71
2
72
6
73
3
40
0
40
0
40
0
40
1
40
1
40
1
41
1
10
-22.5
20
13.4970852847173
30
0
41
1
10
-23.2499999989318
20
13.0640908004417
30
0
41
1
10
-24
20
12.6310961283886
30
0
0
SPLINE
5
17E
100
AcDbEntity
8
SK1
62
256
6
ByLayer
370
18
48
1
60
0
100
AcDbSpline
70
4
71
2
72
6
73
3
40
0
40
0
40
0
40
1
40
1
40
1
41
1
10
-1.49503997793931
20
-13.7129410868425
30
0
41
1
10
-0.94500843340731
20
-13.7266599565288
30
0
41
1
10
-0.394976888875306
20
-13.7403788260786
30
0
0
SPLINE
5
17F
100
AcDbEntity
8
SK1
62
256
6
ByLayer
370
18
48
1
60
0
100
AcDbSpline
70
4
71
2
72
6
73
3
40
0
40
0
40
0
40
1
40
1
40
1
41
1
10
-0.394976888875277
20
13.740379899128
30
0
41
1
10
-0.945008433407281
20
13.7266611372792
30
0
41
1
10
-1.49503997793928
20
13.7129423752897
30
0
0
SPLINE
5
180
100
AcDbEntity
8
1
62
256
6
ByLayer
370
18
48
1
60
0
100
AcDbSpline
70
4
71
3
72
12
73
8
40
0
40
0
40
0
40
0
40
0.266204607786929
40
0.266204607786929
40
0.710629091249986
40
0.710629091249986
40
1
40
1
40
1
40
1
41
1
10
16.2843802147937
20
22.1989971851914
30
0
41
1
10
16.3341412030363
20
22.2755297225312
30
0
41
1
10
16.3922943883868
20
22.3523800393217
30
0
41
1
10
16.5698053097199
20
22.5527553144219
30
0
41
1
10
16.7069362039653
20
22.6755041795756
30
0
41
1
10
16.9691277244914
20
22.8565130609624
30
0
41
1
10
17.0838118341151
20
22.9235946138782
30
0
41
1
10
17.2044481013625
20
22.9831569609152
30
0
0
SPLINE
5
181
100
AcDbEntity
8
1
62
256
6
ByLayer
370
18
48
1
60
0
100
AcDbSpline
70
4
71
3
72
8
73
4
40
0
40
0
40
0
40
0
40
1
40
1
40
1
40
1
41
1
10
16.9852052825354
20
10.6428307848728
30
0
41
1
10
17.0948345594211
20
10.3577703991264
30
0
41
1
10
17.2381019540635
20
10.0990914456044
30
0
41
1
10
17.4229814260173
20
9.86832221178099
30
0
0
SPLINE
5
182
100
AcDbEntity
8
1
62
256
6
ByLayer
370
18
48
1
60
0
100
AcDbSpline
70
4
71
2
72
8
73
5
40
0
40
0
40
0
40
0.252766087019057
40
0.252766087019057
40
1
40
1
40
1
41
1
10
16.9674337105545
20
9.29488996366817
30
0
41
1
10
17.0380601424053
20
9.33162887148882
30
0
41
1
10
17.1070934902247
20
9.37583873130842
30
0
41
1
10
17.3286788773504
20
9.51774491451329
30
0
41
1
10
17.5170197964698
20
9.72529959490967
30
0
0
SPLINE
5
183
100
AcDbEntity
8
SK1
62
256
6
ByLayer
370
18
48
1
60
0
100
AcDbSpline
70
4
71
3
72
24
73
20
40
0
40
0
40
0
40
0
40
0.0014544386989136
40
0.0014544386989136
40
0.361956423059688
40
0.361956423059688
40
0.727731599250121
40
0.727731599250121
40
0.782013304695231
40
0.782013304695231
40
0.837002501937587
40
0.837002501937587
40
0.873144196436347
40
0.873144196436347
40
0.909511909647749
40
0.909511909647749
40
0.952113857168633
40
0.952113857168633
40
1
40
1
40
1
40
1
41
1
10
-0.217773520819861
20
13.9477771104646
30
0
41
1
10
-0.217796303830511
20
13.9477385212396
30
0
41
1
10
-0.217819113763113
20
13.9476999169831
30
0
41
1
10
-0.223510113646824
20
13.9380759054837
30
0
41
1
10
-0.230869554015186
20
13.9275300777214
30
0
41
1
10
-0.252993763945852
20
13.9036085654018
30
0
41
1
10
-0.26616930605519
20
13.8900912648142
30
0
41
1
10
-0.299313210098916
20
13.8713678522793
30
0
41
1
10
-0.304168151080063
20
13.8688119846588
30
0
41
1
10
-0.315233613826848
20
13.8635902765912
30
0
41
1
10
-0.321588767727178
20
13.8608655729355
30
0
41
1
10
-0.333434048045547
20
13.8565368608439
30
0
41
1
10
-0.33858734581375
20
13.8548370746726
30
0
41
1
10
-0.349158334685939
20
13.8517865918864
30
0
41
1
10
-0.354704697438677
20
13.8504050227189
30
0
41
1
10
-0.366193697521936
20
13.847969712967
30
0
41
1
10
-0.37221373013341
20
13.8469665678177
30
0
41
1
10
-0.383950527302631
20
13.8454141457692
30
0
41
1
10
-0.389694590781971
20
13.8449066720063
30
0
41
1
10
-0.394976888882155
20
13.8446015176357
30
0
0
SPLINE
5
184
100
AcDbEntity
8
SK1
62
256
6
ByLayer
370
18
48
1
60
0
100
AcDbSpline
70
4
71
3
72
22
73
18
40
0
40
0
40
0
40
0
40
0.0599142076723867
40
0.0599142076723867
40
0.121055594385007
40
0.121055594385007
40
0.162901752528908
40
0.162901752528908
40
0.204523232053309
40
0.204523232053309
40
0.272771910395609
40
0.272771910395609
40
0.407778301330158
40
0.407778301330158
40
0.885838145355912
40
0.885838145355912
40
1
40
1
40
1
40
1
41
1
10
-0.394976888875306
20
-13.8446019297682
30
0
41
1
10
-0.389542940031589
20
-13.8449158599001
30
0
41
1
10
-0.383617593481034
20
-13.8454439659091
30
0
41
1
10
-0.370682577094925
20
-13.8471856765741
30
0
41
1
10
-0.363425095790518
20
-13.8484584409772
30
0
41
1
10
-0.350979043087193
20
-13.8513238322133
30
0
41
1
10
-0.345738104843406
20
-13.8527220431424
30
0
41
1
10
-0.335836036111402
20
-13.8557300394867
30
0
41
1
10
-0.331061234651429
20
-13.8573680363077
30
0
41
1
10
-0.319536857691617
20
-13.8617043765564
30
0
41
1
10
-0.313226439154875
20
-13.8644842406524
30
0
41
1
10
-0.296825865103983
20
-13.8724174982475
30
0
41
1
10
-0.288454852011284
20
-13.8774557840676
30
0
41
1
10
-0.256352537857253
20
-13.8987262995108
30
0
41
1
10
-0.243999907013659
20
-13.9124642192994
30
0
41
1
10
-0.231544685822513
20
-13.9276631681747
30
0
41
1
10
-0.229311998958337
20
-13.9305133634633
30
0
41
1
10
-0.227233566603388
20
-13.9332905321387
30
0
0
SPLINE
5
185
100
AcDbEntity
8
1
62
256
6
ByLayer
370
18
48
1
60
0
100
AcDbSpline
70
4
71
3
72
8
73
4
40
0
40
0
40
0
40
0
40
1
40
1
40
1
40
1
41
1
10
17.0803645201175
20
-3.18752084452387
30
0
41
1
10
17.111730478741
20
-3.60109749853711
30
0
41
1
10
17.1768308352431
20
-4.06912539726392
30
0
41
1
10
17.2360063786745
20
-4.57036548891739
30
0
0
SPLINE
5
186
100
AcDbEntity
8
SK1
62
256
6
ByLayer
370
18
48
1
60
0
100
AcDbSpline
70
4
71
3
72
118
73
114
40
0
40
0
40
0
40
0
40
0.0076461639316332
40
0.0154178037269271
40
0.023189443522221
40
0.030961083317515
40
0.0387327231128089
40
0.0465043629081028
40
0.0542760027033968
40
0.0620476424986907
40
0.0698192822939846
40
0.0775909220892786
40
0.0931342016798664
40
0.108677481270454
40
0.124220760861042
40
0.131992400656336
40
0.13976404045163
40
0.147535680246924
40
0.155307320042218
40
0.170850599632806
40
0.1786222394281
40
0.186393879223394
40
0.194165519018688
40
0.201937158813981
40
0.209708798609275
40
0.217480438404569
40
0.233023717995157
40
0.240795357790451
40
0.248566997585745
40
0.256338637381039
40
0.264110277176333
40
0.271881916971627
40
0.279653556766921
40
0.287425196562215
40
0.295196836357509
40
0.310740115948097
40
0.318511755743391
40
0.326283395538685
40
0.341826675129272
40
0.35736995471986
40
0.365141594515154
40
0.372913234310448
40
0.380684874105742
40
0.388456513901036
40
0.39622815369633
40
0.403999793491624
40
0.407885613389271
40
0.411771433286918
40
0.419543073082212
40
0.427314712877506
40
0.435086352672799
40
0.450629632263387
40
0.458401272058681
40
0.466172911853975
40
0.473944551649269
40
0.481716191444563
40
0.489487831239857
40
0.497259471035151
40
0.505031110830445
40
0.512802750625739
40
0.520574390421033
40
0.528346030216327
40
0.543889309806915
40
0.551660949602209
40
0.559432589397503
40
0.563318409295149
40
0.567204229192796
40
0.57497586898809
40
0.590519148578678
40
0.598290788373972
40
0.606062428169266
40
0.621605707759854
40
0.637148987350442
40
0.644920627145736
40
0.65269226694103
40
0.668235546531618
40
0.676007186326912
40
0.683778826122205
40
0.691550465917499
40
0.699322105712793
40
0.707093745508087
40
0.714865385303381
40
0.730408664893969
40
0.745951944484557
40
0.753723584279851
40
0.761495224075145
40
0.769266863870439
40
0.777038503665733
40
0.792581783256321
40
0.808125062846908
40
0.823668342437496
40
0.839211622028084
40
0.846983261823378
40
0.854754901618672
40
0.862526541413966
40
0.87029818120926
40
0.878069821004554
40
0.885841460799848
40
0.893613100595142
40
0.901384740390436
40
0.90915638018573
40
0.916928019981023
40
0.924699659776317
40
0.932471299571611
40
0.940242939366905
40
0.948014579162199
40
0.955786218957493
40
0.963557858752787
40
0.971329498548081
40
0.979101138343375
40
0.986872778138669
40
0.994644417933963
40
1
40
1
40
1
40
1
41
1
10
-1.69999999999996
20
14.0157582212087
30
0
41
1
10
-1.69999999999996
20
14.0171808697641
30
0
41
1
10
-1.70000000000002
20
14.0193350222329
30
0
41
1
10
-1.69999999999999
20
14.0204498319149
30
0
41
1
10
-1.69999999999999
20
14.0194577493028
30
0
41
1
10
-1.69999999999999
20
14.0163929237538
30
0
41
1
10
-1.69999999999999
20
14.0112928179987
30
0
41
1
10
-1.69999999999999
20
14.0041925984504
30
0
41
1
10
-1.69999999999999
20
13.9951252442004
30
0
41
1
10
-1.69999999999999
20
13.9841239086368
30
0
41
1
10
-1.69999999999999
20
13.9712195253815
30
0
41
1
10
-1.69999999999999
20
13.9515178138587
30
0
41
1
10
-1.69999999999999
20
13.9222750232465
30
0
41
1
10
-1.69999999999999
20
13.8800204120324
30
0
41
1
10
-1.69999999999999
20
13.838998019961
30
0
41
1
10
-1.69999999999999
20
13.8027899045868
30
0
41
1
10
-1.69999999999999
20
13.773955994413
30
0
41
1
10
-1.69999999999999
20
13.7434660879001
30
0
41
1
10
-1.69999999999999
20
13.7006353174901
30
0
41
1
10
-1.69999999999999
20
13.6545611373555
30
0
41
1
10
-1.69999999999999
20
13.6053355893185
30
0
41
1
10
-1.69999999999999
20
13.5668499361124
30
0
41
1
10
-1.69999999999999
20
13.5268172028035
30
0
41
1
10
-1.69999999999999
20
13.485252935173
30
0
41
1
10
-1.69999999999999
20
13.4421723218484
30
0
41
1
10
-1.69999999999999
20
13.3827344162836
30
0
41
1
10
-1.69999999999999
20
13.3203101073726
30
0
41
1
10
-1.69999999999999
20
13.254979960848
30
0
41
1
10
-1.69999999999999
20
13.2045321061977
30
0
41
1
10
-1.69999999999999
20
13.1526505121852
30
0
41
1
10
-1.69999999999999
20
13.099347414251
30
0
41
1
10
-1.69999999999999
20
13.0446338149516
30
0
41
1
10
-1.69999999999999
20
12.9885220902628
30
0
41
1
10
-1.69999999999999
20
12.9310230723471
30
0
41
1
10
-1.69999999999999
20
12.8525264142953
30
0
41
1
10
-1.69999999999999
20
12.7712834714132
30
0
41
1
10
-1.69999999999999
20
12.6873624197502
30
0
41
1
10
-1.69999999999999
20
12.6016598943421
30
0
41
1
10
-1.69999999999999
20
12.4912006491746
30
0
41
1
10
-1.69999999999999
20
12.3763763558488
30
0
41
1
10
-1.69999999999999
20
12.2819406900945
30
0
41
1
10
-1.69999999999999
20
12.209824815618
30
0
41
1
10
-1.69999999999999
20
12.1364316894724
30
0
41
1
10
-1.69999999999999
20
12.0617686582407
30
0
41
1
10
-1.69999999999999
20
11.9858436758677
30
0
41
1
10
-1.69999999999999
20
11.9215236068653
30
0
41
1
10
-1.69999999999999
20
11.8694488081268
30
0
41
1
10
-1.69999999999999
20
11.8169591426362
30
0
41
1
10
-1.69999999999999
20
11.7505641289662
30
0
41
1
10
-1.69999999999999
20
11.6696587742526
30
0
41
1
10
-1.69999999999999
20
11.5601529159528
30
0
41
1
10
-1.69999999999999
20
11.448182891669
30
0
41
1
10
-1.69999999999999
20
11.3338110499831
30
0
41
1
10
-1.69999999999999
20
11.2468221792499
30
0
41
1
10
-1.69999999999999
20
11.1586337603462
30
0
41
1
10
-1.69999999999999
20
11.0692509372408
30
0
41
1
10
-1.69999999999999
20
10.9786794422307
30
0
41
1
10
-1.69999999999999
20
10.8869237783616
30
0
41
1
10
-1.69999999999999
20
10.7939888359847
30
0
41
1
10
-1.69999999999999
20
10.6998796425436
30
0
41
1
10
-1.69999999999999
20
10.6046008465563
30
0
41
1
10
-1.69999999999999
20
10.4760157679139
30
0
41
1
10
-1.69999999999999
20
10.3450861470912
30
0
41
1
10
-1.69999999999999
20
10.2118742799613
30
0
41
1
10
-1.69999999999999
20
10.1276505623382
30
0
41
1
10
-1.69999999999999
20
10.0597065749413
30
0
41
1
10
-1.69999999999999
20
9.9913814320609
30
0
41
1
10
-1.69999999999999
20
9.87081043657869
30
0
41
1
10
-1.69999999999999
20
9.73071862052217
30
0
41
1
10
-1.69999999999999
20
9.58839008121353
30
0
41
1
10
-1.69999999999999
20
9.44455854729449
30
0
41
1
10
-1.69999999999999
20
9.26193698423123
30
0
41
1
10
-1.69999999999999
20
9.07558727703642
30
0
41
1
10
-1.69999999999999
20
8.92429760284435
30
0
41
1
10
-1.69999999999999
20
8.77152766795061
30
0
41
1
10
-1.69999999999999
20
8.61651162008161
30
0
41
1
10
-1.69999999999999
20
8.45931945344486
30
0
41
1
10
-1.69999999999999
20
8.34031606829598
30
0
41
1
10
-1.69999999999999
20
8.22021379775831
30
0
41
1
10
-1.69999999999999
20
8.09901464495698
30
0
41
1
10
-1.69999999999999
20
7.9767200242907
30
0
41
1
10
-1.69999999999999
20
7.81221411547432
30
0
41
1
10
-1.69999999999999
20
7.60382755625838
30
0
41
1
10
-1.69999999999999
20
7.39181445781463
30
0
41
1
10
-1.69999999999999
20
7.22005470774221
30
0
41
1
10
-1.69999999999999
20
7.09014226669851
30
0
41
1
10
-1.69999999999999
20
6.95914717066265
30
0
41
1
10
-1.69999999999999
20
6.7830583657493
30
0
41
1
10
-1.69999999999999
20
6.56021848903171
30
0
41
1
10
-1.69999999999999
20
6.28851700104784
30
0
41
1
10
-1.69999999999999
20
6.01251447744062
30
0
41
1
10
-1.69999999999999
20
5.77892152059965
30
0
41
1
10
-1.69999999999999
20
5.58993216915877
30
0
41
1
10
-1.69999999999999
20
5.44710899667646
30
0
41
1
10
-1.69999999999999
20
5.30321729486519
30
0
41
1
10
-1.69999999999999
20
5.15825857839869
30
0
41
1
10
-1.69999999999999
20
5.01223405348068
30
0
41
1
10
-1.69999999999999
20
4.86514556778678
30
0
41
1
10
-1.69999999999999
20
4.71699468615466
30
0
41
1
10
-1.69999999999999
20
4.56778337246482
30
0
41
1
10
-1.69999999999999
20
4.41751381174834
30
0
41
1
10
-1.69999999999999
20
4.26618872973953
30
0
41
1
10
-1.69999999999999
20
4.11381092681606
30
0
41
1
10
-1.69999999999999
20
3.96038358832212
30
0
41
1
10
-1.69999999999999
20
3.80591077742719
30
0
41
1
10
-1.69999999999999
20
3.65039714326571
30
0
41
1
10
-1.69999999999999
20
3.49384789900154
30
0
41
1
10
-1.69999999999999
20
3.33626943234705
30
0
41
1
10
-1.69999999999999
20
3.17766893265431
30
0
41
1
10
-1.69999999999999
20
3.01805527431182
30
0
41
1
10
-1.69999999999999
20
2.85743846779499
30
0
41
1
10
-1.69999999999999
20
2.71257747642741
30
0
41
1
10
-1.69999999999999
20
2.62111404232408
30
0
41
1
10
-1.69999999999999
20
2.58372509632827
30
0
0
SPLINE
5
187
100
AcDbEntity
8
SK1
62
256
6
ByLayer
370
18
48
1
60
0
100
AcDbSpline
70
4
71
3
72
120
73
116
40
0
40
0
40
0
40
0
40
0.0053555999394858
40
0.0131272595839529
40
0.0208989192284201
40
0.0286705788728872
40
0.0364422385173544
40
0.0442138981618215
40
0.0519855578062887
40
0.0597572174507558
40
0.067528877095223
40
0.0753005367396901
40
0.0830721963841573
40
0.0908438560286244
40
0.0986155156730916
40
0.106387175317559
40
0.114158834962026
40
0.121930494606493
40
0.12970215425096
40
0.137473813895427
40
0.145245473539894
40
0.153017133184362
40
0.160788792828829
40
0.176332112117763
40
0.191875431406697
40
0.207418750695632
40
0.222962069984566
40
0.230733729629033
40
0.2385053892735
40
0.246277048917967
40
0.254048708562435
40
0.269592027851369
40
0.285135347140303
40
0.29290700678477
40
0.300678666429237
40
0.308450326073704
40
0.316221985718172
40
0.323993645362639
40
0.331765305007106
40
0.34730862429604
40
0.355080283940507
40
0.362851943584975
40
0.378395262873909
40
0.393938582162843
40
0.40171024180731
40
0.409481901451777
40
0.425025220740712
40
0.432796880385179
40
0.436682710207413
40
0.440568540029646
40
0.448340199674113
40
0.45611185931858
40
0.471655178607514
40
0.479426838251982
40
0.487198497896449
40
0.494970157540916
40
0.502741817185383
40
0.51051347682985
40
0.518285136474317
40
0.526056796118785
40
0.533828455763252
40
0.541600115407719
40
0.549371775052186
40
0.56491509434112
40
0.572686753985587
40
0.580458413630055
40
0.588230073274522
40
0.592115903096755
40
0.596001732918989
40
0.603773392563456
40
0.611545052207923
40
0.61931671185239
40
0.627088371496858
40
0.634860031141325
40
0.642631690785792
40
0.658175010074726
40
0.67371832936366
40
0.681489989008128
40
0.689261648652595
40
0.704804967941529
40
0.712576627585996
40
0.720348287230463
40
0.72811994687493
40
0.735891606519398
40
0.743663266163865
40
0.751434925808332
40
0.759206585452799
40
0.766978245097266
40
0.7825215643862
40
0.790293224030667
40
0.798064883675135
40
0.805836543319602
40
0.813608202964069
40
0.821379862608536
40
0.829151522253003
40
0.844694841541938
40
0.852466501186405
40
0.860238160830872
40
0.868009820475339
40
0.875781480119806
40
0.891324799408741
40
0.899096459053208
40
0.906868118697675
40
0.914639778342142
40
0.922411437986609
40
0.930183097631076
40
0.937954757275543
40
0.94572641692001
40
0.953498076564478
40
0.961269736208945
40
0.969041395853412
40
0.976813055497879
40
0.984584715142346
40
0.992356374786813
40
1
40
1
40
1
40
1
41
1
10
-1.69999999999999
20
-2.5837250319525
30
0
41
1
10
-1.69999999999999
20
-2.62111400924692
30
0
41
1
10
-1.69999999999999
20
-2.71257747842986
30
0
41
1
10
-1.69999999999999
20
-2.85743848960826
30
0
41
1
10
-1.69999999999999
20
-3.01805529196176
30
0
41
1
10
-1.70000000000002
20
-3.17766896347746
30
0
41
1
10
-1.70000000000002
20
-3.33626946559076
30
0
41
1
10
-1.70000000000002
20
-3.49384788295134
30
0
41
1
10
-1.70000000000002
20
-3.65039703338328
30
0
41
1
10
-1.70000000000002
20
-3.80591068333541
30
0
41
1
10
-1.70000000000002
20
-3.9603838288908
30
0
41
1
10
-1.70000000000002
20
-4.11381118090259
30
0
41
1
10
-1.70000000000002
20
-4.26618881241484
30
0
41
1
10
-1.70000000000002
20
-4.41751369191317
30
0
41
1
10
-1.70000000000002
20
-4.56778315161375
30
0
41
1
10
-1.70000000000002
20
-4.7169946256985
30
0
41
1
10
-1.70000000000002
20
-4.86514572624662
30
0
41
1
10
-1.70000000000002
20
-5.01223421717728
30
0
41
1
10
-1.70000000000002
20
-5.15825863689906
30
0
41
1
10
-1.70000000000002
20
-5.30321731736851
30
0
41
1
10
-1.70000000000002
20
-5.44710902267545
30
0
41
1
10
-1.70000000000002
20
-5.58993219435266
30
0
41
1
10
-1.70000000000002
20
-5.77892152593586
30
0
41
1
10
-1.70000000000002
20
-6.01251450148573
30
0
41
1
10
-1.70000000000002
20
-6.28851702131561
30
0
41
1
10
-1.70000000000002
20
-6.56021849497901
30
0
41
1
10
-1.70000000000002
20
-6.78305839594086
30
0
41
1
10
-1.70000000000002
20
-6.95914718913937
30
0
41
1
10
-1.70000000000002
20
-7.0901422748378
30
0
41
1
10
-1.70000000000002
20
-7.22005471809891
30
0
41
1
10
-1.70000000000002
20
-7.391814483107
30
0
41
1
10
-1.70000000000002
20
-7.60382757721297
30
0
41
1
10
-1.70000000000002
20
-7.81221412115067
30
0
41
1
10
-1.70000000000002
20
-7.97672004102665
30
0
41
1
10
-1.70000000000002
20
-8.09901466976936
30
0
41
1
10
-1.70000000000002
20
-8.22021382021134
30
0
41
1
10
-1.70000000000002
20
-8.34031608257325
30
0
41
1
10
-1.70000000000002
20
-8.45931946186533
30
0
41
1
10
-1.70000000000002
20
-8.61651163422607
30
0
41
1
10
-1.70000000000002
20
-8.77152769372714
30
0
41
1
10
-1.70000000000002
20
-8.92429762219672
30
0
41
1
10
-1.70000000000002
20
-9.07558728630886
30
0
41
1
10
-1.70000000000002
20
-9.26193699842017
30
0
41
1
10
-1.70000000000002
20
-9.44455857133374
30
0
41
1
10
-1.70000000000002
20
-9.58839009925038
30
0
41
1
10
-1.70000000000002
20
-9.73071863089592
30
0
41
1
10
-1.70000000000002
20
-9.87081045044334
30
0
41
1
10
-1.70000000000002
20
-9.99138145148612
30
0
41
1
10
-1.70000000000002
20
-10.059706595653
30
0
41
1
10
-1.70000000000002
20
-10.127650582945
30
0
41
1
10
-1.70000000000002
20
-10.2118742978003
30
0
41
1
10
-1.70000000000002
20
-10.3450861597474
30
0
41
1
10
-1.70000000000002
20
-10.4760157822056
30
0
41
1
10
-1.70000000000002
20
-10.6046008653873
30
0
41
1
10
-1.70000000000002
20
-10.6998796625668
30
0
41
1
10
-1.70000000000002
20
-10.7939888545435
30
0
41
1
10
-1.70000000000002
20
-10.8869237943964
30
0
41
1
10
-1.70000000000002
20
-10.9786794570574
30
0
41
1
10
-1.70000000000002
20
-11.069250952524
30
0
41
1
10
-1.70000000000002
20
-11.1586337774266
30
0
41
1
10
-1.70000000000002
20
-11.2468221981049
30
0
41
1
10
-1.70000000000002
20
-11.3338110691597
30
0
41
1
10
-1.70000000000002
20
-11.4481829097131
30
0
41
1
10
-1.70000000000002
20
-11.5601529310588
30
0
41
1
10
-1.70000000000002
20
-11.6696587897978
30
0
41
1
10
-1.70000000000002
20
-11.7505641463283
30
0
41
1
10
-1.70000000000002
20
-11.8169591619061
30
0
41
1
10
-1.70000000000002
20
-11.869448828233
30
0
41
1
10
-1.70000000000002
20
-11.9215236271769
30
0
41
1
10
-1.70000000000002
20
-11.9858436943514
30
0
41
1
10
-1.70000000000002
20
-12.0617686735772
30
0
41
1
10
-1.70000000000002
20
-12.1364317035572
30
0
41
1
10
-1.70000000000002
20
-12.2098248313331
30
0
41
1
10
-1.70000000000002
20
-12.2819407102379
30
0
41
1
10
-1.70000000000002
20
-12.3763763795169
30
0
41
1
10
-1.70000000000002
20
-12.4912006631364
30
0
41
1
10
-1.70000000000002
20
-12.6016599065257
30
0
41
1
10
-1.70000000000002
20
-12.687362440577
30
0
41
1
10
-1.70000000000002
20
-12.7712834981639
30
0
41
1
10
-1.70000000000002
20
-12.8525264302737
30
0
41
1
10
-1.70000000000002
20
-12.9310230820619
30
0
41
1
10
-1.70000000000002
20
-12.9885221046098
30
0
41
1
10
-1.70000000000002
20
-13.0446338377524
30
0
41
1
10
-1.70000000000002
20
-13.0993474417035
30
0
41
1
10
-1.70000000000002
20
-13.1526505331688
30
0
41
1
10
-1.70000000000002
20
-13.2045321176789
30
0
41
1
10
-1.70000000000002
20
-13.2549799687684
30
0
41
1
10
-1.70000000000002
20
-13.3203101272292
30
0
41
1
10
-1.70000000000002
20
-13.3827344481881
30
0
41
1
10
-1.70000000000002
20
-13.4421723383994
30
0
41
1
10
-1.70000000000002
20
-13.4852529409442
30
0
41
1
10
-1.70000000000002
20
-13.5268172136993
30
0
41
1
10
-1.70000000000002
20
-13.5668499598694
30
0
41
1
10
-1.70000000000002
20
-13.6053356175566
30
0
41
1
10
-1.70000000000002
20
-13.6545611570253
30
0
41
1
10
-1.70000000000002
20
-13.7006353167884
30
0
41
1
10
-1.70000000000002
20
-13.7434661079967
30
0
41
1
10
-1.70000000000002
20
-13.7739560268625
30
0
41
1
10
-1.70000000000002
20
-13.8027899277569
30
0
41
1
10
-1.70000000000002
20
-13.8389980176944
30
0
41
1
10
-1.70000000000002
20
-13.8718187984145
30
0
41
1
10
-1.70000000000002
20
-13.9011479145568
30
0
41
1
10
-1.70000000000002
20
-13.9213794981548
30
0
41
1
10
-1.70000000000002
20
-13.9398197437578
30
0
41
1
10
-1.70000000000002
20
-13.9564420504847
30
0
41
1
10
-1.70000000000002
20
-13.9712195410175
30
0
41
1
10
-1.70000000000002
20
-13.9841238377961
30
0
41
1
10
-1.70000000000002
20
-13.9951249982352
30
0
41
1
10
-1.70000000000002
20
-14.0041924220526
30
0
41
1
10
-1.70000000000002
20
-14.0112932507837
30
0
41
1
10
-1.70000000000002
20
-14.0163938901866
30
0
41
1
10
-1.70000000000002
20
-14.019458382701
30
0
41
1
10
-1.70000000000002
20
-14.0204497516689
30
0
41
1
10
-1.70000000000005
20
-14.0193347368793
30
0
41
1
10
-1.70000000000007
20
-14.0171811879173
30
0
41
1
10
-1.70000000000002
20
-14.0157592852554
30
0
0
SPLINE
5
188
100
AcDbEntity
8
SK1
62
256
6
ByLayer
370
18
48
1
60
0
100
AcDbSpline
70
4
71
3
72
287
73
283
40
0
40
0
40
0
40
0
40
0.0011530177163594
40
0.0046414615112649
40
0.0081299053061704
40
0.0116183491010759
40
0.0151067928959814
40
0.0185952366908869
40
0.0220836804857923
40
0.0255721242806978
40
0.0290605680756033
40
0.0325490118705087
40
0.0395258994603197
40
0.0465027870501307
40
0.0534796746399416
40
0.0569681184348471
40
0.0604565622297526
40
0.0639450060246581
40
0.0674334498195635
40
0.0744103374093745
40
0.07789878120428
40
0.0813872249991855
40
0.084875668794091
40
0.0883641125889964
40
0.091852556383902
40
0.0953410001788074
40
0.102317887768618
40
0.105806331563524
40
0.109294775358429
40
0.112783219153335
40
0.11627166294824
40
0.119760106743146
40
0.123248550538051
40
0.126736994332957
40
0.130225438127862
40
0.137202325717673
40
0.140690769512579
40
0.144179213307484
40
0.151156100897295
40
0.158132988487106
40
0.161621432282012
40
0.165109876076917
40
0.168598319871823
40
0.172086763666728
40
0.175575207461633
40
0.179063651256539
40
0.180807873153992
40
0.182552095051444
40
0.18604053884635
40
0.189528982641255
40
0.193017426436161
40
0.199994314025972
40
0.203482757820877
40
0.206971201615783
40
0.210459645410688
40
0.213948089205594
40
0.217436533000499
40
0.220924976795405
40
0.22441342059031
40
0.227901864385216
40
0.231390308180121
40
0.234878751975027
40
0.241855639564837
40
0.245344083359743
40
0.248832527154648
40
0.250576749052101
40
0.252320970949554
40
0.255809414744459
40
0.26278630233427
40
0.266274746129176
40
0.269763189924081
40
0.276740077513892
40
0.283716965103703
40
0.287205408898609
40
0.290693852693514
40
0.297670740283325
40
0.301159184078231
40
0.304647627873136
40
0.308136071668042
40
0.311624515462947
40
0.315112959257852
40
0.318601403052758
40
0.325578290642569
40
0.33255517823238
40
0.336043622027285
40
0.339532065822191
40
0.343020509617097
40
0.346508953412002
40
0.353485841001813
40
0.360462728591624
40
0.367439616181435
40
0.374416503771246
40
0.377904947566151
40
0.381393391361057
40
0.384881835155962
40
0.388370278950868
40
0.391858722745773
40
0.395347166540679
40
0.398835610335584
40
0.402324054130489
40
0.405812497925395
40
0.409300941720301
40
0.412789385515206
40
0.416277829310111
40
0.419766273105017
40
0.423254716899922
40
0.426743160694828
40
0.430231604489733
40
0.433720048284639
40
0.437208492079544
40
0.44069693587445
40
0.444185379669355
40
0.447673823464261
40
0.449418045361713
40
0.451162267259166
40
0.454650711054072
40
0.456394932951525
40
0.458139154848977
40
0.45988337674643
40
0.461627598643883
40
0.463371820541336
40
0.465116042438788
40
0.466860264336241
40
0.468604486233694
40
0.472092930028599
40
0.473837151926052
40
0.475581373823505
40
0.477325595720957
40
0.47906981761841
40
0.480814039515863
40
0.482558261413316
40
0.484302483310768
40
0.486046705208221
40
0.487790927105674
40
0.489535149003127
40
0.491279370900579
40
0.493023592798032
40
0.494767814695485
40
0.496512036592937
40
0.49825625849039
40
0.500000480387843
40
0.501744702285296
40
0.503488924182748
40
0.505233146080201
40
0.506977367977654
40
0.508721589875107
40
0.510465811772559
40
0.512210033670012
40
0.513954255567465
40
0.515698477464918
40
0.51744269936237
40
0.519186921259823
40
0.520931143157276
40
0.522675365054729
40
0.524419586952181
40
0.526163808849634
40
0.527908030747087
40
0.531396474541992
40
0.533140696439445
40
0.534884918336898
40
0.536629140234351
40
0.538373362131803
40
0.540117584029256
40
0.541861805926709
40
0.543606027824162
40
0.545350249721614
40
0.54883869351652
40
0.550582915413972
40
0.552327137311425
40
0.555815581106331
40
0.559304024901236
40
0.562792468696141
40
0.566280912491047
40
0.569769356285952
40
0.573257800080858
40
0.576746243875763
40
0.580234687670669
40
0.583723131465574
40
0.58721157526048
40
0.590700019055385
40
0.594188462850291
40
0.597676906645196
40
0.601165350440102
40
0.604653794235007
40
0.608142238029913
40
0.611630681824818
40
0.615119125619724
40
0.618607569414629
40
0.622096013209535
40
0.62558445700444
40
0.632561344594251
40
0.639538232184062
40
0.646515119773873
40
0.653492007363684
40
0.65698045115859
40
0.660468894953495
40
0.6639573387484
40
0.667445782543306
40
0.674422670133117
40
0.681399557722928
40
0.684888001517833
40
0.688376445312739
40
0.691864889107644
40
0.69535333290255
40
0.698841776697455
40
0.702330220492361
40
0.709307108082172
40
0.712795551877077
40
0.716283995671983
40
0.723260883261794
40
0.730237770851605
40
0.73372621464651
40
0.737214658441416
40
0.744191546031227
40
0.747679989826132
40
0.749424211723585
40
0.751168433621037
40
0.754656877415943
40
0.758145321210848
40
0.765122208800659
40
0.768610652595565
40
0.77209909639047
40
0.775587540185376
40
0.779075983980281
40
0.782564427775187
40
0.786052871570092
40
0.789541315364998
40
0.793029759159903
40
0.796518202954809
40
0.800006646749714
40
0.806983534339525
40
0.810471978134431
40
0.813960421929336
40
0.817448865724242
40
0.819193087621694
40
0.820937309519147
40
0.824425753314052
40
0.827914197108958
40
0.831402640903864
40
0.834891084698769
40
0.838379528493674
40
0.84186797228858
40
0.848844859878391
40
0.855821747468202
40
0.859310191263107
40
0.862798635058013
40
0.869775522647824
40
0.873263966442729
40
0.876752410237635
40
0.88024085403254
40
0.883729297827446
40
0.887217741622351
40
0.890706185417256
40
0.894194629212162
40
0.897683073007067
40
0.904659960596878
40
0.908148404391784
40
0.911636848186689
40
0.915125291981595
40
0.918613735776501
40
0.922102179571406
40
0.925590623366311
40
0.932567510956122
40
0.936055954751028
40
0.939544398545933
40
0.943032842340839
40
0.946521286135744
40
0.953498173725555
40
0.956986617520461
40
0.960475061315366
40
0.963963505110272
40
0.967451948905177
40
0.970940392700082
40
0.974428836494988
40
0.977917280289893
40
0.981405724084799
40
0.984894167879704
40
0.98838261167461
40
0.991871055469515
40
0.995359499264421
40
0.998847943059326
40
1
40
1
40
1
40
1
41
1
10
-22.5
20
13.495635889304
30
0
41
1
10
-22.5
20
13.4959444127051
30
0
41
1
10
-22.5
20
13.4970336947712
30
0
41
1
10
-22.5
20
13.4978716184632
30
0
41
1
10
-22.5
20
13.4969161903089
30
0
41
1
10
-22.5
20
13.4939625245411
30
0
41
1
10
-22.5
20
13.4890441905268
30
0
41
1
10
-22.5
20
13.4821928739339
30
0
41
1
10
-22.5
20
13.4734382711797
30
0
41
1
10
-22.5
20
13.4628104278487
30
0
41
1
10
-22.5
20
13.4503375493538
30
0
41
1
10
-22.5
20
13.4312436783152
30
0
41
1
10
-22.5
20
13.402990048048
30
0
41
1
10
-22.5
20
13.3620642251226
30
0
41
1
10
-22.5
20
13.3223661774289
30
0
41
1
10
-22.5
20
13.2871835761246
30
0
41
1
10
-22.5
20
13.2592104836088
30
0
41
1
10
-22.5
20
13.22962135664
30
0
41
1
10
-22.5
20
13.1879639126743
30
0
41
1
10
-22.5
20
13.1433841284414
30
0
41
1
10
-22.5
20
13.0954724183384
30
0
41
1
10
-22.5
20
13.0580720783437
30
0
41
1
10
-22.5
20
13.0191589474766
30
0
41
1
10
-22.5
20
12.9787481075025
30
0
41
1
10
-22.5
20
12.9368537004399
30
0
41
1
10
-22.5
20
12.8789379874313
30
0
41
1
10
-22.5
20
12.8184132188766
30
0
41
1
10
-22.5
20
12.7547247883429
30
0
41
1
10
-22.5
20
12.7056201369325
30
0
41
1
10
-22.5
20
12.6551113810006
30
0
41
1
10
-22.5
20
12.6032111684974
30
0
41
1
10
-22.5
20
12.5499297998313
30
0
41
1
10
-22.5
20
12.4952790326449
30
0
41
1
10
-22.5
20
12.4392702770472
30
0
41
1
10
-22.5
20
12.3626709718699
30
0
41
1
10
-22.5
20
12.2837700633604
30
0
41
1
10
-22.5
20
12.201854166622
30
0
41
1
10
-22.5
20
12.1181901660327
30
0
41
1
10
-22.5
20
12.0106580823312
30
0
41
1
10
-22.5
20
11.8988607853738
30
0
41
1
10
-22.5
20
11.8066390784572
30
0
41
1
10
-22.5
20
11.7363216027856
30
0
41
1
10
-22.5
20
11.6647550005754
30
0
41
1
10
-22.5
20
11.59194615036
30
0
41
1
10
-22.5
20
11.5179033392114
30
0
41
1
10
-22.5
20
11.4552554262223
30
0
41
1
10
-22.5
20
11.4043880916923
30
0
41
1
10
-22.5
20
11.3531143221948
30
0
41
1
10
-22.5
20
11.2884404549429
30
0
41
1
10
-22.5
20
11.2095312020912
30
0
41
1
10
-22.5
20
11.1025558247745
30
0
41
1
10
-22.5
20
10.9936883814228
30
0
41
1
10
-22.5
20
10.881957392112
30
0
41
1
10
-22.5
20
10.7971107518715
30
0
41
1
10
-22.5
20
10.7110949831287
30
0
41
1
10
-22.5
20
10.6239149454149
30
0
41
1
10
-22.5
20
10.5355769819029
30
0
41
1
10
-22.5
20
10.4460865275719
30
0
41
1
10
-22.5
20
10.3554481215357
30
0
41
1
10
-22.5
20
10.2636670923514
30
0
41
1
10
-22.5
20
10.1707494549495
30
0
41
1
10
-22.5
20
10.0451570413025
30
0
41
1
10
-22.5
20
9.91789359302012
30
0
41
1
10
-22.5
20
9.78780083934151
30
0
41
1
10
-22.5
20
9.70579078784203
30
0
41
1
10
-22.5
20
9.63944489130404
30
0
41
1
10
-22.5
20
9.57273011219272
30
0
41
1
10
-22.5
20
9.4550883278169
30
0
41
1
10
-22.5
20
9.3189845035638
30
0
41
1
10
-22.5
20
9.18004983919926
30
0
41
1
10
-22.5
20
9.03966368952018
30
0
41
1
10
-22.5
20
8.86197296792952
30
0
41
1
10
-22.5
20
8.68069429175796
30
0
41
1
10
-22.5
20
8.53310893756461
30
0
41
1
10
-22.5
20
8.38410353449399
30
0
41
1
10
-22.5
20
8.23370690743872
30
0
41
1
10
-22.5
20
8.08045168982596
30
0
41
1
10
-22.5
20
7.96465014223955
30
0
41
1
10
-22.5
20
7.84779993569694
30
0
41
1
10
-22.5
20
7.72990617143805
30
0
41
1
10
-22.5
20
7.61097083499587
30
0
41
1
10
-22.5
20
7.45073654157582
30
0
41
1
10
-22.5
20
7.24848505186409
30
0
41
1
10
-22.5
20
7.04280518235294
30
0
41
1
10
-22.5
20
6.87569112826714
30
0
41
1
10
-22.5
20
6.74956632065388
30
0
41
1
10
-22.5
20
6.62242827644158
30
0
41
1
10
-22.5
20
6.4512555331213
30
0
41
1
10
-22.5
20
6.23550102644134
30
0
41
1
10
-22.5
20
5.97220551217552
30
0
41
1
10
-22.5
20
5.70495651005672
30
0
41
1
10
-22.5
20
5.47933703035869
30
0
41
1
10
-22.5
20
5.29623480232567
30
0
41
1
10
-22.5
20
5.15823567759489
30
0
41
1
10
-22.5
20
5.01927995326395
30
0
41
1
10
-22.5
20
4.87937450907225
30
0
41
1
10
-22.5
20
4.73852599905979
30
0
41
1
10
-22.5
20
4.59674211262632
30
0
41
1
10
-22.5
20
4.45403157575561
30
0
41
1
10
-22.5
20
4.31040309161114
30
0
41
1
10
-22.5
20
4.16586580001652
30
0
41
1
10
-22.5
20
4.02043049501108
30
0
41
1
10
-22.5
20
3.87410976932696
30
0
41
1
10
-22.5
20
3.72691565105671
30
0
41
1
10
-22.5
20
3.57886126909133
30
0
41
1
10
-22.5
20
3.42996277697043
30
0
41
1
10
-22.5
20
3.28023687778403
30
0
41
1
10
-22.5
20
3.1297025705347
30
0
41
1
10
-22.5
20
2.97838003358399
30
0
41
1
10
-22.5
20
2.82629216765812
30
0
41
1
10
-22.5
20
2.67346525953192
30
0
41
1
10
-22.5
20
2.51992549648594
30
0
41
1
10
-22.5
20
2.39172828921562
30
0
41
1
10
-22.5
20
2.28823684006233
30
0
41
1
10
-22.5
20
2.18454587114545
30
0
41
1
10
-22.5
20
2.08161602870018
30
0
41
1
10
-22.5
20
1.97729727415898
30
0
41
1
10
-22.5
20
1.89920682890118
30
0
41
1
10
-22.5
20
1.82098464012654
30
0
41
1
10
-22.5
20
1.74263823347059
30
0
41
1
10
-22.5
20
1.66417084854154
30
0
41
1
10
-22.5
20
1.58559123041414
30
0
41
1
10
-22.5
20
1.50690426712367
30
0
41
1
10
-22.5
20
1.40144074045131
30
0
41
1
10
-22.5
20
1.29707563275719
30
0
41
1
10
-22.5
20
1.1912185842138
30
0
41
1
10
-22.5
20
1.11209553564785
30
0
41
1
10
-22.5
20
1.03290644237794
30
0
41
1
10
-22.5
20
0.953656066810169
30
0
41
1
10
-22.5
20
0.87435216895588
30
0
41
1
10
-22.5
20
0.795000198505306
30
0
41
1
10
-22.5
20
0.715606608921348
30
0
41
1
10
-22.5
20
0.636176666807899
30
0
41
1
10
-22.5
20
0.556715993884126
30
0
41
1
10
-22.5
20
0.477229338262987
30
0
41
1
10
-22.5
20
0.397721593521084
30
0
41
1
10
-22.5
20
0.318196568076189
30
0
41
1
10
-22.5
20
0.238658582119854
30
0
41
1
10
-22.5
20
0.159110826532412
30
0
41
1
10
-22.5
20
0.0795570008676236
30
0
41
1
10
-22.5
20
-4.3520174E-09
30
0
41
1
10
-22.5
20
-0.0795570195282664
30
0
41
1
10
-22.5
20
-0.159110863620953
30
0
41
1
10
-22.5
20
-0.238658616598485
30
0
41
1
10
-22.5
20
-0.318196574924997
30
0
41
1
10
-22.5
20
-0.397721596430046
30
0
41
1
10
-22.5
20
-0.477229377934947
30
0
41
1
10
-22.5
20
-0.556716044363981
30
0
41
1
10
-22.5
20
-0.636176672544991
30
0
41
1
10
-22.5
20
-0.715606595157197
30
0
41
1
10
-22.5
20
-0.79500023512864
30
0
41
1
10
-22.5
20
-0.874352236673587
30
0
41
1
10
-22.5
20
-0.953656082911948
30
0
41
1
10
-22.5
20
-1.03290641330759
30
0
41
1
10
-22.5
20
-1.11209555133371
30
0
41
1
10
-22.5
20
-1.19121866112903
30
0
41
1
10
-22.5
20
-1.29707565327632
30
0
41
1
10
-22.5
20
-1.40144071039384
30
0
41
1
10
-22.5
20
-1.5069043087785
30
0
41
1
10
-22.5
20
-1.58559131690834
30
0
41
1
10
-22.5
20
-1.66417088377816
30
0
41
1
10
-22.5
20
-1.74263820265682
30
0
41
1
10
-22.5
20
-1.82098461234608
30
0
41
1
10
-22.5
20
-1.8992068709004
30
0
41
1
10
-22.5
20
-1.97729736527975
30
0
41
1
10
-22.5
20
-2.08161605220533
30
0
41
1
10
-22.5
20
-2.18454583019769
30
0
41
1
10
-22.5
20
-2.28823685042076
30
0
41
1
10
-22.5
20
-2.39172837491466
30
0
41
1
10
-22.5
20
-2.5199255233116
30
0
41
1
10
-22.5
20
-2.67346522993276
30
0
41
1
10
-22.5
20
-2.82629223006822
30
0
41
1
10
-22.5
20
-2.97838008208467
30
0
41
1
10
-22.5
20
-3.12970236953146
30
0
41
1
10
-22.5
20
-3.28023637585127
30
0
41
1
10
-22.5
20
-3.42996282061051
30
0
41
1
10
-22.5
20
-3.57886234252626
30
0
41
1
10
-22.5
20
-3.72691655621915
30
0
41
1
10
-22.5
20
-3.87410940415091
30
0
41
1
10
-22.5
20
-4.0204295025855
30
0
41
1
10
-22.5
20
-4.16586499181517
30
0
41
1
10
-22.5
20
-4.31040320562681
30
0
41
1
10
-22.5
20
-4.45403251641866
30
0
41
1
10
-22.5
20
-4.59674271442691
30
0
41
1
10
-22.5
20
-4.73852585442464
30
0
41
1
10
-22.5
20
-4.87937424460148
30
0
41
1
10
-22.5
20
-5.01927991936702
30
0
41
1
10
-22.5
20
-5.15823571506775
30
0
41
1
10
-22.5
20
-5.29623478947155
30
0
41
1
10
-22.5
20
-5.47933703089228
30
0
41
1
10
-22.5
20
-5.7049565533743
30
0
41
1
10
-22.5
20
-5.9722055141921
30
0
41
1
10
-22.5
20
-6.23550104742759
30
0
41
1
10
-22.5
20
-6.45125557139397
30
0
41
1
10
-22.5
20
-6.62242825981917
30
0
41
1
10
-22.5
20
-6.74956631857705
30
0
41
1
10
-22.5
20
-6.87569116366484
30
0
41
1
10
-22.5
20
-7.04280522024891
30
0
41
1
10
-22.5
20
-7.24848505302424
30
0
41
1
10
-22.5
20
-7.45073654783437
30
0
41
1
10
-22.5
20
-7.61097087712017
30
0
41
1
10
-22.5
20
-7.72990620240668
30
0
41
1
10
-22.5
20
-7.8477999408565
30
0
41
1
10
-22.5
20
-7.96465013686168
30
0
41
1
10
-22.5
20
-8.08045169790756
30
0
41
1
10
-22.5
20
-8.23370694014298
30
0
41
1
10
-22.5
20
-8.38410356414286
30
0
41
1
10
-22.5
20
-8.533108939882
30
0
41
1
10
-22.5
20
-8.68069429599305
30
0
41
1
10
-22.5
20
-8.86197299364807
30
0
41
1
10
-22.5
20
-9.03966371444787
30
0
41
1
10
-22.5
20
-9.1800498446504
30
0
41
1
10
-22.5
20
-9.31898451102211
30
0
41
1
10
-22.5
20
-9.45508835059121
30
0
41
1
10
-22.5
20
-9.57273013875854
30
0
41
1
10
-22.5
20
-9.63944491324961
30
0
41
1
10
-22.5
20
-9.70579080403837
30
0
41
1
10
-22.5
20
-9.78780084928567
30
0
41
1
10
-22.5
20
-9.91789360326425
30
0
41
1
10
-22.5
20
-10.0451570606616
30
0
41
1
10
-22.5
20
-10.1707494782419
30
0
41
1
10
-22.5
20
-10.2636671117607
30
0
41
1
10
-22.5
20
-10.3554481360506
30
0
41
1
10
-22.5
20
-10.4460865401309
30
0
41
1
10
-22.5
20
-10.5355769962349
30
0
41
1
10
-22.5
20
-10.6239149629423
30
0
41
1
10
-22.5
20
-10.7110950034658
30
0
41
1
10
-22.5
20
-10.7971107724731
30
0
41
1
10
-22.5
20
-10.881957410682
30
0
41
1
10
-22.5
20
-10.9936883968037
30
0
41
1
10
-22.5
20
-11.1025558384385
30
0
41
1
10
-22.5
20
-11.2095312195267
30
0
41
1
10
-22.5
20
-11.2884404756242
30
0
41
1
10
-22.5
20
-11.3531143441571
30
0
41
1
10
-22.5
20
-11.4043881128182
30
0
41
1
10
-22.5
20
-11.4552554448703
30
0
41
1
10
-22.5
20
-11.5179033535967
30
0
41
1
10
-22.5
20
-11.5919461625788
30
0
41
1
10
-22.5
20
-11.664755015164
30
0
41
1
10
-22.5
20
-11.7363216229303
30
0
41
1
10
-22.5
20
-11.8066391033682
30
0
41
1
10
-22.5
20
-11.8988608066556
30
0
41
1
10
-22.5
20
-12.0106580919608
30
0
41
1
10
-22.5
20
-12.1181901818312
30
0
41
1
10
-22.5
20
-12.2018541939413
30
0
41
1
10
-22.5
20
-12.2837700876339
30
0
41
1
10
-22.5
20
-12.3626709807027
30
0
41
1
10
-22.5
20
-12.439270287047
30
0
41
1
10
-22.5
20
-12.4952790541085
30
0
41
1
10
-22.5
20
-12.5499298292215
30
0
41
1
10
-22.5
20
-12.6032111946844
30
0
41
1
10
-22.5
20
-12.6551113940765
30
0
41
1
10
-22.5
20
-12.7056201424591
30
0
41
1
10
-22.5
20
-12.7547247990427
30
0
41
1
10
-22.5
20
-12.8184132466048
30
0
41
1
10
-22.5
20
-12.8789380178893
30
0
41
1
10
-22.5
20
-12.9368537080861
30
0
41
1
10
-22.5
20
-12.9787481114295
30
0
41
1
10
-22.5
20
-13.0191589652135
30
0
41
1
10
-22.5
20
-13.0580721081213
30
0
41
1
10
-22.5
20
-13.0954724456838
30
0
41
1
10
-22.5
20
-13.143384141029
30
0
41
1
10
-22.5
20
-13.187963912528
30
0
41
1
10
-22.5
20
-13.2296213845592
30
0
41
1
10
-22.5
20
-13.2592105165632
30
0
41
1
10
-22.5
20
-13.2871835921006
30
0
41
1
10
-22.5
20
-13.3223661764574
30
0
41
1
10
-22.5
20
-13.3540536969874
30
0
41
1
10
-22.5
20
-13.3825245595672
30
0
41
1
10
-22.5
20
-13.4021158939438
30
0
41
1
10
-22.5
20
-13.4199649415155
30
0
41
1
10
-22.5
20
-13.4360470510206
30
0
41
1
10
-22.5
20
-13.4503375548199
30
0
41
1
10
-22.5
20
-13.462810328633
30
0
41
1
10
-22.5
20
-13.4734380181859
30
0
41
1
10
-22.5
20
-13.4821927509398
30
0
41
1
10
-22.5
20
-13.4890446841776
30
0
41
1
10
-22.5
20
-13.4939634903146
30
0
41
1
10
-22.5
20
-13.4969168014739
30
0
41
1
10
-22.5
20
-13.497871542388
30
0
41
1
10
-22.5
20
-13.4970334654875
30
0
41
1
10
-22.5
20
-13.4959444885487
30
0
41
1
10
-22.5
20
-13.4956362787245
30
0
0
SPLINE
5
189
100
AcDbEntity
8
SK1
62
256
6
ByLayer
370
18
48
1
60
0
100
AcDbSpline
70
4
71
3
72
119
73
115
40
0
40
0
40
0
40
0
40
0.0017654127492896
40
0.0096870374685505
40
0.0176086621878114
40
0.0255302869070723
40
0.0334519116263333
40
0.0413735363455942
40
0.0492951610648551
40
0.057216785784116
40
0.065138410503377
40
0.0730600352226379
40
0.0809816599418988
40
0.0889032846611597
40
0.0968249093804206
40
0.104746534099682
40
0.112668158818943
40
0.120589783538203
40
0.128511408257464
40
0.136433032976725
40
0.144354657695986
40
0.152276282415247
40
0.160197907134508
40
0.17604115657303
40
0.191884406011552
40
0.207727655450074
40
0.223570904888595
40
0.231492529607856
40
0.239414154327117
40
0.247335779046378
40
0.255257403765639
40
0.271100653204161
40
0.286943902642683
40
0.294865527361944
40
0.302787152081205
40
0.310708776800466
40
0.318630401519726
40
0.326552026238987
40
0.334473650958248
40
0.35031690039677
40
0.358238525116031
40
0.366160149835292
40
0.382003399273814
40
0.397846648712336
40
0.405768273431597
40
0.413689898150857
40
0.429533147589379
40
0.43745477230864
40
0.441415584668271
40
0.445376397027901
40
0.453298021747162
40
0.461219646466423
40
0.477062895904945
40
0.484984520624206
40
0.492906145343467
40
0.500827770062728
40
0.508749394781989
40
0.51667101950125
40
0.524592644220511
40
0.532514268939772
40
0.540435893659032
40
0.548357518378293
40
0.556279143097554
40
0.572122392536076
40
0.580044017255337
40
0.587965641974598
40
0.595887266693859
40
0.599848079053489
40
0.60380889141312
40
0.611730516132381
40
0.619652140851642
40
0.627573765570902
40
0.635495390290163
40
0.643417015009424
40
0.651338639728685
40
0.667181889167207
40
0.683025138605729
40
0.69094676332499
40
0.698868388044251
40
0.714711637482773
40
0.722633262202033
40
0.730554886921294
40
0.738476511640555
40
0.746398136359816
40
0.754319761079077
40
0.762241385798338
40
0.770163010517599
40
0.77808463523686
40
0.793927884675382
40
0.801849509394643
40
0.809771134113904
40
0.817692758833165
40
0.825614383552426
40
0.833536008271687
40
0.841457632990947
40
0.857300882429469
40
0.86522250714873
40
0.873144131867991
40
0.881065756587252
40
0.888987381306513
40
0.904830630745035
40
0.912752255464296
40
0.920673880183557
40
0.928595504902818
40
0.936517129622078
40
0.944438754341339
40
0.9523603790606
40
0.960282003779861
40
0.968203628499122
40
0.976125253218383
40
0.984046877937644
40
0.991968502656905
40
0.999890127376166
40
1
40
1
40
1
40
1
41
1
10
-1.49503997793931
20
-2.59465115086957
30
0
41
1
10
-1.49503997793931
20
-2.60647324344197
30
0
41
1
10
-1.49503997793931
20
-2.67130382016646
30
0
41
1
10
-1.49503997793931
20
-2.78881794693001
30
0
41
1
10
-1.49503997793931
20
-2.94652921585708
30
0
41
1
10
-1.49503997793931
20
-3.10333581737226
30
0
41
1
10
-1.49503997793931
20
-3.25922160409144
30
0
41
1
10
-1.49503997793931
20
-3.4141725129254
30
0
41
1
10
-1.49503997793931
20
-3.56817684914566
30
0
41
1
10
-1.49503997793931
20
-3.72122348266291
30
0
41
1
10
-1.49503997793931
20
-3.87330241838259
30
0
41
1
10
-1.49503997793931
20
-4.02440435063471
30
0
41
1
10
-1.49503997793931
20
-4.17452257114442
30
0
41
1
10
-1.49503997793931
20
-4.32365075555242
30
0
41
1
10
-1.49503997793931
20
-4.47178250674139
30
0
41
1
10
-1.49503997793931
20
-4.61891187892093
30
0
41
1
10
-1.49503997793931
20
-4.76503356668587
30
0
41
1
10
-1.49503997793931
20
-4.91014320448997
30
0
41
1
10
-1.49503997793931
20
-5.05423700692029
30
0
41
1
10
-1.49503997793931
20
-5.19731095699922
30
0
41
1
10
-1.49503997793931
20
-5.33936160781602
30
0
41
1
10
-1.49503997793931
20
-5.48038543010182
30
0
41
1
10
-1.49503997793931
20
-5.66717892451575
30
0
41
1
10
-1.49503997793931
20
-5.89779786635279
30
0
41
1
10
-1.49503997793931
20
-6.17053537924178
30
0
41
1
10
-1.49503997793931
20
-6.43910150489376
30
0
41
1
10
-1.49503997793931
20
-6.65929861735816
30
0
41
1
10
-1.49503997793931
20
-6.83355374310952
30
0
41
1
10
-1.49503997793931
20
-6.96311018885424
30
0
41
1
10
-1.49503997793931
20
-7.09160988853208
30
0
41
1
10
-1.49503997793931
20
-7.26163684175143
30
0
41
1
10
-1.49503997793931
20
-7.47128768043942
30
0
41
1
10
-1.49503997793931
20
-7.67738590051292
30
0
41
1
10
-1.49503997793931
20
-7.84029855153605
30
0
41
1
10
-1.49503997793931
20
-7.96134018717205
30
0
41
1
10
-1.49503997793931
20
-8.08130644558901
30
0
41
1
10
-1.49503997793931
20
-8.2001957134178
30
0
41
1
10
-1.49503997793931
20
-8.31800484031689
30
0
41
1
10
-1.49503997793931
20
-8.47372856948019
30
0
41
1
10
-1.49503997793931
20
-8.62702161678089
30
0
41
1
10
-1.49503997793931
20
-8.7783873974316
30
0
41
1
10
-1.49503997793931
20
-8.92829538452324
30
0
41
1
10
-1.49503997793931
20
-9.11275364912453
30
0
41
1
10
-1.49503997793931
20
-9.2935360539519
30
0
41
1
10
-1.49503997793931
20
-9.43608247629777
30
0
41
1
10
-1.49503997793931
20
-9.57714512355727
30
0
41
1
10
-1.49503997793931
20
-9.71574945872362
30
0
41
1
10
-1.49503997793931
20
-9.835227886979
30
0
41
1
10
-1.49503997793931
20
-9.90295237623948
30
0
41
1
10
-1.49503997793931
20
-9.97030028641953
30
0
41
1
10
-1.49503997793931
20
-10.0536983203575
30
0
41
1
10
-1.49503997793931
20
-10.1857467801784
30
0
41
1
10
-1.49503997793931
20
-10.3153089526253
30
0
41
1
10
-1.49503997793931
20
-10.4427777956644
30
0
41
1
10
-1.49503997793931
20
-10.537175897834
30
0
41
1
10
-1.49503997793931
20
-10.630416702033
30
0
41
1
10
-1.49503997793931
20
-10.7224950525572
30
0
41
1
10
-1.49503997793931
20
-10.8134058114344
30
0
41
1
10
-1.49503997793931
20
-10.9031442186804
30
0
41
1
10
-1.49503997793931
20
-10.9917054227684
30
0
41
1
10
-1.49503997793931
20
-11.0790834618892
30
0
41
1
10
-1.49503997793931
20
-11.165273297363
30
0
41
1
10
-1.49503997793931
20
-11.2786601205037
30
0
41
1
10
-1.49503997793931
20
-11.3894729046301
30
0
41
1
10
-1.49503997793931
20
-11.4980349156058
30
0
41
1
10
-1.49503997793931
20
-11.5781957427673
30
0
41
1
10
-1.49503997793931
20
-11.6439487843731
30
0
41
1
10
-1.49503997793931
20
-11.6959849306732
30
0
41
1
10
-1.49503997793931
20
-11.747609354201
30
0
41
1
10
-1.49503997793931
20
-11.8113057197552
30
0
41
1
10
-1.49503997793931
20
-11.886528664654
30
0
41
1
10
-1.49503997793931
20
-11.960500101414
30
0
41
1
10
-1.49503997793931
20
-12.0332119519516
30
0
41
1
10
-1.49503997793931
20
-12.1046570427268
30
0
41
1
10
-1.49503997793931
20
-12.1982669205398
30
0
41
1
10
-1.49503997793931
20
-12.3119621581916
30
0
41
1
10
-1.49503997793931
20
-12.4213295969168
30
0
41
1
10
-1.49503997793931
20
-12.5062717787185
30
0
41
1
10
-1.49503997793931
20
-12.5894449263383
30
0
41
1
10
-1.49503997793931
20
-12.6698142967672
30
0
41
1
10
-1.49503997793931
20
-12.7476032540011
30
0
41
1
10
-1.49503997793931
20
-12.8045464232669
30
0
41
1
10
-1.49503997793931
20
-12.8601132308426
30
0
41
1
10
-1.49503997793931
20
-12.9142926213842
30
0
41
1
10
-1.49503997793931
20
-12.9670724454163
30
0
41
1
10
-1.49503997793931
20
-13.0184419731185
30
0
41
1
10
-1.49503997793931
20
-13.0683888234861
30
0
41
1
10
-1.49503997793931
20
-13.133106637017
30
0
41
1
10
-1.49503997793931
20
-13.1948224412614
30
0
41
1
10
-1.49503997793931
20
-13.2536925631392
30
0
41
1
10
-1.49503997793931
20
-13.296330722945
30
0
41
1
10
-1.49503997793931
20
-13.3374647797226
30
0
41
1
10
-1.49503997793931
20
-13.3770799229021
30
0
41
1
10
-1.49503997793931
20
-13.4151607649325
30
0
41
1
10
-1.49503997793931
20
-13.4638962511352
30
0
41
1
10
-1.49503997793931
20
-13.5094130161235
30
0
41
1
10
-1.49503997793931
20
-13.551806168738
30
0
41
1
10
-1.49503997793931
20
-13.5819601013665
30
0
41
1
10
-1.49503997793931
20
-13.6104729213425
30
0
41
1
10
-1.49503997793931
20
-13.646298505966
30
0
41
1
10
-1.49503997793931
20
-13.6786965897716
30
0
41
1
10
-1.49503997793931
20
-13.7077055842542
30
0
41
1
10
-1.49503997793931
20
-13.7276983600542
30
0
41
1
10
-1.49503997793931
20
-13.7459180935577
30
0
41
1
10
-1.49503997793931
20
-13.7623389110759
30
0
41
1
10
-1.49503997793931
20
-13.7769347594832
30
0
41
1
10
-1.49503997793931
20
-13.7896781016746
30
0
41
1
10
-1.49503997793931
20
-13.800539960484
30
0
41
1
10
-1.49503997793931
20
-13.8094907530557
30
0
41
1
10
-1.49503997793931
20
-13.8164987457743
30
0
41
1
10
-1.49503997793931
20
-13.821531562835
30
0
41
1
10
-1.49503997793931
20
-13.8245545856003
30
0
41
1
10
-1.49503997793934
20
-13.8252109105189
30
0
41
1
10
-1.49503997793937
20
-13.8251847323549
30
0
41
1
10
-1.49503997793937
20
-13.8251837322549
30
0
0
SPLINE
5
18A
100
AcDbEntity
8
SK1
62
256
6
ByLayer
370
18
48
1
60
0
100
AcDbSpline
70
4
71
3
72
117
73
113
40
0
40
0
40
0
40
0
40
0.0001127305256551
40
0.0080343326192491
40
0.0159559347128432
40
0.0238775368064372
40
0.0317991389000312
40
0.0397207409936252
40
0.0476423430872192
40
0.0555639451808133
40
0.0634855472744073
40
0.0793287514615953
40
0.0951719556487834
40
0.111015159835971
40
0.118936761929565
40
0.12685836402316
40
0.134779966116753
40
0.142701568210347
40
0.158544772397536
40
0.16646637449113
40
0.174387976584724
40
0.182309578678318
40
0.190231180771912
40
0.198152782865506
40
0.2060743849591
40
0.221917589146288
40
0.229839191239882
40
0.237760793333476
40
0.24568239542707
40
0.253603997520664
40
0.261525599614258
40
0.269447201707852
40
0.277368803801446
40
0.28529040589504
40
0.301133610082228
40
0.309055212175822
40
0.316976814269416
40
0.332820018456604
40
0.348663222643792
40
0.356584824737386
40
0.36450642683098
40
0.372428028924574
40
0.380349631018168
40
0.388271233111762
40
0.396192835205356
40
0.400153636252153
40
0.40411443729895
40
0.412036039392544
40
0.419957641486138
40
0.427879243579732
40
0.44372244776692
40
0.451644049860514
40
0.459565651954108
40
0.467487254047702
40
0.475408856141297
40
0.483330458234891
40
0.491252060328484
40
0.499173662422079
40
0.507095264515672
40
0.515016866609267
40
0.522938468702861
40
0.538781672890049
40
0.546703274983643
40
0.554624877077237
40
0.558585678124034
40
0.562546479170831
40
0.570468081264425
40
0.586311285451613
40
0.594232887545207
40
0.602154489638801
40
0.617997693825989
40
0.633840898013177
40
0.641762500106771
40
0.649684102200365
40
0.665527306387553
40
0.673448908481147
40
0.681370510574741
40
0.689292112668335
40
0.697213714761929
40
0.705135316855523
40
0.713056918949117
40
0.728900123136305
40
0.744743327323493
40
0.752664929417087
40
0.760586531510681
40
0.768508133604275
40
0.776429735697869
40
0.792272939885057
40
0.808116144072245
40
0.823959348259433
40
0.839802552446621
40
0.847724154540215
40
0.855645756633809
40
0.863567358727403
40
0.871488960820997
40
0.879410562914591
40
0.887332165008185
40
0.895253767101779
40
0.903175369195374
40
0.911096971288967
40
0.919018573382562
40
0.926940175476155
40
0.93486177756975
40
0.942783379663343
40
0.950704981756938
40
0.958626583850532
40
0.966548185944126
40
0.97446978803772
40
0.982391390131314
40
0.990312992224908
40
0.998234594318502
40
1
40
1
40
1
40
1
41
1
10
-1.49503997793926
20
13.8251837281587
30
0
41
1
10
-1.49503997793926
20
13.8251847282587
30
0
41
1
10
-1.49503997793926
20
13.8252108755389
30
0
41
1
10
-1.49503997793928
20
13.8245539604948
30
0
41
1
10
-1.49503997793928
20
13.8215305966481
30
0
41
1
10
-1.49503997793928
20
13.8164982902869
30
0
41
1
10
-1.49503997793928
20
13.8094909095343
30
0
41
1
10
-1.49503997793928
20
13.8005402090708
30
0
41
1
10
-1.49503997793928
20
13.7896781830989
30
0
41
1
10
-1.49503997793928
20
13.7769347476405
30
0
41
1
10
-1.49503997793928
20
13.7574597557179
30
0
41
1
10
-1.49503997793928
20
13.7285859139399
30
0
41
1
10
-1.49503997793928
20
13.6868269300449
30
0
41
1
10
-1.49503997793928
20
13.6462985077496
30
0
41
1
10
-1.49503997793928
20
13.6104729008558
30
0
41
1
10
-1.49503997793928
20
13.5819600687286
30
0
41
1
10
-1.49503997793928
20
13.5518061457236
30
0
41
1
10
-1.49503997793928
20
13.509413016618
30
0
41
1
10
-1.49503997793928
20
13.4638962341071
30
0
41
1
10
-1.49503997793928
20
13.4151607370273
30
0
41
1
10
-1.49503997793928
20
13.3770798968994
30
0
41
1
10
-1.49503997793928
20
13.3374647662751
30
0
41
1
10
-1.49503997793928
20
13.2963307178616
30
0
41
1
10
-1.49503997793928
20
13.2536925499096
30
0
41
1
10
-1.49503997793928
20
13.1948224098965
30
0
41
1
10
-1.49503997793928
20
13.1331066142243
30
0
41
1
10
-1.49503997793928
20
13.0683888145289
30
0
41
1
10
-1.49503997793928
20
13.0184419638584
30
0
41
1
10
-1.49503997793928
20
12.9670724273821
30
0
41
1
10
-1.49503997793928
20
12.9142925944038
30
0
41
1
10
-1.49503997793928
20
12.860113205584
30
0
41
1
10
-1.49503997793928
20
12.8045464062654
30
0
41
1
10
-1.49503997793928
20
12.74760324418
30
0
41
1
10
-1.49503997793928
20
12.6698142834541
30
0
41
1
10
-1.49503997793928
20
12.5894449005116
30
0
41
1
10
-1.49503997793928
20
12.50627175547
30
0
41
1
10
-1.49503997793928
20
12.4213295833849
30
0
41
1
10
-1.49503997793928
20
12.3119621458456
30
0
41
1
10
-1.49503997793928
20
12.1982668977617
30
0
41
1
10
-1.49503997793928
20
12.1046570208051
30
0
41
1
10
-1.49503997793928
20
12.0332119345842
30
0
41
1
10
-1.49503997793928
20
11.9605000871413
30
0
41
1
10
-1.49503997793928
20
11.8865286504803
30
0
41
1
10
-1.49503997793928
20
11.8113057028001
30
0
41
1
10
-1.49503997793928
20
11.7476093345099
30
0
41
1
10
-1.49503997793928
20
11.6959849101866
30
0
41
1
10
-1.49503997793928
20
11.643948764099
30
0
41
1
10
-1.49503997793928
20
11.5781957241672
30
0
41
1
10
-1.49503997793928
20
11.4980348993556
30
0
41
1
10
-1.49503997793928
20
11.3894728900619
30
0
41
1
10
-1.49503997793928
20
11.278660103453
30
0
41
1
10
-1.49503997793928
20
11.1652732784127
30
0
41
1
10
-1.49503997793928
20
11.0790834423827
30
0
41
1
10
-1.49503997793928
20
10.9917054044732
30
0
41
1
10
-1.49503997793928
20
10.9031442025602
30
0
41
1
10
-1.49503997793928
20
10.8134057967923
30
0
41
1
10
-1.49503997793928
20
10.7224950378189
30
0
41
1
10
-1.49503997793928
20
10.6304166849825
30
0
41
1
10
-1.49503997793928
20
10.5371758780398
30
0
41
1
10
-1.49503997793928
20
10.4427777751693
30
0
41
1
10
-1.49503997793928
20
10.3153089364435
30
0
41
1
10
-1.49503997793928
20
10.1857467684219
30
0
41
1
10
-1.49503997793928
20
10.0536983054632
30
0
41
1
10
-1.49503997793928
20
9.97030026745779
30
0
41
1
10
-1.49503997793928
20
9.90295235506755
30
0
41
1
10
-1.49503997793928
20
9.83522786489038
30
0
41
1
10
-1.49503997793928
20
9.71574944153573
30
0
41
1
10
-1.49503997793928
20
9.57714511427093
30
0
41
1
10
-1.49503997793928
20
9.43608246295526
30
0
41
1
10
-1.49503997793928
20
9.29353602958125
30
0
41
1
10
-1.49503997793928
20
9.11275363063515
30
0
41
1
10
-1.49503997793928
20
8.92829537712967
30
0
41
1
10
-1.49503997793928
20
8.77838738443313
30
0
41
1
10
-1.49503997793928
20
8.62702158956
30
0
41
1
10
-1.49503997793928
20
8.47372854841305
30
0
41
1
10
-1.49503997793928
20
8.31800483202281
30
0
41
1
10
-1.49503997793928
20
8.20019570647173
30
0
41
1
10
-1.49503997793928
20
8.08130642958628
30
0
41
1
10
-1.49503997793928
20
7.96134016006346
30
0
41
1
10
-1.49503997793928
20
7.84029852533041
30
0
41
1
10
-1.49503997793928
20
7.67738589461936
30
0
41
1
10
-1.49503997793928
20
7.47128766686797
30
0
41
1
10
-1.49503997793928
20
7.261636811758
30
0
41
1
10
-1.49503997793928
20
7.09160986883526
30
0
41
1
10
-1.49503997793928
20
6.96311018452548
30
0
41
1
10
-1.49503997793928
20
6.83355373772449
30
0
41
1
10
-1.49503997793928
20
6.6592985841524
30
0
41
1
10
-1.49503997793928
20
6.43910149333703
30
0
41
1
10
-1.49503997793928
20
6.17053536578155
30
0
41
1
10
-1.49503997793928
20
5.89779783511918
30
0
41
1
10
-1.49503997793928
20
5.66717892097088
30
0
41
1
10
-1.49503997793928
20
5.48038541909952
30
0
41
1
10
-1.49503997793928
20
5.33936157753735
30
0
41
1
10
-1.49503997793928
20
5.19731095553271
30
0
41
1
10
-1.49503997793928
20
5.05423706888556
30
0
41
1
10
-1.49503997793928
20
4.91014315579861
30
0
41
1
10
-1.49503997793928
20
4.7650332428635
30
0
41
1
10
-1.49503997793928
20
4.61891156596767
30
0
41
1
10
-1.49503997793928
20
4.47178260268984
30
0
41
1
10
-1.49503997793928
20
4.32365113214263
30
0
41
1
10
-1.49503997793928
20
4.17452288947305
30
0
41
1
10
-1.49503997793928
20
4.02440432752809
30
0
41
1
10
-1.49503997793928
20
3.87330192992579
30
0
41
1
10
-1.49503997793928
20
3.7212231412766
30
0
41
1
10
-1.49503997793928
20
3.56817690176541
30
0
41
1
10
-1.49503997793928
20
3.41417271020586
30
0
41
1
10
-1.49503997793928
20
3.25922165821993
30
0
41
1
10
-1.49503997793928
20
3.1033357799555
30
0
41
1
10
-1.49503997793928
20
2.94652918151195
30
0
41
1
10
-1.49503997793928
20
2.78881794429316
30
0
41
1
10
-1.49503997793928
20
2.67130381064959
30
0
41
1
10
-1.49503997793928
20
2.60647323876154
30
0
41
1
10
-1.49503997793928
20
2.59465115838313
30
0
0
SPLINE
5
18B
100
AcDbEntity
8
SK1
62
256
6
ByLayer
370
18
48
1
60
0
100
AcDbSpline
70
4
71
3
72
287
73
283
40
0
40
0
40
0
40
0
40
0.0005770504870902
40
0.0040695157238976
40
0.007561980960705
40
0.0110544461975124
40
0.0145469114343198
40
0.0180393766711271
40
0.0215318419079346
40
0.0250243071447419
40
0.0285167723815493
40
0.0320092376183567
40
0.0389941680919715
40
0.0459790985655862
40
0.052964029039201
40
0.0564564942760084
40
0.0599489595128157
40
0.0634414247496231
40
0.0669338899864305
40
0.0739188204600453
40
0.0774112856968527
40
0.08090375093366
40
0.0843962161704674
40
0.0878886814072748
40
0.0913811466440822
40
0.0948736118808896
40
0.101858542354504
40
0.105351007591312
40
0.108843472828119
40
0.112335938064927
40
0.115828403301734
40
0.119320868538541
40
0.122813333775349
40
0.126305799012156
40
0.129798264248963
40
0.136783194722578
40
0.140275659959385
40
0.143768125196193
40
0.150753055669808
40
0.157737986143422
40
0.16123045138023
40
0.164722916617037
40
0.168215381853844
40
0.171707847090652
40
0.175200312327459
40
0.178692777564267
40
0.18043901018267
40
0.182185242801074
40
0.185677708037881
40
0.189170173274689
40
0.192662638511496
40
0.199647568985111
40
0.203140034221918
40
0.206632499458726
40
0.210124964695533
40
0.213617429932341
40
0.217109895169148
40
0.220602360405955
40
0.224094825642763
40
0.22758729087957
40
0.231079756116377
40
0.234572221353185
40
0.2415571518268
40
0.245049617063607
40
0.248542082300414
40
0.250288314918818
40
0.252034547537222
40
0.255527012774029
40
0.262511943247644
40
0.266004408484451
40
0.269496873721259
40
0.276481804194873
40
0.283466734668488
40
0.286959199905296
40
0.290451665142103
40
0.297436595615718
40
0.300929060852525
40
0.304421526089332
40
0.30791399132614
40
0.311406456562947
40
0.314898921799755
40
0.318391387036562
40
0.325376317510177
40
0.332361247983792
40
0.335853713220599
40
0.339346178457406
40
0.342838643694214
40
0.346331108931021
40
0.353316039404636
40
0.360300969878251
40
0.367285900351865
40
0.37427083082548
40
0.377763296062287
40
0.381255761299095
40
0.384748226535902
40
0.38824069177271
40
0.391733157009517
40
0.395225622246324
40
0.398718087483132
40
0.402210552719939
40
0.405703017956747
40
0.409195483193554
40
0.412687948430361
40
0.416180413667169
40
0.419672878903976
40
0.423165344140783
40
0.426657809377591
40
0.430150274614398
40
0.433642739851206
40
0.437135205088013
40
0.44062767032482
40
0.444120135561628
40
0.447612600798435
40
0.449358833416839
40
0.451105066035242
40
0.45459753127205
40
0.456343763890454
40
0.458089996508857
40
0.459836229127261
40
0.461582461745665
40
0.463328694364068
40
0.465074926982472
40
0.466821159600876
40
0.46856739221928
40
0.472059857456087
40
0.47380609007449
40
0.475552322692894
40
0.477298555311298
40
0.479044787929702
40
0.480791020548105
40
0.482537253166509
40
0.484283485784913
40
0.486029718403316
40
0.48777595102172
40
0.489522183640124
40
0.491268416258527
40
0.493014648876931
40
0.494760881495335
40
0.496507114113739
40
0.498253346732142
40
0.499999579350546
40
0.50174581196895
40
0.503492044587353
40
0.505238277205757
40
0.506984509824161
40
0.508730742442564
40
0.510476975060968
40
0.512223207679372
40
0.513969440297775
40
0.515715672916179
40
0.517461905534583
40
0.519208138152987
40
0.52095437077139
40
0.522700603389794
40
0.524446836008198
40
0.526193068626601
40
0.527939301245005
40
0.531431766481812
40
0.533177999100216
40
0.53492423171862
40
0.536670464337023
40
0.538416696955427
40
0.540162929573831
40
0.541909162192235
40
0.543655394810638
40
0.545401627429042
40
0.548894092665849
40
0.550640325284253
40
0.552386557902657
40
0.555879023139464
40
0.559371488376271
40
0.562863953613079
40
0.566356418849886
40
0.569848884086693
40
0.573341349323501
40
0.576833814560308
40
0.580326279797116
40
0.583818745033923
40
0.587311210270731
40
0.590803675507538
40
0.594296140744345
40
0.597788605981152
40
0.60128107121796
40
0.604773536454768
40
0.608266001691575
40
0.611758466928382
40
0.61525093216519
40
0.618743397401997
40
0.622235862638804
40
0.625728327875612
40
0.632713258349226
40
0.639698188822841
40
0.646683119296456
40
0.653668049770071
40
0.657160515006878
40
0.660652980243685
40
0.664145445480493
40
0.6676379107173
40
0.674622841190915
40
0.68160777166453
40
0.685100236901337
40
0.688592702138145
40
0.692085167374952
40
0.695577632611759
40
0.699070097848567
40
0.702562563085374
40
0.709547493558989
40
0.713039958795796
40
0.716532424032604
40
0.723517354506218
40
0.730502284979833
40
0.733994750216641
40
0.737487215453448
40
0.744472145927063
40
0.74796461116387
40
0.749710843782274
40
0.751457076400677
40
0.754949541637485
40
0.758442006874292
40
0.765426937347907
40
0.768919402584714
40
0.772411867821522
40
0.775904333058329
40
0.779396798295136
40
0.782889263531944
40
0.786381728768751
40
0.789874194005559
40
0.793366659242366
40
0.796859124479174
40
0.800351589715981
40
0.807336520189596
40
0.810828985426403
40
0.81432145066321
40
0.817813915900018
40
0.819560148518421
40
0.821306381136825
40
0.824798846373632
40
0.82829131161044
40
0.831783776847247
40
0.835276242084054
40
0.838768707320862
40
0.842261172557669
40
0.849246103031284
40
0.856231033504899
40
0.859723498741706
40
0.863215963978514
40
0.870200894452128
40
0.873693359688936
40
0.877185824925743
40
0.880678290162551
40
0.884170755399358
40
0.887663220636165
40
0.891155685872973
40
0.89464815110978
40
0.898140616346587
40
0.905125546820202
40
0.90861801205701
40
0.912110477293817
40
0.915602942530624
40
0.919095407767432
40
0.922587873004239
40
0.926080338241047
40
0.933065268714661
40
0.936557733951469
40
0.940050199188276
40
0.943542664425084
40
0.947035129661891
40
0.954020060135505
40
0.957512525372313
40
0.96100499060912
40
0.964497455845928
40
0.967989921082735
40
0.971482386319542
40
0.97497485155635
40
0.978467316793157
40
0.981959782029965
40
0.985452247266772
40
0.988944712503579
40
0.992437177740387
40
0.995929642977194
40
0.999422108214002
40
1
40
1
40
1
40
1
41
1
10
-24
20
12.6301466116877
30
0
41
1
10
-24
20
12.6302729719388
30
0
41
1
10
-24
20
12.6311019485322
30
0
41
1
10
-24
20
12.6318299492432
30
0
41
1
10
-24
20
12.6309352666138
30
0
41
1
10
-24
20
12.6281658201647
30
0
41
1
10
-24
20
12.623548726994
30
0
41
1
10
-24
20
12.6171099043119
30
0
41
1
10
-24
20
12.6088736083308
30
0
41
1
10
-24
20
12.5988647342339
30
0
41
1
10
-24
20
12.5871069661155
30
0
41
1
10
-24
20
12.569020437469
30
0
41
1
10
-24
20
12.5424060911486
30
0
41
1
10
-24
20
12.5036823998811
30
0
41
1
10
-24
20
12.466179119183
30
0
41
1
10
-24
20
12.4326960489613
30
0
41
1
10
-24
20
12.4061495447384
30
0
41
1
10
-24
20
12.3780532328159
30
0
41
1
10
-24
20
12.3383402816863
30
0
41
1
10
-24
20
12.2962370819873
30
0
41
1
10
-24
20
12.2505027270978
30
0
41
1
10
-24
20
12.21490102019
30
0
41
1
10
-24
20
12.1778433481664
30
0
41
1
10
-24
20
12.1393440238031
30
0
41
1
10
-24
20
12.0994154546281
30
0
41
1
10
-24
20
12.0440223921018
30
0
41
1
10
-24
20
11.9866456328949
30
0
41
1
10
-24
20
11.9256779328098
30
0
41
1
10
-24
20
11.8787993022056
30
0
41
1
10
-24
20
11.8305656793587
30
0
41
1
10
-24
20
11.7809903958501
30
0
41
1
10
-24
20
11.7300825884547
30
0
41
1
10
-24
20
11.6778529900838
30
0
41
1
10
-24
20
11.6243139686469
30
0
41
1
10
-24
20
11.5508590476175
30
0
41
1
10
-24
20
11.4758394707542
30
0
41
1
10
-24
20
11.3972466128896
30
0
41
1
10
-24
20
11.3169609533628
30
0
41
1
10
-24
20
11.2142799019792
30
0
41
1
10
-24
20
11.1074990885262
30
0
41
1
10
-24
20
11.018946460339
30
0
41
1
10
-24
20
10.9516093773874
30
0
41
1
10
-24
20
10.8830697782117
30
0
41
1
10
-24
20
10.8133337656713
30
0
41
1
10
-24
20
10.7424101789121
30
0
41
1
10
-24
20
10.6825334430363
30
0
41
1
10
-24
20
10.633667176082
30
0
41
1
10
-24
20
10.5844084477176
30
0
41
1
10
-24
20
10.5225869468266
30
0
41
1
10
-24
20
10.4469857296791
30
0
41
1
10
-24
20
10.3442039867663
30
0
41
1
10
-24
20
10.2404782892815
30
0
41
1
10
-24
20
10.133123847137
30
0
41
1
10
-24
20
10.0518274139735
30
0
41
1
10
-24
20
9.96941226524038
30
0
41
1
10
-24
20
9.88588278908523
30
0
41
1
10
-24
20
9.80124634105397
30
0
41
1
10
-24
20
9.71550990056986
30
0
41
1
10
-24
20
9.62867742465994
30
0
41
1
10
-24
20
9.54075474090104
30
0
41
1
10
-24
20
9.4517501287076
30
0
41
1
10
-24
20
9.33111730296775
30
0
41
1
10
-24
20
9.20992961158601
30
0
41
1
10
-24
20
9.08500600225798
30
0
41
1
10
-24
20
9.00666454438809
30
0
41
1
10
-24
20
8.94296708063845
30
0
41
1
10
-24
20
8.87892107357064
30
0
41
1
10
-24
20
8.76613371827509
30
0
41
1
10
-24
20
8.63663898523427
30
0
41
1
10
-24
20
8.50332881313915
30
0
41
1
10
-24
20
8.36865251940404
30
0
41
1
10
-24
20
8.19913342470039
30
0
41
1
10
-24
20
8.02625870426024
30
0
41
1
10
-24
20
7.8848123267644
30
0
41
1
10
-24
20
7.74204568631342
30
0
41
1
10
-24
20
7.59930458489885
30
0
41
1
10
-24
20
7.4525738679572
30
0
41
1
10
-24
20
7.34207855908451
30
0
41
1
10
-24
20
7.23061782890778
30
0
41
1
10
-24
20
7.11820191301109
30
0
41
1
10
-24
20
7.00483374343875
30
0
41
1
10
-24
20
6.85167857584693
30
0
41
1
10
-24
20
6.65959441745031
30
0
41
1
10
-24
20
6.46441027855926
30
0
41
1
10
-24
20
6.30499529459036
30
0
41
1
10
-24
20
6.18514753468799
30
0
41
1
10
-24
20
6.06440158167575
30
0
41
1
10
-24
20
5.90137597131749
30
0
41
1
10
-24
20
5.6973636795567
30
0
41
1
10
-24
20
5.44799894794275
30
0
41
1
10
-24
20
5.19525670130329
30
0
41
1
10
-24
20
4.98285125019777
30
0
41
1
10
-24
20
4.80950544532166
30
0
41
1
10
-24
20
4.67950096380332
30
0
41
1
10
-24
20
4.54872537799761
30
0
41
1
10
-24
20
4.41719445888802
30
0
41
1
10
-24
20
4.28492388892994
30
0
41
1
10
-24
20
4.1519310387084
30
0
41
1
10
-24
20
4.01823650200191
30
0
41
1
10
-24
20
3.88386015063674
30
0
41
1
10
-24
20
3.74882265025221
30
0
41
1
10
-24
20
3.61314816606941
30
0
41
1
10
-24
20
3.47686551917994
30
0
41
1
10
-24
20
3.3400013923027
30
0
41
1
10
-24
20
3.20258393847715
30
0
41
1
10
-24
20
3.06464837689461
30
0
41
1
10
-24
20
2.92623045230172
30
0
41
1
10
-24
20
2.78737006373564
30
0
41
1
10
-24
20
2.64810891556726
30
0
41
1
10
-24
20
2.50849315364218
30
0
41
1
10
-24
20
2.36857603859877
30
0
41
1
10
-24
20
2.22840727338095
30
0
41
1
10
-24
20
2.11231267734075
30
0
41
1
10
-24
20
2.01771125590747
30
0
41
1
10
-24
20
1.9231051177313
30
0
41
1
10
-24
20
1.83137149621413
30
0
41
1
10
-24
20
1.736633689764
30
0
41
1
10
-24
20
1.6663683926929
30
0
41
1
10
-24
20
1.59612143913765
30
0
41
1
10
-24
20
1.52590617425702
30
0
41
1
10
-24
20
1.45572440081651
30
0
41
1
10
-24
20
1.38559146347791
30
0
41
1
10
-24
20
1.31551245865845
30
0
41
1
10
-24
20
1.22103102890807
30
0
41
1
10
-24
20
1.13019491172784
30
0
41
1
10
-24
20
1.03590357373668
30
0
41
1
10
-24
20
0.966211278320714
30
0
41
1
10
-24
20
0.896616942008563
30
0
41
1
10
-24
20
0.827119549474446
30
0
41
1
10
-24
20
0.757724503129282
30
0
41
1
10
-24
20
0.688430802184342
30
0
41
1
10
-24
20
0.619238394305114
30
0
41
1
10
-24
20
0.550143822342477
30
0
41
1
10
-24
20
0.481142957404046
30
0
41
1
10
-24
20
0.41222905526601
30
0
41
1
10
-24
20
0.343394373554986
30
0
41
1
10
-24
20
0.274627961865093
30
0
41
1
10
-24
20
0.205919183520052
30
0
41
1
10
-24
20
0.137254128872456
30
0
41
1
10
-24
20
0.0686195806151204
30
0
41
1
10
-24
20
1.20070069E-08
30
0
41
1
10
-24
20
-0.0686195837654111
30
0
41
1
10
-24
20
-0.137254182226371
30
0
41
1
10
-24
20
-0.205919229600283
30
0
41
1
10
-24
20
-0.274627932715646
30
0
41
1
10
-24
20
-0.343394334295539
30
0
41
1
10
-24
20
-0.412229116407644
30
0
41
1
10
-24
20
-0.481143047124022
30
0
41
1
10
-24
20
-0.550143789897731
30
0
41
1
10
-24
20
-0.619238310392774
30
0
41
1
10
-24
20
-0.688430856535177
30
0
41
1
10
-24
20
-0.757724640342786
30
0
41
1
10
-24
20
-0.827119544713639
30
0
41
1
10
-24
20
-0.896616816711315
30
0
41
1
10
-24
20
-0.96621127767267
30
0
41
1
10
-24
20
-1.03590373801055
30
0
41
1
10
-24
20
-1.13019491751669
30
0
41
1
10
-24
20
-1.22103090337814
30
0
41
1
10
-24
20
-1.31551253110206
30
0
41
1
10
-24
20
-1.38559165365192
30
0
41
1
10
-24
20
-1.45572444737024
30
0
41
1
10
-24
20
-1.52590604398469
30
0
41
1
10
-24
20
-1.59612132289766
30
0
41
1
10
-24
20
-1.6663684688879
30
0
41
1
10
-24
20
-1.73663389391049
30
0
41
1
10
-24
20
-1.83137150908331
30
0
41
1
10
-24
20
-1.92310496383297
30
0
41
1
10
-24
20
-2.01771124909396
30
0
41
1
10
-24
20
-2.11231287096445
30
0
41
1
10
-24
20
-2.22840729138042
30
0
41
1
10
-24
20
-2.36857592379661
30
0
41
1
10
-24
20
-2.50849329023106
30
0
41
1
10
-24
20
-2.64810899336405
30
0
41
1
10
-24
20
-2.78736947452717
30
0
41
1
10
-24
20
-2.92622914514112
30
0
41
1
10
-24
20
-3.06464867495959
30
0
41
1
10
-24
20
-3.20258694679336
30
0
41
1
10
-24
20
-3.34000339886185
30
0
41
1
10
-24
20
-3.47686412773231
30
0
41
1
10
-24
20
-3.61314539193518
30
0
41
1
10
-24
20
-3.74882070125756
30
0
41
1
10
-24
20
-3.88386081960971
30
0
41
1
10
-24
20
-4.01823910176782
30
0
41
1
10
-24
20
-4.15193237523462
30
0
41
1
10
-24
20
-4.28492323331264
30
0
41
1
10
-24
20
-4.41719365917402
30
0
41
1
10
-24
20
-4.54872525063161
30
0
41
1
10
-24
20
-4.67950102029133
30
0
41
1
10
-24
20
-4.80950536941268
30
0
41
1
10
-24
20
-4.98285124277226
30
0
41
1
10
-24
20
-5.19525677656023
30
0
41
1
10
-24
20
-5.44799891971266
30
0
41
1
10
-24
20
-5.69736372546623
30
0
41
1
10
-24
20
-5.90137602298262
30
0
41
1
10
-24
20
-6.06440150688547
30
0
41
1
10
-24
20
-6.18514751568057
30
0
41
1
10
-24
20
-6.30499537148728
30
0
41
1
10
-24
20
-6.46441033734263
30
0
41
1
10
-24
20
-6.6595943858062
30
0
41
1
10
-24
20
-6.8516785830704
30
0
41
1
10
-24
20
-7.0048338276379
30
0
41
1
10
-24
20
-7.1182019541823
30
0
41
1
10
-24
20
-7.23061780540777
30
0
41
1
10
-24
20
-7.34207852113329
30
0
41
1
10
-24
20
-7.4525738754773
30
0
41
1
10
-24
20
-7.59930464836134
30
0
41
1
10
-24
20
-7.74204572237983
30
0
41
1
10
-24
20
-7.88481230085065
30
0
41
1
10
-24
20
-8.02625870014722
30
0
41
1
10
-24
20
-8.1991334695264
30
0
41
1
10
-24
20
-8.3686525458042
30
0
41
1
10
-24
20
-8.50332879773271
30
0
41
1
10
-24
20
-8.63663898786109
30
0
41
1
10
-24
20
-8.76613375581502
30
0
41
1
10
-24
20
-8.87892111197033
30
0
41
1
10
-24
20
-8.94296710462891
30
0
41
1
10
-24
20
-9.00666455327516
30
0
41
1
10
-24
20
-9.08500599911844
30
0
41
1
10
-24
20
-9.20992961783273
30
0
41
1
10
-24
20
-9.33111733072477
30
0
41
1
10
-24
20
-9.45175015939355
30
0
41
1
10
-24
20
-9.54075475929301
30
0
41
1
10
-24
20
-9.6286774324733
30
0
41
1
10
-24
20
-9.71550990736876
30
0
41
1
10
-24
20
-9.80124635456616
30
0
41
1
10
-24
20
-9.88588281033202
30
0
41
1
10
-24
20
-9.96941229097467
30
0
41
1
10
-24
20
-10.0518274374696
30
0
41
1
10
-24
20
-10.1331238647016
30
0
41
1
10
-24
20
-10.240478300249
30
0
41
1
10
-24
20
-10.3442039980405
30
0
41
1
10
-24
20
-10.4469857502475
30
0
41
1
10
-24
20
-10.5225869730086
30
0
41
1
10
-24
20
-10.584408474142
30
0
41
1
10
-24
20
-10.6336671988976
30
0
41
1
10
-24
20
-10.6825334589272
30
0
41
1
10
-24
20
-10.7424101865055
30
0
41
1
10
-24
20
-10.8133337727233
30
0
41
1
10
-24
20
-10.8830697936353
30
0
41
1
10
-24
20
-10.951609404873
30
0
41
1
10
-24
20
-11.0189464931514
30
0
41
1
10
-24
20
-11.1074991058536
30
0
41
1
10
-24
20
-11.2142799044294
30
0
41
1
10
-24
20
-11.3169609751522
30
0
41
1
10
-24
20
-11.3972466509688
30
0
41
1
10
-24
20
-11.4758394909225
30
0
41
1
10
-24
20
-11.5508590446084
30
0
41
1
10
-24
20
-11.6243139791192
30
0
41
1
10
-24
20
-11.6778530233414
30
0
41
1
10
-24
20
-11.7300826287653
30
0
41
1
10
-24
20
-11.7809904199398
30
0
41
1
10
-24
20
-11.8305656793297
30
0
41
1
10
-24
20
-11.8787992978642
30
0
41
1
10
-24
20
-11.925677948116
30
0
41
1
10
-24
20
-11.9866456736683
30
0
41
1
10
-24
20
-12.0440224201628
30
0
41
1
10
-24
20
-12.099415447517
30
0
41
1
10
-24
20
-12.1393440246738
30
0
41
1
10
-24
20
-12.1778433772408
30
0
41
1
10
-24
20
-12.2149010599453
30
0
41
1
10
-24
20
-12.2505027529639
30
0
41
1
10
-24
20
-12.2962370828381
30
0
41
1
10
-24
20
-12.3383402824607
30
0
41
1
10
-24
20
-12.3780532736993
30
0
41
1
10
-24
20
-12.4061495785297
30
0
41
1
10
-24
20
-12.4326960530149
30
0
41
1
10
-24
20
-12.4661791203578
30
0
41
1
10
-24
20
-12.495988547769
30
0
41
1
10
-24
20
-12.5230370713979
30
0
41
1
10
-24
20
-12.5415673540694
30
0
41
1
10
-24
20
-12.55843663992
30
0
41
1
10
-24
20
-12.5736235086905
30
0
41
1
10
-24
20
-12.5871069547275
30
0
41
1
10
-24
20
-12.5988645879939
30
0
41
1
10
-24
20
-12.6088733436887
30
0
41
1
10
-24
20
-12.617109869821
30
0
41
1
10
-24
20
-12.6235493215145
30
0
41
1
10
-24
20
-12.6281667848456
30
0
41
1
10
-24
20
-12.630935840933
30
0
41
1
10
-24
20
-12.6318298800803
30
0
41
1
10
-24
20
-12.631101570172
30
0
41
1
10
-24
20
-12.6302722757807
30
0
41
1
10
-24
20
-12.6301456988491
30
0
0
SPLINE
5
18C
100
AcDbEntity
8
1
62
256
6
ByLayer
370
18
48
1
60
0
100
AcDbSpline
70
4
71
2
72
8
73
5
40
0
40
0
40
0
40
0.0890455897797014
40
0.760107825776565
40
1
40
1
40
1
41
1.02613459695995
10
18.619731149209
20
4.45175132279242
30
0
41
1.02613459695995
10
18.532865760228
20
4.5048558380924
30
0
41
1.02613459695995
10
17.7998146813484
20
5.00154040968285
30
0
41
1.02613459695995
10
17.0841775725377
20
5.92946286277853
30
0
41
1.02613459695995
10
16.9104060090776
20
6.24118821809246
30
0
0
SPLINE
5
18D
100
AcDbEntity
8
1
62
256
6
ByLayer
370
18
48
1
60
0
100
AcDbSpline
70
4
71
2
72
8
73
5
40
0
40
0
40
0
40
0.100953020418116
40
0.657876967336243
40
1
40
1
40
1
41
1
10
18.8727924184712
20
4.41004634779009
30
0
41
1
10
18.7536331716894
20
4.48004985905413
30
0
41
1
10
17.989145260346
20
4.99803470577453
30
0
41
1
10
17.1381140189502
20
6.1015143708934
30
0
41
1
10
16.8576292776694
20
6.72036167025055
30
0
0
SPLINE
5
18E
100
AcDbEntity
8
1
62
256
6
ByLayer
370
18
48
1
60
0
100
AcDbSpline
70
4
71
2
72
8
73
5
40
0
40
0
40
0
40
0.513016418669883
40
0.769524628004825
40
1
40
1
40
1
41
1.02613459695995
10
23.5328081549334
20
7.84914779147878
30
0
41
1.02613459695995
10
22.5951390476119
20
7.6953382863273
30
0
41
1.02613459695995
10
21.2258618499203
20
8.1875462785822
30
0
41
1.02613459695995
10
20.4067492165353
20
8.74254253889604
30
0
41
1.02613459695995
10
20.0621420523946
20
9.09313739078767
30
0
0
SPLINE
5
18F
100
AcDbEntity
8
1
62
256
6
ByLayer
370
18
48
1
60
0
100
AcDbSpline
70
4
71
2
72
8
73
5
40
0
40
0
40
0
40
0.0947119571660352
40
0.705105946413367
40
1
40
1
40
1
41
1
10
18.7438463235436
20
4.43215758283947
30
0
41
1
10
18.642074237189
20
4.49324913414577
30
0
41
1
10
17.8944799708472
20
4.99978755772869
30
0
41
1
10
17.1126081787352
20
6.01359243510376
30
0
41
1
10
16.8847385431754
20
6.46687304754019
30
0
0
SPLINE
5
190
100
AcDbEntity
8
1
62
256
6
ByLayer
370
18
48
1
60
0
100
AcDbSpline
70
4
71
3
72
12
73
8
40
0
40
0
40
0
40
0
40
0.322677661062954
40
0.322677661062954
40
0.649984413157123
40
0.649984413157123
40
1
40
1
40
1
40
1
41
1
10
17.0803645201175
20
5.73454046388292
30
0
41
1
10
17.1056034767622
20
5.48077192889136
30
0
41
1
10
17.1679704187833
20
5.26847087363214
30
0
41
1
10
17.3930727335247
20
4.92708615726744
30
0
41
1
10
17.559948656443
20
4.79355058252335
30
0
41
1
10
18.0030174326417
20
4.58045631795474
30
0
41
1
10
18.2918373853128
20
4.50106385664822
30
0
41
1
10
18.619731149209
20
4.45175132279243
30
0
0
SPLINE
5
191
100
AcDbEntity
8
1
62
256
6
ByLayer
370
18
48
1
60
0
100
AcDbSpline
70
4
71
3
72
16
73
12
40
0
40
0
40
0
40
0
40
0.114691258188364
40
0.114691258188364
40
0.256006982052491
40
0.256006982052491
40
0.478481509698431
40
0.478481509698431
40
0.904237458570125
40
0.904237458570125
40
1
40
1
40
1
40
1
41
1
10
9.07679491924313
20
5.85988980456935
30
0
41
1
10
9.09376079941589
20
5.85988980456935
30
0
41
1
10
9.11093746787591
20
5.8629683550426
30
0
41
1
10
9.14653890153815
20
5.87527238052309
30
0
41
1
10
9.1649283126321
20
5.88582364044447
30
0
41
1
10
9.20694798227834
20
5.91775860341619
30
0
41
1
10
9.22859635065211
20
5.94228809980595
30
0
41
1
10
9.28185513895582
20
6.01773563791645
30
0
41
1
10
9.30640600056208
20
6.07398601286488
30
0
41
1
10
9.32912053427441
20
6.14371014971229
30
0
41
1
10
9.33300496589206
20
6.15668833929709
30
0
41
1
10
9.33660254037846
20
6.16973001948568
30
0
0
SPLINE
5
192
100
AcDbEntity
8
1
62
256
6
ByLayer
370
18
48
1
60
0
100
AcDbSpline
70
4
71
3
72
12
73
8
40
0
40
0
40
0
40
0
40
0.249931463373964
40
0.249931463373964
40
0.624921094071385
40
0.624921094071385
40
1
40
1
40
1
40
1
41
1
10
18.619731149209
20
4.45175132279243
30
0
41
1
10
18.6299313918429
20
4.45021728992691
30
0
41
1
10
18.6401674850715
20
4.44865801493808
30
0
41
1
10
18.6658487936577
20
4.44469746716058
30
0
41
1
10
18.6813385821424
20
4.44226513889703
30
0
41
1
10
18.7124754043574
20
4.43729194040046
30
0
41
1
10
18.7281234002849
20
4.43475089688036
30
0
41
1
10
18.7438463235436
20
4.43215758283947
30
0
0
SPLINE
5
193
100
AcDbEntity
8
1
62
256
6
ByLayer
370
18
48
1
60
0
100
AcDbSpline
70
4
71
3
72
16
73
12
40
0
40
0
40
0
40
0
40
0.464304267159304
40
0.464304267159304
40
0.647533485141974
40
0.647533485141974
40
0.833383675860506
40
0.833383675860506
40
0.950238074309851
40
0.950238074309851
40
1
40
1
40
1
40
1
41
1
10
9.33660254037844
20
-6.16973001948571
30
0
41
1
10
9.31929643456959
20
-6.10699311212741
30
0
41
1
10
9.29554416795261
20
-6.04466199750291
30
0
41
1
10
9.24667293447288
20
-5.96658891111872
30
0
41
1
10
9.23079711658974
20
-5.94525308185362
30
0
41
1
10
9.19394564855389
20
-5.90694983484818
30
0
41
1
10
9.17240809259957
20
-5.88959453036586
30
0
41
1
10
9.13286934844766
20
-5.86981268651903
30
0
41
1
10
9.1161352553444
20
-5.8641686994944
30
0
41
1
10
9.09170798023393
20
-5.86046107106307
30
0
41
1
10
9.08424032311149
20
-5.85988980456935
30
0
41
1
10
9.0767949192431
20
-5.85988980456935
30
0
0
SPLINE
5
194
100
AcDbEntity
8
1
62
256
6
ByLayer
370
18
48
1
60
0
100
AcDbSpline
70
4
71
3
72
16
73
12
40
0
40
0
40
0
40
0
40
0.114691258188368
40
0.114691258188368
40
0.256006982052502
40
0.256006982052502
40
0.47848150969846
40
0.47848150969846
40
0.904237458570168
40
0.904237458570168
40
1
40
1
40
1
40
1
41
1
10
6.92320508075687
20
-5.85988980456938
30
0
41
1
10
6.90623920058411
20
-5.85988980456938
30
0
41
1
10
6.88906253212409
20
-5.86296835504263
30
0
41
1
10
6.85346109846185
20
-5.87527238052311
30
0
41
1
10
6.8350716873679
20
-5.88582364044447
30
0
41
1
10
6.79305201772166
20
-5.91775860341622
30
0
41
1
10
6.77140364934786
20
-5.94228809980598
30
0
41
1
10
6.71814486104418
20
-6.01773563791647
30
0
41
1
10
6.69359399943792
20
-6.07398601286491
30
0
41
1
10
6.67087946572556
20
-6.14371014971232
30
0
41
1
10
6.66699503410794
20
-6.15668833929709
30
0
41
1
10
6.66339745962154
20
-6.16973001948568
30
0
0
SPLINE
5
195
100
AcDbEntity
8
1
62
256
6
ByLayer
370
18
48
1
60
0
100
AcDbSpline
70
4
71
3
72
10
73
6
40
0
40
0
40
0
40
0
40
0.527542122904699
40
0.527542122904699
40
1
40
1
40
1
40
1
41
1
10
21.0651433124845
20
4.43403560282798
30
0
41
1
10
21.5035815974918
20
4.50938913643961
30
0
41
1
10
21.9349077500565
20
4.65967436957436
30
0
41
1
10
22.6771023469346
20
5.06278387480569
30
0
41
1
10
23.0036978358409
20
5.3066867129626
30
0
41
1
10
23.2882519845322
20
5.58742889955397
30
0
0
SPLINE
5
196
100
AcDbEntity
8
1
62
256
6
ByLayer
370
18
48
1
60
0
100
AcDbSpline
70
4
71
3
72
13
73
9
40
0
40
0
40
0
40
0
40
0.411226004529846
40
0.411226004529846
40
0.817473549301652
40
0.817473549301652
40
0.817473549301652
40
1
40
1
40
1
40
1
41
1
10
16.995839872651
20
7.96661086368081
30
0
41
1
10
16.9954189038373
20
7.62450988155703
30
0
41
1
10
17.0000354157895
20
7.27637018305393
30
0
41
1
10
17.0191436119125
20
6.63281299583949
30
0
41
1
10
17.033805985704
20
6.32762036537878
30
0
41
1
10
17.0524421664026
20
6.06618577964193
30
0
41
1
10
17.0609234245517
20
5.94720784920756
30
0
41
1
10
17.0702893756256
20
5.83584237954958
30
0
41
1
10
17.0803645201175
20
5.73454046388292
30
0
0
SPLINE
5
197
100
AcDbEntity
8
1
62
256
6
ByLayer
370
18
48
1
60
0
100
AcDbSpline
70
4
71
3
72
10
73
6
40
0
40
0
40
0
40
0
40
0.518901810990003
40
0.518901810990003
40
1
40
1
40
1
40
1
41
1
10
18.8727924184811
20
4.41004634778429
30
0
41
1
10
19.2044972707027
20
4.35112701256585
30
0
41
1
10
19.5783394896019
20
4.32096892826146
30
0
41
1
10
20.3217342227675
20
4.33281451235018
30
0
41
1
10
20.6980759589721
20
4.37094845212403
30
0
41
1
10
21.0651433124845
20
4.43403560282798
30
0
0
SPLINE
5
198
100
AcDbEntity
8
1
62
256
6
ByLayer
370
18
48
1
60
0
100
AcDbSpline
70
4
71
3
72
16
73
12
40
0
40
0
40
0
40
0
40
0.464304267159312
40
0.464304267159312
40
0.64753348514198
40
0.64753348514198
40
0.833383675860513
40
0.833383675860513
40
0.950238074309858
40
0.950238074309858
40
1
40
1
40
1
40
1
41
1
10
9.33660254037846
20
19.0245744101322
30
0
41
1
10
9.31929643456962
20
19.0449201888242
30
0
41
1
10
9.29554416795264
20
19.0647708693882
30
0
41
1
10
9.24667293447291
20
19.0892734034403
30
0
41
1
10
9.23079711658977
20
19.0959253431034
30
0
41
1
10
9.19394564855395
20
19.1078085849621
30
0
41
1
10
9.1724080925996
20
19.1131587398644
30
0
41
1
10
9.13286934844768
20
19.1192406569511
30
0
41
1
10
9.11613525534443
20
19.1209710216544
30
0
41
1
10
9.09170798023396
20
19.1221075563677
30
0
41
1
10
9.08424032311154
20
19.1222825906926
30
0
41
1
10
9.07679491924313
20
19.1222825906926
30
0
0
SPLINE
5
199
100
AcDbEntity
8
1
62
256
6
ByLayer
370
18
48
1
60
0
100
AcDbSpline
70
4
71
3
72
16
73
12
40
0
40
0
40
0
40
0
40
0.114691258188364
40
0.114691258188364
40
0.256006982052499
40
0.256006982052499
40
0.478481509698429
40
0.478481509698429
40
0.904237458570111
40
0.904237458570111
40
1
40
1
40
1
40
1
41
1
10
6.9232050807569
20
19.1222825906925
30
0
41
1
10
6.90623920058414
20
19.1222825906925
30
0
41
1
10
6.88906253212411
20
19.1213397893258
30
0
41
1
10
6.85346109846188
20
19.117563257367
30
0
41
1
10
6.83507168736793
20
19.1143205262483
30
0
41
1
10
6.79305201772169
20
19.1044641374227
30
0
41
1
10
6.77140364934792
20
19.0968571256395
30
0
41
1
10
6.71814486104424
20
19.0732678361841
30
0
41
1
10
6.69359399943795
20
19.0554522237109
30
0
41
1
10
6.67087946572562
20
19.0329978954363
30
0
41
1
10
6.66699503410797
20
19.0288038685174
30
0
41
1
10
6.66339745962156
20
19.0245744101322
30
0
0
SPLINE
5
19A
100
AcDbEntity
8
1
62
256
6
ByLayer
370
18
48
1
60
0
100
AcDbSpline
70
4
71
3
72
12
73
8
40
0
40
0
40
0
40
0
40
0.249931719451195
40
0.249931719451195
40
0.624921402474903
40
0.624921402474903
40
1
40
1
40
1
40
1
41
1
10
18.7438463235436
20
4.43215758283947
30
0
41
1
10
18.7544546611713
20
4.43040786044574
30
0
41
1
10
18.7650974605876
20
4.42863428670034
30
0
41
1
10
18.7917921440012
20
4.42414159051239
30
0
41
1
10
18.8078868679959
20
4.42139323400778
30
0
41
1
10
18.8402273003836
20
4.41579499319258
30
0
41
1
10
18.8564740012224
20
4.41294491948219
30
0
41
1
10
18.8727924184811
20
4.41004634778429
30
0
0
SPLINE
5
19B
100
AcDbEntity
8
1
62
256
6
ByLayer
370
18
48
1
60
0
100
AcDbSpline
70
4
71
3
72
16
73
12
40
0
40
0
40
0
40
0
40
0.46430426715929
40
0.46430426715929
40
0.647533485141967
40
0.647533485141967
40
0.833383675860504
40
0.833383675860504
40
0.950238074309844
40
0.950238074309844
40
1
40
1
40
1
40
1
41
1
10
6.66339745962156
20
6.16973001948568
30
0
41
1
10
6.68070356543041
20
6.10699311212738
30
0
41
1
10
6.70445583204739
20
6.04466199750289
30
0
41
1
10
6.75332706552712
20
5.96658891111872
30
0
41
1
10
6.76920288341026
20
5.94525308185362
30
0
41
1
10
6.80605435144611
20
5.90694983484818
30
0
41
1
10
6.82759190740043
20
5.88959453036583
30
0
41
1
10
6.86713065155234
20
5.86981268651903
30
0
41
1
10
6.8838647446556
20
5.86416869949437
30
0
41
1
10
6.90829201976607
20
5.86046107106307
30
0
41
1
10
6.91575967688851
20
5.85988980456935
30
0
41
1
10
6.9232050807569
20
5.85988980456935
30
0
0
SPLINE
5
19C
100
AcDbEntity
8
1
62
256
6
ByLayer
370
18
48
1
60
0
100
AcDbSpline
70
4
71
3
72
16
73
12
40
0
40
0
40
0
40
0
40
0.228357578216025
40
0.228357578216025
40
0.456396423615199
40
0.456396423615199
40
0.688781907744155
40
0.688781907744155
40
0.914877139067669
40
0.914877139067669
40
1
40
1
40
1
40
1
41
1
10
13.3419203775242
20
19.2361383015777
30
0
41
1
10
13.2467407337152
20
19.2582742399065
30
0
41
1
10
13.1646917207013
20
19.2848429838469
30
0
41
1
10
13.0390875652483
20
19.3409164363136
30
0
41
1
10
12.9936962551179
20
19.3711818048752
30
0
41
1
10
12.9446680263595
20
19.4311776906465
30
0
41
1
10
12.941185828998
20
19.4617508533366
30
0
41
1
10
12.9789028761133
20
19.5173342544705
30
0
41
1
10
13.0195711749436
20
19.5432925375231
30
0
41
1
10
13.1027469391637
20
19.5741853034485
30
0
41
1
10
13.1286792726914
20
19.5822799681452
30
0
41
1
10
13.1572358782108
20
19.5898386098126
30
0
0
SPLINE
5
19D
100
AcDbEntity
8
1
62
256
6
ByLayer
370
18
48
1
60
0
100
AcDbSpline
70
4
71
3
72
8
73
4
40
0
40
0
40
0
40
0
40
1
40
1
40
1
40
1
41
1
10
23.5328081549334
20
7.84914779147877
30
0
41
1
10
23.6071991726249
20
7.04351764541289
30
0
41
1
10
23.5206061145946
20
6.24268258599196
30
0
41
1
10
23.2882519845292
20
5.58742889954561
30
0
0
SPLINE
5
19E
100
AcDbEntity
8
1
62
256
6
ByLayer
370
18
48
1
60
0
100
AcDbSpline
70
4
71
3
72
16
73
12
40
0
40
0
40
0
40
0
40
0.114691258188362
40
0.114691258188362
40
0.256006982052503
40
0.256006982052503
40
0.47848150969845
40
0.47848150969845
40
0.904237458570186
40
0.904237458570186
40
1
40
1
40
1
40
1
41
1
10
9.0767949192431
20
-19.1222825906926
30
0
41
1
10
9.09376079941586
20
-19.1222825906926
30
0
41
1
10
9.11093746787589
20
-19.1213397893258
30
0
41
1
10
9.14653890153812
20
-19.117563257367
30
0
41
1
10
9.16492831263207
20
-19.1143205262484
30
0
41
1
10
9.20694798227831
20
-19.1044641374228
30
0
41
1
10
9.22859635065211
20
-19.0968571256395
30
0
41
1
10
9.28185513895579
20
-19.0732678361841
30
0
41
1
10
9.30640600056205
20
-19.0554522237109
30
0
41
1
10
9.32912053427441
20
-19.0329978954364
30
0
41
1
10
9.33300496589203
20
-19.0288038685174
30
0
41
1
10
9.33660254037844
20
-19.0245744101322
30
0
0
SPLINE
5
19F
100
AcDbEntity
8
1
62
256
6
ByLayer
370
18
48
1
60
0
100
AcDbSpline
70
4
71
3
72
16
73
12
40
0
40
0
40
0
40
0
40
0.464304267159293
40
0.464304267159293
40
0.647533485141969
40
0.647533485141969
40
0.833383675860506
40
0.833383675860506
40
0.950238074309852
40
0.950238074309852
40
1
40
1
40
1
40
1
41
1
10
6.66339745962154
20
-19.0245744101322
30
0
41
1
10
6.68070356543038
20
-19.0449201888242
30
0
41
1
10
6.70445583204736
20
-19.0647708693882
30
0
41
1
10
6.75332706552709
20
-19.0892734034403
30
0
41
1
10
6.76920288341023
20
-19.0959253431035
30
0
41
1
10
6.80605435144605
20
-19.1078085849622
30
0
41
1
10
6.8275919074004
20
-19.1131587398644
30
0
41
1
10
6.86713065155232
20
-19.1192406569511
30
0
41
1
10
6.88386474465557
20
-19.1209710216544
30
0
41
1
10
6.90829201976604
20
-19.1221075563677
30
0
41
1
10
6.91575967688846
20
-19.1222825906926
30
0
41
1
10
6.92320508075687
20
-19.1222825906926
30
0
0
SPLINE
5
1A0
100
AcDbEntity
8
SK1
62
256
6
ByLayer
370
18
48
1
60
0
100
AcDbSpline
70
4
71
3
72
24
73
20
40
0
40
0
40
0
40
0
40
0.408002420194574
40
0.408002420194574
40
0.586477084363329
40
0.586477084363329
40
0.763728221544513
40
0.763728221544513
40
0.83464833042642
40
0.83464833042642
40
0.871680147904128
40
0.871680147904128
40
0.909315863704638
40
0.909315863704638
40
0.941446160303591
40
0.941446160303591
40
0.988233002766673
40
0.988233002766673
40
1
40
1
40
1
40
1
41
1
10
-1.30710678118655
20
3.62781725664615
30
0
41
1
10
-1.25754709276271
20
3.87919081380429
30
0
41
1
10
-1.19771793926938
20
4.12580048883993
30
0
41
1
10
-1.07980138365164
20
4.46640123366592
30
0
41
1
10
-1.03947389583291
20
4.56855181342542
30
0
41
1
10
-0.943165684412463
20
4.76452984977917
30
0
41
1
10
-0.887972849225292
20
4.86076144162979
30
0
41
1
10
-0.781589632759705
20
4.97623115222154
30
0
41
1
10
-0.746942513659548
20
5.00751721259149
30
0
41
1
10
-0.685298347589708
20
5.04425501792002
30
0
41
1
10
-0.662073057062713
20
5.05499571071985
30
0
41
1
10
-0.612858105189787
20
5.06918922724967
30
0
41
1
10
-0.586087478285805
20
5.07253385323432
30
0
41
1
10
-0.537899014579068
20
5.06994558199364
30
0
41
1
10
-0.515734678473706
20
5.06532466911642
30
0
41
1
10
-0.465255653618982
20
5.04798484569733
30
0
41
1
10
-0.437776087568892
20
5.03248974169182
30
0
41
1
10
-0.406986543980821
20
5.01034621255963
30
0
41
1
10
-0.400907252385935
20
5.00570060770795
30
0
41
1
10
-0.394976888875277
20
5.00092441402839
30
0
0
SPLINE
5
1A1
100
AcDbEntity
8
SK1
62
256
6
ByLayer
370
18
48
1
60
0
100
AcDbSpline
70
4
71
3
72
24
73
20
40
0
40
0
40
0
40
0
40
0.470757791634908
40
0.470757791634908
40
0.661826126045254
40
0.661826126045254
40
0.85568916651581
40
0.85568916651581
40
0.884460546127643
40
0.884460546127643
40
0.91360691814161
40
0.91360691814161
40
0.932763100125268
40
0.932763100125268
40
0.95203909678233
40
0.95203909678233
40
0.974618894615272
40
0.974618894615272
40
1
40
1
40
1
40
1
41
1
10
-0.199999999999989
20
-5.70317605472911
30
0
41
1
10
-0.199999999999989
20
-5.58107998739831
30
0
41
1
10
-0.203895983734896
20
-5.45705658909691
30
0
41
1
10
-0.223509916035738
20
-5.28128624620587
30
0
41
1
10
-0.23086916609185
20
-5.23019697507434
30
0
41
1
10
-0.252992963272021
20
-5.12819212434212
30
0
41
1
10
-0.266168518183207
20
-5.0748758166919
30
0
41
1
10
-0.299311339940971
20
-5.02202983998879
30
0
41
1
10
-0.304166370278011
20
-5.01525404855027
30
0
41
1
10
-0.315232060467963
20
-5.00279573504582
30
0
41
1
10
-0.321587352348587
20
-4.99699852204864
30
0
41
1
10
-0.333432884234497
20
-4.98975078853741
30
0
41
1
10
-0.338586253854459
20
-4.98746585289803
30
0
41
1
10
-0.349157439354428
20
-4.98479989040243
30
0
41
1
10
-0.35470393188595
20
-4.98441392730476
30
0
41
1
10
-0.366193082216228
20
-4.98556317954746
30
0
41
1
10
-0.372213152675187
20
-4.98741181161262
30
0
41
1
10
-0.383950186909431
20
-4.99285513665984
30
0
41
1
10
-0.389694431034428
20
-4.99667072159761
30
0
41
1
10
-0.394976888882155
20
-5.00092508225598
30
0
0
SPLINE
5
1A2
100
AcDbEntity
8
SK1
62
256
6
ByLayer
370
18
48
1
60
0
100
AcDbSpline
70
4
71
3
72
8
73
4
40
0
40
0
40
0
40
0
40
1
40
1
40
1
40
1
41
1
10
-1.30710678118655
20
3.62781725664615
30
0
41
1
10
-1.37345758266253
20
3.29127686428785
30
0
41
1
10
-1.4372955614198
20
2.946602671997
30
0
41
1
10
-1.49503997793928
20
2.59465115838313
30
0
0
SPLINE
5
1A3
100
AcDbEntity
8
SK1
62
256
6
ByLayer
370
18
48
1
60
0
100
AcDbSpline
70
4
71
3
72
22
73
18
40
0
40
0
40
0
40
0
40
0.0408146055975421
40
0.0408146055975421
40
0.0823243808208714
40
0.0823243808208714
40
0.113722137960843
40
0.113722137960843
40
0.144934004837801
40
0.144934004837801
40
0.197663645148653
40
0.197663645148653
40
0.33040493622216
40
0.33040493622216
40
0.796191409884692
40
0.796191409884692
40
1
40
1
40
1
40
1
41
1
10
-0.394976888875306
20
-5.00092508226666
30
0
41
1
10
-0.415530107853954
20
-5.01747813555136
30
0
41
1
10
-0.438024560131566
20
-5.03261131985604
30
0
41
1
10
-0.487324802537927
20
-5.05682200266617
30
0
41
1
10
-0.514951385379732
20
-5.065973715838
30
0
41
1
10
-0.565001076851502
20
-5.07238571210249
30
0
41
1
10
-0.587551462055302
20
-5.07198375916977
30
0
41
1
10
-0.630654498772856
20
-5.06497384681828
30
0
41
1
10
-0.651690830573244
20
-5.05839846240309
30
0
41
1
10
-0.704063404944179
20
-5.0354696203506
30
0
41
1
10
-0.733646054998786
20
-5.01537181535585
30
0
41
1
10
-0.825717517678299
20
-4.93804001611764
30
0
41
1
10
-0.875568215521156
20
-4.86927174197922
30
0
41
1
10
-1.06893868726922
20
-4.55513362670803
30
0
41
1
10
-1.15213866111816
20
-4.27852588598478
30
0
41
1
10
-1.25478905452405
20
-3.87761185644086
30
0
41
1
10
-1.28234760083205
20
-3.75339907142145
30
0
41
1
10
-1.30710678118763
20
-3.62781610099955
30
0
0
SPLINE
5
1A4
100
AcDbEntity
8
SK1
62
256
6
ByLayer
370
18
48
1
60
0
100
AcDbSpline
70
4
71
3
72
30
73
26
40
0
40
0
40
0
40
0
40
0.337353368376273
40
0.337353368376273
40
0.421572476570396
40
0.421572476570396
40
0.437870507614647
40
0.437870507614647
40
0.454360744150349
40
0.454360744150349
40
0.46102437321649
40
0.46102437321649
40
0.467802724987302
40
0.467802724987302
40
0.473791453396888
40
0.473791453396888
40
0.481264268969724
40
0.481264268969724
40
0.494804301393218
40
0.494804301393218
40
0.541069262252274
40
0.541069262252274
40
0.762218024196531
40
0.762218024196531
40
1
40
1
40
1
40
1
41
1
10
-1.69999999999999
20
-2.5837250319525
30
0
41
1
10
-1.69946915813009
20
-2.45210484593008
30
0
41
1
10
-1.69760670671556
20
-2.31884997747196
30
0
41
1
10
-1.67915375522099
20
-2.15294187932722
30
0
41
1
10
-1.67485152519237
20
-2.11932442567118
30
0
41
1
10
-1.66472347048307
20
-2.08095979549279
30
0
41
1
10
-1.66287560510222
20
-2.07475454077749
30
0
41
1
10
-1.65846712486041
20
-2.06274931231133
30
0
41
1
10
-1.65588139752759
20
-2.05680133794195
30
0
41
1
10
-1.65120237663186
20
-2.0497680665317
30
0
41
1
10
-1.64969999009787
20
-2.04787870491481
30
0
41
1
10
-1.64639510213217
20
-2.0447894938039
30
0
41
1
10
-1.64453557847699
20
-2.04357912964019
30
0
41
1
10
-1.64096575658939
20
-2.04240828386776
30
0
41
1
10
-1.63922229186966
20
-2.04230771235822
30
0
41
1
10
-1.63551182442282
20
-2.04297037181766
30
0
41
1
10
-1.63353448434609
20
-2.04393506875687
30
0
41
1
10
-1.62845259442082
20
-2.04750201060256
30
0
41
1
10
-1.62558657915471
20
-2.0508033417303
30
0
41
1
10
-1.61425491864986
20
-2.06649024761731
30
0
41
1
10
-1.60795428020356
20
-2.08189579117942
30
0
41
1
10
-1.57473680217674
20
-2.17064161742221
30
0
41
1
10
-1.55852136531561
20
-2.25243693059593
30
0
41
1
10
-1.5247433730911
20
-2.41950302647342
30
0
41
1
10
-1.50941945205861
20
-2.5070083929059
30
0
41
1
10
-1.49503997793928
20
-2.59465115086951
30
0
0
SPLINE
5
1A5
100
AcDbEntity
8
SK1
62
256
6
ByLayer
370
18
48
1
60
0
100
AcDbSpline
70
4
71
3
72
32
73
28
40
0
40
0
40
0
40
0
40
0.335339404831972
40
0.335339404831972
40
0.429287156787091
40
0.429287156787091
40
0.47567705376244
40
0.47567705376244
40
0.494539743197707
40
0.494539743197707
40
0.513645880085613
40
0.513645880085613
40
0.520504273461007
40
0.520504273461007
40
0.527488218290634
40
0.527488218290634
40
0.533551201014328
40
0.533551201014328
40
0.540998152878254
40
0.540998152878254
40
0.554393631774451
40
0.554393631774451
40
0.598967269657032
40
0.598967269657032
40
0.809317334416222
40
0.809317334416222
40
1
40
1
40
1
40
1
41
1
10
-1.49503997793931
20
2.59465115838304
30
0
41
1
10
-1.51545804662706
20
2.47020327904033
30
0
41
1
10
-1.5371392192427
20
2.34554891087819
30
0
41
1
10
-1.57392592094843
20
2.19043955590803
30
0
41
1
10
-1.58255890853934
20
2.15670217135892
30
0
41
1
10
-1.5980595693656
20
2.1081468839686
30
0
41
1
10
-1.60359902440038
20
2.09231222948606
30
0
41
1
10
-1.61296122457534
20
2.07152520286885
30
0
41
1
10
-1.6158696741316
20
2.0656737244498
30
0
41
1
10
-1.62242426172162
20
2.05481886173052
30
0
41
1
10
-1.62611615645159
20
2.04963161073078
30
0
41
1
10
-1.63217263701876
20
2.04479089552191
30
0
41
1
10
-1.63391092603902
20
2.04372430879368
30
0
41
1
10
-1.63759701012464
20
2.04243943769597
30
0
41
1
10
-1.63960513001732
20
2.04224314885471
30
0
41
1
10
-1.64327142014687
20
2.04303363449088
30
0
41
1
10
-1.64498274878696
20
2.04388024545895
30
0
41
1
10
-1.64846923771176
20
2.04652261877811
30
0
41
1
10
-1.65023197368771
20
2.04850621085967
30
0
41
1
10
-1.65459297944469
20
2.05462030362457
30
0
41
1
10
-1.65687449353445
20
2.05928542847226
30
0
41
1
10
-1.66535432668744
20
2.07982184742582
30
0
41
1
10
-1.66919635898847
20
2.09736547364702
30
0
41
1
10
-1.68800967157858
20
2.19569498442294
30
0
41
1
10
-1.6917465712958
20
2.27904221250569
30
0
41
1
10
-1.69840552504974
20
2.43548746422863
30
0
41
1
10
-1.69970172620592
20
2.50976932903754
30
0
41
1
10
-1.69999999999999
20
2.58372509632824
30
0
0
SPLINE
5
1A6
100
AcDbEntity
8
SK1
62
256
6
ByLayer
370
18
48
1
60
0
100
AcDbSpline
70
4
71
3
72
100
73
96
40
0
40
0
40
0
40
0
40
0.0043783247532282
40
0.0136712309453665
40
0.0229641371375048
40
0.0322570433296431
40
0.0415499495217814
40
0.0601357619060581
40
0.0787215742903348
40
0.0973073866746114
40
0.115893199058888
40
0.125186105251026
40
0.134479011443165
40
0.143771917635303
40
0.153064823827441
40
0.171650636211718
40
0.190236448595995
40
0.199529354788133
40
0.208822260980271
40
0.21811516717241
40
0.227408073364548
40
0.236700979556686
40
0.245993885748825
40
0.264579698133101
40
0.27387260432524
40
0.283165510517378
40
0.301751322901655
40
0.320337135285931
40
0.32963004147807
40
0.338922947670208
40
0.357508760054485
40
0.366801666246623
40
0.371448119342692
40
0.376094572438761
40
0.385387478630899
40
0.394680384823038
40
0.413266197207314
40
0.422559103399453
40
0.431852009591591
40
0.441144915783729
40
0.450437821975868
40
0.459730728168006
40
0.469023634360144
40
0.478316540552283
40
0.487609446744421
40
0.496902352936559
40
0.506195259128698
40
0.524781071512974
40
0.534073977705113
40
0.543366883897251
40
0.552659790089389
40
0.557306243185458
40
0.561952696281528
40
0.571245602473666
40
0.580538508665804
40
0.589831414857943
40
0.599124321050081
40
0.608417227242219
40
0.617710133434358
40
0.636295945818634
40
0.654881758202911
40
0.664174664395049
40
0.673467570587188
40
0.692053382971464
40
0.701346289163602
40
0.710639195355741
40
0.719932101547879
40
0.729225007740017
40
0.738517913932156
40
0.747810820124294
40
0.757103726316433
40
0.766396632508571
40
0.784982444892847
40
0.794275351084986
40
0.803568257277124
40
0.812861163469262
40
0.822154069661401
40
0.831446975853539
40
0.840739882045677
40
0.859325694429954
40
0.868618600622092
40
0.877911506814231
40
0.887204413006369
40
0.896497319198507
40
0.915083131582784
40
0.924376037774922
40
0.933668943967061
40
0.942961850159199
40
0.952254756351337
40
0.961547662543476
40
0.970840568735614
40
0.980133474927752
40
0.98942638111989
40
0.998719287312029
40
1
40
1
40
1
40
1
41
1
10
-0.394976888875306
20
-5.00092508225416
30
0
41
1
10
-0.394976888875306
20
-5.02359314607176
30
0
41
1
10
-0.394976888875306
20
-5.09425535366776
30
0
41
1
10
-0.394976888875306
20
-5.21232773830431
30
0
41
1
10
-0.394976888875306
20
-5.35463943777347
30
0
41
1
10
-0.394976888875306
20
-5.49591839522026
30
0
41
1
10
-0.394976888875306
20
-5.68302324398948
30
0
41
1
10
-0.394976888875306
20
-5.91406388300979
30
0
41
1
10
-0.394976888875306
20
-6.18726435105106
30
0
41
1
10
-0.394976888875306
20
-6.45627504712579
30
0
41
1
10
-0.394976888875306
20
-6.6768468885183
30
0
41
1
10
-0.394976888875306
20
-6.85136201549099
30
0
41
1
10
-0.394976888875306
20
-6.98112245032084
30
0
41
1
10
-0.394976888875306
20
-7.10982246715957
30
0
41
1
10
-0.394976888875306
20
-7.28009512097313
30
0
41
1
10
-0.394976888875306
20
-7.49008091096033
30
0
41
1
10
-0.394976888875306
20
-7.69650359935568
30
0
41
1
10
-0.394976888875306
20
-7.85964216476054
30
0
41
1
10
-0.394976888875306
20
-7.98086146605701
30
0
41
1
10
-0.394976888875306
20
-8.10100253994159
30
0
41
1
10
-0.394976888875306
20
-8.22006380191277
30
0
41
1
10
-0.394976888875306
20
-8.3380422654499
30
0
41
1
10
-0.394976888875306
20
-8.49397420958985
30
0
41
1
10
-0.394976888875306
20
-8.64751156797169
30
0
41
1
10
-0.394976888875306
20
-8.79907644696402
30
0
41
1
10
-0.394976888875306
20
-8.94918034619519
30
0
41
1
10
-0.394976888875306
20
-9.13390680482667
30
0
41
1
10
-0.394976888875306
20
-9.31494999082747
30
0
41
1
10
-0.394976888875306
20
-9.45767863215664
30
0
41
1
10
-0.394976888875306
20
-9.59892077296985
30
0
41
1
10
-0.394976888875306
20
-9.73773602301958
30
0
41
1
10
-0.394976888875306
20
-9.85736937045593
30
0
41
1
10
-0.394976888875306
20
-9.92517902838179
30
0
41
1
10
-0.394976888875306
20
-9.99261145812801
30
0
41
1
10
-0.394976888875306
20
-10.0761265678462
30
0
41
1
10
-0.394976888875306
20
-10.2083399899529
30
0
41
1
10
-0.394976888875306
20
-10.338096057249
30
0
41
1
10
-0.394976888875306
20
-10.4657231753345
30
0
41
1
10
-0.394976888875306
20
-10.5602461538978
30
0
41
1
10
-0.394976888875306
20
-10.6536100894112
30
0
41
1
10
-0.394976888875306
20
-10.7458098983122
30
0
41
1
10
-0.394976888875306
20
-10.8368404586376
30
0
41
1
10
-0.394976888875306
20
-10.9266969919675
30
0
41
1
10
-0.394976888875306
20
-11.0153746961414
30
0
41
1
10
-0.394976888875306
20
-11.1028676417001
30
0
41
1
10
-0.394976888875306
20
-11.1891707748317
30
0
41
1
10
-0.394976888875306
20
-11.3026972665534
30
0
41
1
10
-0.394976888875306
20
-11.413674138825
30
0
41
1
10
-0.394976888875306
20
-11.5223699808134
30
0
41
1
10
-0.394976888875306
20
-11.6026363770329
30
0
41
1
10
-0.394976888875306
20
-11.6684804460587
30
0
41
1
10
-0.394976888875306
20
-11.7205808983271
30
0
41
1
10
-0.394976888875306
20
-11.7722691819395
30
0
41
1
10
-0.394976888875306
20
-11.836053984022
30
0
41
1
10
-0.394976888875306
20
-11.9113764724791
30
0
41
1
10
-0.394976888875306
20
-11.9854459723214
30
0
41
1
10
-0.394976888875306
20
-12.0582544232072
30
0
41
1
10
-0.394976888875306
20
-12.1297946270485
30
0
41
1
10
-0.394976888875306
20
-12.2235215963167
30
0
41
1
10
-0.394976888875306
20
-12.3373769247913
30
0
41
1
10
-0.394976888875306
20
-12.446899173783
30
0
41
1
10
-0.394976888875306
20
-12.5319491682166
30
0
41
1
10
-0.394976888875306
20
-12.6152283642396
30
0
41
1
10
-0.394976888875306
20
-12.6957215996061
30
0
41
1
10
-0.394976888875306
20
-12.773610902979
30
0
41
1
10
-0.394976888875306
20
-12.8306328883531
30
0
41
1
10
-0.394976888875306
20
-12.8862769625636
30
0
41
1
10
-0.394976888875306
20
-12.940532100831
30
0
41
1
10
-0.394976888875306
20
-12.9933861205259
30
0
41
1
10
-0.394976888875306
20
-13.0448282543027
30
0
41
1
10
-0.394976888875306
20
-13.0948461430692
30
0
41
1
10
-0.394976888875306
20
-13.1596507828291
30
0
41
1
10
-0.394976888875306
20
-13.221467049789
30
0
41
1
10
-0.394976888875306
20
-13.2804176772461
30
0
41
1
10
-0.394976888875306
20
-13.3231185723383
30
0
41
1
10
-0.394976888875306
20
-13.3643136307331
30
0
41
1
10
-0.394976888875306
20
-13.4039879870964
30
0
41
1
10
-0.394976888875306
20
-13.4421262291561
30
0
41
1
10
-0.394976888875306
20
-13.490931201485
30
0
41
1
10
-0.394976888875306
20
-13.5365270011545
30
0
41
1
10
-0.394976888875306
20
-13.5789822078612
30
0
41
1
10
-0.394976888875306
20
-13.6091837809887
30
0
41
1
10
-0.394976888875306
20
-13.6377421279937
30
0
41
1
10
-0.394976888875306
20
-13.6736219491958
30
0
41
1
10
-0.394976888875306
20
-13.706079968468
30
0
41
1
10
-0.394976888875306
20
-13.7351343539634
30
0
41
1
10
-0.394976888875306
20
-13.7551609910392
30
0
41
1
10
-0.394976888875306
20
-13.7734119916164
30
0
41
1
10
-0.394976888875306
20
-13.7898613788954
30
0
41
1
10
-0.394976888875306
20
-13.8044829828858
30
0
41
1
10
-0.394976888875306
20
-13.8172491473121
30
0
41
1
10
-0.394976888875306
20
-13.8281307581185
30
0
41
1
10
-0.394976888875306
20
-13.8370980881852
30
0
41
1
10
-0.394976888875306
20
-13.8421014019358
30
0
41
1
10
-0.394976888875306
20
-13.8443373794894
30
0
41
1
10
-0.394976888875306
20
-13.8446019297682
30
0
0
SPLINE
5
1A7
100
AcDbEntity
8
SK1
62
256
6
ByLayer
370
18
48
1
60
0
100
AcDbSpline
70
4
71
3
72
10
73
6
40
0
40
0
40
0
40
0
40
0.5
40
0.5
40
1
40
1
40
1
40
1
41
1
10
-1.69999999999999
20
2.58372509632821
30
0
41
1
10
-1.83222262461143
20
1.751855044526
30
0
41
1
10
-1.92871617486691
20
0.884329181036122
30
0
41
1
10
-1.92842303871006
20
-0.888588835776119
30
0
41
1
10
-1.83224326233341
20
-1.75172436897285
30
0
41
1
10
-1.69999999999999
20
-2.58372503195247
30
0
0
SPLINE
5
1A8
100
AcDbEntity
8
SK1
62
256
6
ByLayer
370
18
48
1
60
0
100
AcDbSpline
70
4
71
3
72
98
73
94
40
0
40
0
40
0
40
0
40
0.0012808740763045
40
0.0105737783742241
40
0.0198666826721437
40
0.0291595869700633
40
0.0384524912679829
40
0.0477453955659025
40
0.0663312041617417
40
0.0849170127575809
40
0.10350282135342
40
0.11279572565134
40
0.122088629949259
40
0.131381534247179
40
0.140674438545099
40
0.159260247140938
40
0.168553151438857
40
0.177846055736777
40
0.187138960034696
40
0.196431864332616
40
0.205724768630536
40
0.215017672928455
40
0.233603481524295
40
0.242896385822214
40
0.252189290120134
40
0.261482194418053
40
0.270775098715973
40
0.280068003013893
40
0.289360907311812
40
0.298653811609732
40
0.307946715907651
40
0.326532524503491
40
0.33582542880141
40
0.34511833309933
40
0.363704141695169
40
0.382289950291008
40
0.391582854588928
40
0.400875758886847
40
0.410168663184767
40
0.419461567482687
40
0.428754471780606
40
0.438047376078526
40
0.442693828227486
40
0.447340280376445
40
0.456633184674365
40
0.465926088972284
40
0.475218993270204
40
0.493804801866043
40
0.503097706163963
40
0.512390610461883
40
0.521683514759802
40
0.530976419057722
40
0.540269323355641
40
0.549562227653561
40
0.558855131951481
40
0.5681480362494
40
0.57744094054732
40
0.586733844845239
40
0.605319653441079
40
0.614612557738998
40
0.623905462036918
40
0.628551914185878
40
0.633198366334837
40
0.642491270632757
40
0.661077079228596
40
0.670369983526516
40
0.679662887824435
40
0.698248696420275
40
0.716834505016114
40
0.726127409314034
40
0.735420313611953
40
0.754006122207792
40
0.763299026505712
40
0.772591930803632
40
0.781884835101551
40
0.791177739399471
40
0.80047064369739
40
0.80976354799531
40
0.828349356591149
40
0.846935165186988
40
0.856228069484908
40
0.865520973782828
40
0.874813878080747
40
0.884106782378667
40
0.902692590974506
40
0.921278399570345
40
0.939864208166184
40
0.958450016762024
40
0.967742921059943
40
0.977035825357863
40
0.986328729655782
40
0.995621633953702
40
1
40
1
40
1
40
1
41
1
10
-0.394976888875277
20
13.8446015176322
30
0
41
1
10
-0.394976888875277
20
13.8443369604552
30
0
41
1
10
-0.394976888875277
20
13.842101166137
30
0
41
1
10
-0.394976888875277
20
13.8370982474882
30
0
41
1
10
-0.394976888875277
20
13.8281310063336
30
0
41
1
10
-0.394976888875277
20
13.8172492272358
30
0
41
1
10
-0.394976888875277
20
13.8044829705053
30
0
41
1
10
-0.394976888875277
20
13.7849758313288
30
0
41
1
10
-0.394976888875277
20
13.7560496751861
30
0
41
1
10
-0.394976888875277
20
13.7142204148031
30
0
41
1
10
-0.394976888875277
20
13.6736219510479
30
0
41
1
10
-0.394976888875277
20
13.6377421071264
30
0
41
1
10
-0.394976888875277
20
13.6091837483775
30
0
41
1
10
-0.394976888875277
20
13.5789821852606
30
0
41
1
10
-0.394976888875277
20
13.5365270016785
30
0
41
1
10
-0.394976888875277
20
13.4909311840823
30
0
41
1
10
-0.394976888875277
20
13.4421262012037
30
0
41
1
10
-0.394976888875277
20
13.4039879614121
30
0
41
1
10
-0.394976888875277
20
13.3643136176474
30
0
41
1
10
-0.394976888875277
20
13.3231185671574
30
0
41
1
10
-0.394976888875277
20
13.2804176635455
30
0
41
1
10
-0.394976888875277
20
13.2214670183476
30
0
41
1
10
-0.394976888875277
20
13.1596507604527
30
0
41
1
10
-0.394976888875277
20
13.094846134259
30
0
41
1
10
-0.394976888875277
20
13.0448282447276
30
0
41
1
10
-0.394976888875277
20
12.9933861020735
30
0
41
1
10
-0.394976888875277
20
12.9405320737836
30
0
41
1
10
-0.394976888875277
20
12.8862769376535
30
0
41
1
10
-0.394976888875277
20
12.8306328717281
30
0
41
1
10
-0.394976888875277
20
12.7736108931729
30
0
41
1
10
-0.394976888875277
20
12.6957215859151
30
0
41
1
10
-0.394976888875277
20
12.6152283382819
30
0
41
1
10
-0.394976888875277
20
12.5319491453114
30
0
41
1
10
-0.394976888875277
20
12.4468991604423
30
0
41
1
10
-0.394976888875277
20
12.3373769122162
30
0
41
1
10
-0.394976888875277
20
12.2235215734124
30
0
41
1
10
-0.394976888875277
20
12.1297946053789
30
0
41
1
10
-0.394976888875277
20
12.0582544060742
30
0
41
1
10
-0.394976888875277
20
11.9854459580753
30
0
41
1
10
-0.394976888875277
20
11.9113764581405
30
0
41
1
10
-0.394976888875277
20
11.8360539668501
30
0
41
1
10
-0.394976888875277
20
11.7722691621604
30
0
41
1
10
-0.394976888875277
20
11.7205808778945
30
0
41
1
10
-0.394976888875277
20
11.6684804259269
30
0
41
1
10
-0.394976888875277
20
11.6026363586083
30
0
41
1
10
-0.394976888875277
20
11.5223699646631
30
0
41
1
10
-0.394976888875277
20
11.4136741241806
30
0
41
1
10
-0.394976888875277
20
11.3026972493618
30
0
41
1
10
-0.394976888875277
20
11.1891707558493
30
0
41
1
10
-0.394976888875277
20
11.102867622286
30
0
41
1
10
-0.394976888875277
20
11.0153746780185
30
0
41
1
10
-0.394976888875277
20
10.9266969759659
30
0
41
1
10
-0.394976888875277
20
10.8368404439692
30
0
41
1
10
-0.394976888875277
20
10.74580988339
30
0
41
1
10
-0.394976888875277
20
10.6536100721469
30
0
41
1
10
-0.394976888875277
20
10.5602461340712
30
0
41
1
10
-0.394976888875277
20
10.4657231550753
30
0
41
1
10
-0.394976888875277
20
10.3380960413352
30
0
41
1
10
-0.394976888875277
20
10.2083399780688
30
0
41
1
10
-0.394976888875277
20
10.0761265525343
30
0
41
1
10
-0.394976888875277
20
9.99261143893298
30
0
41
1
10
-0.394976888875277
20
9.92517900727512
30
0
41
1
10
-0.394976888875277
20
9.85736934874495
30
0
41
1
10
-0.394976888875277
20
9.73773600630287
30
0
41
1
10
-0.394976888875277
20
9.59892076352932
30
0
41
1
10
-0.394976888875277
20
9.45767861814849
30
0
41
1
10
-0.394976888875277
20
9.3149499665038
30
0
41
1
10
-0.394976888875277
20
9.13390678694702
30
0
41
1
10
-0.394976888875277
20
8.94918033853523
30
0
41
1
10
-0.394976888875277
20
8.79907643306458
30
0
41
1
10
-0.394976888875277
20
8.64751154095558
30
0
41
1
10
-0.394976888875277
20
8.49397418950429
30
0
41
1
10
-0.394976888875277
20
8.33804225713789
30
0
41
1
10
-0.394976888875277
20
8.22006379392718
30
0
41
1
10
-0.394976888875277
20
8.10100252302422
30
0
41
1
10
-0.394976888875277
20
7.98086143927398
30
0
41
1
10
-0.394976888875277
20
7.85964213989763
30
0
41
1
10
-0.394976888875277
20
7.69650359349293
30
0
41
1
10
-0.394976888875277
20
7.49008089634199
30
0
41
1
10
-0.394976888875277
20
7.28009509164627
30
0
41
1
10
-0.394976888875277
20
7.10982244878713
30
0
41
1
10
-0.394976888875277
20
6.98112244545175
30
0
41
1
10
-0.394976888875277
20
6.85136200824962
30
0
41
1
10
-0.394976888875277
20
6.67684685573994
30
0
41
1
10
-0.394976888875277
20
6.45627503636445
30
0
41
1
10
-0.394976888875277
20
6.18726433662556
30
0
41
1
10
-0.394976888875277
20
5.91406385279547
30
0
41
1
10
-0.394976888875277
20
5.68302324019061
30
0
41
1
10
-0.394976888875277
20
5.49591838220567
30
0
41
1
10
-0.394976888875277
20
5.35463940810163
30
0
41
1
10
-0.394976888875277
20
5.21232773385495
30
0
41
1
10
-0.394976888875277
20
5.09425517295406
30
0
41
1
10
-0.394976888875277
20
5.02359271293304
30
0
41
1
10
-0.394976888875277
20
5.0009244140283
30
0
0
SPLINE
5
1A9
100
AcDbEntity
8
SK1
62
256
6
ByLayer
370
18
48
1
60
0
100
AcDbSpline
70
4
71
3
72
8
73
4
40
0
40
0
40
0
40
0
40
1
40
1
40
1
40
1
41
1
10
-1.49503997793931
20
-2.59465115086957
30
0
41
1
10
-1.43729564430089
20
-2.94660231507382
30
0
41
1
10
-1.37345704405578
20
-3.29127575598176
30
0
41
1
10
-1.30710678118655
20
-3.6278161010051
30
0
0
SPLINE
5
1AA
100
AcDbEntity
8
SK1
62
256
6
ByLayer
370
18
48
1
60
0
100
AcDbSpline
70
4
71
3
72
22
73
18
40
0
40
0
40
0
40
0
40
0.0262442859026881
40
0.0262442859026881
40
0.0530261157854851
40
0.0530261157854851
40
0.0713559655737795
40
0.0713559655737795
40
0.0895874012639089
40
0.0895874012639089
40
0.119482247898519
40
0.119482247898519
40
0.178618886842945
40
0.178618886842945
40
0.388022338076953
40
0.388022338076953
40
1
40
1
40
1
40
1
41
1
10
-0.394976888875277
20
5.0009244140283
30
0
41
1
10
-0.389542958903149
20
4.99654803778401
30
0
41
1
10
-0.383617633691586
20
4.99263335383438
30
0
41
1
10
-0.370682657201087
20
4.98677476419829
30
0
41
1
10
-0.363425194676552
20
4.98483424058901
30
0
41
1
10
-0.350979181144169
20
4.98462903203949
30
0
41
1
10
-0.345738268039327
20
4.98542011278013
30
0
41
1
10
-0.335836240990062
20
4.98861553627458
30
0
41
1
10
-0.33106145671195
20
4.99102841332402
30
0
41
1
10
-0.319537139874143
20
4.9986715699325
30
0
41
1
10
-0.313226756018594
20
5.00478758784652
30
0
41
1
10
-0.296826258261461
20
5.02421063341325
30
0
41
1
10
-0.288455270980222
20
5.03906576138257
30
0
41
1
10
-0.256353055935392
20
5.10678482490906
30
0
41
1
10
-0.244000373144985
20
5.16381228581221
30
0
41
1
10
-0.204596889637315
20
5.38213882730372
30
0
41
1
10
-0.200000000000046
20
5.54465158381666
30
0
41
1
10
-0.200000000000046
20
5.70317614351262
30
0
0
SPLINE
5
1AB
100
AcDbEntity
8
1
62
256
6
ByLayer
370
18
48
1
60
0
100
AcDbSpline
70
4
71
3
72
12
73
8
40
0
40
0
40
0
40
0
40
0.392678099449935
40
0.392678099449935
40
0.791279335966135
40
0.791279335966135
40
1
40
1
40
1
40
1
41
1
10
28.4054255680935
20
16.9419021159249
30
0
41
1
10
28.3863543026409
20
16.9428693539811
30
0
41
1
10
28.3661176238033
20
16.9429396857036
30
0
41
1
10
28.3259730973136
20
16.9408438907764
30
0
41
1
10
28.3055888160726
20
16.9386019216422
30
0
41
1
10
28.276956935852
20
16.9337878950343
30
0
41
1
10
28.2673714506866
20
16.931859583935
30
0
41
1
10
28.2582497032035
20
16.9297403479307
30
0
0
SPLINE
5
1AC
100
AcDbEntity
8
1
62
256
6
ByLayer
370
18
48
1
60
0
100
AcDbSpline
70
4
71
3
72
14
73
10
40
0
40
0
40
0
40
0
40
0.0829586012802395
40
0.0829586012802395
40
0.459195015075153
40
0.459195015075153
40
0.835474799669122
40
0.835474799669122
40
1
40
1
40
1
40
1
41
1
10
29.3153742670863
20
17.6673031535679
30
0
41
1
10
29.3129807472499
20
17.6639489718712
30
0
41
1
10
29.3106164352656
20
17.6605365679166
30
0
41
1
10
29.297819426414
20
17.6414779937499
30
0
41
1
10
29.2879741601043
20
17.6245101409743
30
0
41
1
10
29.2714135213237
20
17.5901889356478
30
0
41
1
10
29.2645207568816
20
17.5724504177225
30
0
41
1
10
29.2571526135653
20
17.5481411674166
30
0
41
1
10
29.2552116533888
20
17.5408151681973
30
0
41
1
10
29.2535657463299
20
17.533655132367
30
0
0
SPLINE
5
1AD
100
AcDbEntity
8
1
62
256
6
ByLayer
370
18
48
1
60
0
100
AcDbSpline
70
4
71
3
72
14
73
10
40
0
40
0
40
0
40
0
40
0.16452520033095
40
0.16452520033095
40
0.540804984924853
40
0.540804984924853
40
0.9170413987197
40
0.9170413987197
40
1
40
1
40
1
40
1
41
1
10
29.1343960255185
20
18.8242238403012
30
0
41
1
10
29.1373820707971
20
18.8168706219341
30
0
41
1
10
29.1406823112799
20
18.8094760644826
30
0
41
1
10
29.1525174738123
20
18.7854089723862
30
0
41
1
10
29.1625988594972
20
18.7686157756327
30
0
41
1
10
29.1851771005151
20
18.7377683366813
30
0
41
1
10
29.1979192944339
20
18.7233634204688
30
0
41
1
10
29.2138890573604
20
18.7080621161431
30
0
41
1
10
29.2168180414453
20
18.7053593077907
30
0
41
1
10
29.2197633696553
20
18.702737587095
30
0
0
SPLINE
5
1AE
100
AcDbEntity
8
1
62
256
6
ByLayer
370
18
48
1
60
0
100
AcDbSpline
70
4
71
3
72
12
73
8
40
0
40
0
40
0
40
0
40
0.392678099452522
40
0.392678099452522
40
0.791279335968745
40
0.791279335968745
40
1
40
1
40
1
40
1
41
1
10
28.0434690849609
20
19.2557434893932
30
0
41
1
10
28.0610497317404
20
19.2532856326638
30
0
41
1
10
28.0802551763203
20
19.2521840666836
30
0
41
1
10
28.1196771475796
20
19.2535573063801
30
0
41
1
10
28.1403926415968
20
19.2561304882907
30
0
41
1
10
28.1704683931384
20
19.2623883862197
30
0
41
1
10
28.180722868692
20
19.2649856877072
30
0
41
1
10
28.1906449498509
20
19.2679052573875
30
0
0
SPLINE
5
1AF
100
AcDbEntity
8
1
62
256
6
ByLayer
370
18
48
1
60
0
100
AcDbSpline
70
4
71
3
72
14
73
10
40
0
40
0
40
0
40
0
40
0.164525200330954
40
0.164525200330954
40
0.540804984924845
40
0.540804984924845
40
0.917041398719713
40
0.917041398719713
40
1
40
1
40
1
40
1
41
1
10
27.3144986275354
20
17.3734217650164
30
0
41
1
10
27.3108847623581
20
17.3801471634849
30
0
41
1
10
27.3070376724333
20
17.3869948714944
30
0
41
1
10
27.2937366903229
20
17.4095961440128
30
0
41
1
10
27.2831567847336
20
17.4258908208618
30
0
41
1
10
27.2608396764109
20
17.4569993925084
30
0
41
1
10
27.2488566547328
20
17.4721634809616
30
0
41
1
10
27.2343913616271
20
17.4889692551081
30
0
41
1
10
27.2317590836542
20
17.4919687695725
30
0
41
1
10
27.2291312833987
20
17.4949080182228
30
0
0
SPLINE
5
1B0
100
AcDbEntity
8
1
62
256
6
ByLayer
370
18
48
1
60
0
100
AcDbSpline
70
4
71
3
72
14
73
10
40
0
40
0
40
0
40
0
40
0.0829586012803196
40
0.0829586012803196
40
0.459195015075154
40
0.459195015075154
40
0.835474799669043
40
0.835474799669043
40
1
40
1
40
1
40
1
41
1
10
27.1335203859677
20
18.5303424517498
30
0
41
1
10
27.1355963778496
20
18.533379105492
30
0
41
1
10
27.1376639837218
20
18.5364948033346
30
0
41
1
10
27.1489565227526
20
18.5540489076804
30
0
41
1
10
27.1580426168217
20
18.5702575882155
30
0
41
1
10
27.1743421229071
20
18.6043176608467
30
0
41
1
10
27.1817334072536
20
18.6225546986765
30
0
41
1
10
27.1905673701479
20
18.6483297685603
30
0
41
1
10
27.1930551797664
20
18.6562026172216
30
0
41
1
10
27.1953289067239
20
18.6639904729506
30
0
0
SPLINE
5
1B1
100
AcDbEntity
8
1
62
256
6
ByLayer
370
18
48
1
60
0
100
AcDbSpline
70
4
71
3
72
11
73
7
40
0
40
0
40
0
40
0
40
0.379738014043147
40
0.569607021064721
40
0.759476028086295
40
1
40
1
40
1
40
1
41
1.02830968163241
10
30.6996858691271
20
11.5658164978543
30
0
41
1.02566133279166
10
33.0893203100561
20
12.5049685709931
30
0
41
1.02050308371814
10
36.1124488628195
20
14.0425112099865
30
0
41
1.01332460673153
10
40.7837086420513
20
17.0521688313617
30
0
41
1.0120630214142
10
42.8076159418014
20
17.1520701427274
30
0
41
1.00944729087555
10
44.5017934212666
20
17.8732075073708
30
0
41
1.00885690313847
10
45.2542847854277
20
18.0767146838995
30
0
0
SPLINE
5
1B2
100
AcDbEntity
8
1
62
256
6
ByLayer
370
18
48
1
60
0
100
AcDbSpline
70
4
71
2
72
6
73
3
40
0
40
0
40
0
40
1
40
1
40
1
41
1.02830968163241
10
30.6996858691271
20
11.5658164978543
30
0
41
1.02830968163241
10
30.6353004570909
20
11.0989648858406
30
0
41
1.02830968163241
10
30.5709150450548
20
10.632113273827
30
0
0
SPLINE
5
1B3
100
AcDbEntity
8
1
62
256
6
ByLayer
370
18
48
1
60
0
100
AcDbSpline
70
4
71
3
72
11
73
7
40
0
40
0
40
0
40
0
40
0.268536746003808
40
0.487975722202665
40
0.707414698401523
40
1
40
1
40
1
40
1
41
1.0249090909279
10
32.9333071066561
20
20.1641366814822
30
0
41
1.0229768070834
10
34.2846610335279
20
20.2321879458589
30
0
41
1.0191099966158
10
36.6510820049448
20
20.2997015066502
30
0
41
1.01332460673153
10
40.5286568256387
20
20.0903953290236
30
0
41
1.01203732298747
10
42.6176591969637
20
20.0781768562968
30
0
41
1.00929221524307
10
44.4282800999463
20
19.8926309250882
30
0
41
1.0087712828333
10
45.228796618712
20
19.7523066095285
30
0
0
SPLINE
5
1B4
100
AcDbEntity
8
1
62
256
6
ByLayer
370
18
48
1
60
0
100
AcDbSpline
70
4
71
3
72
16
73
12
40
0
40
0
40
0
40
0
40
0.25
40
0.25
40
0.5
40
0.5
40
0.75
40
0.75
40
0.875
40
0.875
40
1
40
1
40
1
40
1
41
1
10
44.1118934292916
20
21.0081798481129
30
0
41
1
10
42.997924059844
20
21.2195897008624
30
0
41
1
10
41.8399366517845
20
21.4582492016311
30
0
41
1
10
39.3433930037467
20
22.0473504921621
30
0
41
1
10
38.0861995587597
20
22.3456462801111
30
0
41
1
10
35.5436985868306
20
22.9748985184228
30
0
41
1
10
34.2012782905088
20
23.333518202316
30
0
41
1
10
32.3178510008544
20
23.9277592718713
30
0
41
1
10
31.7128242200219
20
24.1357350941259
30
0
41
1
10
30.6702539875888
20
24.5417820721858
30
0
41
1
10
30.2437040574968
20
24.73591914338
30
0
41
1
10
29.9031497390513
20
24.9146095914983
30
0
0
SPLINE
5
1B5
100
AcDbEntity
8
1
62
256
6
ByLayer
370
18
48
1
60
0
100
AcDbSpline
70
4
71
3
72
12
73
8
40
0
40
0
40
0
40
0
40
0.41878207528277
40
0.41878207528277
40
0.706182120811192
40
0.706182120811192
40
1
40
1
40
1
40
1
41
1
10
45.0749271809785
20
20.0190983698043
30
0
41
1
10
45.0972257085377
20
19.9859493480284
30
0
41
1
10
45.119003521403
20
19.9501135516848
30
0
41
1
10
45.1531083180197
20
19.8880168133647
30
0
41
1
10
45.1663981681349
20
19.8620289163401
30
0
41
1
10
45.1916026109512
20
19.8090394788519
30
0
41
1
10
45.2035511735893
20
19.7818783356924
30
0
41
1
10
45.2145537607148
20
19.7547953401247
30
0
0
SPLINE
5
1B6
100
AcDbEntity
8
1
62
256
6
ByLayer
370
18
48
1
60
0
100
AcDbSpline
70
4
71
3
72
10
73
6
40
0
40
0
40
0
40
0
40
0.494168352806883
40
0.494168352806883
40
1
40
1
40
1
40
1
41
1
10
19.2171512213445
20
9.04920479255449
30
0
41
1
10
19.1141578153992
20
9.04936488843484
30
0
41
1
10
19.0067054559567
20
9.05548057320999
30
0
41
1
10
18.7896019254927
20
9.08220981368058
30
0
41
1
10
18.6784685532456
20
9.10339064919884
30
0
41
1
10
18.5708996912633
20
9.13197924189765
30
0
0
SPLINE
5
1B7
100
AcDbEntity
8
1
62
256
6
ByLayer
370
18
48
1
60
0
100
AcDbSpline
70
4
71
3
72
18
73
14
40
0
40
0
40
0
40
0
40
0.148865436690717
40
0.148865436690717
40
0.336868556410368
40
0.336868556410368
40
0.519491108027856
40
0.519491108027856
40
0.711563055534803
40
0.711563055534803
40
0.930180979444766
40
0.930180979444766
40
1
40
1
40
1
40
1
41
1
10
38.6180905642336
20
13.7431626447184
30
0
41
1
10
38.6173650060381
20
13.7504615155629
30
0
41
1
10
38.6192818551378
20
13.7590712155411
30
0
41
1
10
38.6297651734448
20
13.7806658590329
30
0
41
1
10
38.6401578441975
20
13.7945304577112
30
0
41
1
10
38.6678129566192
20
13.8230864490629
30
0
41
1
10
38.685195653047
20
13.838095156147
30
0
41
1
10
38.7253282223159
20
13.8684416609753
30
0
41
1
10
38.7487594284718
20
13.8841173574102
30
0
41
1
10
38.8011199217705
20
13.9158533260379
30
0
41
1
10
38.83095806679
20
13.9320486394379
30
0
41
1
10
38.8704217645985
20
13.9515051984586
30
0
41
1
10
38.8800523968478
20
13.9561029745544
30
0
41
1
10
38.8896811799659
20
13.9605571649693
30
0
0
SPLINE
5
1B8
100
AcDbEntity
8
1
62
256
6
ByLayer
370
18
48
1
60
0
100
AcDbSpline
70
4
71
3
72
11
73
7
40
0
40
0
40
0
40
0
40
0.268536746558077
40
0.487975722590654
40
0.707414698623231
40
1
40
1
40
1
40
1
41
1.02490909094426
10
33.2448956816293
20
16.7897352254836
30
0
41
1.02297680709541
10
34.5903487980546
20
16.9216903623537
30
0
41
1.019109996622
10
36.9399257072496
20
17.1716195874796
30
0
41
1.01332460673153
10
40.7433795829383
20
17.7650188024577
30
0
41
1.01203732298747
10
42.8164511013946
20
17.9253262034569
30
0
41
1.00929221524307
10
44.5839818126913
20
18.2064328130532
30
0
41
1.0087712828333
10
45.3570073517961
20
18.3638267254373
30
0
0
SPLINE
5
1B9
100
AcDbEntity
8
1
62
256
6
ByLayer
370
18
48
1
60
0
100
AcDbSpline
70
4
71
3
72
8
73
4
40
0
40
0
40
0
40
0
40
1
40
1
40
1
40
1
41
1
10
24.4172956630581
20
21.0010085203242
30
0
41
1
10
25.0492248651921
20
21.6161618994101
30
0
41
1
10
25.8845475074392
20
21.9867108526327
30
0
41
1
10
26.8124883060046
20
22.0633905494905
30
0
0
SPLINE
5
1BA
100
AcDbEntity
8
1
62
256
6
ByLayer
370
18
48
1
60
0
100
AcDbSpline
70
4
71
3
72
8
73
4
40
0
40
0
40
0
40
0
40
1
40
1
40
1
40
1
41
1
10
21.0856455535071
20
22.2063399580851
30
0
41
1
10
20.657544440648
20
22.8431068999535
30
0
41
1
10
20.3772539587544
20
23.3392404336477
30
0
41
1
10
19.9674655883524
20
23.5444510969978
30
0
0
SPLINE
5
1BB
100
AcDbEntity
8
1
62
256
6
ByLayer
370
18
48
1
60
0
100
AcDbSpline
70
4
71
3
72
8
73
4
40
0
40
0
40
0
40
0
40
1
40
1
40
1
40
1
41
1
10
27.5725947950024
20
13.8316883795213
30
0
41
1
10
26.6629674960166
20
13.7565220050633
30
0
41
1
10
25.7429990507977
20
14.0245440549517
30
0
41
1
10
25.0126238222732
20
14.5538012263623
30
0
0
SPLINE
5
1BC
100
AcDbEntity
8
1
62
256
6
ByLayer
370
18
48
1
60
0
100
AcDbSpline
70
4
71
2
72
6
73
3
40
0
40
0
40
0
40
1
40
1
40
1
41
1.02830968163241
10
29.2558392399935
20
24.8739497992196
30
0
41
1.02830968163241
10
29.3882681751533
20
24.6039125344019
30
0
41
1.02830968163241
10
29.5206971103132
20
24.3338752695843
30
0
0
SPLINE
5
1BD
100
AcDbEntity
8
1
62
256
6
ByLayer
370
18
48
1
60
0
100
AcDbSpline
70
4
71
3
72
8
73
4
40
0
40
0
40
0
40
0
40
1
40
1
40
1
40
1
41
1
10
29.9031497390557
20
24.9146095914988
30
0
41
1
10
29.6867076020783
20
24.9008014462306
30
0
41
1
10
29.4706826794457
20
24.8871619592514
30
0
41
1
10
29.2558392399935
20
24.8739497992196
30
0
0
SPLINE
5
1BE
100
AcDbEntity
8
1
62
256
6
ByLayer
370
18
48
1
60
0
100
AcDbSpline
70
4
71
3
72
8
73
4
40
0
40
0
40
0
40
0
40
1
40
1
40
1
40
1
41
1
10
29.6080309084507
20
13.9998851269798
30
0
41
1
10
29.9997671182861
20
14.032255956956
30
0
41
1
10
30.3780927407671
20
14.1212642884882
30
0
41
1
10
30.7441521687209
20
14.2609918929724
30
0
0
SPLINE
5
1BF
100
AcDbEntity
8
1
62
256
6
ByLayer
370
18
48
1
60
0
100
AcDbSpline
70
4
71
2
72
6
73
3
40
0
40
0
40
0
40
1
40
1
40
1
41
0.941103849192081
10
30.7441521718885
20
14.2609918797285
30
0
41
0.915286811754989
10
30.8185645377416
20
12.427792779773
30
0
41
1.02830968163241
10
30.6996858691271
20
11.5658164978543
30
0
0
SPLINE
5
1C0
100
AcDbEntity
8
1
62
256
6
ByLayer
370
18
48
1
60
0
100
AcDbSpline
70
4
71
3
72
8
73
4
40
0
40
0
40
0
40
0
40
1
40
1
40
1
40
1
41
1
10
19.6792424745925
20
9.07907154325923
30
0
41
1
10
19.5268678705901
20
9.05928160589184
30
0
41
1
10
19.3727959740354
20
9.04896285392283
30
0
41
1
10
19.2171512213445
20
9.04920479255449
30
0
0
SPLINE
5
1C1
100
AcDbEntity
8
1
62
256
6
ByLayer
370
18
48
1
60
0
100
AcDbSpline
70
4
71
3
72
8
73
4
40
0
40
0
40
0
40
0
40
1
40
1
40
1
40
1
41
1
10
45.2542847927801
20
18.076714685888
30
0
41
1
10
45.187961755895
20
17.914944640326
30
0
41
1
10
45.1019406059525
20
17.7554448228235
30
0
41
1
10
44.9992806400262
20
17.6094244710695
30
0
0
SPLINE
5
1C2
100
AcDbEntity
8
1
62
256
6
ByLayer
370
18
48
1
60
0
100
AcDbSpline
70
4
71
3
72
8
73
4
40
0
40
0
40
0
40
0
40
1
40
1
40
1
40
1
41
1
10
31.2182255441084
20
10.672773066105
30
0
41
1
10
31.0017834071338
20
10.6589649208372
30
0
41
1
10
30.7857584845041
20
10.6453254338584
30
0
41
1
10
30.5709150450548
20
10.632113273827
30
0
0
SPLINE
5
1C3
100
AcDbEntity
8
1
62
256
6
ByLayer
370
18
48
1
60
0
100
AcDbSpline
70
4
71
3
72
12
73
8
40
0
40
0
40
0
40
0
40
0.500000000000001
40
0.500000000000001
40
0.75
40
0.75
40
1
40
1
40
1
40
1
41
1
10
21.0856455535004
20
22.2063399580774
30
0
41
1
10
20.984079438133
20
22.0910235324376
30
0
41
1
10
20.8857933074842
20
21.9751176117955
30
0
41
1
10
20.7434876854598
20
21.8000020474178
30
0
41
1
10
20.6968657478948
20
21.7414866339563
30
0
41
1
10
20.6061807700423
20
21.623180113445
30
0
41
1
10
20.5273071791256
20
21.5728313639658
30
0
41
1
10
20.5349413659836
20
21.4901556423067
30
0
0
SPLINE
5
1C4
100
AcDbEntity
8
1
62
256
6
ByLayer
370
18
48
1
60
0
100
AcDbSpline
70
4
71
3
72
10
73
6
40
0
40
0
40
0
40
0
40
0.465995854460559
40
0.465995854460559
40
1
40
1
40
1
40
1
41
1
10
24.4172956630581
20
21.0010085203242
30
0
41
1
10
24.2922746278663
20
20.8793064182606
30
0
41
1
10
24.1520472105208
20
20.7678217182403
30
0
41
1
10
23.8294566249463
20
20.5596320810456
30
0
41
1
10
23.641809980814
20
20.4660665137368
30
0
41
1
10
23.446476441648
20
20.3938414409082
30
0
0
SPLINE
5
1C5
100
AcDbEntity
8
1
62
256
6
ByLayer
370
18
48
1
60
0
100
AcDbSpline
70
4
71
3
72
18
73
14
40
0
40
0
40
0
40
0
40
0.0384430513828887
40
0.0384430513828887
40
0.294505767099358
40
0.294505767099358
40
0.507931675708709
40
0.507931675708709
40
0.723079147095958
40
0.723079147095958
40
0.912685296049715
40
0.912685296049715
40
1
40
1
40
1
40
1
41
1
10
38.0733997037198
20
22.8006158890829
30
0
41
1
10
38.067721131119
20
22.8021637872812
30
0
41
1
10
38.0620373374005
20
22.8037318992803
30
0
41
1
10
38.0188458475153
20
22.8157944984541
30
0
41
1
10
37.9808219485479
20
22.8272725726543
30
0
41
1
10
37.9159748282916
20
22.8487398352909
30
0
41
1
10
37.8876447862747
20
22.8589011727107
30
0
41
1
10
37.8385712381417
20
22.8784297989454
30
0
41
1
10
37.8171969196331
20
22.8880827279526
30
0
41
1
10
37.7880023737473
20
22.9039858457363
30
0
41
1
10
37.778491648572
20
22.9107155759135
30
0
41
1
10
37.7717311559207
20
22.918678616656
30
0
41
1
10
37.770591919755
20
22.9209614623732
30
0
41
1
10
37.7704373408891
20
22.9229670260281
30
0
0
SPLINE
5
1C6
100
AcDbEntity
8
1
62
256
6
ByLayer
370
18
48
1
60
0
100
AcDbSpline
70
4
71
3
72
12
73
8
40
0
40
0
40
0
40
0
40
0.500000000000003
40
0.500000000000003
40
0.750000000000001
40
0.750000000000001
40
1
40
1
40
1
40
1
41
1
10
21.9657742403781
20
12.6748370351443
30
0
41
1
10
21.8459365471937
20
12.7573957611353
30
0
41
1
10
21.72928245727
20
12.8404087714723
30
0
41
1
10
21.5592032441547
20
12.966072023434
30
0
41
1
10
21.5032998122207
20
13.0080721277893
30
0
41
1
10
21.39379587619
20
13.0935687073903
30
0
41
1
10
21.3081767875415
20
13.1162714699323
30
0
41
1
10
21.3005426006857
20
13.1989471915919
30
0
0
SPLINE
5
1C7
100
AcDbEntity
8
1
62
256
6
ByLayer
370
18
48
1
60
0
100
AcDbSpline
70
4
71
3
72
8
73
4
40
0
40
0
40
0
40
0
40
1
40
1
40
1
40
1
41
1
10
21.1464543471663
20
10.7763923252679
30
0
41
1
10
21.5012325872879
20
11.2016240934425
30
0
41
1
10
21.6678208116189
20
11.8713490349038
30
0
41
1
10
21.9657742403861
20
12.6748370351387
30
0
0
SPLINE
5
1C8
100
AcDbEntity
8
1
62
256
6
ByLayer
370
18
48
1
60
0
100
AcDbSpline
70
4
71
3
72
8
73
4
40
0
40
0
40
0
40
0
40
1
40
1
40
1
40
1
41
1
10
44.492154678761
20
16.8900761380424
30
0
41
1
10
44.6608008115663
20
17.1287364741977
30
0
41
1
10
44.8302185043562
20
17.3689557323935
30
0
41
1
10
44.9992806400262
20
17.6094244710695
30
0
0
SPLINE
5
1C9
100
AcDbEntity
8
1
62
256
6
ByLayer
370
18
48
1
60
0
100
AcDbSpline
70
4
71
3
72
16
73
12
40
0
40
0
40
0
40
0
40
0.125
40
0.125
40
0.25
40
0.25
40
0.5
40
0.5
40
0.75
40
0.75
40
1
40
1
40
1
40
1
41
1
10
31.2182255441189
20
10.6727730661056
30
0
41
1
10
31.5118148906409
20
11.0069349390741
30
0
41
1
10
31.8870402726296
20
11.360174032767
30
0
41
1
10
32.8346710107554
20
12.0815770580009
30
0
41
1
10
33.3886318736862
20
12.4367012113348
30
0
41
1
10
35.1422752748789
20
13.4342691049682
30
0
41
1
10
36.3856908566494
20
13.9905143065546
30
0
41
1
10
38.7631803194731
20
14.9440727881926
30
0
41
1
10
39.9381785371999
20
15.3860829461293
30
0
41
1
10
42.2854648447185
20
16.2632485303264
30
0
41
1
10
43.4175059885558
20
16.6070224304946
30
0
41
1
10
44.492154678761
20
16.8900761380424
30
0
0
SPLINE
5
1CA
100
AcDbEntity
8
1
62
256
6
ByLayer
370
18
48
1
60
0
100
AcDbSpline
70
4
71
2
72
6
73
3
40
0
40
0
40
0
40
1
40
1
40
1
41
1.0087712828333
10
45.3570073517961
20
18.3638267254373
30
0
41
1.0087712828333
10
45.292901985254
20
19.0580666674829
30
0
41
1.0087712828333
10
45.228796618712
20
19.7523066095285
30
0
0
SPLINE
5
1CB
100
AcDbEntity
8
1
62
256
6
ByLayer
370
18
48
1
60
0
100
AcDbSpline
70
4
71
3
72
11
73
7
40
0
40
0
40
0
40
0
40
0.379738014043152
40
0.569607021064729
40
0.759476028086305
40
1
40
1
40
1
40
1
41
1.02830968163241
10
29.5206971103132
20
24.3338752695843
30
0
41
1.02566133279165
10
32.0387801253051
20
23.8819717195927
30
0
41
1.02050308371814
10
35.2875379762574
20
22.9760235972899
30
0
41
1.01332460673153
10
40.4415079614823
20
20.7580891537966
30
0
41
1.0120630214142
10
42.4730458285486
20
20.7753539419002
30
0
41
1.00944729087556
10
44.2869190906345
20
20.2002255230649
30
0
41
1.00885690313847
10
45.074927173279
20
20.0190983715741
30
0
0
SPLINE
5
1CC
100
AcDbEntity
8
1
62
256
6
ByLayer
370
18
48
1
60
0
100
AcDbSpline
70
4
71
3
72
10
73
6
40
0
40
0
40
0
40
0
40
0.325288492889666
40
0.325288492889666
40
1
40
1
40
1
40
1
41
1
10
15.9580696308423
20
21.3441735475863
30
0
41
1
10
15.9757635898013
20
21.4467460275037
30
0
41
1
10
15.9988722264537
20
21.545649190309
30
0
41
1
10
16.087266599465
20
21.8393643007092
30
0
41
1
10
16.1718262858909
20
22.025888931697
30
0
41
1
10
16.28438021481
20
22.1989971852077
30
0
0
SPLINE
5
1CD
100
AcDbEntity
8
1
62
256
6
ByLayer
370
18
48
1
60
0
100
AcDbSpline
70
4
71
3
72
8
73
4
40
0
40
0
40
0
40
0
40
1
40
1
40
1
40
1
41
1
10
22.6018548452823
20
20.1916346606851
30
0
41
1
10
22.8849551222273
20
20.224608952468
30
0
41
1
10
23.1729527026948
20
20.290832348025
30
0
41
1
10
23.446476441648
20
20.3938414409082
30
0
0
SPLINE
5
1CE
100
AcDbEntity
8
1
62
256
6
ByLayer
370
18
48
1
60
0
100
AcDbSpline
70
4
71
3
72
12
73
8
40
0
40
0
40
0
40
0
40
0.322961595764271
40
0.322961595764271
40
0.710971356423584
40
0.710971356423584
40
1
40
1
40
1
40
1
41
1
10
30.7441521713108
20
14.260991893961
30
0
41
1
10
31.11264661622
20
14.4010409333298
30
0
41
1
10
31.4654008954937
20
14.5951034010673
30
0
41
1
10
32.1626269929981
20
15.1107948961899
30
0
41
1
10
32.5022862653164
20
15.4579711230487
30
0
41
1
10
32.9698029470073
20
16.1381401264623
30
0
41
1
10
33.1333831412185
20
16.4593903117257
30
0
41
1
10
33.2448957450557
20
16.7897352317041
30
0
0
SPLINE
5
1CF
100
AcDbEntity
8
1
62
256
6
ByLayer
370
18
48
1
60
0
100
AcDbSpline
70
4
71
3
72
10
73
6
40
0
40
0
40
0
40
0
40
0.474805431212334
40
0.474805431212334
40
1
40
1
40
1
40
1
41
1
10
23.9429554955201
20
15.0171373023975
30
0
41
1
10
24.1261210779198
20
14.9805594393352
30
0
41
1
10
24.3063395395024
20
14.9256562584627
30
0
41
1
10
24.6672068151287
20
14.7742777804057
30
0
41
1
10
24.8482044095604
20
14.6729456741732
30
0
41
1
10
25.0126238222732
20
14.5538012263623
30
0
0
SPLINE
5
1D0
100
AcDbEntity
8
1
62
256
6
ByLayer
370
18
48
1
60
0
100
AcDbSpline
70
4
71
3
72
8
73
4
40
0
40
0
40
0
40
0
40
1
40
1
40
1
40
1
41
1
10
23.0780661395942
20
15.0344236626321
30
0
41
1
10
23.3611664165392
20
15.067397954415
30
0
41
1
10
23.6555941727008
20
15.063984671453
30
0
41
1
10
23.9429554955201
20
15.0171373023975
30
0
0
SPLINE
5
1D1
100
AcDbEntity
8
1
62
256
6
ByLayer
370
18
48
1
60
0
100
AcDbSpline
70
4
71
3
72
8
73
4
40
0
40
0
40
0
40
0
40
1
40
1
40
1
40
1
41
1
10
44.7402706465383
20
20.4144171349897
30
0
41
1
10
44.8677041610669
20
20.2921481394759
30
0
41
1
10
44.9809207548016
20
20.157130284893
30
0
41
1
10
45.0749271809785
20
20.0190983698043
30
0
0
SPLINE
5
1D2
100
AcDbEntity
8
1
62
256
6
ByLayer
370
18
48
1
60
0
100
AcDbSpline
70
4
71
3
72
8
73
4
40
0
40
0
40
0
40
0
40
1
40
1
40
1
40
1
41
1
10
44.1118934292916
20
21.0081798481129
30
0
41
1
10
44.3205415186401
20
20.8136322098073
30
0
41
1
10
44.5304110198782
20
20.615771746024
30
0
41
1
10
44.7402706465383
20
20.4144171349897
30
0
0
SPLINE
5
1D3
100
AcDbEntity
8
1
62
256
6
ByLayer
370
18
48
1
60
0
100
AcDbSpline
70
4
71
3
72
13
73
9
40
0
40
0
40
0
40
0
40
0.250661764437225
40
0.250661764437225
40
0.250661764437225
40
0.653096502165463
40
0.653096502165463
40
1
40
1
40
1
40
1
41
1
10
33.2448957450557
20
16.7897352317041
30
0
41
1
10
33.3374398809192
20
17.0639733672253
30
0
41
1
10
33.4011786743706
20
17.3502789162698
30
0
41
1
10
33.4342238911232
20
17.6392067922956
30
0
41
1
10
33.4868188022156
20
18.0990656597818
30
0
41
1
10
33.461610730739
20
18.5761738412161
30
0
41
1
10
33.2736201627187
20
19.4246281106967
30
0
41
1
10
33.1282640646095
20
19.8104350123357
30
0
41
1
10
32.9333071589407
20
20.1641366841151
30
0
0
SPLINE
5
1D4
100
AcDbEntity
8
1
62
256
6
ByLayer
370
18
48
1
60
0
100
AcDbSpline
70
4
71
3
72
14
73
10
40
0
40
0
40
0
40
0
40
0.0151857536690264
40
0.0151857536690264
40
0.0655730315774963
40
0.0655730315774963
40
0.287642754348332
40
0.287642754348332
40
1
40
1
40
1
40
1
41
1
10
16.0058755667937
20
20.2765372309389
30
0
41
1
10
16.0052256204276
20
20.2835759353698
30
0
41
1
10
16.0044216299578
20
20.2905586608266
30
0
41
1
10
16.0005314777017
20
20.3195395137234
30
0
41
1
10
15.9965823172315
20
20.3396530035598
30
0
41
1
10
15.9761089286841
20
20.4434332617574
30
0
41
1
10
15.9610129290765
20
20.5200206166984
30
0
41
1
10
15.9150303975654
20
20.8478975802482
30
0
41
1
10
15.9155970392606
20
21.0979584943503
30
0
41
1
10
15.9580696308422
20
21.3441735475861
30
0
0
SPLINE
5
1D5
100
AcDbEntity
8
1
62
256
6
ByLayer
370
18
48
1
60
0
100
AcDbSpline
70
4
71
3
72
12
73
8
40
0
40
0
40
0
40
0
40
0.252749620142202
40
0.252749620142202
40
0.674711209428767
40
0.674711209428767
40
1
40
1
40
1
40
1
41
1
10
17.4229814259987
20
9.86832221178966
30
0
41
1
10
17.4872125464906
20
9.78814799716778
30
0
41
1
10
17.5596788132305
20
9.70999237092514
30
0
41
1
10
17.7738796497805
20
9.51302798496681
30
0
41
1
10
17.9328030952007
20
9.39977072020085
30
0
41
1
10
18.2469278321609
20
9.23786400228076
30
0
41
1
10
18.3978057502535
20
9.17904702967985
30
0
41
1
10
18.5531236427471
20
9.1367611643945
30
0
0
SPLINE
5
1D6
100
AcDbEntity
8
1
62
256
6
ByLayer
370
18
48
1
60
0
100
AcDbSpline
70
4
71
3
72
8
73
4
40
0
40
0
40
0
40
0
40
1
40
1
40
1
40
1
41
1
10
28.8479244194529
20
22.231587296949
30
0
41
1
10
29.2396606294167
20
22.2639581269359
30
0
41
1
10
29.6280538274097
20
22.2439379429058
30
0
41
1
10
30.0133093303211
20
22.1757783984309
30
0
0
SPLINE
5
1D7
100
AcDbEntity
8
1
62
256
6
ByLayer
370
18
48
1
60
0
100
AcDbSpline
70
4
71
3
72
12
73
8
40
0
40
0
40
0
40
0
40
0.407174084711929
40
0.407174084711929
40
0.699511272430926
40
0.699511272430926
40
1
40
1
40
1
40
1
41
1
10
45.3432524670218
20
18.3610308672322
30
0
41
1
10
45.3349836333155
20
18.3233354051077
30
0
41
1
10
45.325002486996
20
18.2844461357222
30
0
41
1
10
45.3052589283456
20
18.2175833401307
30
0
41
1
10
45.2961683486202
20
18.1894148139084
30
0
41
1
10
45.2763820635661
20
18.132929125091
30
0
41
1
10
45.2655718028819
20
18.1044161014164
30
0
41
1
10
45.2542847927801
20
18.076714685888
30
0
0
SPLINE
5
1D8
100
AcDbEntity
8
1
62
256
6
ByLayer
370
18
48
1
60
0
100
AcDbSpline
70
4
71
2
72
6
73
3
40
0
40
0
40
0
40
1
40
1
40
1
41
1.02830968163241
10
29.5206971103132
20
24.3338752695843
30
0
41
0.915286811692243
10
29.7652086387758
20
23.8352891842793
30
0
41
0.941103849220746
10
30.0133093310094
20
22.1757784091076
30
0
0
SPLINE
5
1D9
100
AcDbEntity
8
1
62
256
6
ByLayer
370
18
48
1
60
0
100
AcDbSpline
70
4
71
3
72
13
73
9
40
0
40
0
40
0
40
0
40
0.287856992129662
40
0.287856992129662
40
0.605626331970861
40
0.605626331970861
40
0.605626331970861
40
1
40
1
40
1
40
1
41
1
10
32.9333071589407
20
20.1641366841151
30
0
41
1
10
32.7634362020701
20
20.4722303323775
30
0
41
1
10
32.5449297321927
20
20.7569978920471
30
0
41
1
10
32.02214717866
20
21.27552352603
30
0
41
1
10
31.705682155706
20
21.5078313362611
30
0
41
1
10
31.3672109243253
20
21.6936039546342
30
0
41
1
10
30.9491097403781
20
21.9230821036927
30
0
41
1
10
30.4852413582656
20
22.0878281352178
30
0
41
1
10
30.0133093326677
20
22.1757783980157
30
0
0
INSERT
5
1EB
100
AcDbEntity
8
2
62
256
6
ByLayer
370
25
48
1
60
0
100
AcDbBlockReference
2
DimnDraft3D11
10
0
20
0
30
0
41
1
42
1
43
1
50
0
210
0
220
0
230
1
0
INSERT
5
1F9
100
AcDbEntity
8
2
62
256
6
ByLayer
370
25
48
1
60
0
100
AcDbBlockReference
2
DimnDraft3D22
10
0
20
0
30
0
41
1
42
1
43
1
50
0
210
0
220
0
230
1
0
INSERT
5
207
100
AcDbEntity
8
2
62
256
6
ByLayer
370
25
48
1
60
0
100
AcDbBlockReference
2
DimnDraft3D33
10
0
20
0
30
0
41
1
42
1
43
1
50
0
210
0
220
0
230
1
0
LINE
5
72
100
AcDbEntity
8
80
62
256
6
ByLayer
370
18
48
1
60
0
100
AcDbLine
10
0
20
0
30
0
11
-5
21
0
31
0
39
0
210
0
220
0
230
1
0
LINE
5
73
100
AcDbEntity
8
1
62
256
6
ByLayer
370
18
48
1
60
0
100
AcDbLine
10
20.112554
20
24.10257
30
0
11
19.481358
21
23.99468
31
0
39
0
210
0
220
0
230
1
0
LINE
5
75
100
AcDbEntity
8
1
62
256
6
ByLayer
370
18
48
1
60
0
100
AcDbLine
10
18.824781
20
23.781753
30
0
11
17.206601
21
22.984249
31
0
39
0
210
0
220
0
230
1
0
LINE
5
76
100
AcDbEntity
8
1
62
256
6
ByLayer
370
18
48
1
60
0
100
AcDbLine
10
15.936086
20
20.716712
30
0
11
16.147324
21
18.42908
31
0
39
0
210
0
220
0
230
1
0
LINE
5
77
100
AcDbEntity
8
1
62
256
6
ByLayer
370
18
48
1
60
0
100
AcDbLine
10
17.311558
20
-8.058307
30
0
11
19.720306
21
-7.181594
31
0
39
0
210
0
220
0
230
1
0
LINE
5
78
100
AcDbEntity
8
1
62
256
6
ByLayer
370
18
48
1
60
0
100
AcDbLine
10
19.720306
20
-7.181594
30
0
11
19.809956
21
-6.989337
31
0
39
0
210
0
220
0
230
1
0
LINE
5
79
100
AcDbEntity
8
1
62
256
6
ByLayer
370
18
48
1
60
0
100
AcDbLine
10
18.783896
20
-4.17026
30
0
11
18.591639
21
-4.080609
31
0
39
0
210
0
220
0
230
1
0
LINE
5
7A
100
AcDbEntity
8
1
62
256
6
ByLayer
370
18
48
1
60
0
100
AcDbLine
10
26.865252
20
18.253057
30
0
11
27.086675
21
18.474481
31
0
39
0
210
0
220
0
230
1
0
LINE
5
7B
100
AcDbEntity
8
1
62
256
6
ByLayer
370
18
48
1
60
0
100
AcDbLine
10
29.36222
20
17.723165
30
0
11
29.140797
21
17.501742
31
0
39
0
210
0
220
0
230
1
0
LINE
5
7C
100
AcDbEntity
8
1
62
256
6
ByLayer
370
18
48
1
60
0
100
AcDbLine
10
30.728121
20
14.945642
30
0
11
30.967573
21
15.185095
31
0
39
0
210
0
220
0
230
1
0
LINE
5
7D
100
AcDbEntity
8
1
62
256
6
ByLayer
370
18
48
1
60
0
100
AcDbLine
10
25.310719
20
20.841949
30
0
11
25.071266
21
20.602496
31
0
39
0
210
0
220
0
230
1
0
LINE
5
7E
100
AcDbEntity
8
1
62
256
6
ByLayer
370
18
48
1
60
0
100
AcDbLine
10
0.3
20
20
30
0
11
0
21
19.7
31
0
39
0
210
0
220
0
230
1
0
LINE
5
7F
100
AcDbEntity
8
1
62
256
6
ByLayer
370
18
48
1
60
0
100
AcDbLine
10
0
20
-19.7
30
0
11
0.3
21
-20
31
0
39
0
210
0
220
0
230
1
0
LINE
5
80
100
AcDbEntity
8
1
62
256
6
ByLayer
370
18
48
1
60
0
100
AcDbLine
10
0.3
20
-20
30
0
11
11.316217
21
-20
31
0
39
0
210
0
220
0
230
1
0
LINE
5
81
100
AcDbEntity
8
1
62
256
6
ByLayer
370
18
48
1
60
0
100
AcDbLine
10
16.002133
20
20
30
0
11
0.3
21
20
31
0
39
0
210
0
220
0
230
1
0
LINE
5
82
100
AcDbEntity
8
1
62
256
6
ByLayer
370
18
48
1
60
0
100
AcDbLine
10
23.166697
20
20.238642
30
0
11
23.71941
21
20.511041
31
0
39
0
210
0
220
0
230
1
0
LINE
5
83
100
AcDbEntity
8
1
62
256
6
ByLayer
370
18
48
1
60
0
100
AcDbLine
10
28.06964
20
16.821323
30
0
11
27.885094
21
16.636778
31
0
39
0
210
0
220
0
230
1
0
LINE
5
84
100
AcDbEntity
8
1
62
256
6
ByLayer
370
18
48
1
60
0
100
AcDbLine
10
28.157832
20
19.154899
30
0
11
28.379255
21
19.376322
31
0
39
0
210
0
220
0
230
1
0
LINE
5
85
100
AcDbEntity
8
1
62
256
6
ByLayer
370
18
48
1
60
0
100
AcDbLine
10
18.591639
20
-4.080609
30
0
11
16.421132
21
-4.870609
31
0
39
0
210
0
220
0
230
1
0
LINE
5
86
100
AcDbEntity
8
1
62
256
6
ByLayer
370
18
48
1
60
0
100
AcDbLine
10
16.885124
20
-7.983115
30
0
11
17.311558
21
-8.058307
31
0
39
0
210
0
220
0
230
1
0
LINE
5
87
100
AcDbEntity
8
4
62
256
6
ByLayer
370
18
48
0.05
60
0
100
AcDbLine
10
0
20
0
30
0
11
42
21
0
31
0
39
0
210
0
220
0
230
1
0
LINE
5
89
100
AcDbEntity
8
81
62
256
6
ByLayer
370
18
48
1
60
0
100
AcDbLine
10
42
20
27
30
0
11
52
21
27
31
0
39
0
210
0
220
0
230
1
0
LINE
5
8A
100
AcDbEntity
8
SK4
62
256
6
ByLayer
370
18
48
0.05
60
0
100
AcDbLine
10
-29
20
0
30
0
11
42
21
0
31
0
39
0
210
0
220
0
230
1
0
LINE
5
8C
100
AcDbEntity
8
1
62
256
6
ByLayer
370
18
48
1
60
0
100
AcDbLine
10
37.576067
20
23.230412
30
0
11
41.117023
21
26.771369
31
0
39
0
210
0
220
0
230
1
0
LINE
5
8D
100
AcDbEntity
8
1
62
256
6
ByLayer
370
18
48
1
60
0
100
AcDbLine
10
41.198956
20
10.015322
30
0
11
38.23549
21
12.978789
31
0
39
0
210
0
220
0
230
1
0
LINE
5
8E
100
AcDbEntity
8
1
62
256
6
ByLayer
370
18
48
1
60
0
100
AcDbLine
10
41.154662
20
9.971027
30
0
11
41.198956
21
10.015322
31
0
39
0
210
0
220
0
230
1
0
LINE
5
8F
100
AcDbEntity
8
1
62
256
6
ByLayer
370
18
48
1
60
0
100
AcDbLine
10
26.355813
20
21.838323
30
0
11
27.317733
21
21.916278
31
0
39
0
210
0
220
0
230
1
0
LINE
5
90
100
AcDbEntity
8
1
62
256
6
ByLayer
370
18
48
1
60
0
100
AcDbLine
10
28.245374
20
21.991455
30
0
11
28.383375
21
22.002639
31
0
39
0
210
0
220
0
230
1
0
LINE
5
91
100
AcDbEntity
8
1
62
256
6
ByLayer
370
18
48
1
60
0
100
AcDbLine
10
44.492155
20
16.890076
30
0
11
44.148638
21
16.434091
31
0
39
0
210
0
220
0
230
1
0
LINE
5
92
100
AcDbEntity
8
1
62
256
6
ByLayer
370
18
48
1
60
0
100
AcDbLine
10
41.078577
20
14.920874
30
0
11
40.352625
21
14.585055
31
0
39
0
210
0
220
0
230
1
0
LINE
5
93
100
AcDbEntity
8
1
62
256
6
ByLayer
370
18
48
1
60
0
100
AcDbLine
10
39.27578
20
24.930129
30
0
11
39.027393
21
24.908397
31
0
39
0
210
0
220
0
230
1
0
LINE
5
94
100
AcDbEntity
8
1
62
256
6
ByLayer
370
18
48
1
60
0
100
AcDbLine
10
17.000935
20
12.098415
30
0
11
18.136665
21
12.658148
31
0
39
0
210
0
220
0
230
1
0
LINE
5
95
100
AcDbEntity
8
1
62
256
6
ByLayer
370
18
48
1
60
0
100
AcDbLine
10
16.177418
20
18.418788
30
0
11
16.005876
21
20.276537
31
0
39
0
210
0
220
0
230
1
0
LINE
5
96
100
AcDbEntity
8
1
62
256
6
ByLayer
370
18
48
1
60
0
100
AcDbLine
10
39.631127
20
22.398645
30
0
11
40.407632
21
22.186981
31
0
39
0
210
0
220
0
230
1
0
LINE
5
97
100
AcDbEntity
8
1
62
256
6
ByLayer
370
18
48
1
60
0
100
AcDbLine
10
44.111893
20
21.00818
30
0
11
43.704119
21
21.248085
31
0
39
0
210
0
220
0
230
1
0
LINE
5
98
100
AcDbEntity
8
1
62
256
6
ByLayer
370
18
48
1
60
0
100
AcDbLine
10
16.605452
20
-9.880252
30
0
11
16.809279
21
-10.440263
31
0
39
0
210
0
220
0
230
1
0
LINE
5
99
100
AcDbEntity
8
1
62
256
6
ByLayer
370
18
48
1
60
0
100
AcDbLine
10
16.809279
20
-10.440263
30
0
11
16.743651
21
-10.46415
31
0
39
0
210
0
220
0
230
1
0
LINE
5
9A
100
AcDbEntity
8
1
62
256
6
ByLayer
370
18
48
1
60
0
100
AcDbLine
10
16.594223
20
-8.193975
30
0
11
16.393729
21
-7.643123
31
0
39
0
210
0
220
0
230
1
0
LINE
5
9B
100
AcDbEntity
8
1
62
256
6
ByLayer
370
18
48
1
60
0
100
AcDbLine
10
16.885124
20
-7.983115
30
0
11
16.393733
21
-6.63303
31
0
39
0
210
0
220
0
230
1
0
LINE
5
9C
100
AcDbEntity
8
1
62
256
6
ByLayer
370
18
48
1
60
0
100
AcDbLine
10
16.747225
20
-6.507814
30
0
11
17.311558
21
-8.058307
31
0
39
0
210
0
220
0
230
1
0
LINE
5
9D
100
AcDbEntity
8
1
62
256
6
ByLayer
370
18
48
1
60
0
100
AcDbLine
10
16.403622
20
-5.563773
30
0
11
16.747225
21
-6.507814
31
0
39
0
210
0
220
0
230
1
0
LINE
5
9E
100
AcDbEntity
8
1
62
256
6
ByLayer
370
18
48
1
60
0
100
AcDbLine
10
18.591639
20
-4.080609
30
0
11
19.720306
21
-7.181594
31
0
39
0
210
0
220
0
230
1
0
LINE
5
9F
100
AcDbEntity
8
1
62
256
6
ByLayer
370
18
48
1
60
0
100
AcDbLine
10
19.296926
20
-5.579799
30
0
11
19.809956
21
-6.989337
31
0
39
0
210
0
220
0
230
1
0
LINE
5
A0
100
AcDbEntity
8
1
62
256
6
ByLayer
370
18
48
1
60
0
100
AcDbLine
10
18.783896
20
-4.17026
30
0
11
19.296926
21
-5.579799
31
0
39
0
210
0
220
0
230
1
0
LINE
5
A1
100
AcDbEntity
8
1
62
256
6
ByLayer
370
18
48
1
60
0
100
AcDbLine
10
27.913993
20
16.654199
30
0
11
28.017498
21
16.757704
31
0
39
0
210
0
220
0
230
1
0
LINE
5
A2
100
AcDbEntity
8
1
62
256
6
ByLayer
370
18
48
1
60
0
100
AcDbLine
10
30.728121
20
14.945642
30
0
11
30.728258
21
14.945779
31
0
39
0
210
0
220
0
230
1
0
LINE
5
A3
100
AcDbEntity
8
1
62
256
6
ByLayer
370
18
48
1
60
0
100
AcDbLine
10
41.078594
20
14.920883
30
0
11
39.967472
21
14.370991
31
0
39
0
210
0
220
0
230
1
0
LINE
5
A4
100
AcDbEntity
8
1
62
256
6
ByLayer
370
18
48
1
60
0
100
AcDbLine
10
43.555056
20
15.730793
30
0
11
43.332574
21
15.990473
31
0
39
0
210
0
220
0
230
1
0
LINE
5
A5
100
AcDbEntity
8
1
62
256
6
ByLayer
370
18
48
1
60
0
100
AcDbLine
10
42.983464
20
21.920945
30
0
11
42.822249
21
21.517125
31
0
39
0
210
0
220
0
230
1
0
LINE
5
A6
100
AcDbEntity
8
1
62
256
6
ByLayer
370
18
48
1
60
0
100
AcDbLine
10
40.407651
20
22.186975
30
0
11
39.212573
21
22.546296
31
0
39
0
210
0
220
0
230
1
0
LINE
5
A7
100
AcDbEntity
8
1
62
256
6
ByLayer
370
18
48
1
60
0
100
AcDbLine
10
0.3
20
-20
30
0
11
0.3
21
20
31
0
39
0
210
0
220
0
230
1
0
LINE
5
A8
100
AcDbEntity
8
1
62
256
6
ByLayer
370
18
48
1
60
0
100
AcDbLine
10
0
20
-19.7
30
0
11
0
21
19.7
31
0
39
0
210
0
220
0
230
1
0
LINE
5
A9
100
AcDbEntity
8
1
62
256
6
ByLayer
370
18
48
1
60
0
100
AcDbLine
10
16.567907
20
-14.74831
30
0
11
11.316217
21
-20
31
0
39
0
210
0
220
0
230
1
0
LINE
5
AA
100
AcDbEntity
8
SK1
62
256
6
ByLayer
370
18
48
1
60
0
100
AcDbLine
10
-0.2
20
5.703176
30
0
11
-0.2
21
14.083485
31
0
39
0
210
0
220
0
230
1
0
LINE
5
AC
100
AcDbEntity
8
SK1
62
256
6
ByLayer
370
18
48
1
60
0
100
AcDbLine
10
-0.2
20
-14.083485
30
0
11
-0.2
21
-5.703176
31
0
39
0
210
0
220
0
230
1
0
LINE
5
AD
100
AcDbEntity
8
1
62
256
6
ByLayer
370
18
48
1
60
0
100
AcDbLine
10
16.809278
20
-10.440259
30
0
11
16.815887
21
-10.458416
31
0
39
0
210
0
220
0
230
1
0
LINE
5
AE
100
AcDbEntity
8
1
62
256
6
ByLayer
370
18
48
1
60
0
100
AcDbLine
10
17.357044
20
-11.945234
30
0
11
17.357044
21
-8.041768
31
0
39
0
210
0
220
0
230
1
0
LINE
5
AF
100
AcDbEntity
8
1
62
256
6
ByLayer
370
18
48
1
60
0
100
AcDbLine
10
13.185275
20
19.286184
30
0
11
13.157236
21
19.589839
31
0
39
0
210
0
220
0
230
1
0
LINE
5
B0
100
AcDbEntity
8
1
62
256
6
ByLayer
370
18
48
1
60
0
100
AcDbLine
10
39.027393
20
24.908397
30
0
11
37.386736
21
23.282136
31
0
39
0
210
0
220
0
230
1
0
LINE
5
B1
100
AcDbEntity
8
1
62
256
6
ByLayer
370
18
48
1
60
0
100
AcDbLine
10
41.159537
20
9.84332
30
0
11
38.090964
21
12.911894
31
0
39
0
210
0
220
0
230
1
0
LINE
5
B2
100
AcDbEntity
8
1
62
256
6
ByLayer
370
18
48
1
60
0
100
AcDbLine
10
24.065697
20
9.8209
30
0
11
24.237004
21
7.965699
31
0
39
0
210
0
220
0
230
1
0
LINE
5
B3
100
AcDbEntity
8
1
62
256
6
ByLayer
370
18
48
1
60
0
100
AcDbLine
10
39.027393
20
24.908397
30
0
11
33.26896
21
24.4046
31
0
39
0
210
0
220
0
230
1
0
LINE
5
B4
100
AcDbEntity
8
1
62
256
6
ByLayer
370
18
48
1
60
0
100
AcDbLine
10
38.104013
20
12.917887
30
0
11
38.830476
21
12.191423
31
0
39
0
210
0
220
0
230
1
0
LINE
5
B5
100
AcDbEntity
8
1
62
256
6
ByLayer
370
18
48
1
60
0
100
AcDbLine
10
9.336603
20
-19.024574
30
0
11
9.336603
21
-6.16973
31
0
39
0
210
0
220
0
230
1
0
LINE
5
B6
100
AcDbEntity
8
1
62
256
6
ByLayer
370
18
48
1
60
0
100
AcDbLine
10
6.663397
20
-19.024574
30
0
11
6.663397
21
-6.16973
31
0
39
0
210
0
220
0
230
1
0
LINE
5
B7
100
AcDbEntity
8
1
62
256
6
ByLayer
370
18
48
1
60
0
100
AcDbLine
10
21.065143
20
4.434036
30
0
11
21.065143
21
-10.251074
31
0
39
0
210
0
220
0
230
1
0
LINE
5
B8
100
AcDbEntity
8
1
62
256
6
ByLayer
370
18
48
1
60
0
100
AcDbLine
10
21.065143
20
-10.251074
30
0
11
17.080365
21
-14.235853
31
0
39
0
210
0
220
0
230
1
0
LINE
5
B9
100
AcDbEntity
8
1
62
256
6
ByLayer
370
18
48
1
60
0
100
AcDbLine
10
17.357044
20
-11.945234
30
0
11
17.080365
21
-11.185063
31
0
39
0
210
0
220
0
230
1
0
LINE
5
BA
100
AcDbEntity
8
1
62
256
6
ByLayer
370
18
48
1
60
0
100
AcDbLine
10
24.237004
20
7.965699
30
0
11
23.532808
21
7.849148
31
0
39
0
210
0
220
0
230
1
0
LINE
5
BB
100
AcDbEntity
8
1
62
256
6
ByLayer
370
18
48
1
60
0
100
AcDbLine
10
17.080365
20
-11.185063
30
0
11
16.815887
21
-10.458416
31
0
39
0
210
0
220
0
230
1
0
LINE
5
BC
100
AcDbEntity
8
1
62
256
6
ByLayer
370
18
48
1
60
0
100
AcDbLine
10
17.080365
20
5.73454
30
0
11
17.080365
21
-3.187521
31
0
39
0
210
0
220
0
230
1
0
LINE
5
BD
100
AcDbEntity
8
1
62
256
6
ByLayer
370
18
48
1
60
0
100
AcDbLine
10
17.080365
20
-14.235853
30
0
11
16.567907
21
-14.74831
31
0
39
0
210
0
220
0
230
1
0
LINE
5
BE
100
AcDbEntity
8
1
62
256
6
ByLayer
370
18
48
1
60
0
100
AcDbLine
10
9.076795
20
-5.85989
30
0
11
6.923205
21
-5.85989
31
0
39
0
210
0
220
0
230
1
0
LINE
5
BF
100
AcDbEntity
8
1
62
256
6
ByLayer
370
18
48
1
60
0
100
AcDbLine
10
6.923205
20
-19.122283
30
0
11
6.923205
21
-5.85989
31
0
39
0
210
0
220
0
230
1
0
LINE
5
C0
100
AcDbEntity
8
1
62
256
6
ByLayer
370
18
48
1
60
0
100
AcDbLine
10
6.923205
20
-19.122283
30
0
11
9.076795
21
-19.122283
31
0
39
0
210
0
220
0
230
1
0
LINE
5
C1
100
AcDbEntity
8
1
62
256
6
ByLayer
370
18
48
1
60
0
100
AcDbLine
10
9.076795
20
5.85989
30
0
11
9.076795
21
19.122283
31
0
39
0
210
0
220
0
230
1
0
LINE
5
C2
100
AcDbEntity
8
1
62
256
6
ByLayer
370
18
48
1
60
0
100
AcDbLine
10
17.080365
20
-11.185063
30
0
11
17.080365
21
-14.235853
31
0
39
0
210
0
220
0
230
1
0
LINE
5
C3
100
AcDbEntity
8
1
62
256
6
ByLayer
370
18
48
1
60
0
100
AcDbLine
10
41.220963
20
9.904746
30
0
11
39.476601
21
11.649108
31
0
39
0
210
0
220
0
230
1
0
LINE
5
C4
100
AcDbEntity
8
1
62
256
6
ByLayer
370
18
48
1
60
0
100
AcDbLine
10
16.605465
20
-9.880287
30
0
11
16.393699
21
-9.298465
31
0
39
0
210
0
220
0
230
1
0
LINE
5
C5
100
AcDbEntity
8
1
62
256
6
ByLayer
370
18
48
1
60
0
100
AcDbLine
10
9.076795
20
-19.122283
30
0
11
9.076795
21
-5.85989
31
0
39
0
210
0
220
0
230
1
0
LINE
5
C6
100
AcDbEntity
8
1
62
256
6
ByLayer
370
18
48
1
60
0
100
AcDbLine
10
6.923205
20
5.85989
30
0
11
6.923205
21
19.122283
31
0
39
0
210
0
220
0
230
1
0
LINE
5
C7
100
AcDbEntity
8
1
62
256
6
ByLayer
370
18
48
1
60
0
100
AcDbLine
10
16.393699
20
-6.636487
30
0
11
16.393699
21
-9.298465
31
0
39
0
210
0
220
0
230
1
0
LINE
5
C8
100
AcDbEntity
8
1
62
256
6
ByLayer
370
18
48
1
60
0
100
AcDbLine
10
23.921486
20
6.352137
30
0
11
30.79492
21
-0.521298
31
0
39
0
210
0
220
0
230
1
0
LINE
5
C9
100
AcDbEntity
8
1
62
256
6
ByLayer
370
18
48
1
60
0
100
AcDbLine
10
36.873948
20
14.251761
30
0
11
35.197426
21
15.928283
31
0
39
0
210
0
220
0
230
1
0
LINE
5
CA
100
AcDbEntity
8
1
62
256
6
ByLayer
370
18
48
1
60
0
100
AcDbLine
10
6.923205
20
5.85989
30
0
11
9.076795
21
5.85989
31
0
39
0
210
0
220
0
230
1
0
LINE
5
CB
100
AcDbEntity
8
1
62
256
6
ByLayer
370
18
48
1
60
0
100
AcDbLine
10
17.008329
20
18.115701
30
0
11
16.99584
21
7.966611
31
0
39
0
210
0
220
0
230
1
0
LINE
5
CC
100
AcDbEntity
8
1
62
256
6
ByLayer
370
18
48
1
60
0
100
AcDbLine
10
9.076795
20
19.122283
30
0
11
6.923205
21
19.122283
31
0
39
0
210
0
220
0
230
1
0
LINE
5
CD
100
AcDbEntity
8
1
62
256
6
ByLayer
370
18
48
1
60
0
100
AcDbLine
10
6.663397
20
6.16973
30
0
11
6.663397
21
19.024574
31
0
39
0
210
0
220
0
230
1
0
LINE
5
CE
100
AcDbEntity
8
1
62
256
6
ByLayer
370
18
48
1
60
0
100
AcDbLine
10
30.79492
20
-0.521298
30
0
11
21.065143
21
-10.251074
31
0
39
0
210
0
220
0
230
1
0
LINE
5
CF
100
AcDbEntity
8
1
62
256
6
ByLayer
370
18
48
1
60
0
100
AcDbLine
10
9.336603
20
6.16973
30
0
11
9.336603
21
19.024574
31
0
39
0
210
0
220
0
230
1
0
LINE
5
D0
100
AcDbEntity
8
1
62
256
6
ByLayer
370
18
48
1
60
0
100
AcDbLine
10
41.220963
20
9.904746
30
0
11
41.159537
21
9.84332
31
0
39
0
210
0
220
0
230
1
0
LINE
5
D1
100
AcDbEntity
8
1
62
256
6
ByLayer
370
18
48
1
60
0
100
AcDbLine
10
30.79492
20
-0.521298
30
0
11
41.159537
21
9.84332
31
0
39
0
210
0
220
0
230
1
0
LINE
5
D2
100
AcDbEntity
8
SK1
62
256
6
ByLayer
370
18
48
1
60
0
100
AcDbLine
10
-1.307107
20
-3.627816
30
0
11
-1.307107
21
3.627817
31
0
39
0
210
0
220
0
230
1
0
LINE
5
D3
100
AcDbEntity
8
1
62
256
6
ByLayer
370
18
48
1
60
0
100
AcDbLine
10
41.534649
20
9.228482
30
0
11
42.316026
21
10.00986
31
0
39
0
210
0
220
0
230
1
0
LINE
5
D4
100
AcDbEntity
8
1
62
256
6
ByLayer
370
18
48
1
60
0
100
AcDbLine
10
50.09728
20
17.791113
30
0
11
42.316026
21
10.00986
31
0
39
0
210
0
220
0
230
1
0
LINE
5
D5
100
AcDbEntity
8
1
62
256
6
ByLayer
370
18
48
1
60
0
100
AcDbLine
10
29.26975
20
18.357369
30
0
11
29.491173
21
18.578792
31
0
39
0
210
0
220
0
230
1
0
LINE
5
D6
100
AcDbEntity
8
1
62
256
6
ByLayer
370
18
48
1
60
0
100
AcDbLine
10
28.888919
20
18.899329
30
0
11
29.110342
21
19.120752
31
0
39
0
210
0
220
0
230
1
0
LINE
5
D7
100
AcDbEntity
8
1
62
256
6
ByLayer
370
18
48
1
60
0
100
AcDbLine
10
27.55341
20
19.164264
30
0
11
27.774833
21
19.385687
31
0
39
0
210
0
220
0
230
1
0
LINE
5
D8
100
AcDbEntity
8
1
62
256
6
ByLayer
370
18
48
1
60
0
100
AcDbLine
10
26.667515
20
18.142335
30
0
11
26.888938
21
18.363758
31
0
39
0
210
0
220
0
230
1
0
LINE
5
D9
100
AcDbEntity
8
1
62
256
6
ByLayer
370
18
48
1
60
0
100
AcDbLine
10
29.062801
20
17.01625
30
0
11
29.284224
21
17.237673
31
0
39
0
210
0
220
0
230
1
0
LINE
5
DA
100
AcDbEntity
8
1
62
256
6
ByLayer
370
18
48
1
60
0
100
AcDbLine
10
21.300543
20
13.198947
30
0
11
18.136665
21
12.658148
31
0
39
0
210
0
220
0
230
1
0
LINE
5
DB
100
AcDbEntity
8
1
62
256
6
ByLayer
370
18
48
1
60
0
100
AcDbLine
10
21.998174
20
9.436121
30
0
11
24.231718
21
9.851767
31
0
39
0
210
0
220
0
230
1
0
LINE
5
DC
100
AcDbEntity
8
1
62
256
6
ByLayer
370
18
48
1
60
0
100
AcDbLine
10
18.136665
20
12.658148
30
0
11
17.371064
21
20.949356
31
0
39
0
210
0
220
0
230
1
0
LINE
5
DD
100
AcDbEntity
8
1
62
256
6
ByLayer
370
18
48
1
60
0
100
AcDbLine
10
20.114687
20
14.587981
30
0
11
21.155848
21
14.765946
31
0
39
0
210
0
220
0
230
1
0
LINE
5
DE
100
AcDbEntity
8
1
62
256
6
ByLayer
370
18
48
1
60
0
100
AcDbLine
10
20.679636
20
19.923157
30
0
11
20.534941
21
21.490156
31
0
39
0
210
0
220
0
230
1
0
LINE
5
DF
100
AcDbEntity
8
1
62
256
6
ByLayer
370
18
48
1
60
0
100
AcDbLine
10
30.570915
20
10.632113
30
0
11
21.84743
21
9.911255
31
0
39
0
210
0
220
0
230
1
0
LINE
5
E0
100
AcDbEntity
8
1
62
256
6
ByLayer
370
18
48
1
60
0
100
AcDbLine
10
31.218226
20
10.672773
30
0
11
33.051306
21
10.580567
31
0
39
0
210
0
220
0
230
1
0
LINE
5
E1
100
AcDbEntity
8
1
62
256
6
ByLayer
370
18
48
1
60
0
100
AcDbLine
10
37.766002
20
23.178774
30
0
11
31.73623
21
24.822404
31
0
39
0
210
0
220
0
230
1
0
LINE
5
E2
100
AcDbEntity
8
1
62
256
6
ByLayer
370
18
48
1
60
0
100
AcDbLine
10
19.638476
20
19.745192
30
0
11
20.679636
21
19.923157
31
0
39
0
210
0
220
0
230
1
0
LINE
5
E3
100
AcDbEntity
8
1
62
256
6
ByLayer
370
18
48
1
60
0
100
AcDbLine
10
38.0734
20
22.800616
30
0
11
39.10925
21
22.518258
31
0
39
0
210
0
220
0
230
1
0
LINE
5
E4
100
AcDbEntity
8
1
62
256
6
ByLayer
370
18
48
1
60
0
100
AcDbLine
10
19.967466
20
23.544451
30
0
11
29.520697
21
24.333875
31
0
39
0
210
0
220
0
230
1
0
LINE
5
E5
100
AcDbEntity
8
1
62
256
6
ByLayer
370
18
48
1
60
0
100
AcDbLine
10
24.231718
20
9.851767
30
0
11
33.051306
21
10.580567
31
0
39
0
210
0
220
0
230
1
0
LINE
5
E6
100
AcDbEntity
8
1
62
256
6
ByLayer
370
18
48
1
60
0
100
AcDbLine
10
20.534941
20
21.490156
30
0
11
17.371064
21
20.949356
31
0
39
0
210
0
220
0
230
1
0
LINE
5
E7
100
AcDbEntity
8
1
62
256
6
ByLayer
370
18
48
1
60
0
100
AcDbLine
10
33.051306
20
10.580567
30
0
11
38.688513
21
13.188289
31
0
39
0
210
0
220
0
230
1
0
LINE
5
E8
100
AcDbEntity
8
1
62
256
6
ByLayer
370
18
48
1
60
0
100
AcDbLine
10
29.608031
20
13.999885
30
0
11
27.572595
21
13.831688
31
0
39
0
210
0
220
0
230
1
0
LINE
5
E9
100
AcDbEntity
8
1
62
256
6
ByLayer
370
18
48
1
60
0
100
AcDbLine
10
26.812488
20
22.063391
30
0
11
28.847924
21
22.231587
31
0
39
0
210
0
220
0
230
1
0
LINE
5
EA
100
AcDbEntity
8
1
62
256
6
ByLayer
370
18
48
1
60
0
100
AcDbLine
10
21.84743
20
9.911255
30
0
11
21.113107
21
9.785737
31
0
39
0
210
0
220
0
230
1
0
LINE
5
EB
100
AcDbEntity
8
1
62
256
6
ByLayer
370
18
48
1
60
0
100
AcDbLine
10
19.638476
20
19.745192
30
0
11
20.114687
21
14.587981
31
0
39
0
210
0
220
0
230
1
0
LINE
5
EC
100
AcDbEntity
8
1
62
256
6
ByLayer
370
18
48
1
60
0
100
AcDbLine
10
39.883514
20
14.414714
30
0
11
39.858093
21
14.408536
31
0
39
0
210
0
220
0
230
1
0
LINE
5
ED
100
AcDbEntity
8
1
62
256
6
ByLayer
370
18
48
1
60
0
100
AcDbLine
10
26.812488
20
22.063391
30
0
11
26.355813
21
21.838323
31
0
39
0
210
0
220
0
230
1
0
LINE
5
EE
100
AcDbEntity
8
1
62
256
6
ByLayer
370
18
48
1
60
0
100
AcDbLine
10
39.858093
20
14.408536
30
0
11
38.889681
21
13.960557
31
0
39
0
210
0
220
0
230
1
0
LINE
5
EF
100
AcDbEntity
8
1
62
256
6
ByLayer
370
18
48
1
60
0
100
AcDbLine
10
29.90315
20
24.91461
30
0
11
31.73623
21
24.822404
31
0
39
0
210
0
220
0
230
1
0
LINE
5
F0
100
AcDbEntity
8
1
62
256
6
ByLayer
370
18
48
1
60
0
100
AcDbLine
10
21.300543
20
13.198947
30
0
11
21.155848
21
14.765946
31
0
39
0
210
0
220
0
230
1
0
LINE
5
F1
100
AcDbEntity
8
1
62
256
6
ByLayer
370
18
48
1
60
0
100
AcDbLine
10
20.532354
20
24.153091
30
0
11
29.255839
21
24.87395
31
0
39
0
210
0
220
0
230
1
0
LINE
5
F2
100
AcDbEntity
8
1
62
256
6
ByLayer
370
18
48
1
60
0
100
AcDbLine
10
21.146454
20
10.776392
30
0
11
30.699686
21
11.565816
31
0
39
0
210
0
220
0
230
1
0
LINE
5
F3
100
AcDbEntity
8
1
62
256
6
ByLayer
370
18
48
1
60
0
100
AcDbLine
10
22.601855
20
20.191635
30
0
11
22.100914
21
19.944751
31
0
39
0
210
0
220
0
230
1
0
LINE
5
F4
100
AcDbEntity
8
1
62
256
6
ByLayer
370
18
48
1
60
0
100
AcDbLine
10
16.005876
20
20.276537
30
0
11
17.371064
21
20.949356
31
0
39
0
210
0
220
0
230
1
0
LINE
5
F5
100
AcDbEntity
8
1
62
256
6
ByLayer
370
18
48
1
60
0
100
AcDbLine
10
28.847924
20
22.231587
30
0
11
28.383375
21
22.002639
31
0
39
0
210
0
220
0
230
1
0
LINE
5
F6
100
AcDbEntity
8
1
62
256
6
ByLayer
370
18
48
1
60
0
100
AcDbLine
10
19.679242
20
9.079072
30
0
11
21.113107
21
9.785737
31
0
39
0
210
0
220
0
230
1
0
LINE
5
F7
100
AcDbEntity
8
1
62
256
6
ByLayer
370
18
48
1
60
0
100
AcDbLine
10
22.100914
20
19.944751
30
0
11
19.638476
21
19.745192
31
0
39
0
210
0
220
0
230
1
0
LINE
5
F8
100
AcDbEntity
8
1
62
256
6
ByLayer
370
18
48
1
60
0
100
AcDbLine
10
39.10925
20
22.518258
30
0
11
39.135684
21
22.513471
31
0
39
0
210
0
220
0
230
1
0
LINE
5
F9
100
AcDbEntity
8
1
62
256
6
ByLayer
370
18
48
1
60
0
100
AcDbLine
10
40.909102
20
14.294735
30
0
11
40.762445
21
14.348735
31
0
39
0
210
0
220
0
230
1
0
LINE
5
FA
100
AcDbEntity
8
1
62
256
6
ByLayer
370
18
48
1
60
0
100
AcDbLine
10
40.114384
20
22.901273
30
0
11
39.979845
21
22.824037
31
0
39
0
210
0
220
0
230
1
0
LINE
5
FB
100
AcDbEntity
8
1
62
256
6
ByLayer
370
18
48
1
60
0
100
AcDbLine
10
42.237686
20
14.404521
30
0
11
42.186659
21
13.182934
31
0
39
0
210
0
220
0
230
1
0
LINE
5
FC
100
AcDbEntity
8
1
62
256
6
ByLayer
370
18
48
1
60
0
100
AcDbLine
10
40.762445
20
14.348735
30
0
11
43.555056
21
15.730793
31
0
39
0
210
0
220
0
230
1
0
LINE
5
FD
100
AcDbEntity
8
1
62
256
6
ByLayer
370
18
48
1
60
0
100
AcDbLine
10
40.457802
20
13.040071
30
0
11
40.909102
21
14.294735
31
0
39
0
210
0
220
0
230
1
0
LINE
5
FE
100
AcDbEntity
8
1
62
256
6
ByLayer
370
18
48
1
60
0
100
AcDbLine
10
39.869716
20
13.256607
30
0
11
40.457802
21
13.040071
31
0
39
0
210
0
220
0
230
1
0
LINE
5
FF
100
AcDbEntity
8
1
62
256
6
ByLayer
370
18
48
1
60
0
100
AcDbLine
10
40.461922
20
14.352252
30
0
11
40.762445
21
14.348735
31
0
39
0
210
0
220
0
230
1
0
LINE
5
100
100
AcDbEntity
8
1
62
256
6
ByLayer
370
18
48
1
60
0
100
AcDbLine
10
44.569094
20
14.550645
30
0
11
42.186659
21
13.182934
31
0
39
0
210
0
220
0
230
1
0
LINE
5
101
100
AcDbEntity
8
1
62
256
6
ByLayer
370
18
48
1
60
0
100
AcDbLine
10
41.442967
20
23.011059
30
0
11
40.114384
21
22.901273
31
0
39
0
210
0
220
0
230
1
0
LINE
5
102
100
AcDbEntity
8
1
62
256
6
ByLayer
370
18
48
1
60
0
100
AcDbLine
10
39.979845
20
22.824037
30
0
11
42.983464
21
21.920945
31
0
39
0
210
0
220
0
230
1
0
LINE
5
103
100
AcDbEntity
8
1
62
256
6
ByLayer
370
18
48
1
60
0
100
AcDbLine
10
40.114384
20
22.901273
30
0
11
39.496221
21
23.45367
31
0
39
0
210
0
220
0
230
1
0
LINE
5
104
100
AcDbEntity
8
1
62
256
6
ByLayer
370
18
48
1
60
0
100
AcDbLine
10
41.225078
20
23.596533
30
0
11
39.496221
21
23.45367
31
0
39
0
210
0
220
0
230
1
0
LINE
5
105
100
AcDbEntity
8
1
62
256
6
ByLayer
370
18
48
1
60
0
100
AcDbLine
10
43.850791
20
22.124487
30
0
11
43.822104
21
22.640296
31
0
39
0
210
0
220
0
230
1
0
LINE
5
106
100
AcDbEntity
8
1
62
256
6
ByLayer
370
18
48
1
60
0
100
AcDbLine
10
43.822104
20
22.640296
30
0
11
41.225078
21
23.596533
31
0
39
0
210
0
220
0
230
1
0
LINE
5
107
100
AcDbEntity
8
1
62
256
6
ByLayer
370
18
48
1
60
0
100
AcDbLine
10
44.446552
20
15.67259
30
0
11
42.237686
21
14.404521
31
0
39
0
210
0
220
0
230
1
0
LINE
5
108
100
AcDbEntity
8
1
62
256
6
ByLayer
370
18
48
1
60
0
100
AcDbLine
10
45.465272
20
17.137278
30
0
11
46.200178
21
16.18173
31
0
39
0
210
0
220
0
230
1
0
LINE
5
109
100
AcDbEntity
8
1
62
256
6
ByLayer
370
18
48
1
60
0
100
AcDbLine
10
44.160281
20
21.993866
30
0
11
45.122529
21
20.849069
31
0
39
0
210
0
220
0
230
1
0
LINE
5
10A
100
AcDbEntity
8
1
62
256
6
ByLayer
370
18
48
1
60
0
100
AcDbLine
10
43.850791
20
22.124487
30
0
11
41.442967
21
23.011059
31
0
39
0
210
0
220
0
230
1
0
LINE
5
10B
100
AcDbEntity
8
1
62
256
6
ByLayer
370
18
48
1
60
0
100
AcDbLine
10
41.442967
20
23.011059
30
0
11
41.225078
21
23.596533
31
0
39
0
210
0
220
0
230
1
0
LINE
5
10C
100
AcDbEntity
8
1
62
256
6
ByLayer
370
18
48
1
60
0
100
AcDbLine
10
39.979845
20
22.824037
30
0
11
39.68876
21
22.725342
31
0
39
0
210
0
220
0
230
1
0
LINE
5
10D
100
AcDbEntity
8
1
62
256
6
ByLayer
370
18
48
1
60
0
100
AcDbLine
10
40.461922
20
14.352252
30
0
11
39.869716
21
13.256607
31
0
39
0
210
0
220
0
230
1
0
LINE
5
10E
100
AcDbEntity
8
1
62
256
6
ByLayer
370
18
48
1
60
0
100
AcDbLine
10
44.446552
20
15.67259
30
0
11
44.569094
21
14.550645
31
0
39
0
210
0
220
0
230
1
0
LINE
5
10F
100
AcDbEntity
8
1
62
256
6
ByLayer
370
18
48
1
60
0
100
AcDbLine
10
38.956729
20
23.143958
30
0
11
39.496221
21
23.45367
31
0
39
0
210
0
220
0
230
1
0
LINE
5
110
100
AcDbEntity
8
1
62
256
6
ByLayer
370
18
48
1
60
0
100
AcDbLine
10
42.186659
20
13.182934
30
0
11
40.457802
21
13.040071
31
0
39
0
210
0
220
0
230
1
0
LINE
5
111
100
AcDbEntity
8
1
62
256
6
ByLayer
370
18
48
1
60
0
100
AcDbLine
10
39.68876
20
22.725342
30
0
11
38.956729
21
23.143958
31
0
39
0
210
0
220
0
230
1
0
LINE
5
112
100
AcDbEntity
8
1
62
256
6
ByLayer
370
18
48
1
60
0
100
AcDbLine
10
45.122529
20
20.849069
30
0
11
45.72743
21
21.30144
31
0
39
0
210
0
220
0
230
1
0
LINE
5
113
100
AcDbEntity
8
1
62
256
6
ByLayer
370
18
48
1
60
0
100
AcDbLine
10
42.237686
20
14.404521
30
0
11
40.909102
21
14.294735
31
0
39
0
210
0
220
0
230
1
0
LINE
5
114
100
AcDbEntity
8
1
62
256
6
ByLayer
370
18
48
1
60
0
100
AcDbLine
10
44.727414
20
15.851994
30
0
11
45.465272
21
17.137278
31
0
39
0
210
0
220
0
230
1
0
LINE
5
115
100
AcDbEntity
8
1
62
256
6
ByLayer
370
18
48
1
60
0
100
AcDbLine
10
42.234093
20
26.765907
30
0
11
50.091817
21
18.908183
31
0
39
0
210
0
220
0
230
1
0
MTEXT
5
1DA
100
AcDbEntity
8
SK6
62
256
6
ByLayer
370
18
48
1
60
0
100
AcDbMText
10
-8.462045
20
-30.875
30
0
210
0
220
0
230
1
1
\W0.7417;C4-CSSNR-27042-12-4
40
3.5
41
0
44
1.084337
50
0
71
7
72
5
7
iso_b_vert
0
DIMENSION
5
215
100
AcDbEntity
8
2
62
256
6
ByLayer
370
13
48
1
60
0
100
AcDbDimension
2
DimnDraft3D4
10
87.25
20
18.677308
30
0
11
87.25
21
4.619575
31
0
70
32
71
5
72
1
41
1
210
0
220
0
230
1
3
Standard
100
AcDbAlignedDimension
13
44
23
0
33
0
14
52.322692
24
18.677308
34
0
50
90
100
AcDbRotatedDimension
1001
ACAD
1000
DSTYLE
1002
{
1070
    74
1070
     0
1070
   279
1070
     0
1070
   172
1070
     1
1070
   173
1070
     1
1070
   340
1005
1DB
1070
    77
1070
     1
1070
    73
1070
     0
1070
   171
1070
     3
1070
   274
1070
     4
1070
   177
1070
     2
1070
   176
1070
     2
1070
   178
1070
     7
1070
    78
1070
     8
1070
    41
1041
3.175
1070
   147
1041
2.25
1070
    42
1041
2.0
1070
    44
1041
2.0
1070
   140
1041
4.5
1070
   343
1005
216
1070
   344
1005
216
1002
}
0
DIMENSION
5
22B
100
AcDbEntity
8
SK2
62
256
6
ByLayer
370
13
48
1
60
0
100
AcDbDimension
2
DimnDraft3D5
10
-31.75
20
20
30
0
11
-31.75
21
-2.925
31
0
70
32
71
5
72
1
41
1
210
0
220
0
230
1
3
Standard
100
AcDbAlignedDimension
13
-2
23
-20
33
0
14
-2
24
20
34
0
50
90
100
AcDbRotatedDimension
1001
ACAD
1000
DSTYLE
1002
{
1070
    74
1070
     0
1070
   279
1070
     0
1070
   172
1070
     1
1070
   173
1070
     1
1070
   340
1005
1DB
1070
    77
1070
     1
1070
    73
1070
     0
1070
   171
1070
     3
1070
   274
1070
     4
1070
   177
1070
     2
1070
   176
1070
     2
1070
   178
1070
     7
1070
    78
1070
     8
1070
    41
1041
3.175
1070
   147
1041
2.25
1070
    42
1041
2.0
1070
    44
1041
2.0
1070
   140
1041
4.5
1070
   343
1005
216
1070
   344
1005
216
1002
}
0
DIMENSION
5
239
100
AcDbEntity
8
2
62
256
6
ByLayer
370
13
48
1
60
0
100
AcDbDimension
2
DimnDraft3D6
10
50.322692
20
18.677308
30
0
11
60.430778
21
-5.725771
31
0
70
34
71
5
72
1
41
1
210
0
220
0
230
1
3
Standard
100
AcDb2LineAngularDimension
13
50.322692
23
18.677308
33
0
14
50.322692
24
18.348526
34
0
15
50.651474
25
18.348526
35
0
16
62.152854
26
-9.883229
36
0
40
0
0
ENDSEC
0
SECTION
2
OBJECTS
0
DICTIONARY
5
2a4
330
0
100
AcDbDictionary
280
0
281
1
3
ACAD_GROUP
350
2a5
3
ACAD_MLINESTYLE
350
2a6
0
DICTIONARY
5
2a5
330
0
100
AcDbDictionary
280
0
281
1
0
DICTIONARY
5
2a6
330
0
100
AcDbDictionary
280
0
281
1
3
Standard
350
18
0
MLINESTYLE
5
18
330
2a6
100
AcDbMlineStyle
2
Standard
70
0
3

62
256
51
90
52
90
71
2
49
-0.5
62
256
6
ByLayer
49
0.5
62
256
6
ByLayer
0
RASTERVARIABLES
5
292
330

100
AcDbRasterVariables
90
0
70
1
71
1
72
1
0
ENDSEC
0
EOF
