0
SECTION
2
HEADER
9
$ACADVER
1
AC1015
9
$DWGCODEPAGE
3
ANSI_1252
9
$HANDSEED
5
2ae
9
$ANGBASE
50
0
9
$ANGDIR
70
0
9
$ATTMODE
70
1
9
$AUNITS
70
0
9
$AUPREC
70
0
9
$CECOLOR
62
256
9
$CELTSCALE
40
1
9
$CELTYPE
6
ByLayer
9
$CELWEIGHT
370
18
9
$CLAYER
8
0
9
$CMLJUST
70
0
9
$CMLSCALE
40
1
9
$CMLSTYLE
2
Standard
9
$DIMSTYLE
2
Standard
9
$TEXTSIZE
40
0.2
9
$TEXTSTYLE
7
Standard
9
$LUNITS
70
2
9
$LUPREC
70
4
9
$EXTNAMES
290
1
9
$INSUNITS
70
4
9
$LTSCALE
40
1
9
$LWDISPLAY
290
1
9
$PDMODE
70
0
9
$PDSIZE
40
0
9
$PLINEGEN
70
0
0
ENDSEC
0
SECTION
2
CLASSES
0
CLASS
1
RASTERVARIABLES
2
AcDbRasterVariables
3
ISM
90
0
280
0
281
0
0
ENDSEC
0
SECTION
2
TABLES
0
TABLE
2
VPORT
5
2a4
100
AcDbSymbolTable
0
VPORT
5
1
100
AcDbSymbolTableRecord
100
AcDbViewportTableRecord
2
*Active
70
0
10
0
20
0
11
1
21
1
12
-1
22
1
13
0
23
0
14
0.5
24
0.5
15
10
25
10
16
0
26
0
36
1
17
0
27
0
37
0
0
ENDTAB
0
TABLE
2
LTYPE
5
2a5
100
AcDbSymbolTable
0
LTYPE
5
14
100
AcDbSymbolTableRecord
100
AcDbLinetypeTableRecord
70
0
2
ByBlock
3

72
65
73
0
40
0
0
LTYPE
5
15
100
AcDbSymbolTableRecord
100
AcDbLinetypeTableRecord
70
0
2
ByLayer
3

72
65
73
0
40
0
0
LTYPE
5
16
100
AcDbSymbolTableRecord
100
AcDbLinetypeTableRecord
70
0
2
CONTINUOUS
3
Solid line
72
65
73
0
40
0
0
LTYPE
5
6A
100
AcDbSymbolTableRecord
100
AcDbLinetypeTableRecord
70
0
2
CENTER
3
____ _ ____ _ ____ _ ____
72
65
73
4
40
47.5
49
22
74
0
49
-8.5
74
0
49
8.5
74
0
49
-8.5
74
0
0
LTYPE
5
6B
100
AcDbSymbolTableRecord
100
AcDbLinetypeTableRecord
70
0
2
DASHED
3
__ __ __ __ __ __ __ __ __
72
65
73
2
40
25.72
49
12.86
74
0
49
-12.86
74
0
0
ENDTAB
0
TABLE
2
LAYER
5
2a6
100
AcDbSymbolTable
0
LAYER
5
10
100
AcDbSymbolTableRecord
100
AcDbLayerTableRecord
2
0
70
0
62
7
6
CONTINUOUS
290
1
370
-3
390
0
0
LAYER
5
6D
100
AcDbSymbolTableRecord
100
AcDbLayerTableRecord
2
2
70
0
62
7
6
CONTINUOUS
290
1
370
-3
390
0
0
LAYER
5
6F
100
AcDbSymbolTableRecord
100
AcDbLayerTableRecord
2
80
70
0
62
-6
6
CONTINUOUS
290
1
370
-3
390
0
0
LAYER
5
71
100
AcDbSymbolTableRecord
100
AcDbLayerTableRecord
2
81
70
0
62
-3
6
CONTINUOUS
290
1
370
-3
390
0
0
LAYER
5
73
100
AcDbSymbolTableRecord
100
AcDbLayerTableRecord
2
1
70
0
62
4
6
CONTINUOUS
290
1
370
-3
390
0
0
LAYER
5
8A
100
AcDbSymbolTableRecord
100
AcDbLayerTableRecord
2
4
70
0
62
-2
6
CENTER
290
1
370
-3
390
0
0
LAYER
5
290
100
AcDbSymbolTableRecord
100
AcDbLayerTableRecord
2
SK4
70
0
62
2
6
CENTER
290
1
370
-3
390
0
0
LAYER
5
291
100
AcDbSymbolTableRecord
100
AcDbLayerTableRecord
2
SK1
70
0
62
4
6
CONTINUOUS
290
1
370
-3
390
0
0
LAYER
5
292
100
AcDbSymbolTableRecord
100
AcDbLayerTableRecord
2
SK6
70
0
62
5
6
CONTINUOUS
290
1
370
-3
390
0
0
LAYER
5
293
100
AcDbSymbolTableRecord
100
AcDbLayerTableRecord
2
SK2
70
0
62
7
6
CONTINUOUS
290
1
370
-3
390
0
0
ENDTAB
0
TABLE
2
STYLE
5
2a7
100
AcDbSymbolTable
0
STYLE
5
11
100
AcDbSymbolTableRecord
100
AcDbTextStyleTableRecord
2
Standard
3
txt
70
0
71
0
40
0
41
1
42
0
50
0
0
STYLE
5
1F4
100
AcDbSymbolTableRecord
100
AcDbTextStyleTableRecord
2
iso_b_vert
3
simplex.shx
70
0
71
0
40
0
41
1
42
0
50
0
0
STYLE
5
1F5
100
AcDbSymbolTableRecord
100
AcDbTextStyleTableRecord
2
DWGDirectTextStyle
3
simplex
70
0
71
0
40
0
41
1
42
0
50
0
0
ENDTAB
0
TABLE
2
DIMSTYLE
5
2a8
100
AcDbSymbolTable
100
AcDbDimStyleTable
0
DIMSTYLE
105
27
100
AcDbSymbolTableRecord
100
AcDbDimStyleTableRecord
2
Standard
70
0
3
<>
41
0.18
42
0.0625
44
0.18
140
0.18
147
0.09
73
0
74
0
77
1
271
2
275
0
278
52
280
0
340
11
0
ENDTAB
0
TABLE
2
VIEW
5
2a9
100
AcDbSymbolTable
0
ENDTAB
0
TABLE
2
UCS
5
2aa
100
AcDbSymbolTable
0
ENDTAB
0
TABLE
2
APPID
5
2ab
100
AcDbSymbolTable
0
APPID
5
12
100
AcDbSymbolTableRecord
100
AcDbRegAppTableRecord
2
ACAD
70
0
0
ENDTAB
0
TABLE
2
BLOCK_RECORD
5
2ac
100
AcDbSymbolTable
0
BLOCK_RECORD
5
1F
100
AcDbSymbolTableRecord
100
AcDbBlockTableRecord
2
*Model_Space
340
0
70
0
0
BLOCK_RECORD
5
1B
100
AcDbSymbolTableRecord
100
AcDbBlockTableRecord
2
*Paper_Space
340
0
70
0
0
BLOCK_RECORD
5
23
100
AcDbSymbolTableRecord
100
AcDbBlockTableRecord
2
*Paper_Space0
340
0
70
0
0
BLOCK_RECORD
5
1F7
100
AcDbSymbolTableRecord
100
AcDbBlockTableRecord
2
DimnDraft3D11
340
0
70
0
0
BLOCK_RECORD
5
205
100
AcDbSymbolTableRecord
100
AcDbBlockTableRecord
2
DimnDraft3D2
340
0
70
0
0
BLOCK_RECORD
5
213
100
AcDbSymbolTableRecord
100
AcDbBlockTableRecord
2
_CLOSED
340
0
70
0
0
BLOCK_RECORD
5
21A
100
AcDbSymbolTableRecord
100
AcDbBlockTableRecord
2
DimnDraft3D3
340
0
70
0
0
BLOCK_RECORD
5
229
100
AcDbSymbolTableRecord
100
AcDbBlockTableRecord
2
DimnDraft3D4
340
0
70
0
0
ENDTAB
0
ENDSEC
0
SECTION
2
BLOCKS
0
BLOCK
5
20
100
AcDbEntity
8
0
100
AcDbBlockBegin
2
*Model_Space
70
0
10
0
20
0
30
0
3
*Model_Space
0
ENDBLK
5
21
100
AcDbEntity
8
0
100
AcDbBlockEnd
0
BLOCK
5
1C
100
AcDbEntity
8
0
100
AcDbBlockBegin
2
*Paper_Space
70
0
10
0
20
0
30
0
3
*Paper_Space
0
ENDBLK
5
1D
100
AcDbEntity
8
0
100
AcDbBlockEnd
0
BLOCK
5
24
100
AcDbEntity
8
0
100
AcDbBlockBegin
2
*Paper_Space0
70
0
10
0
20
0
30
0
3
*Paper_Space0
0
ENDBLK
5
25
100
AcDbEntity
8
0
100
AcDbBlockEnd
0
BLOCK
5
1F8
100
AcDbEntity
8
0
100
AcDbBlockBegin
2
DimnDraft3D11
70
0
10
0
20
0
30
0
3
DimnDraft3D11
0
LINE
5
1FA
100
AcDbEntity
8
2
62
256
6
ByLayer
370
25
48
1
60
0
100
AcDbLine
10
50
20
29
30
0
11
50
21
36.75
31
0
39
0
210
0
220
0
230
1
0
LINE
5
1FB
100
AcDbEntity
8
2
62
256
6
ByLayer
370
25
48
1
60
0
100
AcDbLine
10
0
20
22
30
0
11
0
21
36.75
31
0
39
0
210
0
220
0
230
1
0
LINE
5
1FC
100
AcDbEntity
8
2
62
256
6
ByLayer
370
25
48
1
60
0
100
AcDbLine
10
50
20
34.75
30
0
11
0
21
34.75
31
0
39
0
210
0
220
0
230
1
0
LINE
5
1FD
100
AcDbEntity
8
2
62
256
6
ByLayer
370
25
48
1
60
0
100
AcDbLine
10
50
20
34.75
30
0
11
46.825002
21
34.332003
31
0
39
0
210
0
220
0
230
1
0
LINE
5
1FE
100
AcDbEntity
8
2
62
256
6
ByLayer
370
25
48
1
60
0
100
AcDbLine
10
50
20
34.75
30
0
11
46.824998
21
35.167997
31
0
39
0
210
0
220
0
230
1
0
LINE
5
1FF
100
AcDbEntity
8
2
62
256
6
ByLayer
370
25
48
1
60
0
100
AcDbLine
10
46.825002
20
34.332003
30
0
11
46.824998
21
35.167997
31
0
39
0
210
0
220
0
230
1
0
LINE
5
200
100
AcDbEntity
8
2
62
256
6
ByLayer
370
25
48
1
60
0
100
AcDbLine
10
0
20
34.75
30
0
11
3.174998
21
35.167997
31
0
39
0
210
0
220
0
230
1
0
LINE
5
201
100
AcDbEntity
8
2
62
256
6
ByLayer
370
25
48
1
60
0
100
AcDbLine
10
0
20
34.75
30
0
11
3.175002
21
34.332003
31
0
39
0
210
0
220
0
230
1
0
LINE
5
202
100
AcDbEntity
8
2
62
256
6
ByLayer
370
25
48
1
60
0
100
AcDbLine
10
3.174998
20
35.167997
30
0
11
3.175002
21
34.332003
31
0
39
0
210
0
220
0
230
1
0
MTEXT
5
203
100
AcDbEntity
8
2
62
256
6
ByLayer
370
18
48
1
60
0
100
AcDbMText
10
20.843421
20
35.875
30
0
210
0
220
0
230
1
1
\W0.7346;50.0
40
4.5
41
0
44
1.084337
50
0
71
7
72
5
7
iso_b_vert
0
ENDBLK
5
1F9
100
AcDbEntity
8
0
100
AcDbBlockEnd
0
BLOCK
5
210
100
AcDbEntity
8
0
100
AcDbBlockBegin
2
DimnDraft3D2
70
0
10
0
20
0
30
0
3
DimnDraft3D2
0
MTEXT
5
206
100
AcDbEntity
8
2
62
256
6
ByLayer
370
18
48
1
60
0
100
AcDbMText
10
71.096024
20
7.133033
30
0
210
0
220
0
230
1
1
\W0.7399;75%%d
40
4.5
41
0
44
1.084337
50
52.5000000000001
71
7
72
5
7
iso_b_vert
0
LINE
5
207
100
AcDbEntity
8
2
62
256
6
ByLayer
370
13
48
1
60
0
100
AcDbLine
10
52.544769
20
17.502791
30
0
11
58.270781
21
-3.866975
31
0
39
0
210
0
220
0
230
1
0
LINE
5
208
100
AcDbEntity
8
2
62
256
6
ByLayer
370
13
48
1
60
0
100
AcDbLine
10
52
20
27
30
0
11
81.955844
21
27
31
0
39
0
210
0
220
0
230
1
0
ARC
5
209
100
AcDbEntity
8
2
62
256
6
ByLayer
370
13
48
1
60
0
100
AcDbCircle
39
0
10
50
20
27
30
0
40
29.9558441227157
210
0
220
0
230
1
100
AcDbArc
50
285
51
0
0
LINE
5
20A
100
AcDbEntity
8
2
62
256
6
ByLayer
370
13
48
1
60
0
100
AcDbLine
10
57.753143
20
-1.935123
30
0
11
60.678295
21
-0.631736
31
0
39
0
210
0
220
0
230
1
0
LINE
5
20B
100
AcDbEntity
8
2
62
256
6
ByLayer
370
13
48
1
60
0
100
AcDbLine
10
57.753143
20
-1.935123
30
0
11
60.915968
21
-1.433232
31
0
39
0
210
0
220
0
230
1
0
LINE
5
20C
100
AcDbEntity
8
2
62
256
6
ByLayer
370
13
48
1
60
0
100
AcDbLine
10
60.678295
20
-0.631736
30
0
11
60.915968
21
-1.433232
31
0
39
0
210
0
220
0
230
1
0
LINE
5
20D
100
AcDbEntity
8
2
62
256
6
ByLayer
370
13
48
1
60
0
100
AcDbLine
10
79.955844
20
27
30
0
11
80.289654
21
23.81505
31
0
39
0
210
0
220
0
230
1
0
LINE
5
20E
100
AcDbEntity
8
2
62
256
6
ByLayer
370
13
48
1
60
0
100
AcDbLine
10
79.955844
20
27
30
0
11
79.453953
21
23.837175
31
0
39
0
210
0
220
0
230
1
0
LINE
5
20F
100
AcDbEntity
8
2
62
256
6
ByLayer
370
13
48
1
60
0
100
AcDbLine
10
80.289654
20
23.81505
30
0
11
79.453953
21
23.837175
31
0
39
0
210
0
220
0
230
1
0
ENDBLK
5
211
100
AcDbEntity
8
0
100
AcDbBlockEnd
0
BLOCK
5
214
100
AcDbEntity
8
0
100
AcDbBlockBegin
2
_CLOSED
70
0
10
0
20
0
30
0
3
_CLOSED
0
LINE
5
216
100
AcDbEntity
8
0
62
256
6
ByLayer
370
-2
48
1
60
0
100
AcDbLine
10
-1
20
0.166667
30
0
11
0
21
0
31
0
39
0
210
0
220
0
230
1
0
LINE
5
217
100
AcDbEntity
8
0
62
256
6
ByLayer
370
-2
48
1
60
0
100
AcDbLine
10
0
20
0
30
0
11
-1
21
-0.166667
31
0
39
0
210
0
220
0
230
1
0
LINE
5
218
100
AcDbEntity
8
0
62
256
6
ByLayer
370
-2
48
1
60
0
100
AcDbLine
10
-1
20
0.166667
30
0
11
-1
21
-0.166667
31
0
39
0
210
0
220
0
230
1
0
LINE
5
219
100
AcDbEntity
8
0
62
256
6
ByLayer
370
-2
48
1
60
0
100
AcDbLine
10
0
20
0
30
0
11
-1
21
0
31
0
39
0
210
0
220
0
230
1
0
ENDBLK
5
215
100
AcDbEntity
8
0
100
AcDbBlockEnd
0
BLOCK
5
226
100
AcDbEntity
8
0
100
AcDbBlockBegin
2
DimnDraft3D3
70
0
10
0
20
0
30
0
3
DimnDraft3D3
0
MTEXT
5
21B
100
AcDbEntity
8
SK2
62
256
6
ByLayer
370
18
48
1
60
0
100
AcDbMText
10
-32.875
20
-1.8
30
0
210
0
220
0
230
1
1
\W0.7361;40
40
4.5
41
0
44
1.084337
50
90
71
7
72
5
7
iso_b_vert
0
LINE
5
21D
100
AcDbEntity
8
SK2
62
256
6
ByLayer
370
13
48
1
60
0
100
AcDbLine
10
-2
20
-20
30
0
11
-33.75
21
-20
31
0
39
0
210
0
220
0
230
1
0
LINE
5
21E
100
AcDbEntity
8
SK2
62
256
6
ByLayer
370
13
48
1
60
0
100
AcDbLine
10
-2
20
20
30
0
11
-33.75
21
20
31
0
39
0
210
0
220
0
230
1
0
LINE
5
21F
100
AcDbEntity
8
SK2
62
256
6
ByLayer
370
13
48
1
60
0
100
AcDbLine
10
-31.75
20
-20
30
0
11
-31.75
21
20
31
0
39
0
210
0
220
0
230
1
0
LINE
5
220
100
AcDbEntity
8
SK2
62
256
6
ByLayer
370
13
48
1
60
0
100
AcDbLine
10
-31.75
20
-20
30
0
11
-32.167997
21
-16.825002
31
0
39
0
210
0
220
0
230
1
0
LINE
5
221
100
AcDbEntity
8
SK2
62
256
6
ByLayer
370
13
48
1
60
0
100
AcDbLine
10
-31.75
20
-20
30
0
11
-31.332003
21
-16.824998
31
0
39
0
210
0
220
0
230
1
0
LINE
5
222
100
AcDbEntity
8
SK2
62
256
6
ByLayer
370
13
48
1
60
0
100
AcDbLine
10
-32.167997
20
-16.825002
30
0
11
-31.332003
21
-16.824998
31
0
39
0
210
0
220
0
230
1
0
LINE
5
223
100
AcDbEntity
8
SK2
62
256
6
ByLayer
370
13
48
1
60
0
100
AcDbLine
10
-31.75
20
20
30
0
11
-31.332003
21
16.825002
31
0
39
0
210
0
220
0
230
1
0
LINE
5
224
100
AcDbEntity
8
SK2
62
256
6
ByLayer
370
13
48
1
60
0
100
AcDbLine
10
-31.75
20
20
30
0
11
-32.167997
21
16.824998
31
0
39
0
210
0
220
0
230
1
0
LINE
5
225
100
AcDbEntity
8
SK2
62
256
6
ByLayer
370
13
48
1
60
0
100
AcDbLine
10
-31.332003
20
16.825002
30
0
11
-32.167997
21
16.824998
31
0
39
0
210
0
220
0
230
1
0
ENDBLK
5
227
100
AcDbEntity
8
0
100
AcDbBlockEnd
0
BLOCK
5
234
100
AcDbEntity
8
0
100
AcDbBlockBegin
2
DimnDraft3D4
70
0
10
0
20
0
30
0
3
DimnDraft3D4
0
MTEXT
5
22A
100
AcDbEntity
8
2
62
256
6
ByLayer
370
18
48
1
60
0
100
AcDbMText
10
89.125
20
9.343421
30
0
210
0
220
0
230
1
1
\W0.7346;27.0
40
4.5
41
0
44
1.084337
50
90
71
7
72
5
7
iso_b_vert
0
LINE
5
22B
100
AcDbEntity
8
2
62
256
6
ByLayer
370
13
48
1
60
0
100
AcDbLine
10
52
20
0
30
0
11
92.25
21
0
31
0
39
0
210
0
220
0
230
1
0
LINE
5
22C
100
AcDbEntity
8
2
62
256
6
ByLayer
370
13
48
1
60
0
100
AcDbLine
10
52
20
27
30
0
11
92.25
21
27
31
0
39
0
210
0
220
0
230
1
0
LINE
5
22D
100
AcDbEntity
8
2
62
256
6
ByLayer
370
13
48
1
60
0
100
AcDbLine
10
90.25
20
0
30
0
11
90.25
21
27
31
0
39
0
210
0
220
0
230
1
0
LINE
5
22E
100
AcDbEntity
8
2
62
256
6
ByLayer
370
13
48
1
60
0
100
AcDbLine
10
90.25
20
0
30
0
11
89.832003
21
3.174998
31
0
39
0
210
0
220
0
230
1
0
LINE
5
22F
100
AcDbEntity
8
2
62
256
6
ByLayer
370
13
48
1
60
0
100
AcDbLine
10
90.25
20
0
30
0
11
90.667997
21
3.175002
31
0
39
0
210
0
220
0
230
1
0
LINE
5
230
100
AcDbEntity
8
2
62
256
6
ByLayer
370
13
48
1
60
0
100
AcDbLine
10
89.832003
20
3.174998
30
0
11
90.667997
21
3.175002
31
0
39
0
210
0
220
0
230
1
0
LINE
5
231
100
AcDbEntity
8
2
62
256
6
ByLayer
370
13
48
1
60
0
100
AcDbLine
10
90.25
20
27
30
0
11
90.667997
21
23.825002
31
0
39
0
210
0
220
0
230
1
0
LINE
5
232
100
AcDbEntity
8
2
62
256
6
ByLayer
370
13
48
1
60
0
100
AcDbLine
10
90.25
20
27
30
0
11
89.832003
21
23.824998
31
0
39
0
210
0
220
0
230
1
0
LINE
5
233
100
AcDbEntity
8
2
62
256
6
ByLayer
370
13
48
1
60
0
100
AcDbLine
10
90.667997
20
23.825002
30
0
11
89.832003
21
23.824998
31
0
39
0
210
0
220
0
230
1
0
ENDBLK
5
235
100
AcDbEntity
8
0
100
AcDbBlockEnd
0
ENDSEC
0
SECTION
2
ENTITIES
0
ARC
5
116
100
AcDbEntity
8
SK1
62
256
6
ByLayer
370
18
48
1
60
0
100
AcDbCircle
39
0
10
0.6
20
-15
30
0
40
0.999999999999989
210
0
220
0
230
-1
100
AcDbArc
50
113.578178
51
126.869898
0
ARC
5
117
100
AcDbEntity
8
SK1
62
256
6
ByLayer
370
18
48
1
60
0
100
AcDbCircle
39
0
10
0.6
20
15
30
0
40
0.999999999999989
210
0
220
0
230
-1
100
AcDbArc
50
233.130102
51
246.421822
0
ELLIPSE
5
118
100
AcDbEntity
8
1
62
256
6
ByLayer
370
18
48
1
60
0
100
AcDbEllipse
10
50.490265
20
14.727767
30
0
11
1.37481532850777
21
-0.793749999999981
31
0
210
0
220
0
230
1
40
0.989133
41
-0.408593360184516
42
-0.162419961408293
0
ELLIPSE
5
119
100
AcDbEntity
8
1
62
256
6
ByLayer
370
18
48
1
60
0
100
AcDbEllipse
10
51.670339
20
14.526685
30
0
11
-0.687407664253899
21
0.396874999999999
31
0
210
0
220
0
230
1
40
0.989133
41
2.3507312816708
42
3.14157777036927
0
ELLIPSE
5
11A
100
AcDbEntity
8
1
62
256
6
ByLayer
370
18
48
1
60
0
100
AcDbEllipse
10
38.678567
20
7.285511
30
0
11
-0.329089653438087
21
0.19
31
0
210
0
220
0
230
1
40
0.989133
41
-0.812068914915963
42
-0.455618177146657
0
ELLIPSE
5
11B
100
AcDbEntity
8
1
62
256
6
ByLayer
370
18
48
1
60
0
100
AcDbEllipse
10
40.642617
20
6.354435
30
0
11
-0.329089653438087
21
0.19
31
0
210
0
220
0
230
1
40
0.989133
41
-2.68595077986917
42
-2.16591723051742
0
ELLIPSE
5
11C
100
AcDbEntity
8
1
62
256
6
ByLayer
370
18
48
1
60
0
100
AcDbEllipse
10
38.487854
20
8.062863
30
0
11
0.368060796608387
21
-0.212499999999999
31
0
210
0
220
0
230
1
40
0.989133
41
-0.81206891491599
42
1.50816587168235E-05
0
ELLIPSE
5
11D
100
AcDbEntity
8
1
62
256
6
ByLayer
370
18
48
1
60
0
100
AcDbEllipse
10
41.363126
20
6.699813
30
0
11
0.368060796608387
21
-0.212499999999999
31
0
210
0
220
0
230
1
40
0.989133
41
-3.14157944955829
42
-2.16591723051742
0
ELLIPSE
5
11E
100
AcDbEntity
8
1
62
256
6
ByLayer
370
18
48
1
60
0
100
AcDbEllipse
10
39.208363
20
8.408241
30
0
11
-0.329089653438087
21
0.19
31
0
210
0
220
0
230
1
40
0.989133
41
-1.85926646611261
42
-0.455615844141993
0
ELLIPSE
5
11F
100
AcDbEntity
8
1
62
256
6
ByLayer
370
18
48
1
60
0
100
AcDbEllipse
10
41.172413
20
7.477165
30
0
11
-0.329089653438087
21
0.19
31
0
210
0
220
0
230
1
40
0.989133
41
-2.68591227252002
42
-1.11871967932082
0
ELLIPSE
5
120
100
AcDbEntity
8
1
62
256
6
ByLayer
370
18
48
1
60
0
100
AcDbEllipse
10
39.848302
20
7.247645
30
0
11
3.46410161513776
21
-1.99999999999999
31
0
210
0
220
0
230
1
40
0.989133
41
3.14152429077444
42
-1.05191586252642
0
ELLIPSE
5
121
100
AcDbEntity
8
1
62
256
6
ByLayer
370
18
48
1
60
0
100
AcDbEllipse
10
39.848302
20
7.247645
30
0
11
3.46410161513776
21
-1.99999999999999
31
0
210
0
220
0
230
1
40
0.989133
41
-1.05191586252641
42
-2.24484073350127E-16
0
ELLIPSE
5
122
100
AcDbEntity
8
1
62
256
6
ByLayer
370
18
48
1
60
0
100
AcDbEllipse
10
39.92549
20
7.381338
30
0
11
0.995929214352106
21
-0.574999999999998
31
0
210
0
220
0
230
1
40
0.989133
41
-1.75562946184889
42
-1.16294859538306
0
ELLIPSE
5
123
100
AcDbEntity
8
1
62
256
6
ByLayer
370
18
48
1
60
0
100
AcDbEllipse
10
39.92549
20
7.381338
30
0
11
0.995929214352106
21
-0.574999999999998
31
0
210
0
220
0
230
1
40
0.989133
41
-0.509006198801696
42
0
0
ELLIPSE
5
124
100
AcDbEntity
8
1
62
256
6
ByLayer
370
18
48
1
60
0
100
AcDbEllipse
10
39.92549
20
7.381338
30
0
11
0.995929214352106
21
-0.574999999999998
31
0
210
0
220
0
230
1
40
0.989133
41
0
42
-2.45247374481902
0
ELLIPSE
5
125
100
AcDbEntity
8
1
62
256
6
ByLayer
370
18
48
1
60
0
100
AcDbEllipse
10
39.863005
20
7.27311
30
0
11
0.995929214352106
21
-0.574999999999998
31
0
210
0
220
0
230
1
40
0.989133
41
0.0549096079405099
42
3.08664461741743
0
ELLIPSE
5
126
100
AcDbEntity
8
1
62
256
6
ByLayer
370
18
48
1
60
0
100
AcDbEllipse
10
45.720312
20
19.936149
30
0
11
2.9047749411641
21
-1.67707259421636
31
0
210
0
220
0
230
1
40
0.989133
41
1.79770952456551
42
2.84815011848921
0
ELLIPSE
5
127
100
AcDbEntity
8
1
62
256
6
ByLayer
370
18
48
1
60
0
100
AcDbEllipse
10
45.720312
20
19.936149
30
0
11
2.9047749411641
21
-1.67707259421636
31
0
210
0
220
0
230
1
40
0.989133
41
0.45704904325697
42
1.48925736546221
0
ELLIPSE
5
128
100
AcDbEntity
8
1
62
256
6
ByLayer
370
18
48
1
60
0
100
AcDbEllipse
10
45.470371
20
19.503237
30
0
11
-4.76313972081442
21
2.74999999999999
31
0
210
0
220
0
230
1
40
0.989133
41
0.518135567076777
42
0.705420310205841
0
ELLIPSE
5
129
100
AcDbEntity
8
1
62
256
6
ByLayer
370
18
48
1
60
0
100
AcDbEllipse
10
45.668854
20
19.84702
30
0
11
4.13660254037845
21
-2.38826859021798
31
0
210
0
220
0
230
1
40
0.989133
41
-0.464028877238194
42
-0.448056941986274
0
ELLIPSE
5
12A
100
AcDbEntity
8
1
62
256
6
ByLayer
370
18
48
1
60
0
100
AcDbEllipse
10
45.668854
20
19.84702
30
0
11
4.13660254037845
21
-2.38826859021798
31
0
210
0
220
0
230
1
40
0.989133
41
-2.52992920344713
42
-2.51301393229153
0
ELLIPSE
5
12B
100
AcDbEntity
8
1
62
256
6
ByLayer
370
18
48
1
60
0
100
AcDbEllipse
10
45.470371
20
19.503237
30
0
11
-4.76313972081442
21
2.74999999999999
31
0
210
0
220
0
230
1
40
0.989133
41
2.61226757520887
42
2.7870635946694
0
ELLIPSE
5
12C
100
AcDbEntity
8
1
62
256
6
ByLayer
370
18
48
1
60
0
100
AcDbEllipse
10
22.764963
20
16.032631
30
0
11
0.821795651814452
21
-2.0407478792489
31
0
210
0
220
0
230
1
40
0.16541
41
5.43628284930589E-05
42
3.14156655657313
0
ELLIPSE
5
12D
100
AcDbEntity
8
1
62
256
6
ByLayer
370
18
48
1
60
0
100
AcDbEllipse
10
22.993671
20
16.12473
30
0
11
-0.728409782290079
21
1.80884471115244
31
0
210
0
220
0
230
1
40
0.16541
41
-2.97305637846121
42
-0.168563332373391
0
ELLIPSE
5
12E
100
AcDbEntity
8
1
62
256
6
ByLayer
370
18
48
1
60
0
100
AcDbEllipse
10
16.946952
20
13.689756
30
0
11
-0.0227245058806324
21
-2.70265793858008
31
0
210
0
220
0
230
1
40
0.083138
41
2.68096733423468
42
0.529148267718259
0
ELLIPSE
5
12F
100
AcDbEntity
8
1
62
256
6
ByLayer
370
18
48
1
60
0
100
AcDbEllipse
10
47.372007
20
4.618528
30
0
11
-14.8712374393464
21
-24.0178071548579
31
0
210
0
220
0
230
1
40
0.003891
41
1.2662484194414
42
1.57320536607378
0
ELLIPSE
5
130
100
AcDbEntity
8
1
62
256
6
ByLayer
370
18
48
1
60
0
100
AcDbEllipse
10
47.372007
20
4.618528
30
0
11
-14.8712374393464
21
-24.0178071548579
31
0
210
0
220
0
230
1
40
0.003891
41
0.999772262580019
42
1.14759254968275
0
ELLIPSE
5
131
100
AcDbEntity
8
1
62
256
6
ByLayer
370
18
48
1
60
0
100
AcDbEllipse
10
8
20
11.854645
30
0
11
1.65
21
0
31
0
210
0
220
0
230
1
40
0.707107
41
-2.29041743578248
42
-2.13245415547795
0
ELLIPSE
5
132
100
AcDbEntity
8
1
62
256
6
ByLayer
370
18
48
1
60
0
100
AcDbEllipse
10
8
20
11.854645
30
0
11
1.65
21
0
31
0
210
0
220
0
230
1
40
0.707107
41
-0.0234635074422896
42
0
0
ELLIPSE
5
133
100
AcDbEntity
8
1
62
256
6
ByLayer
370
18
48
1
60
0
100
AcDbEllipse
10
8
20
11.854645
30
0
11
1.65
21
0
31
0
210
0
220
0
230
1
40
0.707107
41
0
42
-3.11812898116473
0
ELLIPSE
5
134
100
AcDbEntity
8
1
62
256
6
ByLayer
370
18
48
1
60
0
100
AcDbEllipse
10
8
20
11.854645
30
0
11
1.65
21
0
31
0
210
0
220
0
230
1
40
0.707107
41
-1.00913862407849
42
-0.629693465280207
0
ELLIPSE
5
135
100
AcDbEntity
8
1
62
256
6
ByLayer
370
18
48
1
60
0
100
AcDbEllipse
10
8
20
11.854645
30
0
11
2
21
0
31
0
210
0
220
0
230
1
40
0.707107
41
0.373653459844233
42
2.76793957407005
0
ELLIPSE
5
136
100
AcDbEntity
8
1
62
256
6
ByLayer
370
18
48
1
60
0
100
AcDbEllipse
10
22.383226
20
44.464015
30
0
11
-5.75507028651703E-15
21
-31.3301781618976
31
0
210
-6.9425119697206E-18
220
2.6727647100922E-51
230
1
40
0.127672
41
-0.111424016080139
42
-0.073578643625851
0
ELLIPSE
5
137
100
AcDbEntity
8
1
62
256
6
ByLayer
370
18
48
1
60
0
100
AcDbEllipse
10
34.640187
20
36.692983
30
0
11
-7.97230771498623
21
13.1034747382304
31
0
210
0
220
0
230
1
40
0.524999
41
2.58381244250356
42
2.59482536475659
0
ELLIPSE
5
138
100
AcDbEntity
8
1
62
256
6
ByLayer
370
18
48
1
60
0
100
AcDbEllipse
10
40.285189
20
-1.36525
30
0
11
-2.6758450244474
21
1.35663164731593
31
0
210
0
220
0
230
1
40
0.87742
41
1.60104749617796
42
-3.12673032973135
0
ELLIPSE
5
139
100
AcDbEntity
8
1
62
256
6
ByLayer
370
18
48
1
60
0
100
AcDbEllipse
10
40.150392
20
8.050675
30
0
11
3.61188974365708
21
-2.04371046864882
31
0
210
0
220
0
230
1
40
0.986425
41
0.0732243651094785
42
3.05341767218227
0
ELLIPSE
5
13A
100
AcDbEntity
8
1
62
256
6
ByLayer
370
18
48
1
60
0
100
AcDbEllipse
10
43.901098
20
21.816465
30
0
11
-6.62258623352293
21
-1.11228581468309
31
0
210
0
220
0
230
1
40
0.544992
41
0.748554810109606
42
0.828293078031533
0
ELLIPSE
5
13B
100
AcDbEntity
8
1
62
256
6
ByLayer
370
18
48
1
60
0
100
AcDbEllipse
10
36.839552
20
10.670876
30
0
11
-6.64411661333798
21
-7.39860552939465
31
0
210
0
220
0
230
1
40
0.127121
41
-0.401630751583276
42
0.317570148362282
0
ELLIPSE
5
13C
100
AcDbEntity
8
1
62
256
6
ByLayer
370
18
48
1
60
0
100
AcDbEllipse
10
36.537793
20
4.560116
30
0
11
-6.63668369258303
21
-2.37461151936782
31
0
210
0
220
0
230
1
40
0.067687
41
-1.45707183579082
42
-0.993008307468112
0
ELLIPSE
5
13D
100
AcDbEntity
8
1
62
256
6
ByLayer
370
18
48
1
60
0
100
AcDbEllipse
10
44.393159
20
7.090018
30
0
11
-1.65897349340698
21
-9.76337189291845
31
0
210
0
220
0
230
1
40
0.120053
41
-0.313564735430856
42
0.405636164514947
0
ELLIPSE
5
13E
100
AcDbEntity
8
1
62
256
6
ByLayer
370
18
48
1
60
0
100
AcDbEllipse
10
48.34451
20
19.710024
30
0
11
-2.71513487607846
21
5.80930983680277
31
0
210
0
220
0
230
1
40
0.538155
41
2.39956218632953
42
2.4793004543399
0
ELLIPSE
5
13F
100
AcDbEntity
8
1
62
256
6
ByLayer
370
18
48
1
60
0
100
AcDbEllipse
10
31.869687
20
0.585533
30
0
11
-2.3003583139605
21
1.92592143704016
31
0
210
0
220
0
230
1
40
0.996281
41
0.600391273779149
42
0.606502186336021
0
ELLIPSE
5
140
100
AcDbEntity
8
1
62
256
6
ByLayer
370
18
48
1
60
0
100
AcDbEllipse
10
41.593325
20
19.74238
30
0
11
-0.807544898932131
21
-0.719666776332077
31
0
210
0
220
0
230
1
40
0.206174
41
-1.33672683094768
42
-0.813128055370502
0
ELLIPSE
5
141
100
AcDbEntity
8
1
62
256
6
ByLayer
370
18
48
1
60
0
100
AcDbEllipse
10
32.731582
20
2.215608
30
0
11
-2.67584502444712
21
1.35663164731606
31
0
210
0
220
0
230
1
40
0.87742
41
0.0302511693831062
42
1.60104749617805
0
ELLIPSE
5
142
100
AcDbEntity
8
1
62
256
6
ByLayer
370
18
48
1
60
0
100
AcDbEllipse
10
48.195565
20
16.612526
30
0
11
-0.0496926783519203
21
-1.07977848158538
31
0
210
0
220
0
230
1
40
0.185902
41
0.822407068540037
42
1.34600584412328
0
ELLIPSE
5
143
100
AcDbEntity
8
1
62
256
6
ByLayer
370
18
48
1
60
0
100
AcDbEllipse
10
28.238301
20
-0.26654
30
0
11
2.99854242392764
21
6.3252465036476
31
0
210
0
220
0
230
1
40
0.012014
41
0.810298218555929
42
1.2175596021136
0
ELLIPSE
5
144
100
AcDbEntity
8
1
62
256
6
ByLayer
370
18
48
1
60
0
100
AcDbEllipse
10
39.422562
20
-2.994243
30
0
11
-2.30429634133618
21
1.92414978923913
31
0
210
0
220
0
230
1
40
0.996002
41
3.04427569310043
42
3.0503846179903
0
ELLIPSE
5
145
100
AcDbEntity
8
1
62
256
6
ByLayer
370
18
48
1
60
0
100
AcDbEllipse
10
40.468198
20
2.69687
30
0
11
-2.14181601709118
21
-4.51803321689114
31
0
210
0
220
0
230
1
40
0.012014
41
0.908735525955387
42
1.34976663131176
0
ELLIPSE
5
146
100
AcDbEntity
8
1
62
256
6
ByLayer
370
18
48
1
60
0
100
AcDbEllipse
10
39.700188
20
3.060953
30
0
11
-2.37671399897024
21
6.64255980832611
31
0
210
0
220
0
230
1
40
0.079636
41
-2.16072941453918
42
-1.69666588620922
0
ELLIPSE
5
147
100
AcDbEntity
8
1
62
256
6
ByLayer
370
18
48
1
60
0
100
AcDbEllipse
10
35.769783
20
4.924198
30
0
11
-2.14181601709118
21
-4.51803321689114
31
0
210
0
220
0
230
1
40
0.012014
41
0.908735525955379
42
1.34976663131172
0
ELLIPSE
5
148
100
AcDbEntity
8
1
62
256
6
ByLayer
370
18
48
1
60
0
100
AcDbEllipse
10
45.973601
20
20.472912
30
0
11
-3.10814157129579
21
1.79448637286709
31
0
210
0
220
0
230
1
40
0.989133
41
-2.62345708651302
42
-2.52969258695506
0
ELLIPSE
5
149
100
AcDbEntity
8
1
62
256
6
ByLayer
370
18
48
1
60
0
100
AcDbEllipse
10
45.723659
20
20.040001
30
0
11
-3.89711431702998
21
2.25
31
0
210
0
220
0
230
1
40
0.989133
41
-0.878127834518683
42
-0.354529058920385
0
ELLIPSE
5
14A
100
AcDbEntity
8
1
62
256
6
ByLayer
370
18
48
1
60
0
100
AcDbEllipse
10
47.89586
20
21.876227
30
0
11
-1.83288704897769
21
0.816092223043015
31
0
210
0
220
0
230
1
40
0.723309
41
2.9030699959636
42
-2.35915775076936
0
ELLIPSE
5
14B
100
AcDbEntity
8
1
62
256
6
ByLayer
370
18
48
1
60
0
100
AcDbEllipse
10
45.973601
20
20.472912
30
0
11
-3.10814157129579
21
1.79448637286709
31
0
210
0
220
0
230
1
40
0.989133
41
-0.448293558478344
42
-0.354529058920385
0
ELLIPSE
5
14C
100
AcDbEntity
8
1
62
256
6
ByLayer
370
18
48
1
60
0
100
AcDbEllipse
10
45.723659
20
20.040001
30
0
11
-3.89711431702998
21
2.25
31
0
210
0
220
0
230
1
40
0.989133
41
-2.09985831091472
42
-0.878127834518683
0
ELLIPSE
5
14D
100
AcDbEntity
8
1
62
256
6
ByLayer
370
18
48
1
60
0
100
AcDbEllipse
10
47.323947
20
15.754141
30
0
11
-2.20549975666854
21
8.624779849908
31
0
210
0
220
0
230
1
40
0.72878
41
0.887796690875727
42
0.951367350923608
0
ELLIPSE
5
14E
100
AcDbEntity
8
1
62
256
6
ByLayer
370
18
48
1
60
0
100
AcDbEllipse
10
41.211962
20
18.651584
30
0
11
-8.47598192771396
21
-3.28922529307583
31
0
210
0
220
0
230
1
40
0.72417
41
2.246879667874
42
2.31045032797278
0
ELLIPSE
5
14F
100
AcDbEntity
8
1
62
256
6
ByLayer
370
18
48
1
60
0
100
AcDbEllipse
10
45.723659
20
20.040001
30
0
11
-3.89711431702998
21
2.25
31
0
210
0
220
0
230
1
40
0.989133
41
-2.62345708651302
42
-2.09985831091472
0
ELLIPSE
5
150
100
AcDbEntity
8
1
62
256
6
ByLayer
370
18
48
1
60
0
100
AcDbEllipse
10
45.973601
20
20.472912
30
0
11
2.8254089221039
21
-1.63125060174745
31
0
210
0
220
0
230
1
40
0.989133
41
1.04173434267508
42
2.26346481907111
0
ELLIPSE
5
151
100
AcDbEntity
8
1
62
256
6
ByLayer
370
18
48
1
60
0
100
AcDbEllipse
10
45.918105
20
22.8138
30
0
11
-1.83370641084422
21
1.09537195741972
31
0
210
0
220
0
230
1
40
0.675933
41
-0.674105736252098
42
0.346851824194658
0
ELLIPSE
5
152
100
AcDbEntity
8
1
62
256
6
ByLayer
370
18
48
1
60
0
100
AcDbEllipse
10
48.116489
20
15.14359
30
0
11
-2.73364581718399
21
0.0882571530375736
31
0
210
0
220
0
230
1
40
0.523705
41
2.07792152494022
42
2.42025200993874
0
ELLIPSE
5
153
100
AcDbEntity
8
1
62
256
6
ByLayer
370
18
48
1
60
0
100
AcDbEllipse
10
16.948929
20
0
30
0
11
-9.36741787978284
21
19.7417491527512
31
0
210
0
220
0
230
1
40
0.341999
41
0.152726244898339
42
1.09631952749986
0
ELLIPSE
5
154
100
AcDbEntity
8
1
62
256
6
ByLayer
370
18
48
1
60
0
100
AcDbEllipse
10
34.791805
20
36.955562
30
0
11
12.124355652982
21
-6.99999999999988
31
0
210
0
220
0
230
1
40
0.989133
41
-0.956587890358845
42
-0.837479346259619
0
ELLIPSE
5
155
100
AcDbEntity
8
1
62
256
6
ByLayer
370
18
48
1
60
0
100
AcDbEllipse
10
-8.377505
20
-85.435762
30
0
11
-61.6220266108062
21
-99.5268851179199
31
0
210
0
220
0
230
1
40
0.002409
41
2.76574117272143
42
2.89506555081136
0
ELLIPSE
5
156
100
AcDbEntity
8
1
62
256
6
ByLayer
370
18
48
1
60
0
100
AcDbEllipse
10
26.512867
20
0.449556
30
0
11
-2.92980312739038
21
-6.04055322715014
31
-2.03401932808326E-17
210
6.9425119697206E-18
220
-3.85185988877447E-34
230
-1
40
0.595808
41
2.72247818396229
42
3.12663346554459
0
ELLIPSE
5
157
100
AcDbEntity
8
1
62
256
6
ByLayer
370
18
48
1
60
0
100
AcDbEllipse
10
8
20
12.137533
30
0
11
2
21
0
31
0
210
0
220
0
230
1
40
0.707107
41
1.00226206910651
42
2.13933058448328
0
ELLIPSE
5
158
100
AcDbEntity
8
1
62
256
6
ByLayer
370
18
48
1
60
0
100
AcDbEllipse
10
8
20
10.606602
30
0
11
-1.87399516862694
21
-2.78920145025286
31
0
210
0
220
0
230
1
40
0.250492
41
1.94585700116124
42
-2.65958138010599
0
ELLIPSE
5
159
100
AcDbEntity
8
1
62
256
6
ByLayer
370
18
48
1
60
0
100
AcDbEllipse
10
-0.948929
20
0
30
0
11
-9.36741787978245
21
-19.7417491527508
31
0
210
0
220
0
230
1
40
0.341999
41
2.04527312608992
42
2.98886640869145
0
ELLIPSE
5
15A
100
AcDbEntity
8
1
62
256
6
ByLayer
370
18
48
1
60
0
100
AcDbEllipse
10
44.521116
20
0
30
0
11
-12.4763498578359
21
-20.1499415300303
31
0
210
0
220
0
230
1
40
0.003891
41
-0.19742958193674
42
0.99977226257968
0
ELLIPSE
5
15B
100
AcDbEntity
8
1
62
256
6
ByLayer
370
18
48
1
60
0
100
AcDbEllipse
10
8
20
12.137533
30
0
11
2
21
0
31
0
210
0
220
0
230
1
40
0.707107
41
-2.13933058448328
42
-1.00226206910651
0
ELLIPSE
5
15C
100
AcDbEntity
8
1
62
256
6
ByLayer
370
18
48
1
60
0
100
AcDbEllipse
10
22.383226
20
22.427726
30
0
11
-3.99973649343666
21
-0.383831843584874
31
0
210
0
220
0
230
1
40
0.119615
41
1.33064237988793
42
1.48573939924663
0
ELLIPSE
5
15D
100
AcDbEntity
8
1
62
256
6
ByLayer
370
18
48
1
60
0
100
AcDbEllipse
10
-0.948929
20
0
30
0
11
-9.36741787978211
21
19.7417491527504
31
0
210
0
220
0
230
1
40
0.341999
41
-2.98886640869145
42
-2.0452731260899
0
ELLIPSE
5
15E
100
AcDbEntity
8
1
62
256
6
ByLayer
370
18
48
1
60
0
100
AcDbEllipse
10
17.749773
20
0
30
0
11
1.22460635382238E-15
21
20
31
0
210
0
220
0
230
1
40
0.087489
41
0.392575063395553
42
2.74901759019424
0
ELLIPSE
5
15F
100
AcDbEntity
8
1
62
256
6
ByLayer
370
18
48
1
60
0
100
AcDbEllipse
10
16.948929
20
0
30
0
11
-9.36741787978228
21
-19.7417491527506
31
0
210
0
220
0
230
1
40
0.341999
41
-1.09631952749989
42
-0.152726244898338
0
ELLIPSE
5
160
100
AcDbEntity
8
1
62
256
6
ByLayer
370
18
48
1
60
0
100
AcDbEllipse
10
8
20
10.606602
30
0
11
-1.87399516862692
21
2.78920145025283
31
0
210
0
220
0
230
1
40
0.250492
41
-0.482011273483802
42
1.19573565242856
0
ELLIPSE
5
161
100
AcDbEntity
8
1
62
256
6
ByLayer
370
18
48
1
60
0
100
AcDbEllipse
10
39.788368
20
8.954817
30
0
11
0.368060796608387
21
-0.212499999999999
31
0
210
0
220
0
230
1
40
0.989133
41
-1.85926646611257
42
-0.0715221281242027
0
ELLIPSE
5
162
100
AcDbEntity
8
1
62
256
6
ByLayer
370
18
48
1
60
0
100
AcDbEllipse
10
40.090893
20
7.667824
30
0
11
1.01757984944672
21
-0.587499999999998
31
0
210
0
220
0
230
1
40
0.989133
41
-1.02863814881711
42
-0.902150445419709
0
ELLIPSE
5
163
100
AcDbEntity
8
1
62
256
6
ByLayer
370
18
48
1
60
0
100
AcDbEllipse
10
40.455286
20
8.504068
30
0
11
-0.329089653438087
21
0.19
31
0
210
0
220
0
230
1
40
0.989133
41
-2.90646401730919
42
-0.0715221281242397
0
ELLIPSE
5
164
100
AcDbEntity
8
1
62
256
6
ByLayer
370
18
48
1
60
0
100
AcDbEllipse
10
38.653257
20
8.349349
30
0
11
0.368060796608387
21
-0.212499999999999
31
0
210
0
220
0
230
1
40
0.989133
41
-0.81206891491599
42
-0.0938324644702538
0
ELLIPSE
5
165
100
AcDbEntity
8
1
62
256
6
ByLayer
370
18
48
1
60
0
100
AcDbEllipse
10
41.391407
20
8.559778
30
0
11
0.368060796608387
21
-0.212499999999999
31
0
210
0
220
0
230
1
40
0.989133
41
-1.83695612976658
42
-1.1187196793208
0
ELLIPSE
5
166
100
AcDbEntity
8
1
62
256
6
ByLayer
370
18
48
1
60
0
100
AcDbEllipse
10
38.790378
20
6.77587
30
0
11
0.368060796608387
21
-0.212499999999999
31
0
210
0
220
0
230
1
40
0.989133
41
0.235128636280608
42
0.953365086726327
0
ELLIPSE
5
167
100
AcDbEntity
8
1
62
256
6
ByLayer
370
18
48
1
60
0
100
AcDbEllipse
10
40.027173
20
7.557458
30
0
11
-3.46410161513776
21
1.99999999999999
31
0
210
0
220
0
230
1
40
0.989133
41
0
42
6.28318530717959
0
ELLIPSE
5
168
100
AcDbEntity
8
1
62
256
6
ByLayer
370
18
48
1
60
0
100
AcDbEllipse
10
40.090893
20
7.667824
30
0
11
1.01757984944672
21
-0.587499999999998
31
0
210
0
220
0
230
1
40
0.989133
41
0.0185594023794927
42
0.145047105776895
0
ELLIPSE
5
169
100
AcDbEntity
8
1
62
256
6
ByLayer
370
18
48
1
60
0
100
AcDbEllipse
10
40.090893
20
7.667824
30
0
11
1.01757984944672
21
-0.587499999999998
31
0
210
0
220
0
230
1
40
0.989133
41
-3.1230332512103
42
-2.99654554781291
0
ELLIPSE
5
16A
100
AcDbEntity
8
1
62
256
6
ByLayer
370
18
48
1
60
0
100
AcDbEllipse
10
41.226004
20
8.273292
30
0
11
0.368060796608387
21
-0.212499999999999
31
0
210
0
220
0
230
1
40
0.989133
41
-2.9064640173092
42
-1.1187196793208
0
ELLIPSE
5
16B
100
AcDbEntity
8
1
62
256
6
ByLayer
370
18
48
1
60
0
100
AcDbEllipse
10
40.620688
20
8.790554
30
0
11
-0.329089653438087
21
0.19
31
0
210
0
220
0
230
1
40
0.989133
41
-2.90646401730918
42
-0.0715221281242255
0
ELLIPSE
5
16C
100
AcDbEntity
8
1
62
256
6
ByLayer
370
18
48
1
60
0
100
AcDbEllipse
10
39.953771
20
9.241303
30
0
11
0.368060796608387
21
-0.212499999999999
31
0
210
0
220
0
230
1
40
0.989133
41
-0.789758578569969
42
-0.0715221281242238
0
ELLIPSE
5
16D
100
AcDbEntity
8
1
62
256
6
ByLayer
370
18
48
1
60
0
100
AcDbEllipse
10
38.790378
20
6.77587
30
0
11
0.368060796608387
21
-0.212499999999999
31
0
210
0
220
0
230
1
40
0.989133
41
1.30463652382323
42
2.02287297426896
0
ELLIPSE
5
16E
100
AcDbEntity
8
1
62
256
6
ByLayer
370
18
48
1
60
0
100
AcDbEllipse
10
40.090893
20
7.667824
30
0
11
-1.99185842870421
21
1.15
31
0
210
0
220
0
230
1
40
0.989133
41
0
42
6.28318530717959
0
ELLIPSE
5
16F
100
AcDbEntity
8
1
62
256
6
ByLayer
370
18
48
1
60
0
100
AcDbEllipse
10
38.84397
20
7.571997
30
0
11
-0.329089653438087
21
0.19
31
0
210
0
220
0
230
1
40
0.989133
41
-0.812068914916011
42
2.02287297426899
0
ELLIPSE
5
170
100
AcDbEntity
8
1
62
256
6
ByLayer
370
18
48
1
60
0
100
AcDbEllipse
10
40.090893
20
7.667824
30
0
11
1.01757984944672
21
-0.587499999999998
31
0
210
0
220
0
230
1
40
0.989133
41
2.11295450477269
42
2.23944220817009
0
ELLIPSE
5
171
100
AcDbEntity
8
1
62
256
6
ByLayer
370
18
48
1
60
0
100
AcDbEllipse
10
41.391407
20
8.559778
30
0
11
0.368060796608387
21
-0.212499999999999
31
0
210
0
220
0
230
1
40
0.989133
41
-2.90646401730919
42
-2.18822756686343
0
ELLIPSE
5
172
100
AcDbEntity
8
1
62
256
6
ByLayer
370
18
48
1
60
0
100
AcDbEllipse
10
41.337815
20
7.763651
30
0
11
-0.329089653438087
21
0.19
31
0
210
0
220
0
230
1
40
0.989133
41
2.32952373867381
42
-1.11871967932084
0
ELLIPSE
5
173
100
AcDbEntity
8
1
62
256
6
ByLayer
370
18
48
1
60
0
100
AcDbEllipse
10
39.953771
20
9.241303
30
0
11
0.368060796608387
21
-0.212499999999999
31
0
210
0
220
0
230
1
40
0.989133
41
-1.85926646611257
42
-1.14103001566687
0
ELLIPSE
5
174
100
AcDbEntity
8
1
62
256
6
ByLayer
370
18
48
1
60
0
100
AcDbEllipse
10
40.228015
20
6.094345
30
0
11
0.368060796608387
21
-0.212499999999999
31
0
210
0
220
0
230
1
40
0.989133
41
2.35183407501986
42
3.07007052546561
0
ELLIPSE
5
175
100
AcDbEntity
8
1
62
256
6
ByLayer
370
18
48
1
60
0
100
AcDbEllipse
10
40.090893
20
7.667824
30
0
11
1.01757984944672
21
-0.587499999999998
31
0
210
0
220
0
230
1
40
0.989133
41
1.06575695357609
42
1.19224465697348
0
ELLIPSE
5
176
100
AcDbEntity
8
1
62
256
6
ByLayer
370
18
48
1
60
0
100
AcDbEllipse
10
39.561097
20
6.545094
30
0
11
-0.329089653438087
21
0.19
31
0
210
0
220
0
230
1
40
0.989133
41
0.235128636280594
42
3.07007052546555
0
ELLIPSE
5
177
100
AcDbEntity
8
1
62
256
6
ByLayer
370
18
48
1
60
0
100
AcDbEllipse
10
41.528529
20
6.986299
30
0
11
0.368060796608387
21
-0.212499999999999
31
0
210
0
220
0
230
1
40
0.989133
41
2.3295237386738
42
3.04776018911956
0
ELLIPSE
5
178
100
AcDbEntity
8
1
62
256
6
ByLayer
370
18
48
1
60
0
100
AcDbEllipse
10
38.653257
20
8.349349
30
0
11
0.368060796608387
21
-0.212499999999999
31
0
210
0
220
0
230
1
40
0.989133
41
0.25743897262662
42
0.975675423072374
0
ELLIPSE
5
179
100
AcDbEntity
8
1
62
256
6
ByLayer
370
18
48
1
60
0
100
AcDbEllipse
10
40.228015
20
6.094345
30
0
11
0.368060796608387
21
-0.212499999999999
31
0
210
0
220
0
230
1
40
0.989133
41
1.28232618747721
42
2.00056263792295
0
ELLIPSE
5
17A
100
AcDbEntity
8
1
62
256
6
ByLayer
370
18
48
1
60
0
100
AcDbEllipse
10
39.373766
20
8.694727
30
0
11
-0.329089653438087
21
0.19
31
0
210
0
220
0
230
1
40
0.989133
41
-1.85926646611259
42
0.975675423072376
0
ELLIPSE
5
17B
100
AcDbEntity
8
1
62
256
6
ByLayer
370
18
48
1
60
0
100
AcDbEllipse
10
40.090893
20
7.667824
30
0
11
1.01757984944672
21
-0.587499999999998
31
0
210
0
220
0
230
1
40
0.989133
41
-2.07583570001371
42
-1.9493479966163
0
ELLIPSE
5
17C
100
AcDbEntity
8
1
62
256
6
ByLayer
370
18
48
1
60
0
100
AcDbEllipse
10
40.80802
20
6.640921
30
0
11
-0.329089653438087
21
0.19
31
0
210
0
220
0
230
1
40
0.989133
41
1.28232618747718
42
-2.1659172305174
0
ELLIPSE
5
17D
100
AcDbEntity
8
1
62
256
6
ByLayer
370
18
48
1
60
0
100
AcDbEllipse
10
41.528529
20
6.986299
30
0
11
0.368060796608387
21
-0.212499999999999
31
0
210
0
220
0
230
1
40
0.989133
41
-2.88415368096315
42
-2.16591723051744
0
ELLIPSE
5
17E
100
AcDbEntity
8
1
62
256
6
ByLayer
370
18
48
1
60
0
100
AcDbEllipse
10
49.393656
20
26.21271
30
0
11
-0.687407664253899
21
0.396874999999999
31
0
210
0
220
0
230
1
40
0.989133
41
-2.36165769871387
42
-0.790861371918975
0
ELLIPSE
5
17F
100
AcDbEntity
8
1
62
256
6
ByLayer
370
18
48
1
60
0
100
AcDbEllipse
10
52.254027
20
15.537661
30
0
11
-0.687407664253899
21
0.396874999999999
31
0
210
0
220
0
230
1
40
0.989133
41
2.35073128167079
42
-2.3616576987139
0
ELLIPSE
5
180
100
AcDbEntity
8
1
62
256
6
ByLayer
370
18
48
1
60
0
100
AcDbEllipse
10
38.686714
20
23.468814
30
0
11
-0.687407664253899
21
0.396874999999999
31
0
210
0
220
0
230
1
40
0.989133
41
-0.790861371918978
42
0.779934954875915
0
POINT
5
6C
100
AcDbEntity
8
2
62
256
6
ByLayer
370
18
48
1
60
0
100
AcDbPoint
10
50
20
27
30
0
39
0
210
0
220
0
230
1
50
360
0
POINT
5
6E
100
AcDbEntity
8
80
62
256
6
ByLayer
370
18
48
1
60
0
100
AcDbPoint
10
0
20
0
30
0
39
0
210
0
220
0
230
1
50
360
0
POINT
5
70
100
AcDbEntity
8
81
62
256
6
ByLayer
370
18
48
1
60
0
100
AcDbPoint
10
50
20
27
30
0
39
0
210
0
220
0
230
1
50
360
0
SPLINE
5
181
100
AcDbEntity
8
SK1
62
256
6
ByLayer
370
18
48
1
60
0
100
AcDbSpline
70
4
71
2
72
6
73
3
40
0
40
0
40
0
40
1
40
1
40
1
41
1
10
-22.5
20
-13.4933966698402
30
0
41
1
10
-12.0999999999449
20
-13.7545973909208
30
0
41
1
10
-1.69999999999999
20
-14.0157977997179
30
0
0
SPLINE
5
182
100
AcDbEntity
8
SK1
62
256
6
ByLayer
370
18
48
1
60
0
100
AcDbSpline
70
4
71
2
72
6
73
3
40
0
40
0
40
0
40
1
40
1
40
1
41
1
10
-1.69999999999999
20
14.0157970602974
30
0
41
1
10
-12.099999999963
20
13.7545958471854
30
0
41
1
10
-22.5
20
13.493394380475
30
0
0
SPLINE
5
183
100
AcDbEntity
8
SK1
62
256
6
ByLayer
370
18
48
1
60
0
100
AcDbSpline
70
4
71
3
72
13
73
9
40
0
40
0
40
0
40
0
40
0.239456136997449
40
0.368359723417175
40
0.499998985516726
40
0.631638416576567
40
0.760542468702411
40
1
40
1
40
1
40
1
41
1
10
-1.69999999999999
20
-14.0200984156386
30
0
41
1
10
-1.6990919864528
20
-13.9940409390257
30
0
41
1
10
-1.69103284110332
20
-13.9566683539303
30
0
41
1
10
-1.66563592205637
20
-13.9104491790265
30
0
41
1
10
-1.63886378681673
20
-13.8791676243502
30
0
41
1
10
-1.60627712752267
20
-13.8540002532836
30
0
41
1
10
-1.5588406423667
20
-13.830956449625
30
0
41
1
10
-1.52111030874428
20
-13.8247841935567
30
0
41
1
10
-1.49503997793931
20
-13.8251858327438
30
0
0
SPLINE
5
184
100
AcDbEntity
8
SK1
62
256
6
ByLayer
370
18
48
1
60
0
100
AcDbSpline
70
4
71
3
72
13
73
9
40
0
40
0
40
0
40
0
40
0.239457531274807
40
0.368361583394193
40
0.500001014452292
40
0.631640276555059
40
0.760543862982143
40
1
40
1
40
1
40
1
41
1
10
-1.49503997793928
20
13.8251858293361
30
0
41
1
10
-1.52111030874488
20
13.8247841901529
30
0
41
1
10
-1.5588406423679
20
13.8309564462263
30
0
41
1
10
-1.60627712752327
20
13.8540002498915
30
0
41
1
10
-1.63886378681727
20
13.8791676209635
30
0
41
1
10
-1.66563592205674
20
13.9104491756451
30
0
41
1
10
-1.69103284110358
20
13.9566683505561
30
0
41
1
10
-1.69909198645305
20
13.9940409356568
30
0
41
1
10
-1.69999999999999
20
14.0200984122732
30
0
0
SPLINE
5
185
100
AcDbEntity
8
SK1
62
256
6
ByLayer
370
18
48
1
60
0
100
AcDbSpline
70
4
71
2
72
6
73
3
40
0
40
0
40
0
40
1
40
1
40
1
41
1
10
-24
20
-12.6310964932104
30
0
41
1
10
-23.2499999989322
20
-13.0640911753538
30
0
41
1
10
-22.5
20
-13.4970856697526
30
0
0
SPLINE
5
186
100
AcDbEntity
8
SK1
62
256
6
ByLayer
370
18
48
1
60
0
100
AcDbSpline
70
4
71
2
72
6
73
3
40
0
40
0
40
0
40
1
40
1
40
1
41
1
10
-22.5
20
13.4970852847173
30
0
41
1
10
-23.2499999989318
20
13.0640908004416
30
0
41
1
10
-24
20
12.6310961283886
30
0
0
SPLINE
5
187
100
AcDbEntity
8
SK1
62
256
6
ByLayer
370
18
48
1
60
0
100
AcDbSpline
70
4
71
2
72
6
73
3
40
0
40
0
40
0
40
1
40
1
40
1
41
1
10
-1.49503997793931
20
-13.7129410868425
30
0
41
1
10
-0.945008433407281
20
-13.7266599565288
30
0
41
1
10
-0.394976888875306
20
-13.7403788260786
30
0
0
SPLINE
5
188
100
AcDbEntity
8
SK1
62
256
6
ByLayer
370
18
48
1
60
0
100
AcDbSpline
70
4
71
2
72
6
73
3
40
0
40
0
40
0
40
1
40
1
40
1
41
1
10
-0.394976888875277
20
13.740379899128
30
0
41
1
10
-0.945008433407281
20
13.7266611372792
30
0
41
1
10
-1.49503997793928
20
13.7129423752897
30
0
0
SPLINE
5
189
100
AcDbEntity
8
1
62
256
6
ByLayer
370
18
48
1
60
0
100
AcDbSpline
70
4
71
3
72
10
73
6
40
0
40
0
40
0
40
0
40
0.852860150115104
40
0.852860150115104
40
1
40
1
40
1
40
1
41
1
10
40.6868968437962
20
-6.1761252885475
30
0
41
1
10
40.8073164883087
20
-5.98427546803197
30
0
41
1
10
40.9302670851828
20
-5.78833320650531
30
0
41
1
10
41.0969198327689
20
-5.52190320222246
30
0
41
1
10
41.1216952045349
20
-5.48229237877413
30
0
41
1
10
41.147237685698
20
-5.44142789929509
30
0
0
SPLINE
5
18A
100
AcDbEntity
8
1
62
256
6
ByLayer
370
18
48
1
60
0
100
AcDbSpline
70
4
71
2
72
6
73
3
40
0
40
0
40
0
40
1
40
1
40
1
41
1
10
40.6869547867476
20
-6.17609272985069
30
0
41
1
10
40.6407073929543
20
-5.94237452480678
30
0
41
1
10
40.5404426456208
20
-5.70500821781192
30
0
0
SPLINE
5
18B
100
AcDbEntity
8
SK1
62
256
6
ByLayer
370
18
48
1
60
0
100
AcDbSpline
70
4
71
3
72
24
73
20
40
0
40
0
40
0
40
0
40
0.001454438699516
40
0.001454438699516
40
0.361956423060072
40
0.361956423060072
40
0.727731599250285
40
0.727731599250285
40
0.782013304695362
40
0.782013304695362
40
0.837002501937685
40
0.837002501937685
40
0.873144196436423
40
0.873144196436423
40
0.909511909647804
40
0.909511909647804
40
0.952113857168662
40
0.952113857168662
40
1
40
1
40
1
40
1
41
1
10
-0.217773520819833
20
13.9477771104646
30
0
41
1
10
-0.217796303830511
20
13.9477385212397
30
0
41
1
10
-0.217819113763113
20
13.9476999169831
30
0
41
1
10
-0.223510113646824
20
13.9380759054837
30
0
41
1
10
-0.230869554015186
20
13.9275300777214
30
0
41
1
10
-0.252993763945881
20
13.9036085654018
30
0
41
1
10
-0.266169306055218
20
13.8900912648142
30
0
41
1
10
-0.299313210098944
20
13.8713678522793
30
0
41
1
10
-0.304168151080091
20
13.8688119846588
30
0
41
1
10
-0.315233613826848
20
13.8635902765912
30
0
41
1
10
-0.321588767727178
20
13.8608655729355
30
0
41
1
10
-0.333434048045547
20
13.8565368608439
30
0
41
1
10
-0.338587345813778
20
13.8548370746726
30
0
41
1
10
-0.349158334685967
20
13.8517865918864
30
0
41
1
10
-0.354704697438706
20
13.8504050227189
30
0
41
1
10
-0.366193697521936
20
13.847969712967
30
0
41
1
10
-0.37221373013341
20
13.8469665678177
30
0
41
1
10
-0.383950527302631
20
13.8454141457692
30
0
41
1
10
-0.389694590782
20
13.8449066720063
30
0
41
1
10
-0.394976888882155
20
13.8446015176357
30
0
0
SPLINE
5
18C
100
AcDbEntity
8
SK1
62
256
6
ByLayer
370
18
48
1
60
0
100
AcDbSpline
70
4
71
3
72
22
73
18
40
0
40
0
40
0
40
0
40
0.055719576402826
40
0.055719576402826
40
0.112580416271342
40
0.112580416271342
40
0.151496898629139
40
0.151496898629139
40
0.190204432258552
40
0.190204432258552
40
0.253674977810609
40
0.253674977810609
40
0.379229486612273
40
0.379229486612273
40
0.823820061021099
40
0.823820061021099
40
1
40
1
40
1
40
1
41
1
10
-0.394976888875306
20
-13.8446019297682
30
0
41
1
10
-0.389542940031561
20
-13.8449158599001
30
0
41
1
10
-0.383617593481006
20
-13.8454439659091
30
0
41
1
10
-0.370682577094897
20
-13.8471856765741
30
0
41
1
10
-0.363425095790518
20
-13.8484584409772
30
0
41
1
10
-0.350979043087193
20
-13.8513238322133
30
0
41
1
10
-0.345738104843406
20
-13.8527220431424
30
0
41
1
10
-0.335836036111374
20
-13.8557300394867
30
0
41
1
10
-0.331061234651429
20
-13.8573680363077
30
0
41
1
10
-0.319536857691617
20
-13.8617043765564
30
0
41
1
10
-0.313226439154875
20
-13.8644842406524
30
0
41
1
10
-0.296825865103983
20
-13.8724174982475
30
0
41
1
10
-0.288454852011284
20
-13.8774557840676
30
0
41
1
10
-0.256352537857253
20
-13.8987262995108
30
0
41
1
10
-0.243999907013659
20
-13.9124642192994
30
0
41
1
10
-0.229963428239699
20
-13.9295927568019
30
0
41
1
10
-0.22643928003356
20
-13.9342393022239
30
0
41
1
10
-0.223319935549568
20
-13.9386901109158
30
0
0
SPLINE
5
18D
100
AcDbEntity
8
SK1
62
256
6
ByLayer
370
18
48
1
60
0
100
AcDbSpline
70
4
71
3
72
118
73
114
40
0
40
0
40
0
40
0
40
0.007646163419986
40
0.0154178032192869
40
0.0231894430185879
40
0.0309610828178888
40
0.0387327226171897
40
0.0465043624164906
40
0.0542760022157915
40
0.0620476420150924
40
0.0698192818143933
40
0.0775909216136942
40
0.093134201212296
40
0.108677480810898
40
0.1242207604095
40
0.131992400208801
40
0.139764040008101
40
0.147535679807402
40
0.155307319606703
40
0.170850599205305
40
0.178622239004606
40
0.186393878803907
40
0.194165518603208
40
0.201937158402509
40
0.20970879820181
40
0.217480438001111
40
0.233023717599712
40
0.240795357399013
40
0.248566997198314
40
0.256338636997615
40
0.264110276796916
40
0.271881916596217
40
0.279653556395518
40
0.287425196194819
40
0.29519683599412
40
0.310740115592722
40
0.318511755392022
40
0.326283395191323
40
0.341826674789925
40
0.357369954388527
40
0.365141594187828
40
0.372913233987129
40
0.38068487378643
40
0.388456513585731
40
0.396228153385032
40
0.403999793184332
40
0.407885613083983
40
0.411771432983633
40
0.419543072782934
40
0.427314712582235
40
0.435086352381536
40
0.450629631980138
40
0.458401271779439
40
0.46617291157874
40
0.473944551378041
40
0.481716191177342
40
0.489487830976642
40
0.497259470775943
40
0.505031110575244
40
0.512802750374545
40
0.520574390173846
40
0.528346029973147
40
0.543889309571749
40
0.55166094937105
40
0.559432589170351
40
0.563318409070001
40
0.567204228969652
40
0.574975868768952
40
0.590519148367554
40
0.598290788166855
40
0.606062427966156
40
0.621605707564758
40
0.63714898716336
40
0.644920626962661
40
0.652692266761961
40
0.668235546360563
40
0.676007186159864
40
0.683778825959165
40
0.691550465758466
40
0.699322105557767
40
0.707093745357068
40
0.714865385156369
40
0.730408664754971
40
0.745951944353572
40
0.753723584152873
40
0.761495223952174
40
0.769266863751475
40
0.777038503550776
40
0.792581783149378
40
0.80812506274798
40
0.823668342346582
40
0.839211621945184
40
0.846983261744484
40
0.854754901543785
40
0.862526541343086
40
0.870298181142387
40
0.878069820941688
40
0.885841460740989
40
0.89361310054029
40
0.901384740339591
40
0.909156380138892
40
0.916928019938193
40
0.924699659737493
40
0.932471299536795
40
0.940242939336095
40
0.948014579135396
40
0.955786218934697
40
0.963557858733998
40
0.971329498533299
40
0.9791011383326
40
0.986872778131901
40
0.994644417931202
40
1
40
1
40
1
40
1
41
1
10
-1.69999999999999
20
14.0157582214964
30
0
41
1
10
-1.69999999999996
20
14.0171808699082
30
0
41
1
10
-1.69999999999999
20
14.0193350222577
30
0
41
1
10
-1.69999999999999
20
14.0204498319149
30
0
41
1
10
-1.69999999999999
20
14.0194577493028
30
0
41
1
10
-1.69999999999999
20
14.0163929237538
30
0
41
1
10
-1.69999999999999
20
14.0112928179987
30
0
41
1
10
-1.69999999999999
20
14.0041925984504
30
0
41
1
10
-1.69999999999999
20
13.9951252442004
30
0
41
1
10
-1.69999999999999
20
13.9841239086368
30
0
41
1
10
-1.69999999999999
20
13.9712195253815
30
0
41
1
10
-1.69999999999999
20
13.9515178138587
30
0
41
1
10
-1.69999999999999
20
13.9222750232465
30
0
41
1
10
-1.69999999999999
20
13.8800204120324
30
0
41
1
10
-1.69999999999999
20
13.838998019961
30
0
41
1
10
-1.69999999999999
20
13.8027899045868
30
0
41
1
10
-1.69999999999999
20
13.773955994413
30
0
41
1
10
-1.69999999999999
20
13.7434660879001
30
0
41
1
10
-1.69999999999999
20
13.7006353174901
30
0
41
1
10
-1.69999999999999
20
13.6545611373555
30
0
41
1
10
-1.69999999999999
20
13.6053355893185
30
0
41
1
10
-1.69999999999999
20
13.5668499361124
30
0
41
1
10
-1.69999999999999
20
13.5268172028035
30
0
41
1
10
-1.69999999999999
20
13.485252935173
30
0
41
1
10
-1.69999999999999
20
13.4421723218484
30
0
41
1
10
-1.69999999999999
20
13.3827344162836
30
0
41
1
10
-1.69999999999999
20
13.3203101073726
30
0
41
1
10
-1.69999999999999
20
13.254979960848
30
0
41
1
10
-1.69999999999999
20
13.2045321061977
30
0
41
1
10
-1.69999999999999
20
13.1526505121852
30
0
41
1
10
-1.69999999999999
20
13.099347414251
30
0
41
1
10
-1.69999999999999
20
13.0446338149516
30
0
41
1
10
-1.69999999999999
20
12.9885220902628
30
0
41
1
10
-1.69999999999999
20
12.9310230723471
30
0
41
1
10
-1.69999999999999
20
12.8525264142953
30
0
41
1
10
-1.69999999999999
20
12.7712834714132
30
0
41
1
10
-1.69999999999999
20
12.6873624197502
30
0
41
1
10
-1.69999999999999
20
12.6016598943421
30
0
41
1
10
-1.69999999999999
20
12.4912006491746
30
0
41
1
10
-1.69999999999999
20
12.3763763558488
30
0
41
1
10
-1.69999999999999
20
12.2819406900945
30
0
41
1
10
-1.69999999999999
20
12.209824815618
30
0
41
1
10
-1.69999999999999
20
12.1364316894724
30
0
41
1
10
-1.69999999999999
20
12.0617686582407
30
0
41
1
10
-1.69999999999999
20
11.9858436758677
30
0
41
1
10
-1.69999999999999
20
11.9215236068653
30
0
41
1
10
-1.69999999999999
20
11.8694488081267
30
0
41
1
10
-1.69999999999999
20
11.8169591426362
30
0
41
1
10
-1.69999999999999
20
11.7505641289662
30
0
41
1
10
-1.69999999999999
20
11.6696587742526
30
0
41
1
10
-1.69999999999999
20
11.5601529159528
30
0
41
1
10
-1.69999999999999
20
11.448182891669
30
0
41
1
10
-1.69999999999999
20
11.3338110499831
30
0
41
1
10
-1.69999999999999
20
11.2468221792499
30
0
41
1
10
-1.69999999999999
20
11.1586337603462
30
0
41
1
10
-1.69999999999999
20
11.0692509372408
30
0
41
1
10
-1.69999999999999
20
10.9786794422307
30
0
41
1
10
-1.69999999999999
20
10.8869237783616
30
0
41
1
10
-1.69999999999999
20
10.7939888359847
30
0
41
1
10
-1.69999999999999
20
10.6998796425436
30
0
41
1
10
-1.69999999999999
20
10.6046008465563
30
0
41
1
10
-1.69999999999999
20
10.4760157679139
30
0
41
1
10
-1.69999999999999
20
10.3450861470912
30
0
41
1
10
-1.69999999999999
20
10.2118742799613
30
0
41
1
10
-1.69999999999999
20
10.1276505623382
30
0
41
1
10
-1.69999999999999
20
10.0597065749413
30
0
41
1
10
-1.69999999999999
20
9.9913814320609
30
0
41
1
10
-1.69999999999999
20
9.87081043657869
30
0
41
1
10
-1.69999999999999
20
9.73071862052217
30
0
41
1
10
-1.69999999999999
20
9.58839008121353
30
0
41
1
10
-1.69999999999999
20
9.44455854729449
30
0
41
1
10
-1.69999999999999
20
9.26193698423123
30
0
41
1
10
-1.69999999999999
20
9.07558727703642
30
0
41
1
10
-1.69999999999999
20
8.92429760284432
30
0
41
1
10
-1.69999999999999
20
8.77152766795061
30
0
41
1
10
-1.69999999999999
20
8.61651162008161
30
0
41
1
10
-1.69999999999999
20
8.45931945344486
30
0
41
1
10
-1.69999999999999
20
8.34031606829598
30
0
41
1
10
-1.69999999999999
20
8.22021379775831
30
0
41
1
10
-1.69999999999999
20
8.09901464495698
30
0
41
1
10
-1.69999999999999
20
7.9767200242907
30
0
41
1
10
-1.69999999999999
20
7.81221411547432
30
0
41
1
10
-1.69999999999999
20
7.60382755625838
30
0
41
1
10
-1.69999999999999
20
7.39181445781463
30
0
41
1
10
-1.69999999999999
20
7.22005470774221
30
0
41
1
10
-1.69999999999999
20
7.09014226669851
30
0
41
1
10
-1.69999999999999
20
6.95914717066265
30
0
41
1
10
-1.69999999999999
20
6.7830583657493
30
0
41
1
10
-1.69999999999999
20
6.56021848903171
30
0
41
1
10
-1.69999999999999
20
6.28851700104784
30
0
41
1
10
-1.69999999999999
20
6.01251447744062
30
0
41
1
10
-1.69999999999999
20
5.77892152059965
30
0
41
1
10
-1.69999999999999
20
5.58993216915877
30
0
41
1
10
-1.69999999999999
20
5.44710899667646
30
0
41
1
10
-1.69999999999999
20
5.30321729486519
30
0
41
1
10
-1.69999999999999
20
5.15825857839869
30
0
41
1
10
-1.69999999999999
20
5.01223405348068
30
0
41
1
10
-1.69999999999999
20
4.86514556778678
30
0
41
1
10
-1.69999999999999
20
4.71699468615466
30
0
41
1
10
-1.69999999999999
20
4.56778337246482
30
0
41
1
10
-1.69999999999999
20
4.41751381174834
30
0
41
1
10
-1.69999999999999
20
4.26618872973953
30
0
41
1
10
-1.69999999999999
20
4.11381092681606
30
0
41
1
10
-1.69999999999999
20
3.96038358832212
30
0
41
1
10
-1.69999999999999
20
3.80591077742719
30
0
41
1
10
-1.69999999999999
20
3.65039714326571
30
0
41
1
10
-1.69999999999999
20
3.49384789900154
30
0
41
1
10
-1.69999999999999
20
3.33626943234705
30
0
41
1
10
-1.69999999999999
20
3.17766893265431
30
0
41
1
10
-1.69999999999999
20
3.01805527431182
30
0
41
1
10
-1.69999999999999
20
2.85743846779499
30
0
41
1
10
-1.69999999999999
20
2.71257747642741
30
0
41
1
10
-1.69999999999999
20
2.62111404232408
30
0
41
1
10
-1.69999999999999
20
2.58372509632827
30
0
0
SPLINE
5
18E
100
AcDbEntity
8
SK1
62
256
6
ByLayer
370
18
48
1
60
0
100
AcDbSpline
70
4
71
3
72
120
73
116
40
0
40
0
40
0
40
0
40
0.0053555999505168
40
0.0131272596109913
40
0.0208989192714659
40
0.0286705789319404
40
0.036442238592415
40
0.0442138982528895
40
0.0519855579133641
40
0.0597572175738386
40
0.0675288772343132
40
0.0753005368947877
40
0.0830721965552622
40
0.0908438562157368
40
0.0986155158762113
40
0.106387175536686
40
0.11415883519716
40
0.121930494857635
40
0.12970215451811
40
0.137473814178584
40
0.145245473839059
40
0.153017133499533
40
0.160788793160008
40
0.176332112480957
40
0.191875431801906
40
0.207418751122855
40
0.222962070443804
40
0.230733730104279
40
0.238505389764753
40
0.246277049425228
40
0.254048709085702
40
0.269592028406651
40
0.2851353477276
40
0.292907007388075
40
0.30067866704855
40
0.308450326709024
40
0.316221986369499
40
0.323993646029973
40
0.331765305690448
40
0.347308625011397
40
0.355080284671871
40
0.362851944332346
40
0.378395263653295
40
0.393938582974244
40
0.401710242634719
40
0.409481902295193
40
0.425025221616142
40
0.432796881276617
40
0.436682711106854
40
0.440568540937091
40
0.448340200597566
40
0.45611186025804
40
0.471655179578989
40
0.479426839239464
40
0.487198498899939
40
0.494970158560413
40
0.502741818220888
40
0.510513477881362
40
0.518285137541837
40
0.526056797202311
40
0.533828456862786
40
0.54160011652326
40
0.549371776183735
40
0.564915095504684
40
0.572686755165158
40
0.580458414825633
40
0.588230074486108
40
0.592115904316345
40
0.596001734146582
40
0.603773393807057
40
0.611545053467531
40
0.619316713128006
40
0.62708837278848
40
0.634860032448955
40
0.64263169210943
40
0.658175011430378
40
0.673718330751328
40
0.681489990411802
40
0.689261650072277
40
0.704804969393226
40
0.7125766290537
40
0.720348288714175
40
0.728119948374649
40
0.735891608035124
40
0.743663267695599
40
0.751434927356073
40
0.759206587016548
40
0.766978246677022
40
0.782521565997971
40
0.790293225658446
40
0.79806488531892
40
0.805836544979395
40
0.813608204639869
40
0.821379864300344
40
0.829151523960818
40
0.844694843281768
40
0.852466502942242
40
0.860238162602717
40
0.868009822263191
40
0.875781481923666
40
0.891324801244615
40
0.899096460905089
40
0.906868120565564
40
0.914639780226039
40
0.922411439886513
40
0.930183099546988
40
0.937954759207462
40
0.945726418867937
40
0.953498078528411
40
0.961269738188886
40
0.96904139784936
40
0.976813057509835
40
0.984584717170309
40
0.992356376830784
40
1
40
1
40
1
40
1
41
1
10
-1.69999999999999
20
-2.5837250319525
30
0
41
1
10
-1.69999999999999
20
-2.62111400924692
30
0
41
1
10
-1.69999999999999
20
-2.71257747842986
30
0
41
1
10
-1.69999999999999
20
-2.85743848960826
30
0
41
1
10
-1.69999999999999
20
-3.01805529196176
30
0
41
1
10
-1.69999999999999
20
-3.17766896347746
30
0
41
1
10
-1.69999999999999
20
-3.33626946559076
30
0
41
1
10
-1.69999999999999
20
-3.49384788295134
30
0
41
1
10
-1.69999999999999
20
-3.65039703338328
30
0
41
1
10
-1.69999999999999
20
-3.80591068333541
30
0
41
1
10
-1.69999999999999
20
-3.9603838288908
30
0
41
1
10
-1.69999999999999
20
-4.11381118090259
30
0
41
1
10
-1.69999999999999
20
-4.26618881241484
30
0
41
1
10
-1.69999999999999
20
-4.41751369191317
30
0
41
1
10
-1.69999999999999
20
-4.56778315161375
30
0
41
1
10
-1.69999999999999
20
-4.7169946256985
30
0
41
1
10
-1.69999999999999
20
-4.86514572624662
30
0
41
1
10
-1.69999999999999
20
-5.01223421717728
30
0
41
1
10
-1.69999999999999
20
-5.15825863689906
30
0
41
1
10
-1.69999999999999
20
-5.30321731736851
30
0
41
1
10
-1.69999999999999
20
-5.44710902267545
30
0
41
1
10
-1.69999999999999
20
-5.58993219435266
30
0
41
1
10
-1.69999999999999
20
-5.77892152593586
30
0
41
1
10
-1.69999999999999
20
-6.01251450148573
30
0
41
1
10
-1.69999999999999
20
-6.28851702131561
30
0
41
1
10
-1.69999999999999
20
-6.56021849497904
30
0
41
1
10
-1.69999999999999
20
-6.78305839594086
30
0
41
1
10
-1.69999999999999
20
-6.95914718913937
30
0
41
1
10
-1.69999999999999
20
-7.0901422748378
30
0
41
1
10
-1.69999999999999
20
-7.22005471809891
30
0
41
1
10
-1.69999999999999
20
-7.391814483107
30
0
41
1
10
-1.69999999999999
20
-7.60382757721297
30
0
41
1
10
-1.69999999999999
20
-7.81221412115067
30
0
41
1
10
-1.69999999999999
20
-7.97672004102665
30
0
41
1
10
-1.69999999999999
20
-8.09901466976936
30
0
41
1
10
-1.69999999999999
20
-8.22021382021134
30
0
41
1
10
-1.69999999999999
20
-8.34031608257325
30
0
41
1
10
-1.69999999999999
20
-8.45931946186533
30
0
41
1
10
-1.69999999999999
20
-8.61651163422607
30
0
41
1
10
-1.69999999999999
20
-8.77152769372714
30
0
41
1
10
-1.69999999999999
20
-8.92429762219672
30
0
41
1
10
-1.69999999999999
20
-9.07558728630886
30
0
41
1
10
-1.69999999999999
20
-9.26193699842017
30
0
41
1
10
-1.69999999999999
20
-9.44455857133374
30
0
41
1
10
-1.69999999999999
20
-9.58839009925038
30
0
41
1
10
-1.69999999999999
20
-9.73071863089592
30
0
41
1
10
-1.69999999999999
20
-9.87081045044334
30
0
41
1
10
-1.69999999999999
20
-9.99138145148612
30
0
41
1
10
-1.69999999999999
20
-10.059706595653
30
0
41
1
10
-1.69999999999999
20
-10.127650582945
30
0
41
1
10
-1.69999999999999
20
-10.2118742978003
30
0
41
1
10
-1.69999999999999
20
-10.3450861597474
30
0
41
1
10
-1.69999999999999
20
-10.4760157822056
30
0
41
1
10
-1.69999999999999
20
-10.6046008653873
30
0
41
1
10
-1.69999999999999
20
-10.6998796625668
30
0
41
1
10
-1.69999999999999
20
-10.7939888545435
30
0
41
1
10
-1.69999999999999
20
-10.8869237943964
30
0
41
1
10
-1.69999999999999
20
-10.9786794570574
30
0
41
1
10
-1.69999999999999
20
-11.069250952524
30
0
41
1
10
-1.69999999999999
20
-11.1586337774266
30
0
41
1
10
-1.69999999999999
20
-11.2468221981049
30
0
41
1
10
-1.69999999999999
20
-11.3338110691597
30
0
41
1
10
-1.69999999999999
20
-11.4481829097131
30
0
41
1
10
-1.69999999999999
20
-11.5601529310588
30
0
41
1
10
-1.69999999999999
20
-11.6696587897978
30
0
41
1
10
-1.69999999999999
20
-11.7505641463283
30
0
41
1
10
-1.69999999999999
20
-11.8169591619061
30
0
41
1
10
-1.69999999999999
20
-11.869448828233
30
0
41
1
10
-1.69999999999999
20
-11.9215236271769
30
0
41
1
10
-1.69999999999999
20
-11.9858436943514
30
0
41
1
10
-1.69999999999999
20
-12.0617686735772
30
0
41
1
10
-1.69999999999999
20
-12.1364317035572
30
0
41
1
10
-1.69999999999999
20
-12.2098248313331
30
0
41
1
10
-1.69999999999999
20
-12.2819407102379
30
0
41
1
10
-1.69999999999999
20
-12.3763763795169
30
0
41
1
10
-1.69999999999999
20
-12.4912006631364
30
0
41
1
10
-1.69999999999999
20
-12.6016599065257
30
0
41
1
10
-1.69999999999999
20
-12.687362440577
30
0
41
1
10
-1.69999999999999
20
-12.7712834981639
30
0
41
1
10
-1.69999999999999
20
-12.8525264302737
30
0
41
1
10
-1.69999999999999
20
-12.9310230820619
30
0
41
1
10
-1.69999999999999
20
-12.9885221046098
30
0
41
1
10
-1.69999999999999
20
-13.0446338377524
30
0
41
1
10
-1.69999999999999
20
-13.0993474417035
30
0
41
1
10
-1.69999999999999
20
-13.1526505331688
30
0
41
1
10
-1.69999999999999
20
-13.2045321176789
30
0
41
1
10
-1.69999999999999
20
-13.2549799687684
30
0
41
1
10
-1.69999999999999
20
-13.3203101272292
30
0
41
1
10
-1.69999999999999
20
-13.3827344481881
30
0
41
1
10
-1.69999999999999
20
-13.4421723383994
30
0
41
1
10
-1.69999999999999
20
-13.4852529409442
30
0
41
1
10
-1.69999999999999
20
-13.5268172136993
30
0
41
1
10
-1.69999999999999
20
-13.5668499598694
30
0
41
1
10
-1.69999999999999
20
-13.6053356175566
30
0
41
1
10
-1.69999999999999
20
-13.6545611570253
30
0
41
1
10
-1.69999999999999
20
-13.7006353167884
30
0
41
1
10
-1.69999999999999
20
-13.7434661079967
30
0
41
1
10
-1.69999999999999
20
-13.7739560268625
30
0
41
1
10
-1.69999999999999
20
-13.8027899277569
30
0
41
1
10
-1.69999999999999
20
-13.8389980176944
30
0
41
1
10
-1.69999999999999
20
-13.8718187984145
30
0
41
1
10
-1.69999999999999
20
-13.9011479145568
30
0
41
1
10
-1.69999999999999
20
-13.9213794981548
30
0
41
1
10
-1.69999999999999
20
-13.9398197437578
30
0
41
1
10
-1.69999999999999
20
-13.9564420504847
30
0
41
1
10
-1.69999999999999
20
-13.9712195410175
30
0
41
1
10
-1.69999999999999
20
-13.9841238377961
30
0
41
1
10
-1.69999999999999
20
-13.9951249982352
30
0
41
1
10
-1.69999999999999
20
-14.0041924220526
30
0
41
1
10
-1.69999999999999
20
-14.0112932507837
30
0
41
1
10
-1.69999999999999
20
-14.0163938901866
30
0
41
1
10
-1.69999999999999
20
-14.019458382701
30
0
41
1
10
-1.69999999999999
20
-14.0204497516689
30
0
41
1
10
-1.69999999999999
20
-14.0193347369783
30
0
41
1
10
-1.70000000000002
20
-14.0171811884928
30
0
41
1
10
-1.70000000000002
20
-14.0157592864049
30
0
0
SPLINE
5
18F
100
AcDbEntity
8
SK1
62
256
6
ByLayer
370
18
48
1
60
0
100
AcDbSpline
70
4
71
3
72
287
73
283
40
0
40
0
40
0
40
0
40
0.0011531082452614
40
0.0046415520602151
40
0.0081299958751687
40
0.0116184396901223
40
0.0151068835050759
40
0.0185953273200295
40
0.0220837711349832
40
0.0255722149499368
40
0.0290606587648904
40
0.032549102579844
40
0.0395259902097512
40
0.0465028778396584
40
0.0534797654695657
40
0.0569682092845193
40
0.0604566530994729
40
0.0639450969144265
40
0.0674335407293802
40
0.0744104283592874
40
0.077898872174241
40
0.0813873159891946
40
0.0848757598041483
40
0.0883642036191018
40
0.0918526474340555
40
0.0953410912490091
40
0.102317978878916
40
0.10580642269387
40
0.109294866508824
40
0.112783310323777
40
0.116271754138731
40
0.119760197953684
40
0.123248641768638
40
0.126737085583592
40
0.130225529398545
40
0.137202417028453
40
0.140690860843406
40
0.14417930465836
40
0.151156192288267
40
0.158133079918174
40
0.161621523733128
40
0.165109967548081
40
0.168598411363035
40
0.172086855177989
40
0.175575298992942
40
0.179063742807896
40
0.180807964715373
40
0.182552186622849
40
0.186040630437803
40
0.189529074252757
40
0.19301751806771
40
0.199994405697618
40
0.203482849512571
40
0.206971293327525
40
0.210459737142479
40
0.213948180957432
40
0.217436624772386
40
0.220925068587339
40
0.224413512402293
40
0.227901956217246
40
0.2313904000322
40
0.234878843847154
40
0.241855731477061
40
0.245344175292014
40
0.248832619106968
40
0.250576841014445
40
0.252321062921922
40
0.255809506736875
40
0.262786394366783
40
0.266274838181736
40
0.26976328199669
40
0.276740169626597
40
0.283717057256504
40
0.287205501071458
40
0.290693944886412
40
0.297670832516319
40
0.301159276331272
40
0.304647720146226
40
0.30813616396118
40
0.311624607776133
40
0.315113051591087
40
0.31860149540604
40
0.325578383035948
40
0.332555270665855
40
0.336043714480809
40
0.339532158295762
40
0.343020602110716
40
0.34650904592567
40
0.353485933555577
40
0.360462821185484
40
0.367439708815391
40
0.374416596445298
40
0.377905040260252
40
0.381393484075206
40
0.384881927890159
40
0.388370371705113
40
0.391858815520067
40
0.39534725933502
40
0.398835703149974
40
0.402324146964927
40
0.405812590779881
40
0.409301034594835
40
0.412789478409788
40
0.416277922224742
40
0.419766366039696
40
0.423254809854649
40
0.426743253669603
40
0.430231697484556
40
0.43372014129951
40
0.437208585114463
40
0.440697028929417
40
0.444185472744371
40
0.447673916559324
40
0.449418138466801
40
0.451162360374278
40
0.454650804189231
40
0.456395026096708
40
0.458139248004185
40
0.459883469911662
40
0.461627691819139
40
0.463371913726616
40
0.465116135634092
40
0.466860357541569
40
0.468604579449046
40
0.472093023264
40
0.473837245171477
40
0.475581467078953
40
0.47732568898643
40
0.479069910893907
40
0.480814132801384
40
0.48255835470886
40
0.484302576616337
40
0.486046798523814
40
0.487791020431291
40
0.489535242338768
40
0.491279464246245
40
0.493023686153721
40
0.494767908061198
40
0.496512129968675
40
0.498256351876152
40
0.500000573783629
40
0.501744795691105
40
0.503489017598582
40
0.505233239506059
40
0.506977461413536
40
0.508721683321013
40
0.510465905228489
40
0.512210127135966
40
0.513954349043443
40
0.51569857095092
40
0.517442792858397
40
0.519187014765873
40
0.52093123667335
40
0.522675458580827
40
0.524419680488304
40
0.526163902395781
40
0.527908124303258
40
0.531396568118211
40
0.533140790025688
40
0.534885011933165
40
0.536629233840642
40
0.538373455748118
40
0.540117677655595
40
0.541861899563072
40
0.543606121470549
40
0.545350343378026
40
0.548838787192979
40
0.550583009100456
40
0.552327231007933
40
0.555815674822886
40
0.55930411863784
40
0.562792562452794
40
0.566281006267747
40
0.569769450082701
40
0.573257893897654
40
0.576746337712608
40
0.580234781527562
40
0.583723225342515
40
0.587211669157469
40
0.590700112972423
40
0.594188556787376
40
0.59767700060233
40
0.601165444417283
40
0.604653888232237
40
0.608142332047191
40
0.611630775862144
40
0.615119219677098
40
0.618607663492052
40
0.622096107307005
40
0.625584551121959
40
0.632561438751866
40
0.639538326381773
40
0.64651521401168
40
0.653492101641588
40
0.656980545456541
40
0.660468989271495
40
0.663957433086449
40
0.667445876901402
40
0.674422764531309
40
0.681399652161217
40
0.68488809597617
40
0.688376539791124
40
0.691864983606077
40
0.695353427421031
40
0.698841871235985
40
0.702330315050938
40
0.709307202680845
40
0.712795646495799
40
0.716284090310753
40
0.72326097794066
40
0.730237865570567
40
0.733726309385521
40
0.737214753200474
40
0.744191640830382
40
0.747680084645335
40
0.749424306552812
40
0.751168528460289
40
0.754656972275243
40
0.758145416090196
40
0.765122303720103
40
0.768610747535057
40
0.772099191350011
40
0.775587635164964
40
0.779076078979918
40
0.782564522794871
40
0.786052966609825
40
0.789541410424779
40
0.793029854239732
40
0.796518298054686
40
0.800006741869639
40
0.806983629499547
40
0.8104720733145
40
0.813960517129454
40
0.817448960944408
40
0.819193182851884
40
0.820937404759361
40
0.824425848574315
40
0.827914292389268
40
0.831402736204222
40
0.834891180019176
40
0.838379623834129
40
0.841868067649083
40
0.84884495527899
40
0.855821842908897
40
0.859310286723851
40
0.862798730538805
40
0.869775618168712
40
0.873264061983665
40
0.876752505798619
40
0.880240949613573
40
0.883729393428526
40
0.88721783724348
40
0.890706281058434
40
0.894194724873387
40
0.897683168688341
40
0.904660056318248
40
0.908148500133201
40
0.911636943948155
40
0.915125387763109
40
0.918613831578063
40
0.922102275393016
40
0.92559071920797
40
0.932567606837877
40
0.93605605065283
40
0.939544494467784
40
0.943032938282738
40
0.946521382097691
40
0.953498269727599
40
0.956986713542552
40
0.960475157357506
40
0.963963601172459
40
0.967452044987413
40
0.970940488802367
40
0.97442893261732
40
0.977917376432274
40
0.981405820247228
40
0.984894264062181
40
0.988382707877135
40
0.991871151692089
40
0.995359595507042
40
0.998848039321996
40
1
40
1
40
1
40
1
41
1
10
-22.5
20
13.4956358166377
30
0
41
1
10
-22.5
20
13.4959443702163
30
0
41
1
10
-22.5
20
13.4970336854413
30
0
41
1
10
-22.5
20
13.4978716184631
30
0
41
1
10
-22.5
20
13.4969161903089
30
0
41
1
10
-22.5
20
13.4939625245411
30
0
41
1
10
-22.5
20
13.4890441905268
30
0
41
1
10
-22.5
20
13.4821928739338
30
0
41
1
10
-22.5
20
13.4734382711797
30
0
41
1
10
-22.5
20
13.4628104278487
30
0
41
1
10
-22.5
20
13.4503375493538
30
0
41
1
10
-22.5
20
13.4312436783152
30
0
41
1
10
-22.5
20
13.402990048048
30
0
41
1
10
-22.5
20
13.3620642251226
30
0
41
1
10
-22.5
20
13.3223661774289
30
0
41
1
10
-22.5
20
13.2871835761246
30
0
41
1
10
-22.5
20
13.2592104836088
30
0
41
1
10
-22.5
20
13.2296213566399
30
0
41
1
10
-22.5
20
13.1879639126742
30
0
41
1
10
-22.5
20
13.1433841284413
30
0
41
1
10
-22.5
20
13.0954724183383
30
0
41
1
10
-22.5
20
13.0580720783436
30
0
41
1
10
-22.5
20
13.0191589474766
30
0
41
1
10
-22.5
20
12.9787481075025
30
0
41
1
10
-22.5
20
12.9368537004399
30
0
41
1
10
-22.5
20
12.8789379874313
30
0
41
1
10
-22.5
20
12.8184132188765
30
0
41
1
10
-22.5
20
12.7547247883428
30
0
41
1
10
-22.5
20
12.7056201369325
30
0
41
1
10
-22.5
20
12.6551113810006
30
0
41
1
10
-22.5
20
12.6032111684974
30
0
41
1
10
-22.5
20
12.5499297998313
30
0
41
1
10
-22.5
20
12.4952790326449
30
0
41
1
10
-22.5
20
12.4392702770472
30
0
41
1
10
-22.5
20
12.3626709718699
30
0
41
1
10
-22.5
20
12.2837700633604
30
0
41
1
10
-22.5
20
12.2018541666219
30
0
41
1
10
-22.5
20
12.1181901660327
30
0
41
1
10
-22.5
20
12.0106580823312
30
0
41
1
10
-22.5
20
11.8988607853737
30
0
41
1
10
-22.5
20
11.8066390784571
30
0
41
1
10
-22.5
20
11.7363216027856
30
0
41
1
10
-22.5
20
11.6647550005754
30
0
41
1
10
-22.5
20
11.59194615036
30
0
41
1
10
-22.5
20
11.5179033392113
30
0
41
1
10
-22.5
20
11.4552554262223
30
0
41
1
10
-22.5
20
11.4043880916922
30
0
41
1
10
-22.5
20
11.3531143221947
30
0
41
1
10
-22.5
20
11.2884404549429
30
0
41
1
10
-22.5
20
11.2095312020912
30
0
41
1
10
-22.5
20
11.1025558247745
30
0
41
1
10
-22.5
20
10.9936883814227
30
0
41
1
10
-22.5
20
10.881957392112
30
0
41
1
10
-22.5
20
10.7971107518715
30
0
41
1
10
-22.5
20
10.7110949831286
30
0
41
1
10
-22.5
20
10.6239149454148
30
0
41
1
10
-22.5
20
10.5355769819029
30
0
41
1
10
-22.5
20
10.4460865275718
30
0
41
1
10
-22.5
20
10.3554481215356
30
0
41
1
10
-22.5
20
10.2636670923514
30
0
41
1
10
-22.5
20
10.1707494549495
30
0
41
1
10
-22.5
20
10.0451570413025
30
0
41
1
10
-22.5
20
9.9178935930201
30
0
41
1
10
-22.5
20
9.78780083934149
30
0
41
1
10
-22.5
20
9.70579078784203
30
0
41
1
10
-22.5
20
9.63944489130404
30
0
41
1
10
-22.5
20
9.57273011219269
30
0
41
1
10
-22.5
20
9.45508832781687
30
0
41
1
10
-22.5
20
9.31898450356377
30
0
41
1
10
-22.5
20
9.18004983919923
30
0
41
1
10
-22.5
20
9.03966368952015
30
0
41
1
10
-22.5
20
8.86197296792949
30
0
41
1
10
-22.5
20
8.68069429175796
30
0
41
1
10
-22.5
20
8.53310893756458
30
0
41
1
10
-22.5
20
8.38410353449396
30
0
41
1
10
-22.5
20
8.23370690743869
30
0
41
1
10
-22.5
20
8.08045168982594
30
0
41
1
10
-22.5
20
7.96465014223952
30
0
41
1
10
-22.5
20
7.84779993569691
30
0
41
1
10
-22.5
20
7.72990617143802
30
0
41
1
10
-22.5
20
7.61097083499584
30
0
41
1
10
-22.5
20
7.45073654157579
30
0
41
1
10
-22.5
20
7.24848505186407
30
0
41
1
10
-22.5
20
7.04280518235291
30
0
41
1
10
-22.5
20
6.87569112826711
30
0
41
1
10
-22.5
20
6.74956632065386
30
0
41
1
10
-22.5
20
6.62242827644155
30
0
41
1
10
-22.5
20
6.4512555331213
30
0
41
1
10
-22.5
20
6.23550102644131
30
0
41
1
10
-22.5
20
5.97220551217549
30
0
41
1
10
-22.5
20
5.70495651005669
30
0
41
1
10
-22.5
20
5.47933703035866
30
0
41
1
10
-22.5
20
5.29623480232564
30
0
41
1
10
-22.5
20
5.15823567759486
30
0
41
1
10
-22.5
20
5.01927995326392
30
0
41
1
10
-22.5
20
4.87937450907222
30
0
41
1
10
-22.5
20
4.73852599905979
30
0
41
1
10
-22.5
20
4.59674211262629
30
0
41
1
10
-22.5
20
4.45403157575558
30
0
41
1
10
-22.5
20
4.31040309161111
30
0
41
1
10
-22.5
20
4.16586580001649
30
0
41
1
10
-22.5
20
4.02043049501106
30
0
41
1
10
-22.5
20
3.87410976932693
30
0
41
1
10
-22.5
20
3.72691565105669
30
0
41
1
10
-22.5
20
3.57886126909133
30
0
41
1
10
-22.5
20
3.4299627769704
30
0
41
1
10
-22.5
20
3.28023687778401
30
0
41
1
10
-22.5
20
3.12970257053468
30
0
41
1
10
-22.5
20
2.97838003358396
30
0
41
1
10
-22.5
20
2.8262921676581
30
0
41
1
10
-22.5
20
2.67346525953189
30
0
41
1
10
-22.5
20
2.51992549648591
30
0
41
1
10
-22.5
20
2.39172828921559
30
0
41
1
10
-22.5
20
2.2882368400623
30
0
41
1
10
-22.5
20
2.18454587114542
30
0
41
1
10
-22.5
20
2.08161602870015
30
0
41
1
10
-22.5
20
1.97729727415896
30
0
41
1
10
-22.5
20
1.89920682890118
30
0
41
1
10
-22.5
20
1.82098464012651
30
0
41
1
10
-22.5
20
1.74263823347056
30
0
41
1
10
-22.5
20
1.66417084854152
30
0
41
1
10
-22.5
20
1.58559123041411
30
0
41
1
10
-22.5
20
1.50690426712365
30
0
41
1
10
-22.5
20
1.40144074045128
30
0
41
1
10
-22.5
20
1.29707563275716
30
0
41
1
10
-22.5
20
1.1912185842138
30
0
41
1
10
-22.5
20
1.11209553564783
30
0
41
1
10
-22.5
20
1.03290644237791
30
0
41
1
10
-22.5
20
0.95365606681014
30
0
41
1
10
-22.5
20
0.874352168955852
30
0
41
1
10
-22.5
20
0.795000198505278
30
0
41
1
10
-22.5
20
0.71560660892132
30
0
41
1
10
-22.5
20
0.63617666680787
30
0
41
1
10
-22.5
20
0.556715993884097
30
0
41
1
10
-22.5
20
0.477229338262958
30
0
41
1
10
-22.5
20
0.397721593521055
30
0
41
1
10
-22.5
20
0.318196568076161
30
0
41
1
10
-22.5
20
0.238658582119825
30
0
41
1
10
-22.5
20
0.159110826532412
30
0
41
1
10
-22.5
20
0.0795570008675952
30
0
41
1
10
-22.5
20
-4.3520458E-09
30
0
41
1
10
-22.5
20
-0.0795570195282949
30
0
41
1
10
-22.5
20
-0.159110863620981
30
0
41
1
10
-22.5
20
-0.238658616598514
30
0
41
1
10
-22.5
20
-0.318196574925025
30
0
41
1
10
-22.5
20
-0.397721596430074
30
0
41
1
10
-22.5
20
-0.477229377934975
30
0
41
1
10
-22.5
20
-0.556716044364009
30
0
41
1
10
-22.5
20
-0.63617667254502
30
0
41
1
10
-22.5
20
-0.715606595157226
30
0
41
1
10
-22.5
20
-0.795000235128668
30
0
41
1
10
-22.5
20
-0.874352236673616
30
0
41
1
10
-22.5
20
-0.953656082911976
30
0
41
1
10
-22.5
20
-1.03290641330759
30
0
41
1
10
-22.5
20
-1.11209555133374
30
0
41
1
10
-22.5
20
-1.19121866112906
30
0
41
1
10
-22.5
20
-1.29707565327635
30
0
41
1
10
-22.5
20
-1.40144071039387
30
0
41
1
10
-22.5
20
-1.50690430877853
30
0
41
1
10
-22.5
20
-1.58559131690836
30
0
41
1
10
-22.5
20
-1.66417088377818
30
0
41
1
10
-22.5
20
-1.74263820265682
30
0
41
1
10
-22.5
20
-1.82098461234611
30
0
41
1
10
-22.5
20
-1.89920687090043
30
0
41
1
10
-22.5
20
-1.97729736527978
30
0
41
1
10
-22.5
20
-2.08161605220536
30
0
41
1
10
-22.5
20
-2.18454583019769
30
0
41
1
10
-22.5
20
-2.28823685042076
30
0
41
1
10
-22.5
20
-2.39172837491469
30
0
41
1
10
-22.5
20
-2.51992552331163
30
0
41
1
10
-22.5
20
-2.67346522993279
30
0
41
1
10
-22.5
20
-2.82629223006825
30
0
41
1
10
-22.5
20
-2.9783800820847
30
0
41
1
10
-22.5
20
-3.12970236953149
30
0
41
1
10
-22.5
20
-3.2802363758513
30
0
41
1
10
-22.5
20
-3.42996282061054
30
0
41
1
10
-22.5
20
-3.57886234252629
30
0
41
1
10
-22.5
20
-3.72691655621918
30
0
41
1
10
-22.5
20
-3.87410940415094
30
0
41
1
10
-22.5
20
-4.02042950258553
30
0
41
1
10
-22.5
20
-4.1658649918152
30
0
41
1
10
-22.5
20
-4.31040320562681
30
0
41
1
10
-22.5
20
-4.45403251641869
30
0
41
1
10
-22.5
20
-4.59674271442694
30
0
41
1
10
-22.5
20
-4.73852585442467
30
0
41
1
10
-22.5
20
-4.87937424460151
30
0
41
1
10
-22.5
20
-5.01927991936705
30
0
41
1
10
-22.5
20
-5.15823571506778
30
0
41
1
10
-22.5
20
-5.29623478947158
30
0
41
1
10
-22.5
20
-5.47933703089231
30
0
41
1
10
-22.5
20
-5.70495655337433
30
0
41
1
10
-22.5
20
-5.97220551419213
30
0
41
1
10
-22.5
20
-6.23550104742759
30
0
41
1
10
-22.5
20
-6.451255571394
30
0
41
1
10
-22.5
20
-6.6224282598192
30
0
41
1
10
-22.5
20
-6.74956631857705
30
0
41
1
10
-22.5
20
-6.87569116366484
30
0
41
1
10
-22.5
20
-7.04280522024894
30
0
41
1
10
-22.5
20
-7.24848505302427
30
0
41
1
10
-22.5
20
-7.4507365478344
30
0
41
1
10
-22.5
20
-7.6109708771202
30
0
41
1
10
-22.5
20
-7.72990620240671
30
0
41
1
10
-22.5
20
-7.84779994085653
30
0
41
1
10
-22.5
20
-7.96465013686171
30
0
41
1
10
-22.5
20
-8.08045169790759
30
0
41
1
10
-22.5
20
-8.23370694014301
30
0
41
1
10
-22.5
20
-8.38410356414289
30
0
41
1
10
-22.5
20
-8.53310893988203
30
0
41
1
10
-22.5
20
-8.68069429599308
30
0
41
1
10
-22.5
20
-8.8619729936481
30
0
41
1
10
-22.5
20
-9.0396637144479
30
0
41
1
10
-22.5
20
-9.18004984465043
30
0
41
1
10
-22.5
20
-9.31898451102214
30
0
41
1
10
-22.5
20
-9.45508835059124
30
0
41
1
10
-22.5
20
-9.57273013875857
30
0
41
1
10
-22.5
20
-9.63944491324963
30
0
41
1
10
-22.5
20
-9.70579080403837
30
0
41
1
10
-22.5
20
-9.7878008492857
30
0
41
1
10
-22.5
20
-9.91789360326428
30
0
41
1
10
-22.5
20
-10.0451570606616
30
0
41
1
10
-22.5
20
-10.1707494782419
30
0
41
1
10
-22.5
20
-10.2636671117607
30
0
41
1
10
-22.5
20
-10.3554481360506
30
0
41
1
10
-22.5
20
-10.4460865401309
30
0
41
1
10
-22.5
20
-10.5355769962349
30
0
41
1
10
-22.5
20
-10.6239149629423
30
0
41
1
10
-22.5
20
-10.7110950034658
30
0
41
1
10
-22.5
20
-10.7971107724731
30
0
41
1
10
-22.5
20
-10.881957410682
30
0
41
1
10
-22.5
20
-10.9936883968037
30
0
41
1
10
-22.5
20
-11.1025558384385
30
0
41
1
10
-22.5
20
-11.2095312195267
30
0
41
1
10
-22.5
20
-11.2884404756242
30
0
41
1
10
-22.5
20
-11.3531143441571
30
0
41
1
10
-22.5
20
-11.4043881128182
30
0
41
1
10
-22.5
20
-11.4552554448703
30
0
41
1
10
-22.5
20
-11.5179033535968
30
0
41
1
10
-22.5
20
-11.5919461625789
30
0
41
1
10
-22.5
20
-11.664755015164
30
0
41
1
10
-22.5
20
-11.7363216229303
30
0
41
1
10
-22.5
20
-11.8066391033683
30
0
41
1
10
-22.5
20
-11.8988608066557
30
0
41
1
10
-22.5
20
-12.0106580919609
30
0
41
1
10
-22.5
20
-12.1181901818312
30
0
41
1
10
-22.5
20
-12.2018541939414
30
0
41
1
10
-22.5
20
-12.2837700876339
30
0
41
1
10
-22.5
20
-12.3626709807027
30
0
41
1
10
-22.5
20
-12.4392702870471
30
0
41
1
10
-22.5
20
-12.4952790541085
30
0
41
1
10
-22.5
20
-12.5499298292215
30
0
41
1
10
-22.5
20
-12.6032111946844
30
0
41
1
10
-22.5
20
-12.6551113940766
30
0
41
1
10
-22.5
20
-12.7056201424592
30
0
41
1
10
-22.5
20
-12.7547247990428
30
0
41
1
10
-22.5
20
-12.8184132466048
30
0
41
1
10
-22.5
20
-12.8789380178894
30
0
41
1
10
-22.5
20
-12.9368537080862
30
0
41
1
10
-22.5
20
-12.9787481114295
30
0
41
1
10
-22.5
20
-13.0191589652135
30
0
41
1
10
-22.5
20
-13.0580721081213
30
0
41
1
10
-22.5
20
-13.0954724456838
30
0
41
1
10
-22.5
20
-13.143384141029
30
0
41
1
10
-22.5
20
-13.187963912528
30
0
41
1
10
-22.5
20
-13.2296213845592
30
0
41
1
10
-22.5
20
-13.2592105165633
30
0
41
1
10
-22.5
20
-13.2871835921006
30
0
41
1
10
-22.5
20
-13.3223661764574
30
0
41
1
10
-22.5
20
-13.3540536969874
30
0
41
1
10
-22.5
20
-13.3825245595672
30
0
41
1
10
-22.5
20
-13.4021158939438
30
0
41
1
10
-22.5
20
-13.4199649415155
30
0
41
1
10
-22.5
20
-13.4360470510206
30
0
41
1
10
-22.5
20
-13.4503375548199
30
0
41
1
10
-22.5
20
-13.4628103286331
30
0
41
1
10
-22.5
20
-13.4734380181859
30
0
41
1
10
-22.5
20
-13.4821927509398
30
0
41
1
10
-22.5
20
-13.4890446841776
30
0
41
1
10
-22.5
20
-13.4939634903146
30
0
41
1
10
-22.5
20
-13.4969168014739
30
0
41
1
10
-22.5
20
-13.4978715423881
30
0
41
1
10
-22.5
20
-13.4970334754127
30
0
41
1
10
-22.5
20
-13.4959445337311
30
0
41
1
10
-22.5
20
-13.4956363559885
30
0
0
SPLINE
5
190
100
AcDbEntity
8
SK1
62
256
6
ByLayer
370
18
48
1
60
0
100
AcDbSpline
70
4
71
3
72
119
73
115
40
0
40
0
40
0
40
0
40
0.0017654122854367
40
0.0096870349233327
40
0.0176086575612286
40
0.0255302801991245
40
0.0334519028370205
40
0.0413735254749164
40
0.0492951481128124
40
0.0572167707507083
40
0.0651383933886043
40
0.0730600160265002
40
0.0809816386643962
40
0.0889032613022921
40
0.0968248839401881
40
0.104746506578084
40
0.11266812921598
40
0.120589751853876
40
0.128511374491772
40
0.136432997129668
40
0.144354619767564
40
0.15227624240546
40
0.160197865043356
40
0.176041110319147
40
0.191884355594939
40
0.207727600870731
40
0.223570846146523
40
0.231492468784419
40
0.239414091422315
40
0.247335714060211
40
0.255257336698107
40
0.271100581973899
40
0.286943827249691
40
0.294865449887587
40
0.302787072525483
40
0.310708695163379
40
0.318630317801274
40
0.326551940439171
40
0.334473563077066
40
0.350316808352858
40
0.358238430990754
40
0.36616005362865
40
0.382003298904442
40
0.397846544180234
40
0.40576816681813
40
0.413689789456026
40
0.429533034731818
40
0.437454657369714
40
0.441415468688662
40
0.44537628000761
40
0.453297902645506
40
0.461219525283402
40
0.477062770559193
40
0.484984393197089
40
0.492906015834985
40
0.500827638472881
40
0.508749261110777
40
0.516670883748673
40
0.524592506386569
40
0.532514129024465
40
0.540435751662361
40
0.548357374300257
40
0.556278996938153
40
0.572122242213945
40
0.580043864851841
40
0.587965487489737
40
0.595887110127633
40
0.599847921446581
40
0.603808732765529
40
0.611730355403425
40
0.619651978041321
40
0.627573600679216
40
0.635495223317112
40
0.643416845955008
40
0.651338468592904
40
0.667181713868696
40
0.683024959144488
40
0.690946581782384
40
0.69886820442028
40
0.714711449696072
40
0.722633072333968
40
0.730554694971864
40
0.73847631760976
40
0.746397940247656
40
0.754319562885552
40
0.762241185523448
40
0.770162808161343
40
0.778084430799239
40
0.793927676075031
40
0.801849298712927
40
0.809770921350823
40
0.817692543988719
40
0.825614166626615
40
0.833535789264511
40
0.841457411902407
40
0.857300657178199
40
0.865222279816095
40
0.873143902453991
40
0.881065525091887
40
0.888987147729783
40
0.904830393005575
40
0.91275201564347
40
0.920673638281366
40
0.928595260919262
40
0.936516883557158
40
0.944438506195054
40
0.95236012883295
40
0.960281751470846
40
0.968203374108742
40
0.976124996746638
40
0.984046619384534
40
0.99196824202243
40
0.999889864660326
40
1
40
1
40
1
40
1
41
1
10
-1.49503997793931
20
-2.59465115086957
30
0
41
1
10
-1.49503997793931
20
-2.606473243442
30
0
41
1
10
-1.49503997793931
20
-2.67130382016646
30
0
41
1
10
-1.49503997793931
20
-2.78881794693001
30
0
41
1
10
-1.49503997793931
20
-2.94652921585708
30
0
41
1
10
-1.49503997793931
20
-3.10333581737226
30
0
41
1
10
-1.49503997793931
20
-3.25922160409144
30
0
41
1
10
-1.49503997793931
20
-3.4141725129254
30
0
41
1
10
-1.49503997793931
20
-3.56817684914566
30
0
41
1
10
-1.49503997793931
20
-3.72122348266291
30
0
41
1
10
-1.49503997793931
20
-3.87330241838259
30
0
41
1
10
-1.49503997793931
20
-4.02440435063471
30
0
41
1
10
-1.49503997793931
20
-4.17452257114442
30
0
41
1
10
-1.49503997793931
20
-4.32365075555242
30
0
41
1
10
-1.49503997793931
20
-4.47178250674139
30
0
41
1
10
-1.49503997793931
20
-4.61891187892093
30
0
41
1
10
-1.49503997793931
20
-4.7650335666859
30
0
41
1
10
-1.49503997793931
20
-4.91014320448997
30
0
41
1
10
-1.49503997793931
20
-5.05423700692032
30
0
41
1
10
-1.49503997793931
20
-5.19731095699922
30
0
41
1
10
-1.49503997793931
20
-5.33936160781602
30
0
41
1
10
-1.49503997793931
20
-5.48038543010182
30
0
41
1
10
-1.49503997793931
20
-5.66717892451575
30
0
41
1
10
-1.49503997793931
20
-5.89779786635279
30
0
41
1
10
-1.49503997793931
20
-6.17053537924178
30
0
41
1
10
-1.49503997793931
20
-6.43910150489376
30
0
41
1
10
-1.49503997793931
20
-6.65929861735816
30
0
41
1
10
-1.49503997793931
20
-6.83355374310952
30
0
41
1
10
-1.49503997793931
20
-6.96311018885424
30
0
41
1
10
-1.49503997793931
20
-7.09160988853208
30
0
41
1
10
-1.49503997793931
20
-7.26163684175143
30
0
41
1
10
-1.49503997793931
20
-7.47128768043942
30
0
41
1
10
-1.49503997793931
20
-7.67738590051292
30
0
41
1
10
-1.49503997793931
20
-7.84029855153605
30
0
41
1
10
-1.49503997793931
20
-7.96134018717205
30
0
41
1
10
-1.49503997793931
20
-8.08130644558901
30
0
41
1
10
-1.49503997793931
20
-8.2001957134178
30
0
41
1
10
-1.49503997793931
20
-8.31800484031689
30
0
41
1
10
-1.49503997793931
20
-8.47372856948019
30
0
41
1
10
-1.49503997793931
20
-8.62702161678089
30
0
41
1
10
-1.49503997793931
20
-8.7783873974316
30
0
41
1
10
-1.49503997793931
20
-8.92829538452324
30
0
41
1
10
-1.49503997793931
20
-9.11275364912453
30
0
41
1
10
-1.49503997793931
20
-9.2935360539519
30
0
41
1
10
-1.49503997793931
20
-9.43608247629777
30
0
41
1
10
-1.49503997793931
20
-9.57714512355727
30
0
41
1
10
-1.49503997793931
20
-9.71574945872365
30
0
41
1
10
-1.49503997793931
20
-9.835227886979
30
0
41
1
10
-1.49503997793931
20
-9.90295237623948
30
0
41
1
10
-1.49503997793931
20
-9.97030028641953
30
0
41
1
10
-1.49503997793931
20
-10.0536983203575
30
0
41
1
10
-1.49503997793931
20
-10.1857467801784
30
0
41
1
10
-1.49503997793931
20
-10.3153089526253
30
0
41
1
10
-1.49503997793931
20
-10.4427777956644
30
0
41
1
10
-1.49503997793931
20
-10.537175897834
30
0
41
1
10
-1.49503997793931
20
-10.630416702033
30
0
41
1
10
-1.49503997793931
20
-10.7224950525573
30
0
41
1
10
-1.49503997793931
20
-10.8134058114344
30
0
41
1
10
-1.49503997793931
20
-10.9031442186804
30
0
41
1
10
-1.49503997793931
20
-10.9917054227684
30
0
41
1
10
-1.49503997793931
20
-11.0790834618892
30
0
41
1
10
-1.49503997793931
20
-11.165273297363
30
0
41
1
10
-1.49503997793931
20
-11.2786601205037
30
0
41
1
10
-1.49503997793931
20
-11.3894729046301
30
0
41
1
10
-1.49503997793931
20
-11.4980349156059
30
0
41
1
10
-1.49503997793931
20
-11.5781957427673
30
0
41
1
10
-1.49503997793931
20
-11.6439487843731
30
0
41
1
10
-1.49503997793931
20
-11.6959849306732
30
0
41
1
10
-1.49503997793931
20
-11.747609354201
30
0
41
1
10
-1.49503997793931
20
-11.8113057197552
30
0
41
1
10
-1.49503997793931
20
-11.886528664654
30
0
41
1
10
-1.49503997793931
20
-11.960500101414
30
0
41
1
10
-1.49503997793931
20
-12.0332119519516
30
0
41
1
10
-1.49503997793931
20
-12.1046570427268
30
0
41
1
10
-1.49503997793931
20
-12.1982669205398
30
0
41
1
10
-1.49503997793931
20
-12.3119621581916
30
0
41
1
10
-1.49503997793931
20
-12.4213295969168
30
0
41
1
10
-1.49503997793931
20
-12.5062717787185
30
0
41
1
10
-1.49503997793931
20
-12.5894449263383
30
0
41
1
10
-1.49503997793931
20
-12.6698142967672
30
0
41
1
10
-1.49503997793931
20
-12.7476032540011
30
0
41
1
10
-1.49503997793931
20
-12.8045464232669
30
0
41
1
10
-1.49503997793931
20
-12.8601132308426
30
0
41
1
10
-1.49503997793931
20
-12.9142926213842
30
0
41
1
10
-1.49503997793931
20
-12.9670724454163
30
0
41
1
10
-1.49503997793931
20
-13.0184419731185
30
0
41
1
10
-1.49503997793931
20
-13.0683888234861
30
0
41
1
10
-1.49503997793931
20
-13.133106637017
30
0
41
1
10
-1.49503997793931
20
-13.1948224412614
30
0
41
1
10
-1.49503997793931
20
-13.2536925631392
30
0
41
1
10
-1.49503997793931
20
-13.296330722945
30
0
41
1
10
-1.49503997793931
20
-13.3374647797226
30
0
41
1
10
-1.49503997793931
20
-13.3770799229021
30
0
41
1
10
-1.49503997793931
20
-13.4151607649325
30
0
41
1
10
-1.49503997793931
20
-13.4638962511352
30
0
41
1
10
-1.49503997793931
20
-13.5094130161235
30
0
41
1
10
-1.49503997793931
20
-13.551806168738
30
0
41
1
10
-1.49503997793931
20
-13.5819601013665
30
0
41
1
10
-1.49503997793931
20
-13.6104729213425
30
0
41
1
10
-1.49503997793931
20
-13.646298505966
30
0
41
1
10
-1.49503997793931
20
-13.6786965897716
30
0
41
1
10
-1.49503997793931
20
-13.7077055842542
30
0
41
1
10
-1.49503997793931
20
-13.7276983600542
30
0
41
1
10
-1.49503997793931
20
-13.7459180935577
30
0
41
1
10
-1.49503997793931
20
-13.7623389110759
30
0
41
1
10
-1.49503997793931
20
-13.7769347594832
30
0
41
1
10
-1.49503997793931
20
-13.7896781016746
30
0
41
1
10
-1.49503997793931
20
-13.800539960484
30
0
41
1
10
-1.49503997793931
20
-13.8094907530557
30
0
41
1
10
-1.49503997793931
20
-13.8164987457743
30
0
41
1
10
-1.49503997793931
20
-13.821531562835
30
0
41
1
10
-1.49503997793931
20
-13.8245545856003
30
0
41
1
10
-1.49503997793934
20
-13.8252109213285
30
0
41
1
10
-1.49503997793931
20
-13.8251847299501
30
0
41
1
10
-1.49503997793931
20
-13.8251837298501
30
0
0
SPLINE
5
191
100
AcDbEntity
8
SK1
62
256
6
ByLayer
370
18
48
1
60
0
100
AcDbSpline
70
4
71
3
72
117
73
113
40
0
40
0
40
0
40
0
40
0.000112696403717
40
0.0080342987676419
40
0.0159559011315669
40
0.0238775034954918
40
0.0317991058594167
40
0.0397207082233416
40
0.0476423105872665
40
0.0555639129511914
40
0.0634855153151163
40
0.0793287200429662
40
0.095171924770816
40
0.111015129498666
40
0.118936731862591
40
0.126858334226516
40
0.13477993659044
40
0.142701538954365
40
0.158544743682215
40
0.16646634604614
40
0.174387948410065
40
0.18230955077399
40
0.190231153137915
40
0.19815275550184
40
0.206074357865765
40
0.221917562593615
40
0.22983916495754
40
0.237760767321464
40
0.245682369685389
40
0.253603972049314
40
0.261525574413239
40
0.269447176777164
40
0.277368779141089
40
0.285290381505014
40
0.301133586232864
40
0.309055188596789
40
0.316976790960714
40
0.332819995688563
40
0.348663200416413
40
0.356584802780338
40
0.364506405144263
40
0.372428007508188
40
0.380349609872113
40
0.388271212236038
40
0.396192814599963
40
0.400153615781925
40
0.404114416963888
40
0.412036019327812
40
0.419957621691737
40
0.427879224055662
40
0.443722428783512
40
0.451644031147437
40
0.459565633511362
40
0.467487235875287
40
0.475408838239212
40
0.483330440603137
40
0.491252042967061
40
0.499173645330987
40
0.507095247694911
40
0.515016850058836
40
0.522938452422761
40
0.538781657150611
40
0.546703259514536
40
0.554624861878461
40
0.558585663060423
40
0.562546464242386
40
0.570468066606311
40
0.586311271334161
40
0.594232873698085
40
0.60215447606201
40
0.61799768078986
40
0.63384088551771
40
0.641762487881635
40
0.64968409024556
40
0.66552729497341
40
0.673448897337335
40
0.681370499701259
40
0.689292102065184
40
0.697213704429109
40
0.705135306793034
40
0.713056909156959
40
0.728900113884809
40
0.744743318612659
40
0.752664920976584
40
0.760586523340508
40
0.768508125704433
40
0.776429728068358
40
0.792272932796208
40
0.808116137524058
40
0.823959342251908
40
0.839802546979758
40
0.847724149343682
40
0.855645751707607
40
0.863567354071532
40
0.871488956435457
40
0.879410558799382
40
0.887332161163307
40
0.895253763527232
40
0.903175365891157
40
0.911096968255082
40
0.919018570619007
40
0.926940172982932
40
0.934861775346857
40
0.942783377710781
40
0.950704980074706
40
0.958626582438631
40
0.966548184802556
40
0.974469787166481
40
0.982391389530406
40
0.990312991894331
40
0.998234594258256
40
1
40
1
40
1
40
1
41
1
10
-1.49503997793921
20
13.8251837284712
30
0
41
1
10
-1.49503997793926
20
13.8251847285712
30
0
41
1
10
-1.49503997793928
20
13.8252108741339
30
0
41
1
10
-1.49503997793928
20
13.8245539604948
30
0
41
1
10
-1.49503997793928
20
13.8215305966481
30
0
41
1
10
-1.49503997793928
20
13.8164982902869
30
0
41
1
10
-1.49503997793928
20
13.8094909095343
30
0
41
1
10
-1.49503997793928
20
13.8005402090708
30
0
41
1
10
-1.49503997793928
20
13.7896781830989
30
0
41
1
10
-1.49503997793928
20
13.7769347476405
30
0
41
1
10
-1.49503997793928
20
13.7574597557179
30
0
41
1
10
-1.49503997793928
20
13.7285859139399
30
0
41
1
10
-1.49503997793928
20
13.6868269300449
30
0
41
1
10
-1.49503997793928
20
13.6462985077496
30
0
41
1
10
-1.49503997793928
20
13.6104729008558
30
0
41
1
10
-1.49503997793928
20
13.5819600687286
30
0
41
1
10
-1.49503997793928
20
13.5518061457236
30
0
41
1
10
-1.49503997793928
20
13.509413016618
30
0
41
1
10
-1.49503997793928
20
13.4638962341071
30
0
41
1
10
-1.49503997793928
20
13.4151607370273
30
0
41
1
10
-1.49503997793928
20
13.3770798968994
30
0
41
1
10
-1.49503997793928
20
13.3374647662751
30
0
41
1
10
-1.49503997793928
20
13.2963307178616
30
0
41
1
10
-1.49503997793928
20
13.2536925499096
30
0
41
1
10
-1.49503997793928
20
13.1948224098965
30
0
41
1
10
-1.49503997793928
20
13.1331066142243
30
0
41
1
10
-1.49503997793928
20
13.0683888145289
30
0
41
1
10
-1.49503997793928
20
13.0184419638584
30
0
41
1
10
-1.49503997793928
20
12.9670724273821
30
0
41
1
10
-1.49503997793928
20
12.9142925944038
30
0
41
1
10
-1.49503997793928
20
12.860113205584
30
0
41
1
10
-1.49503997793928
20
12.8045464062654
30
0
41
1
10
-1.49503997793928
20
12.74760324418
30
0
41
1
10
-1.49503997793928
20
12.6698142834541
30
0
41
1
10
-1.49503997793928
20
12.5894449005116
30
0
41
1
10
-1.49503997793928
20
12.50627175547
30
0
41
1
10
-1.49503997793928
20
12.4213295833849
30
0
41
1
10
-1.49503997793928
20
12.3119621458456
30
0
41
1
10
-1.49503997793928
20
12.1982668977617
30
0
41
1
10
-1.49503997793928
20
12.1046570208051
30
0
41
1
10
-1.49503997793928
20
12.0332119345842
30
0
41
1
10
-1.49503997793928
20
11.9605000871413
30
0
41
1
10
-1.49503997793928
20
11.8865286504803
30
0
41
1
10
-1.49503997793928
20
11.8113057028001
30
0
41
1
10
-1.49503997793928
20
11.7476093345099
30
0
41
1
10
-1.49503997793928
20
11.6959849101866
30
0
41
1
10
-1.49503997793928
20
11.643948764099
30
0
41
1
10
-1.49503997793928
20
11.5781957241672
30
0
41
1
10
-1.49503997793928
20
11.4980348993556
30
0
41
1
10
-1.49503997793928
20
11.3894728900619
30
0
41
1
10
-1.49503997793928
20
11.278660103453
30
0
41
1
10
-1.49503997793928
20
11.1652732784127
30
0
41
1
10
-1.49503997793928
20
11.0790834423827
30
0
41
1
10
-1.49503997793928
20
10.9917054044732
30
0
41
1
10
-1.49503997793928
20
10.9031442025602
30
0
41
1
10
-1.49503997793928
20
10.8134057967923
30
0
41
1
10
-1.49503997793928
20
10.7224950378189
30
0
41
1
10
-1.49503997793928
20
10.6304166849825
30
0
41
1
10
-1.49503997793928
20
10.5371758780398
30
0
41
1
10
-1.49503997793928
20
10.4427777751693
30
0
41
1
10
-1.49503997793928
20
10.3153089364435
30
0
41
1
10
-1.49503997793928
20
10.1857467684219
30
0
41
1
10
-1.49503997793928
20
10.0536983054632
30
0
41
1
10
-1.49503997793928
20
9.97030026745779
30
0
41
1
10
-1.49503997793928
20
9.90295235506755
30
0
41
1
10
-1.49503997793928
20
9.83522786489038
30
0
41
1
10
-1.49503997793928
20
9.71574944153573
30
0
41
1
10
-1.49503997793928
20
9.57714511427093
30
0
41
1
10
-1.49503997793928
20
9.43608246295526
30
0
41
1
10
-1.49503997793928
20
9.29353602958125
30
0
41
1
10
-1.49503997793928
20
9.11275363063515
30
0
41
1
10
-1.49503997793928
20
8.92829537712967
30
0
41
1
10
-1.49503997793928
20
8.77838738443313
30
0
41
1
10
-1.49503997793928
20
8.62702158956
30
0
41
1
10
-1.49503997793928
20
8.47372854841302
30
0
41
1
10
-1.49503997793928
20
8.31800483202281
30
0
41
1
10
-1.49503997793928
20
8.20019570647173
30
0
41
1
10
-1.49503997793928
20
8.08130642958628
30
0
41
1
10
-1.49503997793928
20
7.96134016006346
30
0
41
1
10
-1.49503997793928
20
7.84029852533041
30
0
41
1
10
-1.49503997793928
20
7.67738589461936
30
0
41
1
10
-1.49503997793928
20
7.47128766686797
30
0
41
1
10
-1.49503997793928
20
7.261636811758
30
0
41
1
10
-1.49503997793928
20
7.09160986883526
30
0
41
1
10
-1.49503997793928
20
6.96311018452545
30
0
41
1
10
-1.49503997793928
20
6.83355373772449
30
0
41
1
10
-1.49503997793928
20
6.6592985841524
30
0
41
1
10
-1.49503997793928
20
6.43910149333703
30
0
41
1
10
-1.49503997793928
20
6.17053536578155
30
0
41
1
10
-1.49503997793928
20
5.89779783511918
30
0
41
1
10
-1.49503997793928
20
5.66717892097088
30
0
41
1
10
-1.49503997793928
20
5.48038541909952
30
0
41
1
10
-1.49503997793928
20
5.33936157753735
30
0
41
1
10
-1.49503997793928
20
5.19731095553271
30
0
41
1
10
-1.49503997793928
20
5.05423706888553
30
0
41
1
10
-1.49503997793928
20
4.91014315579861
30
0
41
1
10
-1.49503997793928
20
4.7650332428635
30
0
41
1
10
-1.49503997793928
20
4.61891156596767
30
0
41
1
10
-1.49503997793928
20
4.47178260268984
30
0
41
1
10
-1.49503997793928
20
4.32365113214263
30
0
41
1
10
-1.49503997793928
20
4.17452288947305
30
0
41
1
10
-1.49503997793928
20
4.02440432752809
30
0
41
1
10
-1.49503997793928
20
3.87330192992579
30
0
41
1
10
-1.49503997793928
20
3.7212231412766
30
0
41
1
10
-1.49503997793928
20
3.56817690176541
30
0
41
1
10
-1.49503997793928
20
3.41417271020586
30
0
41
1
10
-1.49503997793928
20
3.25922165821993
30
0
41
1
10
-1.49503997793928
20
3.1033357799555
30
0
41
1
10
-1.49503997793928
20
2.94652918151195
30
0
41
1
10
-1.49503997793928
20
2.78881794429316
30
0
41
1
10
-1.49503997793928
20
2.67130381064959
30
0
41
1
10
-1.49503997793928
20
2.60647323876154
30
0
41
1
10
-1.49503997793931
20
2.59465115838313
30
0
0
SPLINE
5
192
100
AcDbEntity
8
SK1
62
256
6
ByLayer
370
18
48
1
60
0
100
AcDbSpline
70
4
71
3
72
287
73
283
40
0
40
0
40
0
40
0
40
0.0005770568917897
40
0.0040695221169701
40
0.0075619873421505
40
0.0110544525673309
40
0.0145469177925113
40
0.0180393830176917
40
0.0215318482428721
40
0.0250243134680525
40
0.0285167786932329
40
0.0320092439184132
40
0.0389941743687741
40
0.0459791048191348
40
0.0529640352694956
40
0.056456500494676
40
0.0599489657198564
40
0.0634414309450368
40
0.0669338961702171
40
0.0739188266205779
40
0.0774112918457583
40
0.0809037570709387
40
0.0843962222961191
40
0.0878886875212995
40
0.0913811527464799
40
0.0948736179716603
40
0.101858548422021
40
0.105351013647201
40
0.108843478872382
40
0.112335944097562
40
0.115828409322743
40
0.119320874547923
40
0.122813339773103
40
0.126305804998284
40
0.129798270223464
40
0.136783200673825
40
0.140275665899005
40
0.143768131124186
40
0.150753061574546
40
0.157737992024907
40
0.161230457250088
40
0.164722922475268
40
0.168215387700448
40
0.171707852925629
40
0.175200318150809
40
0.17869278337599
40
0.18043901598858
40
0.18218524860117
40
0.18567771382635
40
0.189170179051531
40
0.192662644276711
40
0.199647574727072
40
0.203140039952252
40
0.206632505177433
40
0.210124970402613
40
0.213617435627794
40
0.217109900852974
40
0.220602366078154
40
0.224094831303335
40
0.227587296528515
40
0.231079761753695
40
0.234572226978876
40
0.241557157429237
40
0.245049622654417
40
0.248542087879597
40
0.250288320492188
40
0.252034553104778
40
0.255527018329958
40
0.262511948780319
40
0.266004414005499
40
0.26949687923068
40
0.276481809681041
40
0.283466740131401
40
0.286959205356582
40
0.290451670581762
40
0.297436601032123
40
0.300929066257303
40
0.304421531482484
40
0.307913996707664
40
0.311406461932844
40
0.314898927158025
40
0.318391392383205
40
0.325376322833566
40
0.332361253283927
40
0.335853718509107
40
0.339346183734288
40
0.342838648959468
40
0.346331114184648
40
0.353316044635009
40
0.36030097508537
40
0.367285905535731
40
0.374270835986092
40
0.377763301211272
40
0.381255766436452
40
0.384748231661633
40
0.388240696886813
40
0.391733162111993
40
0.395225627337174
40
0.398718092562354
40
0.402210557787535
40
0.405703023012715
40
0.409195488237895
40
0.412687953463076
40
0.416180418688256
40
0.419672883913436
40
0.423165349138617
40
0.426657814363797
40
0.430150279588978
40
0.433642744814158
40
0.437135210039338
40
0.440627675264519
40
0.444120140489699
40
0.44761260571488
40
0.44935883832747
40
0.45110507094006
40
0.454597536165241
40
0.456343768777831
40
0.458090001390421
40
0.459836234003011
40
0.461582466615601
40
0.463328699228191
40
0.465074931840782
40
0.466821164453372
40
0.468567397065962
40
0.472059862291142
40
0.473806094903733
40
0.475552327516323
40
0.477298560128913
40
0.479044792741503
40
0.480791025354093
40
0.482537257966684
40
0.484283490579274
40
0.486029723191864
40
0.487775955804454
40
0.489522188417044
40
0.491268421029635
40
0.493014653642225
40
0.494760886254815
40
0.496507118867405
40
0.498253351479995
40
0.499999584092585
40
0.501745816705176
40
0.503492049317766
40
0.505238281930356
40
0.506984514542946
40
0.508730747155537
40
0.510476979768127
40
0.512223212380717
40
0.513969444993307
40
0.515715677605897
40
0.517461910218487
40
0.519208142831078
40
0.520954375443668
40
0.522700608056258
40
0.524446840668848
40
0.526193073281438
40
0.527939305894029
40
0.531431771119209
40
0.533178003731799
40
0.534924236344389
40
0.53667046895698
40
0.53841670156957
40
0.54016293418216
40
0.54190916679475
40
0.54365539940734
40
0.545401632019931
40
0.548894097245111
40
0.550640329857701
40
0.552386562470291
40
0.555879027695472
40
0.559371492920652
40
0.562863958145833
40
0.566356423371013
40
0.569848888596193
40
0.573341353821374
40
0.576833819046554
40
0.580326284271734
40
0.583818749496915
40
0.587311214722095
40
0.590803679947276
40
0.594296145172456
40
0.597788610397636
40
0.601281075622817
40
0.604773540847997
40
0.608266006073178
40
0.611758471298358
40
0.615250936523538
40
0.618743401748719
40
0.622235866973899
40
0.62572833219908
40
0.63271326264944
40
0.639698193099801
40
0.646683123550162
40
0.653668054000523
40
0.657160519225703
40
0.660652984450884
40
0.664145449676064
40
0.667637914901244
40
0.674622845351605
40
0.681607775801966
40
0.685100241027146
40
0.688592706252327
40
0.692085171477507
40
0.695577636702687
40
0.699070101927868
40
0.702562567153048
40
0.709547497603409
40
0.713039962828589
40
0.71653242805377
40
0.72351735850413
40
0.730502288954491
40
0.733994754179672
40
0.737487219404852
40
0.744472149855213
40
0.747964615080393
40
0.749710847692983
40
0.751457080305574
40
0.754949545530754
40
0.758442010755934
40
0.765426941206295
40
0.768919406431476
40
0.772411871656656
40
0.775904336881836
40
0.779396802107017
40
0.782889267332197
40
0.786381732557377
40
0.789874197782558
40
0.793366663007738
40
0.796859128232919
40
0.800351593458099
40
0.80733652390846
40
0.81082898913364
40
0.814321454358821
40
0.817813919584001
40
0.819560152196591
40
0.821306384809181
40
0.824798850034362
40
0.828291315259542
40
0.831783780484723
40
0.835276245709903
40
0.838768710935083
40
0.842261176160264
40
0.849246106610625
40
0.856231037060985
40
0.859723502286166
40
0.863215967511346
40
0.870200897961707
40
0.873693363186887
40
0.877185828412068
40
0.880678293637248
40
0.884170758862428
40
0.887663224087609
40
0.891155689312789
40
0.89464815453797
40
0.89814061976315
40
0.905125550213511
40
0.908618015438691
40
0.912110480663871
40
0.915602945889052
40
0.919095411114232
40
0.922587876339413
40
0.926080341564593
40
0.933065272014954
40
0.936557737240134
40
0.940050202465315
40
0.943542667690495
40
0.947035132915676
40
0.954020063366036
40
0.957512528591217
40
0.961004993816397
40
0.964497459041578
40
0.967989924266758
40
0.971482389491938
40
0.974974854717119
40
0.978467319942299
40
0.981959785167479
40
0.98545225039266
40
0.98894471561784
40
0.992437180843021
40
0.995929646068201
40
0.999422111293381
40
1
40
1
40
1
40
1
41
1
10
-24
20
12.630146607479
30
0
41
1
10
-24
20
12.6302729693286
30
0
41
1
10
-24
20
12.6311019479154
30
0
41
1
10
-24
20
12.6318299492432
30
0
41
1
10
-24
20
12.6309352666138
30
0
41
1
10
-24
20
12.6281658201647
30
0
41
1
10
-24
20
12.623548726994
30
0
41
1
10
-24
20
12.6171099043118
30
0
41
1
10
-24
20
12.6088736083307
30
0
41
1
10
-24
20
12.5988647342338
30
0
41
1
10
-24
20
12.5871069661155
30
0
41
1
10
-24
20
12.569020437469
30
0
41
1
10
-24
20
12.5424060911485
30
0
41
1
10
-24
20
12.5036823998811
30
0
41
1
10
-24
20
12.466179119183
30
0
41
1
10
-24
20
12.4326960489613
30
0
41
1
10
-24
20
12.4061495447384
30
0
41
1
10
-24
20
12.3780532328159
30
0
41
1
10
-24
20
12.3383402816863
30
0
41
1
10
-24
20
12.2962370819873
30
0
41
1
10
-24
20
12.2505027270978
30
0
41
1
10
-24
20
12.2149010201899
30
0
41
1
10
-24
20
12.1778433481664
30
0
41
1
10
-24
20
12.1393440238031
30
0
41
1
10
-24
20
12.0994154546281
30
0
41
1
10
-24
20
12.0440223921018
30
0
41
1
10
-24
20
11.9866456328948
30
0
41
1
10
-24
20
11.9256779328098
30
0
41
1
10
-24
20
11.8787993022056
30
0
41
1
10
-24
20
11.8305656793587
30
0
41
1
10
-24
20
11.78099039585
30
0
41
1
10
-24
20
11.7300825884547
30
0
41
1
10
-24
20
11.6778529900837
30
0
41
1
10
-24
20
11.6243139686469
30
0
41
1
10
-24
20
11.5508590476175
30
0
41
1
10
-24
20
11.4758394707542
30
0
41
1
10
-24
20
11.3972466128896
30
0
41
1
10
-24
20
11.3169609533628
30
0
41
1
10
-24
20
11.2142799019792
30
0
41
1
10
-24
20
11.1074990885262
30
0
41
1
10
-24
20
11.0189464603389
30
0
41
1
10
-24
20
10.9516093773873
30
0
41
1
10
-24
20
10.8830697782116
30
0
41
1
10
-24
20
10.8133337656712
30
0
41
1
10
-24
20
10.7424101789121
30
0
41
1
10
-24
20
10.6825334430363
30
0
41
1
10
-24
20
10.6336671760819
30
0
41
1
10
-24
20
10.5844084477176
30
0
41
1
10
-24
20
10.5225869468266
30
0
41
1
10
-24
20
10.4469857296791
30
0
41
1
10
-24
20
10.3442039867663
30
0
41
1
10
-24
20
10.2404782892815
30
0
41
1
10
-24
20
10.133123847137
30
0
41
1
10
-24
20
10.0518274139735
30
0
41
1
10
-24
20
9.96941226524035
30
0
41
1
10
-24
20
9.8858827890852
30
0
41
1
10
-24
20
9.80124634105394
30
0
41
1
10
-24
20
9.71550990056983
30
0
41
1
10
-24
20
9.62867742465991
30
0
41
1
10
-24
20
9.54075474090101
30
0
41
1
10
-24
20
9.4517501287076
30
0
41
1
10
-24
20
9.33111730296773
30
0
41
1
10
-24
20
9.20992961158598
30
0
41
1
10
-24
20
9.08500600225796
30
0
41
1
10
-24
20
9.00666454438806
30
0
41
1
10
-24
20
8.94296708063843
30
0
41
1
10
-24
20
8.87892107357061
30
0
41
1
10
-24
20
8.76613371827506
30
0
41
1
10
-24
20
8.63663898523424
30
0
41
1
10
-24
20
8.50332881313912
30
0
41
1
10
-24
20
8.36865251940401
30
0
41
1
10
-24
20
8.19913342470036
30
0
41
1
10
-24
20
8.02625870426021
30
0
41
1
10
-24
20
7.88481232676438
30
0
41
1
10
-24
20
7.74204568631339
30
0
41
1
10
-24
20
7.59930458489882
30
0
41
1
10
-24
20
7.45257386795717
30
0
41
1
10
-24
20
7.34207855908448
30
0
41
1
10
-24
20
7.23061782890775
30
0
41
1
10
-24
20
7.11820191301106
30
0
41
1
10
-24
20
7.00483374343872
30
0
41
1
10
-24
20
6.8516785758469
30
0
41
1
10
-24
20
6.65959441745028
30
0
41
1
10
-24
20
6.46441027855923
30
0
41
1
10
-24
20
6.30499529459036
30
0
41
1
10
-24
20
6.18514753468799
30
0
41
1
10
-24
20
6.06440158167572
30
0
41
1
10
-24
20
5.90137597131746
30
0
41
1
10
-24
20
5.69736367955667
30
0
41
1
10
-24
20
5.44799894794272
30
0
41
1
10
-24
20
5.19525670130326
30
0
41
1
10
-24
20
4.98285125019774
30
0
41
1
10
-24
20
4.80950544532163
30
0
41
1
10
-24
20
4.67950096380329
30
0
41
1
10
-24
20
4.54872537799758
30
0
41
1
10
-24
20
4.41719445888799
30
0
41
1
10
-24
20
4.28492388892991
30
0
41
1
10
-24
20
4.15193103870837
30
0
41
1
10
-24
20
4.01823650200188
30
0
41
1
10
-24
20
3.88386015063671
30
0
41
1
10
-24
20
3.74882265025218
30
0
41
1
10
-24
20
3.61314816606938
30
0
41
1
10
-24
20
3.47686551917991
30
0
41
1
10
-24
20
3.34000139230267
30
0
41
1
10
-24
20
3.20258393847712
30
0
41
1
10
-24
20
3.06464837689458
30
0
41
1
10
-24
20
2.9262304523017
30
0
41
1
10
-24
20
2.78737006373561
30
0
41
1
10
-24
20
2.64810891556724
30
0
41
1
10
-24
20
2.50849315364215
30
0
41
1
10
-24
20
2.36857603859875
30
0
41
1
10
-24
20
2.22840727338092
30
0
41
1
10
-24
20
2.11231267734073
30
0
41
1
10
-24
20
2.01771125590744
30
0
41
1
10
-24
20
1.92310511773127
30
0
41
1
10
-24
20
1.8313714962141
30
0
41
1
10
-24
20
1.73663368976398
30
0
41
1
10
-24
20
1.66636839269287
30
0
41
1
10
-24
20
1.59612143913762
30
0
41
1
10
-24
20
1.52590617425699
30
0
41
1
10
-24
20
1.45572440081648
30
0
41
1
10
-24
20
1.38559146347791
30
0
41
1
10
-24
20
1.31551245865842
30
0
41
1
10
-24
20
1.22103102890804
30
0
41
1
10
-24
20
1.13019491172784
30
0
41
1
10
-24
20
1.03590357373665
30
0
41
1
10
-24
20
0.966211278320685
30
0
41
1
10
-24
20
0.896616942008535
30
0
41
1
10
-24
20
0.827119549474418
30
0
41
1
10
-24
20
0.757724503129253
30
0
41
1
10
-24
20
0.688430802184314
30
0
41
1
10
-24
20
0.619238394305086
30
0
41
1
10
-24
20
0.550143822342449
30
0
41
1
10
-24
20
0.481142957404018
30
0
41
1
10
-24
20
0.412229055265982
30
0
41
1
10
-24
20
0.343394373554958
30
0
41
1
10
-24
20
0.274627961865065
30
0
41
1
10
-24
20
0.205919183520024
30
0
41
1
10
-24
20
0.137254128872428
30
0
41
1
10
-24
20
0.068619580615092
30
0
41
1
10
-24
20
1.20069785E-08
30
0
41
1
10
-24
20
-0.0686195837654395
30
0
41
1
10
-24
20
-0.1372541822264
30
0
41
1
10
-24
20
-0.205919229600312
30
0
41
1
10
-24
20
-0.274627932715674
30
0
41
1
10
-24
20
-0.343394334295567
30
0
41
1
10
-24
20
-0.412229116407673
30
0
41
1
10
-24
20
-0.48114304712405
30
0
41
1
10
-24
20
-0.55014378989776
30
0
41
1
10
-24
20
-0.619238310392774
30
0
41
1
10
-24
20
-0.688430856535206
30
0
41
1
10
-24
20
-0.757724640342815
30
0
41
1
10
-24
20
-0.827119544713668
30
0
41
1
10
-24
20
-0.896616816711344
30
0
41
1
10
-24
20
-0.966211277672699
30
0
41
1
10
-24
20
-1.03590373801057
30
0
41
1
10
-24
20
-1.13019491751669
30
0
41
1
10
-24
20
-1.22103090337816
30
0
41
1
10
-24
20
-1.31551253110209
30
0
41
1
10
-24
20
-1.38559165365194
30
0
41
1
10
-24
20
-1.45572444737027
30
0
41
1
10
-24
20
-1.52590604398472
30
0
41
1
10
-24
20
-1.59612132289769
30
0
41
1
10
-24
20
-1.66636846888792
30
0
41
1
10
-24
20
-1.73663389391052
30
0
41
1
10
-24
20
-1.83137150908334
30
0
41
1
10
-24
20
-1.923104963833
30
0
41
1
10
-24
20
-2.01771124909399
30
0
41
1
10
-24
20
-2.11231287096447
30
0
41
1
10
-24
20
-2.22840729138045
30
0
41
1
10
-24
20
-2.36857592379664
30
0
41
1
10
-24
20
-2.50849329023109
30
0
41
1
10
-24
20
-2.64810899336408
30
0
41
1
10
-24
20
-2.7873694745272
30
0
41
1
10
-24
20
-2.92622914514115
30
0
41
1
10
-24
20
-3.06464867495961
30
0
41
1
10
-24
20
-3.20258694679336
30
0
41
1
10
-24
20
-3.34000339886188
30
0
41
1
10
-24
20
-3.47686412773234
30
0
41
1
10
-24
20
-3.61314539193521
30
0
41
1
10
-24
20
-3.74882070125756
30
0
41
1
10
-24
20
-3.88386081960974
30
0
41
1
10
-24
20
-4.01823910176785
30
0
41
1
10
-24
20
-4.15193237523465
30
0
41
1
10
-24
20
-4.28492323331267
30
0
41
1
10
-24
20
-4.41719365917405
30
0
41
1
10
-24
20
-4.54872525063161
30
0
41
1
10
-24
20
-4.67950102029136
30
0
41
1
10
-24
20
-4.8095053694127
30
0
41
1
10
-24
20
-4.98285124277228
30
0
41
1
10
-24
20
-5.19525677656026
30
0
41
1
10
-24
20
-5.44799891971269
30
0
41
1
10
-24
20
-5.69736372546623
30
0
41
1
10
-24
20
-5.90137602298265
30
0
41
1
10
-24
20
-6.0644015068855
30
0
41
1
10
-24
20
-6.1851475156806
30
0
41
1
10
-24
20
-6.30499537148731
30
0
41
1
10
-24
20
-6.46441033734266
30
0
41
1
10
-24
20
-6.65959438580623
30
0
41
1
10
-24
20
-6.85167858307042
30
0
41
1
10
-24
20
-7.00483382763792
30
0
41
1
10
-24
20
-7.11820195418233
30
0
41
1
10
-24
20
-7.2306178054078
30
0
41
1
10
-24
20
-7.34207852113332
30
0
41
1
10
-24
20
-7.45257387547733
30
0
41
1
10
-24
20
-7.59930464836137
30
0
41
1
10
-24
20
-7.74204572237986
30
0
41
1
10
-24
20
-7.88481230085068
30
0
41
1
10
-24
20
-8.02625870014725
30
0
41
1
10
-24
20
-8.19913346952643
30
0
41
1
10
-24
20
-8.36865254580422
30
0
41
1
10
-24
20
-8.50332879773273
30
0
41
1
10
-24
20
-8.63663898786112
30
0
41
1
10
-24
20
-8.76613375581505
30
0
41
1
10
-24
20
-8.87892111197036
30
0
41
1
10
-24
20
-8.94296710462893
30
0
41
1
10
-24
20
-9.00666455327519
30
0
41
1
10
-24
20
-9.08500599911847
30
0
41
1
10
-24
20
-9.20992961783276
30
0
41
1
10
-24
20
-9.33111733072479
30
0
41
1
10
-24
20
-9.45175015939358
30
0
41
1
10
-24
20
-9.54075475929304
30
0
41
1
10
-24
20
-9.62867743247332
30
0
41
1
10
-24
20
-9.71550990736878
30
0
41
1
10
-24
20
-9.80124635456616
30
0
41
1
10
-24
20
-9.88588281033205
30
0
41
1
10
-24
20
-9.9694122909747
30
0
41
1
10
-24
20
-10.0518274374696
30
0
41
1
10
-24
20
-10.1331238647016
30
0
41
1
10
-24
20
-10.240478300249
30
0
41
1
10
-24
20
-10.3442039980406
30
0
41
1
10
-24
20
-10.4469857502475
30
0
41
1
10
-24
20
-10.5225869730086
30
0
41
1
10
-24
20
-10.5844084741421
30
0
41
1
10
-24
20
-10.6336671988976
30
0
41
1
10
-24
20
-10.6825334589273
30
0
41
1
10
-24
20
-10.7424101865055
30
0
41
1
10
-24
20
-10.8133337727233
30
0
41
1
10
-24
20
-10.8830697936353
30
0
41
1
10
-24
20
-10.951609404873
30
0
41
1
10
-24
20
-11.0189464931514
30
0
41
1
10
-24
20
-11.1074991058536
30
0
41
1
10
-24
20
-11.2142799044294
30
0
41
1
10
-24
20
-11.3169609751522
30
0
41
1
10
-24
20
-11.3972466509688
30
0
41
1
10
-24
20
-11.4758394909226
30
0
41
1
10
-24
20
-11.5508590446085
30
0
41
1
10
-24
20
-11.6243139791192
30
0
41
1
10
-24
20
-11.6778530233414
30
0
41
1
10
-24
20
-11.7300826287653
30
0
41
1
10
-24
20
-11.7809904199398
30
0
41
1
10
-24
20
-11.8305656793297
30
0
41
1
10
-24
20
-11.8787992978642
30
0
41
1
10
-24
20
-11.9256779481161
30
0
41
1
10
-24
20
-11.9866456736684
30
0
41
1
10
-24
20
-12.0440224201629
30
0
41
1
10
-24
20
-12.099415447517
30
0
41
1
10
-24
20
-12.1393440246738
30
0
41
1
10
-24
20
-12.1778433772408
30
0
41
1
10
-24
20
-12.2149010599454
30
0
41
1
10
-24
20
-12.250502752964
30
0
41
1
10
-24
20
-12.2962370828382
30
0
41
1
10
-24
20
-12.3383402824608
30
0
41
1
10
-24
20
-12.3780532736994
30
0
41
1
10
-24
20
-12.4061495785297
30
0
41
1
10
-24
20
-12.4326960530149
30
0
41
1
10
-24
20
-12.4661791203578
30
0
41
1
10
-24
20
-12.4959885477691
30
0
41
1
10
-24
20
-12.523037071398
30
0
41
1
10
-24
20
-12.5415673540695
30
0
41
1
10
-24
20
-12.55843663992
30
0
41
1
10
-24
20
-12.5736235086905
30
0
41
1
10
-24
20
-12.5871069547276
30
0
41
1
10
-24
20
-12.5988645879939
30
0
41
1
10
-24
20
-12.6088733436887
30
0
41
1
10
-24
20
-12.617109869821
30
0
41
1
10
-24
20
-12.6235493215145
30
0
41
1
10
-24
20
-12.6281667848456
30
0
41
1
10
-24
20
-12.630935840933
30
0
41
1
10
-24
20
-12.6318298800803
30
0
41
1
10
-24
20
-12.6311015704684
30
0
41
1
10
-24
20
-12.6302722770348
30
0
41
1
10
-24
20
-12.6301457008713
30
0
0
SPLINE
5
193
100
AcDbEntity
8
1
62
256
6
ByLayer
370
18
48
1
60
0
100
AcDbSpline
70
4
71
3
72
8
73
4
40
0
40
0
40
0
40
0
40
1
40
1
40
1
40
1
41
1
10
42.1091396807368
20
-4.33450467214084
30
0
41
1
10
42.0603238089178
20
-4.42688229439986
30
0
41
1
10
42.0076347289232
20
-4.51767341408433
30
0
41
1
10
41.950803314333
20
-4.60667978477036
30
0
0
SPLINE
5
194
100
AcDbEntity
8
1
62
256
6
ByLayer
370
18
48
1
60
0
100
AcDbSpline
70
4
71
2
72
8
73
5
40
0
40
0
40
0
40
0.516558666508357
40
0.774837999762536
40
1
40
1
40
1
41
1.02613459695995
10
29.2251581053787
20
6.17876095436897
30
0
41
1.02613459695995
10
28.7998054462579
20
5.29863825627178
30
0
41
1.02613459695995
10
28.8515436187367
20
3.76963320394426
30
0
41
1.02613459695995
10
29.1231973493988
20
2.78049277538203
30
0
41
1.02613459695995
10
29.3395675768264
20
2.33195788180736
30
0
0
SPLINE
5
195
100
AcDbEntity
8
1
62
256
6
ByLayer
370
18
48
1
60
0
100
AcDbSpline
70
4
71
3
72
8
73
4
40
0
40
0
40
0
40
0
40
1
40
1
40
1
40
1
41
1
10
19.6584885664347
20
19.5420256800796
30
0
41
1
10
19.8245518357341
20
18.8164266732952
30
0
41
1
10
20.0165122621388
20
18.0980996330382
30
0
41
1
10
20.2297926155055
20
17.3851253145243
30
0
0
SPLINE
5
196
100
AcDbEntity
8
1
62
256
6
ByLayer
370
18
48
1
60
0
100
AcDbSpline
70
4
71
3
72
8
73
4
40
0
40
0
40
0
40
0
40
1
40
1
40
1
40
1
41
1
10
21.4764748865475
20
21.8717314751521
30
0
41
1
10
21.4062980966479
20
21.7435272963223
30
0
41
1
10
21.3550760234245
20
21.6172413389791
30
0
41
1
10
21.3227376832816
20
21.4928664195668
30
0
0
SPLINE
5
197
100
AcDbEntity
8
1
62
256
6
ByLayer
370
18
48
1
60
0
100
AcDbSpline
70
4
71
2
72
7
73
4
40
0
40
0
40
0
40
0.325211632387719
40
1
40
1
40
1
41
1
10
29.0798615836287
20
-0.272419764045253
30
0
41
1
10
28.8156400974267
20
-0.354357559872653
30
0
41
1
10
28.1393882717509
20
-0.752110478765189
30
0
41
1
10
27.9432426985717
20
-1.18378846856922
30
0
0
SPLINE
5
198
100
AcDbEntity
8
1
62
256
6
ByLayer
370
18
48
1
60
0
100
AcDbSpline
70
4
71
3
72
13
73
9
40
0
40
0
40
0
40
0
40
0.287856992129662
40
0.287856992129662
40
0.605626331970861
40
0.605626331970861
40
0.605626331970861
40
1
40
1
40
1
40
1
41
1
10
40.5375093969348
20
12.7837628600557
30
0
41
1
10
40.1878911087246
20
12.7950245034329
30
0
41
1
10
39.8305992826358
20
12.7527614079029
30
0
41
1
10
39.1134059302397
20
12.5686278168387
30
0
41
1
10
38.7482753832184
20
12.4155559825208
30
0
41
1
10
38.4127138412208
20
12.2197329542613
30
0
41
1
10
37.9982068905884
20
11.9778398999375
30
0
41
1
10
37.6172337064574
20
11.6634402174339
30
0
41
1
10
37.3025198446939
20
11.3025634785386
30
0
0
SPLINE
5
199
100
AcDbEntity
8
1
62
256
6
ByLayer
370
18
48
1
60
0
100
AcDbSpline
70
4
71
3
72
16
73
12
40
0
40
0
40
0
40
0
40
0.125
40
0.125
40
0.25
40
0.25
40
0.5
40
0.5
40
0.75
40
0.75
40
1
40
1
40
1
40
1
41
1
10
47.3189394301416
20
6.49482486074879
30
0
41
1
10
47.2383801713228
20
6.91397057450234
30
0
41
1
10
47.1760465547291
20
7.41353500374706
30
0
41
1
10
47.112540927329
20
8.59166037148103
30
0
41
1
10
47.1120539840527
20
9.24778052729164
30
0
41
1
10
47.1801822232528
20
11.262865018118
30
0
41
1
10
47.3116091836457
20
12.6177332668851
30
0
41
1
10
47.6234361820951
20
15.1544962405442
30
0
41
1
10
47.7936428107015
20
16.3938956592468
30
0
41
1
10
48.1368739612438
20
18.8669806760972
30
0
41
1
10
48.3460155223141
20
20.0209088584855
30
0
41
1
10
48.5683724053886
20
21.0951526589407
30
0
0
SPLINE
5
19A
100
AcDbEntity
8
1
62
256
6
ByLayer
370
18
48
1
60
0
100
AcDbSpline
70
4
71
3
72
12
73
8
40
0
40
0
40
0
40
0
40
0.407174084711928
40
0.407174084711928
40
0.699511272430937
40
0.699511272430937
40
1
40
1
40
1
40
1
41
1
10
47.7533675423794
20
22.5773430121327
30
0
41
1
10
47.782880748117
20
22.5508806125159
30
0
41
1
10
47.812151756892
20
22.5223638673859
30
0
41
1
10
47.8604141286008
20
22.4711665470782
30
0
41
1
10
47.8801281731528
20
22.4489490125455
30
0
41
1
10
47.9183728641266
20
22.4030926104409
30
0
41
1
10
47.9369994812291
20
22.3792561635074
30
0
41
1
10
47.9543852261097
20
22.3554455848162
30
0
0
SPLINE
5
19B
100
AcDbEntity
8
1
62
256
6
ByLayer
370
18
48
1
60
0
100
AcDbSpline
70
4
71
3
72
8
73
4
40
0
40
0
40
0
40
0
40
1
40
1
40
1
40
1
41
1
10
43.2975447736974
20
4.93612743841726
30
0
41
1
10
42.9100301347027
20
4.11491569389997
30
0
41
1
10
42.2427208958097
20
3.45873601574317
30
0
41
1
10
41.4412929536633
20
3.09946333577048
30
0
0
SPLINE
5
19C
100
AcDbEntity
8
1
62
256
6
ByLayer
370
18
48
1
60
0
100
AcDbSpline
70
4
71
3
72
10
73
6
40
0
40
0
40
0
40
0
40
0.325288492889667
40
0.325288492889667
40
1
40
1
40
1
40
1
41
1
10
29.8137905840936
20
-1.13271653191256
30
0
41
1
10
29.7254838161691
20
-1.0644534104766
30
0
41
1
10
29.6426962052394
20
-0.993382572282286
30
0
41
1
10
29.4055335164537
20
-0.765230541460255
30
0
41
1
10
29.2674630182885
20
-0.595769177707552
30
0
41
1
10
29.1557554467031
20
-0.409136006941566
30
0
0
SPLINE
5
19D
100
AcDbEntity
8
1
62
256
6
ByLayer
370
18
48
1
60
0
100
AcDbSpline
70
4
71
3
72
12
73
8
40
0
40
0
40
0
40
0
40
0.252749620142198
40
0.252749620142198
40
0.674711209428766
40
0.674711209428766
40
1
40
1
40
1
40
1
41
1
10
29.1557554467062
20
-0.409136006963706
30
0
41
1
10
29.1063686397798
20
-0.326623996006845
30
0
41
1
10
29.0614666972049
20
-0.236768565006372
30
0
41
1
10
28.9588422707393
20
0.0196810777110557
30
0
41
1
10
28.9117793068125
20
0.201092794907055
30
0
41
1
10
28.8734370584682
20
0.543123130365871
30
0
41
1
10
28.8717385903968
20
0.702352701069117
30
0
41
1
10
28.8859178574536
20
0.861638973785347
30
0
0
SPLINE
5
19E
100
AcDbEntity
8
1
62
256
6
ByLayer
370
18
48
1
60
0
100
AcDbSpline
70
4
71
3
72
8
73
4
40
0
40
0
40
0
40
0
40
1
40
1
40
1
40
1
41
1
10
39.4301492623302
20
-5.6914415466245
30
0
41
1
10
39.7586726255136
20
-5.76611750429672
30
0
41
1
10
40.0755196483219
20
-5.78445204697351
30
0
41
1
10
40.3894695303823
20
-5.73458351934451
30
0
0
SPLINE
5
19F
100
AcDbEntity
8
1
62
256
6
ByLayer
370
18
48
1
60
0
100
AcDbSpline
70
4
71
3
72
8
73
4
40
0
40
0
40
0
40
0
40
1
40
1
40
1
40
1
41
1
10
36.6652766706245
20
10.3288776570813
30
0
41
1
10
36.8321620710016
20
10.6825372017471
30
0
41
1
10
37.0461285131061
20
11.0062903401274
30
0
41
1
10
37.3025198431322
20
11.302563476734
30
0
0
SPLINE
5
1A0
100
AcDbEntity
8
1
62
256
6
ByLayer
370
18
48
1
60
0
100
AcDbSpline
70
4
71
3
72
12
73
8
40
0
40
0
40
0
40
0
40
0.32296159576427
40
0.32296159576427
40
0.710971356423584
40
0.710971356423584
40
1
40
1
40
1
40
1
41
1
10
44.5131915079666
20
7.88427695407387
30
0
41
1
10
44.5785206780346
20
8.27277572012014
30
0
41
1
10
44.5918367501116
20
8.67517081620224
30
0
41
1
10
44.5065996407033
20
9.53788176654459
30
0
41
1
10
44.3839980459534
20
10.0070884328725
30
0
41
1
10
44.037725629466
20
10.7565419359102
30
0
41
1
10
43.843451340318
20
11.0614226449851
30
0
41
1
10
43.6117175162493
20
11.326405670825
30
0
0
SPLINE
5
1A1
100
AcDbEntity
8
1
62
256
6
ByLayer
370
18
48
1
60
0
100
AcDbSpline
70
4
71
3
72
12
73
8
40
0
40
0
40
0
40
0
40
0.418782075282767
40
0.418782075282767
40
0.706182120811181
40
0.706182120811181
40
1
40
1
40
1
40
1
41
1
10
46.1847997822518
20
23.1943341598486
30
0
41
1
10
46.2259092125777
20
23.1964786227931
30
0
41
1
10
46.2685046830595
20
23.1968416736023
30
0
41
1
10
46.3396353201451
20
23.1944062929603
30
0
41
1
10
46.3686750909337
20
23.1925577398403
30
0
41
1
10
46.4264995801944
20
23.187190194201
30
0
41
1
10
46.4554274149564
20
23.1836196521093
30
0
41
1
10
46.4835950747565
20
23.1792905584784
30
0
0
SPLINE
5
1A2
100
AcDbEntity
8
1
62
256
6
ByLayer
370
18
48
1
60
0
100
AcDbSpline
70
4
71
3
72
11
73
7
40
0
40
0
40
0
40
0
40
0.379738014043147
40
0.569607021064721
40
0.759476028086295
40
1
40
1
40
1
40
1
41
1.02830968163241
10
46.5233510231013
20
6.48879995118248
30
0
41
1.02566133279166
10
46.9493725179972
20
9.02194646483965
30
0
41
1.02050308371814
10
47.1920995048658
20
12.4048840520632
30
0
41
1.01332460673153
10
46.9001482263
20
17.9645557807447
30
0
41
1.0120630214142
10
47.6882149633964
20
19.7665765025251
30
0
41
1.00944729087555
10
47.8198109828321
20
21.5993661255617
30
0
41
1.00885690313847
10
47.9543852247948
20
22.3554455774287
30
0
0
SPLINE
5
1A3
100
AcDbEntity
8
1
62
256
6
ByLayer
370
18
48
1
60
0
100
AcDbSpline
70
4
71
3
72
18
73
14
40
0
40
0
40
0
40
0
40
0.148865436690718
40
0.148865436690718
40
0.336868556410367
40
0.336868556410367
40
0.519491108027858
40
0.519491108027858
40
0.711563055534809
40
0.711563055534809
40
0.930180979444758
40
0.930180979444758
40
1
40
1
40
1
40
1
41
1
10
48.2331154656568
20
14.4405606309406
30
0
41
1
10
48.2288444484515
20
14.4435001532499
30
0
41
1
10
48.224781897439
20
14.4493819256194
30
0
41
1
10
48.2165891014724
20
14.4690763909707
30
0
41
1
10
48.212617386707
20
14.4849096541361
30
0
41
1
10
48.2066360303195
20
14.5229625586474
30
0
41
1
10
48.2044941150661
20
14.5454421717653
30
0
41
1
10
48.2019175358317
20
14.5952358729089
30
0
41
1
10
48.2015366750948
20
14.6233085619356
30
0
41
1
10
48.2024977333379
20
14.6844295482287
30
0
41
1
10
48.2040851142787
20
14.718335305695
30
0
41
1
10
48.2072647197377
20
14.7622181946672
30
0
41
1
10
48.2081233890947
20
14.7728537065738
30
0
41
1
10
48.2090604069139
20
14.783417352621
30
0
0
SPLINE
5
1A4
100
AcDbEntity
8
1
62
256
6
ByLayer
370
18
48
1
60
0
100
AcDbSpline
70
4
71
2
72
6
73
3
40
0
40
0
40
0
40
1
40
1
40
1
41
1.02830968163241
10
34.8911636566894
20
12.0031474601922
30
0
41
0.915286811692243
10
35.646651605364
20
11.9444276154828
30
0
41
0.941103849220746
10
37.3025198336263
20
11.3025634828287
30
0
0
SPLINE
5
1A5
100
AcDbEntity
8
1
62
256
6
ByLayer
370
18
48
1
60
0
100
AcDbSpline
70
4
71
3
72
8
73
4
40
0
40
0
40
0
40
0
40
1
40
1
40
1
40
1
41
1
10
48.5683724053887
20
21.0951526589407
30
0
41
1
10
48.4536673870907
20
21.3617684842049
30
0
41
1
10
48.336832058265
20
21.6299270456535
30
0
41
1
10
48.2176512296774
20
21.8980439578558
30
0
0
SPLINE
5
1A6
100
AcDbEntity
8
1
62
256
6
ByLayer
370
18
48
1
60
0
100
AcDbSpline
70
4
71
3
72
10
73
6
40
0
40
0
40
0
40
0
40
0.465995854460556
40
0.465995854460556
40
1
40
1
40
1
40
1
41
1
10
35.567641792258
20
5.88392275259622
30
0
41
1
10
35.6146857915309
20
5.71382719625581
30
0
41
1
10
35.6444056229853
20
5.53593492590429
30
0
41
1
10
35.6690439330995
20
5.15152198714301
30
0
41
1
10
35.6584432492081
20
4.94207219655877
30
0
41
1
10
35.6249732341678
20
4.73696076046866
30
0
0
SPLINE
5
1A7
100
AcDbEntity
8
1
62
256
6
ByLayer
370
18
48
1
60
0
100
AcDbSpline
70
4
71
3
72
8
73
4
40
0
40
0
40
0
40
0
40
1
40
1
40
1
40
1
41
1
10
45.6621961827148
20
23.1094813882133
30
0
41
1
10
45.83424755445
20
23.1564201518157
30
0
41
1
10
46.0122478194663
20
23.1844659516752
30
0
41
1
10
46.1847997822518
20
23.1943341598486
30
0
0
SPLINE
5
1A8
100
AcDbEntity
8
1
62
256
6
ByLayer
370
18
48
1
60
0
100
AcDbSpline
70
4
71
3
72
8
73
4
40
0
40
0
40
0
40
0
40
1
40
1
40
1
40
1
41
1
10
29.2043083787198
20
1.95539251348345
30
0
41
1
10
29.1368757919423
20
1.81476020216854
30
0
41
1
10
29.077467173247
20
1.66968535862375
30
0
41
1
10
29.0271647934436
20
1.51989225539367
30
0
0
SPLINE
5
1A9
100
AcDbEntity
8
1
62
256
6
ByLayer
370
18
48
1
60
0
100
AcDbSpline
70
4
71
3
72
13
73
9
40
0
40
0
40
0
40
0
40
0.250661764437226
40
0.250661764437226
40
0.250661764437226
40
0.653096502165463
40
0.653096502165463
40
1
40
1
40
1
40
1
41
1
10
43.6117175162493
20
11.326405670825
30
0
41
1
10
43.4193104169614
20
11.54635957859
30
0
41
1
10
43.2023377584034
20
11.7476814973911
30
0
41
1
10
42.9681518815629
20
11.9239083304095
30
0
41
1
10
42.5954206187079
20
12.2043917263601
30
0
41
1
10
42.1699010147049
20
12.426683622227
30
0
41
1
10
41.3436417655591
20
12.6986760839237
30
0
41
1
10
40.938828974261
20
12.7707836646041
30
0
41
1
10
40.5375093969348
20
12.7837628600557
30
0
0
SPLINE
5
1AA
100
AcDbEntity
8
1
62
256
6
ByLayer
370
18
48
1
60
0
100
AcDbSpline
70
4
71
3
72
16
73
12
40
0
40
0
40
0
40
0
40
0.0076436986798993
40
0.0076436986798993
40
0.0409116539642754
40
0.0409116539642754
40
0.185161591066358
40
0.185161591066358
40
0.761039897349148
40
0.761039897349148
40
1
40
1
40
1
40
1
41
1
10
38.3987973734223
20
-5.22425181135796
30
0
41
1
10
38.4020274589935
20
-5.22578306371511
30
0
41
1
10
38.4052398442695
20
-5.22735778614776
30
0
41
1
10
38.4220943136301
20
-5.23588158845843
30
0
41
1
10
38.43503328099
20
-5.24336140757387
30
0
41
1
10
38.4995007278403
20
-5.2822521753055
30
0
41
1
10
38.5448690244161
20
-5.31272073728493
30
0
41
1
10
38.779370616703
20
-5.45642289449634
30
0
41
1
10
38.9725406940849
20
-5.55004826197592
30
0
41
1
10
39.2581095087365
20
-5.64739481646379
30
0
41
1
10
39.3435177434764
20
-5.67174951750275
30
0
41
1
10
39.43014926233
20
-5.69144154662453
30
0
0
SPLINE
5
1AB
100
AcDbEntity
8
1
62
256
6
ByLayer
370
18
48
1
60
0
100
AcDbSpline
70
4
71
3
72
8
73
4
40
0
40
0
40
0
40
0
40
1
40
1
40
1
40
1
41
1
10
35.3531805078691
20
3.90858477875557
30
0
41
1
10
35.4771375903945
20
4.16825158876981
30
0
41
1
10
35.5720462113306
20
4.44932516953062
30
0
41
1
10
35.6249732341678
20
4.73696076046863
30
0
0
SPLINE
5
1AC
100
AcDbEntity
8
1
62
256
6
ByLayer
370
18
48
1
60
0
100
AcDbSpline
70
4
71
3
72
8
73
4
40
0
40
0
40
0
40
0
40
1
40
1
40
1
40
1
41
1
10
32.7783802779766
20
3.63946506078619
30
0
41
1
10
31.9533138276944
20
3.60096122682674
30
0
41
1
10
31.2960693814802
20
3.61965966067834
30
0
41
1
10
30.8213461956334
20
3.37848774222459
30
0
0
SPLINE
5
1AD
100
AcDbEntity
8
1
62
256
6
ByLayer
370
18
48
1
60
0
100
AcDbSpline
70
4
71
2
72
6
73
3
40
0
40
0
40
0
40
1
40
1
40
1
41
1.02830968163241
10
34.0728098948191
20
12.066753512279
30
0
41
1.02830968163241
10
34.4819867757543
20
12.0349504862356
30
0
41
1.02830968163241
10
34.8911636566894
20
12.0031474601922
30
0
0
SPLINE
5
1AE
100
AcDbEntity
8
1
62
256
6
ByLayer
370
18
48
1
60
0
100
AcDbSpline
70
4
71
2
72
6
73
3
40
0
40
0
40
0
40
1
40
1
40
1
41
1.02830968163241
10
46.5233510231013
20
6.48879995118248
30
0
41
1.02830968163241
10
46.7855079476233
20
6.20235089090496
30
0
41
1.02830968163241
10
47.0476648721454
20
5.91590183062742
30
0
0
SPLINE
5
1AF
100
AcDbEntity
8
1
62
256
6
ByLayer
370
18
48
1
60
0
100
AcDbSpline
70
4
71
3
72
8
73
4
40
0
40
0
40
0
40
0
40
1
40
1
40
1
40
1
41
1
10
34.3440844528149
20
12.645676542399
30
0
41
1
10
34.2533035776285
20
12.452010566931
30
0
41
1
10
34.1627473918008
20
12.2587784494564
30
0
41
1
10
34.0728098948191
20
12.066753512279
30
0
0
SPLINE
5
1B0
100
AcDbEntity
8
1
62
256
6
ByLayer
370
18
48
1
60
0
100
AcDbSpline
70
4
71
3
72
11
73
7
40
0
40
0
40
0
40
0
40
0.379738014043153
40
0.569607021064729
40
0.759476028086306
40
1
40
1
40
1
40
1
41
1.02830968163241
10
34.8911636566894
20
12.0031474601922
30
0
41
1.02566133279165
10
36.5844897540117
20
13.9355163421632
30
0
41
1.02050308371814
10
39.0533297993868
20
16.2631441572686
30
0
41
1.01332460673153
10
43.5239138020811
20
19.5650913722503
30
0
41
1.0120630214142
10
44.387265556192
20
21.3314225256803
30
0
41
1.00944729087556
10
45.6998090273667
20
22.6043729341681
30
0
41
1.00885690313847
10
46.184799777513
20
23.1943341540841
30
0
0
SPLINE
5
1B1
100
AcDbEntity
8
1
62
256
6
ByLayer
370
18
48
1
60
0
100
AcDbSpline
70
4
71
3
72
12
73
8
40
0
40
0
40
0
40
0
40
0.500000000000001
40
0.500000000000001
40
0.750000000000001
40
0.750000000000001
40
1
40
1
40
1
40
1
41
1
10
41.4619421150023
20
-0.477058863484331
30
0
41
1
10
41.322115443108
20
-0.537353140224781
30
0
41
1
10
41.1830730044746
20
-0.594647009585458
30
0
41
1
10
40.975386718265
20
-0.675744590562061
30
0
41
1
10
40.9063541825594
20
-0.702033182875709
30
0
41
1
10
40.768030308661
20
-0.751855723904555
30
0
41
1
10
40.6972572064558
20
-0.813327959389682
30
0
41
1
10
40.6219364782086
20
-0.777621461796485
30
0
0
SPLINE
5
1B2
100
AcDbEntity
8
1
62
256
6
ByLayer
370
18
48
1
60
0
100
AcDbSpline
70
4
71
3
72
16
73
12
40
0
40
0
40
0
40
0
40
0.25
40
0.25
40
0.5
40
0.5
40
0.75
40
0.75
40
0.875
40
0.875
40
1
40
1
40
1
40
1
41
1
10
44.816623231431
20
22.8737045391781
30
0
41
1
10
44.1465560559835
20
22.0184936235939
30
0
41
1
10
43.4199345842062
20
21.1401132789069
30
0
41
1
10
41.7346971322562
20
19.2883079923343
30
0
41
1
10
40.8834457464118
20
18.3567097838647
30
0
41
1
10
39.1205380991547
20
16.4872928573017
30
0
41
1
10
38.1477481948618
20
15.5150870018533
30
0
41
1
10
36.6379188782885
20
14.2022900980346
30
0
41
1
10
36.1257135160699
20
13.7901758999854
30
0
41
1
10
35.1672187729461
20
13.1068288473914
30
0
41
1
10
34.7304831957527
20
12.8429970312968
30
0
41
1
10
34.3440844528133
20
12.6456765423948
30
0
0
SPLINE
5
1B3
100
AcDbEntity
8
1
62
256
6
ByLayer
370
18
48
1
60
0
100
AcDbSpline
70
4
71
3
72
11
73
7
40
0
40
0
40
0
40
0
40
0.268536746558077
40
0.487975722590654
40
0.707414698623231
40
1
40
1
40
1
40
1
41
1.02490909094426
10
43.61171749073
20
11.326405613017
30
0
41
1.02297680709541
10
44.1530516258294
20
12.5526758426289
30
0
41
1.019109996622
10
45.061858323633
20
14.7054683519655
30
0
41
1.01332460673153
10
46.288480362139
20
18.2926087024429
30
0
41
1.01203732298747
10
47.0621818916133
20
20.1668853058176
30
0
41
1.00929221524307
10
47.5767752533671
20
21.8401825318887
30
0
41
1.0087712828333
10
47.7565730127824
20
22.5906947308498
30
0
0
SPLINE
5
1B4
100
AcDbEntity
8
1
62
256
6
ByLayer
370
18
48
1
60
0
100
AcDbSpline
70
4
71
3
72
18
73
14
40
0
40
0
40
0
40
0
40
0.0384430513828805
40
0.0384430513828805
40
0.294505767099368
40
0.294505767099368
40
0.507931675708715
40
0.507931675708715
40
0.723079147095958
40
0.723079147095958
40
0.912685296049719
40
0.912685296049719
40
1
40
1
40
1
40
1
41
1
10
40.1554305445067
20
18.6013161167423
30
0
41
1
10
40.1512663600443
20
18.597220961901
30
0
41
1
10
40.1470684375579
20
18.5931326064888
30
0
41
1
10
40.1149351103236
20
18.5621472712882
30
0
41
1
10
40.0852795444665
20
18.5353519202665
30
0
41
1
10
40.0316921840792
20
18.4907181677114
30
0
41
1
10
40.0070351806324
20
18.4716589660879
30
0
41
1
10
39.9612567568416
20
18.439727909727
30
0
41
1
10
39.9394917903608
20
18.4264650588829
30
0
41
1
10
39.9054366388144
20
18.4098781372944
30
0
41
1
10
39.8918769638094
20
18.4053454823536
30
0
41
1
10
39.8771777275424
20
18.4039110815458
30
0
41
1
10
39.8732029567093
20
18.404198405635
30
0
41
1
10
39.869964382201
20
18.4051908326219
30
0
0
SPLINE
5
1B5
100
AcDbEntity
8
1
62
256
6
ByLayer
370
18
48
1
60
0
100
AcDbSpline
70
4
71
3
72
12
73
8
40
0
40
0
40
0
40
0
40
0.2527496201422
40
0.2527496201422
40
0.674711209428767
40
0.674711209428767
40
1
40
1
40
1
40
1
41
1
10
40.3894695303626
20
-5.73458351935585
30
0
41
1
10
40.4828485371741
20
-5.71975098127533
30
0
41
1
10
40.5791629066874
20
-5.69684046736273
30
0
41
1
10
40.8385300302429
20
-5.61199631373032
30
0
41
1
10
41.0064776307197
20
-5.53251237098306
30
0
41
1
10
41.2925286632687
20
-5.34426371252846
30
0
41
1
10
41.4158938154099
20
-5.24432172384766
30
0
41
1
10
41.5297461840625
20
-5.13228641968851
30
0
0
SPLINE
5
1B6
100
AcDbEntity
8
1
62
256
6
ByLayer
370
18
48
1
60
0
100
AcDbSpline
70
4
71
3
72
10
73
6
40
0
40
0
40
0
40
0
40
0.494168352806883
40
0.494168352806883
40
1
40
1
40
1
40
1
41
1
10
41.950803314333
20
-4.60667978477036
30
0
41
1
10
41.8944850738471
20
-4.69488244918108
30
0
41
1
10
41.8319764433231
20
-4.7839595105221
30
0
41
1
10
41.6958208438767
20
-4.95676726424307
30
0
41
1
10
41.6209742838394
20
-5.04148538068338
30
0
41
1
10
41.5427266340079
20
-5.11943454954314
30
0
0
SPLINE
5
1B7
100
AcDbEntity
8
1
62
256
6
ByLayer
370
18
48
1
60
0
100
AcDbSpline
70
4
71
3
72
12
73
8
40
0
40
0
40
0
40
0
40
0.5
40
0.5
40
0.75
40
0.75
40
1
40
1
40
1
40
1
41
1
10
32.7783802779794
20
3.63946506077642
30
0
41
1
10
32.8188253983815
20
3.49371125028861
30
0
41
1
10
32.8610056747467
20
3.3505070533557
30
0
41
1
10
32.9273403348733
20
3.13950727296898
30
0
41
1
10
32.94988126052
20
3.069807422515
30
0
41
1
10
32.9972297655434
20
2.93196514900168
30
0
41
1
10
32.9930093704036
20
2.8389429785932
30
0
41
1
10
33.0683300986518
20
2.80323648100224
30
0
0
SPLINE
5
1B8
100
AcDbEntity
8
1
62
256
6
ByLayer
370
18
48
1
60
0
100
AcDbSpline
70
4
71
3
72
8
73
4
40
0
40
0
40
0
40
0
40
1
40
1
40
1
40
1
41
1
10
47.9543852261097
20
22.3554455848162
30
0
41
1
10
48.0549642569587
20
22.2160970676573
30
0
41
1
10
48.1452807976266
20
22.0608531697581
30
0
41
1
10
48.2176512296774
20
21.8980439578558
30
0
0
SPLINE
5
1B9
100
AcDbEntity
8
1
62
256
6
ByLayer
370
18
48
1
60
0
100
AcDbSpline
70
4
71
3
72
10
73
6
40
0
40
0
40
0
40
0
40
0.494168352806883
40
0.494168352806883
40
1
40
1
40
1
40
1
41
1
10
29.0271647934436
20
1.51989225539367
30
0
41
1
10
28.9938786509071
20
1.42077100895233
30
0
41
1
10
28.9640813876161
20
1.31618681720369
30
0
41
1
10
28.9161759832032
20
1.10154323090683
30
0
41
1
10
28.8980730243561
20
0.989925278174383
30
0
41
1
10
28.8875950617421
20
0.879849253537429
30
0
0
SPLINE
5
1BA
100
AcDbEntity
8
1
62
256
6
ByLayer
370
18
48
1
60
0
100
AcDbSpline
70
4
71
3
72
14
73
10
40
0
40
0
40
0
40
0
40
0.0151857536690278
40
0.0151857536690278
40
0.0655730315774943
40
0.0655730315774943
40
0.287642754348331
40
0.287642754348331
40
1
40
1
40
1
40
1
41
1
10
30.8451909938646
20
-1.64339386855801
30
0
41
1
10
30.8387784663049
20
-1.64035394973092
30
0
41
1
10
30.8322495200907
20
-1.63746904036134
30
0
41
1
10
30.8045629533531
20
-1.62594978017418
30
0
41
1
10
30.7840045454292
20
-1.61897963774754
30
0
41
1
10
30.6773188845135
20
-1.58305950373077
30
0
41
1
10
30.5967324437942
20
-1.55640987316394
30
0
41
1
10
30.2630588375618
20
-1.42641933392596
30
0
41
1
10
30.0257622121864
20
-1.2965753768186
30
0
41
1
10
29.8137905840936
20
-1.13271653191274
30
0
0
SPLINE
5
1BB
100
AcDbEntity
8
1
62
256
6
ByLayer
370
18
48
1
60
0
100
AcDbSpline
70
4
71
3
72
8
73
4
40
0
40
0
40
0
40
0
40
1
40
1
40
1
40
1
41
1
10
35.567641792258
20
5.88392275259619
30
0
41
1
10
35.3298539921479
20
6.74368486414673
30
0
41
1
10
35.4028344203263
20
7.65354026748199
30
0
41
1
10
35.7981508801175
20
8.49128544382867
30
0
0
SPLINE
5
1BC
100
AcDbEntity
8
1
62
256
6
ByLayer
370
18
48
1
60
0
100
AcDbSpline
70
4
71
2
72
6
73
3
40
0
40
0
40
0
40
1
40
1
40
1
41
1.0087712828333
10
47.7565730127824
20
22.5906947308498
30
0
41
1.0087712828333
10
47.1240940097093
20
22.8905273337158
30
0
41
1.0087712828333
10
46.4916150066364
20
23.1903599365819
30
0
0
SPLINE
5
1BD
100
AcDbEntity
8
1
62
256
6
ByLayer
370
18
48
1
60
0
100
AcDbSpline
70
4
71
3
72
8
73
4
40
0
40
0
40
0
40
0
40
1
40
1
40
1
40
1
41
1
10
44.816623231431
20
22.8737045391781
30
0
41
1
10
45.0965871614557
20
22.9532238482411
30
0
41
1
10
45.378859128312
20
23.0321818532996
30
0
41
1
10
45.6621961827148
20
23.1094813882133
30
0
0
SPLINE
5
1BE
100
AcDbEntity
8
1
62
256
6
ByLayer
370
18
48
1
60
0
100
AcDbSpline
70
4
71
3
72
11
73
7
40
0
40
0
40
0
40
0
40
0.268536746003807
40
0.487975722202665
40
0.707414698401523
40
1
40
1
40
1
40
1
41
1.0249090909279
10
40.5375093737378
20
12.7837628136785
30
0
41
1.0229768070834
10
41.1370623661514
20
13.9824338434619
30
0
41
1.0191099966158
10
42.2120566734555
20
16.0564435544336
30
0
41
1.01332460673153
10
44.1699738657278
20
19.2969065746591
30
0
41
1.01203732298747
10
45.1008530307852
20
21.0966716458546
30
0
41
1.00929221524307
10
46.0405846133699
20
22.568428111351
30
0
41
1.0087712828333
10
46.4916150066364
20
23.1903599365819
30
0
0
SPLINE
5
1BF
100
AcDbEntity
8
1
62
256
6
ByLayer
370
18
48
1
60
0
100
AcDbSpline
70
4
71
3
72
8
73
4
40
0
40
0
40
0
40
0
40
1
40
1
40
1
40
1
41
1
10
44.1646705642044
20
6.77371965166981
30
0
41
1
10
44.3315559645268
20
7.12737919621969
30
0
41
1
10
44.4461932803488
20
7.4982202382968
30
0
41
1
10
44.5131915074926
20
7.88427695134254
30
0
0
SPLINE
5
1C0
100
AcDbEntity
8
1
62
256
6
ByLayer
370
18
48
1
60
0
100
AcDbSpline
70
4
71
3
72
10
73
6
40
0
40
0
40
0
40
0
40
0.474805431212335
40
0.474805431212335
40
1
40
1
40
1
40
1
41
1
10
40.5233552882508
20
2.41483681015251
30
0
41
1
10
40.6450319900211
20
2.55383155912577
30
0
41
1
10
40.7806335068333
20
2.68095193108465
30
0
41
1
10
41.0864612574261
20
2.91441397910367
30
0
41
1
10
41.260878412708
20
3.01858517788961
30
0
41
1
10
41.4412929536632
20
3.09946333577045
30
0
0
SPLINE
5
1C1
100
AcDbEntity
8
1
62
256
6
ByLayer
370
18
48
1
60
0
100
AcDbSpline
70
4
71
3
72
8
73
4
40
0
40
0
40
0
40
0
40
1
40
1
40
1
40
1
41
1
10
47.3189394301372
20
6.49482486073939
30
0
41
1
10
47.2281585549522
20
6.30115888527405
30
0
41
1
10
47.1376023691258
20
6.10792676780207
30
0
41
1
10
47.0476648721454
20
5.9159018306274
30
0
0
SPLINE
5
1C2
100
AcDbEntity
8
1
62
256
6
ByLayer
370
18
48
1
60
0
100
AcDbSpline
70
4
71
3
72
8
73
4
40
0
40
0
40
0
40
0
40
1
40
1
40
1
40
1
41
1
10
40.0515959592686
20
1.6812568717508
30
0
41
1
10
40.175553041794
20
1.94092368176507
30
0
41
1
10
40.3339033265405
20
2.19192214683346
30
0
41
1
10
40.5233552882508
20
2.41483681015251
30
0
0
SPLINE
5
1C3
100
AcDbEntity
8
1
62
256
6
ByLayer
370
18
48
1
60
0
100
AcDbSpline
70
4
71
3
72
8
73
4
40
0
40
0
40
0
40
0
40
1
40
1
40
1
40
1
41
1
10
42.4535335620453
20
-2.13585976678505
30
0
41
1
10
42.3562589343091
20
-1.61970468946234
30
0
41
1
10
41.9471164430978
20
-1.14000312536771
30
0
41
1
10
41.4619421150117
20
-0.477058863480352
30
0
0
SPLINE
5
1C4
100
AcDbEntity
8
1
62
256
6
ByLayer
370
18
48
1
60
0
100
AcDbSpline
70
4
71
2
72
6
73
3
40
0
40
0
40
0
40
1
40
1
40
1
41
0.941103849192081
10
44.513191519815
20
7.88427694734594
30
0
41
0.915286811754989
10
46.0393148855713
20
7.01768812374797
30
0
41
1.02830968163241
10
46.5233510231013
20
6.48879995118248
30
0
0
SPLINE
5
1C5
100
AcDbEntity
8
1
62
256
6
ByLayer
370
18
48
1
60
0
100
AcDbSpline
70
4
71
3
72
16
73
12
40
0
40
0
40
0
40
0
40
0.114691258188364
40
0.114691258188364
40
0.256006982052491
40
0.256006982052491
40
0.478481509698431
40
0.478481509698431
40
0.904237458570125
40
0.904237458570125
40
1
40
1
40
1
40
1
41
1
10
9.07679491924313
20
5.85988980456935
30
0
41
1
10
9.09376079941589
20
5.85988980456935
30
0
41
1
10
9.11093746787589
20
5.8629683550426
30
0
41
1
10
9.14653890153815
20
5.87527238052311
30
0
41
1
10
9.1649283126321
20
5.88582364044447
30
0
41
1
10
9.20694798227834
20
5.91775860341619
30
0
41
1
10
9.22859635065211
20
5.94228809980598
30
0
41
1
10
9.28185513895579
20
6.01773563791645
30
0
41
1
10
9.30640600056208
20
6.07398601286488
30
0
41
1
10
9.32912053427441
20
6.14371014971229
30
0
41
1
10
9.33300496589203
20
6.15668833929709
30
0
41
1
10
9.33660254037846
20
6.16973001948568
30
0
0
SPLINE
5
1C6
100
AcDbEntity
8
1
62
256
6
ByLayer
370
18
48
1
60
0
100
AcDbSpline
70
4
71
3
72
16
73
12
40
0
40
0
40
0
40
0
40
0.464304267159293
40
0.464304267159293
40
0.647533485141969
40
0.647533485141969
40
0.833383675860506
40
0.833383675860506
40
0.950238074309852
40
0.950238074309852
40
1
40
1
40
1
40
1
41
1
10
6.66339745962156
20
-19.0245744101322
30
0
41
1
10
6.68070356543041
20
-19.0449201888242
30
0
41
1
10
6.70445583204739
20
-19.0647708693882
30
0
41
1
10
6.75332706552712
20
-19.0892734034403
30
0
41
1
10
6.76920288341026
20
-19.0959253431035
30
0
41
1
10
6.80605435144608
20
-19.1078085849622
30
0
41
1
10
6.82759190740043
20
-19.1131587398644
30
0
41
1
10
6.86713065155234
20
-19.1192406569511
30
0
41
1
10
6.8838647446556
20
-19.1209710216544
30
0
41
1
10
6.90829201976607
20
-19.1221075563677
30
0
41
1
10
6.91575967688848
20
-19.1222825906926
30
0
41
1
10
6.92320508075687
20
-19.1222825906926
30
0
0
SPLINE
5
1C7
100
AcDbEntity
8
1
62
256
6
ByLayer
370
18
48
1
60
0
100
AcDbSpline
70
4
71
3
72
12
73
8
40
0
40
0
40
0
40
0
40
0.374770975744595
40
0.374770975744595
40
0.68728587981283
40
0.68728587981283
40
1
40
1
40
1
40
1
41
1
10
25.2387747443748
20
1.02847736629519
30
0
41
1
10
25.2592651738237
20
0.982861698410829
30
0
41
1
10
25.2805021014947
20
0.937574657709746
30
0
41
1
10
25.3207326570466
20
0.855162181776961
30
0
41
1
10
25.33951648307
20
0.817923269159337
30
0
41
1
10
25.3780238878382
20
0.743912236667995
30
0
41
1
10
25.3977510975944
20
0.707134555688413
30
0
41
1
10
25.417919699267
20
0.670604342858923
30
0
0
SPLINE
5
1C8
100
AcDbEntity
8
1
62
256
6
ByLayer
370
18
48
1
60
0
100
AcDbSpline
70
4
71
3
72
12
73
8
40
0
40
0
40
0
40
0
40
0.335687490565579
40
0.335687490565579
40
0.667728476507606
40
0.667728476507606
40
1
40
1
40
1
40
1
41
1
10
25.4179196997188
20
0.670604343093999
30
0
41
1
10
25.4420889034999
20
0.626828072816153
30
0
41
1
10
25.466896590662
20
0.583398816357857
30
0
41
1
10
25.5174268138564
20
0.497722283481522
30
0
41
1
10
25.5431412455935
20
0.455459173407434
30
0
41
1
10
25.5956828445998
20
0.371600298336318
30
0
41
1
10
25.6225152901381
20
0.329997769059929
30
0
41
1
10
25.6498620497956
20
0.288741258374756
30
0
0
SPLINE
5
1C9
100
AcDbEntity
8
1
62
256
6
ByLayer
370
18
48
1
60
0
100
AcDbSpline
70
4
71
1
72
4
73
2
40
0
40
0
40
1
40
1
41
1
10
27.9062643090874
20
-1.26517066129492
30
0
41
1
10
27.869285919603
20
-1.34655285402087
30
0
0
SPLINE
5
1CA
100
AcDbEntity
8
1
62
256
6
ByLayer
370
18
48
1
60
0
100
AcDbSpline
70
4
71
3
72
16
73
12
40
0
40
0
40
0
40
0
40
0.114691258188364
40
0.114691258188364
40
0.256006982052499
40
0.256006982052499
40
0.478481509698429
40
0.478481509698429
40
0.904237458570111
40
0.904237458570111
40
1
40
1
40
1
40
1
41
1
10
6.9232050807569
20
19.1222825906926
30
0
41
1
10
6.90623920058411
20
19.1222825906926
30
0
41
1
10
6.88906253212411
20
19.1213397893258
30
0
41
1
10
6.85346109846185
20
19.117563257367
30
0
41
1
10
6.83507168736793
20
19.1143205262483
30
0
41
1
10
6.79305201772169
20
19.1044641374228
30
0
41
1
10
6.77140364934789
20
19.0968571256395
30
0
41
1
10
6.71814486104421
20
19.0732678361841
30
0
41
1
10
6.69359399943792
20
19.0554522237109
30
0
41
1
10
6.67087946572559
20
19.0329978954364
30
0
41
1
10
6.66699503410797
20
19.0288038685174
30
0
41
1
10
6.66339745962154
20
19.0245744101322
30
0
0
SPLINE
5
1CB
100
AcDbEntity
8
1
62
256
6
ByLayer
370
18
48
1
60
0
100
AcDbSpline
70
4
71
3
72
16
73
12
40
0
40
0
40
0
40
0
40
0.114691258188362
40
0.114691258188362
40
0.256006982052503
40
0.256006982052503
40
0.47848150969845
40
0.47848150969845
40
0.904237458570186
40
0.904237458570186
40
1
40
1
40
1
40
1
41
1
10
9.0767949192431
20
-19.1222825906926
30
0
41
1
10
9.09376079941589
20
-19.1222825906926
30
0
41
1
10
9.11093746787589
20
-19.1213397893258
30
0
41
1
10
9.14653890153815
20
-19.117563257367
30
0
41
1
10
9.1649283126321
20
-19.1143205262483
30
0
41
1
10
9.20694798227834
20
-19.1044641374228
30
0
41
1
10
9.22859635065211
20
-19.0968571256395
30
0
41
1
10
9.28185513895582
20
-19.0732678361841
30
0
41
1
10
9.30640600056208
20
-19.0554522237109
30
0
41
1
10
9.32912053427441
20
-19.0329978954363
30
0
41
1
10
9.33300496589203
20
-19.0288038685174
30
0
41
1
10
9.33660254037846
20
-19.0245744101322
30
0
0
SPLINE
5
1CC
100
AcDbEntity
8
1
62
256
6
ByLayer
370
18
48
1
60
0
100
AcDbSpline
70
4
71
3
72
16
73
12
40
0
40
0
40
0
40
0
40
0.0062159551048053
40
0.0062159551048053
40
0.29164513657315
40
0.29164513657315
40
0.577647497055547
40
0.577647497055547
40
0.868470860146306
40
0.868470860146306
40
1
40
1
40
1
40
1
41
1
10
19.6584885664347
20
19.5420256800796
30
0
41
1
10
19.649442009725
20
19.5412856373809
30
0
41
1
10
19.6404082816312
20
19.5405375689531
30
0
41
1
10
19.2227830076886
20
19.5055315827938
30
0
41
1
10
18.8363831801959
20
19.4539599663908
30
0
41
1
10
18.1700045757175
20
19.312705250157
30
0
41
1
10
17.8813325744675
20
19.2207217559237
30
0
41
1
10
17.4314933461893
20
18.9948322134414
30
0
41
1
10
17.2665208540444
20
18.8571253883452
30
0
41
1
10
17.1268994980038
20
18.6313879984429
30
0
41
1
10
17.096843168946
20
18.5565302151828
30
0
41
1
10
17.0803645201174
20
18.4785397031243
30
0
0
SPLINE
5
1CD
100
AcDbEntity
8
1
62
256
6
ByLayer
370
18
48
1
60
0
100
AcDbSpline
70
4
71
3
72
12
73
8
40
0
40
0
40
0
40
0
40
0.413171019201413
40
0.413171019201413
40
0.806940059521574
40
0.806940059521574
40
1
40
1
40
1
40
1
41
1
10
9.07679491924313
20
13.3292778934325
30
0
41
1
10
9.11961322021662
20
13.3099337696491
30
0
41
1
10
9.16193343553249
20
13.2956668911403
30
0
41
1
10
9.2366217269138
20
13.2798753007804
30
0
41
1
10
9.27059249226181
20
13.2775007879803
30
0
41
1
10
9.31285460245871
20
13.2848737084385
30
0
41
1
10
9.32564425624719
20
13.2891593812159
30
0
41
1
10
9.33660254037844
20
13.2956191778814
30
0
0
SPLINE
5
1CE
100
AcDbEntity
8
1
62
256
6
ByLayer
370
18
48
1
60
0
100
AcDbSpline
70
4
71
2
72
6
73
3
40
0
40
0
40
0
40
1
40
1
40
1
41
1
10
27.8692859196031
20
-1.34655285402076
30
0
41
1
10
27.803369161489
20
-1.49162272827732
30
0
41
1
10
27.7702088334155
20
-1.64771068308085
30
0
0
SPLINE
5
1CF
100
AcDbEntity
8
1
62
256
6
ByLayer
370
18
48
1
60
0
100
AcDbSpline
70
4
71
3
72
8
73
4
40
0
40
0
40
0
40
0
40
1
40
1
40
1
40
1
41
1
10
21.0651433124845
20
-19.7489873158093
30
0
41
1
10
21.0304207301919
20
-19.7489873158093
30
0
41
1
10
20.995695084021
20
-19.7488957415293
30
0
41
1
10
20.9609847588647
20
-19.7487125483234
30
0
0
SPLINE
5
1D0
100
AcDbEntity
8
1
62
256
6
ByLayer
370
18
48
1
60
0
100
AcDbSpline
70
4
71
3
72
16
73
12
40
0
40
0
40
0
40
0
40
0.464304267159304
40
0.464304267159304
40
0.647533485141974
40
0.647533485141974
40
0.833383675860506
40
0.833383675860506
40
0.950238074309851
40
0.950238074309851
40
1
40
1
40
1
40
1
41
1
10
9.33660254037844
20
-6.16973001948568
30
0
41
1
10
9.31929643456959
20
-6.10699311212741
30
0
41
1
10
9.29554416795261
20
-6.04466199750289
30
0
41
1
10
9.24667293447288
20
-5.96658891111872
30
0
41
1
10
9.23079711658974
20
-5.94525308185362
30
0
41
1
10
9.19394564855392
20
-5.90694983484818
30
0
41
1
10
9.17240809259957
20
-5.88959453036583
30
0
41
1
10
9.13286934844766
20
-5.86981268651903
30
0
41
1
10
9.1161352553444
20
-5.86416869949437
30
0
41
1
10
9.09170798023393
20
-5.86046107106307
30
0
41
1
10
9.08424032311152
20
-5.85988980456935
30
0
41
1
10
9.07679491924313
20
-5.85988980456935
30
0
0
SPLINE
5
1D1
100
AcDbEntity
8
1
62
256
6
ByLayer
370
18
48
1
60
0
100
AcDbSpline
70
4
71
3
72
12
73
8
40
0
40
0
40
0
40
0
40
0.413171019201418
40
0.413171019201418
40
0.80694005952156
40
0.80694005952156
40
1
40
1
40
1
40
1
41
1
10
6.9232050807569
20
10.9457877206429
30
0
41
1
10
6.88038677978338
20
10.9651318444263
30
0
41
1
10
6.83806656446751
20
10.9925407650872
30
0
41
1
10
6.7633782730862
20
11.0559851766987
30
0
41
1
10
6.72940750773819
20
11.0925636909433
30
0
41
1
10
6.68714539754129
20
11.1509795078407
30
0
41
1
10
6.67435574375281
20
11.1711960626375
30
0
41
1
10
6.66339745962156
20
11.19157847055
30
0
0
SPLINE
5
1D2
100
AcDbEntity
8
1
62
256
6
ByLayer
370
18
48
1
60
0
100
AcDbSpline
70
4
71
3
72
8
73
4
40
0
40
0
40
0
40
0
40
1
40
1
40
1
40
1
41
1
10
19.6584885664347
20
19.5420256800796
30
0
41
1
10
20.0166761630877
20
19.6173083123805
30
0
41
1
10
20.4472005899707
20
19.6696226600782
30
0
41
1
10
20.92079238
20
19.7030586603509
30
0
0
SPLINE
5
1D3
100
AcDbEntity
8
1
62
256
6
ByLayer
370
18
48
1
60
0
100
AcDbSpline
70
4
71
2
72
9
73
6
40
0
40
0
40
0
40
0.0875935403761527
40
0.452556124225692
40
0.635037416150461
40
1
40
1
40
1
41
1.02613459695995
10
25.6498620509452
20
0.288741260904793
30
0
41
1.02613459695995
10
25.7701622382764
20
0.162399333719919
30
0
41
1.02613459695995
10
26.4617052978779
20
-0.498948124270972
30
0
41
1.02613459695995
10
26.924303627239
20
-0.813313460360977
30
0
41
1.02613459695995
10
27.4694476558755
20
-1.1569590436057
30
0
41
1.02613459695995
10
27.8692859196031
20
-1.34655285402076
30
0
0
SPLINE
5
1D4
100
AcDbEntity
8
1
62
256
6
ByLayer
370
18
48
1
60
0
100
AcDbSpline
70
4
71
3
72
8
73
4
40
0
40
0
40
0
40
0
40
1
40
1
40
1
40
1
41
1
10
20.9609847588647
20
-19.7487125483234
30
0
41
1
10
20.9475817320637
20
-19.6976046271877
30
0
41
1
10
20.9341842105476
20
-19.6464956774885
30
0
41
1
10
20.92079238
20
-19.5953859168696
30
0
0
SPLINE
5
1D5
100
AcDbEntity
8
1
62
256
6
ByLayer
370
18
48
1
60
0
100
AcDbSpline
70
4
71
3
72
10
73
6
40
0
40
0
40
0
40
0
40
0.5
40
0.5
40
1
40
1
40
1
40
1
41
1
10
17.0803645201175
20
-18.4785397031243
30
0
41
1
10
17.1607362481336
20
-18.8589247873746
30
0
41
1
10
17.5682113664009
20
-19.1459166129717
30
0
41
1
10
18.9669005807707
20
-19.5099726158561
30
0
41
1
10
19.9225318765138
20
-19.5880225669773
30
0
41
1
10
20.92079238
20
-19.5953859168696
30
0
0
SPLINE
5
1D6
100
AcDbEntity
8
1
62
256
6
ByLayer
370
18
48
1
60
0
100
AcDbSpline
70
4
71
2
72
9
73
6
40
0
40
0
40
0
40
0.241626639538451
40
0.544975983723071
40
0.69665065581538
40
1
40
1
40
1
41
1
10
25.2387747351913
20
1.02847737895067
30
0
41
1
10
25.5337504258397
20
0.621980347024703
30
0
41
1
10
26.5356620768465
20
-0.336183738819301
30
0
41
1
10
26.9982604062076
20
-0.650549074909293
30
0
41
1
10
27.5434044348441
20
-0.994194658154015
30
0
41
1
10
27.9432426985718
20
-1.18378846856905
30
0
0
SPLINE
5
1D7
100
AcDbEntity
8
1
62
256
6
ByLayer
370
18
48
1
60
0
100
AcDbSpline
70
4
71
3
72
18
73
14
40
0
40
0
40
0
40
0
40
0.161641651117501
40
0.161641651117501
40
0.325872484257753
40
0.325872484257753
40
0.496191210654982
40
0.496191210654982
40
0.670420214713132
40
0.670420214713132
40
0.854078822791712
40
0.854078822791712
40
1
40
1
40
1
40
1
41
1
10
27.7244710209871
20
6.67767263501025
30
0
41
1
10
27.3499037488316
20
6.60533489315813
30
0
41
1
10
26.9835493382508
20
6.46601524002821
30
0
41
1
10
26.316952609919
20
6.08233465697478
30
0
41
1
10
26.00889052855
20
5.83054742198163
30
0
41
1
10
25.486367763458
20
5.23877495269576
30
0
41
1
10
25.2685872881726
20
4.88824272027384
30
0
41
1
10
24.9565502269952
20
4.13765394048897
30
0
41
1
10
24.8634864608138
20
3.72659974040769
30
0
41
1
10
24.7993954168483
20
2.88406701535726
30
0
41
1
10
24.8336910964639
20
2.44276457089737
30
0
41
1
10
24.9945328208221
20
1.67934805856731
30
0
41
1
10
25.0968880875532
20
1.34434456349192
30
0
41
1
10
25.2387747351913
20
1.02847737895067
30
0
0
SPLINE
5
1D8
100
AcDbEntity
8
1
62
256
6
ByLayer
370
18
48
1
60
0
100
AcDbSpline
70
4
71
3
72
8
73
4
40
0
40
0
40
0
40
0
40
1
40
1
40
1
40
1
41
1
10
25.649862041643
20
0.288741270674194
30
0
41
1
10
26.1866012981548
20
-0.521006914062013
30
0
41
1
10
26.8890214092698
20
-1.22012569722108
30
0
41
1
10
27.7707598064885
20
-1.64794929937491
30
0
0
SPLINE
5
1D9
100
AcDbEntity
8
1
62
256
6
ByLayer
370
18
48
1
60
0
100
AcDbSpline
70
4
71
3
72
16
73
12
40
0
40
0
40
0
40
0
40
0.114691258188368
40
0.114691258188368
40
0.256006982052502
40
0.256006982052502
40
0.47848150969846
40
0.47848150969846
40
0.904237458570168
40
0.904237458570168
40
1
40
1
40
1
40
1
41
1
10
6.9232050807569
20
-5.85988980456938
30
0
41
1
10
6.90623920058411
20
-5.85988980456938
30
0
41
1
10
6.88906253212411
20
-5.8629683550426
30
0
41
1
10
6.85346109846185
20
-5.87527238052311
30
0
41
1
10
6.8350716873679
20
-5.88582364044447
30
0
41
1
10
6.79305201772166
20
-5.91775860341622
30
0
41
1
10
6.77140364934789
20
-5.94228809980598
30
0
41
1
10
6.71814486104418
20
-6.01773563791645
30
0
41
1
10
6.69359399943792
20
-6.07398601286491
30
0
41
1
10
6.67087946572559
20
-6.14371014971229
30
0
41
1
10
6.66699503410797
20
-6.15668833929709
30
0
41
1
10
6.66339745962154
20
-6.16973001948568
30
0
0
SPLINE
5
1DA
100
AcDbEntity
8
1
62
256
6
ByLayer
370
18
48
1
60
0
100
AcDbSpline
70
4
71
3
72
8
73
4
40
0
40
0
40
0
40
0
40
1
40
1
40
1
40
1
41
1
10
27.7244710057765
20
6.6776726379693
30
0
41
1
10
28.2243790999589
20
6.58042162193428
30
0
41
1
10
28.7382633774274
20
6.40957796630781
30
0
41
1
10
29.2251581053787
20
6.17876095436893
30
0
0
SPLINE
5
1DB
100
AcDbEntity
8
1
62
256
6
ByLayer
370
18
48
1
60
0
100
AcDbSpline
70
4
71
3
72
16
73
12
40
0
40
0
40
0
40
0
40
0.46430426715929
40
0.46430426715929
40
0.647533485141967
40
0.647533485141967
40
0.833383675860504
40
0.833383675860504
40
0.950238074309844
40
0.950238074309844
40
1
40
1
40
1
40
1
41
1
10
6.66339745962156
20
6.16973001948568
30
0
41
1
10
6.68070356543041
20
6.10699311212741
30
0
41
1
10
6.70445583204739
20
6.04466199750289
30
0
41
1
10
6.75332706552712
20
5.96658891111872
30
0
41
1
10
6.76920288341026
20
5.94525308185362
30
0
41
1
10
6.80605435144608
20
5.90694983484818
30
0
41
1
10
6.82759190740043
20
5.88959453036586
30
0
41
1
10
6.86713065155234
20
5.86981268651903
30
0
41
1
10
6.8838647446556
20
5.8641686994944
30
0
41
1
10
6.90829201976607
20
5.86046107106307
30
0
41
1
10
6.91575967688848
20
5.85988980456935
30
0
41
1
10
6.92320508075687
20
5.85988980456935
30
0
0
SPLINE
5
1DC
100
AcDbEntity
8
1
62
256
6
ByLayer
370
18
48
1
60
0
100
AcDbSpline
70
4
71
2
72
9
73
6
40
0
40
0
40
0
40
0.174286163094785
40
0.504571697856871
40
0.669714465237914
40
1
40
1
40
1
41
1
10
25.4179196994952
20
0.670604343361191
30
0
41
1
10
25.6467055385045
20
0.39721136277916
30
0
41
1
10
26.4986836873622
20
-0.417565931545113
30
0
41
1
10
26.9612820167233
20
-0.731931267635133
30
0
41
1
10
27.5064260453598
20
-1.07557685087986
30
0
41
1
10
27.9062643090874
20
-1.26517066129492
30
0
0
SPLINE
5
1DD
100
AcDbEntity
8
1
62
256
6
ByLayer
370
18
48
1
60
0
100
AcDbSpline
70
4
71
3
72
12
73
8
40
0
40
0
40
0
40
0
40
0.33318936009506
40
0.33318936009506
40
0.663294851950628
40
0.663294851950628
40
1
40
1
40
1
40
1
41
1
10
6.66339745962156
20
13.2956191778814
30
0
41
1
10
6.68210691395583
20
13.2845901454823
30
0
41
1
10
6.70622789564857
20
13.2798739138028
30
0
41
1
10
6.75967289653005
20
13.2798391068043
30
0
41
1
10
6.78967412520814
20
13.2844211835406
30
0
41
1
10
6.85353258556992
20
13.3010528357657
30
0
41
1
10
6.88817420464216
20
13.3134519127561
30
0
41
1
10
6.9232050807569
20
13.3292778934325
30
0
0
SPLINE
5
1DE
100
AcDbEntity
8
1
62
256
6
ByLayer
370
18
48
1
60
0
100
AcDbSpline
70
4
71
1
72
4
73
2
40
0
40
0
40
1
40
1
41
1
10
27.9432426985718
20
-1.18378846856905
30
0
41
1
10
27.9062643090874
20
-1.26517066129506
30
0
0
SPLINE
5
1DF
100
AcDbEntity
8
1
62
256
6
ByLayer
370
18
48
1
60
0
100
AcDbSpline
70
4
71
3
72
8
73
4
40
0
40
0
40
0
40
0
40
1
40
1
40
1
40
1
41
1
10
21.4764748865475
20
21.8717314751521
30
0
41
1
10
21.2889821699189
20
21.1468233549734
30
0
41
1
10
21.1034920887477
20
20.4239603196737
30
0
41
1
10
20.9207923799999
20
19.7030586603509
30
0
0
SPLINE
5
1E0
100
AcDbEntity
8
1
62
256
6
ByLayer
370
18
48
1
60
0
100
AcDbSpline
70
4
71
3
72
16
73
12
40
0
40
0
40
0
40
0
40
0.464304267159312
40
0.464304267159312
40
0.64753348514198
40
0.64753348514198
40
0.833383675860513
40
0.833383675860513
40
0.950238074309858
40
0.950238074309858
40
1
40
1
40
1
40
1
41
1
10
9.33660254037844
20
19.0245744101322
30
0
41
1
10
9.31929643456959
20
19.0449201888242
30
0
41
1
10
9.29554416795261
20
19.0647708693882
30
0
41
1
10
9.24667293447288
20
19.0892734034403
30
0
41
1
10
9.23079711658974
20
19.0959253431035
30
0
41
1
10
9.19394564855392
20
19.1078085849622
30
0
41
1
10
9.17240809259957
20
19.1131587398644
30
0
41
1
10
9.13286934844766
20
19.1192406569511
30
0
41
1
10
9.1161352553444
20
19.1209710216544
30
0
41
1
10
9.09170798023393
20
19.1221075563677
30
0
41
1
10
9.08424032311152
20
19.1222825906926
30
0
41
1
10
9.07679491924313
20
19.1222825906926
30
0
0
SPLINE
5
1E1
100
AcDbEntity
8
1
62
256
6
ByLayer
370
18
48
1
60
0
100
AcDbSpline
70
4
71
3
72
12
73
8
40
0
40
0
40
0
40
0
40
0.333189360095017
40
0.333189360095017
40
0.663294851950576
40
0.663294851950576
40
1
40
1
40
1
40
1
41
1
10
9.33660254037844
20
11.19157847055
30
0
41
1
10
9.31789308604417
20
11.1567788864642
30
0
41
1
10
9.29377210435143
20
11.122396787119
30
0
41
1
10
9.24032710346995
20
11.0604814754993
30
0
41
1
10
9.21032587479189
20
11.0320255141877
30
0
41
1
10
9.14646741443011
20
10.9827754735935
30
0
41
1
10
9.11182579535785
20
10.9616137013193
30
0
41
1
10
9.07679491924313
20
10.9457877206429
30
0
0
SPLINE
5
1E2
100
AcDbEntity
8
SK1
62
256
6
ByLayer
370
18
48
1
60
0
100
AcDbSpline
70
4
71
3
72
22
73
18
40
0
40
0
40
0
40
0
40
0.0408146055975421
40
0.0408146055975421
40
0.0823243808208714
40
0.0823243808208714
40
0.113722137960843
40
0.113722137960843
40
0.144934004837801
40
0.144934004837801
40
0.197663645148653
40
0.197663645148653
40
0.33040493622216
40
0.33040493622216
40
0.796191409884692
40
0.796191409884692
40
1
40
1
40
1
40
1
41
1
10
-0.394976888875306
20
-5.00092508226666
30
0
41
1
10
-0.415530107853925
20
-5.01747813555136
30
0
41
1
10
-0.438024560131566
20
-5.03261131985604
30
0
41
1
10
-0.487324802537927
20
-5.05682200266617
30
0
41
1
10
-0.514951385379703
20
-5.065973715838
30
0
41
1
10
-0.565001076851473
20
-5.07238571210249
30
0
41
1
10
-0.587551462055302
20
-5.07198375916977
30
0
41
1
10
-0.630654498772856
20
-5.06497384681828
30
0
41
1
10
-0.651690830573216
20
-5.05839846240309
30
0
41
1
10
-0.704063404944179
20
-5.0354696203506
30
0
41
1
10
-0.733646054998758
20
-5.01537181535585
30
0
41
1
10
-0.825717517678271
20
-4.93804001611764
30
0
41
1
10
-0.875568215521128
20
-4.86927174197922
30
0
41
1
10
-1.06893868726922
20
-4.55513362670803
30
0
41
1
10
-1.15213866111816
20
-4.27852588598478
30
0
41
1
10
-1.25478905452405
20
-3.87761185644086
30
0
41
1
10
-1.28234760083203
20
-3.75339907142145
30
0
41
1
10
-1.30710678118763
20
-3.62781610099955
30
0
0
SPLINE
5
1E3
100
AcDbEntity
8
SK1
62
256
6
ByLayer
370
18
48
1
60
0
100
AcDbSpline
70
4
71
3
72
8
73
4
40
0
40
0
40
0
40
0
40
1
40
1
40
1
40
1
41
1
10
-1.49503997793931
20
-2.59465115086957
30
0
41
1
10
-1.43729564430089
20
-2.94660231507382
30
0
41
1
10
-1.37345704405578
20
-3.29127575598179
30
0
41
1
10
-1.30710678118655
20
-3.6278161010051
30
0
0
SPLINE
5
1E4
100
AcDbEntity
8
SK1
62
256
6
ByLayer
370
18
48
1
60
0
100
AcDbSpline
70
4
71
3
72
98
73
94
40
0
40
0
40
0
40
0
40
0.0012808740763045
40
0.0105737783742241
40
0.0198666826721437
40
0.0291595869700633
40
0.0384524912679829
40
0.0477453955659025
40
0.0663312041617417
40
0.0849170127575809
40
0.10350282135342
40
0.11279572565134
40
0.122088629949259
40
0.131381534247179
40
0.140674438545099
40
0.159260247140938
40
0.168553151438857
40
0.177846055736777
40
0.187138960034696
40
0.196431864332616
40
0.205724768630536
40
0.215017672928455
40
0.233603481524295
40
0.242896385822214
40
0.252189290120134
40
0.261482194418053
40
0.270775098715973
40
0.280068003013893
40
0.289360907311812
40
0.298653811609732
40
0.307946715907651
40
0.326532524503491
40
0.33582542880141
40
0.34511833309933
40
0.363704141695169
40
0.382289950291008
40
0.391582854588928
40
0.400875758886847
40
0.410168663184767
40
0.419461567482687
40
0.428754471780606
40
0.438047376078526
40
0.442693828227486
40
0.447340280376445
40
0.456633184674365
40
0.465926088972284
40
0.475218993270204
40
0.493804801866043
40
0.503097706163963
40
0.512390610461883
40
0.521683514759802
40
0.530976419057722
40
0.540269323355641
40
0.549562227653561
40
0.558855131951481
40
0.5681480362494
40
0.57744094054732
40
0.586733844845239
40
0.605319653441079
40
0.614612557738998
40
0.623905462036918
40
0.628551914185878
40
0.633198366334837
40
0.642491270632757
40
0.661077079228596
40
0.670369983526516
40
0.679662887824435
40
0.698248696420275
40
0.716834505016114
40
0.726127409314034
40
0.735420313611953
40
0.754006122207792
40
0.763299026505712
40
0.772591930803632
40
0.781884835101551
40
0.791177739399471
40
0.80047064369739
40
0.80976354799531
40
0.828349356591149
40
0.846935165186988
40
0.856228069484908
40
0.865520973782828
40
0.874813878080747
40
0.884106782378667
40
0.902692590974506
40
0.921278399570345
40
0.939864208166184
40
0.958450016762024
40
0.967742921059943
40
0.977035825357863
40
0.986328729655782
40
0.995621633953702
40
1
40
1
40
1
40
1
41
1
10
-0.394976888875277
20
13.8446015176322
30
0
41
1
10
-0.394976888875277
20
13.8443369604552
30
0
41
1
10
-0.394976888875277
20
13.842101166137
30
0
41
1
10
-0.394976888875277
20
13.8370982474882
30
0
41
1
10
-0.394976888875277
20
13.8281310063336
30
0
41
1
10
-0.394976888875277
20
13.8172492272358
30
0
41
1
10
-0.394976888875277
20
13.8044829705053
30
0
41
1
10
-0.394976888875277
20
13.7849758313288
30
0
41
1
10
-0.394976888875277
20
13.7560496751861
30
0
41
1
10
-0.394976888875277
20
13.7142204148031
30
0
41
1
10
-0.394976888875277
20
13.6736219510479
30
0
41
1
10
-0.394976888875277
20
13.6377421071264
30
0
41
1
10
-0.394976888875277
20
13.6091837483775
30
0
41
1
10
-0.394976888875277
20
13.5789821852606
30
0
41
1
10
-0.394976888875277
20
13.5365270016785
30
0
41
1
10
-0.394976888875277
20
13.4909311840823
30
0
41
1
10
-0.394976888875277
20
13.4421262012037
30
0
41
1
10
-0.394976888875277
20
13.4039879614121
30
0
41
1
10
-0.394976888875277
20
13.3643136176474
30
0
41
1
10
-0.394976888875277
20
13.3231185671574
30
0
41
1
10
-0.394976888875277
20
13.2804176635455
30
0
41
1
10
-0.394976888875277
20
13.2214670183476
30
0
41
1
10
-0.394976888875277
20
13.1596507604527
30
0
41
1
10
-0.394976888875277
20
13.094846134259
30
0
41
1
10
-0.394976888875277
20
13.0448282447276
30
0
41
1
10
-0.394976888875277
20
12.9933861020735
30
0
41
1
10
-0.394976888875277
20
12.9405320737836
30
0
41
1
10
-0.394976888875277
20
12.8862769376535
30
0
41
1
10
-0.394976888875277
20
12.8306328717281
30
0
41
1
10
-0.394976888875277
20
12.7736108931729
30
0
41
1
10
-0.394976888875277
20
12.6957215859151
30
0
41
1
10
-0.394976888875277
20
12.6152283382819
30
0
41
1
10
-0.394976888875277
20
12.5319491453114
30
0
41
1
10
-0.394976888875277
20
12.4468991604423
30
0
41
1
10
-0.394976888875277
20
12.3373769122162
30
0
41
1
10
-0.394976888875277
20
12.2235215734124
30
0
41
1
10
-0.394976888875277
20
12.1297946053789
30
0
41
1
10
-0.394976888875277
20
12.0582544060742
30
0
41
1
10
-0.394976888875277
20
11.9854459580753
30
0
41
1
10
-0.394976888875277
20
11.9113764581405
30
0
41
1
10
-0.394976888875277
20
11.8360539668501
30
0
41
1
10
-0.394976888875277
20
11.7722691621604
30
0
41
1
10
-0.394976888875277
20
11.7205808778945
30
0
41
1
10
-0.394976888875277
20
11.6684804259269
30
0
41
1
10
-0.394976888875277
20
11.6026363586083
30
0
41
1
10
-0.394976888875277
20
11.5223699646631
30
0
41
1
10
-0.394976888875277
20
11.4136741241806
30
0
41
1
10
-0.394976888875277
20
11.3026972493618
30
0
41
1
10
-0.394976888875277
20
11.1891707558493
30
0
41
1
10
-0.394976888875277
20
11.102867622286
30
0
41
1
10
-0.394976888875277
20
11.0153746780185
30
0
41
1
10
-0.394976888875277
20
10.9266969759659
30
0
41
1
10
-0.394976888875277
20
10.8368404439692
30
0
41
1
10
-0.394976888875277
20
10.74580988339
30
0
41
1
10
-0.394976888875277
20
10.6536100721469
30
0
41
1
10
-0.394976888875277
20
10.5602461340712
30
0
41
1
10
-0.394976888875277
20
10.4657231550753
30
0
41
1
10
-0.394976888875277
20
10.3380960413352
30
0
41
1
10
-0.394976888875277
20
10.2083399780688
30
0
41
1
10
-0.394976888875277
20
10.0761265525343
30
0
41
1
10
-0.394976888875277
20
9.99261143893298
30
0
41
1
10
-0.394976888875277
20
9.92517900727512
30
0
41
1
10
-0.394976888875277
20
9.85736934874495
30
0
41
1
10
-0.394976888875277
20
9.73773600630287
30
0
41
1
10
-0.394976888875277
20
9.59892076352932
30
0
41
1
10
-0.394976888875277
20
9.45767861814849
30
0
41
1
10
-0.394976888875277
20
9.3149499665038
30
0
41
1
10
-0.394976888875277
20
9.13390678694702
30
0
41
1
10
-0.394976888875277
20
8.94918033853523
30
0
41
1
10
-0.394976888875277
20
8.79907643306458
30
0
41
1
10
-0.394976888875277
20
8.64751154095558
30
0
41
1
10
-0.394976888875277
20
8.49397418950429
30
0
41
1
10
-0.394976888875277
20
8.33804225713789
30
0
41
1
10
-0.394976888875277
20
8.22006379392718
30
0
41
1
10
-0.394976888875277
20
8.10100252302422
30
0
41
1
10
-0.394976888875277
20
7.98086143927398
30
0
41
1
10
-0.394976888875277
20
7.85964213989763
30
0
41
1
10
-0.394976888875277
20
7.69650359349293
30
0
41
1
10
-0.394976888875277
20
7.49008089634199
30
0
41
1
10
-0.394976888875277
20
7.28009509164627
30
0
41
1
10
-0.394976888875277
20
7.10982244878713
30
0
41
1
10
-0.394976888875277
20
6.98112244545175
30
0
41
1
10
-0.394976888875277
20
6.85136200824962
30
0
41
1
10
-0.394976888875277
20
6.67684685573994
30
0
41
1
10
-0.394976888875277
20
6.45627503636445
30
0
41
1
10
-0.394976888875277
20
6.18726433662556
30
0
41
1
10
-0.394976888875277
20
5.91406385279547
30
0
41
1
10
-0.394976888875277
20
5.68302324019061
30
0
41
1
10
-0.394976888875277
20
5.49591838220567
30
0
41
1
10
-0.394976888875277
20
5.35463940810163
30
0
41
1
10
-0.394976888875277
20
5.21232773385495
30
0
41
1
10
-0.394976888875277
20
5.09425517295406
30
0
41
1
10
-0.394976888875277
20
5.02359271293304
30
0
41
1
10
-0.394976888875277
20
5.0009244140283
30
0
0
SPLINE
5
1E5
100
AcDbEntity
8
SK1
62
256
6
ByLayer
370
18
48
1
60
0
100
AcDbSpline
70
4
71
3
72
8
73
4
40
0
40
0
40
0
40
0
40
1
40
1
40
1
40
1
41
1
10
-1.30710678118655
20
3.62781725664615
30
0
41
1
10
-1.37345758266253
20
3.29127686428785
30
0
41
1
10
-1.4372955614198
20
2.946602671997
30
0
41
1
10
-1.49503997793931
20
2.59465115838313
30
0
0
SPLINE
5
1E6
100
AcDbEntity
8
SK1
62
256
6
ByLayer
370
18
48
1
60
0
100
AcDbSpline
70
4
71
3
72
10
73
6
40
0
40
0
40
0
40
0
40
0.5
40
0.5
40
1
40
1
40
1
40
1
41
1
10
-1.69999999999999
20
2.58372509632821
30
0
41
1
10
-1.83222262461143
20
1.751855044526
30
0
41
1
10
-1.92871617486691
20
0.884329181036094
30
0
41
1
10
-1.92842303871006
20
-0.888588835776119
30
0
41
1
10
-1.83224326233341
20
-1.75172436897285
30
0
41
1
10
-1.69999999999999
20
-2.58372503195247
30
0
0
SPLINE
5
1E7
100
AcDbEntity
8
SK1
62
256
6
ByLayer
370
18
48
1
60
0
100
AcDbSpline
70
4
71
3
72
32
73
28
40
0
40
0
40
0
40
0
40
0.335339404831972
40
0.335339404831972
40
0.429287156787091
40
0.429287156787091
40
0.47567705376244
40
0.47567705376244
40
0.494539743197707
40
0.494539743197707
40
0.513645880085613
40
0.513645880085613
40
0.520504273461007
40
0.520504273461007
40
0.527488218290634
40
0.527488218290634
40
0.533551201014328
40
0.533551201014328
40
0.540998152878254
40
0.540998152878254
40
0.554393631774451
40
0.554393631774451
40
0.598967269657032
40
0.598967269657032
40
0.809317334416222
40
0.809317334416222
40
1
40
1
40
1
40
1
41
1
10
-1.49503997793931
20
2.59465115838304
30
0
41
1
10
-1.51545804662706
20
2.47020327904033
30
0
41
1
10
-1.5371392192427
20
2.34554891087819
30
0
41
1
10
-1.57392592094843
20
2.19043955590803
30
0
41
1
10
-1.58255890853934
20
2.15670217135892
30
0
41
1
10
-1.5980595693656
20
2.1081468839686
30
0
41
1
10
-1.60359902440038
20
2.09231222948606
30
0
41
1
10
-1.61296122457534
20
2.07152520286885
30
0
41
1
10
-1.6158696741316
20
2.0656737244498
30
0
41
1
10
-1.62242426172162
20
2.05481886173052
30
0
41
1
10
-1.62611615645159
20
2.04963161073078
30
0
41
1
10
-1.63217263701876
20
2.04479089552191
30
0
41
1
10
-1.63391092603902
20
2.04372430879368
30
0
41
1
10
-1.63759701012464
20
2.04243943769597
30
0
41
1
10
-1.63960513001732
20
2.04224314885471
30
0
41
1
10
-1.64327142014687
20
2.04303363449088
30
0
41
1
10
-1.64498274878696
20
2.04388024545895
30
0
41
1
10
-1.64846923771176
20
2.04652261877811
30
0
41
1
10
-1.65023197368771
20
2.04850621085967
30
0
41
1
10
-1.65459297944469
20
2.05462030362457
30
0
41
1
10
-1.65687449353447
20
2.05928542847226
30
0
41
1
10
-1.66535432668744
20
2.07982184742582
30
0
41
1
10
-1.66919635898847
20
2.09736547364699
30
0
41
1
10
-1.68800967157858
20
2.19569498442294
30
0
41
1
10
-1.6917465712958
20
2.27904221250569
30
0
41
1
10
-1.69840552504974
20
2.43548746422863
30
0
41
1
10
-1.69970172620592
20
2.50976932903754
30
0
41
1
10
-1.69999999999999
20
2.58372509632824
30
0
0
SPLINE
5
1E8
100
AcDbEntity
8
SK1
62
256
6
ByLayer
370
18
48
1
60
0
100
AcDbSpline
70
4
71
3
72
24
73
20
40
0
40
0
40
0
40
0
40
0.408002420194574
40
0.408002420194574
40
0.586477084363329
40
0.586477084363329
40
0.763728221544513
40
0.763728221544513
40
0.83464833042642
40
0.83464833042642
40
0.871680147904128
40
0.871680147904128
40
0.909315863704638
40
0.909315863704638
40
0.941446160303591
40
0.941446160303591
40
0.988233002766673
40
0.988233002766673
40
1
40
1
40
1
40
1
41
1
10
-1.30710678118655
20
3.62781725664615
30
0
41
1
10
-1.25754709276271
20
3.87919081380429
30
0
41
1
10
-1.19771793926938
20
4.12580048883993
30
0
41
1
10
-1.07980138365164
20
4.46640123366592
30
0
41
1
10
-1.03947389583291
20
4.56855181342542
30
0
41
1
10
-0.943165684412492
20
4.76452984977917
30
0
41
1
10
-0.887972849225292
20
4.86076144162979
30
0
41
1
10
-0.781589632759733
20
4.97623115222154
30
0
41
1
10
-0.746942513659576
20
5.00751721259149
30
0
41
1
10
-0.685298347589708
20
5.04425501792002
30
0
41
1
10
-0.662073057062713
20
5.05499571071985
30
0
41
1
10
-0.612858105189787
20
5.06918922724967
30
0
41
1
10
-0.586087478285805
20
5.07253385323432
30
0
41
1
10
-0.537899014579068
20
5.06994558199364
30
0
41
1
10
-0.515734678473706
20
5.06532466911642
30
0
41
1
10
-0.465255653618982
20
5.04798484569733
30
0
41
1
10
-0.437776087568892
20
5.03248974169182
30
0
41
1
10
-0.406986543980821
20
5.01034621255963
30
0
41
1
10
-0.400907252385935
20
5.00570060770795
30
0
41
1
10
-0.394976888875277
20
5.00092441402839
30
0
0
SPLINE
5
1E9
100
AcDbEntity
8
SK1
62
256
6
ByLayer
370
18
48
1
60
0
100
AcDbSpline
70
4
71
3
72
100
73
96
40
0
40
0
40
0
40
0
40
0.0043783247532282
40
0.0136712309453665
40
0.0229641371375048
40
0.0322570433296431
40
0.0415499495217814
40
0.0601357619060581
40
0.0787215742903348
40
0.0973073866746114
40
0.115893199058888
40
0.125186105251026
40
0.134479011443165
40
0.143771917635303
40
0.153064823827441
40
0.171650636211718
40
0.190236448595995
40
0.199529354788133
40
0.208822260980271
40
0.21811516717241
40
0.227408073364548
40
0.236700979556686
40
0.245993885748825
40
0.264579698133101
40
0.27387260432524
40
0.283165510517378
40
0.301751322901655
40
0.320337135285931
40
0.32963004147807
40
0.338922947670208
40
0.357508760054485
40
0.366801666246623
40
0.371448119342692
40
0.376094572438761
40
0.385387478630899
40
0.394680384823038
40
0.413266197207314
40
0.422559103399453
40
0.431852009591591
40
0.441144915783729
40
0.450437821975868
40
0.459730728168006
40
0.469023634360144
40
0.478316540552283
40
0.487609446744421
40
0.496902352936559
40
0.506195259128698
40
0.524781071512974
40
0.534073977705113
40
0.543366883897251
40
0.552659790089389
40
0.557306243185458
40
0.561952696281528
40
0.571245602473666
40
0.580538508665804
40
0.589831414857943
40
0.599124321050081
40
0.608417227242219
40
0.617710133434358
40
0.636295945818634
40
0.654881758202911
40
0.664174664395049
40
0.673467570587188
40
0.692053382971464
40
0.701346289163602
40
0.710639195355741
40
0.719932101547879
40
0.729225007740017
40
0.738517913932156
40
0.747810820124294
40
0.757103726316433
40
0.766396632508571
40
0.784982444892847
40
0.794275351084986
40
0.803568257277124
40
0.812861163469262
40
0.822154069661401
40
0.831446975853539
40
0.840739882045677
40
0.859325694429954
40
0.868618600622092
40
0.877911506814231
40
0.887204413006369
40
0.896497319198507
40
0.915083131582784
40
0.924376037774922
40
0.933668943967061
40
0.942961850159199
40
0.952254756351337
40
0.961547662543476
40
0.970840568735614
40
0.980133474927752
40
0.98942638111989
40
0.998719287312029
40
1
40
1
40
1
40
1
41
1
10
-0.394976888875306
20
-5.00092508225416
30
0
41
1
10
-0.394976888875306
20
-5.02359314607176
30
0
41
1
10
-0.394976888875306
20
-5.09425535366776
30
0
41
1
10
-0.394976888875306
20
-5.21232773830431
30
0
41
1
10
-0.394976888875306
20
-5.35463943777347
30
0
41
1
10
-0.394976888875306
20
-5.49591839522026
30
0
41
1
10
-0.394976888875306
20
-5.68302324398948
30
0
41
1
10
-0.394976888875306
20
-5.91406388300979
30
0
41
1
10
-0.394976888875306
20
-6.18726435105106
30
0
41
1
10
-0.394976888875306
20
-6.45627504712579
30
0
41
1
10
-0.394976888875306
20
-6.6768468885183
30
0
41
1
10
-0.394976888875306
20
-6.85136201549099
30
0
41
1
10
-0.394976888875306
20
-6.98112245032084
30
0
41
1
10
-0.394976888875306
20
-7.10982246715957
30
0
41
1
10
-0.394976888875306
20
-7.28009512097313
30
0
41
1
10
-0.394976888875306
20
-7.49008091096033
30
0
41
1
10
-0.394976888875306
20
-7.69650359935568
30
0
41
1
10
-0.394976888875306
20
-7.85964216476054
30
0
41
1
10
-0.394976888875306
20
-7.98086146605701
30
0
41
1
10
-0.394976888875306
20
-8.10100253994159
30
0
41
1
10
-0.394976888875306
20
-8.22006380191277
30
0
41
1
10
-0.394976888875306
20
-8.3380422654499
30
0
41
1
10
-0.394976888875306
20
-8.49397420958985
30
0
41
1
10
-0.394976888875306
20
-8.64751156797169
30
0
41
1
10
-0.394976888875306
20
-8.79907644696402
30
0
41
1
10
-0.394976888875306
20
-8.94918034619519
30
0
41
1
10
-0.394976888875306
20
-9.13390680482667
30
0
41
1
10
-0.394976888875306
20
-9.31494999082747
30
0
41
1
10
-0.394976888875306
20
-9.45767863215664
30
0
41
1
10
-0.394976888875306
20
-9.59892077296985
30
0
41
1
10
-0.394976888875306
20
-9.73773602301958
30
0
41
1
10
-0.394976888875306
20
-9.85736937045593
30
0
41
1
10
-0.394976888875306
20
-9.92517902838179
30
0
41
1
10
-0.394976888875306
20
-9.99261145812801
30
0
41
1
10
-0.394976888875306
20
-10.0761265678462
30
0
41
1
10
-0.394976888875306
20
-10.2083399899529
30
0
41
1
10
-0.394976888875306
20
-10.338096057249
30
0
41
1
10
-0.394976888875306
20
-10.4657231753345
30
0
41
1
10
-0.394976888875306
20
-10.5602461538978
30
0
41
1
10
-0.394976888875306
20
-10.6536100894112
30
0
41
1
10
-0.394976888875306
20
-10.7458098983122
30
0
41
1
10
-0.394976888875306
20
-10.8368404586376
30
0
41
1
10
-0.394976888875306
20
-10.9266969919675
30
0
41
1
10
-0.394976888875306
20
-11.0153746961414
30
0
41
1
10
-0.394976888875306
20
-11.1028676417001
30
0
41
1
10
-0.394976888875306
20
-11.1891707748317
30
0
41
1
10
-0.394976888875306
20
-11.3026972665534
30
0
41
1
10
-0.394976888875306
20
-11.413674138825
30
0
41
1
10
-0.394976888875306
20
-11.5223699808134
30
0
41
1
10
-0.394976888875306
20
-11.6026363770329
30
0
41
1
10
-0.394976888875306
20
-11.6684804460587
30
0
41
1
10
-0.394976888875306
20
-11.7205808983271
30
0
41
1
10
-0.394976888875306
20
-11.7722691819395
30
0
41
1
10
-0.394976888875306
20
-11.836053984022
30
0
41
1
10
-0.394976888875306
20
-11.9113764724791
30
0
41
1
10
-0.394976888875306
20
-11.9854459723214
30
0
41
1
10
-0.394976888875306
20
-12.0582544232072
30
0
41
1
10
-0.394976888875306
20
-12.1297946270485
30
0
41
1
10
-0.394976888875306
20
-12.2235215963167
30
0
41
1
10
-0.394976888875306
20
-12.3373769247913
30
0
41
1
10
-0.394976888875306
20
-12.446899173783
30
0
41
1
10
-0.394976888875306
20
-12.5319491682166
30
0
41
1
10
-0.394976888875306
20
-12.6152283642396
30
0
41
1
10
-0.394976888875306
20
-12.6957215996061
30
0
41
1
10
-0.394976888875306
20
-12.773610902979
30
0
41
1
10
-0.394976888875306
20
-12.8306328883531
30
0
41
1
10
-0.394976888875306
20
-12.8862769625636
30
0
41
1
10
-0.394976888875306
20
-12.940532100831
30
0
41
1
10
-0.394976888875306
20
-12.9933861205259
30
0
41
1
10
-0.394976888875306
20
-13.0448282543027
30
0
41
1
10
-0.394976888875306
20
-13.0948461430692
30
0
41
1
10
-0.394976888875306
20
-13.1596507828291
30
0
41
1
10
-0.394976888875306
20
-13.221467049789
30
0
41
1
10
-0.394976888875306
20
-13.2804176772461
30
0
41
1
10
-0.394976888875306
20
-13.3231185723383
30
0
41
1
10
-0.394976888875306
20
-13.3643136307331
30
0
41
1
10
-0.394976888875306
20
-13.4039879870964
30
0
41
1
10
-0.394976888875306
20
-13.4421262291561
30
0
41
1
10
-0.394976888875306
20
-13.490931201485
30
0
41
1
10
-0.394976888875306
20
-13.5365270011545
30
0
41
1
10
-0.394976888875306
20
-13.5789822078612
30
0
41
1
10
-0.394976888875306
20
-13.6091837809887
30
0
41
1
10
-0.394976888875306
20
-13.6377421279937
30
0
41
1
10
-0.394976888875306
20
-13.6736219491958
30
0
41
1
10
-0.394976888875306
20
-13.706079968468
30
0
41
1
10
-0.394976888875306
20
-13.7351343539634
30
0
41
1
10
-0.394976888875306
20
-13.7551609910392
30
0
41
1
10
-0.394976888875306
20
-13.7734119916164
30
0
41
1
10
-0.394976888875306
20
-13.7898613788954
30
0
41
1
10
-0.394976888875306
20
-13.8044829828858
30
0
41
1
10
-0.394976888875306
20
-13.8172491473121
30
0
41
1
10
-0.394976888875306
20
-13.8281307581185
30
0
41
1
10
-0.394976888875306
20
-13.8370980881852
30
0
41
1
10
-0.394976888875306
20
-13.8421014019358
30
0
41
1
10
-0.394976888875306
20
-13.8443373794894
30
0
41
1
10
-0.394976888875306
20
-13.8446019297682
30
0
0
SPLINE
5
1EA
100
AcDbEntity
8
SK1
62
256
6
ByLayer
370
18
48
1
60
0
100
AcDbSpline
70
4
71
3
72
30
73
26
40
0
40
0
40
0
40
0
40
0.337353368376273
40
0.337353368376273
40
0.421572476570396
40
0.421572476570396
40
0.437870507614647
40
0.437870507614647
40
0.454360744150349
40
0.454360744150349
40
0.46102437321649
40
0.46102437321649
40
0.467802724987302
40
0.467802724987302
40
0.473791453396888
40
0.473791453396888
40
0.481264268969724
40
0.481264268969724
40
0.494804301393218
40
0.494804301393218
40
0.541069262252274
40
0.541069262252274
40
0.762218024196531
40
0.762218024196531
40
1
40
1
40
1
40
1
41
1
10
-1.69999999999999
20
-2.5837250319525
30
0
41
1
10
-1.69946915813009
20
-2.45210484593008
30
0
41
1
10
-1.69760670671556
20
-2.31884997747196
30
0
41
1
10
-1.67915375522099
20
-2.15294187932722
30
0
41
1
10
-1.67485152519237
20
-2.11932442567118
30
0
41
1
10
-1.66472347048304
20
-2.08095979549279
30
0
41
1
10
-1.66287560510222
20
-2.07475454077749
30
0
41
1
10
-1.65846712486041
20
-2.06274931231133
30
0
41
1
10
-1.65588139752759
20
-2.05680133794195
30
0
41
1
10
-1.65120237663186
20
-2.0497680665317
30
0
41
1
10
-1.64969999009787
20
-2.04787870491481
30
0
41
1
10
-1.64639510213217
20
-2.0447894938039
30
0
41
1
10
-1.64453557847699
20
-2.04357912964019
30
0
41
1
10
-1.64096575658939
20
-2.04240828386776
30
0
41
1
10
-1.63922229186966
20
-2.04230771235822
30
0
41
1
10
-1.63551182442282
20
-2.04297037181766
30
0
41
1
10
-1.63353448434609
20
-2.04393506875687
30
0
41
1
10
-1.62845259442082
20
-2.04750201060256
30
0
41
1
10
-1.62558657915471
20
-2.0508033417303
30
0
41
1
10
-1.61425491864986
20
-2.06649024761731
30
0
41
1
10
-1.60795428020356
20
-2.08189579117942
30
0
41
1
10
-1.57473680217674
20
-2.17064161742221
30
0
41
1
10
-1.55852136531561
20
-2.25243693059593
30
0
41
1
10
-1.5247433730911
20
-2.41950302647342
30
0
41
1
10
-1.50941945205861
20
-2.5070083929059
30
0
41
1
10
-1.49503997793928
20
-2.59465115086951
30
0
0
SPLINE
5
1EB
100
AcDbEntity
8
SK1
62
256
6
ByLayer
370
18
48
1
60
0
100
AcDbSpline
70
4
71
3
72
24
73
20
40
0
40
0
40
0
40
0
40
0.470757791634908
40
0.470757791634908
40
0.661826126045254
40
0.661826126045254
40
0.85568916651581
40
0.85568916651581
40
0.884460546127643
40
0.884460546127643
40
0.91360691814161
40
0.91360691814161
40
0.932763100125268
40
0.932763100125268
40
0.95203909678233
40
0.95203909678233
40
0.974618894615272
40
0.974618894615272
40
1
40
1
40
1
40
1
41
1
10
-0.199999999999989
20
-5.70317605472911
30
0
41
1
10
-0.199999999999989
20
-5.58107998739831
30
0
41
1
10
-0.203895983734896
20
-5.45705658909691
30
0
41
1
10
-0.223509916035709
20
-5.28128624620587
30
0
41
1
10
-0.23086916609185
20
-5.23019697507434
30
0
41
1
10
-0.252992963272021
20
-5.12819212434212
30
0
41
1
10
-0.266168518183207
20
-5.0748758166919
30
0
41
1
10
-0.299311339940942
20
-5.02202983998879
30
0
41
1
10
-0.304166370278011
20
-5.01525404855027
30
0
41
1
10
-0.315232060467963
20
-5.00279573504582
30
0
41
1
10
-0.321587352348587
20
-4.99699852204864
30
0
41
1
10
-0.333432884234497
20
-4.98975078853741
30
0
41
1
10
-0.33858625385443
20
-4.98746585289803
30
0
41
1
10
-0.3491574393544
20
-4.98479989040243
30
0
41
1
10
-0.354703931885922
20
-4.98441392730476
30
0
41
1
10
-0.366193082216228
20
-4.98556317954746
30
0
41
1
10
-0.372213152675158
20
-4.98741181161262
30
0
41
1
10
-0.383950186909431
20
-4.99285513665984
30
0
41
1
10
-0.3896944310344
20
-4.99667072159761
30
0
41
1
10
-0.394976888882155
20
-5.00092508225598
30
0
0
SPLINE
5
1EC
100
AcDbEntity
8
SK1
62
256
6
ByLayer
370
18
48
1
60
0
100
AcDbSpline
70
4
71
3
72
22
73
18
40
0
40
0
40
0
40
0
40
0.0262442859026881
40
0.0262442859026881
40
0.0530261157854851
40
0.0530261157854851
40
0.0713559655737795
40
0.0713559655737795
40
0.0895874012639089
40
0.0895874012639089
40
0.119482247898519
40
0.119482247898519
40
0.178618886842945
40
0.178618886842945
40
0.388022338076953
40
0.388022338076953
40
1
40
1
40
1
40
1
41
1
10
-0.394976888875277
20
5.0009244140283
30
0
41
1
10
-0.389542958903149
20
4.99654803778401
30
0
41
1
10
-0.383617633691586
20
4.99263335383438
30
0
41
1
10
-0.370682657201087
20
4.98677476419829
30
0
41
1
10
-0.363425194676552
20
4.98483424058901
30
0
41
1
10
-0.350979181144169
20
4.98462903203949
30
0
41
1
10
-0.345738268039327
20
4.98542011278013
30
0
41
1
10
-0.335836240990062
20
4.98861553627458
30
0
41
1
10
-0.331061456711979
20
4.99102841332402
30
0
41
1
10
-0.319537139874143
20
4.9986715699325
30
0
41
1
10
-0.313226756018622
20
5.00478758784652
30
0
41
1
10
-0.29682625826149
20
5.02421063341325
30
0
41
1
10
-0.288455270980222
20
5.03906576138257
30
0
41
1
10
-0.256353055935392
20
5.10678482490906
30
0
41
1
10
-0.244000373144985
20
5.16381228581221
30
0
41
1
10
-0.204596889637315
20
5.38213882730372
30
0
41
1
10
-0.200000000000046
20
5.54465158381666
30
0
41
1
10
-0.200000000000046
20
5.70317614351262
30
0
0
SPLINE
5
1ED
100
AcDbEntity
8
1
62
256
6
ByLayer
370
18
48
1
60
0
100
AcDbSpline
70
4
71
3
72
12
73
8
40
0
40
0
40
0
40
0
40
0.392678099449921
40
0.392678099449921
40
0.791279335966122
40
0.791279335966122
40
1
40
1
40
1
40
1
41
1
10
41.1817808579845
20
7.23197467869329
30
0
41
1
10
41.1706253976613
20
7.21611575927517
30
0
41
1
10
41.159922069363
20
7.19877738899703
30
0
41
1
10
41.1413604962667
20
7.16318772098987
30
0
41
1
10
41.1333433942985
20
7.14448676920483
30
0
41
1
10
41.1240682662399
20
7.11732974380942
30
0
41
1
10
41.1213404797791
20
7.10806885197954
30
0
41
1
10
41.1190817698907
20
7.09910427243796
30
0
0
SPLINE
5
1EE
100
AcDbEntity
8
1
62
256
6
ByLayer
370
18
48
1
60
0
100
AcDbSpline
70
4
71
3
72
14
73
10
40
0
40
0
40
0
40
0
40
0.0829586012803118
40
0.0829586012803118
40
0.459195015075149
40
0.459195015075149
40
0.835474799669044
40
0.835474799669044
40
1
40
1
40
1
40
1
41
1
10
39.1748474139747
20
6.94968827677857
30
0
41
1
10
39.1730762585348
20
6.9530399409654
30
0
41
1
10
39.1712441540166
20
6.95642399503009
30
0
41
1
10
39.160837728833
20
6.9751767082185
30
0
41
1
10
39.1509128717918
20
6.99131360871775
30
0
41
1
10
39.1294110283644
20
7.02276681347098
30
0
41
1
10
39.1175891795954
20
7.03843336535058
30
0
41
1
10
39.100502993605
20
7.05915821384795
30
0
41
1
10
39.0952346450826
20
7.06530351000364
30
0
41
1
10
39.0899784420928
20
7.07121795729412
30
0
0
SPLINE
5
1EF
100
AcDbEntity
8
1
62
256
6
ByLayer
370
18
48
1
60
0
100
AcDbSpline
70
4
71
3
72
14
73
10
40
0
40
0
40
0
40
0
40
0.164525200330951
40
0.164525200330951
40
0.540804984924867
40
0.540804984924867
40
0.91704139871972
40
0.91704139871972
40
1
40
1
40
1
40
1
41
1
10
39.916049620216
20
8.82180821897236
30
0
41
1
10
39.9235465637173
20
8.82064229532301
30
0
41
1
10
39.9312807069097
20
8.81972245219225
30
0
41
1
10
39.9571722450339
20
8.81765769510622
30
0
41
1
10
39.9764377088165
20
8.8177654739375
30
0
41
1
10
40.0145020456414
20
8.82141110862892
30
0
41
1
10
40.0337260751556
20
8.82498079178029
30
0
41
1
10
40.055746642871
20
8.83084049136238
30
0
41
1
10
40.0597073683701
20
8.83196735991388
30
0
41
1
10
40.0636176801929
20
8.83314894471488
30
0
0
SPLINE
5
1F0
100
AcDbEntity
8
1
62
256
6
ByLayer
370
18
48
1
60
0
100
AcDbSpline
70
4
71
3
72
12
73
8
40
0
40
0
40
0
40
0
40
0.392678099452538
40
0.392678099452538
40
0.791279335968761
40
0.791279335968761
40
1
40
1
40
1
40
1
41
1
10
39.0000044034659
20
8.10367277093766
30
0
41
1
10
39.0100463743738
20
8.11760307011497
30
0
41
1
10
39.0199793725729
20
8.13360718952259
30
0
41
1
10
39.038001198237
20
8.16826198755408
30
0
41
1
10
39.0462657155417
20
8.18739147527248
30
0
41
1
10
39.0566194128293
20
8.21641663737182
30
0
41
1
10
39.0598469338831
20
8.22654309490713
30
0
41
1
10
39.0627034915596
20
8.236543177193
30
0
0
SPLINE
5
1F1
100
AcDbEntity
8
1
62
256
6
ByLayer
370
18
48
1
60
0
100
AcDbSpline
70
4
71
3
72
14
73
10
40
0
40
0
40
0
40
0
40
0.164525200330958
40
0.164525200330958
40
0.540804984924842
40
0.540804984924842
40
0.917041398719716
40
0.917041398719716
40
1
40
1
40
1
40
1
41
1
10
40.265735641234
20
6.51383923065791
30
0
41
1
10
40.2577697174197
20
6.51419285657749
30
0
41
1
10
40.249627078697
20
6.51440516469509
30
0
41
1
10
40.2226405760363
20
6.5145733875714
30
0
41
1
10
40.2030027187993
20
6.51382060435665
30
0
41
1
10
40.1651334476189
20
6.51051283327223
30
0
41
1
10
40.1464765183761
20
6.50792539660407
30
0
41
1
10
40.1255797868579
20
6.50401223841473
30
0
41
1
10
40.1218407002803
20
6.50326925973621
30
0
41
1
10
40.1181675812572
20
6.50249850491559
30
0
0
SPLINE
5
1F2
100
AcDbEntity
8
1
62
256
6
ByLayer
370
18
48
1
60
0
100
AcDbSpline
70
4
71
3
72
14
73
10
40
0
40
0
40
0
40
0
40
0.0829586012802495
40
0.0829586012802495
40
0.459195015075144
40
0.459195015075144
40
0.835474799669099
40
0.835474799669099
40
1
40
1
40
1
40
1
41
1
10
41.0069378474754
20
8.3859591728519
30
0
41
1
10
41.0084718101156
20
8.38219667868469
30
0
41
1
10
41.0100822757123
20
8.37842873474699
30
0
41
1
10
41.0193648646988
20
8.35772948016589
30
0
41
1
10
41.0287226214685
20
8.34061033318341
30
0
41
1
10
41.0500293992514
20
8.30881926482317
30
0
41
1
10
41.0622236414748
20
8.29379771732704
30
0
41
1
10
41.0804047920017
20
8.27496940303939
30
0
41
1
10
41.0860816360545
20
8.26953164189686
30
0
41
1
10
41.0918068193572
20
8.26442949233615
30
0
0
INSERT
5
204
100
AcDbEntity
8
2
62
256
6
ByLayer
370
25
48
1
60
0
100
AcDbBlockReference
2
DimnDraft3D11
10
0
20
0
30
0
41
1
42
1
43
1
50
0
210
0
220
0
230
1
0
LINE
5
72
100
AcDbEntity
8
1
62
256
6
ByLayer
370
18
48
1
60
0
100
AcDbLine
10
37.999307
20
23.865689
30
0
11
37.70003
21
23.347326
31
0
39
0
210
0
220
0
230
1
0
LINE
5
74
100
AcDbEntity
8
1
62
256
6
ByLayer
370
18
48
1
60
0
100
AcDbLine
10
38.855915
20
7.850363
30
0
11
39.020579
21
8.13557
31
0
39
0
210
0
220
0
230
1
0
LINE
5
75
100
AcDbEntity
8
1
62
256
6
ByLayer
370
18
48
1
60
0
100
AcDbLine
10
41.15973
20
7.19752
30
0
11
40.995065
21
6.912313
31
0
39
0
210
0
220
0
230
1
0
LINE
5
76
100
AcDbEntity
8
1
62
256
6
ByLayer
370
18
48
1
60
0
100
AcDbLine
10
16.826881
20
11.269725
30
0
11
23.586758
21
13.991883
31
0
39
0
210
0
220
0
230
1
0
LINE
5
77
100
AcDbEntity
8
1
62
256
6
ByLayer
370
18
48
1
60
0
100
AcDbLine
10
23.631733
20
14.04359
30
0
11
23.761945
21
14.361717
31
0
39
0
210
0
220
0
230
1
0
LINE
5
78
100
AcDbEntity
8
1
62
256
6
ByLayer
370
18
48
1
60
0
100
AcDbLine
10
22.325762
20
17.92816
30
0
11
22.011424
21
18.06727
31
0
39
0
210
0
220
0
230
1
0
LINE
5
79
100
AcDbEntity
8
1
62
256
6
ByLayer
370
18
48
1
60
0
100
AcDbLine
10
0.3
20
20
30
0
11
0
21
19.7
31
0
39
0
210
0
220
0
230
1
0
LINE
5
7A
100
AcDbEntity
8
1
62
256
6
ByLayer
370
18
48
1
60
0
100
AcDbLine
10
0
20
-19.7
30
0
11
0.3
21
-20
31
0
39
0
210
0
220
0
230
1
0
LINE
5
7B
100
AcDbEntity
8
1
62
256
6
ByLayer
370
18
48
1
60
0
100
AcDbLine
10
0.3
20
-20
30
0
11
20.920792
21
-20
31
0
39
0
210
0
220
0
230
1
0
LINE
5
7C
100
AcDbEntity
8
1
62
256
6
ByLayer
370
18
48
1
60
0
100
AcDbLine
10
20.960985
20
-20.15
30
0
11
32.044991
21
-20.15
31
0
39
0
210
0
220
0
230
1
0
LINE
5
7D
100
AcDbEntity
8
1
62
256
6
ByLayer
370
18
48
1
60
0
100
AcDbLine
10
20.920792
20
-20
30
0
11
20.960985
21
-20.15
31
0
39
0
210
0
220
0
230
1
0
LINE
5
7E
100
AcDbEntity
8
1
62
256
6
ByLayer
370
18
48
1
60
0
100
AcDbLine
10
42.978455
20
-2.686786
30
0
11
43.304849
21
-2.014981
31
0
39
0
210
0
220
0
230
1
0
LINE
5
7F
100
AcDbEntity
8
1
62
256
6
ByLayer
370
18
48
1
60
0
100
AcDbLine
10
52.357747
20
14.12981
30
0
11
52.941435
21
15.140786
31
0
39
0
210
0
220
0
230
1
0
LINE
5
80
100
AcDbEntity
8
1
62
256
6
ByLayer
370
18
48
1
60
0
100
AcDbLine
10
30.318267
20
-1.439946
30
0
11
38.879731
21
-5.498589
31
0
39
0
210
0
220
0
230
1
0
LINE
5
81
100
AcDbEntity
8
1
62
256
6
ByLayer
370
18
48
1
60
0
100
AcDbLine
10
21.321649
20
21.496016
30
0
11
20.920792
21
20
31
0
39
0
210
0
220
0
230
1
0
LINE
5
82
100
AcDbEntity
8
1
62
256
6
ByLayer
370
18
48
1
60
0
100
AcDbLine
10
43.312404
20
5.247645
30
0
11
43.491274
21
5.557458
31
0
39
0
210
0
220
0
230
1
0
LINE
5
83
100
AcDbEntity
8
1
62
256
6
ByLayer
370
18
48
1
60
0
100
AcDbLine
10
36.563071
20
9.557458
30
0
11
36.384201
21
9.247645
31
0
39
0
210
0
220
0
230
1
0
LINE
5
84
100
AcDbEntity
8
1
62
256
6
ByLayer
370
18
48
1
60
0
100
AcDbLine
10
21.943167
20
18.073379
30
0
11
16.853091
21
16.023639
31
0
39
0
210
0
220
0
230
1
0
LINE
5
85
100
AcDbEntity
8
1
62
256
6
ByLayer
370
18
48
1
60
0
100
AcDbLine
10
7.457608
20
12.24014
30
0
11
7.286053
21
12.171056
31
0
39
0
210
0
220
0
230
1
0
LINE
5
86
100
AcDbEntity
8
1
62
256
6
ByLayer
370
18
48
1
60
0
100
AcDbLine
10
42.10926
20
-4.334264
30
0
11
42.94302
21
-2.756677
31
0
39
0
210
0
220
0
230
1
0
LINE
5
87
100
AcDbEntity
8
1
62
256
6
ByLayer
370
18
48
1
60
0
100
AcDbLine
10
20.920792
20
20
30
0
11
0.3
21
20
31
0
39
0
210
0
220
0
230
1
0
LINE
5
88
100
AcDbEntity
8
80
62
256
6
ByLayer
370
18
48
1
60
0
100
AcDbLine
10
0
20
0
30
0
11
-5
21
0
31
0
39
0
210
0
220
0
230
1
0
LINE
5
89
100
AcDbEntity
8
4
62
256
6
ByLayer
370
18
48
0.05
60
0
100
AcDbLine
10
0
20
0
30
0
11
50
21
0
31
0
39
0
210
0
220
0
230
1
0
LINE
5
8B
100
AcDbEntity
8
81
62
256
6
ByLayer
370
18
48
1
60
0
100
AcDbLine
10
50
20
27
30
0
11
60
21
27
31
0
39
0
210
0
220
0
230
1
0
LINE
5
8C
100
AcDbEntity
8
SK4
62
256
6
ByLayer
370
18
48
0.05
60
0
100
AcDbLine
10
-29
20
0
30
0
11
50
21
0
31
0
39
0
210
0
220
0
230
1
0
LINE
5
8E
100
AcDbEntity
8
1
62
256
6
ByLayer
370
18
48
1
60
0
100
AcDbLine
10
39.245614
20
18.332775
30
0
11
37.921933
21
23.272821
31
0
39
0
210
0
220
0
230
1
0
LINE
5
8F
100
AcDbEntity
8
1
62
256
6
ByLayer
370
18
48
1
60
0
100
AcDbLine
10
52.458339
20
14.775157
30
0
11
48.521865
21
13.766346
31
0
39
0
210
0
220
0
230
1
0
LINE
5
90
100
AcDbEntity
8
1
62
256
6
ByLayer
370
18
48
1
60
0
100
AcDbLine
10
51.874652
20
13.764181
30
0
11
51.439849
21
13.652753
31
0
39
0
210
0
220
0
230
1
0
LINE
5
91
100
AcDbEntity
8
1
62
256
6
ByLayer
370
18
48
1
60
0
100
AcDbLine
10
37.895047
20
23.226253
30
0
11
37.921933
21
23.272821
31
0
39
0
210
0
220
0
230
1
0
LINE
5
92
100
AcDbEntity
8
1
62
256
6
ByLayer
370
18
48
1
60
0
100
AcDbLine
10
43.312404
20
5.247645
30
0
11
43.312463
21
5.247747
31
0
39
0
210
0
220
0
230
1
0
LINE
5
93
100
AcDbEntity
8
1
62
256
6
ByLayer
370
18
48
1
60
0
100
AcDbLine
10
43.419526
20
22.372607
30
0
11
43.620363
21
22.032164
31
0
39
0
210
0
220
0
230
1
0
LINE
5
94
100
AcDbEntity
8
1
62
256
6
ByLayer
370
18
48
1
60
0
100
AcDbLine
10
41.831132
20
20.297413
30
0
11
40.92573
21
19.452733
31
0
39
0
210
0
220
0
230
1
0
LINE
5
95
100
AcDbEntity
8
1
62
256
6
ByLayer
370
18
48
1
60
0
100
AcDbLine
10
48.450817
20
17.159289
30
0
11
48.373744
21
15.921932
31
0
39
0
210
0
220
0
230
1
0
LINE
5
96
100
AcDbEntity
8
1
62
256
6
ByLayer
370
18
48
1
60
0
100
AcDbLine
10
49.05899
20
19.699166
30
0
11
48.655353
21
19.64528
31
0
39
0
210
0
220
0
230
1
0
LINE
5
97
100
AcDbEntity
8
1
62
256
6
ByLayer
370
18
48
1
60
0
100
AcDbLine
10
44.816623
20
22.873705
30
0
11
44.312659
21
22.652023
31
0
39
0
210
0
220
0
230
1
0
LINE
5
98
100
AcDbEntity
8
1
62
256
6
ByLayer
370
18
48
1
60
0
100
AcDbLine
10
0.3
20
-20
30
0
11
0.3
21
20
31
0
39
0
210
0
220
0
230
1
0
LINE
5
99
100
AcDbEntity
8
1
62
256
6
ByLayer
370
18
48
1
60
0
100
AcDbLine
10
0
20
-19.7
30
0
11
0
21
19.7
31
0
39
0
210
0
220
0
230
1
0
LINE
5
9A
100
AcDbEntity
8
1
62
256
6
ByLayer
370
18
48
1
60
0
100
AcDbLine
10
20.920792
20
20
30
0
11
20.920792
21
19.703059
31
0
39
0
210
0
220
0
230
1
0
LINE
5
9B
100
AcDbEntity
8
1
62
256
6
ByLayer
370
18
48
1
60
0
100
AcDbLine
10
20.920792
20
-19.595386
30
0
11
20.920792
21
-20
31
0
39
0
210
0
220
0
230
1
0
LINE
5
9C
100
AcDbEntity
8
1
62
256
6
ByLayer
370
18
48
1
60
0
100
AcDbLine
10
17.080365
20
11.371359
30
0
11
17.080365
21
-18.47854
31
0
39
0
210
0
220
0
230
1
0
LINE
5
9D
100
AcDbEntity
8
1
62
256
6
ByLayer
370
18
48
1
60
0
100
AcDbLine
10
17.080365
20
18.47854
30
0
11
17.080365
21
16.115167
31
0
39
0
210
0
220
0
230
1
0
LINE
5
9E
100
AcDbEntity
8
SK1
62
256
6
ByLayer
370
18
48
1
60
0
100
AcDbLine
10
-0.2
20
5.703176
30
0
11
-0.2
21
14.083485
31
0
39
0
210
0
220
0
230
1
0
LINE
5
A0
100
AcDbEntity
8
SK1
62
256
6
ByLayer
370
18
48
1
60
0
100
AcDbLine
10
-0.2
20
-14.083485
30
0
11
-0.2
21
-5.703176
31
0
39
0
210
0
220
0
230
1
0
LINE
5
A1
100
AcDbEntity
8
1
62
256
6
ByLayer
370
18
48
1
60
0
100
AcDbLine
10
21.065143
20
12.976177
30
0
11
21.065143
21
-19.748987
31
0
39
0
210
0
220
0
230
1
0
LINE
5
A2
100
AcDbEntity
8
1
62
256
6
ByLayer
370
18
48
1
60
0
100
AcDbLine
10
41.261694
20
19.737416
30
0
11
41.831117
21
20.2974
31
0
39
0
210
0
220
0
230
1
0
LINE
5
A3
100
AcDbEntity
8
1
62
256
6
ByLayer
370
18
48
1
60
0
100
AcDbLine
10
22.089177
20
13.218606
30
0
11
22.089177
21
13.388932
31
0
39
0
210
0
220
0
230
1
0
LINE
5
A4
100
AcDbEntity
8
1
62
256
6
ByLayer
370
18
48
1
60
0
100
AcDbLine
10
22.089177
20
18.032728
30
0
11
22.089177
21
21.918418
31
0
39
0
210
0
220
0
230
1
0
LINE
5
A5
100
AcDbEntity
8
1
62
256
6
ByLayer
370
18
48
1
60
0
100
AcDbLine
10
29.388506
20
6.515545
30
0
11
31.050993
21
5.760146
31
0
39
0
210
0
220
0
230
1
0
LINE
5
A6
100
AcDbEntity
8
1
62
256
6
ByLayer
370
18
48
1
60
0
100
AcDbLine
10
22.089177
20
13.218606
30
0
11
31.904009
21
7.55201
31
0
39
0
210
0
220
0
230
1
0
LINE
5
A7
100
AcDbEntity
8
1
62
256
6
ByLayer
370
18
48
1
60
0
100
AcDbLine
10
20.960985
20
-20.15
30
0
11
20.960985
21
-19.748713
31
0
39
0
210
0
220
0
230
1
0
LINE
5
A8
100
AcDbEntity
8
1
62
256
6
ByLayer
370
18
48
1
60
0
100
AcDbLine
10
44.330162
20
-0.273635
30
0
11
43.45457
21
-1.698497
31
0
39
0
210
0
220
0
230
1
0
LINE
5
A9
100
AcDbEntity
8
1
62
256
6
ByLayer
370
18
48
1
60
0
100
AcDbLine
10
44.162814
20
-0.197595
30
0
11
44.330162
21
-0.273635
31
0
39
0
210
0
220
0
230
1
0
LINE
5
AA
100
AcDbEntity
8
1
62
256
6
ByLayer
370
18
48
1
60
0
100
AcDbLine
10
44.412007
20
0.330514
30
0
11
44.627276
21
0.206229
31
0
39
0
210
0
220
0
230
1
0
LINE
5
AB
100
AcDbEntity
8
1
62
256
6
ByLayer
370
18
48
1
60
0
100
AcDbLine
10
37.762902
20
23.360197
30
0
11
39.1192
21
18.208609
31
0
39
0
210
0
220
0
230
1
0
LINE
5
AC
100
AcDbEntity
8
1
62
256
6
ByLayer
370
18
48
1
60
0
100
AcDbLine
10
51.439938
20
14.353818
30
0
11
48.507401
21
13.602289
31
0
39
0
210
0
220
0
230
1
0
LINE
5
AD
100
AcDbEntity
8
1
62
256
6
ByLayer
370
18
48
1
60
0
100
AcDbLine
10
48.509021
20
13.619992
30
0
11
49.403725
21
13.84928
31
0
39
0
210
0
220
0
230
1
0
LINE
5
AE
100
AcDbEntity
8
1
62
256
6
ByLayer
370
18
48
1
60
0
100
AcDbLine
10
43.156708
20
4.696863
30
0
11
43.900089
21
6.273096
31
0
39
0
210
0
220
0
230
1
0
LINE
5
AF
100
AcDbEntity
8
1
62
256
6
ByLayer
370
18
48
1
60
0
100
AcDbLine
10
48.568372
20
21.095153
30
0
11
48.698392
21
20.572925
31
0
39
0
210
0
220
0
230
1
0
LINE
5
B0
100
AcDbEntity
8
1
62
256
6
ByLayer
370
18
48
1
60
0
100
AcDbLine
10
48.450817
20
17.159269
30
0
11
48.380171
21
16.362835
31
0
39
0
210
0
220
0
230
1
0
LINE
5
B1
100
AcDbEntity
8
1
62
256
6
ByLayer
370
18
48
1
60
0
100
AcDbLine
10
48.014595
20
8.045858
30
0
11
48.563176
21
14.230384
31
0
39
0
210
0
220
0
230
1
0
LINE
5
B2
100
AcDbEntity
8
1
62
256
6
ByLayer
370
18
48
1
60
0
100
AcDbLine
10
40.051596
20
1.681257
30
0
11
39.766288
21
1.141416
31
0
39
0
210
0
220
0
230
1
0
LINE
5
B3
100
AcDbEntity
8
1
62
256
6
ByLayer
370
18
48
1
60
0
100
AcDbLine
10
39.766288
20
1.141416
30
0
11
38.718625
21
-1.080003
31
0
39
0
210
0
220
0
230
1
0
LINE
5
B4
100
AcDbEntity
8
1
62
256
6
ByLayer
370
18
48
1
60
0
100
AcDbLine
10
48.308846
20
15.871011
30
0
11
48.303301
21
15.845852
31
0
39
0
210
0
220
0
230
1
0
LINE
5
B5
100
AcDbEntity
8
1
62
256
6
ByLayer
370
18
48
1
60
0
100
AcDbLine
10
30.25009
20
4.119439
30
0
11
31.282466
21
6.234384
31
0
39
0
210
0
220
0
230
1
0
LINE
5
B6
100
AcDbEntity
8
1
62
256
6
ByLayer
370
18
48
1
60
0
100
AcDbLine
10
30.845191
20
-1.643394
30
0
11
31.622726
21
-0.172191
31
0
39
0
210
0
220
0
230
1
0
LINE
5
B7
100
AcDbEntity
8
1
62
256
6
ByLayer
370
18
48
1
60
0
100
AcDbLine
10
35.798151
20
8.491285
30
0
11
36.665277
21
10.328878
31
0
39
0
210
0
220
0
230
1
0
LINE
5
B8
100
AcDbEntity
8
1
62
256
6
ByLayer
370
18
48
1
60
0
100
AcDbLine
10
40.155431
20
18.601316
30
0
11
40.915035
21
19.348329
31
0
39
0
210
0
220
0
230
1
0
LINE
5
B9
100
AcDbEntity
8
1
62
256
6
ByLayer
370
18
48
1
60
0
100
AcDbLine
10
34.495926
20
2.126471
30
0
11
33.06833
21
2.803236
31
0
39
0
210
0
220
0
230
1
0
LINE
5
BA
100
AcDbEntity
8
1
62
256
6
ByLayer
370
18
48
1
60
0
100
AcDbLine
10
38.718625
20
-1.080003
30
0
11
39.194341
21
-0.100856
31
0
39
0
210
0
220
0
230
1
0
LINE
5
BB
100
AcDbEntity
8
1
62
256
6
ByLayer
370
18
48
1
60
0
100
AcDbLine
10
44.164671
20
6.77372
30
0
11
43.297545
21
4.936127
31
0
39
0
210
0
220
0
230
1
0
LINE
5
BC
100
AcDbEntity
8
1
62
256
6
ByLayer
370
18
48
1
60
0
100
AcDbLine
10
30.821346
20
3.378488
30
0
11
34.891164
21
12.003147
31
0
39
0
210
0
220
0
230
1
0
LINE
5
BD
100
AcDbEntity
8
1
62
256
6
ByLayer
370
18
48
1
60
0
100
AcDbLine
10
34.02021
20
1.147325
30
0
11
34.495926
21
2.126471
31
0
39
0
210
0
220
0
230
1
0
LINE
5
BE
100
AcDbEntity
8
1
62
256
6
ByLayer
370
18
48
1
60
0
100
AcDbLine
10
42.453534
20
-2.13586
30
0
11
46.523351
21
6.4888
31
0
39
0
210
0
220
0
230
1
0
LINE
5
BF
100
AcDbEntity
8
1
62
256
6
ByLayer
370
18
48
1
60
0
100
AcDbLine
10
40.621936
20
-0.777621
30
0
11
39.176333
21
-3.753049
31
0
39
0
210
0
220
0
230
1
0
LINE
5
C0
100
AcDbEntity
8
1
62
256
6
ByLayer
370
18
48
1
60
0
100
AcDbLine
10
29.204308
20
1.955393
30
0
11
30.020958
21
3.500605
31
0
39
0
210
0
220
0
230
1
0
LINE
5
C1
100
AcDbEntity
8
1
62
256
6
ByLayer
370
18
48
1
60
0
100
AcDbLine
10
39.461465
20
18.545135
30
0
11
35.03974
21
14.19671
31
0
39
0
210
0
220
0
230
1
0
LINE
5
C2
100
AcDbEntity
8
1
62
256
6
ByLayer
370
18
48
1
60
0
100
AcDbLine
10
34.344084
20
12.645677
30
0
11
35.03974
21
14.19671
31
0
39
0
210
0
220
0
230
1
0
LINE
5
C3
100
AcDbEntity
8
1
62
256
6
ByLayer
370
18
48
1
60
0
100
AcDbLine
10
44.164671
20
6.77372
30
0
11
43.900089
21
6.273096
31
0
39
0
210
0
220
0
230
1
0
LINE
5
C4
100
AcDbEntity
8
1
62
256
6
ByLayer
370
18
48
1
60
0
100
AcDbLine
10
48.303301
20
15.845852
30
0
11
48.20906
21
14.783417
31
0
39
0
210
0
220
0
230
1
0
LINE
5
C5
100
AcDbEntity
8
1
62
256
6
ByLayer
370
18
48
1
60
0
100
AcDbLine
10
31.282466
20
6.234384
30
0
11
35.03974
21
14.19671
31
0
39
0
210
0
220
0
230
1
0
LINE
5
C6
100
AcDbEntity
8
1
62
256
6
ByLayer
370
18
48
1
60
0
100
AcDbLine
10
39.176333
20
-3.753049
30
0
11
31.622726
21
-0.172191
31
0
39
0
210
0
220
0
230
1
0
LINE
5
C7
100
AcDbEntity
8
1
62
256
6
ByLayer
370
18
48
1
60
0
100
AcDbLine
10
33.06833
20
2.803236
30
0
11
31.622726
21
-0.172191
31
0
39
0
210
0
220
0
230
1
0
LINE
5
C8
100
AcDbEntity
8
1
62
256
6
ByLayer
370
18
48
1
60
0
100
AcDbLine
10
47.318939
20
6.494825
30
0
11
48.014595
21
8.045858
31
0
39
0
210
0
220
0
230
1
0
LINE
5
C9
100
AcDbEntity
8
1
62
256
6
ByLayer
370
18
48
1
60
0
100
AcDbLine
10
34.02021
20
1.147325
30
0
11
38.718625
21
-1.080003
31
0
39
0
210
0
220
0
230
1
0
LINE
5
CA
100
AcDbEntity
8
1
62
256
6
ByLayer
370
18
48
1
60
0
100
AcDbLine
10
43.297545
20
4.936127
30
0
11
43.037448
21
4.443989
31
0
39
0
210
0
220
0
230
1
0
LINE
5
CB
100
AcDbEntity
8
1
62
256
6
ByLayer
370
18
48
1
60
0
100
AcDbLine
10
40.915035
20
19.348329
30
0
11
40.930569
21
19.368752
31
0
39
0
210
0
220
0
230
1
0
LINE
5
CC
100
AcDbEntity
8
1
62
256
6
ByLayer
370
18
48
1
60
0
100
AcDbLine
10
38.398797
20
-5.224252
30
0
11
39.176333
21
-3.753049
31
0
39
0
210
0
220
0
230
1
0
LINE
5
CD
100
AcDbEntity
8
1
62
256
6
ByLayer
370
18
48
1
60
0
100
AcDbLine
10
47.047665
20
5.915902
30
0
11
43.331332
21
-1.959662
31
0
39
0
210
0
220
0
230
1
0
LINE
5
CE
100
AcDbEntity
8
1
62
256
6
ByLayer
370
18
48
1
60
0
100
AcDbLine
10
30.356477
20
4.191189
30
0
11
30.020958
21
3.500605
31
0
39
0
210
0
220
0
230
1
0
LINE
5
CF
100
AcDbEntity
8
1
62
256
6
ByLayer
370
18
48
1
60
0
100
AcDbLine
10
38.398797
20
-5.224252
30
0
11
30.845191
21
-1.643394
31
0
39
0
210
0
220
0
230
1
0
LINE
5
D0
100
AcDbEntity
8
1
62
256
6
ByLayer
370
18
48
1
60
0
100
AcDbLine
10
30.356477
20
4.191189
30
0
11
34.07281
21
12.066754
31
0
39
0
210
0
220
0
230
1
0
LINE
5
D1
100
AcDbEntity
8
1
62
256
6
ByLayer
370
18
48
1
60
0
100
AcDbLine
10
40.621936
20
-0.777621
30
0
11
39.194341
21
-0.100856
31
0
39
0
210
0
220
0
230
1
0
LINE
5
D2
100
AcDbEntity
8
1
62
256
6
ByLayer
370
18
48
1
60
0
100
AcDbLine
10
48.984957
20
16.687877
30
0
11
48.86528
21
16.589285
31
0
39
0
210
0
220
0
230
1
0
LINE
5
D3
100
AcDbEntity
8
1
62
256
6
ByLayer
370
18
48
1
60
0
100
AcDbLine
10
49.550953
20
17.887323
30
0
11
48.984957
21
16.687877
31
0
39
0
210
0
220
0
230
1
0
LINE
5
D4
100
AcDbEntity
8
1
62
256
6
ByLayer
370
18
48
1
60
0
100
AcDbLine
10
50.209423
20
17.244872
30
0
11
49.472905
21
15.68406
31
0
39
0
210
0
220
0
230
1
0
LINE
5
D5
100
AcDbEntity
8
1
62
256
6
ByLayer
370
18
48
1
60
0
100
AcDbLine
10
49.472905
20
15.68406
30
0
11
48.984957
21
16.687877
31
0
39
0
210
0
220
0
230
1
0
LINE
5
D6
100
AcDbEntity
8
1
62
256
6
ByLayer
370
18
48
1
60
0
100
AcDbLine
10
41.144073
20
20.404921
30
0
11
41.143957
21
20.24965
31
0
39
0
210
0
220
0
230
1
0
LINE
5
D7
100
AcDbEntity
8
1
62
256
6
ByLayer
370
18
48
1
60
0
100
AcDbLine
10
41.143957
20
20.24965
30
0
11
41.056401
21
19.950661
31
0
39
0
210
0
220
0
230
1
0
LINE
5
D8
100
AcDbEntity
8
1
62
256
6
ByLayer
370
18
48
1
60
0
100
AcDbLine
10
49.550953
20
17.887323
30
0
11
50.209423
21
17.244872
31
0
39
0
210
0
220
0
230
1
0
LINE
5
D9
100
AcDbEntity
8
1
62
256
6
ByLayer
370
18
48
1
60
0
100
AcDbLine
10
48.684605
20
16.334439
30
0
11
48.993006
21
15.288711
31
0
39
0
210
0
220
0
230
1
0
LINE
5
DA
100
AcDbEntity
8
1
62
256
6
ByLayer
370
18
48
1
60
0
100
AcDbLine
10
49.552862
20
20.436577
30
0
11
49.550953
21
17.887323
31
0
39
0
210
0
220
0
230
1
0
LINE
5
DB
100
AcDbEntity
8
1
62
256
6
ByLayer
370
18
48
1
60
0
100
AcDbLine
10
41.056401
20
19.950661
30
0
11
39.985253
21
19.55892
31
0
39
0
210
0
220
0
230
1
0
LINE
5
DC
100
AcDbEntity
8
1
62
256
6
ByLayer
370
18
48
1
60
0
100
AcDbLine
10
50.211482
20
19.994442
30
0
11
50.209423
21
17.244872
31
0
39
0
210
0
220
0
230
1
0
LINE
5
DD
100
AcDbEntity
8
1
62
256
6
ByLayer
370
18
48
1
60
0
100
AcDbLine
10
48.993006
20
15.288711
30
0
11
49.472905
21
15.68406
31
0
39
0
210
0
220
0
230
1
0
LINE
5
DE
100
AcDbEntity
8
1
62
256
6
ByLayer
370
18
48
1
60
0
100
AcDbLine
10
41.71007
20
21.604367
30
0
11
40.722238
21
21.742361
31
0
39
0
210
0
220
0
230
1
0
LINE
5
DF
100
AcDbEntity
8
1
62
256
6
ByLayer
370
18
48
1
60
0
100
AcDbLine
10
45.410993
20
23.665268
30
0
11
44.947649
21
24.443248
31
0
39
0
210
0
220
0
230
1
0
LINE
5
E0
100
AcDbEntity
8
1
62
256
6
ByLayer
370
18
48
1
60
0
100
AcDbLine
10
40.722238
20
21.742361
30
0
11
39.98572
21
20.181549
31
0
39
0
210
0
220
0
230
1
0
LINE
5
E1
100
AcDbEntity
8
1
62
256
6
ByLayer
370
18
48
1
60
0
100
AcDbLine
10
49.537389
20
20.77001
30
0
11
48.792576
21
22.062197
31
0
39
0
210
0
220
0
230
1
0
LINE
5
E2
100
AcDbEntity
8
1
62
256
6
ByLayer
370
18
48
1
60
0
100
AcDbLine
10
41.71007
20
21.604367
30
0
11
41.144073
21
20.404921
31
0
39
0
210
0
220
0
230
1
0
LINE
5
E3
100
AcDbEntity
8
1
62
256
6
ByLayer
370
18
48
1
60
0
100
AcDbLine
10
48.792576
20
22.062197
30
0
11
49.611899
21
22.232116
31
0
39
0
210
0
220
0
230
1
0
LINE
5
E4
100
AcDbEntity
8
1
62
256
6
ByLayer
370
18
48
1
60
0
100
AcDbLine
10
39.985253
20
19.55892
30
0
11
39.98572
21
20.181549
31
0
39
0
210
0
220
0
230
1
0
LINE
5
E5
100
AcDbEntity
8
1
62
256
6
ByLayer
370
18
48
1
60
0
100
AcDbLine
10
41.144073
20
20.404921
30
0
11
39.98572
21
20.181549
31
0
39
0
210
0
220
0
230
1
0
LINE
5
E6
100
AcDbEntity
8
1
62
256
6
ByLayer
370
18
48
1
60
0
100
AcDbLine
10
48.86528
20
16.589285
30
0
11
49.05899
21
19.699166
31
0
39
0
210
0
220
0
230
1
0
LINE
5
E7
100
AcDbEntity
8
1
62
256
6
ByLayer
370
18
48
1
60
0
100
AcDbLine
10
48.684605
20
16.334439
30
0
11
48.86528
21
16.589285
31
0
39
0
210
0
220
0
230
1
0
LINE
5
E8
100
AcDbEntity
8
1
62
256
6
ByLayer
370
18
48
1
60
0
100
AcDbLine
10
42.841503
20
23.48825
30
0
11
40.722238
21
21.742361
31
0
39
0
210
0
220
0
230
1
0
LINE
5
E9
100
AcDbEntity
8
1
62
256
6
ByLayer
370
18
48
1
60
0
100
AcDbLine
10
43.94191
20
23.422599
30
0
11
45.410993
21
23.665268
31
0
39
0
210
0
220
0
230
1
0
LINE
5
EA
100
AcDbEntity
8
1
62
256
6
ByLayer
370
18
48
1
60
0
100
AcDbLine
10
49.552862
20
20.436577
30
0
11
50.211482
21
19.994442
31
0
39
0
210
0
220
0
230
1
0
LINE
5
EB
100
AcDbEntity
8
1
62
256
6
ByLayer
370
18
48
1
60
0
100
AcDbLine
10
43.674938
20
23.223062
30
0
11
41.71007
21
21.604367
31
0
39
0
210
0
220
0
230
1
0
LINE
5
EC
100
AcDbEntity
8
1
62
256
6
ByLayer
370
18
48
1
60
0
100
AcDbLine
10
41.143957
20
20.24965
30
0
11
43.419526
21
22.372607
31
0
39
0
210
0
220
0
230
1
0
LINE
5
ED
100
AcDbEntity
8
1
62
256
6
ByLayer
370
18
48
1
60
0
100
AcDbLine
10
43.674938
20
23.223062
30
0
11
42.841503
21
23.48825
31
0
39
0
210
0
220
0
230
1
0
LINE
5
EE
100
AcDbEntity
8
1
62
256
6
ByLayer
370
18
48
1
60
0
100
AcDbLine
10
32.271754
20
-19.748987
30
0
11
39.851346
21
-7.507303
31
0
39
0
210
0
220
0
230
1
0
LINE
5
EF
100
AcDbEntity
8
1
62
256
6
ByLayer
370
18
48
1
60
0
100
AcDbLine
10
9.076795
20
13.329278
30
0
11
9.076795
21
19.122283
31
0
39
0
210
0
220
0
230
1
0
LINE
5
F0
100
AcDbEntity
8
1
62
256
6
ByLayer
370
18
48
1
60
0
100
AcDbLine
10
44.330162
20
-0.273635
30
0
11
44.627276
21
0.206229
31
0
39
0
210
0
220
0
230
1
0
LINE
5
F1
100
AcDbEntity
8
1
62
256
6
ByLayer
370
18
48
1
60
0
100
AcDbLine
10
47.501279
20
4.618528
30
0
11
49.031027
21
7.089201
31
0
39
0
210
0
220
0
230
1
0
LINE
5
F2
100
AcDbEntity
8
1
62
256
6
ByLayer
370
18
48
1
60
0
100
AcDbLine
10
6.923205
20
5.85989
30
0
11
9.076795
21
5.85989
31
0
39
0
210
0
220
0
230
1
0
LINE
5
F3
100
AcDbEntity
8
1
62
256
6
ByLayer
370
18
48
1
60
0
100
AcDbLine
10
9.336603
20
-19.024574
30
0
11
9.336603
21
-6.16973
31
0
39
0
210
0
220
0
230
1
0
LINE
5
F4
100
AcDbEntity
8
1
62
256
6
ByLayer
370
18
48
1
60
0
100
AcDbLine
10
6.923205
20
13.329278
30
0
11
6.923205
21
19.122283
31
0
39
0
210
0
220
0
230
1
0
LINE
5
F5
100
AcDbEntity
8
1
62
256
6
ByLayer
370
18
48
1
60
0
100
AcDbLine
10
9.076795
20
-5.85989
30
0
11
6.923205
21
-5.85989
31
0
39
0
210
0
220
0
230
1
0
LINE
5
F6
100
AcDbEntity
8
1
62
256
6
ByLayer
370
18
48
1
60
0
100
AcDbLine
10
32.271754
20
-19.748987
30
0
11
21.065143
21
-19.748987
31
0
39
0
210
0
220
0
230
1
0
LINE
5
F7
100
AcDbEntity
8
1
62
256
6
ByLayer
370
18
48
1
60
0
100
AcDbLine
10
6.923205
20
5.85989
30
0
11
6.923205
21
10.945788
31
0
39
0
210
0
220
0
230
1
0
LINE
5
F8
100
AcDbEntity
8
1
62
256
6
ByLayer
370
18
48
1
60
0
100
AcDbLine
10
51.439938
20
11.19256
30
0
11
44.627276
21
0.206229
31
0
39
0
210
0
220
0
230
1
0
LINE
5
F9
100
AcDbEntity
8
1
62
256
6
ByLayer
370
18
48
1
60
0
100
AcDbLine
10
51.439938
20
14.465349
30
0
11
51.439938
21
14.353818
31
0
39
0
210
0
220
0
230
1
0
LINE
5
FA
100
AcDbEntity
8
1
62
256
6
ByLayer
370
18
48
1
60
0
100
AcDbLine
10
39.851346
20
-7.507303
30
0
11
40.686946
21
-6.176047
31
0
39
0
210
0
220
0
230
1
0
LINE
5
FB
100
AcDbEntity
8
1
62
256
6
ByLayer
370
18
48
1
60
0
100
AcDbLine
10
6.663397
20
-19.024574
30
0
11
6.663397
21
-6.16973
31
0
39
0
210
0
220
0
230
1
0
LINE
5
FC
100
AcDbEntity
8
1
62
256
6
ByLayer
370
18
48
1
60
0
100
AcDbLine
10
6.923205
20
-19.122283
30
0
11
9.076795
21
-19.122283
31
0
39
0
210
0
220
0
230
1
0
LINE
5
FD
100
AcDbEntity
8
1
62
256
6
ByLayer
370
18
48
1
60
0
100
AcDbLine
10
9.076795
20
-19.122283
30
0
11
9.076795
21
-5.85989
31
0
39
0
210
0
220
0
230
1
0
LINE
5
FE
100
AcDbEntity
8
1
62
256
6
ByLayer
370
18
48
1
60
0
100
AcDbLine
10
9.076795
20
19.122283
30
0
11
6.923205
21
19.122283
31
0
39
0
210
0
220
0
230
1
0
LINE
5
FF
100
AcDbEntity
8
1
62
256
6
ByLayer
370
18
48
1
60
0
100
AcDbLine
10
51.439938
20
11.19256
30
0
11
51.439938
21
14.353818
31
0
39
0
210
0
220
0
230
1
0
LINE
5
100
100
AcDbEntity
8
1
62
256
6
ByLayer
370
18
48
1
60
0
100
AcDbLine
10
9.076795
20
5.85989
30
0
11
9.076795
21
10.945788
31
0
39
0
210
0
220
0
230
1
0
LINE
5
101
100
AcDbEntity
8
1
62
256
6
ByLayer
370
18
48
1
60
0
100
AcDbLine
10
6.663397
20
6.16973
30
0
11
6.663397
21
11.191578
31
0
39
0
210
0
220
0
230
1
0
LINE
5
102
100
AcDbEntity
8
1
62
256
6
ByLayer
370
18
48
1
60
0
100
AcDbLine
10
29.388506
20
6.515545
30
0
11
29.225158
21
6.178761
31
0
39
0
210
0
220
0
230
1
0
LINE
5
103
100
AcDbEntity
8
1
62
256
6
ByLayer
370
18
48
1
60
0
100
AcDbLine
10
51.439938
20
14.465349
30
0
11
50.138718
21
14.131882
31
0
39
0
210
0
220
0
230
1
0
LINE
5
104
100
AcDbEntity
8
1
62
256
6
ByLayer
370
18
48
1
60
0
100
AcDbLine
10
22.089177
20
21.918418
30
0
11
36.120772
21
23.120669
31
0
39
0
210
0
220
0
230
1
0
LINE
5
105
100
AcDbEntity
8
1
62
256
6
ByLayer
370
18
48
1
60
0
100
AcDbLine
10
39.412815
20
-8.411632
30
0
11
37.843685
21
-10.931762
31
0
39
0
210
0
220
0
230
1
0
LINE
5
106
100
AcDbEntity
8
1
62
256
6
ByLayer
370
18
48
1
60
0
100
AcDbLine
10
9.336603
20
13.295619
30
0
11
9.336603
21
19.024574
31
0
39
0
210
0
220
0
230
1
0
LINE
5
107
100
AcDbEntity
8
1
62
256
6
ByLayer
370
18
48
1
60
0
100
AcDbLine
10
27.770214
20
-1.647685
30
0
11
39.851346
21
-7.507303
31
0
39
0
210
0
220
0
230
1
0
LINE
5
108
100
AcDbEntity
8
1
62
256
6
ByLayer
370
18
48
1
60
0
100
AcDbLine
10
9.336603
20
6.16973
30
0
11
9.336603
21
11.191578
31
0
39
0
210
0
220
0
230
1
0
LINE
5
109
100
AcDbEntity
8
1
62
256
6
ByLayer
370
18
48
1
60
0
100
AcDbLine
10
6.663397
20
13.295619
30
0
11
6.663397
21
19.024574
31
0
39
0
210
0
220
0
230
1
0
LINE
5
10A
100
AcDbEntity
8
1
62
256
6
ByLayer
370
18
48
1
60
0
100
AcDbLine
10
51.439938
20
11.19256
30
0
11
51.439938
21
11.04578
31
0
39
0
210
0
220
0
230
1
0
LINE
5
10B
100
AcDbEntity
8
1
62
256
6
ByLayer
370
18
48
1
60
0
100
AcDbLine
10
6.923205
20
-19.122283
30
0
11
6.923205
21
-5.85989
31
0
39
0
210
0
220
0
230
1
0
LINE
5
10C
100
AcDbEntity
8
SK1
62
256
6
ByLayer
370
18
48
1
60
0
100
AcDbLine
10
-1.307107
20
-3.627816
30
0
11
-1.307107
21
3.627817
31
0
39
0
210
0
220
0
230
1
0
LINE
5
10D
100
AcDbEntity
8
1
62
256
6
ByLayer
370
18
48
1
60
0
100
AcDbLine
10
51.874652
20
13.764181
30
0
11
52.458339
21
14.775157
31
0
39
0
210
0
220
0
230
1
0
LINE
5
10E
100
AcDbEntity
8
1
62
256
6
ByLayer
370
18
48
1
60
0
100
AcDbLine
10
50.158438
20
26.408703
30
0
11
53.018808
21
15.733654
31
0
39
0
210
0
220
0
230
1
0
LINE
5
10F
100
AcDbEntity
8
1
62
256
6
ByLayer
370
18
48
1
60
0
100
AcDbLine
10
40.982733
20
6.517471
30
0
11
41.148136
21
6.803956
31
0
39
0
210
0
220
0
230
1
0
LINE
5
110
100
AcDbEntity
8
1
62
256
6
ByLayer
370
18
48
1
60
0
100
AcDbLine
10
41.19771
20
7.852976
30
0
11
41.363113
21
8.139462
31
0
39
0
210
0
220
0
230
1
0
LINE
5
111
100
AcDbEntity
8
1
62
256
6
ByLayer
370
18
48
1
60
0
100
AcDbLine
10
40.140467
20
8.716844
30
0
11
40.30587
21
9.00333
31
0
39
0
210
0
220
0
230
1
0
LINE
5
112
100
AcDbEntity
8
1
62
256
6
ByLayer
370
18
48
1
60
0
100
AcDbLine
10
40.819103
20
8.39513
30
0
11
40.984506
21
8.681616
31
0
39
0
210
0
220
0
230
1
0
LINE
5
113
100
AcDbEntity
8
1
62
256
6
ByLayer
370
18
48
1
60
0
100
AcDbLine
10
38.588541
20
7.65246
30
0
11
38.753944
21
7.938945
31
0
39
0
210
0
220
0
230
1
0
LINE
5
114
100
AcDbEntity
8
1
62
256
6
ByLayer
370
18
48
1
60
0
100
AcDbLine
10
39.482154
20
8.666252
30
0
11
39.647557
21
8.952738
31
0
39
0
210
0
220
0
230
1
0
LINE
5
115
100
AcDbEntity
8
1
62
256
6
ByLayer
370
18
48
1
60
0
100
AcDbLine
10
38.482402
20
24.231317
30
0
11
49.189344
21
26.975214
31
0
39
0
210
0
220
0
230
1
0
MTEXT
5
1F3
100
AcDbEntity
8
SK6
62
256
6
ByLayer
370
18
48
1
60
0
100
AcDbMText
10
-7.102185
20
-30.95
30
0
210
0
220
0
230
1
1
\W0.7351;C4-CSKNR-27050-12-4
40
3.5
41
0
44
1.084337
50
0
71
7
72
5
7
iso_b_vert
0
DIMENSION
5
212
100
AcDbEntity
8
2
62
256
6
ByLayer
370
13
48
1
60
0
100
AcDbDimension
2
DimnDraft3D2
10
50
20
27
30
0
11
70.195479
21
11.503464
31
0
70
34
71
5
72
1
41
1
210
0
220
0
230
1
3
Standard
100
AcDb2LineAngularDimension
13
50
23
27
33
0
14
52.027131
24
19.434643
34
0
15
48.4125
25
27
35
0
16
73.765569
26
8.764038
36
0
40
0
0
DIMENSION
5
228
100
AcDbEntity
8
SK2
62
256
6
ByLayer
370
13
48
1
60
0
100
AcDbDimension
2
DimnDraft3D3
10
-31.75
20
20
30
0
11
-31.75
21
-2.925
31
0
70
32
71
5
72
1
41
1
210
0
220
0
230
1
3
Standard
100
AcDbAlignedDimension
13
-2
23
-20
33
0
14
-2
24
20
34
0
50
90
100
AcDbRotatedDimension
1001
ACAD
1000
DSTYLE
1002
{
1070
    74
1070
     0
1070
   279
1070
     0
1070
   172
1070
     1
1070
   173
1070
     1
1070
   340
1005
1F4
1070
    77
1070
     1
1070
    73
1070
     0
1070
   171
1070
     3
1070
   274
1070
     4
1070
   177
1070
     2
1070
   176
1070
     2
1070
   178
1070
     7
1070
    78
1070
     8
1070
    41
1041
3.175
1070
   147
1041
2.25
1070
    42
1041
2.0
1070
    44
1041
2.0
1070
   140
1041
4.5
1070
   343
1005
213
1070
   344
1005
213
1002
}
0
DIMENSION
5
236
100
AcDbEntity
8
2
62
256
6
ByLayer
370
13
48
1
60
0
100
AcDbDimension
2
DimnDraft3D4
10
90.25
20
27
30
0
11
90.25
21
8.218421
31
0
70
32
71
5
72
1
41
1
210
0
220
0
230
1
3
Standard
100
AcDbAlignedDimension
13
52
23
0
33
0
14
52
24
27
34
0
50
90
100
AcDbRotatedDimension
1001
ACAD
1000
DSTYLE
1002
{
1070
    74
1070
     0
1070
   279
1070
     0
1070
   172
1070
     1
1070
   173
1070
     1
1070
   340
1005
1F4
1070
    77
1070
     1
1070
    73
1070
     0
1070
   171
1070
     3
1070
   274
1070
     4
1070
   177
1070
     2
1070
   176
1070
     2
1070
   178
1070
     7
1070
    78
1070
     8
1070
    41
1041
3.175
1070
   147
1041
2.25
1070
    42
1041
2.0
1070
    44
1041
2.0
1070
   140
1041
4.5
1070
   343
1005
213
1070
   344
1005
213
1002
}
0
ENDSEC
0
SECTION
2
OBJECTS
0
DICTIONARY
5
2a1
330
0
100
AcDbDictionary
280
0
281
1
3
ACAD_GROUP
350
2a2
3
ACAD_MLINESTYLE
350
2a3
0
DICTIONARY
5
2a2
330
0
100
AcDbDictionary
280
0
281
1
0
DICTIONARY
5
2a3
330
0
100
AcDbDictionary
280
0
281
1
3
Standard
350
18
0
MLINESTYLE
5
18
330
2a3
100
AcDbMlineStyle
2
Standard
70
0
3

62
256
51
90
52
90
71
2
49
-0.5
62
256
6
ByLayer
49
0.5
62
256
6
ByLayer
0
RASTERVARIABLES
5
28f
330

100
AcDbRasterVariables
90
0
70
1
71
1
72
1
0
ENDSEC
0
EOF
