0
SECTION
2
HEADER
9
$ACADVER
1
AC1015
9
$DWGCODEPAGE
3
ANSI_1252
9
$HANDSEED
5
245
9
$ANGBASE
50
0
9
$ANGDIR
70
0
9
$ATTMODE
70
1
9
$AUNITS
70
0
9
$AUPREC
70
0
9
$CECOLOR
62
256
9
$CELTSCALE
40
1
9
$CELTYPE
6
ByLayer
9
$CELWEIGHT
370
18
9
$CLAYER
8
0
9
$CMLJUST
70
0
9
$CMLSCALE
40
1
9
$CMLSTYLE
2
Standard
9
$DIMSTYLE
2
Standard
9
$TEXTSIZE
40
0.2
9
$TEXTSTYLE
7
Standard
9
$LUNITS
70
2
9
$LUPREC
70
4
9
$EXTNAMES
290
1
9
$INSUNITS
70
4
9
$LTSCALE
40
1
9
$LWDISPLAY
290
1
9
$PDMODE
70
0
9
$PDSIZE
40
0
9
$PLINEGEN
70
0
0
ENDSEC
0
SECTION
2
CLASSES
0
CLASS
1
RASTERVARIABLES
2
AcDbRasterVariables
3
ISM
90
0
280
0
281
0
0
ENDSEC
0
SECTION
2
TABLES
0
TABLE
2
VPORT
5
23b
100
AcDbSymbolTable
0
VPORT
5
1
100
AcDbSymbolTableRecord
100
AcDbViewportTableRecord
2
*Active
70
0
10
0
20
0
11
1
21
1
12
-1
22
1
13
0
23
0
14
0.5
24
0.5
15
10
25
10
16
0
26
0
36
1
17
0
27
0
37
0
0
ENDTAB
0
TABLE
2
LTYPE
5
23c
100
AcDbSymbolTable
0
LTYPE
5
14
100
AcDbSymbolTableRecord
100
AcDbLinetypeTableRecord
70
0
2
ByBlock
3

72
65
73
0
40
0
0
LTYPE
5
15
100
AcDbSymbolTableRecord
100
AcDbLinetypeTableRecord
70
0
2
ByLayer
3

72
65
73
0
40
0
0
LTYPE
5
16
100
AcDbSymbolTableRecord
100
AcDbLinetypeTableRecord
70
0
2
CONTINUOUS
3
Solid line
72
65
73
0
40
0
0
LTYPE
5
6A
100
AcDbSymbolTableRecord
100
AcDbLinetypeTableRecord
70
0
2
CENTER
3
____ _ ____ _ ____ _ ____
72
65
73
4
40
47.5
49
22
74
0
49
-8.5
74
0
49
8.5
74
0
49
-8.5
74
0
0
LTYPE
5
6B
100
AcDbSymbolTableRecord
100
AcDbLinetypeTableRecord
70
0
2
DASHED
3
__ __ __ __ __ __ __ __ __
72
65
73
2
40
25.72
49
12.86
74
0
49
-12.86
74
0
0
ENDTAB
0
TABLE
2
LAYER
5
23d
100
AcDbSymbolTable
0
LAYER
5
10
100
AcDbSymbolTableRecord
100
AcDbLayerTableRecord
2
0
70
0
62
7
6
CONTINUOUS
290
1
370
-3
390
0
0
LAYER
5
6D
100
AcDbSymbolTableRecord
100
AcDbLayerTableRecord
2
80
70
0
62
-6
6
CONTINUOUS
290
1
370
-3
390
0
0
LAYER
5
6F
100
AcDbSymbolTableRecord
100
AcDbLayerTableRecord
2
81
70
0
62
-3
6
CONTINUOUS
290
1
370
-3
390
0
0
LAYER
5
71
100
AcDbSymbolTableRecord
100
AcDbLayerTableRecord
2
1
70
0
62
4
6
CONTINUOUS
290
1
370
-3
390
0
0
LAYER
5
1A6
100
AcDbSymbolTableRecord
100
AcDbLayerTableRecord
2
2
70
0
62
7
6
CONTINUOUS
290
1
370
-3
390
0
0
LAYER
5
228
100
AcDbSymbolTableRecord
100
AcDbLayerTableRecord
2
SK1
70
0
62
4
6
CONTINUOUS
290
1
370
-3
390
0
0
LAYER
5
229
100
AcDbSymbolTableRecord
100
AcDbLayerTableRecord
2
SK6
70
0
62
5
6
CONTINUOUS
290
1
370
-3
390
0
0
LAYER
5
22a
100
AcDbSymbolTableRecord
100
AcDbLayerTableRecord
2
SK2
70
0
62
7
6
CONTINUOUS
290
1
370
-3
390
0
0
ENDTAB
0
TABLE
2
STYLE
5
23e
100
AcDbSymbolTable
0
STYLE
5
11
100
AcDbSymbolTableRecord
100
AcDbTextStyleTableRecord
2
Standard
3
txt
70
0
71
0
40
0
41
1
42
0
50
0
0
STYLE
5
18B
100
AcDbSymbolTableRecord
100
AcDbTextStyleTableRecord
2
iso_b_vert
3
simplex.shx
70
0
71
0
40
0
41
1
42
0
50
0
0
STYLE
5
18C
100
AcDbSymbolTableRecord
100
AcDbTextStyleTableRecord
2
DWGDirectTextStyle
3
simplex
70
0
71
0
40
0
41
1
42
0
50
0
0
ENDTAB
0
TABLE
2
DIMSTYLE
5
23f
100
AcDbSymbolTable
100
AcDbDimStyleTable
0
DIMSTYLE
105
27
100
AcDbSymbolTableRecord
100
AcDbDimStyleTableRecord
2
Standard
70
0
3
<>
41
0.18
42
0.0625
44
0.18
140
0.18
147
0.09
73
0
74
0
77
1
271
2
275
0
278
52
280
0
340
11
0
ENDTAB
0
TABLE
2
VIEW
5
240
100
AcDbSymbolTable
0
ENDTAB
0
TABLE
2
UCS
5
241
100
AcDbSymbolTable
0
ENDTAB
0
TABLE
2
APPID
5
242
100
AcDbSymbolTable
0
APPID
5
12
100
AcDbSymbolTableRecord
100
AcDbRegAppTableRecord
2
ACAD
70
0
0
ENDTAB
0
TABLE
2
BLOCK_RECORD
5
243
100
AcDbSymbolTable
0
BLOCK_RECORD
5
1F
100
AcDbSymbolTableRecord
100
AcDbBlockTableRecord
2
*Model_Space
340
0
70
0
0
BLOCK_RECORD
5
1B
100
AcDbSymbolTableRecord
100
AcDbBlockTableRecord
2
*Paper_Space
340
0
70
0
0
BLOCK_RECORD
5
23
100
AcDbSymbolTableRecord
100
AcDbBlockTableRecord
2
*Paper_Space0
340
0
70
0
0
BLOCK_RECORD
5
18E
100
AcDbSymbolTableRecord
100
AcDbBlockTableRecord
2
DimnDraft3D1
340
0
70
0
0
BLOCK_RECORD
5
19D
100
AcDbSymbolTableRecord
100
AcDbBlockTableRecord
2
_CLOSED
340
0
70
0
0
BLOCK_RECORD
5
1A4
100
AcDbSymbolTableRecord
100
AcDbBlockTableRecord
2
DimnDraft3D2
340
0
70
0
0
BLOCK_RECORD
5
1B3
100
AcDbSymbolTableRecord
100
AcDbBlockTableRecord
2
DimnDraft3D3
340
0
70
0
0
BLOCK_RECORD
5
1C1
100
AcDbSymbolTableRecord
100
AcDbBlockTableRecord
2
DimnDraft3D4
340
0
70
0
0
ENDTAB
0
ENDSEC
0
SECTION
2
BLOCKS
0
BLOCK
5
20
100
AcDbEntity
8
0
100
AcDbBlockBegin
2
*Model_Space
70
0
10
0
20
0
30
0
3
*Model_Space
0
ENDBLK
5
21
100
AcDbEntity
8
0
100
AcDbBlockEnd
0
BLOCK
5
1C
100
AcDbEntity
8
0
100
AcDbBlockBegin
2
*Paper_Space
70
0
10
0
20
0
30
0
3
*Paper_Space
0
ENDBLK
5
1D
100
AcDbEntity
8
0
100
AcDbBlockEnd
0
BLOCK
5
24
100
AcDbEntity
8
0
100
AcDbBlockBegin
2
*Paper_Space0
70
0
10
0
20
0
30
0
3
*Paper_Space0
0
ENDBLK
5
25
100
AcDbEntity
8
0
100
AcDbBlockEnd
0
BLOCK
5
19A
100
AcDbEntity
8
0
100
AcDbBlockBegin
2
DimnDraft3D1
70
0
10
0
20
0
30
0
3
DimnDraft3D1
0
MTEXT
5
18F
100
AcDbEntity
8
SK2
62
256
6
ByLayer
370
13
48
1
60
0
100
AcDbMText
10
-31.975
20
-4.393421
30
0
210
0
220
0
230
1
1
\W0.7640;40.0
40
4.5
41
0
44
1.084337
50
90
71
7
72
5
7
iso_b_vert
0
LINE
5
191
100
AcDbEntity
8
SK2
62
256
6
ByLayer
370
13
48
1
60
0
100
AcDbLine
10
-1.5875
20
20
30
0
11
-34.025
21
20
31
0
39
0
210
0
220
0
230
1
0
LINE
5
192
100
AcDbEntity
8
SK2
62
256
6
ByLayer
370
13
48
1
60
0
100
AcDbLine
10
-1.5875
20
-20
30
0
11
-34.025
21
-20
31
0
39
0
210
0
220
0
230
1
0
LINE
5
193
100
AcDbEntity
8
SK2
62
256
6
ByLayer
370
13
48
1
60
0
100
AcDbLine
10
-30.85
20
20
30
0
11
-30.85
21
-20
31
0
39
0
210
0
220
0
230
1
0
LINE
5
194
100
AcDbEntity
8
SK2
62
256
6
ByLayer
370
13
48
1
60
0
100
AcDbLine
10
-30.85
20
20
30
0
11
-29.999261
21
16.825003
31
0
39
0
210
0
220
0
230
1
0
LINE
5
195
100
AcDbEntity
8
SK2
62
256
6
ByLayer
370
13
48
1
60
0
100
AcDbLine
10
-30.85
20
20
30
0
11
-31.700739
21
16.824997
31
0
39
0
210
0
220
0
230
1
0
LINE
5
196
100
AcDbEntity
8
SK2
62
256
6
ByLayer
370
13
48
1
60
0
100
AcDbLine
10
-29.999261
20
16.825003
30
0
11
-31.700739
21
16.824997
31
0
39
0
210
0
220
0
230
1
0
LINE
5
197
100
AcDbEntity
8
SK2
62
256
6
ByLayer
370
13
48
1
60
0
100
AcDbLine
10
-30.85
20
-20
30
0
11
-31.700739
21
-16.825003
31
0
39
0
210
0
220
0
230
1
0
LINE
5
198
100
AcDbEntity
8
SK2
62
256
6
ByLayer
370
13
48
1
60
0
100
AcDbLine
10
-30.85
20
-20
30
0
11
-29.999261
21
-16.824997
31
0
39
0
210
0
220
0
230
1
0
LINE
5
199
100
AcDbEntity
8
SK2
62
256
6
ByLayer
370
13
48
1
60
0
100
AcDbLine
10
-31.700739
20
-16.825003
30
0
11
-29.999261
21
-16.824997
31
0
39
0
210
0
220
0
230
1
0
ENDBLK
5
19B
100
AcDbEntity
8
0
100
AcDbBlockEnd
0
BLOCK
5
19E
100
AcDbEntity
8
0
100
AcDbBlockBegin
2
_CLOSED
70
0
10
0
20
0
30
0
3
_CLOSED
0
LINE
5
1A0
100
AcDbEntity
8
0
62
256
6
ByLayer
370
-2
48
1
60
0
100
AcDbLine
10
-1
20
0.166667
30
0
11
0
21
0
31
0
39
0
210
0
220
0
230
1
0
LINE
5
1A1
100
AcDbEntity
8
0
62
256
6
ByLayer
370
-2
48
1
60
0
100
AcDbLine
10
0
20
0
30
0
11
-1
21
-0.166667
31
0
39
0
210
0
220
0
230
1
0
LINE
5
1A2
100
AcDbEntity
8
0
62
256
6
ByLayer
370
-2
48
1
60
0
100
AcDbLine
10
-1
20
0.166667
30
0
11
-1
21
-0.166667
31
0
39
0
210
0
220
0
230
1
0
LINE
5
1A3
100
AcDbEntity
8
0
62
256
6
ByLayer
370
-2
48
1
60
0
100
AcDbLine
10
0
20
0
30
0
11
-1
21
0
31
0
39
0
210
0
220
0
230
1
0
ENDBLK
5
19F
100
AcDbEntity
8
0
100
AcDbBlockEnd
0
BLOCK
5
1B0
100
AcDbEntity
8
0
100
AcDbBlockBegin
2
DimnDraft3D2
70
0
10
0
20
0
30
0
3
DimnDraft3D2
0
MTEXT
5
1A5
100
AcDbEntity
8
2
62
256
6
ByLayer
370
13
48
1
60
0
100
AcDbMText
10
84.725
20
-17.656579
30
0
210
0
220
0
230
1
1
\W0.7346;27.0
40
4.5
41
0
44
1.084337
50
90
71
7
72
5
7
iso_b_vert
0
LINE
5
1A7
100
AcDbEntity
8
2
62
256
6
ByLayer
370
13
48
1
60
0
100
AcDbLine
10
61.5875
20
-27
30
0
11
89.025
21
-27
31
0
39
0
210
0
220
0
230
1
0
LINE
5
1A8
100
AcDbEntity
8
2
62
256
6
ByLayer
370
13
48
1
60
0
100
AcDbLine
10
61.5875
20
0
30
0
11
89.025
21
0
31
0
39
0
210
0
220
0
230
1
0
LINE
5
1A9
100
AcDbEntity
8
2
62
256
6
ByLayer
370
13
48
1
60
0
100
AcDbLine
10
85.85
20
-27
30
0
11
85.85
21
0
31
0
39
0
210
0
220
0
230
1
0
LINE
5
1AA
100
AcDbEntity
8
2
62
256
6
ByLayer
370
13
48
1
60
0
100
AcDbLine
10
85.85
20
-27
30
0
11
84.999261
21
-23.825003
31
0
39
0
210
0
220
0
230
1
0
LINE
5
1AB
100
AcDbEntity
8
2
62
256
6
ByLayer
370
13
48
1
60
0
100
AcDbLine
10
85.85
20
-27
30
0
11
86.700739
21
-23.824997
31
0
39
0
210
0
220
0
230
1
0
LINE
5
1AC
100
AcDbEntity
8
2
62
256
6
ByLayer
370
13
48
1
60
0
100
AcDbLine
10
84.999261
20
-23.825003
30
0
11
86.700739
21
-23.824997
31
0
39
0
210
0
220
0
230
1
0
LINE
5
1AD
100
AcDbEntity
8
2
62
256
6
ByLayer
370
13
48
1
60
0
100
AcDbLine
10
85.85
20
0
30
0
11
86.700739
21
-3.174997
31
0
39
0
210
0
220
0
230
1
0
LINE
5
1AE
100
AcDbEntity
8
2
62
256
6
ByLayer
370
13
48
1
60
0
100
AcDbLine
10
85.85
20
0
30
0
11
84.999261
21
-3.175003
31
0
39
0
210
0
220
0
230
1
0
LINE
5
1AF
100
AcDbEntity
8
2
62
256
6
ByLayer
370
13
48
1
60
0
100
AcDbLine
10
86.700739
20
-3.174997
30
0
11
84.999261
21
-3.175003
31
0
39
0
210
0
220
0
230
1
0
ENDBLK
5
1B1
100
AcDbEntity
8
0
100
AcDbBlockEnd
0
BLOCK
5
1BE
100
AcDbEntity
8
0
100
AcDbBlockBegin
2
DimnDraft3D3
70
0
10
0
20
0
30
0
3
DimnDraft3D3
0
MTEXT
5
1B4
100
AcDbEntity
8
2
62
256
6
ByLayer
370
13
48
1
60
0
100
AcDbMText
10
25.843421
20
-52.375
30
0
210
0
220
0
230
1
1
\W0.7346;60.0
40
4.5
41
0
44
1.084337
50
0
71
7
72
5
7
iso_b_vert
0
LINE
5
1B5
100
AcDbEntity
8
2
62
256
6
ByLayer
370
13
48
1
60
0
100
AcDbLine
10
0
20
-21.5875
30
0
11
0
21
-56.675
31
0
39
0
210
0
220
0
230
1
0
LINE
5
1B6
100
AcDbEntity
8
2
62
256
6
ByLayer
370
13
48
1
60
0
100
AcDbLine
10
60
20
-28.5875
30
0
11
60
21
-56.675
31
0
39
0
210
0
220
0
230
1
0
LINE
5
1B7
100
AcDbEntity
8
2
62
256
6
ByLayer
370
13
48
1
60
0
100
AcDbLine
10
0
20
-53.5
30
0
11
60
21
-53.5
31
0
39
0
210
0
220
0
230
1
0
LINE
5
1B8
100
AcDbEntity
8
2
62
256
6
ByLayer
370
13
48
1
60
0
100
AcDbLine
10
0
20
-53.5
30
0
11
3.174997
21
-52.649261
31
0
39
0
210
0
220
0
230
1
0
LINE
5
1B9
100
AcDbEntity
8
2
62
256
6
ByLayer
370
13
48
1
60
0
100
AcDbLine
10
0
20
-53.5
30
0
11
3.175003
21
-54.350739
31
0
39
0
210
0
220
0
230
1
0
LINE
5
1BA
100
AcDbEntity
8
2
62
256
6
ByLayer
370
13
48
1
60
0
100
AcDbLine
10
3.174997
20
-52.649261
30
0
11
3.175003
21
-54.350739
31
0
39
0
210
0
220
0
230
1
0
LINE
5
1BB
100
AcDbEntity
8
2
62
256
6
ByLayer
370
13
48
1
60
0
100
AcDbLine
10
60
20
-53.5
30
0
11
56.825003
21
-54.350739
31
0
39
0
210
0
220
0
230
1
0
LINE
5
1BC
100
AcDbEntity
8
2
62
256
6
ByLayer
370
13
48
1
60
0
100
AcDbLine
10
60
20
-53.5
30
0
11
56.824997
21
-52.649261
31
0
39
0
210
0
220
0
230
1
0
LINE
5
1BD
100
AcDbEntity
8
2
62
256
6
ByLayer
370
13
48
1
60
0
100
AcDbLine
10
56.825003
20
-54.350739
30
0
11
56.824997
21
-52.649261
31
0
39
0
210
0
220
0
230
1
0
ENDBLK
5
1BF
100
AcDbEntity
8
0
100
AcDbBlockEnd
0
BLOCK
5
1CC
100
AcDbEntity
8
0
100
AcDbBlockBegin
2
DimnDraft3D4
70
0
10
0
20
0
30
0
3
DimnDraft3D4
0
MTEXT
5
1C2
100
AcDbEntity
8
2
62
256
6
ByLayer
370
13
48
1
60
0
100
AcDbMText
10
49.871252
20
0.46085
30
0
210
0
220
0
230
1
1
\W0.7346;25.0
40
4.5
41
0
44
1.084337
50
12.5000000000007
71
7
72
5
7
iso_b_vert
0
LINE
5
1C3
100
AcDbEntity
8
2
62
256
6
ByLayer
370
13
48
1
60
0
100
AcDbLine
10
60
20
-23.8125
30
0
11
60
21
4.075348
31
0
39
0
210
0
220
0
230
1
0
LINE
5
1C4
100
AcDbEntity
8
2
62
256
6
ByLayer
370
13
48
1
60
0
100
AcDbLine
10
58.408903
20
-22.610526
30
0
11
47.280039
21
1.255401
31
0
39
0
210
0
220
0
230
1
0
ARC
5
1C5
100
AcDbEntity
8
2
62
256
6
ByLayer
370
13
48
1
60
0
100
AcDbCircle
39
0
10
60
20
-26.022644
30
0
40
26.9229924974669
210
0
220
0
230
1
100
AcDbArc
50
90
51
115
0
LINE
5
1C6
100
AcDbEntity
8
2
62
256
6
ByLayer
370
13
48
1
60
0
100
AcDbLine
10
60
20
0.900348
30
0
11
56.851429
21
-0.043506
31
0
39
0
210
0
220
0
230
1
0
LINE
5
1C7
100
AcDbEntity
8
2
62
256
6
ByLayer
370
13
48
1
60
0
100
AcDbLine
10
60
20
0.900348
30
0
11
56.801324
21
1.657234
31
0
39
0
210
0
220
0
230
1
0
LINE
5
1C8
100
AcDbEntity
8
2
62
256
6
ByLayer
370
13
48
1
60
0
100
AcDbLine
10
56.851429
20
-0.043506
30
0
11
56.801324
21
1.657234
31
0
39
0
210
0
220
0
230
1
0
LINE
5
1C9
100
AcDbEntity
8
2
62
256
6
ByLayer
370
13
48
1
60
0
100
AcDbLine
10
48.621852
20
-1.622127
30
0
11
51.200957
21
0.415661
31
0
39
0
210
0
220
0
230
1
0
LINE
5
1CA
100
AcDbEntity
8
2
62
256
6
ByLayer
370
13
48
1
60
0
100
AcDbLine
10
48.621852
20
-1.622127
30
0
11
51.874322
21
-1.146903
31
0
39
0
210
0
220
0
230
1
0
LINE
5
1CB
100
AcDbEntity
8
2
62
256
6
ByLayer
370
13
48
1
60
0
100
AcDbLine
10
51.200957
20
0.415661
30
0
11
51.874322
21
-1.146903
31
0
39
0
210
0
220
0
230
1
0
ENDBLK
5
1CD
100
AcDbEntity
8
0
100
AcDbBlockEnd
0
ENDSEC
0
SECTION
2
ENTITIES
0
ARC
5
D4
100
AcDbEntity
8
1
62
256
6
ByLayer
370
13
48
1
60
0
100
AcDbCircle
39
0
10
-20.279208
20
-21.2
30
0
40
1.2
210
0
220
0
230
-1
100
AcDbArc
50
118.758134
51
126.225732
0
ARC
5
D5
100
AcDbEntity
8
1
62
256
6
ByLayer
370
13
48
1
60
0
100
AcDbCircle
39
0
10
42.665252
20
-10.881553
30
0
40
1.98674538575881
210
0
220
0
230
1
100
AcDbArc
50
85
51
122.965092
0
ARC
5
D6
100
AcDbEntity
8
1
62
256
6
ByLayer
370
13
48
1
60
0
100
AcDbCircle
39
0
10
50.490786
20
-18.259901
30
0
40
5.28674538575881
210
0
220
0
230
1
100
AcDbArc
50
230.160547
51
246
0
ARC
5
D7
100
AcDbEntity
8
1
62
256
6
ByLayer
370
13
48
1
60
0
100
AcDbCircle
39
0
10
-42.665252
20
-10.881553
30
0
40
1.7
210
0
220
0
230
-1
100
AcDbArc
50
65.109095
51
83.324098
0
ARC
5
D8
100
AcDbEntity
8
1
62
256
6
ByLayer
370
13
48
1
60
0
100
AcDbCircle
39
0
10
-44.469647
20
-14.352022
30
0
40
4.99999999999999
210
0
220
0
230
-1
100
AcDbArc
50
105.679684
51
115
0
ARC
5
D9
100
AcDbEntity
8
1
62
256
6
ByLayer
370
13
48
1
60
0
100
AcDbCircle
39
0
10
20
20
-26.15
30
0
40
6
210
0
220
0
230
1
100
AcDbArc
50
68.307293
51
76.358287
0
ARC
5
DA
100
AcDbEntity
8
1
62
256
6
ByLayer
370
13
48
1
60
0
100
AcDbCircle
39
0
10
44.469647
20
-14.352022
30
0
40
5.2867453857588
210
0
220
0
230
1
100
AcDbArc
50
65
51
85
0
ARC
5
DB
100
AcDbEntity
8
1
62
256
6
ByLayer
370
13
48
1
60
0
100
AcDbCircle
39
0
10
51.03857
20
-18.03857
30
0
40
2.39894876836046
210
0
220
0
230
1
100
AcDbArc
50
283.398756
51
56.604377
0
ARC
5
DC
100
AcDbEntity
8
1
62
256
6
ByLayer
370
13
48
1
60
0
100
AcDbCircle
39
0
10
-51.03857
20
-18.03857
30
0
40
2.3603546462382
210
0
220
0
230
-1
100
AcDbArc
50
180.00001
51
253.732507
0
ARC
5
DD
100
AcDbEntity
8
1
62
256
6
ByLayer
370
13
48
1
60
0
100
AcDbCircle
39
0
10
-51.03857
20
-18.03857
30
0
40
2.3603546462382
210
0
220
0
230
-1
100
AcDbArc
50
126.264386
51
135
0
ARC
5
DE
100
AcDbEntity
8
1
62
256
6
ByLayer
370
13
48
1
60
0
100
AcDbCircle
39
0
10
-51.03857
20
-18.03857
30
0
40
2.3603546462382
210
0
220
0
230
-1
100
AcDbArc
50
135
51
179.999995
0
ARC
5
DF
100
AcDbEntity
8
1
62
256
6
ByLayer
370
13
48
1
60
0
100
AcDbCircle
39
0
10
-42.884498
20
-9.884498
30
0
40
0.807357296468598
210
0
220
0
230
-1
100
AcDbArc
50
32.782518
51
90
0
ARC
5
E0
100
AcDbEntity
8
1
62
256
6
ByLayer
370
13
48
1
60
0
100
AcDbCircle
39
0
10
-51.03857
20
-18.03857
30
0
40
2.578
210
0
220
0
230
-1
100
AcDbArc
50
179.999992
51
266.506862
0
ARC
5
E1
100
AcDbEntity
8
1
62
256
6
ByLayer
370
13
48
1
60
0
100
AcDbCircle
39
0
10
-51.03857
20
-18.03857
30
0
40
2.578
210
0
220
0
230
-1
100
AcDbArc
50
113.489993
51
179.999992
0
ARC
5
E2
100
AcDbEntity
8
1
62
256
6
ByLayer
370
13
48
1
60
0
100
AcDbCircle
39
0
10
-51.03857
20
-18.03857
30
0
40
5.51786771999517
210
0
220
0
230
-1
100
AcDbArc
50
295
51
310.739999
0
ARC
5
E3
100
AcDbEntity
8
1
62
256
6
ByLayer
370
13
48
1
60
0
100
AcDbCircle
39
0
10
-51.168565
20
-18.061492
30
0
40
2.20000000000365
210
0
220
0
230
-1
100
AcDbArc
50
190
51
239
0
ARC
5
E4
100
AcDbEntity
8
1
62
256
6
ByLayer
370
13
48
1
60
0
100
AcDbCircle
39
0
10
-51.168565
20
-18.061492
30
0
40
2.20000000000053
210
0
220
0
230
-1
100
AcDbArc
50
141
51
190
0
ARC
5
E5
100
AcDbEntity
8
1
62
256
6
ByLayer
370
13
48
1
60
0
100
AcDbCircle
39
0
10
-36.405749
20
-17.074067
30
0
40
0.425
210
0
220
0
230
-1
100
AcDbArc
50
110.063185
51
151.215103
0
ARC
5
E6
100
AcDbEntity
8
1
62
256
6
ByLayer
370
13
48
1
60
0
100
AcDbCircle
39
0
10
-35.46318
20
-14.48438
30
0
40
0.425
210
0
220
0
230
-1
100
AcDbArc
50
230.063185
51
271.215103
0
ARC
5
E7
100
AcDbEntity
8
1
62
256
6
ByLayer
370
13
48
1
60
0
100
AcDbCircle
39
0
10
-37.900906
20
-16.529874
30
0
40
0.425
210
0
220
0
230
-1
100
AcDbArc
50
50.063185
51
91.215103
0
ARC
5
E8
100
AcDbEntity
8
1
62
256
6
ByLayer
370
13
48
1
60
0
100
AcDbCircle
39
0
10
-36.682043
20
-15.507127
30
0
40
1.175
210
0
220
0
230
-1
100
AcDbArc
50
336.376394
51
343.623606
0
ARC
5
E9
100
AcDbEntity
8
1
62
256
6
ByLayer
370
13
48
1
60
0
100
AcDbCircle
39
0
10
-36.682043
20
-15.507127
30
0
40
1.175
210
0
220
0
230
-1
100
AcDbArc
50
96.376394
51
103.623606
0
ARC
5
EA
100
AcDbEntity
8
1
62
256
6
ByLayer
370
13
48
1
60
0
100
AcDbCircle
39
0
10
37.917976
20
-15.725055
30
0
40
0.38
210
0
220
0
230
1
100
AcDbArc
50
268.784897
51
71.215103
0
ARC
5
EB
100
AcDbEntity
8
1
62
256
6
ByLayer
370
13
48
1
60
0
100
AcDbCircle
39
0
10
37.488741
20
-14.545741
30
0
40
0.38
210
0
220
0
230
1
100
AcDbArc
50
328.784897
51
131.215103
0
ARC
5
EC
100
AcDbEntity
8
1
62
256
6
ByLayer
370
13
48
1
60
0
100
AcDbCircle
39
0
10
37.111278
20
-16.686441
30
0
40
0.38
210
0
220
0
230
1
100
AcDbArc
50
208.784897
51
11.215103
0
ARC
5
ED
100
AcDbEntity
8
1
62
256
6
ByLayer
370
13
48
1
60
0
100
AcDbCircle
39
0
10
-36.682043
20
-15.507127
30
0
40
1.175
210
0
220
0
230
-1
100
AcDbArc
50
36.376394
51
43.623606
0
ARC
5
EF
100
AcDbEntity
8
1
62
256
6
ByLayer
370
13
48
1
60
0
100
AcDbCircle
39
0
10
-38.177199
20
-14.962934
30
0
40
0.425
210
0
220
0
230
-1
100
AcDbArc
50
288.784897
51
329.936815
0
ARC
5
F0
100
AcDbEntity
8
1
62
256
6
ByLayer
370
13
48
1
60
0
100
AcDbCircle
39
0
10
35.875344
20
-16.468513
30
0
40
0.38
210
0
220
0
230
1
100
AcDbArc
50
148.784897
51
311.215103
0
ARC
5
F1
100
AcDbEntity
8
1
62
256
6
ByLayer
370
13
48
1
60
0
100
AcDbCircle
39
0
10
35.446109
20
-15.289199
30
0
40
0.38
210
0
220
0
230
1
100
AcDbArc
50
88.784897
51
251.215103
0
ARC
5
F2
100
AcDbEntity
8
1
62
256
6
ByLayer
370
13
48
1
60
0
100
AcDbCircle
39
0
10
36.252807
20
-14.327813
30
0
40
0.38
210
0
220
0
230
1
100
AcDbArc
50
28.784897
51
191.215103
0
ARC
5
F3
100
AcDbEntity
8
1
62
256
6
ByLayer
370
13
48
1
60
0
100
AcDbCircle
39
0
10
-37.900906
20
-16.529874
30
0
40
0.425
210
0
220
0
230
-1
100
AcDbArc
50
348.784897
51
29.936815
0
ARC
5
F4
100
AcDbEntity
8
1
62
256
6
ByLayer
370
13
48
1
60
0
100
AcDbCircle
39
0
10
-35.46318
20
-14.48438
30
0
40
0.425
210
0
220
0
230
-1
100
AcDbArc
50
168.784897
51
209.936815
0
ARC
5
F5
100
AcDbEntity
8
1
62
256
6
ByLayer
370
13
48
1
60
0
100
AcDbCircle
39
0
10
-35.186886
20
-16.05132
30
0
40
0.425
210
0
220
0
230
-1
100
AcDbArc
50
108.784897
51
149.936815
0
ARC
5
F6
100
AcDbEntity
8
1
62
256
6
ByLayer
370
13
48
1
60
0
100
AcDbCircle
39
0
10
-35.186886
20
-16.05132
30
0
40
0.425
210
0
220
0
230
-1
100
AcDbArc
50
170.063185
51
211.215103
0
ARC
5
F7
100
AcDbEntity
8
1
62
256
6
ByLayer
370
13
48
1
60
0
100
AcDbCircle
39
0
10
-38.177199
20
-14.962934
30
0
40
0.425
210
0
220
0
230
-1
100
AcDbArc
50
350.063185
51
31.215103
0
ARC
5
F8
100
AcDbEntity
8
1
62
256
6
ByLayer
370
13
48
1
60
0
100
AcDbCircle
39
0
10
-36.682043
20
-15.507127
30
0
40
1.175
210
0
220
0
230
-1
100
AcDbArc
50
156.376394
51
163.623606
0
ARC
5
F9
100
AcDbEntity
8
1
62
256
6
ByLayer
370
13
48
1
60
0
100
AcDbCircle
39
0
10
-36.682043
20
-15.507127
30
0
40
1.175
210
0
220
0
230
-1
100
AcDbArc
50
276.376394
51
283.623606
0
ARC
5
FB
100
AcDbEntity
8
1
62
256
6
ByLayer
370
13
48
1
60
0
100
AcDbCircle
39
0
10
-36.958337
20
-13.940187
30
0
40
0.425
210
0
220
0
230
-1
100
AcDbArc
50
290.063185
51
331.215103
0
ARC
5
FD
100
AcDbEntity
8
1
62
256
6
ByLayer
370
13
48
1
60
0
100
AcDbCircle
39
0
10
-36.958337
20
-13.940187
30
0
40
0.425
210
0
220
0
230
-1
100
AcDbArc
50
228.784897
51
269.936815
0
ARC
5
FE
100
AcDbEntity
8
1
62
256
6
ByLayer
370
13
48
1
60
0
100
AcDbCircle
39
0
10
-36.405749
20
-17.074067
30
0
40
0.425
210
0
220
0
230
-1
100
AcDbArc
50
48.784897
51
89.936815
0
ARC
5
FF
100
AcDbEntity
8
1
62
256
6
ByLayer
370
13
48
1
60
0
100
AcDbCircle
39
0
10
-36.682043
20
-15.507127
30
0
40
1.175
210
0
220
0
230
-1
100
AcDbArc
50
216.376394
51
223.623606
0
ARC
5
100
100
AcDbEntity
8
1
62
256
6
ByLayer
370
13
48
1
60
0
100
AcDbCircle
39
0
10
-59.192643
20
-26.192643
30
0
40
0.807357296468598
210
0
220
0
230
-1
100
AcDbArc
50
180
51
270
0
ARC
5
101
100
AcDbEntity
8
1
62
256
6
ByLayer
370
13
48
1
60
0
100
AcDbCircle
39
0
10
50.991115
20
-8.637729
30
0
40
2.9926427035314
210
0
220
0
230
1
100
AcDbArc
50
245
51
249.447849
0
ARC
5
102
100
AcDbEntity
8
1
62
256
6
ByLayer
370
13
48
1
60
0
100
AcDbCircle
39
0
10
-58.106682
20
-21.886174
30
0
40
5.0073572964686
210
0
220
0
230
-1
100
AcDbArc
50
275
51
295
0
ARC
5
103
100
AcDbEntity
8
1
62
256
6
ByLayer
370
13
48
1
60
0
100
AcDbCircle
39
0
10
51.086026
20
-27.439411
30
0
40
2.9926427035314
210
0
220
0
230
1
100
AcDbArc
50
65
51
69.447849
0
ARC
5
104
100
AcDbEntity
8
1
62
256
6
ByLayer
370
13
48
1
60
0
100
AcDbCircle
39
0
10
-57.992643
20
-26.192643
30
0
40
2.00735729646859
210
0
220
0
230
-1
100
AcDbArc
50
175
51
180
0
ARC
5
105
100
AcDbEntity
8
1
62
256
6
ByLayer
370
13
48
1
60
0
100
AcDbCircle
39
0
10
-51.03857
20
-18.03857
30
0
40
5.51786771999517
210
0
220
0
230
-1
100
AcDbArc
50
115
51
155
0
ARC
5
106
100
AcDbEntity
8
1
62
256
6
ByLayer
370
13
48
1
60
0
100
AcDbCircle
39
0
10
60.439411
20
-18.086026
30
0
40
2.9926427035314
210
0
220
0
230
1
100
AcDbArc
50
200.552151
51
205
0
ARC
5
107
100
AcDbEntity
8
1
62
256
6
ByLayer
370
13
48
1
60
0
100
AcDbCircle
39
0
10
-59.192643
20
-24.992643
30
0
40
2.00735729646859
210
0
220
0
230
-1
100
AcDbArc
50
270
51
275
0
ARC
5
108
100
AcDbEntity
8
1
62
256
6
ByLayer
370
13
48
1
60
0
100
AcDbCircle
39
0
10
-43.970458
20
-14.190966
30
0
40
5.0073572964686
210
0
220
0
230
-1
100
AcDbArc
50
95
51
115
0
ARC
5
109
100
AcDbEntity
8
1
62
256
6
ByLayer
370
13
48
1
60
0
100
AcDbCircle
39
0
10
-42.884498
20
-11.084498
30
0
40
2.00735729646859
210
0
220
0
230
-1
100
AcDbArc
50
90
51
95
0
ARC
5
10A
100
AcDbEntity
8
1
62
256
6
ByLayer
370
13
48
1
60
0
100
AcDbCircle
39
0
10
-54.886174
20
-25.106682
30
0
40
5.0073572964686
210
0
220
0
230
-1
100
AcDbArc
50
155
51
175
0
CIRCLE
5
EE
100
AcDbEntity
8
1
62
256
6
ByLayer
370
13
48
1
60
0
100
AcDbCircle
10
-36.682043
20
-15.507127
30
0
40
2.3
39
0
210
0
220
0
230
-1
0
CIRCLE
5
FA
100
AcDbEntity
8
1
62
256
6
ByLayer
370
13
48
1
60
0
100
AcDbCircle
10
-36.682043
20
-15.507127
30
0
40
1.15
39
0
210
0
220
0
230
-1
0
CIRCLE
5
FC
100
AcDbEntity
8
1
62
256
6
ByLayer
370
13
48
1
60
0
100
AcDbCircle
10
36.682043
20
-15.507127
30
0
40
4
39
0
210
0
220
0
230
1
0
ELLIPSE
5
10B
100
AcDbEntity
8
1
62
256
6
ByLayer
370
13
48
1
60
0
100
AcDbEllipse
10
27.106679
20
-6.710746
30
0
11
6.96364240320019
21
-1.22787803968973
31
9.83124401433008E-16
210
1.41179621885984E-16
220
1.84889274661175E-32
230
-1
40
0.707107
41
-1.71168376662788
42
-0.0400373780301485
0
ELLIPSE
5
10C
100
AcDbEntity
8
1
62
256
6
ByLayer
370
13
48
1
60
0
100
AcDbEllipse
10
26.617756
20
-6.624535
30
0
11
-0.868240888334652
21
-4.92403876506104
31
0
210
0
220
0
230
1
40
0.707107
41
1.5707963267949
42
3.09475647119858
0
ELLIPSE
5
10D
100
AcDbEntity
8
1
62
256
6
ByLayer
370
13
48
1
60
0
100
AcDbEllipse
10
53.707539
20
-25.34445
30
0
11
0.499999403611644
21
-0.017537928386913
31
0
210
0
220
0
230
-1
40
0.044034
41
3.14004812946276
42
-1.74522669190067
0
ELLIPSE
5
10E
100
AcDbEntity
8
1
62
256
6
ByLayer
370
13
48
1
60
0
100
AcDbEllipse
10
-33.484134
20
-54.331864
30
0
11
16.1470196177868
21
-100.726883881624
31
0
210
0
220
0
230
-1
40
0.941639
41
-1.84379880352144
42
-1.8400463085008
0
ELLIPSE
5
10F
100
AcDbEntity
8
1
62
256
6
ByLayer
370
13
48
1
60
0
100
AcDbEllipse
10
-0.948929
20
0
30
0
11
9.36741787978143
21
-19.7417491527495
31
0
210
0
220
0
230
-1
40
0.341999
41
-1.0963195274999
42
-0.152726244898376
0
ELLIPSE
5
110
100
AcDbEntity
8
1
62
256
6
ByLayer
370
13
48
1
60
0
100
AcDbEllipse
10
-0.948929
20
0
30
0
11
9.36741787978222
21
19.7417491527505
31
0
210
0
220
0
230
-1
40
0.341999
41
0.15272624489837
42
1.09631952749986
0
ELLIPSE
5
111
100
AcDbEntity
8
1
62
256
6
ByLayer
370
13
48
1
60
0
100
AcDbEllipse
10
-36.106294
20
-56.959451
30
0
11
70.7214493379363
21
70.7214493379356
31
0
210
-1.41179621885984E-16
220
-2.46519032881566E-32
230
1
40
0.999848
41
-0.325146789269206
42
-0.209408536054992
0
ELLIPSE
5
112
100
AcDbEntity
8
1
62
256
6
ByLayer
370
13
48
1
60
0
100
AcDbEllipse
10
16.948929
20
0
30
0
11
9.36741787978227
21
19.7417491527505
31
0
210
0
220
0
230
-1
40
0.341999
41
-2.98886640869142
42
-2.04527312608994
0
ELLIPSE
5
113
100
AcDbEntity
8
1
62
256
6
ByLayer
370
13
48
1
60
0
100
AcDbEllipse
10
17.749773
20
0
30
0
11
-1.22460635382238E-15
21
20
31
0
210
0
220
0
230
-1
40
0.087489
41
-2.9579940688854
42
-0.183598584704404
0
ELLIPSE
5
114
100
AcDbEntity
8
1
62
256
6
ByLayer
370
13
48
1
60
0
100
AcDbEllipse
10
25.921391
20
-6.501748
30
0
11
0.694592710667721
21
3.93923101204883
31
0
210
0
220
0
230
1
40
0.707107
41
-1.5707963267949
42
0.439544460619357
0
ELLIPSE
5
115
100
AcDbEntity
8
1
62
256
6
ByLayer
370
13
48
1
60
0
100
AcDbEllipse
10
16.948929
20
0
30
0
11
9.3674178797824
21
-19.7417491527506
31
0
210
0
220
0
230
-1
40
0.341999
41
2.04527312608994
42
2.98886640869142
0
ELLIPSE
5
116
100
AcDbEntity
8
1
62
256
6
ByLayer
370
13
48
1
60
0
100
AcDbEllipse
10
34.865664
20
-10.317231
30
0
11
5.41644276119063
21
-0.955064985224254
31
0
210
0
220
0
230
-1
40
0.240328
41
2.67964998904473
42
2.73264229317131
0
ELLIPSE
5
117
100
AcDbEntity
8
1
62
256
6
ByLayer
370
13
48
1
60
0
100
AcDbEllipse
10
33.378999
20
-10.65992
30
0
11
2.28671845499258
21
-2.70010444014703
31
0
210
0
220
0
230
-1
40
0.724269
41
-2.78454212735564
42
-2.42492639400004
0
ELLIPSE
5
118
100
AcDbEntity
8
1
62
256
6
ByLayer
370
13
48
1
60
0
100
AcDbEllipse
10
37.407217
20
-15.634995
30
0
11
-0.72063993731776
21
-4.08695217500066
31
0
210
0
220
0
230
1
40
0.999848
41
0
42
3.14159265358977
0
ELLIPSE
5
119
100
AcDbEntity
8
1
62
256
6
ByLayer
370
13
48
1
60
0
100
AcDbEllipse
10
31.920354
20
-18.932305
30
0
11
3.07230256557006
21
1.75516444400258
31
0
210
0
220
0
230
-1
40
0.724269
41
2.4249263939927
42
2.78454212734996
0
ELLIPSE
5
11A
100
AcDbEntity
8
1
62
256
6
ByLayer
370
13
48
1
60
0
100
AcDbEllipse
10
33.200156
20
-19.762796
30
0
11
5.41644267322763
21
-0.955064986373753
31
0
210
0
220
0
230
-1
40
0.240328
41
-2.73264228969701
42
-2.67964998511325
0
ELLIPSE
5
11B
100
AcDbEntity
8
1
62
256
6
ByLayer
370
13
48
1
60
0
100
AcDbEllipse
10
31.677806
20
-10.353325
30
0
11
1.46703323667211
21
1.359343033417
31
0
210
0
220
0
230
1
40
0.848036
41
0.72975401965331
42
2.14242951391291
0
ELLIPSE
5
11C
100
AcDbEntity
8
1
62
256
6
ByLayer
370
13
48
1
60
0
100
AcDbEllipse
10
32.875257
20
-21.605389
30
0
11
3.4468271355514
21
-0.607768621836359
31
0
210
0
220
0
230
-1
40
0.377658
41
2.880317217157
42
-2.67964998362472
0
ELLIPSE
5
11D
100
AcDbEntity
8
1
62
256
6
ByLayer
370
13
48
1
60
0
100
AcDbEllipse
10
30.216895
20
-18.638567
30
0
11
-0.913637607830418
21
1.77911953548881
31
0
210
0
220
0
230
1
40
0.848036
41
0.999163139676883
42
2.41183863393649
0
ELLIPSE
5
11E
100
AcDbEntity
8
1
62
256
6
ByLayer
370
13
48
1
60
0
100
AcDbEllipse
10
31.971734
20
-10.411781
30
0
11
-2.97661046204355
21
0.524856735517368
31
-2.62162641975114E-15
210
8.54184564237123E-16
220
-1.50615785179708E-16
230
-1
40
0.992546
41
0
42
1.05168906306425
0
ELLIPSE
5
11F
100
AcDbEntity
8
1
62
256
6
ByLayer
370
13
48
1
60
0
100
AcDbEllipse
10
30.51309
20
-18.684166
30
0
11
-2.97661046204352
21
0.524856735517363
31
0
210
-8.54184564237123E-16
220
1.50615785179708E-16
230
1
40
0.992546
41
0
42
1.05168906306426
0
ELLIPSE
5
120
100
AcDbEntity
8
1
62
256
6
ByLayer
370
13
48
1
60
0
100
AcDbEllipse
10
35.190563
20
-8.474638
30
0
11
3.44682713554991
21
-0.607768621835286
31
0
210
0
220
0
230
-1
40
0.377658
41
2.67964998362458
42
-2.88031721715701
0
POINT
5
6C
100
AcDbEntity
8
80
62
256
6
ByLayer
370
18
48
1
60
0
100
AcDbPoint
10
0
20
0
30
0
39
0
210
0
220
0
230
1
50
360
0
POINT
5
6E
100
AcDbEntity
8
81
62
256
6
ByLayer
370
18
48
1
60
0
100
AcDbPoint
10
60
20
-27
30
0
39
0
210
0
220
0
230
1
50
360
0
SPLINE
5
121
100
AcDbEntity
8
SK1
62
256
6
ByLayer
370
13
48
1
60
0
100
AcDbSpline
70
4
71
2
72
6
73
3
40
0
40
0
40
0
40
1
40
1
40
1
41
1
10
-0.0625341080326507
20
13.9146717747773
30
0
41
1
10
-0.120123288676325
20
13.8551974282224
30
0
41
1
10
-0.194976888875288
20
13.810183156043
30
0
0
SPLINE
5
122
100
AcDbEntity
8
SK1
62
256
6
ByLayer
370
13
48
1
60
0
100
AcDbSpline
70
4
71
2
72
6
73
3
40
0
40
0
40
0
40
1
40
1
40
1
41
1
10
-0.194976888875288
20
-13.8101779965391
30
0
41
1
10
-0.120139401730142
20
-13.8551880017899
30
0
41
1
10
-0.0625566918865275
20
-13.9146488835417
30
0
0
SPLINE
5
123
100
AcDbEntity
8
SK1
62
256
6
ByLayer
370
13
48
1
60
0
100
AcDbSpline
70
4
71
2
72
6
73
3
40
0
40
0
40
0
40
1
40
1
40
1
41
1
10
-1.2950399779393
20
-13.6798325485488
30
0
41
1
10
-0.745008433404564
20
-13.6935133023981
30
0
41
1
10
-0.194976888875288
20
-13.7071940401201
30
0
0
SPLINE
5
124
100
AcDbEntity
8
SK1
62
256
6
ByLayer
370
13
48
1
60
0
100
AcDbSpline
70
4
71
2
72
6
73
3
40
0
40
0
40
0
40
1
40
1
40
1
41
1
10
-0.194976888875288
20
13.7071943481094
30
0
41
1
10
-0.745008433404564
20
13.6935136106345
30
0
41
1
10
-1.2950399779393
20
13.6798328570319
30
0
0
SPLINE
5
125
100
AcDbEntity
8
SK1
62
256
6
ByLayer
370
13
48
1
60
0
100
AcDbSpline
70
4
71
3
72
13
73
9
40
0
40
0
40
0
40
0
40
0.239409103294406
40
0.368297400457166
40
0.499931431713572
40
0.631576852597891
40
0.760496566261754
40
1
40
1
40
1
40
1
41
1
10
-1.5
20
-14.0251256210819
30
0
41
1
10
-1.49909125765836
20
-13.9990778949869
30
0
41
1
10
-1.49103211526611
20
-13.9617198002273
30
0
41
1
10
-1.46563495916584
20
-13.9155205133642
30
0
41
1
10
-1.43886250823715
20
-13.8842521059395
30
0
41
1
10
-1.40627575244255
20
-13.8590955459704
30
0
41
1
10
-1.35883875168585
20
-13.8360616243345
30
0
41
1
10
-1.32110931868445
20
-13.8298918808713
30
0
41
1
10
-1.2950399779393
20
-13.8302939701614
30
0
0
SPLINE
5
126
100
AcDbEntity
8
SK1
62
256
6
ByLayer
370
13
48
1
60
0
100
AcDbSpline
70
4
71
3
72
13
73
9
40
0
40
0
40
0
40
0
40
0.239503434058041
40
0.368423147839292
40
0.50006856877217
40
0.631702599994017
40
0.760590897046792
40
1
40
1
40
1
40
1
41
1
10
-1.2950399779393
20
13.8302940816553
30
0
41
1
10
-1.32110931867845
20
13.8298919923656
30
0
41
1
10
-1.35883875167471
20
13.836061735814
30
0
41
1
10
-1.40627575243263
20
13.8590956573794
30
0
41
1
10
-1.43886250822766
20
13.8842522172702
30
0
41
1
10
-1.46563495915862
20
13.9155206245989
30
0
41
1
10
-1.49103211526082
20
13.9617199113165
30
0
41
1
10
-1.49909125765302
20
13.9990780059697
30
0
41
1
10
-1.5
20
14.0251257319931
30
0
0
SPLINE
5
127
100
AcDbEntity
8
SK1
62
256
6
ByLayer
370
13
48
1
60
0
100
AcDbSpline
70
4
71
2
72
6
73
3
40
0
40
0
40
0
40
1
40
1
40
1
41
1
10
-24
20
-12.6317665440291
30
0
41
1
10
-23.2499989214096
20
-13.0645640769691
30
0
41
1
10
-22.5
20
-13.4973543128463
30
0
0
SPLINE
5
128
100
AcDbEntity
8
SK1
62
256
6
ByLayer
370
13
48
1
60
0
100
AcDbSpline
70
4
71
2
72
6
73
3
40
0
40
0
40
0
40
1
40
1
40
1
41
1
10
-22.5
20
13.4973544658104
30
0
41
1
10
-23.2499989213513
20
13.0645642295315
30
0
41
1
10
-24
20
12.6317666961723
30
0
0
SPLINE
5
129
100
AcDbEntity
8
SK1
62
256
6
ByLayer
370
13
48
1
60
0
100
AcDbSpline
70
4
71
2
72
6
73
3
40
0
40
0
40
0
40
1
40
1
40
1
41
1
10
-1.5
20
14.0208013164368
30
0
41
1
10
-11.9999999937702
20
13.7572106057466
30
0
41
1
10
-22.5
20
13.493617102966
30
0
0
SPLINE
5
12A
100
AcDbEntity
8
SK1
62
256
6
ByLayer
370
13
48
1
60
0
100
AcDbSpline
70
4
71
2
72
6
73
3
40
0
40
0
40
0
40
1
40
1
40
1
41
1
10
-22.5
20
-13.4936168969067
30
0
41
1
10
-11.9999999937704
20
-13.757210398744
30
0
41
1
10
-1.5
20
-14.0208011084547
30
0
0
SPLINE
5
12B
100
AcDbEntity
8
SK1
62
256
6
ByLayer
370
13
48
1
60
0
100
AcDbSpline
70
4
71
3
72
19
73
15
40
0
40
0
40
0
40
0
40
0.0117800159485355
40
0.0776708759323392
40
0.143561735916143
40
0.209452595899946
40
0.341234315867554
40
0.473016035835161
40
0.604797755802769
40
0.736579475770376
40
0.80247033575418
40
0.868361195737983
40
0.934252055721787
40
1
40
1
40
1
40
1
41
1
10
-1.5
20
3.74103849234882
30
0
41
1
10
-1.5
20
3.8151774463999
30
0
41
1
10
-1.5
20
4.30166817802163
30
0
41
1
10
-1.5
20
5.17209555078495
30
0
41
1
10
-1.5
20
6.30227096604656
30
0
41
1
10
-1.5
20
7.71718790760852
30
0
41
1
10
-1.5
20
9.31264866297752
30
0
41
1
10
-1.5
20
10.9411050943729
30
0
41
1
10
-1.5
20
12.268361040649
30
0
41
1
10
-1.5
20
13.1031845097078
30
0
41
1
10
-1.5
20
13.5878912371465
30
0
41
1
10
-1.5
20
13.8526759849258
30
0
41
1
10
-1.49999999999997
20
14.0089348832069
30
0
41
1
10
-1.5
20
14.0323118145736
30
0
41
1
10
-1.50000000000003
20
14.0207801246834
30
0
0
SPLINE
5
12C
100
AcDbEntity
8
SK1
62
256
6
ByLayer
370
13
48
1
60
0
100
AcDbSpline
70
4
71
3
72
19
73
15
40
0
40
0
40
0
40
0
40
0.0657488405576113
40
0.131639645493516
40
0.197530450429421
40
0.263421255365325
40
0.395202865237134
40
0.526984475108944
40
0.658766084980753
40
0.790547694852562
40
0.856438499788466
40
0.922329304724371
40
0.988220109660276
40
1
40
1
40
1
40
1
41
1
10
-1.49999999999994
20
-14.0207795517315
30
0
41
1
10
-1.49999999999997
20
-14.032312073001
30
0
41
1
10
-1.5
20
-14.0089351370117
30
0
41
1
10
-1.5
20
-13.8526757395093
30
0
41
1
10
-1.5
20
-13.5878913365204
30
0
41
1
10
-1.5
20
-13.1031838925468
30
0
41
1
10
-1.5
20
-12.2683613692996
30
0
41
1
10
-1.5
20
-10.9411047485551
30
0
41
1
10
-1.5
20
-9.31264880772019
30
0
41
1
10
-1.5
20
-7.71718805595961
30
0
41
1
10
-1.5
20
-6.3022710896997
30
0
41
1
10
-1.5
20
-5.17209546861977
30
0
41
1
10
-1.5
20
-4.30166905260165
30
0
41
1
10
-1.5
20
-3.81517906515356
30
0
41
1
10
-1.5
20
-3.74104084360408
30
0
0
SPLINE
5
12D
100
AcDbEntity
8
SK1
62
256
6
ByLayer
370
13
48
1
60
0
100
AcDbSpline
70
4
71
3
72
37
73
33
40
0
40
0
40
0
40
0
40
0.0163924350984116
40
0.044839935653084
40
0.0732874362077564
40
0.101734936762429
40
0.158629937871774
40
0.215524938981119
40
0.272419940090464
40
0.329314941199808
40
0.357762441754481
40
0.386209942309153
40
0.414657442863826
40
0.443104943418498
40
0.471552443973171
40
0.485776194250507
40
0.499999944527843
40
0.514223694805179
40
0.528447445082515
40
0.556894945637188
40
0.58534244619186
40
0.613789946746533
40
0.642237447301205
40
0.670684947855878
40
0.727579948965223
40
0.784474950074567
40
0.841369951183912
40
0.898264952293257
40
0.92671245284793
40
0.955159953402602
40
0.983607453957274
40
1
40
1
40
1
40
1
41
1
10
-22.5
20
13.4958665389528
30
0
41
1
10
-22.5
20
13.4916417605273
30
0
41
1
10
-22.5
20
13.4608394101221
30
0
41
1
10
-22.5
20
13.3308795934982
30
0
41
1
10
-22.5
20
13.0738789920944
30
0
41
1
10
-22.5
20
12.6015908597962
30
0
41
1
10
-22.5
20
11.7892998835215
30
0
41
1
10
-22.5
20
10.4950931885591
30
0
41
1
10
-22.5
20
8.90791043028716
30
0
41
1
10
-22.5
20
7.35788825135677
30
0
41
1
10
-22.5
20
5.98264719956151
30
0
41
1
10
-22.5
20
4.89022238185547
30
0
41
1
10
-22.5
20
3.73751305004356
30
0
41
1
10
-22.5
20
2.52988134516511
30
0
41
1
10
-22.5
20
1.48826022368627
30
0
41
1
10
-22.5
20
0.637225639727433
30
0
41
1
10
-22.5
20
-1.01300202E-07
30
0
41
1
10
-22.5
20
-0.637225663005381
30
0
41
1
10
-22.5
20
-1.48826017841196
30
0
41
1
10
-22.5
20
-2.52988151772914
30
0
41
1
10
-22.5
20
-3.73751327283387
30
0
41
1
10
-22.5
20
-4.89022224945151
30
0
41
1
10
-22.5
20
-5.9826473836882
30
0
41
1
10
-22.5
20
-7.35788839712222
30
0
41
1
10
-22.5
20
-8.90791053296303
30
0
41
1
10
-22.5
20
-10.4950928592068
30
0
41
1
10
-22.5
20
-11.7893001827952
30
0
41
1
10
-22.5
20
-12.6015902509941
30
0
41
1
10
-22.5
20
-13.0738790940805
30
0
41
1
10
-22.5
20
-13.3308793310681
30
0
41
1
10
-22.5
20
-13.4608391521407
30
0
41
1
10
-22.5
20
-13.4916416842114
30
0
41
1
10
-22.5
20
-13.4958664608643
30
0
0
SPLINE
5
12E
100
AcDbEntity
8
SK1
62
256
6
ByLayer
370
13
48
1
60
0
100
AcDbSpline
70
4
71
3
72
37
73
33
40
0
40
0
40
0
40
0
40
0.0168236523708768
40
0.0452457674879229
40
0.073667882604969
40
0.102089997722015
40
0.158934227956107
40
0.215778458190199
40
0.272622688424291
40
0.329466918658384
40
0.35788903377543
40
0.386311148892476
40
0.414733264009522
40
0.443155379126568
40
0.471577494243614
40
0.485788551802137
40
0.49999960936066
40
0.514210666919183
40
0.528421724477706
40
0.556843839594752
40
0.585265954711798
40
0.613688069828844
40
0.64211018494589
40
0.670532300062937
40
0.727376530297029
40
0.784220760531121
40
0.841064990765213
40
0.897909220999305
40
0.926331336116351
40
0.954753451233397
40
0.983175566350443
40
1
40
1
40
1
40
1
41
1
10
-24
20
12.6305823179199
30
0
41
1
10
-24
20
12.6268224942353
30
0
41
1
10
-24
20
12.5979798317977
30
0
41
1
10
-24
20
12.4743692733745
30
0
41
1
10
-24
20
12.2301460729139
30
0
41
1
10
-24
20
11.778242625282
30
0
41
1
10
-24
20
11.0029379389178
30
0
41
1
10
-24
20
9.76298042100555
30
0
41
1
10
-24
20
8.24354693727892
30
0
41
1
10
-24
20
6.76811057436947
30
0
41
1
10
-24
20
5.4579960922546
30
0
41
1
10
-24
20
4.4275375451636
30
0
41
1
10
-24
20
3.35000208235886
30
0
41
1
10
-24
20
2.23771697460674
30
0
41
1
10
-24
20
1.30515943417129
30
0
41
1
10
-24
20
0.551100895559614
30
0
41
1
10
-24
20
-2.454147534E-07
30
0
41
1
10
-24
20
-0.551100854738877
30
0
41
1
10
-24
20
-1.30515932004786
30
0
41
1
10
-24
20
-2.23771741989395
30
0
41
1
10
-24
20
-3.35000222974921
30
0
41
1
10
-24
20
-4.42753733029454
30
0
41
1
10
-24
20
-5.4579963756465
30
0
41
1
10
-24
20
-6.76811071589074
30
0
41
1
10
-24
20
-8.24354697090368
30
0
41
1
10
-24
20
-9.76298011868087
30
0
41
1
10
-24
20
-11.0029381899705
30
0
41
1
10
-24
20
-11.7782420302007
30
0
41
1
10
-24
20
-12.230146179188
30
0
41
1
10
-24
20
-12.4743689830171
30
0
41
1
10
-24
20
-12.5979807007763
30
0
41
1
10
-24
20
-12.6268232682196
30
0
41
1
10
-24
20
-12.6305826819785
30
0
0
SPLINE
5
12F
100
AcDbEntity
8
SK1
62
256
6
ByLayer
370
13
48
1
60
0
100
AcDbSpline
70
4
71
3
72
19
73
15
40
0
40
0
40
0
40
0
40
0.0085932823222186
40
0.0758298667619196
40
0.143066451201621
40
0.210303035641321
40
0.344776204520723
40
0.479249373400125
40
0.613722542279527
40
0.748195711158929
40
0.81543229559863
40
0.882668880038331
40
0.949905464478032
40
1
40
1
40
1
40
1
41
1
10
-1.2950399779393
20
3.7203990478676
30
0
41
1
10
-1.2950399779393
20
3.77241114920025
30
0
41
1
10
-1.2950399779393
20
4.22989754380339
30
0
41
1
10
-1.2950399779393
20
5.06796043045176
30
0
41
1
10
-1.2950399779393
20
6.18418927877329
30
0
41
1
10
-1.2950399779393
20
7.5844483741455
30
0
41
1
10
-1.2950399779393
20
9.16312231847047
30
0
41
1
10
-1.2950399779393
20
10.7763306191778
30
0
41
1
10
-1.2950399779393
20
12.0913768621482
30
0
41
1
10
-1.2950399779393
20
12.9178759353221
30
0
41
1
10
-1.2950399779393
20
13.3979947415187
30
0
41
1
10
-1.2950399779393
20
13.6599037171108
30
0
41
1
10
-1.29503997793932
20
13.8012845430734
30
0
41
1
10
-1.29503997793932
20
13.8302525076969
30
0
41
1
10
-1.29503997793932
20
13.8302940477948
30
0
0
SPLINE
5
130
100
AcDbEntity
8
SK1
62
256
6
ByLayer
370
13
48
1
60
0
100
AcDbSpline
70
4
71
3
72
19
73
15
40
0
40
0
40
0
40
0
40
0.0503159595878314
40
0.117536879481418
40
0.184757799375006
40
0.251978719268593
40
0.386420559055767
40
0.520862398842941
40
0.655304238630115
40
0.78974607841729
40
0.856966998310877
40
0.924187918204464
40
0.991408838098051
40
1
40
1
40
1
40
1
41
1
10
-1.2950399779393
20
-13.830293715786
30
0
41
1
10
-1.2950399779393
20
-13.8303672169365
30
0
41
1
10
-1.29503997793927
20
-13.8014626639714
30
0
41
1
10
-1.2950399779393
20
-13.6599034654089
30
0
41
1
10
-1.2950399779393
20
-13.3979948418576
30
0
41
1
10
-1.2950399779393
20
-12.9178753212493
30
0
41
1
10
-1.2950399779393
20
-12.0913771799457
30
0
41
1
10
-1.2950399779393
20
-10.776330279443
30
0
41
1
10
-1.2950399779393
20
-9.16312244767201
30
0
41
1
10
-1.2950399779393
20
-7.58444852154136
30
0
41
1
10
-1.2950399779393
20
-6.18418942476774
30
0
41
1
10
-1.2950399779393
20
-5.06796032972639
30
0
41
1
10
-1.2950399779393
20
-4.22989838673786
30
0
41
1
10
-1.2950399779393
20
-3.77241274607559
30
0
41
1
10
-1.2950399779393
20
-3.72040136698692
30
0
0
SPLINE
5
131
100
AcDbEntity
8
SK1
62
256
6
ByLayer
370
13
48
1
60
0
100
AcDbSpline
70
4
71
3
72
17
73
13
40
0
40
0
40
0
40
0
40
0.0235160389356007
40
0.103597714572063
40
0.183679390208526
40
0.34384274148145
40
0.504006092754375
40
0.6641694440273
40
0.824332795300225
40
0.904414470936687
40
0.984496146573149
40
1
40
1
40
1
40
1
41
1
10
-0.194976888875288
20
4.73091688957584
30
0
41
1
10
-0.194976888875288
20
4.84547062718622
30
0
41
1
10
-0.194976888875288
20
5.34600749760219
30
0
41
1
10
-0.194976888875288
20
6.20093243629222
30
0
41
1
10
-0.194976888875288
20
7.60326991175293
30
0
41
1
10
-0.194976888875288
20
9.18432410849502
30
0
41
1
10
-0.194976888875288
20
10.7996944875049
30
0
41
1
10
-0.194976888875288
20
12.1164719810225
30
0
41
1
10
-0.194976888875288
20
12.944151395321
30
0
41
1
10
-0.194976888875288
20
13.4249207366667
30
0
41
1
10
-0.19497688887526
20
13.6167267817313
30
0
41
1
10
-0.19497688887526
20
13.6955585825188
30
0
41
1
10
-0.19497688887526
20
13.7076578895408
30
0
0
SPLINE
5
132
100
AcDbEntity
8
SK1
62
256
6
ByLayer
370
13
48
1
60
0
100
AcDbSpline
70
4
71
3
72
17
73
13
40
0
40
0
40
0
40
0
40
0.0155039352978287
40
0.0955856091000574
40
0.175667282902286
40
0.335830630506744
40
0.495993978111201
40
0.656157325715659
40
0.816320673320116
40
0.896402347122345
40
0.976484020924574
40
1
40
1
40
1
40
1
41
1
10
-0.194976888875288
20
-13.7076577943813
30
0
41
1
10
-0.194976888875288
20
-13.6955584474243
30
0
41
1
10
-0.194976888875288
20
-13.616726715053
30
0
41
1
10
-0.194976888875288
20
-13.4249208368688
30
0
41
1
10
-0.194976888875288
20
-12.9441507808103
30
0
41
1
10
-0.194976888875288
20
-12.1164723003589
30
0
41
1
10
-0.194976888875288
20
-10.7996941469075
30
0
41
1
10
-0.194976888875288
20
-9.18432423990018
30
0
41
1
10
-0.194976888875288
20
-7.60327005928423
30
0
41
1
10
-0.194976888875288
20
-6.20093257911884
30
0
41
1
10
-0.194976888875288
20
-5.34600773234189
30
0
41
1
10
-0.194976888875288
20
-4.8454712206071
30
0
41
1
10
-0.194976888875288
20
-4.73091779437263
30
0
0
SPLINE
5
133
100
AcDbEntity
8
1
62
256
6
ByLayer
370
13
48
1
60
0
100
AcDbSpline
70
4
71
3
72
18
73
14
40
0
40
0
40
0
40
0
40
0.114772448699133
40
0.114772448699133
40
0.291817958959306
40
0.291817958959306
40
0.46886346921948
40
0.46886346921948
40
0.645908979479653
40
0.645908979479653
40
0.822954489739827
40
0.822954489739827
40
1
40
1
40
1
40
1
41
1
10
53.7766137064436
20
-13.296445951414
30
0
41
1
10
53.7669157657564
20
-13.2761876892466
30
0
41
1
10
53.7574167910074
20
-13.2563161768113
30
0
41
1
10
53.7338000672167
20
-13.2068243996155
30
0
41
1
10
53.7198485880423
20
-13.1775029549995
30
0
41
1
10
53.69382731988
20
-13.1225840989176
30
0
41
1
10
53.6817879576107
20
-13.0970535523298
30
0
41
1
10
53.6599484884822
20
-13.0504038931935
30
0
41
1
10
53.6501176609108
20
-13.0292125172972
30
0
41
1
10
53.6340863704538
20
-12.9941194604893
30
0
41
1
10
53.6276935434775
20
-12.9797950626961
30
0
41
1
10
53.6193256012758
20
-12.9600719760416
30
0
41
1
10
53.6172977660464
20
-12.9545735082522
30
0
41
1
10
53.6176339053175
20
-12.9538526552593
30
0
0
SPLINE
5
134
100
AcDbEntity
8
1
62
256
6
ByLayer
370
13
48
1
60
0
100
AcDbSpline
70
4
71
3
72
14
73
10
40
0
40
0
40
0
40
0
40
0.25
40
0.25
40
0.5
40
0.5
40
0.75
40
0.75
40
1
40
1
40
1
40
1
41
1
10
9.07679491924301
20
-5.85988980456983
30
0
41
1
10
9.11431735240393
20
-5.85988980456983
30
0
41
1
10
9.15016936613469
20
-5.87512340989375
30
0
41
1
10
9.20824291947466
20
-5.91826181931648
30
0
41
1
10
9.23214899512465
20
-5.94614793734991
30
0
41
1
10
9.27226224655598
20
-6.00567161829656
30
0
41
1
10
9.28852371889977
20
-6.03742672607481
30
0
41
1
10
9.31597445228957
20
-6.10231901184997
30
0
41
1
10
9.32721186043472
20
-6.13568757087515
30
0
41
1
10
9.33660254037835
20
-6.16973001948622
30
0
0
SPLINE
5
135
100
AcDbEntity
8
1
62
256
6
ByLayer
370
13
48
1
60
0
100
AcDbSpline
70
4
71
3
72
24
73
20
40
0
40
0
40
0
40
0
40
0.0624999999999986
40
0.0624999999999986
40
0.124999999999997
40
0.124999999999997
40
0.249999999999996
40
0.249999999999996
40
0.312499999999996
40
0.312499999999996
40
0.374999999999996
40
0.374999999999996
40
0.499999999999996
40
0.499999999999996
40
0.624999999999997
40
0.624999999999997
40
0.749999999999998
40
0.749999999999998
40
1
40
1
40
1
40
1
41
1
10
19.7139850617864
20
19.9963944360821
30
0
41
1
10
19.6344097478276
20
19.9956843382547
30
0
41
1
10
19.5557020663214
20
19.9948154422958
30
0
41
1
10
19.4018364787619
20
19.9926871134033
30
0
41
1
10
19.3266807406883
20
19.9914290954079
30
0
41
1
10
19.1064285792378
20
19.9869382536081
30
0
41
1
10
18.9665257090142
20
19.9829943657605
30
0
41
1
10
18.7670132362295
20
19.975023724974
30
0
41
1
10
18.702238131433
20
19.9720230605516
30
0
41
1
10
18.5762032340268
20
19.9652097405059
30
0
41
1
10
18.5147408975966
20
19.96138186526
30
0
41
1
10
18.3373331062387
20
19.9485843550066
30
0
41
1
10
18.2288739258493
20
19.9383598610136
30
0
41
1
10
18.0308726544905
20
19.9137821879875
30
0
41
1
10
17.9413325463846
20
19.8994311726742
30
0
41
1
10
17.7814204063124
20
19.8657446223096
30
0
41
1
10
17.7109450088404
20
19.8462817881271
30
0
41
1
10
17.5345468971936
20
19.7810346013831
30
0
41
1
10
17.4605600494303
20
19.7280459583218
30
0
41
1
10
17.4303191742212
20
19.6638614161111
30
0
0
SPLINE
5
136
100
AcDbEntity
8
1
62
256
6
ByLayer
370
13
48
1
60
0
100
AcDbSpline
70
4
71
3
72
14
73
10
40
0
40
0
40
0
40
0
40
0.25
40
0.25
40
0.5
40
0.5
40
0.75
40
0.75
40
1
40
1
40
1
40
1
41
1
10
9.07679491924301
20
19.1222825906924
30
0
41
1
10
9.11431735240393
20
19.1222825906924
30
0
41
1
10
9.15016936613469
20
19.117621045532
30
0
41
1
10
9.20824291947466
20
19.1043106800552
30
0
41
1
10
9.23214899512465
20
19.0956617404784
30
0
41
1
10
9.27226224655598
20
19.0770249518317
30
0
41
1
10
9.28852371889974
20
19.0670039094874
30
0
41
1
10
9.31597445228957
20
19.0463346141651
30
0
41
1
10
9.32721186043474
20
19.0356144845434
30
0
41
1
10
9.33660254037835
20
19.024574410132
30
0
0
SPLINE
5
137
100
AcDbEntity
8
1
62
256
6
ByLayer
370
13
48
1
60
0
100
AcDbSpline
70
4
71
3
72
8
73
4
40
0
40
0
40
0
40
0
40
1
40
1
40
1
40
1
41
1
10
24.2426406871193
20
-21.7959932109274
30
0
41
1
10
24.7730506389248
20
-22.2679467395409
30
0
41
1
10
25.3105779642991
20
-22.7255559595146
30
0
41
1
10
25.854251700516
20
-23.1707777428444
30
0
0
SPLINE
5
138
100
AcDbEntity
8
1
62
256
6
ByLayer
370
13
48
1
60
0
100
AcDbSpline
70
4
71
3
72
14
73
10
40
0
40
0
40
0
40
0
40
0.25
40
0.25
40
0.5
40
0.5
40
0.75
40
0.75
40
1
40
1
40
1
40
1
41
1
10
6.92320508075679
20
5.85988980456986
30
0
41
1
10
6.8856826475959
20
5.85988980456986
30
0
41
1
10
6.84983063386511
20
5.87512340989377
30
0
41
1
10
6.79175708052517
20
5.91826181931651
30
0
41
1
10
6.76785100487518
20
5.94614793734993
30
0
41
1
10
6.72773775344385
20
6.00567161829659
30
0
41
1
10
6.71147628110006
20
6.03742672607484
30
0
41
1
10
6.68402554771026
20
6.10231901185
30
0
41
1
10
6.67278813956511
20
6.13568757087515
30
0
41
1
10
6.66339745962148
20
6.1697300194862
30
0
0
SPLINE
5
139
100
AcDbEntity
8
1
62
256
6
ByLayer
370
13
48
1
60
0
100
AcDbSpline
70
4
71
3
72
14
73
10
40
0
40
0
40
0
40
0
40
0.25
40
0.25
40
0.5
40
0.5
40
0.75
40
0.75
40
1
40
1
40
1
40
1
41
1
10
6.66339745962145
20
19.024574410132
30
0
41
1
10
6.67279157843174
20
19.0356185274183
30
0
41
1
10
6.68411546052431
20
19.0464153092311
30
0
41
1
10
6.71161954962204
20
19.0670986798898
30
0
41
1
10
6.72774154010136
20
19.0770274497582
30
0
41
1
10
6.76786471768472
20
19.0956673725613
30
0
41
1
10
6.79136513419877
20
19.1042242696214
30
0
41
1
10
6.85031272404186
20
19.1177281115532
30
0
41
1
10
6.88563301332886
20
19.1222825906924
30
0
41
1
10
6.92320508075679
20
19.1222825906924
30
0
0
SPLINE
5
13A
100
AcDbEntity
8
1
62
256
6
ByLayer
370
13
48
1
60
0
100
AcDbSpline
70
4
71
3
72
14
73
10
40
0
40
0
40
0
40
0
40
0.25
40
0.25
40
0.5
40
0.5
40
0.75
40
0.75
40
1
40
1
40
1
40
1
41
1
10
9.33660254037838
20
6.1697300194862
30
0
41
1
10
9.32720842156809
20
6.13567510453166
30
0
41
1
10
9.31588453947552
20
6.10206728171786
30
0
41
1
10
9.28838045037779
20
6.03712755983074
30
0
41
1
10
9.27225845989847
20
6.00566371121252
30
0
41
1
10
9.23213528231511
20
5.94612987812221
30
0
41
1
10
9.20863486580103
20
5.91854200832111
30
0
41
1
10
9.14968727595794
20
5.87477627667485
30
0
41
1
10
9.11436698667097
20
5.85988980456983
30
0
41
1
10
9.07679491924301
20
5.85988980456983
30
0
0
SPLINE
5
13B
100
AcDbEntity
8
1
62
256
6
ByLayer
370
13
48
1
60
0
100
AcDbSpline
70
4
71
3
72
14
73
10
40
0
40
0
40
0
40
0
40
0.25
40
0.25
40
0.5
40
0.5
40
0.75
40
0.75
40
1
40
1
40
1
40
1
41
1
10
6.66339745962145
20
-6.16973001948622
30
0
41
1
10
6.67279157843174
20
-6.13567510453169
30
0
41
1
10
6.68411546052431
20
-6.10206728171786
30
0
41
1
10
6.71161954962204
20
-6.03712755983076
30
0
41
1
10
6.72774154010136
20
-6.00566371121255
30
0
41
1
10
6.76786471768472
20
-5.94612987812226
30
0
41
1
10
6.79136513419877
20
-5.91854200832114
30
0
41
1
10
6.85031272404186
20
-5.87477627667488
30
0
41
1
10
6.88563301332886
20
-5.85988980456989
30
0
41
1
10
6.92320508075679
20
-5.85988980456989
30
0
0
SPLINE
5
13C
100
AcDbEntity
8
1
62
256
6
ByLayer
370
13
48
1
60
0
100
AcDbSpline
70
4
71
3
72
10
73
6
40
0
40
0
40
0
40
0
40
0.5
40
0.5
40
1
40
1
40
1
40
1
41
1
10
22.2177709633599
20
-20.5749222468132
30
0
41
1
10
22.578108309744
20
-20.7182647685149
30
0
41
1
10
22.9287112895667
20
-20.8872299580008
30
0
41
1
10
23.6059202074179
20
-21.2883250252783
30
0
41
1
10
23.9326393045902
20
-21.5201570471043
30
0
41
1
10
24.2426406871193
20
-21.7959932109274
30
0
0
SPLINE
5
13D
100
AcDbEntity
8
1
62
256
6
ByLayer
370
13
48
1
60
0
100
AcDbSpline
70
4
71
3
72
22
73
18
40
0
40
0
40
0
40
0
40
0.125
40
0.125
40
0.25
40
0.25
40
0.375
40
0.375
40
0.5
40
0.5
40
0.625
40
0.625
40
0.75
40
0.75
40
0.875
40
0.875
40
1
40
1
40
1
40
1
41
1
10
27.0724203167346
20
-24.4063315363109
30
0
41
1
10
27.0326240808199
20
-24.358138802771
30
0
41
1
10
26.9893085304098
20
-24.3071375076095
30
0
41
1
10
26.8987834611745
20
-24.2030497730339
30
0
41
1
10
26.851403490423
20
-24.149746335903
30
0
41
1
10
26.7526218208885
20
-24.0408517939173
30
0
41
1
10
26.7007802475261
20
-23.9847984263553
30
0
41
1
10
26.5952534354704
20
-23.8729029552804
30
0
41
1
10
26.5417123845169
20
-23.8171927971522
30
0
41
1
10
26.4330287168516
20
-23.7062866113041
30
0
41
1
10
26.377436346787
20
-23.6506542050547
30
0
41
1
10
26.2671676305391
20
-23.5426279132468
30
0
41
1
10
26.2124845458035
20
-23.4902031346246
30
0
41
1
10
26.1041275738204
20
-23.3888143868412
30
0
41
1
10
26.0504833368823
20
-23.3399112717371
30
0
41
1
10
25.9487747216329
20
-23.2499544691172
30
0
41
1
10
25.900155042321
20
-23.208368610929
30
0
41
1
10
25.854251700516
20
-23.1707777428444
30
0
0
SPLINE
5
13E
100
AcDbEntity
8
1
62
256
6
ByLayer
370
13
48
1
60
0
100
AcDbSpline
70
4
71
3
72
8
73
4
40
0
40
0
40
0
40
0
40
1
40
1
40
1
40
1
41
1
10
19.7139108822545
20
20.0000049994457
30
0
41
1
10
19.7139110876104
20
19.9999950005543
30
0
41
1
10
19.7139357390808
20
19.9987947062802
30
0
41
1
10
19.7139850617864
20
19.9963944360821
30
0
0
SPLINE
5
13F
100
AcDbEntity
8
1
62
256
6
ByLayer
370
13
48
1
60
0
100
AcDbSpline
70
4
71
3
72
8
73
4
40
0
40
0
40
0
40
0
40
1
40
1
40
1
40
1
41
1
10
27.0724203167346
20
-24.4063315363109
30
0
41
1
10
27.0841626026914
20
-24.4205512946689
30
0
41
1
10
27.0959107512637
20
-24.4347616221714
30
0
41
1
10
27.1076647429936
20
-24.4489625501192
30
0
0
SPLINE
5
140
100
AcDbEntity
8
1
62
256
6
ByLayer
370
13
48
1
60
0
100
AcDbSpline
70
4
71
3
72
10
73
6
40
0
40
0
40
0
40
0
40
0.5
40
0.5
40
1
40
1
40
1
40
1
41
1
10
20.9883692336883
20
-20.23195313635
30
0
41
1
10
20.883846997411
20
-20.1553696120157
30
0
41
1
10
20.7697849463426
20
-20.0974066183429
30
0
41
1
10
20.5270536973746
20
-20.0187406578068
30
0
41
1
10
20.4038386671075
20
-19.9996260006446
30
0
41
1
10
20.2792076144253
20
-19.9993220799595
30
0
0
SPLINE
5
141
100
AcDbEntity
8
1
62
256
6
ByLayer
370
13
48
1
60
0
100
AcDbSpline
70
4
71
3
72
12
73
8
40
0
40
0
40
0
40
0
40
0.25
40
0.25
40
0.499999999999999
40
0.499999999999999
40
1
40
1
40
1
40
1
41
1
10
19.7139850617864
20
19.9963944360821
30
0
41
1
10
19.8484339011391
20
19.9488614447317
30
0
41
1
10
19.986375404351
20
19.899626070442
30
0
41
1
10
20.2655727879124
20
19.7994526620511
30
0
41
1
10
20.406381711436
20
19.7486781391129
30
0
41
1
10
20.8324161696923
20
19.594730564493
30
0
41
1
10
21.1212212669039
20
19.4899953130499
30
0
41
1
10
21.4150979665882
20
19.3834953491511
30
0
0
SPLINE
5
142
100
AcDbEntity
8
1
62
256
6
ByLayer
370
13
48
1
60
0
100
AcDbSpline
70
4
71
3
72
26
73
22
40
0
40
0
40
0
40
0
40
0.124999999999998
40
0.124999999999998
40
0.187499999999998
40
0.187499999999998
40
0.249999999999998
40
0.249999999999998
40
0.374999999999998
40
0.374999999999998
40
0.499999999999999
40
0.499999999999999
40
0.624999999999999
40
0.624999999999999
40
0.687499999999999
40
0.687499999999999
40
0.749999999999999
40
0.749999999999999
40
0.875
40
0.875
40
1
40
1
40
1
40
1
41
1
10
17.4303191742212
20
-19.6638614161111
30
0
41
1
10
17.4476113787126
20
-19.7005631392399
30
0
41
1
10
17.4794575812729
20
-19.7337917482335
30
0
41
1
10
17.5492081167533
20
-19.7787730224178
30
0
41
1
10
17.5762429202273
20
-19.7929927478198
30
0
41
1
10
17.6370819542732
20
-19.8195545039013
30
0
41
1
10
17.670907911346
20
-19.8319304026891
30
0
41
1
10
17.7824370385326
20
-19.8665563880051
30
0
41
1
10
17.8701384425155
20
-19.8863090743739
30
0
41
1
10
18.0726363663427
20
-19.9201436782704
30
0
41
1
10
18.1884559511658
20
-19.9342708711355
30
0
41
1
10
18.4404987809923
20
-19.9571075204141
30
0
41
1
10
18.5772047872424
20
-19.9659606627486
30
0
41
1
10
18.7981637729464
20
-19.9764208730693
30
0
41
1
10
18.8744774832844
20
-19.9794352493247
30
0
41
1
10
19.032538420002
20
-19.9846669840508
30
0
41
1
10
19.1145841473872
20
-19.9868885243314
30
0
41
1
10
19.3650598760996
20
-19.9924842712595
30
0
41
1
10
19.5387229653393
20
-19.9948456364966
30
0
41
1
10
19.8990660696123
20
-19.9980304361001
30
0
41
1
10
20.0857448234354
20
-19.998850308738
30
0
41
1
10
20.2792076144253
20
-19.9993220799595
30
0
0
SPLINE
5
143
100
AcDbEntity
8
1
62
256
6
ByLayer
370
13
48
1
60
0
100
AcDbSpline
70
4
71
3
72
26
73
22
40
0
40
0
40
0
40
0
40
0.062500000000001
40
0.062500000000001
40
0.125000000000002
40
0.125000000000002
40
0.187500000000003
40
0.187500000000003
40
0.250000000000004
40
0.250000000000004
40
0.375000000000003
40
0.375000000000003
40
0.500000000000003
40
0.500000000000003
40
0.625000000000002
40
0.625000000000002
40
0.750000000000001
40
0.750000000000001
40
0.875000000000001
40
0.875000000000001
40
1
40
1
40
1
40
1
41
1
10
25.3646720127665
20
-2.72795953717727
30
0
41
1
10
25.3723056848079
20
-2.68466683171232
30
0
41
1
10
25.3833633084369
20
-2.64149487416319
30
0
41
1
10
25.4110448752632
20
-2.55753728847486
30
0
41
1
10
25.4275823642431
20
-2.51683605176237
30
0
41
1
10
25.4653527550261
20
-2.43765801600571
30
0
41
1
10
25.4865912463317
20
-2.39918386497149
30
0
41
1
10
25.5334204754811
20
-2.32429742657843
30
0
41
1
10
25.5591144784522
20
-2.28780233604016
30
0
41
1
10
25.6404118672565
20
-2.18378082228702
30
0
41
1
10
25.7007721233211
20
-2.12061356793606
30
0
41
1
10
25.8322360036547
20
-2.00505455054935
30
0
41
1
10
25.9041453006183
20
-1.95225586575361
30
0
41
1
10
26.0543397831215
20
-1.86000248344229
30
0
41
1
10
26.1324263177663
20
-1.82045820336884
30
0
41
1
10
26.2942046372334
20
-1.75371237979331
30
0
41
1
10
26.378357602801
20
-1.726412635537
30
0
41
1
10
26.5504261948923
20
-1.68507421826723
30
0
41
1
10
26.6371259545693
20
-1.67124981596032
30
0
41
1
10
26.8118222369945
20
-1.65693921896272
30
0
41
1
10
26.9001077344104
20
-1.65647233864237
30
0
41
1
10
26.9884700331087
20
-1.66307466553499
30
0
0
SPLINE
5
144
100
AcDbEntity
8
1
62
256
6
ByLayer
370
13
48
1
60
0
100
AcDbSpline
70
4
71
3
72
14
73
10
40
0
40
0
40
0
40
0
40
0.25
40
0.25
40
0.5
40
0.5
40
0.75
40
0.75
40
1
40
1
40
1
40
1
41
1
10
9.33660254037838
20
-19.024574410132
30
0
41
1
10
9.32720842156809
20
-19.0356185274183
30
0
41
1
10
9.31588453947555
20
-19.0464153092311
30
0
41
1
10
9.28838045037779
20
-19.0670986798898
30
0
41
1
10
9.27225845989847
20
-19.0770274497582
30
0
41
1
10
9.23213528231511
20
-19.0956673725613
30
0
41
1
10
9.20863486580106
20
-19.1042242696214
30
0
41
1
10
9.14968727595797
20
-19.1177281115532
30
0
41
1
10
9.11436698667097
20
-19.1222825906924
30
0
41
1
10
9.07679491924301
20
-19.1222825906924
30
0
0
SPLINE
5
145
100
AcDbEntity
8
1
62
256
6
ByLayer
370
13
48
1
60
0
100
AcDbSpline
70
4
71
3
72
14
73
10
40
0
40
0
40
0
40
0
40
0.25
40
0.25
40
0.5
40
0.5
40
0.75
40
0.75
40
1
40
1
40
1
40
1
41
1
10
6.92320508075679
20
-19.1222825906924
30
0
41
1
10
6.8856826475959
20
-19.1222825906924
30
0
41
1
10
6.84983063386514
20
-19.117621045532
30
0
41
1
10
6.79175708052517
20
-19.1043106800552
30
0
41
1
10
6.76785100487518
20
-19.0956617404784
30
0
41
1
10
6.72773775344385
20
-19.0770249518317
30
0
41
1
10
6.71147628110006
20
-19.0670039094874
30
0
41
1
10
6.68402554771026
20
-19.0463346141651
30
0
41
1
10
6.67278813956511
20
-19.0356144845434
30
0
41
1
10
6.66339745962148
20
-19.024574410132
30
0
0
SPLINE
5
146
100
AcDbEntity
8
1
62
256
6
ByLayer
370
13
48
1
60
0
100
AcDbSpline
70
4
71
3
72
8
73
4
40
0
40
0
40
0
40
0
40
1
40
1
40
1
40
1
41
1
10
21.4150979665882
20
-20.3192626757023
30
0
41
1
10
21.2735234889821
20
-20.2849030837264
30
0
41
1
10
21.1312671398655
20
-20.2558357906331
30
0
41
1
10
20.9883692336917
20
-20.2319531363335
30
0
0
SPLINE
5
147
100
AcDbEntity
8
SK1
62
256
6
ByLayer
370
13
48
1
60
0
100
AcDbSpline
70
4
71
3
72
24
73
20
40
0
40
0
40
0
40
0
40
0.250000000000003
40
0.250000000000003
40
0.500000000000006
40
0.500000000000006
40
0.625000000000008
40
0.625000000000008
40
0.687500000000008
40
0.687500000000008
40
0.750000000000007
40
0.750000000000007
40
0.781250000000006
40
0.781250000000006
40
0.812500000000005
40
0.812500000000005
40
0.875000000000004
40
0.875000000000004
40
1
40
1
40
1
40
1
41
1
10
0
20
5.19904247847475
30
0
41
1
10
0
20
5.13991798133526
30
0
41
1
10
-0.0010271993469644
20
5.08033942715031
30
0
41
1
10
-0.0065757579187391
20
4.96054080438782
30
0
41
1
10
-0.0108643311123728
20
4.90029176740669
30
0
41
1
10
-0.0236200730230109
20
4.80894253399751
30
0
41
1
10
-0.028936877156184
20
4.77806478006377
30
0
41
1
10
-0.0407066608140951
20
4.73234583258207
30
0
41
1
10
-0.0452441485007284
20
4.71723437869241
30
0
41
1
10
-0.0569788500457378
20
4.68758636892454
30
0
41
1
10
-0.0640861685721745
20
4.67272737376825
30
0
41
1
10
-0.079678203439272
20
4.65443238786648
30
0
41
1
10
-0.085768102184403
20
4.64919001238707
30
0
41
1
10
-0.099203696178904
20
4.64289112047186
30
0
41
1
10
-0.106496305898048
20
4.642009434648
30
0
41
1
10
-0.126718390231019
20
4.6452117613353
30
0
41
1
10
-0.13795640507783
20
4.65363769103374
30
0
41
1
10
-0.16730985984907
20
4.68209522817247
30
0
41
1
10
-0.181724805015762
20
4.70597408521064
30
0
41
1
10
-0.194976888875288
20
4.73091688957584
30
0
0
SPLINE
5
148
100
AcDbEntity
8
SK1
62
256
6
ByLayer
370
13
48
1
60
0
100
AcDbSpline
70
4
71
3
72
8
73
4
40
0
40
0
40
0
40
0
40
1
40
1
40
1
40
1
41
1
10
-1.31543506509496
20
-3.62586927327723
30
0
41
1
10
-1.30850489189845
20
-3.65726626185145
30
0
41
1
10
-1.30170669836545
20
-3.68878446662453
30
0
41
1
10
-1.2950399779393
20
-3.72040136697777
30
0
0
SPLINE
5
149
100
AcDbEntity
8
SK1
62
256
6
ByLayer
370
13
48
1
60
0
100
AcDbSpline
70
4
71
3
72
24
73
20
40
0
40
0
40
0
40
0
40
0.124999999999995
40
0.124999999999995
40
0.187499999999993
40
0.187499999999993
40
0.218749999999992
40
0.218749999999992
40
0.249999999999991
40
0.249999999999991
40
0.312499999999992
40
0.312499999999992
40
0.374999999999993
40
0.374999999999993
40
0.499999999999994
40
0.499999999999994
40
0.749999999999997
40
0.749999999999997
40
1
40
1
40
1
40
1
41
1
10
-0.194976888875288
20
-4.73091779437263
30
0
41
1
10
-0.181759023003366
20
-4.70603943758587
30
0
41
1
10
-0.167121736492049
20
-4.68191965638593
30
0
41
1
10
-0.138071980266716
20
-4.65374788460656
30
0
41
1
10
-0.127026722096758
20
-4.64539973886849
30
0
41
1
10
-0.106908284493187
20
-4.64200959631734
30
0
41
1
10
-0.0996962261749559
20
-4.64277827605247
30
0
41
1
10
-0.0862619818830126
20
-4.6488508752478
30
0
41
1
10
-0.0801995055670659
20
-4.65394652868051
30
0
41
1
10
-0.0645682566100447
20
-4.67193073538644
30
0
41
1
10
-0.0573888750634808
20
-4.68671977025193
30
0
41
1
10
-0.0455700326682518
20
-4.71625390332343
30
0
41
1
10
-0.0409398521547928
20
-4.73154128042887
30
0
41
1
10
-0.0290907208361659
20
-4.77727520692935
30
0
41
1
10
-0.0237620488689458
20
-4.80805872759692
30
0
41
1
10
-0.0108817754122583
20
-4.89990802378622
30
0
41
1
10
-0.0065891238409677
20
-4.9603130658129
30
0
41
1
10
-0.0010266927355929
20
-5.08029085858178
30
0
41
1
10
0
20
-5.13983038566039
30
0
41
1
10
0
20
-5.19904292539422
30
0
0
SPLINE
5
14A
100
AcDbEntity
8
SK1
62
256
6
ByLayer
370
13
48
1
60
0
100
AcDbSpline
70
4
71
3
72
8
73
4
40
0
40
0
40
0
40
0
40
1
40
1
40
1
40
1
41
1
10
-1.2950399779393
20
3.72039904785845
30
0
41
1
10
-1.30170669741997
20
3.68878214845077
30
0
41
1
10
-1.30850489094851
20
3.65726394513939
30
0
41
1
10
-1.31543506509499
20
3.62586695867557
30
0
0
SPLINE
5
14B
100
AcDbEntity
8
SK1
62
256
6
ByLayer
370
13
48
1
60
0
100
AcDbSpline
70
4
71
3
72
26
73
22
40
0
40
0
40
0
40
0
40
0.125
40
0.125
40
0.25
40
0.25
40
0.3125
40
0.3125
40
0.375
40
0.375
40
0.5
40
0.5
40
0.5625
40
0.5625
40
0.625
40
0.625
40
0.75
40
0.75
40
0.875
40
0.875
40
1
40
1
40
1
40
1
41
1
10
-1.5
20
3.74103849235169
30
0
41
1
10
-1.55724748434997
20
3.44805071012755
30
0
41
1
10
-1.61233083363211
20
3.15054117437776
30
0
41
1
10
-1.71458384033605
20
2.54473020775274
30
0
41
1
10
-1.76189745783222
20
2.23650339873092
30
0
41
1
10
-1.82284987308205
20
1.76387759499636
30
0
41
1
10
-1.84152595227411
20
1.6041299948966
30
0
41
1
10
-1.87431342768332
20
1.28418769808513
30
0
41
1
10
-1.88846469772284
20
1.1238069162101
30
0
41
1
10
-1.92308566465232
20
0.641326699061437
30
0
41
1
10
-1.93548817078997
20
0.317867402761493
30
0
41
1
10
-1.93519461951652
20
-0.170341907464604
30
0
41
1
10
-1.93196306255706
20
-0.333580628756181
30
0
41
1
10
-1.91946994622293
20
-0.661046887314598
30
0
41
1
10
-1.91012236863139
20
-0.825403967341913
30
0
41
1
10
-1.8745213330595
20
-1.31045903149939
30
0
41
1
10
-1.84079938000994
20
-1.62657526651833
30
0
41
1
10
-1.76021771694678
20
-2.24755184252354
30
0
41
1
10
-1.71334340392124
20
-2.55240150930612
30
0
41
1
10
-1.61183218918171
20
-3.15317034197756
30
0
41
1
10
-1.55705664533133
20
-3.44902972676036
30
0
41
1
10
-1.5
20
-3.74104084360695
30
0
0
SPLINE
5
14C
100
AcDbEntity
8
SK1
62
256
6
ByLayer
370
13
48
1
60
0
100
AcDbSpline
70
4
71
3
72
30
73
26
40
0
40
0
40
0
40
0
40
0.250000000000001
40
0.250000000000001
40
0.375000000000001
40
0.375000000000001
40
0.500000000000001
40
0.500000000000001
40
0.562500000000001
40
0.562500000000001
40
0.625000000000002
40
0.625000000000002
40
0.687500000000002
40
0.687500000000002
40
0.718750000000002
40
0.718750000000002
40
0.750000000000001
40
0.750000000000001
40
0.812500000000001
40
0.812500000000001
40
0.875000000000001
40
0.875000000000001
40
0.9375
40
0.9375
40
1
40
1
40
1
40
1
41
1
10
-1.2950399779393
20
-3.72040136697782
30
0
41
1
10
-1.25840640710209
20
-3.89413595980682
30
0
41
1
10
-1.21629936589596
20
-4.06459511021947
30
0
41
1
10
-1.13915549524978
20
-4.31450875768886
30
0
41
1
10
-1.11108035534519
20
-4.3968435644924
30
0
41
1
10
-1.04776617390257
20
-4.55912631414702
30
0
41
1
10
-1.01277880613551
20
-4.63872476805545
30
0
41
1
10
-0.95166296247902
20
-4.75383781612527
30
0
41
1
10
-0.929820991181288
20
-4.79151524392103
30
0
41
1
10
-0.881609544972832
20
-4.86487670738103
30
0
41
1
10
-0.855122538463831
20
-4.90083058527387
30
0
41
1
10
-0.794880324501321
20
-4.96821421316903
30
0
41
1
10
-0.761508413542288
20
-4.99963413330704
30
0
41
1
10
-0.701564432759227
20
-5.03794156439713
30
0
41
1
10
-0.680359559773734
20
-5.04887048139278
30
0
41
1
10
-0.634220175193832
20
-5.06515232530705
30
0
41
1
10
-0.609861762989169
20
-5.07015956920048
30
0
41
1
10
-0.535047031959664
20
-5.07274398738173
30
0
41
1
10
-0.487179585974559
20
-5.05705181273518
30
0
41
1
10
-0.40597793938025
20
-5.00970375338076
30
0
41
1
10
-0.37233424389558
20
-4.97946834555205
30
0
41
1
10
-0.312256873186442
20
-4.91463867769693
30
0
41
1
10
-0.285637656681047
20
-4.87936307719201
30
0
41
1
10
-0.237218333257601
20
-4.80675076404313
30
0
41
1
10
-0.215341632256099
20
-4.76924783619904
30
0
41
1
10
-0.194976888875288
20
-4.73091779437263
30
0
0
SPLINE
5
14D
100
AcDbEntity
8
SK1
62
256
6
ByLayer
370
13
48
1
60
0
100
AcDbSpline
70
4
71
3
72
34
73
30
40
0
40
0
40
0
40
0
40
0.062499999999999
40
0.062499999999999
40
0.124999999999998
40
0.124999999999998
40
0.156249999999998
40
0.156249999999998
40
0.187499999999998
40
0.187499999999998
40
0.218749999999998
40
0.218749999999998
40
0.249999999999998
40
0.249999999999998
40
0.281249999999998
40
0.281249999999998
40
0.312499999999998
40
0.312499999999998
40
0.374999999999999
40
0.374999999999999
40
0.4375
40
0.4375
40
0.5
40
0.5
40
0.625
40
0.625
40
0.75
40
0.75
40
1
40
1
40
1
40
1
41
1
10
-0.194976888875288
20
4.73091688957584
30
0
41
1
10
-0.215465250340259
20
4.76947966937718
30
0
41
1
10
-0.237480232637466
20
4.80719917092912
30
0
41
1
10
-0.286229972146714
20
4.8801932584831
30
0
41
1
10
-0.31305884788236
20
4.91567614214463
30
0
41
1
10
-0.358663197153732
20
4.96462391957991
30
0
41
1
10
-0.374783512633456
20
4.98024488387148
30
0
41
1
10
-0.409727342270514
20
5.0094754334423
30
0
41
1
10
-0.428720604214391
20
5.02318258823186
30
0
41
1
10
-0.469423123321008
20
5.04645093128775
30
0
41
1
10
-0.491556172416097
20
5.05623964206532
30
0
41
1
10
-0.538678384281894
20
5.06914341702594
30
0
41
1
10
-0.563783200519794
20
5.07211641184111
30
0
41
1
10
-0.613311159851094
20
5.06961669133551
30
0
41
1
10
-0.638002082673324
20
5.0641470308492
30
0
41
1
10
-0.683666719690308
20
5.04731773380288
30
0
41
1
10
-0.705160937519764
20
5.03592083431187
30
0
41
1
10
-0.764550121947764
20
4.99705492498293
30
0
41
1
10
-0.79820798544489
20
4.964923446923
30
0
41
1
10
-0.858124421580982
20
4.89699213830349
30
0
41
1
10
-0.884609036123521
20
4.86068458482868
30
0
41
1
10
-0.933110275703854
20
4.78608485728151
30
0
41
1
10
-0.95490644134
20
4.74806346925317
30
0
41
1
10
-1.01567633012942
20
4.63251062610692
30
0
41
1
10
-1.05011163135774
20
4.55351034887852
30
0
41
1
10
-1.11244320272624
20
4.39292760281
30
0
41
1
10
-1.14019760535382
20
4.31130969426428
30
0
41
1
10
-1.21660417308041
20
4.06323985824142
30
0
41
1
10
-1.2585176671773
20
3.89360600952028
30
0
41
1
10
-1.2950399779393
20
3.72039904785848
30
0
0
SPLINE
5
14E
100
AcDbEntity
8
SK1
62
256
6
ByLayer
370
13
48
1
60
0
100
AcDbSpline
70
4
71
3
72
26
73
22
40
0
40
0
40
0
40
0
40
0.249999999999998
40
0.249999999999998
40
0.374999999999998
40
0.374999999999998
40
0.437499999999997
40
0.437499999999997
40
0.468749999999998
40
0.468749999999998
40
0.499999999999998
40
0.499999999999998
40
0.531249999999999
40
0.531249999999999
40
0.562499999999999
40
0.562499999999999
40
0.624999999999999
40
0.624999999999999
40
0.749999999999999
40
0.749999999999999
40
1
40
1
40
1
40
1
41
1
10
-1.31543506509303
20
3.62586695867489
30
0
41
1
10
-1.32971761923477
20
3.56116019235327
30
0
41
1
10
-1.34516646456859
20
3.49689042093741
30
0
41
1
10
-1.37364431239911
20
3.40440290910203
30
0
41
1
10
-1.38383798525703
20
3.37406688311771
30
0
41
1
10
-1.40364353496724
20
3.33207868200651
30
0
41
1
10
-1.41072514283147
20
3.31859061207552
30
0
41
1
10
-1.42526379567821
20
3.30340693736679
30
0
41
1
10
-1.43086082184991
20
3.29917312167228
30
0
41
1
10
-1.4439589708241
20
3.2992593858788
30
0
41
1
10
-1.45059820438001
20
3.30503460534987
30
0
41
1
10
-1.45990217700404
20
3.3197668187548
30
0
41
1
10
-1.46335641250451
20
3.32852610541974
30
0
41
1
10
-1.4691504567339
20
3.34612196648973
30
0
41
1
10
-1.47146223325808
20
3.35503033574091
30
0
41
1
10
-1.47757550626966
20
3.38191025101605
30
0
41
1
10
-1.48054427022109
20
3.40005047857039
30
0
41
1
10
-1.48806465152535
20
3.45465772164422
30
0
41
1
10
-1.49110959375224
20
3.49074764076886
30
0
41
1
10
-1.49809116546643
20
3.59862036304204
30
0
41
1
10
-1.49965682529739
20
3.66997432007483
30
0
41
1
10
-1.5
20
3.74103849235186
30
0
0
SPLINE
5
14F
100
AcDbEntity
8
SK1
62
256
6
ByLayer
370
13
48
1
60
0
100
AcDbSpline
70
4
71
3
72
26
73
22
40
0
40
0
40
0
40
0
40
0.250000000000002
40
0.250000000000002
40
0.375000000000002
40
0.375000000000002
40
0.437500000000001
40
0.437500000000001
40
0.468750000000001
40
0.468750000000001
40
0.500000000000001
40
0.500000000000001
40
0.531250000000001
40
0.531250000000001
40
0.5625
40
0.5625
40
0.624999999999999
40
0.624999999999999
40
0.750000000000001
40
0.750000000000001
40
1
40
1
40
1
40
1
41
1
10
-1.5
20
-3.74104084360695
30
0
41
1
10
-1.49965908956614
20
-3.67044554380541
30
0
41
1
10
-1.49809832061749
20
-3.59929444560643
30
0
41
1
10
-1.49121809128985
20
-3.49215245950578
30
0
41
1
10
-1.48821399571449
20
-3.45636874597795
30
0
41
1
10
-1.48091665186183
20
-3.40247212695516
30
0
41
1
10
-1.47801081208164
20
-3.38434993414256
30
0
41
1
10
-1.47206917840921
20
-3.35749016148279
30
0
41
1
10
-1.4698317662226
20
-3.34862200002638
30
0
41
1
10
-1.46434666083152
20
-3.33121948462264
30
0
41
1
10
-1.46109088950985
20
-3.32248842167024
30
0
41
1
10
-1.4523253328768
20
-3.30717153729881
30
0
41
1
10
-1.44617282535594
20
-3.30050924038582
30
0
41
1
10
-1.43303260920348
20
-3.29830678852309
30
0
41
1
10
-1.42709086361117
20
-3.30203908922004
30
0
41
1
10
-1.41218098731503
20
-3.3162312215228
30
0
41
1
10
-1.40482944325734
20
-3.32988016307314
30
0
41
1
10
-1.38470426580713
20
-3.37167538904211
30
0
41
1
10
-1.3743068202775
20
-3.40240736861543
30
0
41
1
10
-1.34539770598823
20
-3.49584599166167
30
0
41
1
10
-1.32983846036271
20
-3.56061502582528
30
0
41
1
10
-1.31543506509499
20
-3.62586927327723
30
0
0
SPLINE
5
150
100
AcDbEntity
8
1
62
256
6
ByLayer
370
13
48
1
60
0
100
AcDbSpline
70
4
71
3
72
20
73
16
40
0
40
0
40
0
40
0
40
0.125
40
0.125
40
0.1875
40
0.1875
40
0.249999999999999
40
0.249999999999999
40
0.499999999999999
40
0.499999999999999
40
0.625
40
0.625
40
0.750000000000001
40
0.750000000000001
40
1
40
1
40
1
40
1
41
1
10
32.0027050034482
20
-8.51073222660125
30
0
41
1
10
32.0440174868445
20
-8.5873184589382
30
0
41
1
10
32.0887245567551
20
-8.67421207416405
30
0
41
1
10
32.1608012021989
20
-8.81917206291354
30
0
41
1
10
32.1857353736259
20
-8.87008362629203
30
0
41
1
10
32.2368163952123
20
-8.97574736306154
30
0
41
1
10
32.2629782571552
20
-9.03052508483927
30
0
41
1
10
32.3968003778348
20
-9.31363933965952
30
0
41
1
10
32.5134050075899
20
-9.56930546086133
30
0
41
1
10
32.7020712824431
20
-9.99172417963899
30
0
41
1
10
32.767271529042
20
-10.1390848382703
30
0
41
1
10
32.9024130949462
20
-10.4468155453712
30
0
41
1
10
32.9712610697382
20
-10.6046942016995
30
0
41
1
10
33.1814929147967
20
-11.0893505210448
30
0
41
1
10
33.326562176467
20
-11.4271153280806
30
0
41
1
10
33.4767693771729
20
-11.7787887292849
30
0
0
SPLINE
5
151
100
AcDbEntity
8
1
62
256
6
ByLayer
370
13
48
1
60
0
100
AcDbSpline
70
4
71
2
72
6
73
3
40
0
40
0
40
0
40
1
40
1
40
1
41
1.02805999725224
10
39.7144423614751
20
-8.73290864195439
30
0
41
1.02805999725224
10
39.6171708965182
20
-9.28456253273168
30
0
41
1.02805999725224
10
39.5198994315614
20
-9.83621642350895
30
0
0
SPLINE
5
152
100
AcDbEntity
8
1
62
256
6
ByLayer
370
13
48
1
60
0
100
AcDbSpline
70
4
71
3
72
16
73
12
40
0
40
0
40
0
40
0
40
0.250000000000006
40
0.250000000000006
40
0.375000000000006
40
0.375000000000006
40
0.500000000000005
40
0.500000000000005
40
0.750000000000002
40
0.750000000000002
40
1
40
1
40
1
40
1
41
1
10
49.1448731399836
20
-12.829851395071
30
0
41
1
10
48.9745262350202
20
-12.7757572886306
30
0
41
1
10
48.8002686326384
20
-12.7155343412675
30
0
41
1
10
48.5343523945874
20
-12.613226386436
30
0
41
1
10
48.4449940993048
20
-12.577010200061
30
0
41
1
10
48.2653376575518
20
-12.4989793591768
30
0
41
1
10
48.1758892382368
20
-12.4573789301744
30
0
41
1
10
47.909692862164
20
-12.3266299341044
30
0
41
1
10
47.7343365660145
20
-12.2314972053688
30
0
41
1
10
47.3856197774749
20
-12.0300704437926
30
0
41
1
10
47.2122586156444
20
-11.923767700974
30
0
41
1
10
47.0395286876434
20
-11.8126195245892
30
0
0
SPLINE
5
153
100
AcDbEntity
8
1
62
256
6
ByLayer
370
13
48
1
60
0
100
AcDbSpline
70
4
71
3
72
8
73
4
40
0
40
0
40
0
40
0
40
1
40
1
40
1
40
1
41
1
10
33.6759545915759
20
-11.6765810348581
30
0
41
1
10
33.6110970926502
20
-11.713268749275
30
0
41
1
10
33.5446861492176
20
-11.7473432182936
30
0
41
1
10
33.4767693771717
20
-11.7787887292826
30
0
0
SPLINE
5
154
100
AcDbEntity
8
1
62
256
6
ByLayer
370
13
48
1
60
0
100
AcDbSpline
70
4
71
3
72
8
73
4
40
0
40
0
40
0
40
0
40
1
40
1
40
1
40
1
41
1
10
47.823047350346
20
-22.2924113818144
30
0
41
1
10
47.7076546836652
20
-22.2925042498775
30
0
41
1
10
47.5924954642537
20
-22.2902632303985
30
0
41
1
10
47.4775903098278
20
-22.2854821978958
30
0
0
SPLINE
5
155
100
AcDbEntity
8
1
62
256
6
ByLayer
370
13
48
1
60
0
100
AcDbSpline
70
4
71
3
72
18
73
14
40
0
40
0
40
0
40
0
40
0.125
40
0.125
40
0.249999999999999
40
0.249999999999999
40
0.499999999999999
40
0.499999999999999
40
0.625
40
0.625
40
0.75
40
0.75
40
1
40
1
40
1
40
1
41
1
10
32.364585402941
20
-12.033563384458
30
0
41
1
10
32.2390089027219
20
-11.9273519814428
30
0
41
1
10
32.1153741838613
20
-11.8230224062746
30
0
41
1
10
31.872039345547
20
-11.6182882446712
30
0
41
1
10
31.7520412273023
20
-11.5176354377388
30
0
41
1
10
31.4015673830596
20
-11.2248021527599
30
0
41
1
10
31.1798366267557
20
-11.0410661924385
30
0
41
1
10
30.8660273543548
20
-10.7844165505019
30
0
41
1
10
30.7645726133382
20
-10.7020445201542
30
0
41
1
10
30.5683654390675
20
-10.5442407363573
30
0
41
1
10
30.4748003377025
20
-10.4697675565654
30
0
41
1
10
30.209182364174
20
-10.2610996045773
30
0
41
1
10
30.0514398272504
20
-10.1409814441788
30
0
41
1
10
29.9146292326254
20
-10.0424297451092
30
0
0
SPLINE
5
156
100
AcDbEntity
8
1
62
256
6
ByLayer
370
13
48
1
60
0
100
AcDbSpline
70
4
71
3
72
22
73
18
40
0
40
0
40
0
40
0
40
0.0624999999999998
40
0.0624999999999998
40
0.125
40
0.125
40
0.249999999999999
40
0.249999999999999
40
0.374999999999999
40
0.374999999999999
40
0.499999999999999
40
0.499999999999999
40
0.749999999999998
40
0.749999999999998
40
0.874999999999999
40
0.874999999999999
40
1
40
1
40
1
40
1
41
1
10
39.7144423614751
20
-8.7329086419544
30
0
41
1
10
39.8788431353086
20
-8.76349024288842
30
0
41
1
10
40.0415583610334
20
-8.79971673131138
30
0
41
1
10
40.3654026764037
20
-8.87748166553348
30
0
41
1
10
40.5264619600376
20
-8.91925389112168
30
0
41
1
10
41.0078058252499
20
-9.0507125716772
30
0
41
1
10
41.3262765409759
20
-9.14647364925742
30
0
41
1
10
41.9593797299997
20
-9.35085004841665
30
0
41
1
10
42.2739703688364
20
-9.45960547327999
30
0
41
1
10
42.8991178512806
20
-9.69062547181375
30
0
41
1
10
43.2094065193186
20
-9.81283432536213
30
0
41
1
10
44.1291904500888
20
-10.2010622837496
30
0
41
1
10
44.7277973881798
20
-10.4911639997743
30
0
41
1
10
45.6095180771549
20
-10.9610478916785
30
0
41
1
10
45.9007327949072
20
-11.1235795651788
30
0
41
1
10
46.4757043996192
20
-11.4593325023118
30
0
41
1
10
46.7597646855359
20
-11.6325971103368
30
0
41
1
10
47.0395286876431
20
-11.8126195245889
30
0
0
SPLINE
5
157
100
AcDbEntity
8
1
62
256
6
ByLayer
370
13
48
1
60
0
100
AcDbSpline
70
4
71
3
72
8
73
4
40
0
40
0
40
0
40
0
40
1
40
1
40
1
40
1
41
1
10
49.1448731399757
20
-12.8298513950685
30
0
41
1
10
49.2544838751032
20
-12.8646585714845
30
0
41
1
10
49.3634646176045
20
-12.9019394747385
30
0
41
1
10
49.4718664922305
20
-12.9414933585623
30
0
0
SPLINE
5
158
100
AcDbEntity
8
1
62
256
6
ByLayer
370
13
48
1
60
0
100
AcDbSpline
70
4
71
3
72
8
73
4
40
0
40
0
40
0
40
0
40
1
40
1
40
1
40
1
41
1
10
32.3949042185997
20
-17.9143509343709
30
0
41
1
10
32.4478013412406
20
-17.9669610999496
30
0
41
1
10
32.4985653369448
20
-18.0216791622237
30
0
41
1
10
32.5471200044488
20
-18.0785201061878
30
0
0
SPLINE
5
159
100
AcDbEntity
8
1
62
256
6
ByLayer
370
13
48
1
60
0
100
AcDbSpline
70
4
71
3
72
30
73
26
40
0
40
0
40
0
40
0
40
0.125000000000002
40
0.125000000000002
40
0.250000000000004
40
0.250000000000004
40
0.375000000000006
40
0.375000000000006
40
0.437500000000006
40
0.437500000000006
40
0.500000000000006
40
0.500000000000006
40
0.625000000000004
40
0.625000000000004
40
0.687500000000004
40
0.687500000000004
40
0.750000000000003
40
0.750000000000003
40
0.812500000000002
40
0.812500000000002
40
0.875000000000001
40
0.875000000000001
40
0.937500000000001
40
0.937500000000001
40
1
40
1
40
1
40
1
41
1
10
29.4861203924815
20
-21.3544993018916
30
0
41
1
10
29.3813708495944
20
-21.2864475209548
30
0
41
1
10
29.287525979484
20
-21.2135794768683
30
0
41
1
10
29.1145874138446
20
-21.0578980454516
30
0
41
1
10
29.0362267101561
20
-20.9757349692923
30
0
41
1
10
28.890130215773
20
-20.7998928201882
30
0
41
1
10
28.8223651097045
20
-20.7061760082765
30
0
41
1
10
28.7265269797134
20
-20.5530200719513
30
0
41
1
10
28.6955721819095
20
-20.4998561039601
30
0
41
1
10
28.6355906348526
20
-20.3884590447303
30
0
41
1
10
28.6064692165762
20
-20.3300176011048
30
0
41
1
10
28.5229308901221
20
-20.1470892573601
30
0
41
1
10
28.4726991751504
20
-20.0161374870354
30
0
41
1
10
28.4079712095921
20
-19.8030632816204
30
0
41
1
10
28.3881881178064
20
-19.7292606215057
30
0
41
1
10
28.3529120882265
20
-19.5754046631024
30
0
41
1
10
28.3375005580688
20
-19.4955103241121
30
0
41
1
10
28.3123396339987
20
-19.3327441076751
30
0
41
1
10
28.3024850893279
20
-19.24945384106
30
0
41
1
10
28.2888094925383
20
-19.078762225327
30
0
41
1
10
28.2850035876392
20
-18.9907085585372
30
0
41
1
10
28.2841261830061
20
-18.8142466528572
30
0
41
1
10
28.2869910475792
20
-18.7257074935285
30
0
41
1
10
28.2993376470852
20
-18.5479000926455
30
0
41
1
10
28.3088224766405
20
-18.4586371186949
30
0
41
1
10
28.3216313614901
20
-18.3688616894171
30
0
0
SPLINE
5
15A
100
AcDbEntity
8
1
62
256
6
ByLayer
370
13
48
1
60
0
100
AcDbSpline
70
4
71
3
72
8
73
4
40
0
40
0
40
0
40
0
40
1
40
1
40
1
40
1
41
1
10
50.7337195341194
20
-20.8893665559351
30
0
41
1
10
50.3834216089389
20
-21.0998467841031
30
0
41
1
10
50.0351310279521
20
-21.3091208781963
30
0
41
1
10
49.6888302233922
20
-21.5171993939939
30
0
0
SPLINE
5
15B
100
AcDbEntity
8
1
62
256
6
ByLayer
370
13
48
1
60
0
100
AcDbSpline
70
4
71
3
72
14
73
10
40
0
40
0
40
0
40
0
40
0.250000000000004
40
0.250000000000004
40
0.375000000000002
40
0.375000000000002
40
0.5
40
0.5
40
1
40
1
40
1
40
1
41
1
10
30.9473390013223
20
-7.58618195717108
30
0
41
1
10
31.1078487000204
20
-7.53528303466408
30
0
41
1
10
31.2665853342692
20
-7.49861256114721
30
0
41
1
10
31.5005649707969
20
-7.46077358913053
30
0
41
1
10
31.5781411213788
20
-7.45101448867348
30
0
41
1
10
31.7303184022395
20
-7.43679299012064
30
0
41
1
10
31.8047612846956
20
-7.43232054589251
30
0
41
1
10
32.1689037744079
20
-7.42110351910333
30
0
41
1
10
32.4345398121306
20
-7.44710604231287
30
0
41
1
10
32.6751834738955
20
-7.48953801261848
30
0
0
SPLINE
5
15C
100
AcDbEntity
8
1
62
256
6
ByLayer
370
13
48
1
60
0
100
AcDbSpline
70
4
71
3
72
16
73
12
40
0
40
0
40
0
40
0
40
0.25
40
0.25
40
0.500000000000001
40
0.500000000000001
40
0.625000000000001
40
0.625000000000001
40
0.750000000000001
40
0.750000000000001
40
1
40
1
40
1
40
1
41
1
10
32.3949042185997
20
-17.9143509343709
30
0
41
1
10
32.1337150947718
20
-18.1931869464048
30
0
41
1
10
31.880869806744
20
-18.462039564838
30
0
41
1
10
31.3931166515236
20
-18.9768969233376
30
0
41
1
10
31.1633576776447
20
-19.2174757731339
30
0
41
1
10
30.8405648335798
20
-19.550950238256
30
0
41
1
10
30.7365574000307
20
-19.6575865739393
30
0
41
1
10
30.5366850524829
20
-19.8604462914824
30
0
41
1
10
30.4424166859055
20
-19.955049127273
30
0
41
1
10
30.1766144261943
20
-20.2179345845286
30
0
41
1
10
30.0218462192336
20
-20.365643921845
30
0
41
1
10
29.8919956506047
20
-20.4811598058796
30
0
0
SPLINE
5
15D
100
AcDbEntity
8
1
62
256
6
ByLayer
370
13
48
1
60
0
100
AcDbSpline
70
4
71
3
72
8
73
4
40
0
40
0
40
0
40
0
40
1
40
1
40
1
40
1
41
1.0241704137769
10
50.9599066340042
20
-14.3080044343143
30
0
41
1.0223381109506
10
50.4480543299506
20
-13.7895035277934
30
0
41
1.02059843516864
10
49.9130176192259
20
-13.3115226049238
30
0
41
1.01923193626848
10
49.4719071179491
20
-12.9415274345663
30
0
0
SPLINE
5
15E
100
AcDbEntity
8
1
62
256
6
ByLayer
370
13
48
1
60
0
100
AcDbSpline
70
4
71
3
72
12
73
8
40
0
40
0
40
0
40
0
40
0.103595514297711
40
0.300483138573827
40
0.497370762849943
40
0.891146011402175
40
1
40
1
40
1
40
1
41
1.02076673234807
10
49.2394237400319
20
-17.089597250565
30
0
41
1.02005196006992
10
48.9986629049241
20
-17.0407018842902
30
0
41
1.01814069306383
10
48.3407891950643
20
-16.9135090477624
30
0
41
1.01610930227499
10
47.6039069342503
20
-16.7930877248144
30
0
41
1.01876555595691
10
46.0529089965809
20
-16.3364709437191
30
0
41
1.02173322384663
10
43.7667691021748
20
-15.698381158435
30
0
41
1.02394775681993
10
42.1633451956428
20
-15.2766374945439
30
0
41
1.02441262532194
10
41.8253095354633
20
-15.1890096502655
30
0
0
SPLINE
5
15F
100
AcDbEntity
8
1
62
256
6
ByLayer
370
13
48
1
60
0
100
AcDbSpline
70
4
71
3
72
28
73
24
40
0
40
0
40
0
40
0
40
0.0624999999999991
40
0.0624999999999991
40
0.124999999999998
40
0.124999999999998
40
0.187499999999998
40
0.187499999999998
40
0.249999999999997
40
0.249999999999997
40
0.374999999999996
40
0.374999999999996
40
0.437499999999996
40
0.437499999999996
40
0.499999999999996
40
0.499999999999996
40
0.624999999999996
40
0.624999999999996
40
0.749999999999995
40
0.749999999999995
40
0.874999999999998
40
0.874999999999998
40
1
40
1
40
1
40
1
41
1
10
29.8045967644824
20
-9.95854696030455
30
0
41
1
10
29.8232207220615
20
-9.87001692092235
30
0
41
1
10
29.8450213126114
20
-9.78203195621063
30
0
41
1
10
29.8949790142233
20
-9.60846148148013
30
0
41
1
10
29.9227668252341
20
-9.52406805198714
30
0
41
1
10
29.9837173583724
20
-9.35956389349124
30
0
41
1
10
30.0168792901697
20
-9.2794588792398
30
0
41
1
10
30.08836159903
20
-9.1233179678508
30
0
41
1
10
30.1265658368068
20
-9.04763974854495
30
0
41
1
10
30.2452257388308
20
-8.83197610872929
30
0
41
1
10
30.3305991882034
20
-8.70122131622514
30
0
41
1
10
30.4654675420939
20
-8.52151979078064
30
0
41
1
10
30.5113566324752
20
-8.46469515157608
30
0
41
1
10
30.6033976721854
20
-8.35797997853791
30
0
41
1
10
30.6497450181473
20
-8.30782665795363
30
0
41
1
10
30.7896411997095
20
-8.1657415322685
30
0
41
1
10
30.8842084512167
20
-8.08192963244159
30
0
41
1
10
31.0758140370981
20
-7.93248835529724
30
0
41
1
10
31.1719633026374
20
-7.86746911584763
30
0
41
1
10
31.3694874234376
20
-7.75235835745985
30
0
41
1
10
31.4708732797334
20
-7.70226935005346
30
0
41
1
10
31.6850148957082
20
-7.61585018573561
30
0
41
1
10
31.7977633552845
20
-7.57948916110894
30
0
41
1
10
31.9200067180281
20
-7.55124403280234
30
0
0
SPLINE
5
160
100
AcDbEntity
8
1
62
256
6
ByLayer
370
13
48
1
60
0
100
AcDbSpline
70
4
71
3
72
24
73
20
40
0
40
0
40
0
40
0
40
0.124999999999998
40
0.124999999999998
40
0.249999999999997
40
0.249999999999997
40
0.374999999999995
40
0.374999999999995
40
0.499999999999993
40
0.499999999999993
40
0.624999999999992
40
0.624999999999992
40
0.687499999999992
40
0.687499999999992
40
0.749999999999993
40
0.749999999999993
40
0.874999999999996
40
0.874999999999996
40
1
40
1
40
1
40
1
41
1
10
47.7164971491645
20
-19.5187785887804
30
0
41
1
10
47.7878507320206
20
-19.6328154439239
30
0
41
1
10
47.8615850251158
20
-19.7449554407278
30
0
41
1
10
48.0194183226403
20
-19.9609772310445
30
0
41
1
10
48.1036611822784
20
-20.0647444062606
30
0
41
1
10
48.2855858363764
20
-20.2615711303832
30
0
41
1
10
48.3834158765972
20
-20.3550405853014
30
0
41
1
10
48.593272112881
20
-20.5280022277869
30
0
41
1
10
48.7049747222759
20
-20.6073245350782
30
0
41
1
10
48.9448787172589
20
-20.748535114373
30
0
41
1
10
49.0730314365292
20
-20.810474811421
30
0
41
1
10
49.2813812364484
20
-20.8863498075375
30
0
41
1
10
49.3537865312531
20
-20.9088414487005
30
0
41
1
10
49.5038677261628
20
-20.9467441749963
30
0
41
1
10
49.5811233188281
20
-20.9620728624901
30
0
41
1
10
49.8203881718049
20
-20.9957956507434
30
0
41
1
10
49.9901385565663
20
-21.0015289642718
30
0
41
1
10
50.353810393937
20
-20.9734632534696
30
0
41
1
10
50.5415463789005
20
-20.9402714443631
30
0
41
1
10
50.7337195341194
20
-20.8893665559351
30
0
0
SPLINE
5
161
100
AcDbEntity
8
1
62
256
6
ByLayer
370
13
48
1
60
0
100
AcDbSpline
70
4
71
3
72
10
73
6
40
0
40
0
40
0
40
0
40
0.5
40
0.5
40
1
40
1
40
1
40
1
41
1
10
31.6684378983428
20
-11.9829840196141
30
0
41
1
10
31.7791853557832
20
-12.0025117844057
30
0
41
1
10
31.8934044667291
20
-12.0171513689832
30
0
41
1
10
32.1263527779295
20
-12.0345964354024
30
0
41
1
10
32.2446289106213
20
-12.0374081527933
30
0
41
1
10
32.364585402941
20
-12.033563384458
30
0
0
SPLINE
5
162
100
AcDbEntity
8
1
62
256
6
ByLayer
370
13
48
1
60
0
100
AcDbSpline
70
4
71
3
72
16
73
12
40
0
40
0
40
0
40
0
40
0.250000000000006
40
0.250000000000006
40
0.375000000000005
40
0.375000000000005
40
0.500000000000004
40
0.500000000000004
40
0.750000000000002
40
0.750000000000002
40
1
40
1
40
1
40
1
41
1
10
45.1512998735934
20
-22.5212972689893
30
0
41
1
10
45.3518905332623
20
-22.4758697679358
30
0
41
1
10
45.5520478713859
20
-22.4350754096292
30
0
41
1
10
45.8518060983515
20
-22.3822335808935
30
0
41
1
10
45.9516501527352
20
-22.3660415385994
30
0
41
1
10
46.1512591929948
20
-22.3370787142933
30
0
41
1
10
46.2512880151129
20
-22.3242907824738
30
0
41
1
10
46.5471115007878
20
-22.2927304910079
30
0
41
1
10
46.7398451213951
20
-22.2817969160015
30
0
41
1
10
47.1159333865576
20
-22.2750960652341
30
0
41
1
10
47.2992832311388
20
-22.2780631056634
30
0
41
1
10
47.4775903098278
20
-22.2854821978958
30
0
0
SPLINE
5
163
100
AcDbEntity
8
1
62
256
6
ByLayer
370
13
48
1
60
0
100
AcDbSpline
70
4
71
3
72
8
73
4
40
0
40
0
40
0
40
0
40
1
40
1
40
1
40
1
41
1
10
52.7313630777782
20
-16.4955522888584
30
0
41
1
10
52.6716996825089
20
-16.431125174964
30
0
41
1
10
52.6097414697258
20
-16.370703722545
30
0
41
1
10
52.5454845834723
20
-16.3142946622703
30
0
0
SPLINE
5
164
100
AcDbEntity
8
1
62
256
6
ByLayer
370
13
48
1
60
0
100
AcDbSpline
70
4
71
3
72
14
73
10
40
0
40
0
40
0
40
0
40
0.250000000000001
40
0.250000000000001
40
0.375
40
0.375
40
0.499999999999999
40
0.499999999999999
40
1
40
1
40
1
40
1
41
1
10
28.5840611905163
20
-20.9889964403007
30
0
41
1
10
28.7186610043284
20
-21.0926307040476
30
0
41
1
10
28.8559408859771
20
-21.1816181388804
30
0
41
1
10
29.0630779940097
20
-21.2971387058839
30
0
41
1
10
29.1325443623203
20
-21.3327316461598
30
0
41
1
10
29.2704148817045
20
-21.3979213508625
30
0
41
1
10
29.3387072151098
20
-21.4274885691908
30
0
41
1
10
29.6764053259383
20
-21.5621497718425
30
0
41
1
10
29.9344289298292
20
-21.628412250155
30
0
41
1
10
30.1746497154917
20
-21.6707696559943
30
0
0
SPLINE
5
165
100
AcDbEntity
8
1
62
256
6
ByLayer
370
13
48
1
60
0
100
AcDbSpline
70
4
71
3
72
10
73
6
40
0
40
0
40
0
40
0
40
0.5
40
0.5
40
1
40
1
40
1
40
1
41
1
10
37.4091900787179
20
-21.8066440027873
30
0
41
1
10
37.4423203513468
20
-21.6187528899482
30
0
41
1
10
37.4897796024172
20
-21.3495981021799
30
0
41
1
10
37.6084508928856
20
-20.6765797700361
30
0
41
1
10
37.6796412423079
20
-20.2728392356251
30
0
41
1
10
37.7590073433899
20
-19.8227317094648
30
0
0
SPLINE
5
166
100
AcDbEntity
8
1
62
256
6
ByLayer
370
13
48
1
60
0
100
AcDbSpline
70
4
71
2
72
6
73
3
40
0
40
0
40
0
40
1
40
1
40
1
41
1.02805999725224
10
39.5198994315614
20
-9.83621642350895
30
0
41
0.930554445970897
10
39.4168779661658
20
-10.4204801872374
30
0
41
0.937301687733887
10
39.170082169855
20
-11.8201287000134
30
0
0
SPLINE
5
167
100
AcDbEntity
8
1
62
256
6
ByLayer
370
13
48
1
60
0
100
AcDbSpline
70
4
71
3
72
11
73
7
40
0
40
0
40
0
40
0
40
0.100258159504421
40
0.259036131356581
40
0.576592075060904
40
1
40
1
40
1
40
1
41
1.01774327987905
10
48.4231037690199
20
-15.5114133119328
30
0
41
1.01722454828226
10
48.2116211410649
20
-15.4637787142061
30
0
41
1.01635405201137
10
47.7095923685905
20
-15.3287122875721
30
0
41
1.01876555595691
10
46.4054137390999
20
-14.3694477747253
30
0
41
1.02349884684922
10
43.035500517502
20
-11.8214743333981
30
0
41
1.02767136955276
10
40.3403913526763
20
-10.0905972153986
30
0
41
1.02805999725224
10
39.5198994315614
20
-9.83621642350895
30
0
0
SPLINE
5
168
100
AcDbEntity
8
1
62
256
6
ByLayer
370
13
48
1
60
0
100
AcDbSpline
70
4
71
3
72
18
73
14
40
0
40
0
40
0
40
0
40
0.250000000000003
40
0.250000000000003
40
0.375000000000001
40
0.375000000000001
40
0.499999999999999
40
0.499999999999999
40
0.624999999999998
40
0.624999999999998
40
0.749999999999996
40
0.749999999999996
40
1
40
1
40
1
40
1
41
1
10
34.8802779971283
20
-19.4034477169801
30
0
41
1
10
34.6501068057561
20
-19.3628623257594
30
0
41
1
10
34.4262538620256
20
-19.3035594792438
30
0
41
1
10
34.0998927878521
20
-19.1863339974311
30
0
41
1
10
33.9924265618005
20
-19.1423770425346
30
0
41
1
10
33.7833330750187
20
-19.0459811885698
30
0
41
1
10
33.681410495227
20
-18.9934633451267
30
0
41
1
10
33.4826485392322
20
-18.8797832599375
30
0
41
1
10
33.3862273128246
20
-18.8188231611055
30
0
41
1
10
33.2008298504378
20
-18.6900908164695
30
0
41
1
10
33.1115461670211
20
-18.6221458237381
30
0
41
1
10
32.8533757652419
20
-18.4076643547384
30
0
41
1
10
32.6940920268183
20
-18.2505741829071
30
0
41
1
10
32.5471200044488
20
-18.0785201061878
30
0
0
SPLINE
5
169
100
AcDbEntity
8
1
62
256
6
ByLayer
370
13
48
1
60
0
100
AcDbSpline
70
4
71
3
72
14
73
10
40
0
40
0
40
0
40
0
40
0.25
40
0.25
40
0.5
40
0.5
40
0.75
40
0.75
40
1
40
1
40
1
40
1
41
1
10
31.4369312091374
20
-17.2945517486682
30
0
41
1
10
31.5212288846987
20
-17.3283294906168
30
0
41
1
10
31.6061408842154
20
-17.3665393221871
30
0
41
1
10
31.7742562220917
20
-17.4519859125311
30
0
41
1
10
31.8572578511543
20
-17.4990682902766
30
0
41
1
10
32.0208323042867
20
-17.603254885157
30
0
41
1
10
32.1015672394132
20
-17.6606360188319
30
0
41
1
10
32.2539314200666
20
-17.7818722370804
30
0
41
1
10
32.3263768185247
20
-17.8461952827091
30
0
41
1
10
32.3949042185997
20
-17.9143509343709
30
0
0
SPLINE
5
16A
100
AcDbEntity
8
1
62
256
6
ByLayer
370
13
48
1
60
0
100
AcDbSpline
70
4
71
3
72
26
73
22
40
0
40
0
40
0
40
0
40
0.062499999999998
40
0.062499999999998
40
0.124999999999996
40
0.124999999999996
40
0.249999999999994
40
0.249999999999994
40
0.312499999999993
40
0.312499999999993
40
0.374999999999992
40
0.374999999999992
40
0.499999999999994
40
0.499999999999994
40
0.624999999999995
40
0.624999999999995
40
0.749999999999997
40
0.749999999999997
40
0.874999999999998
40
0.874999999999998
40
1
40
1
40
1
40
1
41
1
10
41.4063300477597
20
-17.5651604011649
30
0
41
1
10
41.3634466662997
20
-17.650510446022
30
0
41
1
10
41.3174301347694
20
-17.7340834858793
30
0
41
1
10
41.2192354005139
20
-17.8977331900494
30
0
41
1
10
41.1669727798721
20
-17.9778871994109
30
0
41
1
10
41.0031967677308
20
-18.2102005431582
30
0
41
1
10
40.8841379732361
20
-18.3553432789119
30
0
41
1
10
40.6915546044226
20
-18.5596836858836
30
0
41
1
10
40.6250163835615
20
-18.6255571441095
30
0
41
1
10
40.4872617753255
20
-18.7529066548743
30
0
41
1
10
40.4157701670396
20
-18.8145953456246
30
0
41
1
10
40.1965621950617
20
-18.9912027873668
30
0
41
1
10
40.0443019020032
20
-19.0977534765109
30
0
41
1
10
39.7277742017403
20
-19.2902396049364
30
0
41
1
10
39.5635028985019
20
-19.376166579635
30
0
41
1
10
39.2223710370538
20
-19.5274697081967
30
0
41
1
10
39.0448074739788
20
-19.5928730737173
30
0
41
1
10
38.6865375832271
20
-19.6991162453476
30
0
41
1
10
38.5046943605566
20
-19.7405464409597
30
0
41
1
10
38.1356810057722
20
-19.7997668234107
30
0
41
1
10
37.9484355834568
20
-19.817543059758
30
0
41
1
10
37.7590073399145
20
-19.8227317291749
30
0
0
SPLINE
5
16B
100
AcDbEntity
8
1
62
256
6
ByLayer
370
13
48
1
60
0
100
AcDbSpline
70
4
71
3
72
8
73
4
40
0
40
0
40
0
40
0
40
1
40
1
40
1
40
1
41
1
10
29.8045967644824
20
-9.95854696030457
30
0
41
1
10
29.799824791719
20
-9.98123080367571
30
0
41
1
10
29.7953887370414
20
-10.0041486272219
30
0
41
1
10
29.7913043820752
20
-10.0273121552868
30
0
0
SPLINE
5
16C
100
AcDbEntity
8
1
62
256
6
ByLayer
370
13
48
1
60
0
100
AcDbSpline
70
4
71
3
72
8
73
4
40
0
40
0
40
0
40
0
40
1
40
1
40
1
40
1
41
1
10
36.9031525874261
20
-19.7601350858392
30
0
41
1
10
37.1875174545523
20
-19.8102762842791
30
0
41
1
10
37.4727694788903
20
-19.8304665170734
30
0
41
1
10
37.7590073399145
20
-19.8227317291749
30
0
0
SPLINE
5
16D
100
AcDbEntity
8
1
62
256
6
ByLayer
370
13
48
1
60
0
100
AcDbSpline
70
4
71
3
72
8
73
4
40
0
40
0
40
0
40
0
40
1
40
1
40
1
40
1
41
1.01923193651471
10
47.8230972782873
20
-22.2923932201657
30
0
41
1.02059845255999
10
48.3641581391377
20
-22.0955776977717
30
0
41
1.02233815481013
10
49.030417183496
20
-21.8294116867375
30
0
41
1.02417048289515
10
49.6887467937478
20
-21.5172389556891
30
0
0
SPLINE
5
16E
100
AcDbEntity
8
1
62
256
6
ByLayer
370
13
48
1
60
0
100
AcDbSpline
70
4
71
3
72
8
73
4
40
0
40
0
40
0
40
0
40
1
40
1
40
1
40
1
41
1
10
49.2394237400306
20
-17.0895972505647
30
0
41
1
10
49.5860756553372
20
-17.3757059697684
30
0
41
1
10
49.935649974695
20
-17.6502441152447
30
0
41
1
10
50.2880362388916
20
-17.9062307679104
30
0
0
SPLINE
5
16F
100
AcDbEntity
8
1
62
256
6
ByLayer
370
13
48
1
60
0
100
AcDbSpline
70
4
71
3
72
18
73
14
40
0
40
0
40
0
40
0
40
0.125
40
0.125
40
0.25
40
0.25
40
0.375
40
0.375
40
0.5
40
0.5
40
0.75
40
0.75
40
1
40
1
40
1
40
1
41
1
10
28.4537176619323
20
-18.3276709760499
30
0
41
1
10
28.535612051723
20
-18.3045479141778
30
0
41
1
10
28.6251136240415
20
-18.2778546950656
30
0
41
1
10
28.8157008696161
20
-18.2187733283349
30
0
41
1
10
28.9170944455631
20
-18.1863002235249
30
0
41
1
10
29.1314018828902
20
-18.1159847892147
30
0
41
1
10
29.2443181101617
20
-18.0781406578559
30
0
41
1
10
29.4813309561046
20
-17.9973862466933
30
0
41
1
10
29.6060471982299
20
-17.9542576660754
30
0
41
1
10
29.9921141719082
20
-17.8191801500677
30
0
41
1
10
30.2635165076846
20
-17.7222408354107
30
0
41
1
10
30.8314412965998
20
-17.516845969363
30
0
41
1
10
31.1279903730256
20
-17.408368153454
30
0
41
1
10
31.4369312091374
20
-17.2945517486682
30
0
0
SPLINE
5
170
100
AcDbEntity
8
1
62
256
6
ByLayer
370
13
48
1
60
0
100
AcDbSpline
70
4
71
3
72
8
73
4
40
0
40
0
40
0
40
0
40
1
40
1
40
1
40
1
41
1
10
51.8648695750832
20
-20.1742541855066
30
0
41
1
10
51.9441200586119
20
-20.143389394161
30
0
41
1
10
52.023011229618
20
-20.1078534249473
30
0
41
1
10
52.1015319839697
20
-20.0675019206045
30
0
0
SPLINE
5
171
100
AcDbEntity
8
1
62
256
6
ByLayer
370
13
48
1
60
0
100
AcDbSpline
70
4
71
3
72
25
73
21
40
0
40
0
40
0
40
0
40
0.0625000000000011
40
0.0625000000000011
40
0.125000000000002
40
0.187500000000003
40
0.187500000000003
40
0.250000000000004
40
0.250000000000004
40
0.375000000000004
40
0.375000000000004
40
0.500000000000003
40
0.500000000000003
40
0.625000000000002
40
0.625000000000002
40
0.750000000000001
40
0.750000000000001
40
0.875000000000001
40
0.875000000000001
40
1
40
1
40
1
40
1
41
1
10
51.727134071955
20
-15.2554327450653
30
0
41
1
10
51.6441308070139
20
-15.1976657832582
30
0
41
1
10
51.5608500086631
20
-15.1447686410885
30
0
41
1
10
51.3952944384435
20
-15.0496652769154
30
0
41
1
10
51.2302638346459
20
-14.9649137331914
30
0
41
1
10
51.066274799378
20
-14.9007008943328
30
0
41
1
10
50.902805609887
20
-14.8467389018514
30
0
41
1
10
50.8215406300135
20
-14.8250778981536
30
0
41
1
10
50.5837686054725
20
-14.7752596518521
30
0
41
1
10
50.4312296250465
20
-14.7612486484164
30
0
41
1
10
50.1350642110922
20
-14.7618644867025
30
0
41
1
10
49.9906639854973
20
-14.7768437408697
30
0
41
1
10
49.7152661356608
20
-14.828754974478
30
0
41
1
10
49.5836503952554
20
-14.8655673803698
30
0
41
1
10
49.329931858185
20
-14.9561701456545
30
0
41
1
10
49.207850068013
20
-15.0099979957828
30
0
41
1
10
48.9717000932291
20
-15.1319557487252
30
0
41
1
10
48.8577461003367
20
-15.2002894519355
30
0
41
1
10
48.6364556567081
20
-15.3487673269222
30
0
41
1
10
48.5290319396353
20
-15.4287557526072
30
0
41
1
10
48.4231037690164
20
-15.5114133119319
30
0
0
SPLINE
5
172
100
AcDbEntity
8
1
62
256
6
ByLayer
370
13
48
1
60
0
100
AcDbSpline
70
4
71
3
72
18
73
14
40
0
40
0
40
0
40
0
40
0.250000000000004
40
0.250000000000004
40
0.375000000000006
40
0.375000000000006
40
0.500000000000008
40
0.500000000000008
40
0.750000000000004
40
0.750000000000004
40
0.875000000000002
40
0.875000000000002
40
1
40
1
40
1
40
1
41
1
10
33.6759545915759
20
-11.6765810348581
30
0
41
1
10
33.8728607610893
20
-11.5651978111187
30
0
41
1
10
34.0769093114725
20
-11.4716821235162
30
0
41
1
10
34.3951524417287
20
-11.3578224407044
30
0
41
1
10
34.5036727156485
20
-11.3242008522645
30
0
41
1
10
34.7232238231848
20
-11.2666032717678
30
0
41
1
10
34.8338791518549
20
-11.2426850770009
30
0
41
1
10
35.1686949625133
20
-11.1853675777635
30
0
41
1
10
35.3956951045794
20
-11.1662951539113
30
0
41
1
10
35.7429088856693
20
-11.1675554587873
30
0
41
1
10
35.8594889370078
20
-11.1730301330739
30
0
41
1
10
36.091034888183
20
-11.1938801635655
30
0
41
1
10
36.2064652286077
20
-11.2092494287093
30
0
41
1
10
36.3215578717638
20
-11.2295433669788
30
0
0
SPLINE
5
173
100
AcDbEntity
8
1
62
256
6
ByLayer
370
13
48
1
60
0
100
AcDbSpline
70
4
71
3
72
20
73
16
40
0
40
0
40
0
40
0
40
0.125
40
0.125
40
0.25
40
0.25
40
0.5
40
0.5
40
0.75
40
0.75
40
0.875
40
0.875
40
0.9375
40
0.9375
40
1
40
1
40
1
40
1
41
1
10
45.1512998735931
20
-22.5212972689894
30
0
41
1
10
44.8268916542209
20
-22.5947655688175
30
0
41
1
10
44.5007918560845
20
-22.6604093778301
30
0
41
1
10
43.845896264482
20
-22.779226520858
30
0
41
1
10
43.5168686699882
20
-22.8323305880706
30
0
41
1
10
42.5271297969033
20
-22.9723964495922
30
0
41
1
10
41.8652887329615
20
-23.0402660017416
30
0
41
1
10
40.5361735312433
20
-23.1072334232698
30
0
41
1
10
39.8682749338874
20
-23.1093398457016
30
0
41
1
10
38.8707770583805
20
-23.0726115045796
30
0
41
1
10
38.5386981583429
20
-23.0536701209353
30
0
41
1
10
38.0413762856421
20
-23.0125668230316
30
0
41
1
10
37.87573617762
20
-22.9967329394972
30
0
41
1
10
37.544833689165
20
-22.9590463888154
30
0
41
1
10
37.3795560585377
20
-22.9374367211813
30
0
41
1
10
37.2146471488043
20
-22.9099517843419
30
0
0
SPLINE
5
174
100
AcDbEntity
8
1
62
256
6
ByLayer
370
13
48
1
60
0
100
AcDbSpline
70
4
71
3
72
16
73
12
40
0
40
0
40
0
40
0
40
0.249999999999996
40
0.249999999999996
40
0.374999999999995
40
0.374999999999995
40
0.499999999999995
40
0.499999999999995
40
0.749999999999997
40
0.749999999999997
40
1
40
1
40
1
40
1
41
1
10
41.8253095353779
20
-15.1890096502434
30
0
41
1
10
41.8490903612522
20
-15.3921959959368
30
0
41
1
10
41.8578502928995
20
-15.5952928177378
30
0
41
1
10
41.8490423746948
20
-15.8998153783013
30
0
41
1
10
41.8424329822906
20
-16.001302308869
30
0
41
1
10
41.8217803899956
20
-16.2042352250699
30
0
41
1
10
41.8076947411161
20
-16.305819996386
30
0
41
1
10
41.7546087329154
20
-16.6074737870664
30
0
41
1
10
41.7045973852858
20
-16.8059518030053
30
0
41
1
10
41.5761476580531
20
-17.1939454931225
30
0
41
1
10
41.4981702260229
20
-17.3823618327623
30
0
41
1
10
41.4063300477596
20
-17.5651604011649
30
0
0
SPLINE
5
175
100
AcDbEntity
8
1
62
256
6
ByLayer
370
13
48
1
60
0
100
AcDbSpline
70
4
71
3
72
11
73
7
40
0
40
0
40
0
40
0
40
0.100258159507228
40
0.259036131358893
40
0.576592075062225
40
1
40
1
40
1
40
1
41
1.0177432798791
10
47.7164971491749
20
-19.5187785887817
30
0
41
1.01722454828229
10
47.5014764923116
20
-19.4912091500357
30
0
41
1.01635405201136
10
46.9835283207974
20
-19.4464261217452
30
0
41
1.01876555595691
10
45.4299135003251
20
-19.9017845440807
30
0
41
1.02349884684922
10
41.3917726717706
20
-21.1435181818267
30
0
41
1.02767136955276
10
38.2672036373438
20
-21.8482290142468
30
0
41
1.02805999725224
10
37.4091900787179
20
-21.8066440027873
30
0
0
SPLINE
5
176
100
AcDbEntity
8
1
62
256
6
ByLayer
370
13
48
1
60
0
100
AcDbSpline
70
4
71
3
72
12
73
8
40
0
40
0
40
0
40
0
40
0.103595537238351
40
0.300483156475476
40
0.4973707757126
40
0.891146014186849
40
1
40
1
40
1
40
1
41
1.02076673287779
10
49.0233578789421
20
-18.31496868785
30
0
41
1.02005196039548
10
48.7803934311996
20
-18.2785702383761
30
0
41
1.01814069316835
10
48.1186917736253
20
-18.1730863369382
30
0
41
1.01610930227499
10
47.3850623949429
20
-18.0342167819087
30
0
41
1.01876555595691
10
45.7714289411499
20
-17.9328236646923
30
0
41
1.02173322384664
10
43.4049205924787
20
-17.7505260329763
30
0
41
1.02394775681994
10
41.7539501511442
20
-17.5984321674737
30
0
41
1.02441262532196
10
41.4063300478476
20
-17.5651604011733
30
0
0
SPLINE
5
177
100
AcDbEntity
8
1
62
256
6
ByLayer
370
13
48
1
60
0
100
AcDbSpline
70
4
71
3
72
24
73
20
40
0
40
0
40
0
40
0
40
0.125
40
0.125
40
0.250000000000001
40
0.250000000000001
40
0.375000000000001
40
0.375000000000001
40
0.500000000000002
40
0.500000000000002
40
0.625000000000002
40
0.625000000000002
40
0.750000000000003
40
0.750000000000003
40
0.812500000000002
40
0.812500000000002
40
0.875000000000001
40
0.875000000000001
40
1
40
1
40
1
40
1
41
1
10
39.1700821703649
20
-11.8201286971214
30
0
41
1
10
39.3459931735089
20
-11.8896667475435
30
0
41
1
10
39.5176107836927
20
-11.971224404261
30
0
41
1
10
39.8450870324555
20
-12.1538423956003
30
0
41
1
10
40.0016038458064
20
-12.2550584422391
30
0
41
1
10
40.300528171535
20
-12.4765912940811
30
0
41
1
10
40.4431039951985
20
-12.59705441078
30
0
41
1
10
40.713305684813
20
-12.8571785460883
30
0
41
1
10
40.8392181454734
20
-12.9951416446648
30
0
41
1
10
41.0729132371693
20
-13.2873951604487
30
0
41
1
10
41.1799472941548
20
-13.4408963533415
30
0
41
1
10
41.3721191390337
20
-13.7598383756325
30
0
41
1
10
41.4576656385494
20
-13.9257635635159
30
0
41
1
10
41.5692796558334
20
-14.1854496012187
30
0
41
1
10
41.6036771588584
20
-14.2738861557124
30
0
41
1
10
41.6657218015773
20
-14.4519329173818
30
0
41
1
10
41.6935123141557
20
-14.5418533646486
30
0
41
1
10
41.7670922862702
20
-14.8143660282816
30
0
41
1
10
41.8031475544695
20
-14.9996933007618
30
0
41
1
10
41.8253095353779
20
-15.1890096502434
30
0
0
SPLINE
5
178
100
AcDbEntity
8
1
62
256
6
ByLayer
370
13
48
1
60
0
100
AcDbSpline
70
4
71
3
72
8
73
4
40
0
40
0
40
0
40
0
40
1
40
1
40
1
40
1
41
1
10
51.7271340719597
20
-15.2554327450632
30
0
41
1
10
51.469950174338
20
-14.9378370811834
30
0
41
1
10
51.2142400410948
20
-14.6220613647443
30
0
41
1
10
50.9599907742186
20
-14.3080896680277
30
0
0
SPLINE
5
179
100
AcDbEntity
8
1
62
256
6
ByLayer
370
13
48
1
60
0
100
AcDbSpline
70
4
71
3
72
10
73
6
40
0
40
0
40
0
40
0
40
0.5
40
0.5
40
1
40
1
40
1
40
1
41
1
10
30.7654673744748
20
-17.1039843352776
30
0
41
1
10
30.8762148319151
20
-17.1235121000692
30
0
41
1
10
30.9885527204392
20
-17.1488206271666
30
0
41
1
10
31.2134190936158
20
-17.2121006417676
30
0
41
1
10
31.3255239667063
20
-17.2499113115389
30
0
41
1
10
31.4369312091374
20
-17.2945517486682
30
0
0
SPLINE
5
17A
100
AcDbEntity
8
1
62
256
6
ByLayer
370
13
48
1
60
0
100
AcDbSpline
70
4
71
3
72
8
73
4
40
0
40
0
40
0
40
0
40
1
40
1
40
1
40
1
41
1
10
38.3444324620617
20
-11.5862307358379
30
0
41
1
10
38.6287973291878
20
-11.6363719342778
30
0
41
1
10
38.9037520178366
20
-11.714961259757
30
0
41
1
10
39.1700821703649
20
-11.8201286971214
30
0
0
SPLINE
5
17B
100
AcDbEntity
8
1
62
256
6
ByLayer
370
13
48
1
60
0
100
AcDbSpline
70
4
71
1
72
4
73
2
40
0
40
0
40
1
40
1
41
1
10
37.2146471488043
20
-22.9099517843419
30
0
41
1
10
37.4091900787179
20
-21.8066440027873
30
0
0
SPLINE
5
17C
100
AcDbEntity
8
1
62
256
6
ByLayer
370
13
48
1
60
0
100
AcDbSpline
70
4
71
3
72
8
73
4
40
0
40
0
40
0
40
0
40
1
40
1
40
1
40
1
41
1
10
28.3216313614901
20
-18.3688616894171
30
0
41
1
10
28.3249055052587
20
-18.3459137383817
30
0
41
1
10
28.3285753347067
20
-18.3228608086543
30
0
41
1
10
28.3326596896729
20
-18.2996972805894
30
0
0
SPLINE
5
17D
100
AcDbEntity
8
1
62
256
6
ByLayer
370
13
48
1
60
0
100
AcDbSpline
70
4
71
3
72
14
73
10
40
0
40
0
40
0
40
0
40
0.25
40
0.25
40
0.5
40
0.5
40
0.75
40
0.75
40
1
40
1
40
1
40
1
41
1
10
33.4767693771718
20
-11.7787887292826
30
0
41
1
10
33.3889880817141
20
-11.8194315279286
30
0
41
1
10
33.2972814164623
20
-11.8557067721145
30
0
41
1
10
33.1123611777432
20
-11.9174659573684
30
0
41
1
10
33.0185183067893
20
-11.9432868591544
30
0
41
1
10
32.8282189333367
20
-11.9853983265894
30
0
41
1
10
32.733381515181
20
-12.0012900904689
30
0
41
1
10
32.5472065031517
20
-12.0238648043871
30
0
41
1
10
32.455345804281
20
-12.0306543904518
30
0
41
1
10
32.364585402941
20
-12.033563384458
30
0
0
SPLINE
5
17E
100
AcDbEntity
8
1
62
256
6
ByLayer
370
13
48
1
60
0
100
AcDbSpline
70
4
71
3
72
26
73
22
40
0
40
0
40
0
40
0
40
0.062500000000001
40
0.062500000000001
40
0.125000000000002
40
0.125000000000002
40
0.187500000000003
40
0.187500000000003
40
0.250000000000004
40
0.250000000000004
40
0.312500000000005
40
0.312500000000005
40
0.375000000000007
40
0.375000000000007
40
0.500000000000005
40
0.500000000000005
40
0.625000000000003
40
0.625000000000003
40
0.750000000000001
40
0.750000000000001
40
1
40
1
40
1
40
1
41
1
10
48.4231037690164
20
-15.5114133119319
30
0
41
1
10
48.4015539598517
20
-15.5282262524336
30
0
41
1
10
48.3819187774449
20
-15.5474629707643
30
0
41
1
10
48.3474422061396
20
-15.5920050003637
30
0
41
1
10
48.3324856068116
20
-15.6176206305802
30
0
41
1
10
48.3096848058592
20
-15.6750823266457
30
0
41
1
10
48.3017567704369
20
-15.7069501209409
30
0
41
1
10
48.294339725855
20
-15.7775356272826
30
0
41
1
10
48.2949821986997
20
-15.814894619238
30
0
41
1
10
48.3047474815868
20
-15.8936398201598
30
0
41
1
10
48.3140740727283
20
-15.9353715688028
30
0
41
1
10
48.3395232498833
20
-16.0180511635459
30
0
41
1
10
48.3557591756508
20
-16.0597614696018
30
0
41
1
10
48.4125065420158
20
-16.1838909672851
30
0
41
1
10
48.4593042703992
20
-16.262400413338
30
0
41
1
10
48.5636412457371
20
-16.4139092007364
30
0
41
1
10
48.619767953334
20
-16.4847232242754
30
0
41
1
10
48.7368281309764
20
-16.620351810434
30
0
41
1
10
48.7977854041372
20
-16.6850471593655
30
0
41
1
10
48.9827540595157
20
-16.8700303779409
30
0
41
1
10
49.1099792213908
20
-16.9828051337744
30
0
41
1
10
49.2394237400306
20
-17.0895972505647
30
0
0
SPLINE
5
17F
100
AcDbEntity
8
1
62
256
6
ByLayer
370
13
48
1
60
0
100
AcDbSpline
70
4
71
3
72
26
73
22
40
0
40
0
40
0
40
0
40
0.249999999999995
40
0.249999999999995
40
0.374999999999998
40
0.374999999999998
40
0.5
40
0.5
40
0.625000000000002
40
0.625000000000002
40
0.687500000000002
40
0.687500000000002
40
0.750000000000002
40
0.750000000000002
40
0.812500000000001
40
0.812500000000001
40
0.875000000000001
40
0.875000000000001
40
0.9375
40
0.9375
40
1
40
1
40
1
40
1
41
1
10
49.0233576990002
20
-18.3149686608929
30
0
41
1
10
48.8652215689437
20
-18.3710382245941
30
0
41
1
10
48.7069415022747
20
-18.4335375774695
30
0
41
1
10
48.4691363955634
20
-18.5444852328862
30
0
41
1
10
48.3901943787751
20
-18.5842363721895
30
0
41
1
10
48.2347366987117
20
-18.6711224562467
30
0
41
1
10
48.1580271548447
20
-18.7182596724338
30
0
41
1
10
48.0080312731771
20
-18.8249406259224
30
0
41
1
10
47.937071120645
20
-18.8827679984742
30
0
41
1
10
47.8412329132277
20
-18.9799493302988
30
0
41
1
10
47.8115409473738
20
-19.0137328564679
30
0
41
1
10
47.7591100085035
20
-19.0829866153169
30
0
41
1
10
47.7360827605383
20
-19.1189944395577
30
0
41
1
10
47.6999367497351
20
-19.1896872019075
30
0
41
1
10
47.6863682846977
20
-19.2251382945766
30
0
41
1
10
47.6693212506426
20
-19.2937572227798
30
0
41
1
10
47.6658865352505
20
-19.3262546600356
30
0
41
1
10
47.6676858233405
20
-19.3881627662971
30
0
41
1
10
47.6729881375259
20
-19.4172663468415
30
0
41
1
10
47.6901350362288
20
-19.4708294027657
30
0
41
1
10
47.701996530585
20
-19.495607867484
30
0
41
1
10
47.7164971491644
20
-19.5187785887804
30
0
0
SPLINE
5
180
100
AcDbEntity
8
1
62
256
6
ByLayer
370
13
48
1
60
0
100
AcDbSpline
70
4
71
3
72
8
73
4
40
0
40
0
40
0
40
0
40
1
40
1
40
1
40
1
41
1
10
50.2880362388706
20
-17.9062307679164
30
0
41
1
10
49.8689913918091
20
-18.0263588159896
30
0
41
1
10
49.4470328953777
20
-18.164650089941
30
0
41
1
10
49.0233576990002
20
-18.3149686608929
30
0
0
SPLINE
5
181
100
AcDbEntity
8
1
62
256
6
ByLayer
370
13
48
1
60
0
100
AcDbSpline
70
4
71
3
72
10
73
6
40
0
40
0
40
0
40
0
40
0.5
40
0.5
40
1
40
1
40
1
40
1
41
1
10
36.8125376249812
20
-14.339395843731
30
0
41
1
10
36.8349332981197
20
-14.3475751829961
30
0
41
1
10
36.8594878689453
20
-14.3543155289832
30
0
41
1
10
36.9096451106043
20
-14.3631558420239
30
0
41
1
10
36.9349897263458
20
-14.3652130282969
30
0
41
1
10
36.9588052063727
20
-14.3651867647333
30
0
0
SPLINE
5
182
100
AcDbEntity
8
1
62
256
6
ByLayer
370
13
48
1
60
0
100
AcDbSpline
70
4
71
3
72
10
73
6
40
0
40
0
40
0
40
0
40
0.5
40
0.5
40
1
40
1
40
1
40
1
41
1
10
35.7360053174439
20
-14.8102495267687
30
0
41
1
10
35.7541269028679
20
-14.7950777347715
30
0
41
1
10
35.7722982017079
20
-14.7771751070285
30
0
41
1
10
35.8052799140527
20
-14.7378572291989
30
0
41
1
10
35.8197188725374
20
-14.7168871943306
30
0
41
1
10
35.8314747009165
20
-14.6964735460329
30
0
0
SPLINE
5
183
100
AcDbEntity
8
1
62
256
6
ByLayer
370
13
48
1
60
0
100
AcDbSpline
70
4
71
3
72
10
73
6
40
0
40
0
40
0
40
0
40
0.5
40
0.5
40
1
40
1
40
1
40
1
41
1
10
36.551547819394
20
-16.674858179411
30
0
41
1
10
36.5291521462555
20
-16.6666788401459
30
0
41
1
10
36.5045975754299
20
-16.6599384941588
30
0
41
1
10
36.4544403337708
20
-16.6510981811181
30
0
41
1
10
36.4290957180294
20
-16.649040994845
30
0
41
1
10
36.4052802380024
20
-16.6490672584087
30
0
0
SPLINE
5
184
100
AcDbEntity
8
1
62
256
6
ByLayer
370
13
48
1
60
0
100
AcDbSpline
70
4
71
3
72
10
73
6
40
0
40
0
40
0
40
0
40
0.5
40
0.5
40
1
40
1
40
1
40
1
41
1
10
37.6280801269313
20
-16.2040044963733
30
0
41
1
10
37.6099585415072
20
-16.2191762883705
30
0
41
1
10
37.5917872426673
20
-16.2370789161134
30
0
41
1
10
37.5588055303224
20
-16.2763967939431
30
0
41
1
10
37.5443665718378
20
-16.2973668288114
30
0
41
1
10
37.5326107434586
20
-16.3177804771091
30
0
0
SPLINE
5
185
100
AcDbEntity
8
1
62
256
6
ByLayer
370
13
48
1
60
0
100
AcDbSpline
70
4
71
3
72
10
73
6
40
0
40
0
40
0
40
0
40
0.5
40
0.5
40
1
40
1
40
1
40
1
41
1
10
35.6055104146519
20
-15.9779806946083
30
0
41
1
10
35.6014454283893
20
-15.9547774098325
30
0
41
1
10
35.5950494199807
20
-15.9301336081588
30
0
41
1
10
35.5775042544799
20
-15.8819064785139
30
0
41
1
10
35.5665518783565
20
-15.8588685610976
30
0
41
1
10
35.55471221673
20
-15.8384137928697
30
0
0
SPLINE
5
186
100
AcDbEntity
8
1
62
256
6
ByLayer
370
13
48
1
60
0
100
AcDbSpline
70
4
71
3
72
10
73
6
40
0
40
0
40
0
40
0
40
0.5
40
0.5
40
1
40
1
40
1
40
1
41
1
10
37.7585750297233
20
-15.0362733285337
30
0
41
1
10
37.7626400159858
20
-15.0594766133095
30
0
41
1
10
37.7690360243944
20
-15.0841204149832
30
0
41
1
10
37.7865811898952
20
-15.132347544628
30
0
41
1
10
37.7975335660186
20
-15.1553854620444
30
0
41
1
10
37.8093732276452
20
-15.1758402302723
30
0
0
SPLINE
5
187
100
AcDbEntity
8
1
62
256
6
ByLayer
370
13
48
1
60
0
100
AcDbSpline
70
4
71
3
72
8
73
4
40
0
40
0
40
0
40
0
40
1
40
1
40
1
40
1
41
1
10
49.9405181489262
20
-11.4398990893939
30
0
41
1
10
49.9525635457583
20
-11.4444151793118
30
0
41
1
10
49.9644424903719
20
-11.4494027921322
30
0
41
1
10
49.9761013801796
20
-11.4548394217351
30
0
0
SPLINE
5
188
100
AcDbEntity
8
1
62
256
6
ByLayer
370
13
48
1
60
0
100
AcDbSpline
70
4
71
3
72
8
73
4
40
0
40
0
40
0
40
0
40
1
40
1
40
1
40
1
41
1
10
52.1366221422729
20
-24.6372412018051
30
0
41
1
10
52.1245767454408
20
-24.6327251118872
30
0
41
1
10
52.1126978008272
20
-24.6277374990668
30
0
41
1
10
52.1010389110195
20
-24.6223008694639
30
0
0
SPLINE
5
189
100
AcDbEntity
8
1
62
256
6
ByLayer
370
13
48
1
60
0
100
AcDbSpline
70
4
71
3
72
8
73
4
40
0
40
0
40
0
40
0
40
1
40
1
40
1
40
1
41
1
10
57.6223008694639
20
-19.1010389110195
30
0
41
1
10
57.6277374990669
20
-19.1126978008272
30
0
41
1
10
57.6327251118872
20
-19.1245767454408
30
0
41
1
10
57.6372412018052
20
-19.1366221422729
30
0
0
LINE
5
70
100
AcDbEntity
8
1
62
256
6
ByLayer
370
13
48
1
60
0
100
AcDbLine
10
19.713911
20
20
30
0
11
0.3
21
20
31
0
39
0
210
0
220
0
230
1
0
LINE
5
72
100
AcDbEntity
8
1
62
256
6
ByLayer
370
13
48
1
60
0
100
AcDbLine
10
0.3
20
20
30
0
11
0
21
19.7
31
0
39
0
210
0
220
0
230
1
0
LINE
5
73
100
AcDbEntity
8
1
62
256
6
ByLayer
370
13
48
1
60
0
100
AcDbLine
10
0.3
20
-20
30
0
11
20.279208
21
-20
31
0
39
0
210
0
220
0
230
1
0
LINE
5
74
100
AcDbEntity
8
1
62
256
6
ByLayer
370
13
48
1
60
0
100
AcDbLine
10
0
20
-19.7
30
0
11
0.3
21
-20
31
0
39
0
210
0
220
0
230
1
0
LINE
5
75
100
AcDbEntity
8
81
62
256
6
ByLayer
370
18
48
1
60
0
100
AcDbLine
10
60
20
-27
30
0
11
70
21
-27
31
0
39
0
210
0
220
0
230
1
0
LINE
5
76
100
AcDbEntity
8
80
62
256
6
ByLayer
370
18
48
1
60
0
100
AcDbLine
10
0
20
0
30
0
11
-10
21
0
31
0
39
0
210
0
220
0
230
1
0
LINE
5
77
100
AcDbEntity
8
1
62
256
6
ByLayer
370
13
48
1
60
0
100
AcDbLine
10
46.582738
20
-9.820483
30
0
11
46.558375
21
-9.872729
31
0
39
0
210
0
220
0
230
1
0
LINE
5
78
100
AcDbEntity
8
1
62
256
6
ByLayer
370
13
48
1
60
0
100
AcDbLine
10
0
20
-19.7
30
0
11
0
21
19.7
31
0
39
0
210
0
220
0
230
1
0
LINE
5
79
100
AcDbEntity
8
1
62
256
6
ByLayer
370
13
48
1
60
0
100
AcDbLine
10
0.3
20
20
30
0
11
0.3
21
-20
31
0
39
0
210
0
220
0
230
1
0
LINE
5
7A
100
AcDbEntity
8
1
62
256
6
ByLayer
370
13
48
1
60
0
100
AcDbLine
10
20.279208
20
-20
30
0
11
20.279208
21
-19.999322
31
0
39
0
210
0
220
0
230
1
0
LINE
5
7B
100
AcDbEntity
8
1
62
256
6
ByLayer
370
13
48
1
60
0
100
AcDbLine
10
31.103421
20
-24.764751
30
0
11
31.604549
21
-21.922713
31
0
39
0
210
0
220
0
230
1
0
LINE
5
7C
100
AcDbEntity
8
1
62
256
6
ByLayer
370
13
48
1
60
0
100
AcDbLine
10
30.099577
20
-7.238474
30
0
11
29.931191
21
-8.193436
31
0
39
0
210
0
220
0
230
1
0
LINE
5
7D
100
AcDbEntity
8
1
62
256
6
ByLayer
370
13
48
1
60
0
100
AcDbLine
10
27.836919
20
-20.070643
30
0
11
27.07242
21
-24.406332
31
0
39
0
210
0
220
0
230
1
0
LINE
5
7E
100
AcDbEntity
8
1
62
256
6
ByLayer
370
13
48
1
60
0
100
AcDbLine
10
31.460674
20
-7.478472
30
0
11
30.099577
21
-7.238474
31
0
39
0
210
0
220
0
230
1
0
LINE
5
7F
100
AcDbEntity
8
1
62
256
6
ByLayer
370
13
48
1
60
0
100
AcDbLine
10
42.838408
20
-8.902368
30
0
11
42.822912
21
-9.079491
31
0
39
0
210
0
220
0
230
1
0
LINE
5
80
100
AcDbEntity
8
1
62
256
6
ByLayer
370
13
48
1
60
0
100
AcDbLine
10
44.930417
20
-9.085395
30
0
11
44.913977
21
-9.273302
31
0
39
0
210
0
220
0
230
1
0
LINE
5
81
100
AcDbEntity
8
1
62
256
6
ByLayer
370
13
48
1
60
0
100
AcDbLine
10
52.920793
20
-25.128874
30
0
11
53.042611
21
-25.049764
31
0
39
0
210
0
220
0
230
1
0
LINE
5
82
100
AcDbEntity
8
1
62
256
6
ByLayer
370
13
48
1
60
0
100
AcDbLine
10
53.207539
20
-25.49448
30
0
11
53.207539
21
-25.126674
31
0
39
0
210
0
220
0
230
1
0
LINE
5
83
100
AcDbEntity
8
1
62
256
6
ByLayer
370
13
48
1
60
0
100
AcDbLine
10
48.340472
20
-23.089583
30
0
11
48.425545
21
-22.898508
31
0
39
0
210
0
220
0
230
1
0
LINE
5
84
100
AcDbEntity
8
1
62
256
6
ByLayer
370
13
48
1
60
0
100
AcDbLine
10
52.920793
20
-25.128874
30
0
11
52.920793
21
-25.528529
31
0
39
0
210
0
220
0
230
1
0
LINE
5
85
100
AcDbEntity
8
1
62
256
6
ByLayer
370
13
48
1
60
0
100
AcDbLine
10
21.415098
20
19.383495
30
0
11
21.415098
21
-20.319263
31
0
39
0
210
0
220
0
230
1
0
LINE
5
86
100
AcDbEntity
8
1
62
256
6
ByLayer
370
13
48
1
60
0
100
AcDbLine
10
53.207539
20
-25.49448
30
0
11
52.920793
21
-25.528529
31
0
39
0
210
0
220
0
230
1
0
LINE
5
87
100
AcDbEntity
8
1
62
256
6
ByLayer
370
13
48
1
60
0
100
AcDbLine
10
31.103421
20
-24.764751
30
0
11
52.920793
21
-25.528529
31
0
39
0
210
0
220
0
230
1
0
LINE
5
88
100
AcDbEntity
8
1
62
256
6
ByLayer
370
13
48
1
60
0
100
AcDbLine
10
19.713911
20
20
30
0
11
21.415098
21
19.383495
31
0
39
0
210
0
220
0
230
1
0
LINE
5
89
100
AcDbEntity
8
1
62
256
6
ByLayer
370
13
48
1
60
0
100
AcDbLine
10
6.663397
20
6.16973
30
0
11
6.663397
21
19.024574
31
0
39
0
210
0
220
0
230
1
0
LINE
5
8A
100
AcDbEntity
8
1
62
256
6
ByLayer
370
13
48
1
60
0
100
AcDbLine
10
9.076795
20
5.85989
30
0
11
6.923205
21
5.85989
31
0
39
0
210
0
220
0
230
1
0
LINE
5
8B
100
AcDbEntity
8
1
62
256
6
ByLayer
370
13
48
1
60
0
100
AcDbLine
10
31.103421
20
-24.764751
30
0
11
27.107665
21
-24.448963
31
0
39
0
210
0
220
0
230
1
0
LINE
5
8C
100
AcDbEntity
8
1
62
256
6
ByLayer
370
13
48
1
60
0
100
AcDbLine
10
9.336603
20
-19.024574
30
0
11
9.336603
21
-6.16973
31
0
39
0
210
0
220
0
230
1
0
LINE
5
8D
100
AcDbEntity
8
1
62
256
6
ByLayer
370
13
48
1
60
0
100
AcDbLine
10
21.415098
20
19.383495
30
0
11
37.31063
21
13.623006
31
0
39
0
210
0
220
0
230
1
0
LINE
5
8E
100
AcDbEntity
8
1
62
256
6
ByLayer
370
13
48
1
60
0
100
AcDbLine
10
6.923205
20
-19.122283
30
0
11
6.923205
21
-5.85989
31
0
39
0
210
0
220
0
230
1
0
LINE
5
8F
100
AcDbEntity
8
1
62
256
6
ByLayer
370
13
48
1
60
0
100
AcDbLine
10
53.561308
20
-13.074644
30
0
11
53.651699
21
-12.880799
31
0
39
0
210
0
220
0
230
1
0
LINE
5
90
100
AcDbEntity
8
1
62
256
6
ByLayer
370
13
48
1
60
0
100
AcDbLine
10
44.930417
20
-9.085395
30
0
11
42.838408
21
-8.902368
31
0
39
0
210
0
220
0
230
1
0
LINE
5
91
100
AcDbEntity
8
1
62
256
6
ByLayer
370
13
48
1
60
0
100
AcDbLine
10
6.923205
20
5.85989
30
0
11
6.923205
21
19.122283
31
0
39
0
210
0
220
0
230
1
0
LINE
5
92
100
AcDbEntity
8
1
62
256
6
ByLayer
370
13
48
1
60
0
100
AcDbLine
10
9.076795
20
5.85989
30
0
11
9.076795
21
19.122283
31
0
39
0
210
0
220
0
230
1
0
LINE
5
93
100
AcDbEntity
8
1
62
256
6
ByLayer
370
13
48
1
60
0
100
AcDbLine
10
53.422612
20
-12.693581
30
0
11
53.561308
21
-13.074644
31
0
39
0
210
0
220
0
230
1
0
LINE
5
94
100
AcDbEntity
8
1
62
256
6
ByLayer
370
13
48
1
60
0
100
AcDbLine
10
9.336603
20
6.16973
30
0
11
9.336603
21
19.024574
31
0
39
0
210
0
220
0
230
1
0
LINE
5
95
100
AcDbEntity
8
1
62
256
6
ByLayer
370
13
48
1
60
0
100
AcDbLine
10
46.703922
20
-9.560604
30
0
11
46.582738
21
-9.820483
31
0
39
0
210
0
220
0
230
1
0
LINE
5
96
100
AcDbEntity
8
1
62
256
6
ByLayer
370
13
48
1
60
0
100
AcDbLine
10
6.923205
20
19.122283
30
0
11
9.076795
21
19.122283
31
0
39
0
210
0
220
0
230
1
0
LINE
5
97
100
AcDbEntity
8
1
62
256
6
ByLayer
370
13
48
1
60
0
100
AcDbLine
10
6.663397
20
-19.024574
30
0
11
6.663397
21
-6.16973
31
0
39
0
210
0
220
0
230
1
0
LINE
5
98
100
AcDbEntity
8
1
62
256
6
ByLayer
370
13
48
1
60
0
100
AcDbLine
10
46.582738
20
-9.820483
30
0
11
53.561308
21
-13.074644
31
0
39
0
210
0
220
0
230
1
0
LINE
5
99
100
AcDbEntity
8
1
62
256
6
ByLayer
370
13
48
1
60
0
100
AcDbLine
10
53.422612
20
-12.693581
30
0
11
46.703922
21
-9.560604
31
0
39
0
210
0
220
0
230
1
0
LINE
5
9A
100
AcDbEntity
8
1
62
256
6
ByLayer
370
13
48
1
60
0
100
AcDbLine
10
25.364672
20
-2.72796
30
0
11
22.217771
21
-20.574922
31
0
39
0
210
0
220
0
230
1
0
LINE
5
9B
100
AcDbEntity
8
1
62
256
6
ByLayer
370
13
48
1
60
0
100
AcDbLine
10
6.923205
20
-5.85989
30
0
11
9.076795
21
-5.85989
31
0
39
0
210
0
220
0
230
1
0
LINE
5
9C
100
AcDbEntity
8
1
62
256
6
ByLayer
370
13
48
1
60
0
100
AcDbLine
10
9.076795
20
-19.122283
30
0
11
9.076795
21
-5.85989
31
0
39
0
210
0
220
0
230
1
0
LINE
5
9D
100
AcDbEntity
8
1
62
256
6
ByLayer
370
13
48
1
60
0
100
AcDbLine
10
47.769612
20
-2.482414
30
0
11
37.31063
21
13.623006
31
0
39
0
210
0
220
0
230
1
0
LINE
5
9E
100
AcDbEntity
8
1
62
256
6
ByLayer
370
13
48
1
60
0
100
AcDbLine
10
17.430319
20
-19.663861
30
0
11
17.430319
21
19.663861
31
0
39
0
210
0
220
0
230
1
0
LINE
5
9F
100
AcDbEntity
8
1
62
256
6
ByLayer
370
13
48
1
60
0
100
AcDbLine
10
25.854252
20
-23.170778
30
0
11
28.706848
21
-6.992899
31
0
39
0
210
0
220
0
230
1
0
LINE
5
A0
100
AcDbEntity
8
1
62
256
6
ByLayer
370
13
48
1
60
0
100
AcDbLine
10
9.076795
20
-19.122283
30
0
11
6.923205
21
-19.122283
31
0
39
0
210
0
220
0
230
1
0
LINE
5
A1
100
AcDbEntity
8
1
62
256
6
ByLayer
370
13
48
1
60
0
100
AcDbLine
10
53.498
20
-12.53191
30
0
11
53.422612
21
-12.693581
31
0
39
0
210
0
220
0
230
1
0
LINE
5
A2
100
AcDbEntity
8
1
62
256
6
ByLayer
370
13
48
1
60
0
100
AcDbLine
10
28.706848
20
-6.992899
30
0
11
30.099577
21
-7.238474
31
0
39
0
210
0
220
0
230
1
0
LINE
5
A3
100
AcDbEntity
8
1
62
256
6
ByLayer
370
13
48
1
60
0
100
AcDbLine
10
48.340472
20
-23.089583
30
0
11
52.920793
21
-25.128874
31
0
39
0
210
0
220
0
230
1
0
LINE
5
A4
100
AcDbEntity
8
SK1
62
256
6
ByLayer
370
13
48
1
60
0
100
AcDbLine
10
-1.315435
20
3.625867
30
0
11
-1.315435
21
-3.625869
31
0
39
0
210
0
220
0
230
1
0
LINE
5
A6
100
AcDbEntity
8
1
62
256
6
ByLayer
370
13
48
1
60
0
100
AcDbLine
10
27.895092
20
-16.496317
30
0
11
27.997663
21
-16.666717
31
0
39
0
210
0
220
0
230
1
0
LINE
5
A7
100
AcDbEntity
8
1
62
256
6
ByLayer
370
13
48
1
60
0
100
AcDbLine
10
53.335142
20
-18.443518
30
0
11
50.288036
21
-17.906231
31
0
39
0
210
0
220
0
230
1
0
LINE
5
A8
100
AcDbEntity
8
1
62
256
6
ByLayer
370
13
48
1
60
0
100
AcDbLine
10
29.9606
20
-11.681846
30
0
11
29.057629
21
-16.802846
31
0
39
0
210
0
220
0
230
1
0
LINE
5
A9
100
AcDbEntity
8
1
62
256
6
ByLayer
370
13
48
1
60
0
100
AcDbLine
10
28.33266
20
-18.299697
30
0
11
27.536479
21
-18.159309
31
0
39
0
210
0
220
0
230
1
0
LINE
5
AA
100
AcDbEntity
8
1
62
256
6
ByLayer
370
13
48
1
60
0
100
AcDbLine
10
34.361322
20
-7.789009
30
0
11
34.357359
21
-7.786151
31
0
39
0
210
0
220
0
230
1
0
LINE
5
AB
100
AcDbEntity
8
1
62
256
6
ByLayer
370
13
48
1
60
0
100
AcDbLine
10
28.763333
20
-11.572278
30
0
11
27.895092
21
-16.496317
31
0
39
0
210
0
220
0
230
1
0
LINE
5
AC
100
AcDbEntity
8
1
62
256
6
ByLayer
370
13
48
1
60
0
100
AcDbLine
10
50.73372
20
-20.889367
30
0
11
51.675871
21
-20.323265
31
0
39
0
210
0
220
0
230
1
0
LINE
5
AD
100
AcDbEntity
8
1
62
256
6
ByLayer
370
13
48
1
60
0
100
AcDbLine
10
51.727134
20
-15.255433
30
0
11
52.418849
21
-16.109629
31
0
39
0
210
0
220
0
230
1
0
LINE
5
AE
100
AcDbEntity
8
1
62
256
6
ByLayer
370
13
48
1
60
0
100
AcDbLine
10
37.40919
20
-21.806644
30
0
11
29.891996
21
-20.48116
31
0
39
0
210
0
220
0
230
1
0
LINE
5
AF
100
AcDbEntity
8
1
62
256
6
ByLayer
370
13
48
1
60
0
100
AcDbLine
10
29.057629
20
-16.802846
30
0
11
30.765467
21
-17.103984
31
0
39
0
210
0
220
0
230
1
0
LINE
5
B0
100
AcDbEntity
8
1
62
256
6
ByLayer
370
13
48
1
60
0
100
AcDbLine
10
28.763333
20
-11.572278
30
0
11
28.917998
21
-11.447236
31
0
39
0
210
0
220
0
230
1
0
LINE
5
B1
100
AcDbEntity
8
1
62
256
6
ByLayer
370
13
48
1
60
0
100
AcDbLine
10
52.545485
20
-16.314295
30
0
11
52.418849
21
-16.109629
31
0
39
0
210
0
220
0
230
1
0
LINE
5
B2
100
AcDbEntity
8
1
62
256
6
ByLayer
370
13
48
1
60
0
100
AcDbLine
10
52.731363
20
-16.495552
30
0
11
52.878286
21
-16.676987
31
0
39
0
210
0
220
0
230
1
0
LINE
5
B3
100
AcDbEntity
8
1
62
256
6
ByLayer
370
13
48
1
60
0
100
AcDbLine
10
29.254048
20
-11.506491
30
0
11
28.917998
21
-11.447236
31
0
39
0
210
0
220
0
230
1
0
LINE
5
B4
100
AcDbEntity
8
1
62
256
6
ByLayer
370
13
48
1
60
0
100
AcDbLine
10
31.861527
20
-21.966052
30
0
11
37.214647
21
-22.909952
31
0
39
0
210
0
220
0
230
1
0
LINE
5
B5
100
AcDbEntity
8
1
62
256
6
ByLayer
370
13
48
1
60
0
100
AcDbLine
10
51.675871
20
-20.323265
30
0
11
51.86487
21
-20.174254
31
0
39
0
210
0
220
0
230
1
0
LINE
5
B6
100
AcDbEntity
8
1
62
256
6
ByLayer
370
13
48
1
60
0
100
AcDbLine
10
34.357359
20
-7.786151
30
0
11
32.939399
21
-7.536126
31
0
39
0
210
0
220
0
230
1
0
LINE
5
B7
100
AcDbEntity
8
1
62
256
6
ByLayer
370
13
48
1
60
0
100
AcDbLine
10
30.438865
20
-21.717358
30
0
11
31.856825
21
-21.967383
31
0
39
0
210
0
220
0
230
1
0
LINE
5
B8
100
AcDbEntity
8
1
62
256
6
ByLayer
370
13
48
1
60
0
100
AcDbLine
10
34.361322
20
-7.789009
30
0
11
39.714442
21
-8.732909
31
0
39
0
210
0
220
0
230
1
0
LINE
5
B9
100
AcDbEntity
8
1
62
256
6
ByLayer
370
13
48
1
60
0
100
AcDbLine
10
28.333713
20
-16.725972
30
0
11
27.997663
21
-16.666717
31
0
39
0
210
0
220
0
230
1
0
LINE
5
BA
100
AcDbEntity
8
1
62
256
6
ByLayer
370
13
48
1
60
0
100
AcDbLine
10
29.254048
20
-11.506491
30
0
11
28.333713
21
-16.725972
31
0
39
0
210
0
220
0
230
1
0
LINE
5
BB
100
AcDbEntity
8
1
62
256
6
ByLayer
370
13
48
1
60
0
100
AcDbLine
10
29.063378
20
-11.625184
30
0
11
28.763333
21
-11.572278
31
0
39
0
210
0
220
0
230
1
0
LINE
5
BC
100
AcDbEntity
8
1
62
256
6
ByLayer
370
13
48
1
60
0
100
AcDbLine
10
39.519899
20
-9.836216
30
0
11
32.002705
21
-8.510732
31
0
39
0
210
0
220
0
230
1
0
LINE
5
BD
100
AcDbEntity
8
1
62
256
6
ByLayer
370
13
48
1
60
0
100
AcDbLine
10
52.101532
20
-20.067502
30
0
11
52.301649
21
-19.94726
31
0
39
0
210
0
220
0
230
1
0
LINE
5
BE
100
AcDbEntity
8
1
62
256
6
ByLayer
370
13
48
1
60
0
100
AcDbLine
10
29.791304
20
-10.027312
30
0
11
28.33266
21
-18.299697
31
0
39
0
210
0
220
0
230
1
0
LINE
5
BF
100
AcDbEntity
8
1
62
256
6
ByLayer
370
13
48
1
60
0
100
AcDbLine
10
36.321558
20
-11.229543
30
0
11
38.344432
21
-11.586231
31
0
39
0
210
0
220
0
230
1
0
LINE
5
C0
100
AcDbEntity
8
1
62
256
6
ByLayer
370
13
48
1
60
0
100
AcDbLine
10
29.063378
20
-11.625184
30
0
11
29.254048
21
-11.506491
31
0
39
0
210
0
220
0
230
1
0
LINE
5
C1
100
AcDbEntity
8
1
62
256
6
ByLayer
370
13
48
1
60
0
100
AcDbLine
10
36.903153
20
-19.760135
30
0
11
34.880278
21
-19.403448
31
0
39
0
210
0
220
0
230
1
0
LINE
5
C2
100
AcDbEntity
8
1
62
256
6
ByLayer
370
13
48
1
60
0
100
AcDbLine
10
28.195137
20
-16.549223
30
0
11
28.333713
21
-16.725972
31
0
39
0
210
0
220
0
230
1
0
LINE
5
C3
100
AcDbEntity
8
1
62
256
6
ByLayer
370
13
48
1
60
0
100
AcDbLine
10
31.861527
20
-21.966052
30
0
11
31.856825
21
-21.967383
31
0
39
0
210
0
220
0
230
1
0
LINE
5
C4
100
AcDbEntity
8
1
62
256
6
ByLayer
370
13
48
1
60
0
100
AcDbLine
10
32.939399
20
-7.536126
30
0
11
32.675183
21
-7.489538
31
0
39
0
210
0
220
0
230
1
0
LINE
5
C5
100
AcDbEntity
8
1
62
256
6
ByLayer
370
13
48
1
60
0
100
AcDbLine
10
29.9606
20
-11.681846
30
0
11
31.668438
21
-11.982984
31
0
39
0
210
0
220
0
230
1
0
LINE
5
C6
100
AcDbEntity
8
1
62
256
6
ByLayer
370
13
48
1
60
0
100
AcDbLine
10
29.791304
20
-10.027312
30
0
11
28.995124
21
-9.886924
31
0
39
0
210
0
220
0
230
1
0
LINE
5
C7
100
AcDbEntity
8
1
62
256
6
ByLayer
370
13
48
1
60
0
100
AcDbLine
10
27.536479
20
-18.159309
30
0
11
28.995124
21
-9.886924
31
0
39
0
210
0
220
0
230
1
0
LINE
5
C8
100
AcDbEntity
8
1
62
256
6
ByLayer
370
13
48
1
60
0
100
AcDbLine
10
30.438865
20
-21.717358
30
0
11
30.17465
21
-21.67077
31
0
39
0
210
0
220
0
230
1
0
LINE
5
C9
100
AcDbEntity
8
1
62
256
6
ByLayer
370
13
48
1
60
0
100
AcDbLine
10
29.063378
20
-11.625184
30
0
11
28.195137
21
-16.549223
31
0
39
0
210
0
220
0
230
1
0
LINE
5
CA
100
AcDbEntity
8
1
62
256
6
ByLayer
370
13
48
1
60
0
100
AcDbLine
10
28.195137
20
-16.549223
30
0
11
27.895092
21
-16.496317
31
0
39
0
210
0
220
0
230
1
0
LINE
5
CB
100
AcDbEntity
8
1
62
256
6
ByLayer
370
13
48
1
60
0
100
AcDbLine
10
57.727156
20
-19.350771
30
0
11
59.424381
21
-22.990482
31
0
39
0
210
0
220
0
230
1
0
LINE
5
CC
100
AcDbEntity
8
1
62
256
6
ByLayer
370
13
48
1
60
0
100
AcDbLine
10
43.05945
20
-9.084779
30
0
11
44.406878
21
-9.202664
31
0
39
0
210
0
220
0
230
1
0
LINE
5
CD
100
AcDbEntity
8
1
62
256
6
ByLayer
370
13
48
1
60
0
100
AcDbLine
10
46.086659
20
-9.652759
30
0
11
49.726369
21
-11.349984
31
0
39
0
210
0
220
0
230
1
0
LINE
5
CE
100
AcDbEntity
8
1
62
256
6
ByLayer
370
13
48
1
60
0
100
AcDbLine
10
59.01769
20
-26.992361
30
0
11
57.670262
21
-26.874477
31
0
39
0
210
0
220
0
230
1
0
LINE
5
CF
100
AcDbEntity
8
1
62
256
6
ByLayer
370
13
48
1
60
0
100
AcDbLine
10
49.976101
20
-11.454839
30
0
11
53.370522
21
-13.037684
31
0
39
0
210
0
220
0
230
1
0
LINE
5
D0
100
AcDbEntity
8
1
62
256
6
ByLayer
370
13
48
1
60
0
100
AcDbLine
10
59.874477
20
-24.670262
30
0
11
59.992361
21
-26.01769
31
0
39
0
210
0
220
0
230
1
0
LINE
5
D1
100
AcDbEntity
8
1
62
256
6
ByLayer
370
13
48
1
60
0
100
AcDbLine
10
55.990482
20
-26.424381
30
0
11
52.350771
21
-24.727156
31
0
39
0
210
0
220
0
230
1
0
LINE
5
D2
100
AcDbEntity
8
1
62
256
6
ByLayer
370
13
48
1
60
0
100
AcDbLine
10
56.039457
20
-15.706618
30
0
11
57.622301
21
-19.101039
31
0
39
0
210
0
220
0
230
1
0
LINE
5
D3
100
AcDbEntity
8
1
62
256
6
ByLayer
370
13
48
1
60
0
100
AcDbLine
10
52.101039
20
-24.622301
30
0
11
48.706618
21
-23.039457
31
0
39
0
210
0
220
0
230
1
0
MTEXT
5
18A
100
AcDbEntity
8
SK6
62
256
6
ByLayer
370
13
48
1
60
0
100
AcDbMText
10
0.902534
20
28.350079
30
0
210
0
220
0
230
1
1
\W0.7230;C4-CP-25BL-27060-11B
40
3.5
41
0
44
1.084337
50
0
71
7
72
5
7
iso_b_vert
0
DIMENSION
5
19C
100
AcDbEntity
8
SK2
62
256
6
ByLayer
370
13
48
1
60
0
100
AcDbDimension
2
DimnDraft3D1
10
-30.85
20
-20
30
0
11
-30.85
21
0
31
0
70
32
71
5
72
1
41
1
210
0
220
0
230
1
3
Standard
100
AcDbAlignedDimension
13
-1.5875
23
20
33
0
14
-1.5875
24
-20
34
0
50
90
100
AcDbRotatedDimension
1001
ACAD
1000
DSTYLE
1002
{
1070
    74
1070
     0
1070
   279
1070
     0
1070
   172
1070
     1
1070
   173
1070
     1
1070
   340
1005
18B
1070
   271
1070
     1
1070
   272
1070
     2
1070
    77
1070
     1
1070
    73
1070
     0
1070
   171
1070
     3
1070
   274
1070
     4
1070
   177
1070
   150
1070
   176
1070
     9
1070
   178
1070
    43
1070
    78
1070
     8
1070
    48
1040
-0.005
1070
    41
1041
3.175
1070
   147
1041
2.25
1070
    42
1041
1.5875
1070
    44
1041
3.175
1070
   140
1041
4.5
1070
   343
1005
19D
1070
   344
1005
19D
1002
}
0
DIMENSION
5
1B2
100
AcDbEntity
8
2
62
256
6
ByLayer
370
13
48
1
60
0
100
AcDbDimension
2
DimnDraft3D2
10
85.85
20
0
30
0
11
85.85
21
-13.5
31
0
70
32
71
5
72
1
41
1
210
0
220
0
230
1
3
Standard
100
AcDbAlignedDimension
13
61.5875
23
-27
33
0
14
61.5875
24
0
34
0
50
90
100
AcDbRotatedDimension
1001
ACAD
1000
DSTYLE
1002
{
1070
    74
1070
     0
1070
   279
1070
     0
1070
   172
1070
     1
1070
   173
1070
     1
1070
   340
1005
18B
1070
   271
1070
     1
1070
   272
1070
     2
1070
    77
1070
     1
1070
    73
1070
     0
1070
   171
1070
     3
1070
   274
1070
     4
1070
   177
1070
   150
1070
   176
1070
     9
1070
   178
1070
    43
1070
    78
1070
     8
1070
    48
1040
-0.005
1070
    41
1041
3.175
1070
   147
1041
2.25
1070
    42
1041
1.5875
1070
    44
1041
3.175
1070
   140
1041
4.5
1070
   343
1005
19D
1070
   344
1005
19D
1002
}
0
DIMENSION
5
1C0
100
AcDbEntity
8
2
62
256
6
ByLayer
370
13
48
1
60
0
100
AcDbDimension
2
DimnDraft3D3
10
60
20
-53.5
30
0
11
30
21
-53.5
31
0
70
32
71
5
72
1
41
1
210
0
220
0
230
1
3
Standard
100
AcDbAlignedDimension
13
0
23
-21.5875
33
0
14
60
24
-28.5875
34
0
50
0
100
AcDbRotatedDimension
1001
ACAD
1000
DSTYLE
1002
{
1070
   279
1070
     0
1070
   172
1070
     1
1070
   173
1070
     1
1070
   340
1005
18B
1070
   271
1070
     1
1070
   272
1070
     2
1070
    77
1070
     1
1070
    73
1070
     0
1070
   171
1070
     3
1070
   274
1070
     4
1070
   177
1070
   150
1070
   176
1070
     9
1070
   178
1070
    43
1070
    78
1070
     8
1070
    48
1040
-0.005
1070
    41
1041
3.175
1070
   147
1041
2.25
1070
    42
1041
1.5875
1070
    44
1041
3.175
1070
   140
1041
4.5
1070
   343
1005
19D
1070
   344
1005
19D
1002
}
0
DIMENSION
5
1CE
100
AcDbEntity
8
2
62
256
6
ByLayer
370
13
48
1
60
0
100
AcDbDimension
2
DimnDraft3D4
10
59.07981
20
-24.04929
30
0
11
53.19882
21
4.655498
31
0
70
34
71
5
72
1
41
1
210
0
220
0
230
1
3
Standard
100
AcDb2LineAngularDimension
13
60
23
-27
33
0
14
60
24
-25.4
34
0
15
59.925046
25
-25.861905
35
0
16
54.172798
26
0.262166
36
0
40
0
0
ENDSEC
0
SECTION
2
OBJECTS
0
DICTIONARY
5
238
330
0
100
AcDbDictionary
280
0
281
1
3
ACAD_GROUP
350
239
3
ACAD_MLINESTYLE
350
23a
0
DICTIONARY
5
239
330
0
100
AcDbDictionary
280
0
281
1
0
DICTIONARY
5
23a
330
0
100
AcDbDictionary
280
0
281
1
3
Standard
350
18
0
MLINESTYLE
5
18
330
23a
100
AcDbMlineStyle
2
Standard
70
0
3

62
256
51
90
52
90
71
2
49
-0.5
62
256
6
ByLayer
49
0.5
62
256
6
ByLayer
0
RASTERVARIABLES
5
227
330

100
AcDbRasterVariables
90
0
70
1
71
1
72
1
0
ENDSEC
0
EOF
