0
SECTION
2
HEADER
9
$ACADVER
1
AC1015
9
$DWGCODEPAGE
3
ANSI_1252
9
$HANDSEED
5
2c8
9
$ANGBASE
50
0
9
$ANGDIR
70
0
9
$ATTMODE
70
1
9
$AUNITS
70
0
9
$AUPREC
70
0
9
$CECOLOR
62
256
9
$CELTSCALE
40
1
9
$CELTYPE
6
ByLayer
9
$CELWEIGHT
370
18
9
$CLAYER
8
0
9
$CMLJUST
70
0
9
$CMLSCALE
40
1
9
$CMLSTYLE
2
Standard
9
$DIMSTYLE
2
Standard
9
$TEXTSIZE
40
0.2
9
$TEXTSTYLE
7
Standard
9
$LUNITS
70
2
9
$LUPREC
70
4
9
$EXTNAMES
290
1
9
$INSUNITS
70
4
9
$LTSCALE
40
1
9
$LWDISPLAY
290
1
9
$PDMODE
70
0
9
$PDSIZE
40
0
9
$PLINEGEN
70
0
0
ENDSEC
0
SECTION
2
CLASSES
0
CLASS
1
RASTERVARIABLES
2
AcDbRasterVariables
3
ISM
90
0
280
0
281
0
0
ENDSEC
0
SECTION
2
TABLES
0
TABLE
2
VPORT
5
2be
100
AcDbSymbolTable
0
VPORT
5
1
100
AcDbSymbolTableRecord
100
AcDbViewportTableRecord
2
*Active
70
0
10
0
20
0
11
1
21
1
12
-1
22
1
13
0
23
0
14
0.5
24
0.5
15
10
25
10
16
0
26
0
36
1
17
0
27
0
37
0
0
ENDTAB
0
TABLE
2
LTYPE
5
2bf
100
AcDbSymbolTable
0
LTYPE
5
14
100
AcDbSymbolTableRecord
100
AcDbLinetypeTableRecord
70
0
2
ByBlock
3

72
65
73
0
40
0
0
LTYPE
5
15
100
AcDbSymbolTableRecord
100
AcDbLinetypeTableRecord
70
0
2
ByLayer
3

72
65
73
0
40
0
0
LTYPE
5
16
100
AcDbSymbolTableRecord
100
AcDbLinetypeTableRecord
70
0
2
CONTINUOUS
3
Solid line
72
65
73
0
40
0
0
LTYPE
5
6A
100
AcDbSymbolTableRecord
100
AcDbLinetypeTableRecord
70
0
2
CENTER
3
____ _ ____ _ ____ _ ____
72
65
73
4
40
47.5
49
22
74
0
49
-8.5
74
0
49
8.5
74
0
49
-8.5
74
0
0
LTYPE
5
6B
100
AcDbSymbolTableRecord
100
AcDbLinetypeTableRecord
70
0
2
DASHED
3
__ __ __ __ __ __ __ __ __
72
65
73
2
40
25.72
49
12.86
74
0
49
-12.86
74
0
0
ENDTAB
0
TABLE
2
LAYER
5
2c0
100
AcDbSymbolTable
0
LAYER
5
10
100
AcDbSymbolTableRecord
100
AcDbLayerTableRecord
2
0
70
0
62
7
6
CONTINUOUS
290
1
370
-3
390
0
0
LAYER
5
6D
100
AcDbSymbolTableRecord
100
AcDbLayerTableRecord
2
2
70
0
62
7
6
CONTINUOUS
290
1
370
-3
390
0
0
LAYER
5
6F
100
AcDbSymbolTableRecord
100
AcDbLayerTableRecord
2
80
70
0
62
-6
6
CONTINUOUS
290
1
370
-3
390
0
0
LAYER
5
71
100
AcDbSymbolTableRecord
100
AcDbLayerTableRecord
2
81
70
0
62
-3
6
CONTINUOUS
290
1
370
-3
390
0
0
LAYER
5
73
100
AcDbSymbolTableRecord
100
AcDbLayerTableRecord
2
1
70
0
62
4
6
CONTINUOUS
290
1
370
-3
390
0
0
LAYER
5
8D
100
AcDbSymbolTableRecord
100
AcDbLayerTableRecord
2
4
70
0
62
-2
6
CENTER
290
1
370
-3
390
0
0
LAYER
5
2aa
100
AcDbSymbolTableRecord
100
AcDbLayerTableRecord
2
SK4
70
0
62
2
6
CENTER
290
1
370
-3
390
0
0
LAYER
5
2ab
100
AcDbSymbolTableRecord
100
AcDbLayerTableRecord
2
SK1
70
0
62
4
6
CONTINUOUS
290
1
370
-3
390
0
0
LAYER
5
2ac
100
AcDbSymbolTableRecord
100
AcDbLayerTableRecord
2
SK6
70
0
62
5
6
CONTINUOUS
290
1
370
-3
390
0
0
LAYER
5
2ad
100
AcDbSymbolTableRecord
100
AcDbLayerTableRecord
2
SK2
70
0
62
7
6
CONTINUOUS
290
1
370
-3
390
0
0
ENDTAB
0
TABLE
2
STYLE
5
2c1
100
AcDbSymbolTable
0
STYLE
5
11
100
AcDbSymbolTableRecord
100
AcDbTextStyleTableRecord
2
Standard
3
txt
70
0
71
0
40
0
41
1
42
0
50
0
0
STYLE
5
20E
100
AcDbSymbolTableRecord
100
AcDbTextStyleTableRecord
2
iso_b_vert
3
simplex.shx
70
0
71
0
40
0
41
1
42
0
50
0
0
STYLE
5
20F
100
AcDbSymbolTableRecord
100
AcDbTextStyleTableRecord
2
DWGDirectTextStyle
3
simplex
70
0
71
0
40
0
41
1
42
0
50
0
0
ENDTAB
0
TABLE
2
DIMSTYLE
5
2c2
100
AcDbSymbolTable
100
AcDbDimStyleTable
0
DIMSTYLE
105
27
100
AcDbSymbolTableRecord
100
AcDbDimStyleTableRecord
2
Standard
70
0
3
<>
41
0.18
42
0.0625
44
0.18
140
0.18
147
0.09
73
0
74
0
77
1
271
2
275
0
278
52
280
0
340
11
0
ENDTAB
0
TABLE
2
VIEW
5
2c3
100
AcDbSymbolTable
0
ENDTAB
0
TABLE
2
UCS
5
2c4
100
AcDbSymbolTable
0
ENDTAB
0
TABLE
2
APPID
5
2c5
100
AcDbSymbolTable
0
APPID
5
12
100
AcDbSymbolTableRecord
100
AcDbRegAppTableRecord
2
ACAD
70
0
0
ENDTAB
0
TABLE
2
BLOCK_RECORD
5
2c6
100
AcDbSymbolTable
0
BLOCK_RECORD
5
1F
100
AcDbSymbolTableRecord
100
AcDbBlockTableRecord
2
*Model_Space
340
0
70
0
0
BLOCK_RECORD
5
1B
100
AcDbSymbolTableRecord
100
AcDbBlockTableRecord
2
*Paper_Space
340
0
70
0
0
BLOCK_RECORD
5
23
100
AcDbSymbolTableRecord
100
AcDbBlockTableRecord
2
*Paper_Space0
340
0
70
0
0
BLOCK_RECORD
5
211
100
AcDbSymbolTableRecord
100
AcDbBlockTableRecord
2
DimnDraft3D11
340
0
70
0
0
BLOCK_RECORD
5
21F
100
AcDbSymbolTableRecord
100
AcDbBlockTableRecord
2
DimnDraft3D2
340
0
70
0
0
BLOCK_RECORD
5
22D
100
AcDbSymbolTableRecord
100
AcDbBlockTableRecord
2
_CLOSED
340
0
70
0
0
BLOCK_RECORD
5
234
100
AcDbSymbolTableRecord
100
AcDbBlockTableRecord
2
DimnDraft3D3
340
0
70
0
0
BLOCK_RECORD
5
243
100
AcDbSymbolTableRecord
100
AcDbBlockTableRecord
2
DimnDraft3D4
340
0
70
0
0
ENDTAB
0
ENDSEC
0
SECTION
2
BLOCKS
0
BLOCK
5
20
100
AcDbEntity
8
0
100
AcDbBlockBegin
2
*Model_Space
70
0
10
0
20
0
30
0
3
*Model_Space
0
ENDBLK
5
21
100
AcDbEntity
8
0
100
AcDbBlockEnd
0
BLOCK
5
1C
100
AcDbEntity
8
0
100
AcDbBlockBegin
2
*Paper_Space
70
0
10
0
20
0
30
0
3
*Paper_Space
0
ENDBLK
5
1D
100
AcDbEntity
8
0
100
AcDbBlockEnd
0
BLOCK
5
24
100
AcDbEntity
8
0
100
AcDbBlockBegin
2
*Paper_Space0
70
0
10
0
20
0
30
0
3
*Paper_Space0
0
ENDBLK
5
25
100
AcDbEntity
8
0
100
AcDbBlockEnd
0
BLOCK
5
212
100
AcDbEntity
8
0
100
AcDbBlockBegin
2
DimnDraft3D11
70
0
10
0
20
0
30
0
3
DimnDraft3D11
0
LINE
5
214
100
AcDbEntity
8
2
62
256
6
ByLayer
370
25
48
1
60
0
100
AcDbLine
10
50
20
24
30
0
11
50
21
52.75
31
0
39
0
210
0
220
0
230
1
0
LINE
5
215
100
AcDbEntity
8
2
62
256
6
ByLayer
370
25
48
1
60
0
100
AcDbLine
10
0
20
22
30
0
11
0
21
52.75
31
0
39
0
210
0
220
0
230
1
0
LINE
5
216
100
AcDbEntity
8
2
62
256
6
ByLayer
370
25
48
1
60
0
100
AcDbLine
10
50
20
50.75
30
0
11
0
21
50.75
31
0
39
0
210
0
220
0
230
1
0
LINE
5
217
100
AcDbEntity
8
2
62
256
6
ByLayer
370
25
48
1
60
0
100
AcDbLine
10
50
20
50.75
30
0
11
46.825002
21
50.332003
31
0
39
0
210
0
220
0
230
1
0
LINE
5
218
100
AcDbEntity
8
2
62
256
6
ByLayer
370
25
48
1
60
0
100
AcDbLine
10
50
20
50.75
30
0
11
46.824998
21
51.167997
31
0
39
0
210
0
220
0
230
1
0
LINE
5
219
100
AcDbEntity
8
2
62
256
6
ByLayer
370
25
48
1
60
0
100
AcDbLine
10
46.825002
20
50.332003
30
0
11
46.824998
21
51.167997
31
0
39
0
210
0
220
0
230
1
0
LINE
5
21A
100
AcDbEntity
8
2
62
256
6
ByLayer
370
25
48
1
60
0
100
AcDbLine
10
0
20
50.75
30
0
11
3.174998
21
51.167997
31
0
39
0
210
0
220
0
230
1
0
LINE
5
21B
100
AcDbEntity
8
2
62
256
6
ByLayer
370
25
48
1
60
0
100
AcDbLine
10
0
20
50.75
30
0
11
3.175002
21
50.332003
31
0
39
0
210
0
220
0
230
1
0
LINE
5
21C
100
AcDbEntity
8
2
62
256
6
ByLayer
370
25
48
1
60
0
100
AcDbLine
10
3.174998
20
51.167997
30
0
11
3.175002
21
50.332003
31
0
39
0
210
0
220
0
230
1
0
MTEXT
5
21D
100
AcDbEntity
8
2
62
256
6
ByLayer
370
18
48
1
60
0
100
AcDbMText
10
20.843421
20
51.875
30
0
210
0
220
0
230
1
1
\W0.7346;50.0
40
4.5
41
0
44
1.084337
50
0
71
7
72
5
7
iso_b_vert
0
ENDBLK
5
213
100
AcDbEntity
8
0
100
AcDbBlockEnd
0
BLOCK
5
22A
100
AcDbEntity
8
0
100
AcDbBlockBegin
2
DimnDraft3D2
70
0
10
0
20
0
30
0
3
DimnDraft3D2
0
MTEXT
5
220
100
AcDbEntity
8
2
62
256
6
ByLayer
370
18
48
1
60
0
100
AcDbMText
10
39.407685
20
31.009062
30
0
210
0
220
0
230
1
1
\W0.7399;75%%d
40
4.5
41
0
44
1.084337
50
37.5000000000001
71
7
72
5
7
iso_b_vert
0
LINE
5
221
100
AcDbEntity
8
2
62
256
6
ByLayer
370
13
48
1
60
0
100
AcDbLine
10
50
20
24
30
0
11
50
21
36.470563
31
0
39
0
210
0
220
0
230
1
0
LINE
5
222
100
AcDbEntity
8
2
62
256
6
ByLayer
370
13
48
1
60
0
100
AcDbLine
10
40.502791
20
24.544769
30
0
11
36.02251
21
25.745257
31
0
39
0
210
0
220
0
230
1
0
ARC
5
223
100
AcDbEntity
8
2
62
256
6
ByLayer
370
13
48
1
60
0
100
AcDbCircle
39
0
10
50
20
22
30
0
40
12.4705627484771
210
0
220
0
230
1
100
AcDbArc
50
90
51
165
0
LINE
5
224
100
AcDbEntity
8
2
62
256
6
ByLayer
370
13
48
1
60
0
100
AcDbLine
10
50
20
34.470563
30
0
11
46.857808
21
33.852531
31
0
39
0
210
0
220
0
230
1
0
LINE
5
225
100
AcDbEntity
8
2
62
256
6
ByLayer
370
13
48
1
60
0
100
AcDbLine
10
50
20
34.470563
30
0
11
46.804914
21
34.686849
31
0
39
0
210
0
220
0
230
1
0
LINE
5
226
100
AcDbEntity
8
2
62
256
6
ByLayer
370
13
48
1
60
0
100
AcDbLine
10
46.857808
20
33.852531
30
0
11
46.804914
21
34.686849
31
0
39
0
210
0
220
0
230
1
0
LINE
5
227
100
AcDbEntity
8
2
62
256
6
ByLayer
370
13
48
1
60
0
100
AcDbLine
10
37.954361
20
25.227619
30
0
11
38.572393
21
28.369812
31
0
39
0
210
0
220
0
230
1
0
LINE
5
228
100
AcDbEntity
8
2
62
256
6
ByLayer
370
13
48
1
60
0
100
AcDbLine
10
37.954361
20
25.227619
30
0
11
39.364595
21
28.102788
31
0
39
0
210
0
220
0
230
1
0
LINE
5
229
100
AcDbEntity
8
2
62
256
6
ByLayer
370
13
48
1
60
0
100
AcDbLine
10
38.572393
20
28.369812
30
0
11
39.364595
21
28.102788
31
0
39
0
210
0
220
0
230
1
0
ENDBLK
5
22B
100
AcDbEntity
8
0
100
AcDbBlockEnd
0
BLOCK
5
22E
100
AcDbEntity
8
0
100
AcDbBlockBegin
2
_CLOSED
70
0
10
0
20
0
30
0
3
_CLOSED
0
LINE
5
230
100
AcDbEntity
8
0
62
256
6
ByLayer
370
-2
48
1
60
0
100
AcDbLine
10
-1
20
0.166667
30
0
11
0
21
0
31
0
39
0
210
0
220
0
230
1
0
LINE
5
231
100
AcDbEntity
8
0
62
256
6
ByLayer
370
-2
48
1
60
0
100
AcDbLine
10
0
20
0
30
0
11
-1
21
-0.166667
31
0
39
0
210
0
220
0
230
1
0
LINE
5
232
100
AcDbEntity
8
0
62
256
6
ByLayer
370
-2
48
1
60
0
100
AcDbLine
10
-1
20
0.166667
30
0
11
-1
21
-0.166667
31
0
39
0
210
0
220
0
230
1
0
LINE
5
233
100
AcDbEntity
8
0
62
256
6
ByLayer
370
-2
48
1
60
0
100
AcDbLine
10
0
20
0
30
0
11
-1
21
0
31
0
39
0
210
0
220
0
230
1
0
ENDBLK
5
22F
100
AcDbEntity
8
0
100
AcDbBlockEnd
0
BLOCK
5
240
100
AcDbEntity
8
0
100
AcDbBlockBegin
2
DimnDraft3D3
70
0
10
0
20
0
30
0
3
DimnDraft3D3
0
MTEXT
5
235
100
AcDbEntity
8
SK2
62
256
6
ByLayer
370
18
48
1
60
0
100
AcDbMText
10
-32.875
20
-1.8
30
0
210
0
220
0
230
1
1
\W0.7361;40
40
4.5
41
0
44
1.084337
50
90
71
7
72
5
7
iso_b_vert
0
LINE
5
237
100
AcDbEntity
8
SK2
62
256
6
ByLayer
370
13
48
1
60
0
100
AcDbLine
10
-2
20
-20
30
0
11
-33.75
21
-20
31
0
39
0
210
0
220
0
230
1
0
LINE
5
238
100
AcDbEntity
8
SK2
62
256
6
ByLayer
370
13
48
1
60
0
100
AcDbLine
10
-2
20
20
30
0
11
-33.75
21
20
31
0
39
0
210
0
220
0
230
1
0
LINE
5
239
100
AcDbEntity
8
SK2
62
256
6
ByLayer
370
13
48
1
60
0
100
AcDbLine
10
-31.75
20
-20
30
0
11
-31.75
21
20
31
0
39
0
210
0
220
0
230
1
0
LINE
5
23A
100
AcDbEntity
8
SK2
62
256
6
ByLayer
370
13
48
1
60
0
100
AcDbLine
10
-31.75
20
-20
30
0
11
-32.167997
21
-16.825002
31
0
39
0
210
0
220
0
230
1
0
LINE
5
23B
100
AcDbEntity
8
SK2
62
256
6
ByLayer
370
13
48
1
60
0
100
AcDbLine
10
-31.75
20
-20
30
0
11
-31.332003
21
-16.824998
31
0
39
0
210
0
220
0
230
1
0
LINE
5
23C
100
AcDbEntity
8
SK2
62
256
6
ByLayer
370
13
48
1
60
0
100
AcDbLine
10
-32.167997
20
-16.825002
30
0
11
-31.332003
21
-16.824998
31
0
39
0
210
0
220
0
230
1
0
LINE
5
23D
100
AcDbEntity
8
SK2
62
256
6
ByLayer
370
13
48
1
60
0
100
AcDbLine
10
-31.75
20
20
30
0
11
-31.332003
21
16.825002
31
0
39
0
210
0
220
0
230
1
0
LINE
5
23E
100
AcDbEntity
8
SK2
62
256
6
ByLayer
370
13
48
1
60
0
100
AcDbLine
10
-31.75
20
20
30
0
11
-32.167997
21
16.824998
31
0
39
0
210
0
220
0
230
1
0
LINE
5
23F
100
AcDbEntity
8
SK2
62
256
6
ByLayer
370
13
48
1
60
0
100
AcDbLine
10
-31.332003
20
16.825002
30
0
11
-32.167997
21
16.824998
31
0
39
0
210
0
220
0
230
1
0
ENDBLK
5
241
100
AcDbEntity
8
0
100
AcDbBlockEnd
0
BLOCK
5
24E
100
AcDbEntity
8
0
100
AcDbBlockBegin
2
DimnDraft3D4
70
0
10
0
20
0
30
0
3
DimnDraft3D4
0
MTEXT
5
244
100
AcDbEntity
8
2
62
256
6
ByLayer
370
18
48
1
60
0
100
AcDbMText
10
71.125
20
6.843421
30
0
210
0
220
0
230
1
1
\W0.7346;22.0
40
4.5
41
0
44
1.084337
50
90
71
7
72
5
7
iso_b_vert
0
LINE
5
245
100
AcDbEntity
8
2
62
256
6
ByLayer
370
13
48
1
60
0
100
AcDbLine
10
52
20
0
30
0
11
74.25
21
0
31
0
39
0
210
0
220
0
230
1
0
LINE
5
246
100
AcDbEntity
8
2
62
256
6
ByLayer
370
13
48
1
60
0
100
AcDbLine
10
52
20
22
30
0
11
74.25
21
22
31
0
39
0
210
0
220
0
230
1
0
LINE
5
247
100
AcDbEntity
8
2
62
256
6
ByLayer
370
13
48
1
60
0
100
AcDbLine
10
72.25
20
0
30
0
11
72.25
21
22
31
0
39
0
210
0
220
0
230
1
0
LINE
5
248
100
AcDbEntity
8
2
62
256
6
ByLayer
370
13
48
1
60
0
100
AcDbLine
10
72.25
20
0
30
0
11
71.832003
21
3.174998
31
0
39
0
210
0
220
0
230
1
0
LINE
5
249
100
AcDbEntity
8
2
62
256
6
ByLayer
370
13
48
1
60
0
100
AcDbLine
10
72.25
20
0
30
0
11
72.667997
21
3.175002
31
0
39
0
210
0
220
0
230
1
0
LINE
5
24A
100
AcDbEntity
8
2
62
256
6
ByLayer
370
13
48
1
60
0
100
AcDbLine
10
71.832003
20
3.174998
30
0
11
72.667997
21
3.175002
31
0
39
0
210
0
220
0
230
1
0
LINE
5
24B
100
AcDbEntity
8
2
62
256
6
ByLayer
370
13
48
1
60
0
100
AcDbLine
10
72.25
20
22
30
0
11
72.667997
21
18.825002
31
0
39
0
210
0
220
0
230
1
0
LINE
5
24C
100
AcDbEntity
8
2
62
256
6
ByLayer
370
13
48
1
60
0
100
AcDbLine
10
72.25
20
22
30
0
11
71.832003
21
18.824998
31
0
39
0
210
0
220
0
230
1
0
LINE
5
24D
100
AcDbEntity
8
2
62
256
6
ByLayer
370
13
48
1
60
0
100
AcDbLine
10
72.667997
20
18.825002
30
0
11
71.832003
21
18.824998
31
0
39
0
210
0
220
0
230
1
0
ENDBLK
5
24F
100
AcDbEntity
8
0
100
AcDbBlockEnd
0
ENDSEC
0
SECTION
2
ENTITIES
0
ARC
5
126
100
AcDbEntity
8
1
62
256
6
ByLayer
370
18
48
1
60
0
100
AcDbCircle
39
0
10
-16.841712
20
-8.229317
30
0
40
0.25
210
0
220
0
230
-1
100
AcDbArc
50
8.127068
51
100
0
ARC
5
127
100
AcDbEntity
8
SK1
62
256
6
ByLayer
370
18
48
1
60
0
100
AcDbCircle
39
0
10
0.6
20
-15
30
0
40
0.999999999999989
210
0
220
0
230
-1
100
AcDbArc
50
113.578178
51
126.869898
0
ARC
5
128
100
AcDbEntity
8
SK1
62
256
6
ByLayer
370
18
48
1
60
0
100
AcDbCircle
39
0
10
0.6
20
15
30
0
40
0.999999999999989
210
0
220
0
230
-1
100
AcDbArc
50
233.130102
51
246.421822
0
ARC
5
129
100
AcDbEntity
8
1
62
256
6
ByLayer
370
18
48
1
60
0
100
AcDbCircle
39
0
10
13.376863
20
-7.734525
30
0
40
3.25
210
0
220
0
230
1
100
AcDbArc
50
338.164908
51
351.872932
0
ELLIPSE
5
12A
100
AcDbEntity
8
1
62
256
6
ByLayer
370
18
48
1
60
0
100
AcDbEllipse
10
30.088732
20
12.747013
30
0
11
-0.19
21
0.329089653438087
31
0
210
0
220
0
230
1
40
0.989133
41
-2.68597914395414
42
-2.50405666387319
0
ELLIPSE
5
12B
100
AcDbEntity
8
1
62
256
6
ByLayer
370
18
48
1
60
0
100
AcDbEllipse
10
30.398616
20
13.956211
30
0
11
0.575000000000004
21
-0.995929214352101
31
0
210
0
220
0
230
1
40
0.989133
41
-0.885860386583727
42
-0.528343613077471
0
ELLIPSE
5
12C
100
AcDbEntity
8
1
62
256
6
ByLayer
370
18
48
1
60
0
100
AcDbEllipse
10
30.398616
20
13.956211
30
0
11
0.575000000000004
21
-0.995929214352101
31
0
210
0
220
0
230
1
40
0.989133
41
-2.22143000131181
42
-1.59723475766529
0
ELLIPSE
5
12D
100
AcDbEntity
8
1
62
256
6
ByLayer
370
18
48
1
60
0
100
AcDbEllipse
10
30.398616
20
13.956211
30
0
11
0.575000000000004
21
-0.995929214352101
31
0
210
0
220
0
230
1
40
0.989133
41
0.0619194365095136
42
-2.81136117130439
0
ELLIPSE
5
12E
100
AcDbEntity
8
1
62
256
6
ByLayer
370
18
48
1
60
0
100
AcDbEllipse
10
30.398616
20
13.956211
30
0
11
0.575000000000004
21
-0.995929214352101
31
0
210
0
220
0
230
1
40
0.989133
41
-0.528342736416279
42
-0.256265259497321
0
ELLIPSE
5
12F
100
AcDbEntity
8
1
62
256
6
ByLayer
370
18
48
1
60
0
100
AcDbEllipse
10
29.509481
20
14.84057
30
0
11
-0.19
21
0.329089653438087
31
0
210
0
220
0
230
1
40
0.989133
41
-1.1502083482718
42
-0.455646666845424
0
ELLIPSE
5
130
100
AcDbEntity
8
1
62
256
6
ByLayer
370
18
48
1
60
0
100
AcDbEllipse
10
30.822613
20
12.423779
30
0
11
0.212500000000002
21
-0.368060796608385
31
0
210
0
220
0
230
1
40
0.989133
41
3.14157508544018
42
-2.50405666387323
0
ELLIPSE
5
131
100
AcDbEntity
8
1
62
256
6
ByLayer
370
18
48
1
60
0
100
AcDbEllipse
10
31.287751
20
13.071853
30
0
11
-0.19
21
0.329089653438087
31
0
210
0
220
0
230
1
40
0.989133
41
-2.68594017794361
42
-1.45685911267662
0
ELLIPSE
5
132
100
AcDbEntity
8
1
62
256
6
ByLayer
370
18
48
1
60
0
100
AcDbEllipse
10
29.974619
20
15.488643
30
0
11
0.212500000000002
21
-0.368060796608385
31
0
210
0
220
0
230
1
40
0.989133
41
-1.1502083482718
42
-1.93219937467728E-05
0
ELLIPSE
5
133
100
AcDbEntity
8
1
62
256
6
ByLayer
370
18
48
1
60
0
100
AcDbEllipse
10
30.7085
20
15.165409
30
0
11
-0.19
21
0.329089653438087
31
0
210
0
220
0
230
1
40
0.989133
41
-2.1974058994684
42
-0.455689159116664
0
ELLIPSE
5
134
100
AcDbEntity
8
1
62
256
6
ByLayer
370
18
48
1
60
0
100
AcDbEllipse
10
31.927093
20
13.546657
30
0
11
0.212500000000002
21
-0.368060796608385
31
0
210
0
220
0
230
1
40
0.989133
41
-3.14158538262177
42
-1.45685911267661
0
ELLIPSE
5
135
100
AcDbEntity
8
1
62
256
6
ByLayer
370
18
48
1
60
0
100
AcDbEllipse
10
31.597635
20
14.28105
30
0
11
-0.19
21
0.329089653438087
31
0
210
0
220
0
230
1
40
0.989133
41
-2.99158584164611
42
-0.409661561480038
0
ELLIPSE
5
136
100
AcDbEntity
8
1
62
256
6
ByLayer
370
18
48
1
60
0
100
AcDbEllipse
10
30.264923
20
13.879023
30
0
11
2.00000000000002
21
-3.46410161513774
31
0
210
0
220
0
230
1
40
0.989133
41
3.14156346650317
42
-0.528343043247714
0
ELLIPSE
5
137
100
AcDbEntity
8
1
62
256
6
ByLayer
370
18
48
1
60
0
100
AcDbEllipse
10
30.264923
20
13.879023
30
0
11
2.00000000000002
21
-3.46410161513774
31
0
210
0
220
0
230
1
40
0.989133
41
-0.528343043247708
42
-1.34690444010076E-15
0
ELLIPSE
5
138
100
AcDbEntity
8
1
62
256
6
ByLayer
370
18
48
1
60
0
100
AcDbEllipse
10
30.290388
20
13.893726
30
0
11
0.575000000000004
21
-0.995929214352101
31
0
210
0
220
0
230
1
40
0.989133
41
0.139575202800499
42
3.08668329735398
0
ELLIPSE
5
139
100
AcDbEntity
8
1
62
256
6
ByLayer
370
18
48
1
60
0
100
AcDbEllipse
10
43.794959
20
17.490195
30
0
11
1.67707259421638
21
-2.90477494116409
31
0
210
0
220
0
230
1
40
0.989133
41
1.62190334992712
42
2.5100106851334
0
ELLIPSE
5
13A
100
AcDbEntity
8
1
62
256
6
ByLayer
370
18
48
1
60
0
100
AcDbEllipse
10
43.794959
20
17.490195
30
0
11
1.67707259421638
21
-2.90477494116409
31
0
210
0
220
0
230
1
40
0.989133
41
1.46338082781529
42
1.60251294697257
0
ELLIPSE
5
13B
100
AcDbEntity
8
1
62
256
6
ByLayer
370
18
48
1
60
0
100
AcDbEllipse
10
43.794959
20
17.490195
30
0
11
1.67707259421638
21
-2.90477494116409
31
0
210
0
220
0
230
1
40
0.989133
41
0.118909609901172
42
1.14783024489596
0
ELLIPSE
5
13C
100
AcDbEntity
8
1
62
256
6
ByLayer
370
18
48
1
60
0
100
AcDbEllipse
10
43.362047
20
17.240253
30
0
11
-2.75
21
4.76313972081441
31
0
210
0
220
0
230
1
40
0.989133
41
0.179996133720974
42
0.340937234527478
0
ELLIPSE
5
13D
100
AcDbEntity
8
1
62
256
6
ByLayer
370
18
48
1
60
0
100
AcDbEllipse
10
43.70583
20
17.438736
30
0
11
2.38826859021801
21
-4.13660254037843
31
0
210
0
220
0
230
1
40
0.989133
41
-0.804152615198247
42
-0.786196375342073
0
ELLIPSE
5
13E
100
AcDbEntity
8
1
62
256
6
ByLayer
370
18
48
1
60
0
100
AcDbEllipse
10
43.70583
20
17.438736
30
0
11
2.38826859021801
21
-4.13660254037843
31
0
210
0
220
0
230
1
40
0.989133
41
-2.86806863680294
42
-2.8530076604126
0
ELLIPSE
5
13F
100
AcDbEntity
8
1
62
256
6
ByLayer
370
18
48
1
60
0
100
AcDbEllipse
10
43.362047
20
17.240253
30
0
11
-2.75
21
4.76313972081441
31
0
210
0
220
0
230
1
40
0.989133
41
2.24823038799457
42
2.4489241613136
0
ELLIPSE
5
140
100
AcDbEntity
8
1
62
256
6
ByLayer
370
18
48
1
60
0
100
AcDbEllipse
10
42.768025
20
0
30
0
11
-21.2908099790357
21
-20.1436500950332
31
0
210
0
220
0
230
1
40
0.023758
41
0.0250961848609226
42
0.224944330237239
0
ELLIPSE
5
141
100
AcDbEntity
8
1
62
256
6
ByLayer
370
18
48
1
60
0
100
AcDbEllipse
10
39.021406
20
11.652462
30
0
11
1.19771302649506
21
-2.0744998147765
31
0
210
0
220
0
230
1
40
0.989133
41
-0.819029844730157
42
-0.60540202967653
0
ELLIPSE
5
142
100
AcDbEntity
8
1
62
256
6
ByLayer
370
18
48
1
60
0
100
AcDbEllipse
10
37.87281
20
10.826286
30
0
11
1.24912729598983
21
-2.16355194177549
31
0
210
0
220
0
230
1
40
0.989133
41
0.408366737789768
42
0.824549501887014
0
ELLIPSE
5
143
100
AcDbEntity
8
1
62
256
6
ByLayer
370
18
48
1
60
0
100
AcDbEllipse
10
37.853711
20
10.81526
30
0
11
1.17412729598983
21
-2.03364813120783
31
0
210
0
220
0
230
1
40
0.989133
41
0.335622516229935
42
0.875527806447491
0
ELLIPSE
5
144
100
AcDbEntity
8
1
62
256
6
ByLayer
370
18
48
1
60
0
100
AcDbEllipse
10
23.394331
20
17.877614
30
0
11
1.42925169960528
21
-2.63765797236401
31
0
210
0
220
0
230
1
40
0.9865
41
-0.229639942064424
42
-0.0891024469650606
0
ELLIPSE
5
145
100
AcDbEntity
8
1
62
256
6
ByLayer
370
18
48
1
60
0
100
AcDbEllipse
10
21.847608
20
15.857109
30
0
11
-1.03797844083055
21
2.81574371816367
31
0
210
0
220
0
230
1
40
0.878827
41
-0.0468019408833273
42
1.47613430215895
0
ELLIPSE
5
146
100
AcDbEntity
8
1
62
256
6
ByLayer
370
18
48
1
60
0
100
AcDbEllipse
10
31.076993
20
14.156825
30
0
11
1.9771315177873
21
-3.64876019510355
31
0
210
0
220
0
230
1
40
0.9865
41
-0.0041816821201901
42
2.91195271152537
0
ELLIPSE
5
147
100
AcDbEntity
8
1
62
256
6
ByLayer
370
18
48
1
60
0
100
AcDbEllipse
10
31.884121
20
14.446453
30
0
11
-0.19
21
0.329089653438087
31
0
210
0
220
0
230
1
40
0.989133
41
3.0385818565146
42
-0.409661561480046
0
ELLIPSE
5
148
100
AcDbEntity
8
1
62
256
6
ByLayer
370
18
48
1
60
0
100
AcDbEllipse
10
30.685102
20
14.121614
30
0
11
0.587500000000004
21
-1.01757984944671
31
0
210
0
220
0
230
1
40
0.989133
41
-2.41397513336951
42
-2.2874874299721
0
ELLIPSE
5
149
100
AcDbEntity
8
1
62
256
6
ByLayer
370
18
48
1
60
0
100
AcDbEllipse
10
30.685102
20
14.121614
30
0
11
0.587500000000004
21
-1.01757984944671
31
0
210
0
220
0
230
1
40
0.989133
41
1.77481507141689
42
1.90130277481429
0
ELLIPSE
5
14A
100
AcDbEntity
8
1
62
256
6
ByLayer
370
18
48
1
60
0
100
AcDbEllipse
10
29.156624
20
14.531168
30
0
11
0.212500000000002
21
-0.368060796608385
31
0
210
0
220
0
230
1
40
0.989133
41
-0.103010797075209
42
0.615225653370514
0
ELLIPSE
5
14B
100
AcDbEntity
8
1
62
256
6
ByLayer
370
18
48
1
60
0
100
AcDbEllipse
10
30.685102
20
14.121614
30
0
11
0.587500000000004
21
-1.01757984944671
31
0
210
0
220
0
230
1
40
0.989133
41
-0.319580030976305
42
-0.193092327578907
0
ELLIPSE
5
14C
100
AcDbEntity
8
1
62
256
6
ByLayer
370
18
48
1
60
0
100
AcDbEllipse
10
29.156624
20
14.531168
30
0
11
0.212500000000002
21
-0.368060796608385
31
0
210
0
220
0
230
1
40
0.989133
41
0.966497090467439
42
1.68473354091317
0
ELLIPSE
5
14D
100
AcDbEntity
8
1
62
256
6
ByLayer
370
18
48
1
60
0
100
AcDbEllipse
10
30.261105
20
15.654046
30
0
11
0.212500000000002
21
-0.368060796608385
31
0
210
0
220
0
230
1
40
0.989133
41
-0.0807004607291874
42
0.637535989716561
0
ELLIPSE
5
14E
100
AcDbEntity
8
1
62
256
6
ByLayer
370
18
48
1
60
0
100
AcDbEllipse
10
30.685102
20
14.121614
30
0
11
0.587500000000004
21
-1.01757984944671
31
0
210
0
220
0
230
1
40
0.989133
41
0.7276175202203
42
0.854105223617676
0
ELLIPSE
5
14F
100
AcDbEntity
8
1
62
256
6
ByLayer
370
18
48
1
60
0
100
AcDbEllipse
10
30.574736
20
14.057894
30
0
11
-2
21
3.46410161513775
31
0
210
0
220
0
230
1
40
0.989133
41
0
42
6.28318530717959
0
ELLIPSE
5
150
100
AcDbEntity
8
1
62
256
6
ByLayer
370
18
48
1
60
0
100
AcDbEllipse
10
30.685102
20
14.121614
30
0
11
0.587500000000004
21
-1.01757984944671
31
0
210
0
220
0
230
1
40
0.989133
41
2.82201262261348
42
2.94850032601087
0
ELLIPSE
5
151
100
AcDbEntity
8
1
62
256
6
ByLayer
370
18
48
1
60
0
100
AcDbEllipse
10
31.109099
20
12.589182
30
0
11
0.212500000000002
21
-0.368060796608385
31
0
210
0
220
0
230
1
40
0.989133
41
3.06089219286063
42
-2.50405666387322
0
ELLIPSE
5
152
100
AcDbEntity
8
1
62
256
6
ByLayer
370
18
48
1
60
0
100
AcDbEllipse
10
30.685102
20
14.121614
30
0
11
0.587500000000004
21
-1.01757984944671
31
0
210
0
220
0
230
1
40
0.989133
41
-1.36677758217291
42
-1.24028987877551
0
ELLIPSE
5
153
100
AcDbEntity
8
1
62
256
6
ByLayer
370
18
48
1
60
0
100
AcDbEllipse
10
30.685102
20
14.121614
30
0
11
-1.15
21
1.99185842870421
31
0
210
0
220
0
230
1
40
0.989133
41
0
42
6.28318530717959
0
ELLIPSE
5
154
100
AcDbEntity
8
1
62
256
6
ByLayer
370
18
48
1
60
0
100
AcDbEllipse
10
30.375217
20
12.912416
30
0
11
-0.19
21
0.329089653438087
31
0
210
0
220
0
230
1
40
0.989133
41
0.944186754121394
42
-2.5040566638732
0
ELLIPSE
5
155
100
AcDbEntity
8
1
62
256
6
ByLayer
370
18
48
1
60
0
100
AcDbEllipse
10
29.580621
20
12.998736
30
0
11
0.212500000000002
21
-0.368060796608385
31
0
210
0
220
0
230
1
40
0.989133
41
0.944186754121398
42
1.66242320456713
0
ELLIPSE
5
156
100
AcDbEntity
8
1
62
256
6
ByLayer
370
18
48
1
60
0
100
AcDbEllipse
10
31.109099
20
12.589182
30
0
11
0.212500000000002
21
-0.368060796608385
31
0
210
0
220
0
230
1
40
0.989133
41
1.99138430531799
42
2.70962075576376
0
ELLIPSE
5
157
100
AcDbEntity
8
1
62
256
6
ByLayer
370
18
48
1
60
0
100
AcDbEllipse
10
32.213579
20
13.712059
30
0
11
0.212500000000002
21
-0.368060796608385
31
0
210
0
220
0
230
1
40
0.989133
41
3.0385818565146
42
-2.52636700021922
0
ELLIPSE
5
158
100
AcDbEntity
8
1
62
256
6
ByLayer
370
18
48
1
60
0
100
AcDbEllipse
10
32.213579
20
13.712059
30
0
11
0.212500000000002
21
-0.368060796608385
31
0
210
0
220
0
230
1
40
0.989133
41
-2.17509556312238
42
-1.45685911267661
0
ELLIPSE
5
159
100
AcDbEntity
8
1
62
256
6
ByLayer
370
18
48
1
60
0
100
AcDbEllipse
10
31.789582
20
15.244491
30
0
11
0.212500000000002
21
-0.368060796608385
31
0
210
0
220
0
230
1
40
0.989133
41
-1.12789801192576
42
-0.409661561480026
0
ELLIPSE
5
15A
100
AcDbEntity
8
1
62
256
6
ByLayer
370
18
48
1
60
0
100
AcDbEllipse
10
31.574236
20
13.237255
30
0
11
-0.19
21
0.329089653438087
31
0
210
0
220
0
230
1
40
0.989133
41
1.99138430531801
42
-1.45685911267663
0
ELLIPSE
5
15B
100
AcDbEntity
8
1
62
256
6
ByLayer
370
18
48
1
60
0
100
AcDbEllipse
10
31.789582
20
15.244491
30
0
11
0.212500000000002
21
-0.368060796608385
31
0
210
0
220
0
230
1
40
0.989133
41
-2.1974058994684
42
-1.47916944902265
0
ELLIPSE
5
15C
100
AcDbEntity
8
1
62
256
6
ByLayer
370
18
48
1
60
0
100
AcDbEllipse
10
29.580621
20
12.998736
30
0
11
0.212500000000002
21
-0.368060796608385
31
0
210
0
220
0
230
1
40
0.989133
41
2.01369464166403
42
2.73193109210979
0
ELLIPSE
5
15D
100
AcDbEntity
8
1
62
256
6
ByLayer
370
18
48
1
60
0
100
AcDbEllipse
10
31.503096
20
15.079089
30
0
11
0.212500000000002
21
-0.368060796608385
31
0
210
0
220
0
230
1
40
0.989133
41
-2.19740589946839
42
-0.409661561480026
0
ELLIPSE
5
15E
100
AcDbEntity
8
1
62
256
6
ByLayer
370
18
48
1
60
0
100
AcDbEllipse
10
29.795967
20
15.005972
30
0
11
-0.19
21
0.329089653438087
31
0
210
0
220
0
230
1
40
0.989133
41
-1.15020834827181
42
1.6847335409132
0
ELLIPSE
5
15F
100
AcDbEntity
8
1
62
256
6
ByLayer
370
18
48
1
60
0
100
AcDbEllipse
10
30.994986
20
15.330812
30
0
11
-0.19
21
0.329089653438087
31
0
210
0
220
0
230
1
40
0.989133
41
-2.1974058994684
42
0.637535989716557
0
ELLIPSE
5
160
100
AcDbEntity
8
1
62
256
6
ByLayer
370
18
48
1
60
0
100
AcDbEllipse
10
29.486083
20
13.796774
30
0
11
-0.19
21
0.329089653438087
31
0
210
0
220
0
230
1
40
0.989133
41
-0.103010797075189
42
2.73193109210973
0
ELLIPSE
5
161
100
AcDbEntity
8
1
62
256
6
ByLayer
370
18
48
1
60
0
100
AcDbEllipse
10
30.261105
20
15.654046
30
0
11
0.212500000000002
21
-0.368060796608385
31
0
210
0
220
0
230
1
40
0.989133
41
-1.15020834827181
42
-0.431971897826061
0
ELLIPSE
5
162
100
AcDbEntity
8
1
62
256
6
ByLayer
370
18
48
1
60
0
100
AcDbEllipse
10
33.029089
20
10.574263
30
0
11
-8.36206048550991
21
-5.41843150683997
31
0
210
0
220
0
230
1
40
0.135037
41
-0.320718707770804
42
0.398482192174518
0
ELLIPSE
5
163
100
AcDbEntity
8
1
62
256
6
ByLayer
370
18
48
1
60
0
100
AcDbEllipse
10
45.325635
20
15.394613
30
0
11
-1.74624393065899
21
-6.81679139093577
31
0
210
0
220
0
230
1
40
0.551528
41
-0.912569160512955
42
-0.832830891812835
0
ELLIPSE
5
164
100
AcDbEntity
8
1
62
256
6
ByLayer
370
18
48
1
60
0
100
AcDbEllipse
10
24.075367
20
7.805427
30
0
11
-1.03797844083093
21
2.81574371816349
31
0
210
0
220
0
230
1
40
0.878827
41
1.47613430215878
42
3.04693062895372
0
ELLIPSE
5
165
100
AcDbEntity
8
1
62
256
6
ByLayer
370
18
48
1
60
0
100
AcDbEllipse
10
20.854909
20
3.812435
30
0
11
6.7465275811422
21
1.86664554666587
31
0
210
0
220
0
230
1
40
0.037276
41
-1.21329086021084
42
-0.806029476653141
0
ELLIPSE
5
166
100
AcDbEntity
8
1
62
256
6
ByLayer
370
18
48
1
60
0
100
AcDbEllipse
10
25.875581
20
15.350687
30
0
11
-4.81894827224443
21
-1.33331824761847
31
0
210
0
220
0
230
1
40
0.037276
41
-1.34549788940897
42
-0.904466784052703
0
ELLIPSE
5
167
100
AcDbEntity
8
1
62
256
6
ByLayer
370
18
48
1
60
0
100
AcDbEllipse
10
27.261268
20
10.342464
30
0
11
-4.81894827224443
21
-1.33331824761847
31
0
210
0
220
0
230
1
40
0.037276
41
-1.34549788940897
42
-0.904466784052669
0
ELLIPSE
5
168
100
AcDbEntity
8
1
62
256
6
ByLayer
370
18
48
1
60
0
100
AcDbEllipse
10
20.166261
20
15.133323
30
0
11
-2.29577583226131
21
1.9366678753575
31
0
210
0
220
0
230
1
40
0.994266
41
-0.257637182114319
42
-0.251526766430739
0
ELLIPSE
5
169
100
AcDbEntity
8
1
62
256
6
ByLayer
370
18
48
1
60
0
100
AcDbEllipse
10
27.034762
20
11.161116
30
0
11
-3.48793221692826
21
-6.11804450856883
31
0
210
0
220
0
230
1
40
0.052899
41
1.00363542423541
42
1.46769895254568
0
ELLIPSE
5
16A
100
AcDbEntity
8
1
62
256
6
ByLayer
370
18
48
1
60
0
100
AcDbEllipse
10
22.393928
20
7.081362
30
0
11
-2.30674372457098
21
1.92303994554485
31
0
210
0
220
0
230
1
40
0.994261
41
2.18171710191147
42
2.1878280054191
0
ELLIPSE
5
16B
100
AcDbEntity
8
1
62
256
6
ByLayer
370
18
48
1
60
0
100
AcDbEllipse
10
42.887752
20
13.473561
30
0
11
-0.845907444237642
21
-0.674938549453691
31
0
210
0
220
0
230
1
40
0.228901
41
0.806973154581271
42
1.33057193017131
0
ELLIPSE
5
16C
100
AcDbEntity
8
1
62
256
6
ByLayer
370
18
48
1
60
0
100
AcDbEllipse
10
44.015155
20
20.131018
30
0
11
-5.27964520931488
21
3.05108677212265
31
0
210
0
220
0
230
1
40
0.530208
41
0.561582880142654
42
0.641321146684942
0
ELLIPSE
5
16D
100
AcDbEntity
8
1
62
256
6
ByLayer
370
18
48
1
60
0
100
AcDbEllipse
10
40.940577
20
20.511145
30
0
11
-1.07167442652289
21
0.132082919320413
31
0
210
0
220
0
230
1
40
0.165973
41
-1.35937838969767
42
-0.835779614097577
0
ELLIPSE
5
16E
100
AcDbEntity
8
1
62
256
6
ByLayer
370
18
48
1
60
0
100
AcDbEllipse
10
30.80133
20
18.625944
30
0
11
-9.83628283721746
21
-0.106417480142563
31
0
210
0
220
0
230
1
40
0.113033
41
-0.411020164617716
42
0.308180735327568
0
ELLIPSE
5
16F
100
AcDbEntity
8
1
62
256
6
ByLayer
370
18
48
1
60
0
100
AcDbEllipse
10
26.102087
20
14.532036
30
0
11
-6.13437206600056
21
3.49724065094754
31
0
210
0
220
0
230
1
40
0.089998
41
-1.43003090869855
42
-0.965967380375433
0
ELLIPSE
5
170
100
AcDbEntity
8
1
62
256
6
ByLayer
370
18
48
1
60
0
100
AcDbEllipse
10
43.935283
20
17.395555
30
0
11
-2.25
21
3.89711431702998
31
0
210
0
220
0
230
1
40
0.989133
41
-2.96159651986882
42
-2.43799774427052
0
ELLIPSE
5
171
100
AcDbEntity
8
1
62
256
6
ByLayer
370
18
48
1
60
0
100
AcDbEllipse
10
40.079391
20
19.512918
30
0
11
-8.14893206699218
21
2.99593286023516
31
0
210
0
220
0
230
1
40
0.734874
41
2.12523424617419
42
2.18880490546585
0
ELLIPSE
5
172
100
AcDbEntity
8
1
62
256
6
ByLayer
370
18
48
1
60
0
100
AcDbEllipse
10
43.935283
20
17.395555
30
0
11
-2.25
21
3.89711431702998
31
0
210
0
220
0
230
1
40
0.989133
41
-1.21626726787449
42
-0.692668492276194
0
ELLIPSE
5
173
100
AcDbEntity
8
1
62
256
6
ByLayer
370
18
48
1
60
0
100
AcDbEllipse
10
44.368195
20
17.645497
30
0
11
-1.79448637286709
21
3.10814157129579
31
0
210
0
220
0
230
1
40
0.989133
41
-0.786432991834145
42
-0.69266849227619
0
ELLIPSE
5
174
100
AcDbEntity
8
1
62
256
6
ByLayer
370
18
48
1
60
0
100
AcDbEllipse
10
41.881977
20
12.997917
30
0
11
-4.23778502573864
21
-8.24704323897044
31
0
210
0
220
0
230
1
40
0.720282
41
-2.36711072100798
42
-2.30354006126441
0
ELLIPSE
5
175
100
AcDbEntity
8
1
62
256
6
ByLayer
370
18
48
1
60
0
100
AcDbEllipse
10
46.626956
20
17.269534
30
0
11
-0.951329586592772
21
2.07763932250435
31
0
210
0
220
0
230
1
40
0.633703
41
2.70168299144699
42
-2.56054475528617
0
ELLIPSE
5
176
100
AcDbEntity
8
1
62
256
6
ByLayer
370
18
48
1
60
0
100
AcDbEllipse
10
44.368195
20
17.645497
30
0
11
1.63125060174747
21
-2.82540892210389
31
0
210
0
220
0
230
1
40
0.989133
41
0.703594909319269
42
1.92532538571531
0
ELLIPSE
5
177
100
AcDbEntity
8
1
62
256
6
ByLayer
370
18
48
1
60
0
100
AcDbEllipse
10
46.043663
20
19.3777
30
0
11
-0.654619045842934
21
1.76821361209655
31
0
210
0
220
0
230
1
40
0.780509
41
-0.937872245594753
42
0.0830853148518479
0
ELLIPSE
5
178
100
AcDbEntity
8
1
62
256
6
ByLayer
370
18
48
1
60
0
100
AcDbEllipse
10
43.935283
20
17.395555
30
0
11
-2.25
21
3.89711431702998
31
0
210
0
220
0
230
1
40
0.989133
41
-2.43799774427052
42
-1.21626726787449
0
ELLIPSE
5
179
100
AcDbEntity
8
1
62
256
6
ByLayer
370
18
48
1
60
0
100
AcDbEllipse
10
44.368195
20
17.645497
30
0
11
-1.79448637286709
21
3.10814157129579
31
0
210
0
220
0
230
1
40
0.989133
41
-2.96159651986882
42
-2.86783202031086
0
ELLIPSE
5
17A
100
AcDbEntity
8
1
62
256
6
ByLayer
370
18
48
1
60
0
100
AcDbEllipse
10
-0.948929
20
0
30
0
11
-9.36741787978211
21
19.7417491527504
31
0
210
0
220
0
230
1
40
0.341999
41
-2.98886640869145
42
-2.0452731260899
0
ELLIPSE
5
17B
100
AcDbEntity
8
1
62
256
6
ByLayer
370
18
48
1
60
0
100
AcDbEllipse
10
21.274072
20
1.892319
30
0
11
-6.38533595186903
21
-1.96002207056204
31
-4.4330271276538E-17
210
6.9425119697206E-18
220
-1.15555796663234E-33
230
-1
40
0.598857
41
-3.09503020082645
42
-2.76055877727572
0
ELLIPSE
5
17C
100
AcDbEntity
8
1
62
256
6
ByLayer
370
18
48
1
60
0
100
AcDbEllipse
10
-0.948929
20
0
30
0
11
-9.36741787978245
21
-19.7417491527508
31
0
210
0
220
0
230
1
40
0.341999
41
2.04527312608992
42
2.98886640869145
0
ELLIPSE
5
17D
100
AcDbEntity
8
1
62
256
6
ByLayer
370
18
48
1
60
0
100
AcDbEllipse
10
16.948929
20
0
30
0
11
-9.36741787978284
21
19.7417491527512
31
0
210
0
220
0
230
1
40
0.341999
41
0.152726244898339
42
1.09631952749986
0
ELLIPSE
5
17E
100
AcDbEntity
8
1
62
256
6
ByLayer
370
18
48
1
60
0
100
AcDbEllipse
10
8.888789
20
0
30
0
11
-27.3399167242644
21
6.31796754815054
31
0
210
0
220
0
230
1
40
0.694072
41
-1.70810940025644
42
-1.65924315310265
0
ELLIPSE
5
17F
100
AcDbEntity
8
1
62
256
6
ByLayer
370
18
48
1
60
0
100
AcDbEllipse
10
39.21919
20
11.635226
30
0
11
1.19771302649505
21
-2.0744998147765
31
0
210
0
220
0
230
1
40
0.989133
41
-0.60540202967653
42
-0.00106588010659235
0
ELLIPSE
5
180
100
AcDbEntity
8
1
62
256
6
ByLayer
370
18
48
1
60
0
100
AcDbEllipse
10
16.787398
20
-6.493192
30
0
11
-0.0118553238238722
21
-4.79094329310738
31
0
210
0
220
0
230
1
40
0.082138
41
2.3324656680398
42
-1.54067911374402
0
ELLIPSE
5
181
100
AcDbEntity
8
1
62
256
6
ByLayer
370
18
48
1
60
0
100
AcDbEllipse
10
21.065143
20
-5.568661
30
0
11
-2.38943553049488
21
30.2598655066818
31
0
210
0
220
0
230
1
40
0.106012
41
1.01785900425326
42
1.13250596037905
0
ELLIPSE
5
182
100
AcDbEntity
8
1
62
256
6
ByLayer
370
18
48
1
60
0
100
AcDbEllipse
10
21.065143
20
-12.021772
30
0
11
-3.21826336996451
21
16.5377075249657
31
0
210
0
220
0
230
1
40
0.143639
41
-0.365432291141935
42
0.0778095237380217
0
ELLIPSE
5
183
100
AcDbEntity
8
1
62
256
6
ByLayer
370
18
48
1
60
0
100
AcDbEllipse
10
39.258517
20
11.705744
30
0
11
-2.21966411445453
21
1.35203117427161
31
0
210
0
220
0
230
1
40
0.525221
41
-2.67505977881089
42
-2.6025585061656
0
ELLIPSE
5
184
100
AcDbEntity
8
1
62
256
6
ByLayer
370
18
48
1
60
0
100
AcDbEllipse
10
16.787398
20
-6.493192
30
0
11
-0.00987943651987154
21
-3.99245274425732
31
0
210
0
220
0
230
1
40
0.082138
41
-0.557685835056229
42
0.117060764141682
0
ELLIPSE
5
185
100
AcDbEntity
8
1
62
256
6
ByLayer
370
18
48
1
60
0
100
AcDbEllipse
10
38.239165
20
11.061406
30
0
11
-2.01014292654265
21
1.51876972001515
31
0
210
0
220
0
230
1
40
0.848543
41
-2.67788701399478
42
-2.66165856561197
0
ELLIPSE
5
186
100
AcDbEntity
8
1
62
256
6
ByLayer
370
18
48
1
60
0
100
AcDbEllipse
10
16.948929
20
0
30
0
11
-9.36741787978228
21
-19.7417491527506
31
0
210
0
220
0
230
1
40
0.341999
41
-1.09631952749989
42
-0.152726244898338
0
ELLIPSE
5
187
100
AcDbEntity
8
1
62
256
6
ByLayer
370
18
48
1
60
0
100
AcDbEllipse
10
17.916631
20
19.670239
30
0
11
-5.41267419743688
21
-1.43409894727864
31
0
210
0
220
0
230
1
40
0.71384
41
-3.13379110514754
42
-2.61110696238902
0
ELLIPSE
5
188
100
AcDbEntity
8
1
62
256
6
ByLayer
370
18
48
1
60
0
100
AcDbEllipse
10
38.222959
20
11.028445
30
0
11
1.23312772246984
21
-2.13583986753942
31
0
210
0
220
0
230
1
40
0.989133
41
0.836113817479752
42
0.837913482376615
0
ELLIPSE
5
189
100
AcDbEntity
8
1
62
256
6
ByLayer
370
18
48
1
60
0
100
AcDbEllipse
10
17.749773
20
0
30
0
11
1.22460635382238E-15
21
20
31
0
210
0
220
0
230
1
40
0.087489
41
0.458716441060535
42
2.74901759019425
0
ELLIPSE
5
18A
100
AcDbEntity
8
1
62
256
6
ByLayer
370
18
48
1
60
0
100
AcDbEllipse
10
39.287413
20
11.643008
30
0
11
1.18448901896904
21
-2.05159516186177
31
0
210
0
220
0
230
1
40
0.989133
41
-0.027956329202993
42
0.786190306996515
0
ELLIPSE
5
18B
100
AcDbEntity
8
1
62
256
6
ByLayer
370
18
48
1
60
0
100
AcDbEllipse
10
38.372981
20
24.298153
30
0
11
-0.396875
21
0.687407664253898
31
0
210
0
220
0
230
1
40
0.989133
41
-0.779934954875902
42
0.965394297118421
0
ELLIPSE
5
18C
100
AcDbEntity
8
1
62
256
6
ByLayer
370
18
48
1
60
0
100
AcDbEllipse
10
48.351113
20
10.182354
30
0
11
-0.396875
21
0.687407664253898
31
0
210
0
220
0
230
1
40
0.989133
41
2.36165769871389
42
-2.17619835647137
0
ELLIPSE
5
18D
100
AcDbEntity
8
1
62
256
6
ByLayer
370
18
48
1
60
0
100
AcDbEllipse
10
49.21271
20
21.393656
30
0
11
-0.396875
21
0.687407664253898
31
0
210
0
220
0
230
1
40
0.989133
41
-2.17619835647137
42
-0.779934954875893
0
POINT
5
6C
100
AcDbEntity
8
2
62
256
6
ByLayer
370
18
48
1
60
0
100
AcDbPoint
10
50
20
22
30
0
39
0
210
0
220
0
230
1
50
360
0
POINT
5
6E
100
AcDbEntity
8
80
62
256
6
ByLayer
370
18
48
1
60
0
100
AcDbPoint
10
0
20
0
30
0
39
0
210
0
220
0
230
1
50
360
0
POINT
5
70
100
AcDbEntity
8
81
62
256
6
ByLayer
370
18
48
1
60
0
100
AcDbPoint
10
50
20
22
30
0
39
0
210
0
220
0
230
1
50
360
0
SPLINE
5
18E
100
AcDbEntity
8
SK1
62
256
6
ByLayer
370
18
48
1
60
0
100
AcDbSpline
70
4
71
2
72
6
73
3
40
0
40
0
40
0
40
1
40
1
40
1
41
1
10
-22.5
20
-13.4933966698402
30
0
41
1
10
-12.0999999999449
20
-13.7545973909208
30
0
41
1
10
-1.69999999999999
20
-14.0157977997179
30
0
0
SPLINE
5
18F
100
AcDbEntity
8
SK1
62
256
6
ByLayer
370
18
48
1
60
0
100
AcDbSpline
70
4
71
2
72
6
73
3
40
0
40
0
40
0
40
1
40
1
40
1
41
1
10
-1.69999999999999
20
14.0157970602974
30
0
41
1
10
-12.099999999963
20
13.7545958471854
30
0
41
1
10
-22.5
20
13.493394380475
30
0
0
SPLINE
5
190
100
AcDbEntity
8
SK1
62
256
6
ByLayer
370
18
48
1
60
0
100
AcDbSpline
70
4
71
3
72
13
73
9
40
0
40
0
40
0
40
0
40
0.239456136997449
40
0.368359723417175
40
0.499998985516726
40
0.631638416576567
40
0.760542468702411
40
1
40
1
40
1
40
1
41
1
10
-1.69999999999999
20
-14.0200984156386
30
0
41
1
10
-1.6990919864528
20
-13.9940409390257
30
0
41
1
10
-1.69103284110332
20
-13.9566683539303
30
0
41
1
10
-1.66563592205637
20
-13.9104491790265
30
0
41
1
10
-1.63886378681673
20
-13.8791676243502
30
0
41
1
10
-1.60627712752267
20
-13.8540002532836
30
0
41
1
10
-1.5588406423667
20
-13.830956449625
30
0
41
1
10
-1.52111030874428
20
-13.8247841935567
30
0
41
1
10
-1.49503997793931
20
-13.8251858327438
30
0
0
SPLINE
5
191
100
AcDbEntity
8
SK1
62
256
6
ByLayer
370
18
48
1
60
0
100
AcDbSpline
70
4
71
3
72
13
73
9
40
0
40
0
40
0
40
0
40
0.239457531274807
40
0.368361583394193
40
0.500001014452292
40
0.631640276555059
40
0.760543862982143
40
1
40
1
40
1
40
1
41
1
10
-1.49503997793928
20
13.8251858293361
30
0
41
1
10
-1.52111030874488
20
13.8247841901529
30
0
41
1
10
-1.5588406423679
20
13.8309564462263
30
0
41
1
10
-1.60627712752327
20
13.8540002498915
30
0
41
1
10
-1.63886378681727
20
13.8791676209635
30
0
41
1
10
-1.66563592205674
20
13.9104491756451
30
0
41
1
10
-1.69103284110358
20
13.9566683505561
30
0
41
1
10
-1.69909198645305
20
13.9940409356568
30
0
41
1
10
-1.69999999999999
20
14.0200984122732
30
0
0
SPLINE
5
192
100
AcDbEntity
8
SK1
62
256
6
ByLayer
370
18
48
1
60
0
100
AcDbSpline
70
4
71
2
72
6
73
3
40
0
40
0
40
0
40
1
40
1
40
1
41
1
10
-24
20
-12.6310964932104
30
0
41
1
10
-23.2499999989322
20
-13.0640911753538
30
0
41
1
10
-22.5
20
-13.4970856697526
30
0
0
SPLINE
5
193
100
AcDbEntity
8
SK1
62
256
6
ByLayer
370
18
48
1
60
0
100
AcDbSpline
70
4
71
2
72
6
73
3
40
0
40
0
40
0
40
1
40
1
40
1
41
1
10
-22.5
20
13.4970852847173
30
0
41
1
10
-23.2499999989318
20
13.0640908004416
30
0
41
1
10
-24
20
12.6310961283886
30
0
0
SPLINE
5
194
100
AcDbEntity
8
SK1
62
256
6
ByLayer
370
18
48
1
60
0
100
AcDbSpline
70
4
71
2
72
6
73
3
40
0
40
0
40
0
40
1
40
1
40
1
41
1
10
-1.49503997793931
20
-13.7129410868425
30
0
41
1
10
-0.945008433407281
20
-13.7266599565288
30
0
41
1
10
-0.394976888875306
20
-13.7403788260786
30
0
0
SPLINE
5
195
100
AcDbEntity
8
SK1
62
256
6
ByLayer
370
18
48
1
60
0
100
AcDbSpline
70
4
71
2
72
6
73
3
40
0
40
0
40
0
40
1
40
1
40
1
41
1
10
-0.394976888875277
20
13.740379899128
30
0
41
1
10
-0.945008433407281
20
13.7266611372792
30
0
41
1
10
-1.49503997793928
20
13.7129423752897
30
0
0
SPLINE
5
196
100
AcDbEntity
8
1
62
256
6
ByLayer
370
18
48
1
60
0
100
AcDbSpline
70
4
71
2
72
8
73
5
40
0
40
0
40
0
40
0.676267753550245
40
0.676267753550245
40
1
40
1
40
1
41
1
10
19.9491651296524
20
3.57546468303764
30
0
41
1
10
20.3959106762729
20
3.67544772233415
30
0
41
1
10
20.7364498775404
20
4.03889989705715
30
0
41
1
10
20.9134521357562
20
4.22781164477942
30
0
41
1
10
21.048551577381
20
4.47316832996458
30
0
0
SPLINE
5
197
100
AcDbEntity
8
1
62
256
6
ByLayer
370
18
48
1
60
0
100
AcDbSpline
70
4
71
2
72
7
73
4
40
0
40
0
40
0
40
0.697361180284629
40
1
40
1
40
1
41
1
10
17.6812669035961
20
16.7138293064731
30
0
41
1
10
17.4423196026671
20
16.8716223379462
30
0
41
1
10
17.0889587575609
20
17.0076499891563
30
0
41
1
10
16.9840141533328
20
17.0356545522626
30
0
0
SPLINE
5
198
100
AcDbEntity
8
SK1
62
256
6
ByLayer
370
18
48
1
60
0
100
AcDbSpline
70
4
71
3
72
24
73
20
40
0
40
0
40
0
40
0
40
0.0014544386992249
40
0.0014544386992249
40
0.361956423059887
40
0.361956423059887
40
0.727731599250206
40
0.727731599250206
40
0.782013304695299
40
0.782013304695299
40
0.837002501937638
40
0.837002501937638
40
0.873144196436386
40
0.873144196436386
40
0.909511909647778
40
0.909511909647778
40
0.952113857168648
40
0.952113857168648
40
1
40
1
40
1
40
1
41
1
10
-0.217773520819833
20
13.9477771104646
30
0
41
1
10
-0.217796303830511
20
13.9477385212397
30
0
41
1
10
-0.217819113763113
20
13.9476999169831
30
0
41
1
10
-0.223510113646824
20
13.9380759054837
30
0
41
1
10
-0.230869554015186
20
13.9275300777214
30
0
41
1
10
-0.252993763945881
20
13.9036085654018
30
0
41
1
10
-0.266169306055218
20
13.8900912648142
30
0
41
1
10
-0.299313210098944
20
13.8713678522793
30
0
41
1
10
-0.304168151080091
20
13.8688119846588
30
0
41
1
10
-0.315233613826848
20
13.8635902765912
30
0
41
1
10
-0.321588767727178
20
13.8608655729355
30
0
41
1
10
-0.333434048045547
20
13.8565368608439
30
0
41
1
10
-0.338587345813778
20
13.8548370746726
30
0
41
1
10
-0.349158334685967
20
13.8517865918864
30
0
41
1
10
-0.354704697438706
20
13.8504050227189
30
0
41
1
10
-0.366193697521936
20
13.847969712967
30
0
41
1
10
-0.37221373013341
20
13.8469665678177
30
0
41
1
10
-0.383950527302631
20
13.8454141457692
30
0
41
1
10
-0.389694590782
20
13.8449066720063
30
0
41
1
10
-0.394976888882155
20
13.8446015176357
30
0
0
SPLINE
5
199
100
AcDbEntity
8
SK1
62
256
6
ByLayer
370
18
48
1
60
0
100
AcDbSpline
70
4
71
3
72
22
73
18
40
0
40
0
40
0
40
0
40
0.05571957640283
40
0.05571957640283
40
0.11258041627135
40
0.11258041627135
40
0.15149689862915
40
0.15149689862915
40
0.190204432258565
40
0.190204432258565
40
0.253674977810628
40
0.253674977810628
40
0.3792294866123
40
0.3792294866123
40
0.823820061021158
40
0.823820061021158
40
1
40
1
40
1
40
1
41
1
10
-0.394976888875306
20
-13.8446019297682
30
0
41
1
10
-0.389542940031561
20
-13.8449158599001
30
0
41
1
10
-0.383617593481006
20
-13.8454439659091
30
0
41
1
10
-0.370682577094897
20
-13.8471856765741
30
0
41
1
10
-0.363425095790518
20
-13.8484584409772
30
0
41
1
10
-0.350979043087193
20
-13.8513238322133
30
0
41
1
10
-0.345738104843406
20
-13.8527220431424
30
0
41
1
10
-0.335836036111374
20
-13.8557300394867
30
0
41
1
10
-0.331061234651429
20
-13.8573680363077
30
0
41
1
10
-0.319536857691617
20
-13.8617043765564
30
0
41
1
10
-0.313226439154875
20
-13.8644842406524
30
0
41
1
10
-0.296825865103983
20
-13.8724174982475
30
0
41
1
10
-0.288454852011284
20
-13.8774557840676
30
0
41
1
10
-0.256352537857253
20
-13.8987262995108
30
0
41
1
10
-0.243999907013659
20
-13.9124642192994
30
0
41
1
10
-0.229963428239728
20
-13.9295927568019
30
0
41
1
10
-0.226439280033617
20
-13.9342393022239
30
0
41
1
10
-0.223319935549625
20
-13.9386901109158
30
0
0
SPLINE
5
19A
100
AcDbEntity
8
1
62
256
6
ByLayer
370
18
48
1
60
0
100
AcDbSpline
70
4
71
3
72
8
73
4
40
0
40
0
40
0
40
0
40
1
40
1
40
1
40
1
41
1
10
17.0803645201175
20
-3.18752084452387
30
0
41
1
10
17.111730478741
20
-3.60109749853711
30
0
41
1
10
17.1768308352431
20
-4.06912539726392
30
0
41
1
10
17.2360063786745
20
-4.57036548891739
30
0
0
SPLINE
5
19B
100
AcDbEntity
8
SK1
62
256
6
ByLayer
370
18
48
1
60
0
100
AcDbSpline
70
4
71
3
72
118
73
114
40
0
40
0
40
0
40
0
40
0.0076461636103654
40
0.0154178034081753
40
0.0231894432059853
40
0.0309610830037952
40
0.0387327228016052
40
0.0465043625994151
40
0.0542760023972251
40
0.062047642195035
40
0.069819281992845
40
0.077590921790655
40
0.0931342013862748
40
0.108677480981895
40
0.124220760577515
40
0.131992400375325
40
0.139764040173135
40
0.147535679970944
40
0.155307319768754
40
0.170850599364374
40
0.178622239162184
40
0.186393878959994
40
0.194165518757804
40
0.201937158555614
40
0.209708798353424
40
0.217480438151234
40
0.233023717746854
40
0.240795357544664
40
0.248566997342474
40
0.256338637140284
40
0.264110276938094
40
0.271881916735904
40
0.279653556533714
40
0.287425196331524
40
0.295196836129334
40
0.310740115724954
40
0.318511755522764
40
0.326283395320573
40
0.341826674916193
40
0.357369954511813
40
0.365141594309623
40
0.372913234107433
40
0.380684873905243
40
0.388456513703053
40
0.396228153500863
40
0.403999793298673
40
0.407885613197578
40
0.411771433096483
40
0.419543072894293
40
0.427314712692103
40
0.435086352489913
40
0.450629632085533
40
0.458401271883342
40
0.466172911681152
40
0.473944551478962
40
0.481716191276772
40
0.489487831074582
40
0.497259470872392
40
0.505031110670202
40
0.512802750468012
40
0.520574390265822
40
0.528346030063632
40
0.543889309659252
40
0.551660949457062
40
0.559432589254872
40
0.563318409153777
40
0.567204229052682
40
0.574975868850492
40
0.590519148446112
40
0.598290788243922
40
0.606062428041732
40
0.621605707637351
40
0.637148987232971
40
0.644920627030781
40
0.652692266828591
40
0.668235546424211
40
0.676007186222021
40
0.683778826019831
40
0.691550465817641
40
0.699322105615451
40
0.707093745413261
40
0.714865385211071
40
0.730408664806691
40
0.745951944402311
40
0.753723584200121
40
0.76149522399793
40
0.769266863795741
40
0.77703850359355
40
0.79258178318917
40
0.80812506278479
40
0.82366834238041
40
0.83921162197603
40
0.84698326177384
40
0.85475490157165
40
0.86252654136946
40
0.87029818116727
40
0.87806982096508
40
0.88584146076289
40
0.8936131005607
40
0.90138474035851
40
0.90915638015632
40
0.91692801995413
40
0.924699659751939
40
0.93247129954975
40
0.940242939347559
40
0.948014579145369
40
0.955786218943179
40
0.963557858740989
40
0.971329498538799
40
0.979101138336609
40
0.986872778134419
40
0.994644417932229
40
1
40
1
40
1
40
1
41
1
10
-1.69999999999999
20
14.0157582213894
30
0
41
1
10
-1.69999999999996
20
14.0171808698545
30
0
41
1
10
-1.70000000000002
20
14.0193350222485
30
0
41
1
10
-1.69999999999999
20
14.0204498319149
30
0
41
1
10
-1.69999999999999
20
14.0194577493028
30
0
41
1
10
-1.69999999999999
20
14.0163929237538
30
0
41
1
10
-1.69999999999999
20
14.0112928179987
30
0
41
1
10
-1.69999999999999
20
14.0041925984504
30
0
41
1
10
-1.69999999999999
20
13.9951252442004
30
0
41
1
10
-1.69999999999999
20
13.9841239086368
30
0
41
1
10
-1.69999999999999
20
13.9712195253815
30
0
41
1
10
-1.69999999999999
20
13.9515178138587
30
0
41
1
10
-1.69999999999999
20
13.9222750232465
30
0
41
1
10
-1.69999999999999
20
13.8800204120324
30
0
41
1
10
-1.69999999999999
20
13.838998019961
30
0
41
1
10
-1.69999999999999
20
13.8027899045868
30
0
41
1
10
-1.69999999999999
20
13.773955994413
30
0
41
1
10
-1.69999999999999
20
13.7434660879001
30
0
41
1
10
-1.69999999999999
20
13.7006353174901
30
0
41
1
10
-1.69999999999999
20
13.6545611373555
30
0
41
1
10
-1.69999999999999
20
13.6053355893185
30
0
41
1
10
-1.69999999999999
20
13.5668499361124
30
0
41
1
10
-1.69999999999999
20
13.5268172028035
30
0
41
1
10
-1.69999999999999
20
13.485252935173
30
0
41
1
10
-1.69999999999999
20
13.4421723218484
30
0
41
1
10
-1.69999999999999
20
13.3827344162836
30
0
41
1
10
-1.69999999999999
20
13.3203101073726
30
0
41
1
10
-1.69999999999999
20
13.254979960848
30
0
41
1
10
-1.69999999999999
20
13.2045321061977
30
0
41
1
10
-1.69999999999999
20
13.1526505121852
30
0
41
1
10
-1.69999999999999
20
13.099347414251
30
0
41
1
10
-1.69999999999999
20
13.0446338149516
30
0
41
1
10
-1.69999999999999
20
12.9885220902628
30
0
41
1
10
-1.69999999999999
20
12.9310230723471
30
0
41
1
10
-1.69999999999999
20
12.8525264142953
30
0
41
1
10
-1.69999999999999
20
12.7712834714132
30
0
41
1
10
-1.69999999999999
20
12.6873624197502
30
0
41
1
10
-1.69999999999999
20
12.6016598943421
30
0
41
1
10
-1.69999999999999
20
12.4912006491746
30
0
41
1
10
-1.69999999999999
20
12.3763763558488
30
0
41
1
10
-1.69999999999999
20
12.2819406900945
30
0
41
1
10
-1.69999999999999
20
12.209824815618
30
0
41
1
10
-1.69999999999999
20
12.1364316894724
30
0
41
1
10
-1.69999999999999
20
12.0617686582407
30
0
41
1
10
-1.69999999999999
20
11.9858436758677
30
0
41
1
10
-1.69999999999999
20
11.9215236068653
30
0
41
1
10
-1.69999999999999
20
11.8694488081267
30
0
41
1
10
-1.69999999999999
20
11.8169591426362
30
0
41
1
10
-1.69999999999999
20
11.7505641289662
30
0
41
1
10
-1.69999999999999
20
11.6696587742526
30
0
41
1
10
-1.69999999999999
20
11.5601529159528
30
0
41
1
10
-1.69999999999999
20
11.448182891669
30
0
41
1
10
-1.69999999999999
20
11.3338110499831
30
0
41
1
10
-1.69999999999999
20
11.2468221792499
30
0
41
1
10
-1.69999999999999
20
11.1586337603462
30
0
41
1
10
-1.69999999999999
20
11.0692509372408
30
0
41
1
10
-1.69999999999999
20
10.9786794422307
30
0
41
1
10
-1.69999999999999
20
10.8869237783616
30
0
41
1
10
-1.69999999999999
20
10.7939888359847
30
0
41
1
10
-1.69999999999999
20
10.6998796425436
30
0
41
1
10
-1.69999999999999
20
10.6046008465563
30
0
41
1
10
-1.69999999999999
20
10.4760157679139
30
0
41
1
10
-1.69999999999999
20
10.3450861470912
30
0
41
1
10
-1.69999999999999
20
10.2118742799613
30
0
41
1
10
-1.69999999999999
20
10.1276505623382
30
0
41
1
10
-1.69999999999999
20
10.0597065749413
30
0
41
1
10
-1.69999999999999
20
9.9913814320609
30
0
41
1
10
-1.69999999999999
20
9.87081043657869
30
0
41
1
10
-1.69999999999999
20
9.73071862052217
30
0
41
1
10
-1.69999999999999
20
9.58839008121353
30
0
41
1
10
-1.69999999999999
20
9.44455854729449
30
0
41
1
10
-1.69999999999999
20
9.26193698423123
30
0
41
1
10
-1.69999999999999
20
9.07558727703642
30
0
41
1
10
-1.69999999999999
20
8.92429760284432
30
0
41
1
10
-1.69999999999999
20
8.77152766795061
30
0
41
1
10
-1.69999999999999
20
8.61651162008161
30
0
41
1
10
-1.69999999999999
20
8.45931945344486
30
0
41
1
10
-1.69999999999999
20
8.34031606829598
30
0
41
1
10
-1.69999999999999
20
8.22021379775831
30
0
41
1
10
-1.69999999999999
20
8.09901464495698
30
0
41
1
10
-1.69999999999999
20
7.9767200242907
30
0
41
1
10
-1.69999999999999
20
7.81221411547432
30
0
41
1
10
-1.69999999999999
20
7.60382755625838
30
0
41
1
10
-1.69999999999999
20
7.39181445781463
30
0
41
1
10
-1.69999999999999
20
7.22005470774221
30
0
41
1
10
-1.69999999999999
20
7.09014226669851
30
0
41
1
10
-1.69999999999999
20
6.95914717066265
30
0
41
1
10
-1.69999999999999
20
6.7830583657493
30
0
41
1
10
-1.69999999999999
20
6.56021848903171
30
0
41
1
10
-1.69999999999999
20
6.28851700104784
30
0
41
1
10
-1.69999999999999
20
6.01251447744062
30
0
41
1
10
-1.69999999999999
20
5.77892152059965
30
0
41
1
10
-1.69999999999999
20
5.58993216915877
30
0
41
1
10
-1.69999999999999
20
5.44710899667646
30
0
41
1
10
-1.69999999999999
20
5.30321729486519
30
0
41
1
10
-1.69999999999999
20
5.15825857839869
30
0
41
1
10
-1.69999999999999
20
5.01223405348068
30
0
41
1
10
-1.69999999999999
20
4.86514556778678
30
0
41
1
10
-1.69999999999999
20
4.71699468615466
30
0
41
1
10
-1.69999999999999
20
4.56778337246482
30
0
41
1
10
-1.69999999999999
20
4.41751381174834
30
0
41
1
10
-1.69999999999999
20
4.26618872973953
30
0
41
1
10
-1.69999999999999
20
4.11381092681606
30
0
41
1
10
-1.69999999999999
20
3.96038358832212
30
0
41
1
10
-1.69999999999999
20
3.80591077742719
30
0
41
1
10
-1.69999999999999
20
3.65039714326571
30
0
41
1
10
-1.69999999999999
20
3.49384789900154
30
0
41
1
10
-1.69999999999999
20
3.33626943234705
30
0
41
1
10
-1.69999999999999
20
3.17766893265431
30
0
41
1
10
-1.69999999999999
20
3.01805527431182
30
0
41
1
10
-1.69999999999999
20
2.85743846779499
30
0
41
1
10
-1.69999999999999
20
2.71257747642741
30
0
41
1
10
-1.69999999999999
20
2.62111404232408
30
0
41
1
10
-1.69999999999999
20
2.58372509632827
30
0
0
SPLINE
5
19C
100
AcDbEntity
8
SK1
62
256
6
ByLayer
370
18
48
1
60
0
100
AcDbSpline
70
4
71
3
72
120
73
116
40
0
40
0
40
0
40
0
40
0.0053555999423123
40
0.0131272595908811
40
0.0208989192394499
40
0.0286705788880187
40
0.0364422385365875
40
0.0442138981851563
40
0.0519855578337251
40
0.0597572174822939
40
0.0675288771308627
40
0.0753005367794315
40
0.0830721964280003
40
0.0908438560765692
40
0.098615515725138
40
0.106387175373707
40
0.114158835022276
40
0.121930494670844
40
0.129702154319413
40
0.137473813967982
40
0.145245473616551
40
0.15301713326512
40
0.160788792913688
40
0.176332112210826
40
0.191875431507963
40
0.207418750805101
40
0.222962070102239
40
0.230733729750808
40
0.238505389399376
40
0.246277049047945
40
0.254048708696514
40
0.269592027993652
40
0.285135347290789
40
0.292907006939358
40
0.300678666587927
40
0.308450326236496
40
0.316221985885064
40
0.323993645533633
40
0.331765305182202
40
0.34730862447934
40
0.355080284127908
40
0.362851943776477
40
0.378395263073615
40
0.393938582370752
40
0.401710242019321
40
0.40948190166789
40
0.425025220965028
40
0.432796880613596
40
0.436682710437881
40
0.440568540262165
40
0.448340199910734
40
0.456111859559303
40
0.47165517885644
40
0.479426838505009
40
0.487198498153578
40
0.494970157802147
40
0.502741817450716
40
0.510513477099284
40
0.518285136747853
40
0.526056796396422
40
0.533828456044991
40
0.54160011569356
40
0.549371775342128
40
0.564915094639266
40
0.572686754287835
40
0.580458413936404
40
0.588230073584972
40
0.592115903409257
40
0.596001733233541
40
0.60377339288211
40
0.611545052530679
40
0.619316712179248
40
0.627088371827817
40
0.634860031476385
40
0.642631691124954
40
0.658175010422092
40
0.673718329719229
40
0.681489989367798
40
0.689261649016367
40
0.704804968313504
40
0.712576627962073
40
0.720348287610642
40
0.728119947259211
40
0.73589160690778
40
0.743663266556349
40
0.751434926204917
40
0.759206585853486
40
0.766978245502055
40
0.782521564799193
40
0.790293224447761
40
0.79806488409633
40
0.805836543744899
40
0.813608203393468
40
0.821379863042037
40
0.829151522690605
40
0.844694841987743
40
0.852466501636312
40
0.860238161284881
40
0.868009820933449
40
0.875781480582018
40
0.891324799879156
40
0.899096459527725
40
0.906868119176293
40
0.914639778824862
40
0.922411438473431
40
0.930183098122
40
0.937954757770569
40
0.945726417419137
40
0.953498077067706
40
0.961269736716275
40
0.969041396364844
40
0.976813056013413
40
0.984584715661981
40
0.99235637531055
40
1
40
1
40
1
40
1
41
1
10
-1.69999999999999
20
-2.5837250319525
30
0
41
1
10
-1.69999999999999
20
-2.62111400924692
30
0
41
1
10
-1.69999999999999
20
-2.71257747842986
30
0
41
1
10
-1.69999999999999
20
-2.85743848960826
30
0
41
1
10
-1.69999999999999
20
-3.01805529196176
30
0
41
1
10
-1.69999999999999
20
-3.17766896347746
30
0
41
1
10
-1.69999999999999
20
-3.33626946559076
30
0
41
1
10
-1.69999999999999
20
-3.49384788295134
30
0
41
1
10
-1.69999999999999
20
-3.65039703338328
30
0
41
1
10
-1.69999999999999
20
-3.80591068333541
30
0
41
1
10
-1.69999999999999
20
-3.9603838288908
30
0
41
1
10
-1.69999999999999
20
-4.11381118090259
30
0
41
1
10
-1.69999999999999
20
-4.26618881241484
30
0
41
1
10
-1.69999999999999
20
-4.41751369191317
30
0
41
1
10
-1.69999999999999
20
-4.56778315161375
30
0
41
1
10
-1.69999999999999
20
-4.7169946256985
30
0
41
1
10
-1.69999999999999
20
-4.86514572624662
30
0
41
1
10
-1.69999999999999
20
-5.01223421717728
30
0
41
1
10
-1.69999999999999
20
-5.15825863689906
30
0
41
1
10
-1.69999999999999
20
-5.30321731736851
30
0
41
1
10
-1.69999999999999
20
-5.44710902267545
30
0
41
1
10
-1.69999999999999
20
-5.58993219435266
30
0
41
1
10
-1.69999999999999
20
-5.77892152593586
30
0
41
1
10
-1.69999999999999
20
-6.01251450148573
30
0
41
1
10
-1.69999999999999
20
-6.28851702131561
30
0
41
1
10
-1.69999999999999
20
-6.56021849497904
30
0
41
1
10
-1.69999999999999
20
-6.78305839594086
30
0
41
1
10
-1.69999999999999
20
-6.95914718913937
30
0
41
1
10
-1.69999999999999
20
-7.0901422748378
30
0
41
1
10
-1.69999999999999
20
-7.22005471809891
30
0
41
1
10
-1.69999999999999
20
-7.391814483107
30
0
41
1
10
-1.69999999999999
20
-7.60382757721297
30
0
41
1
10
-1.69999999999999
20
-7.81221412115067
30
0
41
1
10
-1.69999999999999
20
-7.97672004102665
30
0
41
1
10
-1.69999999999999
20
-8.09901466976936
30
0
41
1
10
-1.69999999999999
20
-8.22021382021134
30
0
41
1
10
-1.69999999999999
20
-8.34031608257325
30
0
41
1
10
-1.69999999999999
20
-8.45931946186533
30
0
41
1
10
-1.69999999999999
20
-8.61651163422607
30
0
41
1
10
-1.69999999999999
20
-8.77152769372714
30
0
41
1
10
-1.69999999999999
20
-8.92429762219672
30
0
41
1
10
-1.69999999999999
20
-9.07558728630886
30
0
41
1
10
-1.69999999999999
20
-9.26193699842017
30
0
41
1
10
-1.69999999999999
20
-9.44455857133374
30
0
41
1
10
-1.69999999999999
20
-9.58839009925038
30
0
41
1
10
-1.69999999999999
20
-9.73071863089592
30
0
41
1
10
-1.69999999999999
20
-9.87081045044334
30
0
41
1
10
-1.69999999999999
20
-9.99138145148612
30
0
41
1
10
-1.69999999999999
20
-10.059706595653
30
0
41
1
10
-1.69999999999999
20
-10.127650582945
30
0
41
1
10
-1.69999999999999
20
-10.2118742978003
30
0
41
1
10
-1.69999999999999
20
-10.3450861597474
30
0
41
1
10
-1.69999999999999
20
-10.4760157822056
30
0
41
1
10
-1.69999999999999
20
-10.6046008653873
30
0
41
1
10
-1.69999999999999
20
-10.6998796625668
30
0
41
1
10
-1.69999999999999
20
-10.7939888545435
30
0
41
1
10
-1.69999999999999
20
-10.8869237943964
30
0
41
1
10
-1.69999999999999
20
-10.9786794570574
30
0
41
1
10
-1.69999999999999
20
-11.069250952524
30
0
41
1
10
-1.69999999999999
20
-11.1586337774266
30
0
41
1
10
-1.69999999999999
20
-11.2468221981049
30
0
41
1
10
-1.69999999999999
20
-11.3338110691597
30
0
41
1
10
-1.69999999999999
20
-11.4481829097131
30
0
41
1
10
-1.69999999999999
20
-11.5601529310588
30
0
41
1
10
-1.69999999999999
20
-11.6696587897978
30
0
41
1
10
-1.69999999999999
20
-11.7505641463283
30
0
41
1
10
-1.69999999999999
20
-11.8169591619061
30
0
41
1
10
-1.69999999999999
20
-11.869448828233
30
0
41
1
10
-1.69999999999999
20
-11.9215236271769
30
0
41
1
10
-1.69999999999999
20
-11.9858436943514
30
0
41
1
10
-1.69999999999999
20
-12.0617686735772
30
0
41
1
10
-1.69999999999999
20
-12.1364317035572
30
0
41
1
10
-1.69999999999999
20
-12.2098248313331
30
0
41
1
10
-1.69999999999999
20
-12.2819407102379
30
0
41
1
10
-1.69999999999999
20
-12.3763763795169
30
0
41
1
10
-1.69999999999999
20
-12.4912006631364
30
0
41
1
10
-1.69999999999999
20
-12.6016599065257
30
0
41
1
10
-1.69999999999999
20
-12.687362440577
30
0
41
1
10
-1.69999999999999
20
-12.7712834981639
30
0
41
1
10
-1.69999999999999
20
-12.8525264302737
30
0
41
1
10
-1.69999999999999
20
-12.9310230820619
30
0
41
1
10
-1.69999999999999
20
-12.9885221046098
30
0
41
1
10
-1.69999999999999
20
-13.0446338377524
30
0
41
1
10
-1.69999999999999
20
-13.0993474417035
30
0
41
1
10
-1.69999999999999
20
-13.1526505331688
30
0
41
1
10
-1.69999999999999
20
-13.2045321176789
30
0
41
1
10
-1.69999999999999
20
-13.2549799687684
30
0
41
1
10
-1.69999999999999
20
-13.3203101272292
30
0
41
1
10
-1.69999999999999
20
-13.3827344481881
30
0
41
1
10
-1.69999999999999
20
-13.4421723383994
30
0
41
1
10
-1.69999999999999
20
-13.4852529409442
30
0
41
1
10
-1.69999999999999
20
-13.5268172136993
30
0
41
1
10
-1.69999999999999
20
-13.5668499598694
30
0
41
1
10
-1.69999999999999
20
-13.6053356175566
30
0
41
1
10
-1.69999999999999
20
-13.6545611570253
30
0
41
1
10
-1.69999999999999
20
-13.7006353167884
30
0
41
1
10
-1.69999999999999
20
-13.7434661079967
30
0
41
1
10
-1.69999999999999
20
-13.7739560268625
30
0
41
1
10
-1.69999999999999
20
-13.8027899277569
30
0
41
1
10
-1.69999999999999
20
-13.8389980176944
30
0
41
1
10
-1.69999999999999
20
-13.8718187984145
30
0
41
1
10
-1.69999999999999
20
-13.9011479145568
30
0
41
1
10
-1.69999999999999
20
-13.9213794981548
30
0
41
1
10
-1.69999999999999
20
-13.9398197437578
30
0
41
1
10
-1.69999999999999
20
-13.9564420504847
30
0
41
1
10
-1.69999999999999
20
-13.9712195410175
30
0
41
1
10
-1.69999999999999
20
-13.9841238377961
30
0
41
1
10
-1.69999999999999
20
-13.9951249982352
30
0
41
1
10
-1.69999999999999
20
-14.0041924220526
30
0
41
1
10
-1.69999999999999
20
-14.0112932507837
30
0
41
1
10
-1.69999999999999
20
-14.0163938901866
30
0
41
1
10
-1.69999999999999
20
-14.019458382701
30
0
41
1
10
-1.69999999999999
20
-14.0204497516689
30
0
41
1
10
-1.69999999999999
20
-14.0193347369046
30
0
41
1
10
-1.69999999999999
20
-14.0171811880648
30
0
41
1
10
-1.69999999999996
20
-14.0157592855499
30
0
0
SPLINE
5
19D
100
AcDbEntity
8
SK1
62
256
6
ByLayer
370
18
48
1
60
0
100
AcDbSpline
70
4
71
3
72
287
73
283
40
0
40
0
40
0
40
0
40
0.0011530177914122
40
0.0046414615855466
40
0.0081299053796811
40
0.0116183491738155
40
0.01510679296795
40
0.0185952367620844
40
0.0220836805562189
40
0.0255721243503533
40
0.0290605681444878
40
0.0325490119386222
40
0.0395258995268911
40
0.04650278711516
40
0.0534796747034289
40
0.0569681184975633
40
0.0604565622916978
40
0.0639450060858322
40
0.0674334498799666
40
0.0744103374682355
40
0.07789878126237
40
0.0813872250565045
40
0.0848756688506389
40
0.0883641126447733
40
0.0918525564389078
40
0.0953410002330422
40
0.102317887821311
40
0.105806331615446
40
0.10929477540958
40
0.112783219203714
40
0.116271662997849
40
0.119760106791983
40
0.123248550586118
40
0.126736994380252
40
0.130225438174387
40
0.137202325762656
40
0.14069076955679
40
0.144179213350924
40
0.151156100939193
40
0.158132988527462
40
0.161621432321597
40
0.165109876115731
40
0.168598319909866
40
0.172086763704
40
0.175575207498134
40
0.179063651292269
40
0.180807873189336
40
0.182552095086403
40
0.186040538880538
40
0.189528982674672
40
0.193017426468807
40
0.199994314057076
40
0.20348275785121
40
0.206971201645344
40
0.210459645439479
40
0.213948089233613
40
0.217436533027748
40
0.220924976821882
40
0.224413420616017
40
0.227901864410151
40
0.231390308204286
40
0.23487875199842
40
0.241855639586689
40
0.245344083380823
40
0.248832527174958
40
0.250576749072025
40
0.252320970969092
40
0.255809414763227
40
0.262786302351496
40
0.26627474614563
40
0.269763189939765
40
0.276740077528033
40
0.283716965116302
40
0.287205408910437
40
0.290693852704571
40
0.29767074029284
40
0.301159184086975
40
0.304647627881109
40
0.308136071675243
40
0.311624515469378
40
0.315112959263512
40
0.318601403057647
40
0.325578290645916
40
0.332555178234185
40
0.336043622028319
40
0.339532065822453
40
0.343020509616588
40
0.346508953410722
40
0.353485840998991
40
0.36046272858726
40
0.367439616175529
40
0.374416503763798
40
0.377904947557932
40
0.381393391352067
40
0.384881835146201
40
0.388370278940336
40
0.39185872273447
40
0.395347166528605
40
0.398835610322739
40
0.402324054116873
40
0.405812497911008
40
0.409300941705142
40
0.412789385499277
40
0.416277829293411
40
0.419766273087546
40
0.42325471688168
40
0.426743160675815
40
0.430231604469949
40
0.433720048264083
40
0.437208492058218
40
0.440696935852352
40
0.444185379646487
40
0.447673823440621
40
0.449418045337688
40
0.451162267234756
40
0.45465071102889
40
0.456394932925957
40
0.458139154823025
40
0.459883376720092
40
0.461627598617159
40
0.463371820514226
40
0.465116042411293
40
0.466860264308361
40
0.468604486205428
40
0.472092929999562
40
0.47383715189663
40
0.475581373793697
40
0.477325595690764
40
0.479069817587831
40
0.480814039484898
40
0.482558261381966
40
0.484302483279033
40
0.4860467051761
40
0.487790927073167
40
0.489535148970234
40
0.491279370867302
40
0.493023592764369
40
0.494767814661436
40
0.496512036558503
40
0.498256258455571
40
0.500000480352638
40
0.501744702249705
40
0.503488924146772
40
0.50523314604384
40
0.506977367940907
40
0.508721589837974
40
0.510465811735041
40
0.512210033632108
40
0.513954255529176
40
0.515698477426243
40
0.51744269932331
40
0.519186921220377
40
0.520931143117445
40
0.522675365014512
40
0.524419586911579
40
0.526163808808646
40
0.527908030705713
40
0.531396474499848
40
0.533140696396915
40
0.534884918293982
40
0.53662914019105
40
0.538373362088117
40
0.540117583985184
40
0.541861805882251
40
0.543606027779319
40
0.545350249676386
40
0.54883869347052
40
0.550582915367587
40
0.552327137264654
40
0.555815581058789
40
0.559304024852923
40
0.562792468647058
40
0.566280912441192
40
0.569769356235327
40
0.573257800029461
40
0.576746243823596
40
0.58023468761773
40
0.583723131411864
40
0.587211575205999
40
0.590700019000133
40
0.594188462794268
40
0.597676906588402
40
0.601165350382537
40
0.604653794176671
40
0.608142237970806
40
0.61163068176494
40
0.615119125559075
40
0.618607569353209
40
0.622096013147343
40
0.625584456941478
40
0.632561344529747
40
0.639538232118016
40
0.646515119706284
40
0.653492007294553
40
0.656980451088688
40
0.660468894882822
40
0.663957338676957
40
0.667445782471091
40
0.67442267005936
40
0.681399557647629
40
0.684888001441763
40
0.688376445235898
40
0.691864889030032
40
0.695353332824167
40
0.698841776618301
40
0.702330220412436
40
0.709307108000704
40
0.712795551794839
40
0.716283995588973
40
0.723260883177242
40
0.730237770765511
40
0.733726214559645
40
0.73721465835378
40
0.744191545942049
40
0.747679989736183
40
0.749424211633251
40
0.751168433530318
40
0.754656877324452
40
0.758145321118587
40
0.765122208706856
40
0.76861065250099
40
0.772099096295125
40
0.775587540089259
40
0.779075983883394
40
0.782564427677528
40
0.786052871471662
40
0.789541315265797
40
0.793029759059931
40
0.796518202854066
40
0.8000066466482
40
0.806983534236469
40
0.810471978030603
40
0.813960421824738
40
0.817448865618872
40
0.81919308751594
40
0.820937309413007
40
0.824425753207141
40
0.827914197001276
40
0.83140264079541
40
0.834891084589544
40
0.838379528383679
40
0.841867972177813
40
0.848844859766082
40
0.855821747354351
40
0.859310191148486
40
0.86279863494262
40
0.869775522530889
40
0.873263966325023
40
0.876752410119158
40
0.880240853913292
40
0.883729297707427
40
0.887217741501561
40
0.890706185295696
40
0.89419462908983
40
0.897683072883964
40
0.904659960472234
40
0.908148404266368
40
0.911636848060502
40
0.915125291854637
40
0.918613735648771
40
0.922102179442906
40
0.92559062323704
40
0.932567510825309
40
0.936055954619443
40
0.939544398413578
40
0.943032842207712
40
0.946521286001847
40
0.953498173590116
40
0.95698661738425
40
0.960475061178385
40
0.963963504972519
40
0.967451948766653
40
0.970940392560788
40
0.974428836354922
40
0.977917280149057
40
0.981405723943191
40
0.984894167737326
40
0.98838261153146
40
0.991871055325595
40
0.995359499119729
40
0.998847942913863
40
1
40
1
40
1
40
1
41
1
10
-22.5
20
13.4956358892435
30
0
41
1
10
-22.5
20
13.4959444126697
30
0
41
1
10
-22.5
20
13.4970336947634
30
0
41
1
10
-22.5
20
13.4978716184631
30
0
41
1
10
-22.5
20
13.4969161903089
30
0
41
1
10
-22.5
20
13.4939625245411
30
0
41
1
10
-22.5
20
13.4890441905268
30
0
41
1
10
-22.5
20
13.4821928739338
30
0
41
1
10
-22.5
20
13.4734382711797
30
0
41
1
10
-22.5
20
13.4628104278487
30
0
41
1
10
-22.5
20
13.4503375493538
30
0
41
1
10
-22.5
20
13.4312436783152
30
0
41
1
10
-22.5
20
13.402990048048
30
0
41
1
10
-22.5
20
13.3620642251226
30
0
41
1
10
-22.5
20
13.3223661774289
30
0
41
1
10
-22.5
20
13.2871835761246
30
0
41
1
10
-22.5
20
13.2592104836088
30
0
41
1
10
-22.5
20
13.2296213566399
30
0
41
1
10
-22.5
20
13.1879639126742
30
0
41
1
10
-22.5
20
13.1433841284413
30
0
41
1
10
-22.5
20
13.0954724183383
30
0
41
1
10
-22.5
20
13.0580720783436
30
0
41
1
10
-22.5
20
13.0191589474766
30
0
41
1
10
-22.5
20
12.9787481075025
30
0
41
1
10
-22.5
20
12.9368537004399
30
0
41
1
10
-22.5
20
12.8789379874313
30
0
41
1
10
-22.5
20
12.8184132188765
30
0
41
1
10
-22.5
20
12.7547247883428
30
0
41
1
10
-22.5
20
12.7056201369325
30
0
41
1
10
-22.5
20
12.6551113810006
30
0
41
1
10
-22.5
20
12.6032111684974
30
0
41
1
10
-22.5
20
12.5499297998313
30
0
41
1
10
-22.5
20
12.4952790326449
30
0
41
1
10
-22.5
20
12.4392702770472
30
0
41
1
10
-22.5
20
12.3626709718699
30
0
41
1
10
-22.5
20
12.2837700633604
30
0
41
1
10
-22.5
20
12.2018541666219
30
0
41
1
10
-22.5
20
12.1181901660327
30
0
41
1
10
-22.5
20
12.0106580823312
30
0
41
1
10
-22.5
20
11.8988607853737
30
0
41
1
10
-22.5
20
11.8066390784571
30
0
41
1
10
-22.5
20
11.7363216027856
30
0
41
1
10
-22.5
20
11.6647550005754
30
0
41
1
10
-22.5
20
11.59194615036
30
0
41
1
10
-22.5
20
11.5179033392113
30
0
41
1
10
-22.5
20
11.4552554262223
30
0
41
1
10
-22.5
20
11.4043880916922
30
0
41
1
10
-22.5
20
11.3531143221947
30
0
41
1
10
-22.5
20
11.2884404549429
30
0
41
1
10
-22.5
20
11.2095312020912
30
0
41
1
10
-22.5
20
11.1025558247745
30
0
41
1
10
-22.5
20
10.9936883814227
30
0
41
1
10
-22.5
20
10.881957392112
30
0
41
1
10
-22.5
20
10.7971107518715
30
0
41
1
10
-22.5
20
10.7110949831286
30
0
41
1
10
-22.5
20
10.6239149454148
30
0
41
1
10
-22.5
20
10.5355769819029
30
0
41
1
10
-22.5
20
10.4460865275718
30
0
41
1
10
-22.5
20
10.3554481215356
30
0
41
1
10
-22.5
20
10.2636670923514
30
0
41
1
10
-22.5
20
10.1707494549495
30
0
41
1
10
-22.5
20
10.0451570413025
30
0
41
1
10
-22.5
20
9.9178935930201
30
0
41
1
10
-22.5
20
9.78780083934149
30
0
41
1
10
-22.5
20
9.70579078784203
30
0
41
1
10
-22.5
20
9.63944489130404
30
0
41
1
10
-22.5
20
9.57273011219269
30
0
41
1
10
-22.5
20
9.45508832781687
30
0
41
1
10
-22.5
20
9.31898450356377
30
0
41
1
10
-22.5
20
9.18004983919923
30
0
41
1
10
-22.5
20
9.03966368952015
30
0
41
1
10
-22.5
20
8.86197296792949
30
0
41
1
10
-22.5
20
8.68069429175796
30
0
41
1
10
-22.5
20
8.53310893756458
30
0
41
1
10
-22.5
20
8.38410353449396
30
0
41
1
10
-22.5
20
8.23370690743869
30
0
41
1
10
-22.5
20
8.08045168982594
30
0
41
1
10
-22.5
20
7.96465014223952
30
0
41
1
10
-22.5
20
7.84779993569691
30
0
41
1
10
-22.5
20
7.72990617143802
30
0
41
1
10
-22.5
20
7.61097083499584
30
0
41
1
10
-22.5
20
7.45073654157579
30
0
41
1
10
-22.5
20
7.24848505186407
30
0
41
1
10
-22.5
20
7.04280518235291
30
0
41
1
10
-22.5
20
6.87569112826711
30
0
41
1
10
-22.5
20
6.74956632065386
30
0
41
1
10
-22.5
20
6.62242827644155
30
0
41
1
10
-22.5
20
6.4512555331213
30
0
41
1
10
-22.5
20
6.23550102644131
30
0
41
1
10
-22.5
20
5.97220551217549
30
0
41
1
10
-22.5
20
5.70495651005669
30
0
41
1
10
-22.5
20
5.47933703035866
30
0
41
1
10
-22.5
20
5.29623480232564
30
0
41
1
10
-22.5
20
5.15823567759486
30
0
41
1
10
-22.5
20
5.01927995326392
30
0
41
1
10
-22.5
20
4.87937450907222
30
0
41
1
10
-22.5
20
4.73852599905979
30
0
41
1
10
-22.5
20
4.59674211262629
30
0
41
1
10
-22.5
20
4.45403157575558
30
0
41
1
10
-22.5
20
4.31040309161111
30
0
41
1
10
-22.5
20
4.16586580001649
30
0
41
1
10
-22.5
20
4.02043049501106
30
0
41
1
10
-22.5
20
3.87410976932693
30
0
41
1
10
-22.5
20
3.72691565105669
30
0
41
1
10
-22.5
20
3.57886126909133
30
0
41
1
10
-22.5
20
3.4299627769704
30
0
41
1
10
-22.5
20
3.28023687778401
30
0
41
1
10
-22.5
20
3.12970257053468
30
0
41
1
10
-22.5
20
2.97838003358396
30
0
41
1
10
-22.5
20
2.8262921676581
30
0
41
1
10
-22.5
20
2.67346525953189
30
0
41
1
10
-22.5
20
2.51992549648591
30
0
41
1
10
-22.5
20
2.39172828921559
30
0
41
1
10
-22.5
20
2.2882368400623
30
0
41
1
10
-22.5
20
2.18454587114542
30
0
41
1
10
-22.5
20
2.08161602870015
30
0
41
1
10
-22.5
20
1.97729727415896
30
0
41
1
10
-22.5
20
1.89920682890118
30
0
41
1
10
-22.5
20
1.82098464012651
30
0
41
1
10
-22.5
20
1.74263823347056
30
0
41
1
10
-22.5
20
1.66417084854152
30
0
41
1
10
-22.5
20
1.58559123041411
30
0
41
1
10
-22.5
20
1.50690426712365
30
0
41
1
10
-22.5
20
1.40144074045128
30
0
41
1
10
-22.5
20
1.29707563275716
30
0
41
1
10
-22.5
20
1.1912185842138
30
0
41
1
10
-22.5
20
1.11209553564783
30
0
41
1
10
-22.5
20
1.03290644237791
30
0
41
1
10
-22.5
20
0.95365606681014
30
0
41
1
10
-22.5
20
0.874352168955852
30
0
41
1
10
-22.5
20
0.795000198505278
30
0
41
1
10
-22.5
20
0.71560660892132
30
0
41
1
10
-22.5
20
0.63617666680787
30
0
41
1
10
-22.5
20
0.556715993884097
30
0
41
1
10
-22.5
20
0.477229338262958
30
0
41
1
10
-22.5
20
0.397721593521055
30
0
41
1
10
-22.5
20
0.318196568076161
30
0
41
1
10
-22.5
20
0.238658582119825
30
0
41
1
10
-22.5
20
0.159110826532412
30
0
41
1
10
-22.5
20
0.0795570008675952
30
0
41
1
10
-22.5
20
-4.3520458E-09
30
0
41
1
10
-22.5
20
-0.0795570195282949
30
0
41
1
10
-22.5
20
-0.159110863620981
30
0
41
1
10
-22.5
20
-0.238658616598514
30
0
41
1
10
-22.5
20
-0.318196574925025
30
0
41
1
10
-22.5
20
-0.397721596430074
30
0
41
1
10
-22.5
20
-0.477229377934975
30
0
41
1
10
-22.5
20
-0.556716044364009
30
0
41
1
10
-22.5
20
-0.63617667254502
30
0
41
1
10
-22.5
20
-0.715606595157226
30
0
41
1
10
-22.5
20
-0.795000235128668
30
0
41
1
10
-22.5
20
-0.874352236673616
30
0
41
1
10
-22.5
20
-0.953656082911976
30
0
41
1
10
-22.5
20
-1.03290641330759
30
0
41
1
10
-22.5
20
-1.11209555133374
30
0
41
1
10
-22.5
20
-1.19121866112906
30
0
41
1
10
-22.5
20
-1.29707565327635
30
0
41
1
10
-22.5
20
-1.40144071039387
30
0
41
1
10
-22.5
20
-1.50690430877853
30
0
41
1
10
-22.5
20
-1.58559131690836
30
0
41
1
10
-22.5
20
-1.66417088377818
30
0
41
1
10
-22.5
20
-1.74263820265682
30
0
41
1
10
-22.5
20
-1.82098461234611
30
0
41
1
10
-22.5
20
-1.89920687090043
30
0
41
1
10
-22.5
20
-1.97729736527978
30
0
41
1
10
-22.5
20
-2.08161605220536
30
0
41
1
10
-22.5
20
-2.18454583019769
30
0
41
1
10
-22.5
20
-2.28823685042076
30
0
41
1
10
-22.5
20
-2.39172837491469
30
0
41
1
10
-22.5
20
-2.51992552331163
30
0
41
1
10
-22.5
20
-2.67346522993279
30
0
41
1
10
-22.5
20
-2.82629223006825
30
0
41
1
10
-22.5
20
-2.9783800820847
30
0
41
1
10
-22.5
20
-3.12970236953149
30
0
41
1
10
-22.5
20
-3.2802363758513
30
0
41
1
10
-22.5
20
-3.42996282061054
30
0
41
1
10
-22.5
20
-3.57886234252629
30
0
41
1
10
-22.5
20
-3.72691655621918
30
0
41
1
10
-22.5
20
-3.87410940415094
30
0
41
1
10
-22.5
20
-4.02042950258553
30
0
41
1
10
-22.5
20
-4.1658649918152
30
0
41
1
10
-22.5
20
-4.31040320562681
30
0
41
1
10
-22.5
20
-4.45403251641869
30
0
41
1
10
-22.5
20
-4.59674271442694
30
0
41
1
10
-22.5
20
-4.73852585442467
30
0
41
1
10
-22.5
20
-4.87937424460151
30
0
41
1
10
-22.5
20
-5.01927991936705
30
0
41
1
10
-22.5
20
-5.15823571506778
30
0
41
1
10
-22.5
20
-5.29623478947158
30
0
41
1
10
-22.5
20
-5.47933703089231
30
0
41
1
10
-22.5
20
-5.70495655337433
30
0
41
1
10
-22.5
20
-5.97220551419213
30
0
41
1
10
-22.5
20
-6.23550104742759
30
0
41
1
10
-22.5
20
-6.451255571394
30
0
41
1
10
-22.5
20
-6.6224282598192
30
0
41
1
10
-22.5
20
-6.74956631857705
30
0
41
1
10
-22.5
20
-6.87569116366484
30
0
41
1
10
-22.5
20
-7.04280522024894
30
0
41
1
10
-22.5
20
-7.24848505302427
30
0
41
1
10
-22.5
20
-7.4507365478344
30
0
41
1
10
-22.5
20
-7.6109708771202
30
0
41
1
10
-22.5
20
-7.72990620240671
30
0
41
1
10
-22.5
20
-7.84779994085653
30
0
41
1
10
-22.5
20
-7.96465013686171
30
0
41
1
10
-22.5
20
-8.08045169790759
30
0
41
1
10
-22.5
20
-8.23370694014301
30
0
41
1
10
-22.5
20
-8.38410356414289
30
0
41
1
10
-22.5
20
-8.53310893988203
30
0
41
1
10
-22.5
20
-8.68069429599308
30
0
41
1
10
-22.5
20
-8.8619729936481
30
0
41
1
10
-22.5
20
-9.0396637144479
30
0
41
1
10
-22.5
20
-9.18004984465043
30
0
41
1
10
-22.5
20
-9.31898451102214
30
0
41
1
10
-22.5
20
-9.45508835059124
30
0
41
1
10
-22.5
20
-9.57273013875857
30
0
41
1
10
-22.5
20
-9.63944491324963
30
0
41
1
10
-22.5
20
-9.70579080403837
30
0
41
1
10
-22.5
20
-9.7878008492857
30
0
41
1
10
-22.5
20
-9.91789360326428
30
0
41
1
10
-22.5
20
-10.0451570606616
30
0
41
1
10
-22.5
20
-10.1707494782419
30
0
41
1
10
-22.5
20
-10.2636671117607
30
0
41
1
10
-22.5
20
-10.3554481360506
30
0
41
1
10
-22.5
20
-10.4460865401309
30
0
41
1
10
-22.5
20
-10.5355769962349
30
0
41
1
10
-22.5
20
-10.6239149629423
30
0
41
1
10
-22.5
20
-10.7110950034658
30
0
41
1
10
-22.5
20
-10.7971107724731
30
0
41
1
10
-22.5
20
-10.881957410682
30
0
41
1
10
-22.5
20
-10.9936883968037
30
0
41
1
10
-22.5
20
-11.1025558384385
30
0
41
1
10
-22.5
20
-11.2095312195267
30
0
41
1
10
-22.5
20
-11.2884404756242
30
0
41
1
10
-22.5
20
-11.3531143441571
30
0
41
1
10
-22.5
20
-11.4043881128182
30
0
41
1
10
-22.5
20
-11.4552554448703
30
0
41
1
10
-22.5
20
-11.5179033535968
30
0
41
1
10
-22.5
20
-11.5919461625789
30
0
41
1
10
-22.5
20
-11.664755015164
30
0
41
1
10
-22.5
20
-11.7363216229303
30
0
41
1
10
-22.5
20
-11.8066391033683
30
0
41
1
10
-22.5
20
-11.8988608066557
30
0
41
1
10
-22.5
20
-12.0106580919609
30
0
41
1
10
-22.5
20
-12.1181901818312
30
0
41
1
10
-22.5
20
-12.2018541939414
30
0
41
1
10
-22.5
20
-12.2837700876339
30
0
41
1
10
-22.5
20
-12.3626709807027
30
0
41
1
10
-22.5
20
-12.4392702870471
30
0
41
1
10
-22.5
20
-12.4952790541085
30
0
41
1
10
-22.5
20
-12.5499298292215
30
0
41
1
10
-22.5
20
-12.6032111946844
30
0
41
1
10
-22.5
20
-12.6551113940766
30
0
41
1
10
-22.5
20
-12.7056201424592
30
0
41
1
10
-22.5
20
-12.7547247990428
30
0
41
1
10
-22.5
20
-12.8184132466048
30
0
41
1
10
-22.5
20
-12.8789380178894
30
0
41
1
10
-22.5
20
-12.9368537080862
30
0
41
1
10
-22.5
20
-12.9787481114295
30
0
41
1
10
-22.5
20
-13.0191589652135
30
0
41
1
10
-22.5
20
-13.0580721081213
30
0
41
1
10
-22.5
20
-13.0954724456838
30
0
41
1
10
-22.5
20
-13.143384141029
30
0
41
1
10
-22.5
20
-13.187963912528
30
0
41
1
10
-22.5
20
-13.2296213845592
30
0
41
1
10
-22.5
20
-13.2592105165633
30
0
41
1
10
-22.5
20
-13.2871835921006
30
0
41
1
10
-22.5
20
-13.3223661764574
30
0
41
1
10
-22.5
20
-13.3540536969874
30
0
41
1
10
-22.5
20
-13.3825245595672
30
0
41
1
10
-22.5
20
-13.4021158939438
30
0
41
1
10
-22.5
20
-13.4199649415155
30
0
41
1
10
-22.5
20
-13.4360470510206
30
0
41
1
10
-22.5
20
-13.4503375548199
30
0
41
1
10
-22.5
20
-13.4628103286331
30
0
41
1
10
-22.5
20
-13.4734380181859
30
0
41
1
10
-22.5
20
-13.4821927509398
30
0
41
1
10
-22.5
20
-13.4890446841776
30
0
41
1
10
-22.5
20
-13.4939634903146
30
0
41
1
10
-22.5
20
-13.4969168014739
30
0
41
1
10
-22.5
20
-13.4978715423881
30
0
41
1
10
-22.5
20
-13.4970334654725
30
0
41
1
10
-22.5
20
-13.4959444884803
30
0
41
1
10
-22.5
20
-13.4956362786075
30
0
0
SPLINE
5
19E
100
AcDbEntity
8
SK1
62
256
6
ByLayer
370
18
48
1
60
0
100
AcDbSpline
70
4
71
3
72
119
73
115
40
0
40
0
40
0
40
0
40
0.0017654123261036
40
0.0096870351464767
40
0.0176086579668499
40
0.025530280787223
40
0.0334519036075962
40
0.0413735264279693
40
0.0492951492483425
40
0.0572167720687156
40
0.0651383948890888
40
0.0730600177094619
40
0.0809816405298351
40
0.0889032633502082
40
0.0968248861705813
40
0.104746508990955
40
0.112668131811328
40
0.120589754631701
40
0.128511377452074
40
0.136433000272447
40
0.14435462309282
40
0.152276245913193
40
0.160197868733567
40
0.176041114374313
40
0.191884360015059
40
0.207727605655805
40
0.223570851296552
40
0.231492474116925
40
0.239414096937298
40
0.247335719757671
40
0.255257342578044
40
0.271100588218791
40
0.286943833859537
40
0.29486545667991
40
0.302787079500283
40
0.310708702320656
40
0.31863032514103
40
0.326551947961403
40
0.334473570781776
40
0.350316816422522
40
0.358238439242895
40
0.366160062063268
40
0.382003307704015
40
0.397846553344761
40
0.405768176165134
40
0.413689798985507
40
0.429533044626254
40
0.437454667446627
40
0.441415478856813
40
0.445376290267
40
0.453297913087373
40
0.461219535907746
40
0.477062781548493
40
0.484984404368866
40
0.492906027189239
40
0.500827650009612
40
0.508749272829985
40
0.516670895650358
40
0.524592518470731
40
0.532514141291105
40
0.540435764111478
40
0.548357386931851
40
0.556279009752224
40
0.57212225539297
40
0.580043878213343
40
0.587965501033716
40
0.59588712385409
40
0.599847935264276
40
0.603808746674463
40
0.611730369494836
40
0.619651992315209
40
0.627573615135582
40
0.635495237955955
40
0.643416860776329
40
0.651338483596702
40
0.667181729237448
40
0.683024974878194
40
0.690946597698568
40
0.698868220518941
40
0.714711466159687
40
0.72263308898006
40
0.730554711800433
40
0.738476334620806
40
0.74639795744118
40
0.754319580261553
40
0.762241203081926
40
0.770162825902299
40
0.778084448722672
40
0.793927694363418
40
0.801849317183792
40
0.809770940004165
40
0.817692562824538
40
0.825614185644911
40
0.833535808465284
40
0.841457431285657
40
0.857300676926404
40
0.865222299746777
40
0.87314392256715
40
0.881065545387523
40
0.888987168207896
40
0.904830413848643
40
0.912752036669016
40
0.920673659489389
40
0.928595282309762
40
0.936516905130135
40
0.944438527950508
40
0.952360150770881
40
0.960281773591255
40
0.968203396411628
40
0.976125019232001
40
0.984046642052374
40
0.991968264872747
40
0.99988988769312
40
1
40
1
40
1
40
1
41
1
10
-1.49503997793931
20
-2.59465115086957
30
0
41
1
10
-1.49503997793931
20
-2.606473243442
30
0
41
1
10
-1.49503997793931
20
-2.67130382016646
30
0
41
1
10
-1.49503997793931
20
-2.78881794693001
30
0
41
1
10
-1.49503997793931
20
-2.94652921585708
30
0
41
1
10
-1.49503997793931
20
-3.10333581737226
30
0
41
1
10
-1.49503997793931
20
-3.25922160409144
30
0
41
1
10
-1.49503997793931
20
-3.4141725129254
30
0
41
1
10
-1.49503997793931
20
-3.56817684914566
30
0
41
1
10
-1.49503997793931
20
-3.72122348266291
30
0
41
1
10
-1.49503997793931
20
-3.87330241838259
30
0
41
1
10
-1.49503997793931
20
-4.02440435063471
30
0
41
1
10
-1.49503997793931
20
-4.17452257114442
30
0
41
1
10
-1.49503997793931
20
-4.32365075555242
30
0
41
1
10
-1.49503997793931
20
-4.47178250674139
30
0
41
1
10
-1.49503997793931
20
-4.61891187892093
30
0
41
1
10
-1.49503997793931
20
-4.7650335666859
30
0
41
1
10
-1.49503997793931
20
-4.91014320448997
30
0
41
1
10
-1.49503997793931
20
-5.05423700692032
30
0
41
1
10
-1.49503997793931
20
-5.19731095699922
30
0
41
1
10
-1.49503997793931
20
-5.33936160781602
30
0
41
1
10
-1.49503997793931
20
-5.48038543010182
30
0
41
1
10
-1.49503997793931
20
-5.66717892451575
30
0
41
1
10
-1.49503997793931
20
-5.89779786635279
30
0
41
1
10
-1.49503997793931
20
-6.17053537924178
30
0
41
1
10
-1.49503997793931
20
-6.43910150489376
30
0
41
1
10
-1.49503997793931
20
-6.65929861735816
30
0
41
1
10
-1.49503997793931
20
-6.83355374310952
30
0
41
1
10
-1.49503997793931
20
-6.96311018885424
30
0
41
1
10
-1.49503997793931
20
-7.09160988853208
30
0
41
1
10
-1.49503997793931
20
-7.26163684175143
30
0
41
1
10
-1.49503997793931
20
-7.47128768043942
30
0
41
1
10
-1.49503997793931
20
-7.67738590051292
30
0
41
1
10
-1.49503997793931
20
-7.84029855153605
30
0
41
1
10
-1.49503997793931
20
-7.96134018717205
30
0
41
1
10
-1.49503997793931
20
-8.08130644558901
30
0
41
1
10
-1.49503997793931
20
-8.2001957134178
30
0
41
1
10
-1.49503997793931
20
-8.31800484031689
30
0
41
1
10
-1.49503997793931
20
-8.47372856948019
30
0
41
1
10
-1.49503997793931
20
-8.62702161678089
30
0
41
1
10
-1.49503997793931
20
-8.7783873974316
30
0
41
1
10
-1.49503997793931
20
-8.92829538452324
30
0
41
1
10
-1.49503997793931
20
-9.11275364912453
30
0
41
1
10
-1.49503997793931
20
-9.2935360539519
30
0
41
1
10
-1.49503997793931
20
-9.43608247629777
30
0
41
1
10
-1.49503997793931
20
-9.57714512355727
30
0
41
1
10
-1.49503997793931
20
-9.71574945872365
30
0
41
1
10
-1.49503997793931
20
-9.835227886979
30
0
41
1
10
-1.49503997793931
20
-9.90295237623948
30
0
41
1
10
-1.49503997793931
20
-9.97030028641953
30
0
41
1
10
-1.49503997793931
20
-10.0536983203575
30
0
41
1
10
-1.49503997793931
20
-10.1857467801784
30
0
41
1
10
-1.49503997793931
20
-10.3153089526253
30
0
41
1
10
-1.49503997793931
20
-10.4427777956644
30
0
41
1
10
-1.49503997793931
20
-10.537175897834
30
0
41
1
10
-1.49503997793931
20
-10.630416702033
30
0
41
1
10
-1.49503997793931
20
-10.7224950525573
30
0
41
1
10
-1.49503997793931
20
-10.8134058114344
30
0
41
1
10
-1.49503997793931
20
-10.9031442186804
30
0
41
1
10
-1.49503997793931
20
-10.9917054227684
30
0
41
1
10
-1.49503997793931
20
-11.0790834618892
30
0
41
1
10
-1.49503997793931
20
-11.165273297363
30
0
41
1
10
-1.49503997793931
20
-11.2786601205037
30
0
41
1
10
-1.49503997793931
20
-11.3894729046301
30
0
41
1
10
-1.49503997793931
20
-11.4980349156059
30
0
41
1
10
-1.49503997793931
20
-11.5781957427673
30
0
41
1
10
-1.49503997793931
20
-11.6439487843731
30
0
41
1
10
-1.49503997793931
20
-11.6959849306732
30
0
41
1
10
-1.49503997793931
20
-11.747609354201
30
0
41
1
10
-1.49503997793931
20
-11.8113057197552
30
0
41
1
10
-1.49503997793931
20
-11.886528664654
30
0
41
1
10
-1.49503997793931
20
-11.960500101414
30
0
41
1
10
-1.49503997793931
20
-12.0332119519516
30
0
41
1
10
-1.49503997793931
20
-12.1046570427268
30
0
41
1
10
-1.49503997793931
20
-12.1982669205398
30
0
41
1
10
-1.49503997793931
20
-12.3119621581916
30
0
41
1
10
-1.49503997793931
20
-12.4213295969168
30
0
41
1
10
-1.49503997793931
20
-12.5062717787185
30
0
41
1
10
-1.49503997793931
20
-12.5894449263383
30
0
41
1
10
-1.49503997793931
20
-12.6698142967672
30
0
41
1
10
-1.49503997793931
20
-12.7476032540011
30
0
41
1
10
-1.49503997793931
20
-12.8045464232669
30
0
41
1
10
-1.49503997793931
20
-12.8601132308426
30
0
41
1
10
-1.49503997793931
20
-12.9142926213842
30
0
41
1
10
-1.49503997793931
20
-12.9670724454163
30
0
41
1
10
-1.49503997793931
20
-13.0184419731185
30
0
41
1
10
-1.49503997793931
20
-13.0683888234861
30
0
41
1
10
-1.49503997793931
20
-13.133106637017
30
0
41
1
10
-1.49503997793931
20
-13.1948224412614
30
0
41
1
10
-1.49503997793931
20
-13.2536925631392
30
0
41
1
10
-1.49503997793931
20
-13.296330722945
30
0
41
1
10
-1.49503997793931
20
-13.3374647797226
30
0
41
1
10
-1.49503997793931
20
-13.3770799229021
30
0
41
1
10
-1.49503997793931
20
-13.4151607649325
30
0
41
1
10
-1.49503997793931
20
-13.4638962511352
30
0
41
1
10
-1.49503997793931
20
-13.5094130161235
30
0
41
1
10
-1.49503997793931
20
-13.551806168738
30
0
41
1
10
-1.49503997793931
20
-13.5819601013665
30
0
41
1
10
-1.49503997793931
20
-13.6104729213425
30
0
41
1
10
-1.49503997793931
20
-13.646298505966
30
0
41
1
10
-1.49503997793931
20
-13.6786965897716
30
0
41
1
10
-1.49503997793931
20
-13.7077055842542
30
0
41
1
10
-1.49503997793931
20
-13.7276983600542
30
0
41
1
10
-1.49503997793931
20
-13.7459180935577
30
0
41
1
10
-1.49503997793931
20
-13.7623389110759
30
0
41
1
10
-1.49503997793931
20
-13.7769347594832
30
0
41
1
10
-1.49503997793931
20
-13.7896781016746
30
0
41
1
10
-1.49503997793931
20
-13.800539960484
30
0
41
1
10
-1.49503997793931
20
-13.8094907530557
30
0
41
1
10
-1.49503997793931
20
-13.8164987457743
30
0
41
1
10
-1.49503997793931
20
-13.821531562835
30
0
41
1
10
-1.49503997793931
20
-13.8245545856003
30
0
41
1
10
-1.49503997793931
20
-13.8252109203807
30
0
41
1
10
-1.49503997793934
20
-13.825184730161
30
0
41
1
10
-1.49503997793934
20
-13.825183730061
30
0
0
SPLINE
5
19F
100
AcDbEntity
8
SK1
62
256
6
ByLayer
370
18
48
1
60
0
100
AcDbSpline
70
4
71
3
72
117
73
113
40
0
40
0
40
0
40
0
40
0.0001127228694565
40
0.0080343250237067
40
0.015955927177957
40
0.0238775293322072
40
0.0317991314864574
40
0.0397207336407076
40
0.0476423357949578
40
0.0555639379492081
40
0.0634855401034582
40
0.0793287444119587
40
0.0951719487204591
40
0.11101515302896
40
0.11893675518321
40
0.12685835733746
40
0.13477995949171
40
0.14270156164596
40
0.158544765954461
40
0.166466368108711
40
0.174387970262961
40
0.182309572417211
40
0.190231174571462
40
0.198152776725712
40
0.206074378879962
40
0.221917583188463
40
0.229839185342713
40
0.237760787496963
40
0.245682389651213
40
0.253603991805464
40
0.261525593959714
40
0.269447196113964
40
0.277368798268214
40
0.285290400422464
40
0.301133604730965
40
0.309055206885215
40
0.316976809039465
40
0.332820013347966
40
0.348663217656466
40
0.356584819810716
40
0.364506421964967
40
0.372428024119217
40
0.380349626273467
40
0.388271228427717
40
0.396192830581968
40
0.400153631659093
40
0.404114432736218
40
0.412036034890468
40
0.419957637044718
40
0.427879239198968
40
0.443722443507469
40
0.451644045661719
40
0.459565647815969
40
0.467487249970219
40
0.47540885212447
40
0.48333045427872
40
0.49125205643297
40
0.49917365858722
40
0.50709526074147
40
0.515016862895721
40
0.522938465049971
40
0.538781669358471
40
0.546703271512722
40
0.554624873666972
40
0.558585674744097
40
0.562546475821222
40
0.570468077975472
40
0.586311282283973
40
0.594232884438223
40
0.602154486592473
40
0.617997690900974
40
0.633840895209474
40
0.641762497363724
40
0.649684099517974
40
0.665527303826475
40
0.673448905980725
40
0.681370508134975
40
0.689292110289226
40
0.697213712443476
40
0.705135314597726
40
0.713056916751976
40
0.728900121060477
40
0.744743325368977
40
0.752664927523227
40
0.760586529677477
40
0.768508131831728
40
0.776429733985978
40
0.792272938294478
40
0.808116142602979
40
0.823959346911479
40
0.83980255121998
40
0.84772415337423
40
0.85564575552848
40
0.86356735768273
40
0.87148895983698
40
0.879410561991231
40
0.887332164145481
40
0.895253766299731
40
0.903175368453981
40
0.911096970608232
40
0.919018572762482
40
0.926940174916732
40
0.934861777070982
40
0.942783379225232
40
0.950704981379483
40
0.958626583533733
40
0.966548185687983
40
0.974469787842233
40
0.982391389996484
40
0.990312992150734
40
0.998234594304984
40
1
40
1
40
1
40
1
41
1
10
-1.49503997793931
20
13.8251837282289
30
0
41
1
10
-1.49503997793931
20
13.8251847283289
30
0
41
1
10
-1.49503997793931
20
13.8252108752237
30
0
41
1
10
-1.49503997793928
20
13.8245539604948
30
0
41
1
10
-1.49503997793928
20
13.8215305966481
30
0
41
1
10
-1.49503997793928
20
13.8164982902869
30
0
41
1
10
-1.49503997793928
20
13.8094909095343
30
0
41
1
10
-1.49503997793928
20
13.8005402090708
30
0
41
1
10
-1.49503997793928
20
13.7896781830989
30
0
41
1
10
-1.49503997793928
20
13.7769347476405
30
0
41
1
10
-1.49503997793928
20
13.7574597557179
30
0
41
1
10
-1.49503997793928
20
13.7285859139399
30
0
41
1
10
-1.49503997793928
20
13.6868269300449
30
0
41
1
10
-1.49503997793928
20
13.6462985077496
30
0
41
1
10
-1.49503997793928
20
13.6104729008558
30
0
41
1
10
-1.49503997793928
20
13.5819600687286
30
0
41
1
10
-1.49503997793928
20
13.5518061457236
30
0
41
1
10
-1.49503997793928
20
13.509413016618
30
0
41
1
10
-1.49503997793928
20
13.4638962341071
30
0
41
1
10
-1.49503997793928
20
13.4151607370273
30
0
41
1
10
-1.49503997793928
20
13.3770798968994
30
0
41
1
10
-1.49503997793928
20
13.3374647662751
30
0
41
1
10
-1.49503997793928
20
13.2963307178616
30
0
41
1
10
-1.49503997793928
20
13.2536925499096
30
0
41
1
10
-1.49503997793928
20
13.1948224098965
30
0
41
1
10
-1.49503997793928
20
13.1331066142243
30
0
41
1
10
-1.49503997793928
20
13.0683888145289
30
0
41
1
10
-1.49503997793928
20
13.0184419638584
30
0
41
1
10
-1.49503997793928
20
12.9670724273821
30
0
41
1
10
-1.49503997793928
20
12.9142925944038
30
0
41
1
10
-1.49503997793928
20
12.860113205584
30
0
41
1
10
-1.49503997793928
20
12.8045464062654
30
0
41
1
10
-1.49503997793928
20
12.74760324418
30
0
41
1
10
-1.49503997793928
20
12.6698142834541
30
0
41
1
10
-1.49503997793928
20
12.5894449005116
30
0
41
1
10
-1.49503997793928
20
12.50627175547
30
0
41
1
10
-1.49503997793928
20
12.4213295833849
30
0
41
1
10
-1.49503997793928
20
12.3119621458456
30
0
41
1
10
-1.49503997793928
20
12.1982668977617
30
0
41
1
10
-1.49503997793928
20
12.1046570208051
30
0
41
1
10
-1.49503997793928
20
12.0332119345842
30
0
41
1
10
-1.49503997793928
20
11.9605000871413
30
0
41
1
10
-1.49503997793928
20
11.8865286504803
30
0
41
1
10
-1.49503997793928
20
11.8113057028001
30
0
41
1
10
-1.49503997793928
20
11.7476093345099
30
0
41
1
10
-1.49503997793928
20
11.6959849101866
30
0
41
1
10
-1.49503997793928
20
11.643948764099
30
0
41
1
10
-1.49503997793928
20
11.5781957241672
30
0
41
1
10
-1.49503997793928
20
11.4980348993556
30
0
41
1
10
-1.49503997793928
20
11.3894728900619
30
0
41
1
10
-1.49503997793928
20
11.278660103453
30
0
41
1
10
-1.49503997793928
20
11.1652732784127
30
0
41
1
10
-1.49503997793928
20
11.0790834423827
30
0
41
1
10
-1.49503997793928
20
10.9917054044732
30
0
41
1
10
-1.49503997793928
20
10.9031442025602
30
0
41
1
10
-1.49503997793928
20
10.8134057967923
30
0
41
1
10
-1.49503997793928
20
10.7224950378189
30
0
41
1
10
-1.49503997793928
20
10.6304166849825
30
0
41
1
10
-1.49503997793928
20
10.5371758780398
30
0
41
1
10
-1.49503997793928
20
10.4427777751693
30
0
41
1
10
-1.49503997793928
20
10.3153089364435
30
0
41
1
10
-1.49503997793928
20
10.1857467684219
30
0
41
1
10
-1.49503997793928
20
10.0536983054632
30
0
41
1
10
-1.49503997793928
20
9.97030026745779
30
0
41
1
10
-1.49503997793928
20
9.90295235506755
30
0
41
1
10
-1.49503997793928
20
9.83522786489038
30
0
41
1
10
-1.49503997793928
20
9.71574944153573
30
0
41
1
10
-1.49503997793928
20
9.57714511427093
30
0
41
1
10
-1.49503997793928
20
9.43608246295526
30
0
41
1
10
-1.49503997793928
20
9.29353602958125
30
0
41
1
10
-1.49503997793928
20
9.11275363063515
30
0
41
1
10
-1.49503997793928
20
8.92829537712967
30
0
41
1
10
-1.49503997793928
20
8.77838738443313
30
0
41
1
10
-1.49503997793928
20
8.62702158956
30
0
41
1
10
-1.49503997793928
20
8.47372854841302
30
0
41
1
10
-1.49503997793928
20
8.31800483202281
30
0
41
1
10
-1.49503997793928
20
8.20019570647173
30
0
41
1
10
-1.49503997793928
20
8.08130642958628
30
0
41
1
10
-1.49503997793928
20
7.96134016006346
30
0
41
1
10
-1.49503997793928
20
7.84029852533041
30
0
41
1
10
-1.49503997793928
20
7.67738589461936
30
0
41
1
10
-1.49503997793928
20
7.47128766686797
30
0
41
1
10
-1.49503997793928
20
7.261636811758
30
0
41
1
10
-1.49503997793928
20
7.09160986883526
30
0
41
1
10
-1.49503997793928
20
6.96311018452545
30
0
41
1
10
-1.49503997793928
20
6.83355373772449
30
0
41
1
10
-1.49503997793928
20
6.6592985841524
30
0
41
1
10
-1.49503997793928
20
6.43910149333703
30
0
41
1
10
-1.49503997793928
20
6.17053536578155
30
0
41
1
10
-1.49503997793928
20
5.89779783511918
30
0
41
1
10
-1.49503997793928
20
5.66717892097088
30
0
41
1
10
-1.49503997793928
20
5.48038541909952
30
0
41
1
10
-1.49503997793928
20
5.33936157753735
30
0
41
1
10
-1.49503997793928
20
5.19731095553271
30
0
41
1
10
-1.49503997793928
20
5.05423706888553
30
0
41
1
10
-1.49503997793928
20
4.91014315579861
30
0
41
1
10
-1.49503997793928
20
4.7650332428635
30
0
41
1
10
-1.49503997793928
20
4.61891156596767
30
0
41
1
10
-1.49503997793928
20
4.47178260268984
30
0
41
1
10
-1.49503997793928
20
4.32365113214263
30
0
41
1
10
-1.49503997793928
20
4.17452288947305
30
0
41
1
10
-1.49503997793928
20
4.02440432752809
30
0
41
1
10
-1.49503997793928
20
3.87330192992579
30
0
41
1
10
-1.49503997793928
20
3.7212231412766
30
0
41
1
10
-1.49503997793928
20
3.56817690176541
30
0
41
1
10
-1.49503997793928
20
3.41417271020586
30
0
41
1
10
-1.49503997793928
20
3.25922165821993
30
0
41
1
10
-1.49503997793928
20
3.1033357799555
30
0
41
1
10
-1.49503997793928
20
2.94652918151195
30
0
41
1
10
-1.49503997793928
20
2.78881794429316
30
0
41
1
10
-1.49503997793928
20
2.67130381064959
30
0
41
1
10
-1.49503997793928
20
2.60647323876154
30
0
41
1
10
-1.49503997793931
20
2.59465115838313
30
0
0
SPLINE
5
1A0
100
AcDbEntity
8
SK1
62
256
6
ByLayer
370
18
48
1
60
0
100
AcDbSpline
70
4
71
3
72
287
73
283
40
0
40
0
40
0
40
0
40
0.0005770530904015
40
0.0040695183143872
40
0.007561983538373
40
0.0110544487623587
40
0.0145469139863444
40
0.0180393792103301
40
0.0215318444343159
40
0.0250243096583016
40
0.0285167748822873
40
0.032009240106273
40
0.0389941705542445
40
0.0459791010022159
40
0.0529640314501874
40
0.0564564966741731
40
0.0599489618981588
40
0.0634414271221446
40
0.0669338923461303
40
0.0739188227941017
40
0.0774112880180875
40
0.0809037532420731
40
0.0843962184660589
40
0.0878886836900446
40
0.0913811489140304
40
0.0948736141380161
40
0.101858544585988
40
0.105351009809973
40
0.108843475033959
40
0.112335940257945
40
0.11582840548193
40
0.119320870705916
40
0.122813335929902
40
0.126305801153888
40
0.129798266377873
40
0.136783196825845
40
0.14027566204983
40
0.143768127273816
40
0.150753057721788
40
0.157737988169759
40
0.161230453393745
40
0.164722918617731
40
0.168215383841716
40
0.171707849065702
40
0.175200314289688
40
0.178692779513673
40
0.180439012125666
40
0.182185244737659
40
0.185677709961645
40
0.189170175185631
40
0.192662640409616
40
0.199647570857588
40
0.203140036081573
40
0.206632501305559
40
0.210124966529545
40
0.213617431753531
40
0.217109896977516
40
0.220602362201502
40
0.224094827425488
40
0.227587292649473
40
0.231079757873459
40
0.234572223097445
40
0.241557153545416
40
0.245049618769402
40
0.248542083993388
40
0.250288316605381
40
0.252034549217374
40
0.255527014441359
40
0.262511944889331
40
0.266004410113316
40
0.269496875337302
40
0.276481805785274
40
0.283466736233245
40
0.286959201457231
40
0.290451666681217
40
0.297436597129188
40
0.300929062353174
40
0.30442152757716
40
0.307913992801145
40
0.311406458025131
40
0.314898923249117
40
0.318391388473102
40
0.325376318921074
40
0.332361249369045
40
0.335853714593031
40
0.339346179817017
40
0.342838645041002
40
0.346331110264988
40
0.35331604071296
40
0.360300971160931
40
0.367285901608903
40
0.374270832056874
40
0.37776329728086
40
0.381255762504845
40
0.384748227728831
40
0.388240692952817
40
0.391733158176802
40
0.395225623400788
40
0.398718088624774
40
0.40221055384876
40
0.405703019072745
40
0.409195484296731
40
0.412687949520717
40
0.416180414744703
40
0.419672879968688
40
0.423165345192674
40
0.42665781041666
40
0.430150275640646
40
0.433642740864631
40
0.437135206088617
40
0.440627671312603
40
0.444120136536588
40
0.447612601760574
40
0.449358834372567
40
0.45110506698456
40
0.454597532208545
40
0.456343764820538
40
0.458089997432531
40
0.459836230044524
40
0.461582462656517
40
0.46332869526851
40
0.465074927880503
40
0.466821160492496
40
0.468567393104489
40
0.472059858328474
40
0.473806090940467
40
0.47555232355246
40
0.477298556164453
40
0.479044788776446
40
0.480791021388438
40
0.482537254000431
40
0.484283486612424
40
0.486029719224417
40
0.48777595183641
40
0.489522184448403
40
0.491268417060396
40
0.493014649672389
40
0.494760882284381
40
0.496507114896374
40
0.498253347508367
40
0.49999958012036
40
0.501745812732353
40
0.503492045344346
40
0.505238277956339
40
0.506984510568331
40
0.508730743180324
40
0.510476975792317
40
0.51222320840431
40
0.513969441016303
40
0.515715673628296
40
0.517461906240289
40
0.519208138852281
40
0.520954371464274
40
0.522700604076267
40
0.52444683668826
40
0.526193069300253
40
0.527939301912246
40
0.531431767136231
40
0.533177999748224
40
0.534924232360217
40
0.53667046497221
40
0.538416697584203
40
0.540162930196196
40
0.541909162808189
40
0.543655395420181
40
0.545401628032175
40
0.54889409325616
40
0.550640325868153
40
0.552386558480146
40
0.555879023704132
40
0.559371488928117
40
0.562863954152103
40
0.566356419376089
40
0.569848884600074
40
0.57334134982406
40
0.576833815048046
40
0.580326280272032
40
0.583818745496017
40
0.587311210720003
40
0.590803675943989
40
0.594296141167974
40
0.59778860639196
40
0.601281071615946
40
0.604773536839932
40
0.608266002063917
40
0.611758467287903
40
0.615250932511889
40
0.618743397735875
40
0.62223586295986
40
0.625728328183846
40
0.632713258631817
40
0.639698189079789
40
0.64668311952776
40
0.653668049975732
40
0.657160515199718
40
0.660652980423703
40
0.664145445647689
40
0.667637910871675
40
0.674622841319646
40
0.681607771767618
40
0.685100236991603
40
0.688592702215589
40
0.692085167439575
40
0.695577632663561
40
0.699070097887546
40
0.702562563111532
40
0.709547493559503
40
0.713039958783489
40
0.716532424007475
40
0.723517354455446
40
0.730502284903418
40
0.733994750127404
40
0.737487215351389
40
0.744472145799361
40
0.747964611023346
40
0.749710843635339
40
0.751457076247332
40
0.754949541471318
40
0.758442006695304
40
0.765426937143275
40
0.768919402367261
40
0.772411867591247
40
0.775904332815232
40
0.779396798039218
40
0.782889263263204
40
0.786381728487189
40
0.789874193711175
40
0.793366658935161
40
0.796859124159147
40
0.800351589383132
40
0.807336519831104
40
0.81082898505509
40
0.814321450279075
40
0.817813915503061
40
0.819560148115054
40
0.821306380727047
40
0.824798845951032
40
0.828291311175018
40
0.831783776399004
40
0.835276241622989
40
0.838768706846975
40
0.842261172070961
40
0.849246102518932
40
0.856231032966904
40
0.859723498190889
40
0.863215963414876
40
0.870200893862847
40
0.873693359086833
40
0.877185824310818
40
0.880678289534804
40
0.88417075475879
40
0.887663219982775
40
0.891155685206761
40
0.894648150430747
40
0.898140615654732
40
0.905125546102704
40
0.90861801132669
40
0.912110476550675
40
0.915602941774661
40
0.919095406998647
40
0.922587872222633
40
0.926080337446619
40
0.93306526789459
40
0.936557733118576
40
0.940050198342561
40
0.943542663566547
40
0.947035128790533
40
0.954020059238504
40
0.95751252446249
40
0.961004989686476
40
0.964497454910461
40
0.967989920134447
40
0.971482385358433
40
0.974974850582418
40
0.978467315806404
40
0.98195978103039
40
0.985452246254376
40
0.988944711478361
40
0.992437176702347
40
0.995929641926333
40
0.999422107150319
40
1
40
1
40
1
40
1
41
1
10
-24
20
12.6301466099761
30
0
41
1
10
-24
20
12.6302729708773
30
0
41
1
10
-24
20
12.6311019482813
30
0
41
1
10
-24
20
12.6318299492432
30
0
41
1
10
-24
20
12.6309352666138
30
0
41
1
10
-24
20
12.6281658201647
30
0
41
1
10
-24
20
12.623548726994
30
0
41
1
10
-24
20
12.6171099043118
30
0
41
1
10
-24
20
12.6088736083307
30
0
41
1
10
-24
20
12.5988647342338
30
0
41
1
10
-24
20
12.5871069661155
30
0
41
1
10
-24
20
12.569020437469
30
0
41
1
10
-24
20
12.5424060911485
30
0
41
1
10
-24
20
12.5036823998811
30
0
41
1
10
-24
20
12.466179119183
30
0
41
1
10
-24
20
12.4326960489613
30
0
41
1
10
-24
20
12.4061495447384
30
0
41
1
10
-24
20
12.3780532328159
30
0
41
1
10
-24
20
12.3383402816863
30
0
41
1
10
-24
20
12.2962370819873
30
0
41
1
10
-24
20
12.2505027270978
30
0
41
1
10
-24
20
12.2149010201899
30
0
41
1
10
-24
20
12.1778433481664
30
0
41
1
10
-24
20
12.1393440238031
30
0
41
1
10
-24
20
12.0994154546281
30
0
41
1
10
-24
20
12.0440223921018
30
0
41
1
10
-24
20
11.9866456328948
30
0
41
1
10
-24
20
11.9256779328098
30
0
41
1
10
-24
20
11.8787993022056
30
0
41
1
10
-24
20
11.8305656793587
30
0
41
1
10
-24
20
11.78099039585
30
0
41
1
10
-24
20
11.7300825884547
30
0
41
1
10
-24
20
11.6778529900837
30
0
41
1
10
-24
20
11.6243139686469
30
0
41
1
10
-24
20
11.5508590476175
30
0
41
1
10
-24
20
11.4758394707542
30
0
41
1
10
-24
20
11.3972466128896
30
0
41
1
10
-24
20
11.3169609533628
30
0
41
1
10
-24
20
11.2142799019792
30
0
41
1
10
-24
20
11.1074990885262
30
0
41
1
10
-24
20
11.0189464603389
30
0
41
1
10
-24
20
10.9516093773873
30
0
41
1
10
-24
20
10.8830697782116
30
0
41
1
10
-24
20
10.8133337656712
30
0
41
1
10
-24
20
10.7424101789121
30
0
41
1
10
-24
20
10.6825334430363
30
0
41
1
10
-24
20
10.6336671760819
30
0
41
1
10
-24
20
10.5844084477176
30
0
41
1
10
-24
20
10.5225869468266
30
0
41
1
10
-24
20
10.4469857296791
30
0
41
1
10
-24
20
10.3442039867663
30
0
41
1
10
-24
20
10.2404782892815
30
0
41
1
10
-24
20
10.133123847137
30
0
41
1
10
-24
20
10.0518274139735
30
0
41
1
10
-24
20
9.96941226524035
30
0
41
1
10
-24
20
9.8858827890852
30
0
41
1
10
-24
20
9.80124634105394
30
0
41
1
10
-24
20
9.71550990056983
30
0
41
1
10
-24
20
9.62867742465991
30
0
41
1
10
-24
20
9.54075474090101
30
0
41
1
10
-24
20
9.4517501287076
30
0
41
1
10
-24
20
9.33111730296773
30
0
41
1
10
-24
20
9.20992961158598
30
0
41
1
10
-24
20
9.08500600225796
30
0
41
1
10
-24
20
9.00666454438806
30
0
41
1
10
-24
20
8.94296708063843
30
0
41
1
10
-24
20
8.87892107357061
30
0
41
1
10
-24
20
8.76613371827506
30
0
41
1
10
-24
20
8.63663898523424
30
0
41
1
10
-24
20
8.50332881313912
30
0
41
1
10
-24
20
8.36865251940401
30
0
41
1
10
-24
20
8.19913342470036
30
0
41
1
10
-24
20
8.02625870426021
30
0
41
1
10
-24
20
7.88481232676438
30
0
41
1
10
-24
20
7.74204568631339
30
0
41
1
10
-24
20
7.59930458489882
30
0
41
1
10
-24
20
7.45257386795717
30
0
41
1
10
-24
20
7.34207855908448
30
0
41
1
10
-24
20
7.23061782890775
30
0
41
1
10
-24
20
7.11820191301106
30
0
41
1
10
-24
20
7.00483374343872
30
0
41
1
10
-24
20
6.8516785758469
30
0
41
1
10
-24
20
6.65959441745028
30
0
41
1
10
-24
20
6.46441027855923
30
0
41
1
10
-24
20
6.30499529459036
30
0
41
1
10
-24
20
6.18514753468799
30
0
41
1
10
-24
20
6.06440158167572
30
0
41
1
10
-24
20
5.90137597131746
30
0
41
1
10
-24
20
5.69736367955667
30
0
41
1
10
-24
20
5.44799894794272
30
0
41
1
10
-24
20
5.19525670130326
30
0
41
1
10
-24
20
4.98285125019774
30
0
41
1
10
-24
20
4.80950544532163
30
0
41
1
10
-24
20
4.67950096380329
30
0
41
1
10
-24
20
4.54872537799758
30
0
41
1
10
-24
20
4.41719445888799
30
0
41
1
10
-24
20
4.28492388892991
30
0
41
1
10
-24
20
4.15193103870837
30
0
41
1
10
-24
20
4.01823650200188
30
0
41
1
10
-24
20
3.88386015063671
30
0
41
1
10
-24
20
3.74882265025218
30
0
41
1
10
-24
20
3.61314816606938
30
0
41
1
10
-24
20
3.47686551917991
30
0
41
1
10
-24
20
3.34000139230267
30
0
41
1
10
-24
20
3.20258393847712
30
0
41
1
10
-24
20
3.06464837689458
30
0
41
1
10
-24
20
2.9262304523017
30
0
41
1
10
-24
20
2.78737006373561
30
0
41
1
10
-24
20
2.64810891556724
30
0
41
1
10
-24
20
2.50849315364215
30
0
41
1
10
-24
20
2.36857603859875
30
0
41
1
10
-24
20
2.22840727338092
30
0
41
1
10
-24
20
2.11231267734073
30
0
41
1
10
-24
20
2.01771125590744
30
0
41
1
10
-24
20
1.92310511773127
30
0
41
1
10
-24
20
1.8313714962141
30
0
41
1
10
-24
20
1.73663368976398
30
0
41
1
10
-24
20
1.66636839269287
30
0
41
1
10
-24
20
1.59612143913762
30
0
41
1
10
-24
20
1.52590617425699
30
0
41
1
10
-24
20
1.45572440081648
30
0
41
1
10
-24
20
1.38559146347791
30
0
41
1
10
-24
20
1.31551245865842
30
0
41
1
10
-24
20
1.22103102890804
30
0
41
1
10
-24
20
1.13019491172784
30
0
41
1
10
-24
20
1.03590357373665
30
0
41
1
10
-24
20
0.966211278320685
30
0
41
1
10
-24
20
0.896616942008535
30
0
41
1
10
-24
20
0.827119549474418
30
0
41
1
10
-24
20
0.757724503129253
30
0
41
1
10
-24
20
0.688430802184314
30
0
41
1
10
-24
20
0.619238394305086
30
0
41
1
10
-24
20
0.550143822342449
30
0
41
1
10
-24
20
0.481142957404018
30
0
41
1
10
-24
20
0.412229055265982
30
0
41
1
10
-24
20
0.343394373554958
30
0
41
1
10
-24
20
0.274627961865065
30
0
41
1
10
-24
20
0.205919183520024
30
0
41
1
10
-24
20
0.137254128872428
30
0
41
1
10
-24
20
0.068619580615092
30
0
41
1
10
-24
20
1.20069785E-08
30
0
41
1
10
-24
20
-0.0686195837654395
30
0
41
1
10
-24
20
-0.1372541822264
30
0
41
1
10
-24
20
-0.205919229600312
30
0
41
1
10
-24
20
-0.274627932715674
30
0
41
1
10
-24
20
-0.343394334295567
30
0
41
1
10
-24
20
-0.412229116407673
30
0
41
1
10
-24
20
-0.48114304712405
30
0
41
1
10
-24
20
-0.55014378989776
30
0
41
1
10
-24
20
-0.619238310392774
30
0
41
1
10
-24
20
-0.688430856535206
30
0
41
1
10
-24
20
-0.757724640342815
30
0
41
1
10
-24
20
-0.827119544713668
30
0
41
1
10
-24
20
-0.896616816711344
30
0
41
1
10
-24
20
-0.966211277672699
30
0
41
1
10
-24
20
-1.03590373801057
30
0
41
1
10
-24
20
-1.13019491751669
30
0
41
1
10
-24
20
-1.22103090337816
30
0
41
1
10
-24
20
-1.31551253110209
30
0
41
1
10
-24
20
-1.38559165365194
30
0
41
1
10
-24
20
-1.45572444737027
30
0
41
1
10
-24
20
-1.52590604398472
30
0
41
1
10
-24
20
-1.59612132289769
30
0
41
1
10
-24
20
-1.66636846888792
30
0
41
1
10
-24
20
-1.73663389391052
30
0
41
1
10
-24
20
-1.83137150908334
30
0
41
1
10
-24
20
-1.923104963833
30
0
41
1
10
-24
20
-2.01771124909399
30
0
41
1
10
-24
20
-2.11231287096447
30
0
41
1
10
-24
20
-2.22840729138045
30
0
41
1
10
-24
20
-2.36857592379664
30
0
41
1
10
-24
20
-2.50849329023109
30
0
41
1
10
-24
20
-2.64810899336408
30
0
41
1
10
-24
20
-2.7873694745272
30
0
41
1
10
-24
20
-2.92622914514115
30
0
41
1
10
-24
20
-3.06464867495961
30
0
41
1
10
-24
20
-3.20258694679336
30
0
41
1
10
-24
20
-3.34000339886188
30
0
41
1
10
-24
20
-3.47686412773234
30
0
41
1
10
-24
20
-3.61314539193521
30
0
41
1
10
-24
20
-3.74882070125756
30
0
41
1
10
-24
20
-3.88386081960974
30
0
41
1
10
-24
20
-4.01823910176785
30
0
41
1
10
-24
20
-4.15193237523465
30
0
41
1
10
-24
20
-4.28492323331267
30
0
41
1
10
-24
20
-4.41719365917405
30
0
41
1
10
-24
20
-4.54872525063161
30
0
41
1
10
-24
20
-4.67950102029136
30
0
41
1
10
-24
20
-4.8095053694127
30
0
41
1
10
-24
20
-4.98285124277228
30
0
41
1
10
-24
20
-5.19525677656026
30
0
41
1
10
-24
20
-5.44799891971269
30
0
41
1
10
-24
20
-5.69736372546623
30
0
41
1
10
-24
20
-5.90137602298265
30
0
41
1
10
-24
20
-6.0644015068855
30
0
41
1
10
-24
20
-6.1851475156806
30
0
41
1
10
-24
20
-6.30499537148731
30
0
41
1
10
-24
20
-6.46441033734266
30
0
41
1
10
-24
20
-6.65959438580623
30
0
41
1
10
-24
20
-6.85167858307042
30
0
41
1
10
-24
20
-7.00483382763792
30
0
41
1
10
-24
20
-7.11820195418233
30
0
41
1
10
-24
20
-7.2306178054078
30
0
41
1
10
-24
20
-7.34207852113332
30
0
41
1
10
-24
20
-7.45257387547733
30
0
41
1
10
-24
20
-7.59930464836137
30
0
41
1
10
-24
20
-7.74204572237986
30
0
41
1
10
-24
20
-7.88481230085068
30
0
41
1
10
-24
20
-8.02625870014725
30
0
41
1
10
-24
20
-8.19913346952643
30
0
41
1
10
-24
20
-8.36865254580422
30
0
41
1
10
-24
20
-8.50332879773273
30
0
41
1
10
-24
20
-8.63663898786112
30
0
41
1
10
-24
20
-8.76613375581505
30
0
41
1
10
-24
20
-8.87892111197036
30
0
41
1
10
-24
20
-8.94296710462893
30
0
41
1
10
-24
20
-9.00666455327519
30
0
41
1
10
-24
20
-9.08500599911847
30
0
41
1
10
-24
20
-9.20992961783276
30
0
41
1
10
-24
20
-9.33111733072479
30
0
41
1
10
-24
20
-9.45175015939358
30
0
41
1
10
-24
20
-9.54075475929304
30
0
41
1
10
-24
20
-9.62867743247332
30
0
41
1
10
-24
20
-9.71550990736878
30
0
41
1
10
-24
20
-9.80124635456616
30
0
41
1
10
-24
20
-9.88588281033205
30
0
41
1
10
-24
20
-9.9694122909747
30
0
41
1
10
-24
20
-10.0518274374696
30
0
41
1
10
-24
20
-10.1331238647016
30
0
41
1
10
-24
20
-10.240478300249
30
0
41
1
10
-24
20
-10.3442039980406
30
0
41
1
10
-24
20
-10.4469857502475
30
0
41
1
10
-24
20
-10.5225869730086
30
0
41
1
10
-24
20
-10.5844084741421
30
0
41
1
10
-24
20
-10.6336671988976
30
0
41
1
10
-24
20
-10.6825334589273
30
0
41
1
10
-24
20
-10.7424101865055
30
0
41
1
10
-24
20
-10.8133337727233
30
0
41
1
10
-24
20
-10.8830697936353
30
0
41
1
10
-24
20
-10.951609404873
30
0
41
1
10
-24
20
-11.0189464931514
30
0
41
1
10
-24
20
-11.1074991058536
30
0
41
1
10
-24
20
-11.2142799044294
30
0
41
1
10
-24
20
-11.3169609751522
30
0
41
1
10
-24
20
-11.3972466509688
30
0
41
1
10
-24
20
-11.4758394909226
30
0
41
1
10
-24
20
-11.5508590446085
30
0
41
1
10
-24
20
-11.6243139791192
30
0
41
1
10
-24
20
-11.6778530233414
30
0
41
1
10
-24
20
-11.7300826287653
30
0
41
1
10
-24
20
-11.7809904199398
30
0
41
1
10
-24
20
-11.8305656793297
30
0
41
1
10
-24
20
-11.8787992978642
30
0
41
1
10
-24
20
-11.9256779481161
30
0
41
1
10
-24
20
-11.9866456736684
30
0
41
1
10
-24
20
-12.0440224201629
30
0
41
1
10
-24
20
-12.099415447517
30
0
41
1
10
-24
20
-12.1393440246738
30
0
41
1
10
-24
20
-12.1778433772408
30
0
41
1
10
-24
20
-12.2149010599454
30
0
41
1
10
-24
20
-12.250502752964
30
0
41
1
10
-24
20
-12.2962370828382
30
0
41
1
10
-24
20
-12.3383402824608
30
0
41
1
10
-24
20
-12.3780532736994
30
0
41
1
10
-24
20
-12.4061495785297
30
0
41
1
10
-24
20
-12.4326960530149
30
0
41
1
10
-24
20
-12.4661791203578
30
0
41
1
10
-24
20
-12.4959885477691
30
0
41
1
10
-24
20
-12.523037071398
30
0
41
1
10
-24
20
-12.5415673540695
30
0
41
1
10
-24
20
-12.55843663992
30
0
41
1
10
-24
20
-12.5736235086905
30
0
41
1
10
-24
20
-12.5871069547276
30
0
41
1
10
-24
20
-12.5988645879939
30
0
41
1
10
-24
20
-12.6088733436887
30
0
41
1
10
-24
20
-12.617109869821
30
0
41
1
10
-24
20
-12.6235493215145
30
0
41
1
10
-24
20
-12.6281667848456
30
0
41
1
10
-24
20
-12.630935840933
30
0
41
1
10
-24
20
-12.6318298800803
30
0
41
1
10
-24
20
-12.6311015700693
30
0
41
1
10
-24
20
-12.6302722753465
30
0
41
1
10
-24
20
-12.6301456981487
30
0
0
SPLINE
5
1A1
100
AcDbEntity
8
1
62
256
6
ByLayer
370
18
48
1
60
0
100
AcDbSpline
70
4
71
2
72
8
73
5
40
0
40
0
40
0
40
0.140776264329576
40
0.846030749743569
40
1
40
1
40
1
41
1.02613459695995
10
15.8175312796507
20
19.725465985399
30
0
41
1.02613459695995
10
15.8051421035345
20
19.577776500189
30
0
41
1.02613459695995
10
15.7620412289207
20
18.6437069958046
30
0
41
1.02613459695995
10
15.815320125524
20
18.1903304587131
30
0
41
1.02613459695995
10
15.8268810740902
20
18.1039243343037
30
0
0
SPLINE
5
1A2
100
AcDbEntity
8
1
62
256
6
ByLayer
370
18
48
1
60
0
100
AcDbSpline
70
4
71
2
72
8
73
5
40
0
40
0
40
0
40
0.515448371398291
40
0.773172557097437
40
1
40
1
40
1
41
1.02613459695995
10
27.417843041138
20
3.58343523107816
30
0
41
1.02613459695995
10
26.4856249565099
20
3.2987199009967
30
0
41
1.02613459695995
10
24.9994042489059
20
3.5884697244298
30
0
41
1.02613459695995
10
24.0739877735157
20
4.01408383776738
30
0
41
1.02613459695995
10
23.6683337876697
20
4.30223380068766
30
0
0
SPLINE
5
1A3
100
AcDbEntity
8
1
62
256
6
ByLayer
370
18
48
1
60
0
100
AcDbSpline
70
4
71
2
72
8
73
5
40
0
40
0
40
0
40
0.532494298525299
40
0.798741447787949
40
1
40
1
40
1
41
1.02613459695995
10
22.6212333309349
20
20.9195919340264
30
0
41
1.02613459695995
10
21.6897473256161
20
20.6322306847662
30
0
41
1.02613459695995
10
20.583998738152
20
19.5468583501847
30
0
41
1.02613459695995
10
20.0577744135704
20
18.7225374510919
30
0
41
1.02613459695995
10
19.8818314553733
20
18.323853013144
30
0
0
SPLINE
5
1A4
100
AcDbEntity
8
1
62
256
6
ByLayer
370
18
48
1
60
0
100
AcDbSpline
70
4
71
2
72
8
73
5
40
0
40
0
40
0
40
0.131472320704403
40
0.791478805432111
40
1
40
1
40
1
41
1
10
15.993139629687
20
19.7641693294297
30
0
41
1
10
15.9807867770047
20
19.6167687869765
30
0
41
1
10
15.9377007073833
20
18.6830201320423
30
0
41
1
10
15.9952487126053
20
18.1933156338747
30
0
41
1
10
16.0132821396948
20
18.0649319868712
30
0
0
SPLINE
5
1A5
100
AcDbEntity
8
1
62
256
6
ByLayer
370
18
48
1
60
0
100
AcDbSpline
70
4
71
3
72
8
73
4
40
0
40
0
40
0
40
0
40
1
40
1
40
1
40
1
41
1
10
22.3758461793639
20
25.4228317485828
30
0
41
1
10
22.3759425878807
20
25.4228317485828
30
0
41
1
10
22.3957165796874
20
25.4228317485836
30
0
41
1
10
22.4361101793691
20
25.4228317485852
30
0
0
SPLINE
5
1A6
100
AcDbEntity
8
1
62
256
6
ByLayer
370
18
48
1
60
0
100
AcDbSpline
70
4
71
2
72
8
73
5
40
0
40
0
40
0
40
0.136108347336101
40
0.817847254300663
40
1
40
1
40
1
41
1
10
15.9053657608039
20
19.7451790786869
30
0
41
1
10
15.8929732152073
20
19.5974628114575
30
0
41
1
10
15.849870968152
20
18.6633635639234
30
0
41
1
10
15.9052870748755
20
18.1918004466832
30
0
41
1
10
15.9199876377357
20
18.084637522738
30
0
0
SPLINE
5
1A7
100
AcDbEntity
8
1
62
256
6
ByLayer
370
18
48
1
60
0
100
AcDbSpline
70
4
71
3
72
8
73
4
40
0
40
0
40
0
40
0
40
1
40
1
40
1
40
1
41
1
10
40.2921348750642
20
10.2646721191168
30
0
41
1
10
40.2594297759616
20
10.3077281964348
30
0
41
1
10
40.2261283906462
20
10.3506693918615
30
0
41
1
10
40.1921859907073
20
10.3934653867745
30
0
0
SPLINE
5
1A8
100
AcDbEntity
8
1
62
256
6
ByLayer
370
18
48
1
60
0
100
AcDbSpline
70
4
71
3
72
12
73
8
40
0
40
0
40
0
40
0
40
0.39267809944992
40
0.39267809944992
40
0.791279335966121
40
0.791279335966121
40
1
40
1
40
1
40
1
41
1
10
31.0685372626522
20
13.0114320714618
30
0
41
1
10
31.0493287133331
20
13.0092756452264
30
0
41
1
10
31.0292525825931
20
13.0059275174871
30
0
41
1
10
30.9901514321928
20
12.9967998074409
30
0
41
1
10
30.9706791220378
20
12.9908550180777
30
0
41
1
10
30.9438664264863
20
12.9806548218488
30
0
41
1
10
30.9349922101926
20
12.9768882023131
30
0
41
1
10
30.9266383721769
20
12.9729886891201
30
0
0
SPLINE
5
1A9
100
AcDbEntity
8
1
62
256
6
ByLayer
370
18
48
1
60
0
100
AcDbSpline
70
4
71
3
72
12
73
8
40
0
40
0
40
0
40
0
40
0.392678099452536
40
0.392678099452536
40
0.791279335968742
40
0.791279335968742
40
1
40
1
40
1
40
1
41
1
10
30.3016662899983
20
15.2317953476165
30
0
41
1
10
30.3189462190766
20
15.2328382844367
30
0
41
1
10
30.3376880989461
20
15.2354160820767
30
0
41
1
10
30.3758543793707
20
15.2440040446907
30
0
41
1
10
30.3957552254591
20
15.2501962493905
30
0
41
1
10
30.4244360577144
20
15.2614750148484
30
0
41
1
10
30.4341758397137
20
15.2657413689771
30
0
41
1
10
30.4435651804736
20
15.2702387299582
30
0
0
SPLINE
5
1AA
100
AcDbEntity
8
1
62
256
6
ByLayer
370
18
48
1
60
0
100
AcDbSpline
70
4
71
3
72
14
73
10
40
0
40
0
40
0
40
0
40
0.164525200330962
40
0.164525200330962
40
0.540804984924851
40
0.540804984924851
40
0.917041398719698
40
0.917041398719698
40
1
40
1
40
1
40
1
41
1
10
29.9237117167659
20
13.241722076505
30
0
41
1
10
29.9188201982342
20
13.2478476299904
30
0
41
1
10
29.9136985428257
20
13.2540350877301
30
0
41
1
10
29.8962871555926
20
13.274277537312
30
0
41
1
10
29.882902408139
20
13.2885764074573
30
0
41
1
10
29.8555743873855
20
13.3152393538525
30
0
41
1
10
29.8413279288909
20
13.3279052686096
30
0
41
1
10
29.8245427267189
20
13.3415902568645
30
0
41
1
10
29.8215044068078
20
13.344017778123
30
0
41
1
10
29.8184863507706
20
13.3463822037993
30
0
0
SPLINE
5
1AB
100
AcDbEntity
8
1
62
256
6
ByLayer
370
18
48
1
60
0
100
AcDbSpline
70
4
71
3
72
14
73
10
40
0
40
0
40
0
40
0
40
0.0829586012802613
40
0.0829586012802613
40
0.459195015075165
40
0.459195015075165
40
0.835474799669129
40
0.835474799669129
40
1
40
1
40
1
40
1
41
1
10
31.8299273222123
20
13.8913237044966
30
0
41
1
10
31.828104097036
20
13.8876476743104
30
0
41
1
10
31.8263249791723
20
13.883915008229
30
0
41
1
10
31.816825366219
20
13.8631089128656
30
0
41
1
10
31.8100261875857
20
13.8447412940851
30
0
41
1
10
31.7998704185733
20
13.8079232037226
30
0
41
1
10
31.7964089766539
20
13.789060347933
30
0
41
1
10
31.7938923276743
20
13.7634189758305
30
0
41
1
10
31.79343346288
20
13.7557196382507
30
0
41
1
10
31.7932537977293
20
13.7482201948599
30
0
0
SPLINE
5
1AC
100
AcDbEntity
8
1
62
256
6
ByLayer
370
18
48
1
60
0
100
AcDbSpline
70
4
71
3
72
14
73
10
40
0
40
0
40
0
40
0
40
0.164525200330969
40
0.164525200330969
40
0.540804984924864
40
0.540804984924864
40
0.917041398719737
40
0.917041398719737
40
1
40
1
40
1
40
1
41
1
10
31.4464918358839
20
15.0015053425729
30
0
41
1
10
31.4505710566858
20
14.9949108087746
30
0
41
1
10
31.4549851770812
20
14.9883148555046
30
0
41
1
10
31.4705000301045
20
14.9669774413862
30
0
41
1
10
31.4832397731747
20
14.9523061777865
30
0
41
1
10
31.5109056575352
20
14.9258382970357
30
0
41
1
10
31.526134362513
20
14.9137394825501
30
0
41
1
10
31.5448661060778
20
14.9011783304923
30
0
41
1
10
31.5482883158619
20
14.8989724481553
30
0
41
1
10
31.5517172018794
20
14.8968452152788
30
0
0
SPLINE
5
1AD
100
AcDbEntity
8
1
62
256
6
ByLayer
370
18
48
1
60
0
100
AcDbSpline
70
4
71
3
72
14
73
10
40
0
40
0
40
0
40
0
40
0.0829586012803074
40
0.0829586012803074
40
0.459195015075147
40
0.459195015075147
40
0.835474799669026
40
0.835474799669026
40
1
40
1
40
1
40
1
41
1
10
29.5402762304378
20
14.3519037145814
30
0
41
1
10
29.5416886256336
20
14.3553425519679
30
0
41
1
10
29.5430838536244
20
14.3588535791278
30
0
41
1
10
29.5506369251849
20
14.3785358382941
30
0
41
1
10
29.556453857335
20
14.3963363568031
30
0
41
1
10
29.5662717627404
20
14.4329593815212
30
0
41
1
10
29.5703782090433
20
14.4521946307652
30
0
41
1
10
29.5747913922326
20
14.4789309674042
30
0
41
1
10
29.57595779204
20
14.4870388005143
30
0
41
1
10
29.5769497549205
20
14.4950072242181
30
0
0
SPLINE
5
1AE
100
AcDbEntity
8
1
62
256
6
ByLayer
370
18
48
1
60
0
100
AcDbSpline
70
4
71
3
72
8
73
4
40
0
40
0
40
0
40
0
40
1
40
1
40
1
40
1
41
1
10
23.2809612137759
20
4.23006128425587
30
0
41
1
10
23.1314628758902
20
4.18644794846813
30
0
41
1
10
22.9789028228894
20
4.15163865505636
30
0
41
1
10
22.8231983087177
20
4.12674062083806
30
0
0
SPLINE
5
1AF
100
AcDbEntity
8
1
62
256
6
ByLayer
370
18
48
1
60
0
100
AcDbSpline
70
4
71
3
72
16
73
12
40
0
40
0
40
0
40
0
40
0.25
40
0.25
40
0.5
40
0.5
40
0.75
40
0.75
40
0.875
40
0.875
40
1
40
1
40
1
40
1
41
1
10
45.42553905892
20
20.0977935634826
30
0
41
1
10
44.3270651071869
20
20.0812709345398
30
0
41
1
10
43.175740073683
20
20.0879360142156
30
0
41
1
10
40.656286659639
20
20.1963857561796
30
0
41
1
10
39.3867367187686
20
20.2530672613688
30
0
41
1
10
36.8062550070012
20
20.4004889429673
30
0
41
1
10
35.4305950581493
20
20.511608976999
30
0
41
1
10
33.4549975046235
20
20.7824437386732
30
0
41
1
10
32.8118227999865
20
20.8909999043202
30
0
41
1
10
31.6796898052629
20
21.1382025399264
30
0
41
1
10
31.2024957249631
20
21.2746808237813
30
0
41
1
10
30.8096643286892
20
21.4135369215192
30
0
0
SPLINE
5
1B0
100
AcDbEntity
8
1
62
256
6
ByLayer
370
18
48
1
60
0
100
AcDbSpline
70
4
71
2
72
6
73
3
40
0
40
0
40
0
40
1
40
1
40
1
41
0.941103849192081
10
33.7688901170904
20
10.8405999244577
30
0
41
0.915286811754989
10
34.1257546014838
20
9.07982343892983
30
0
41
1.02830968163241
10
34.073454690969
20
8.28346916235425
30
0
0
SPLINE
5
1B1
100
AcDbEntity
8
1
62
256
6
ByLayer
370
18
48
1
60
0
100
AcDbSpline
70
4
71
3
72
18
73
14
40
0
40
0
40
0
40
0
40
0.0384430513828817
40
0.0384430513828817
40
0.294505767099358
40
0.294505767099358
40
0.507931675708702
40
0.507931675708702
40
0.723079147095956
40
0.723079147095956
40
0.912685296049712
40
0.912685296049712
40
1
40
1
40
1
40
1
41
1
10
39.147906942728
20
20.823839732135
30
0
41
1
10
39.1420723168422
20
20.8243487682036
30
0
41
1
10
39.1362229336426
20
20.8248819800687
30
0
41
1
10
39.0916999285366
20
20.8291186269952
30
0
41
1
10
39.0520745952332
20
20.8339317789699
30
0
41
1
10
38.9835504982619
20
20.8445276358709
30
0
41
1
10
38.9532227664571
20
20.8501443910835
30
0
41
1
10
38.8997255335281
20
20.8623051318617
30
0
41
1
10
38.8758510553989
20
20.8690491047229
30
0
41
1
10
38.8418827552331
20
20.8816903414145
30
0
41
1
10
38.8300426134158
20
20.8877627826257
30
0
41
1
10
38.8200370638258
20
20.8960905858651
30
0
41
1
10
38.8178806384815
20
20.8986811327253
30
0
41
1
10
38.8167403678949
20
20.9011722115606
30
0
0
SPLINE
5
1B2
100
AcDbEntity
8
1
62
256
6
ByLayer
370
18
48
1
60
0
100
AcDbSpline
70
4
71
2
72
6
73
3
40
0
40
0
40
0
40
1
40
1
40
1
41
1.0087712828333
10
47.1303936281905
20
17.6971953366479
30
0
41
1.0087712828333
10
46.943858806127
20
18.3713792084292
30
0
41
1.0087712828333
10
46.7573239840636
20
19.0455630802105
30
0
0
SPLINE
5
1B3
100
AcDbEntity
8
1
62
256
6
ByLayer
370
18
48
1
60
0
100
AcDbSpline
70
4
71
2
72
6
73
3
40
0
40
0
40
0
40
1
40
1
40
1
41
1.02830968163241
10
30.1901741544072
20
21.2512490647385
30
0
41
1.02830968163241
10
30.4164942380969
20
20.966958687501
30
0
41
1.02830968163241
10
30.6428143217868
20
20.6826683102636
30
0
0
SPLINE
5
1B4
100
AcDbEntity
8
1
62
256
6
ByLayer
370
18
48
1
60
0
100
AcDbSpline
70
4
71
3
72
8
73
4
40
0
40
0
40
0
40
0
40
1
40
1
40
1
40
1
41
1
10
45.42553905892
20
20.0977935634826
30
0
41
1
10
45.6679458301669
20
19.9401480058944
30
0
41
1
10
45.9116230886884
20
19.7798892393137
30
0
41
1
10
46.1550494920134
20
19.6169138962524
30
0
0
SPLINE
5
1B5
100
AcDbEntity
8
1
62
256
6
ByLayer
370
18
48
1
60
0
100
AcDbSpline
70
4
71
3
72
12
73
8
40
0
40
0
40
0
40
0
40
0.322961595764271
40
0.322961595764271
40
0.710971356423585
40
0.710971356423585
40
1
40
1
40
1
40
1
41
1
10
33.7688901143198
20
10.8405999381278
30
0
41
1
10
34.1060286707451
20
11.0439121961178
30
0
41
1
10
34.4192550031427
20
11.2967868963659
30
0
41
1
10
35.0160095559168
20
11.9260617653921
30
0
41
1
10
35.2904694801362
20
12.3266620235394
30
0
41
1
10
35.6310638668093
20
13.0788205483858
30
0
41
1
10
35.7349090412038
20
13.4246434290505
30
0
41
1
10
35.7845326533879
20
13.7714889590885
30
0
0
SPLINE
5
1B6
100
AcDbEntity
8
1
62
256
6
ByLayer
370
18
48
1
60
0
100
AcDbSpline
70
4
71
3
72
11
73
7
40
0
40
0
40
0
40
0
40
0.379738014043153
40
0.569607021064729
40
0.759476028086306
40
1
40
1
40
1
40
1
41
1.02830968163241
10
30.6428143217868
20
20.6826683102636
30
0
41
1.02566133279165
10
33.2102527560415
20
20.6698320200868
30
0
41
1.02050308371814
10
36.5823904013428
20
20.3325174021734
30
0
41
1.01332460673153
10
42.017537172427
20
19.0720994467924
30
0
41
1.0120630214142
10
43.9444925795167
20
19.503921994175
30
0
41
1.00944729087556
10
45.7839199551686
20
19.2945822459697
30
0
41
1.00885690313847
10
46.559372686769
20
19.2812360197986
30
0
0
SPLINE
5
1B7
100
AcDbEntity
8
1
62
256
6
ByLayer
370
18
48
1
60
0
100
AcDbSpline
70
4
71
3
72
10
73
6
40
0
40
0
40
0
40
0
40
0.494168352806884
40
0.494168352806884
40
1
40
1
40
1
40
1
41
1
10
22.8231983087177
20
4.12674062083806
30
0
41
1
10
22.7201653573439
20
4.11026506800926
30
0
41
1
10
22.6122280042848
20
4.09842603773777
30
0
41
1
10
22.3927212841985
20
4.08773074364075
30
0
41
1
10
22.2796125143749
20
4.08915782132524
30
0
41
1
10
22.1692182655404
20
4.09807633292149
30
0
0
SPLINE
5
1B8
100
AcDbEntity
8
1
62
256
6
ByLayer
370
18
48
1
60
0
100
AcDbSpline
70
4
71
3
72
8
73
4
40
0
40
0
40
0
40
0
40
1
40
1
40
1
40
1
41
1
10
46.1550494920134
20
19.6169138962524
30
0
41
1
10
46.302865832862
20
19.5179500265537
30
0
41
1
10
46.4399205694361
20
19.4030895378856
30
0
41
1
10
46.5593726943458
20
19.2812360196682
30
0
0
SPLINE
5
1B9
100
AcDbEntity
8
1
62
256
6
ByLayer
370
18
48
1
60
0
100
AcDbSpline
70
4
71
3
72
8
73
4
40
0
40
0
40
0
40
0
40
1
40
1
40
1
40
1
41
1
10
34.636292964158
20
7.58313635183268
30
0
41
1
10
34.4290767162499
20
7.52875930847861
30
0
41
1
10
34.2223109474471
20
7.47456230060851
30
0
41
1
10
34.0168027898804
20
7.42084849505306
30
0
0
SPLINE
5
1BA
100
AcDbEntity
8
1
62
256
6
ByLayer
370
18
48
1
60
0
100
AcDbSpline
70
4
71
3
72
8
73
4
40
0
40
0
40
0
40
0
40
1
40
1
40
1
40
1
41
1
10
24.8627532323235
20
5.78809716456092
30
0
41
1
10
25.1758584035371
20
6.23633146784312
30
0
41
1
10
25.25817576043
20
6.89479170656227
30
0
41
1
10
25.4338744536074
20
7.71863945301752
30
0
0
SPLINE
5
1BB
100
AcDbEntity
8
1
62
256
6
ByLayer
370
18
48
1
60
0
100
AcDbSpline
70
4
71
2
72
6
73
3
40
0
40
0
40
0
40
1
40
1
40
1
41
1.02830968163241
10
30.6428143217868
20
20.6826683102636
30
0
41
0.915286811692243
10
31.0606827394253
20
20.1577658440339
30
0
41
0.941103849220746
10
31.6422719157866
20
18.5267342182613
30
0
0
SPLINE
5
1BC
100
AcDbEntity
8
1
62
256
6
ByLayer
370
18
48
1
60
0
100
AcDbSpline
70
4
71
3
72
14
73
10
40
0
40
0
40
0
40
0
40
0.0151857536690284
40
0.0151857536690284
40
0.0655730315774958
40
0.0655730315774958
40
0.287642754348333
40
0.287642754348333
40
1
40
1
40
1
40
1
41
1
10
17.7685234985569
20
14.5619862529986
30
0
41
1
10
17.7666322742134
20
14.5688216145475
30
0
41
1
10
17.7645612039228
20
14.5756072825502
30
0
41
1
10
17.7552850261822
20
14.6037892327274
30
0
41
1
10
17.7473048362
20
14.6233960236307
30
0
41
1
10
17.7057859171864
20
14.7247562360037
30
0
41
1
10
17.6743348024078
20
14.8002618422698
30
0
41
1
10
17.5588471743447
20
15.1260838999302
30
0
41
1
10
17.5054112619953
20
15.3811825067436
30
0
41
1
10
17.494190699584
20
15.6395749490365
30
0
0
SPLINE
5
1BD
100
AcDbEntity
8
1
62
256
6
ByLayer
370
18
48
1
60
0
100
AcDbSpline
70
4
71
3
72
13
73
9
40
0
40
0
40
0
40
0
40
0.287856992129662
40
0.287856992129662
40
0.605626331970861
40
0.605626331970861
40
0.605626331970861
40
1
40
1
40
1
40
1
41
1
10
34.8778671961377
20
17.0484064891109
30
0
41
1
10
34.6572811639393
20
17.3216645177918
30
0
41
1
10
34.391627663955
20
17.5645279100371
30
0
41
1
10
33.7836575906632
20
17.9860033252213
30
0
41
1
10
33.4294824011656
20
18.1611521529135
30
0
41
1
10
33.0621779251389
20
18.2862884908287
30
0
41
1
10
32.6084600842771
20
18.4408648512001
30
0
41
1
10
32.1216177089381
20
18.5231720045641
30
0
41
1
10
31.6422719196739
20
18.5267342073597
30
0
0
SPLINE
5
1BE
100
AcDbEntity
8
1
62
256
6
ByLayer
370
18
48
1
60
0
100
AcDbSpline
70
4
71
3
72
16
73
12
40
0
40
0
40
0
40
0
40
0.0076436986798989
40
0.0076436986798989
40
0.0409116539642745
40
0.0409116539642745
40
0.185161591066359
40
0.185161591066359
40
0.76103989734915
40
0.76103989734915
40
1
40
1
40
1
40
1
41
1
10
19.996282230629
20
6.51030458429588
30
0
41
1
10
19.9972348684784
20
6.50686151095113
30
0
41
1
10
19.9981463910258
20
6.50339441103412
30
0
41
1
10
20.0027478561878
20
6.48498685656261
30
0
41
1
10
20.0056327165976
20
6.47008032841592
30
0
41
1
10
20.0189036496784
20
6.39441142063541
30
0
41
1
10
20.0261861173161
20
6.33835872073826
30
0
41
1
10
20.0739193615304
20
6.0585546273349
30
0
41
1
10
20.1320812768078
20
5.84393668872795
30
0
41
1
10
20.2489256879782
20
5.55406527319684
30
0
41
1
10
20.2874569052224
20
5.47052573191405
30
0
41
1
10
20.3303097584426
20
5.38912569359613
30
0
0
SPLINE
5
1BF
100
AcDbEntity
8
1
62
256
6
ByLayer
370
18
48
1
60
0
100
AcDbSpline
70
4
71
3
72
10
73
6
40
0
40
0
40
0
40
0
40
0.465995854460556
40
0.465995854460556
40
1
40
1
40
1
40
1
41
1
10
26.3884545812016
20
16.3490456576005
30
0
41
1
10
26.2895251907431
20
16.2048963693766
30
0
41
1
10
26.1734817257126
20
16.0684547072259
30
0
41
1
10
25.8970478511884
20
15.8029990939643
30
0
41
1
10
25.7308484684857
20
15.6762029179317
30
0
41
1
10
25.5530613224235
20
15.5693241309809
30
0
0
SPLINE
5
1C0
100
AcDbEntity
8
1
62
256
6
ByLayer
370
18
48
1
60
0
100
AcDbSpline
70
4
71
3
72
12
73
8
40
0
40
0
40
0
40
0
40
0.252749620142202
40
0.252749620142202
40
0.674711209428768
40
0.674711209428768
40
1
40
1
40
1
40
1
41
1
10
20.9385258669927
20
4.59852320894808
30
0
41
1
10
21.0121839782962
20
4.53386286385685
30
0
41
1
10
21.0938021165967
20
4.47245475993412
30
0
41
1
10
21.3308124373834
20
4.32301596590946
30
0
41
1
10
21.5025477468929
20
4.24312329188544
30
0
41
1
10
21.8343512342219
20
4.14350341848623
30
0
41
1
10
21.9913880500454
20
4.11347899897913
30
0
41
1
10
22.1509650476787
20
4.09960701216252
30
0
0
SPLINE
5
1C1
100
AcDbEntity
8
1
62
256
6
ByLayer
370
18
48
1
60
0
100
AcDbSpline
70
4
71
3
72
8
73
4
40
0
40
0
40
0
40
0
40
1
40
1
40
1
40
1
41
1
10
30.8096643286934
20
21.4135369215207
30
0
41
1
10
30.6024480807824
20
21.3591598781657
30
0
41
1
10
30.3956823119768
20
21.3049628702948
30
0
41
1
10
30.1901741544072
20
21.2512490647385
30
0
0
SPLINE
5
1C2
100
AcDbEntity
8
1
62
256
6
ByLayer
370
18
48
1
60
0
100
AcDbSpline
70
4
71
3
72
8
73
4
40
0
40
0
40
0
40
0
40
1
40
1
40
1
40
1
41
1
10
26.1362831362329
20
10.2196977157637
30
0
41
1
10
26.4126760404993
20
10.2987188809552
30
0
41
1
10
26.7054408887191
20
10.3448606182465
30
0
41
1
10
26.9977240233476
20
10.3479489349025
30
0
0
SPLINE
5
1C3
100
AcDbEntity
8
1
62
256
6
ByLayer
370
18
48
1
60
0
100
AcDbSpline
70
4
71
3
72
8
73
4
40
0
40
0
40
0
40
0
40
1
40
1
40
1
40
1
41
1
10
30.7368012600934
20
9.85046258591672
30
0
41
1
10
29.8597885476585
20
9.61286146789715
30
0
41
1
10
28.921305594929
20
9.70398132895343
30
0
41
1
10
28.120749991693
20
10.088093337841
30
0
0
SPLINE
5
1C4
100
AcDbEntity
8
1
62
256
6
ByLayer
370
18
48
1
60
0
100
AcDbSpline
70
4
71
3
72
18
73
14
40
0
40
0
40
0
40
0
40
0.148865436690719
40
0.148865436690719
40
0.336868556410375
40
0.336868556410375
40
0.519491108027865
40
0.519491108027865
40
0.711563055534806
40
0.711563055534806
40
0.930180979444771
40
0.930180979444771
40
1
40
1
40
1
40
1
41
1
10
41.2832552903888
20
11.9865654809964
30
0
41
1
10
41.2823076325669
20
11.9927376672316
30
0
41
1
10
41.2837251797962
20
12.0006685947223
30
0
41
1
10
41.2924703968948
20
12.0218917823643
30
0
41
1
10
41.3014337133939
20
12.0363766989458
30
0
41
1
10
41.3256099449767
20
12.0676760739821
30
0
41
1
10
41.3409204668709
20
12.0847944645556
30
0
41
1
10
41.3764365001055
20
12.120575920091
30
0
41
1
10
41.3972518729776
20
12.1396923881312
30
0
41
1
10
41.443895148257
20
12.1795489120752
30
0
41
1
10
41.4705488618444
20
12.2006194574255
30
0
41
1
10
41.5058772989596
20
12.2267812448386
30
0
41
1
10
41.5145046260669
20
12.2330350545537
30
0
41
1
10
41.523135853174
20
12.2391636620196
30
0
0
SPLINE
5
1C5
100
AcDbEntity
8
1
62
256
6
ByLayer
370
18
48
1
60
0
100
AcDbSpline
70
4
71
3
72
8
73
4
40
0
40
0
40
0
40
0
40
1
40
1
40
1
40
1
41
1
10
22.8728619072962
20
16.9747844186222
30
0
41
1
10
22.3131746327142
20
17.549916702762
30
0
41
1
10
21.9111359857071
20
18.0230142479183
30
0
41
1
10
21.4321128631412
20
18.1872963124702
30
0
0
SPLINE
5
1C6
100
AcDbEntity
8
1
62
256
6
ByLayer
370
18
48
1
60
0
100
AcDbSpline
70
4
71
3
72
12
73
8
40
0
40
0
40
0
40
0
40
0.418782075282766
40
0.418782075282766
40
0.706182120811167
40
0.706182120811167
40
1
40
1
40
1
40
1
41
1
10
46.5593726943458
20
19.2812360196682
30
0
41
1
10
46.5877031729137
20
19.2519947383684
30
0
41
1
10
46.6157466521861
20
19.2202246440958
30
0
41
1
10
46.660399320104
20
19.1648496770873
30
0
41
1
10
46.6780182073995
20
19.1415886967243
30
0
41
1
10
46.7118923494304
20
19.0939874239027
30
0
41
1
10
46.7282040670573
20
19.0695000640795
30
0
41
1
10
46.7434776343969
20
19.0450036924795
30
0
0
SPLINE
5
1C7
100
AcDbEntity
8
1
62
256
6
ByLayer
370
18
48
1
60
0
100
AcDbSpline
70
4
71
3
72
11
73
7
40
0
40
0
40
0
40
0
40
0.379738014043147
40
0.569607021064721
40
0.759476028086295
40
1
40
1
40
1
40
1
41
1.02830968163241
10
34.073454690969
20
8.28346916235425
30
0
41
1.02566133279166
10
36.2671314076419
20
9.62150194361066
30
0
41
1.02050308371814
10
38.9827293081504
20
11.6570874749713
30
0
41
1.01332460673153
10
43.0132781922982
20
15.4732403777936
30
0
41
1.0120630214142
10
44.9180300524195
20
15.9853121413759
30
0
41
1.00944729087555
10
46.4091647231608
20
17.0347900321954
30
0
41
1.00885690313847
10
47.0812703385977
20
17.3949663373272
30
0
0
SPLINE
5
1C8
100
AcDbEntity
8
1
62
256
6
ByLayer
370
18
48
1
60
0
100
AcDbSpline
70
4
71
3
72
8
73
4
40
0
40
0
40
0
40
0
40
1
40
1
40
1
40
1
41
1
10
47.0812703451647
20
17.3949663408464
30
0
41
1
10
47.0423717897017
20
17.2256789517812
30
0
41
1
10
46.9844507909462
20
17.0545301626056
30
0
41
1
10
46.9087209185119
20
16.8929553626828
30
0
0
SPLINE
5
1C9
100
AcDbEntity
8
1
62
256
6
ByLayer
370
18
48
1
60
0
100
AcDbSpline
70
4
71
3
72
12
73
8
40
0
40
0
40
0
40
0
40
0.499999999999999
40
0.499999999999999
40
0.75
40
0.75
40
1
40
1
40
1
40
1
41
1
10
22.8728619072907
20
16.9747844186135
30
0
41
1
10
22.7901138819144
20
16.8459597316921
30
0
41
1
10
22.71050172623
20
16.7172951792785
30
0
41
1
10
22.5960698275399
20
16.5241929210412
30
0
41
1
10
22.558703551091
20
16.4598672544815
30
0
41
1
10
22.4866546240288
20
16.3304569577975
30
0
41
1
10
22.4146459841693
20
16.2697821234198
30
0
41
1
10
22.4368600633305
20
16.1894948412358
30
0
0
SPLINE
5
1CA
100
AcDbEntity
8
1
62
256
6
ByLayer
370
18
48
1
60
0
100
AcDbSpline
70
4
71
3
72
12
73
8
40
0
40
0
40
0
40
0
40
0.500000000000005
40
0.500000000000005
40
0.750000000000003
40
0.750000000000003
40
1
40
1
40
1
40
1
41
1
10
25.4338744535983
20
7.71863945302184
30
0
41
1
10
25.2979594985127
20
7.78197345328667
30
0
41
1
10
25.1648999608095
20
7.84648121340675
30
0
41
1
10
24.9696520220326
20
7.94546849751407
30
0
41
1
10
24.9052783046473
20
7.97875453099022
30
0
41
1
10
24.7784696717357
20
8.04725961599664
30
0
41
1
10
24.686832874562
20
8.05752589034975
30
0
41
1
10
24.664618795403
20
8.13781317253452
30
0
0
SPLINE
5
1CB
100
AcDbEntity
8
1
62
256
6
ByLayer
370
18
48
1
60
0
100
AcDbSpline
70
4
71
3
72
8
73
4
40
0
40
0
40
0
40
0
40
1
40
1
40
1
40
1
41
1
10
26.3884545812016
20
16.3490456576004
30
0
41
1
10
26.8885013987961
20
17.0776602027907
30
0
41
1
10
27.6303616435499
20
17.6019723312893
30
0
41
1
10
28.5250312270553
20
17.8443570656095
30
0
0
SPLINE
5
1CC
100
AcDbEntity
8
1
62
256
6
ByLayer
370
18
48
1
60
0
100
AcDbSpline
70
4
71
3
72
12
73
8
40
0
40
0
40
0
40
0
40
0.407174084711924
40
0.407174084711924
40
0.699511272430925
40
0.699511272430925
40
1
40
1
40
1
40
1
41
1
10
47.1179671908221
20
17.6915040279152
30
0
41
1
10
47.1170440430414
20
17.6524041018614
30
0
41
1
10
47.1144703724245
20
17.6119770786789
30
0
41
1
10
47.1071725375134
20
17.5423001624073
30
0
41
1
10
47.1032380339477
20
17.5128954613776
30
0
41
1
10
47.0935970882207
20
17.4538445895342
30
0
41
1
10
47.0878061405052
20
17.4239906080651
30
0
41
1
10
47.0812703451647
20
17.3949663408464
30
0
0
SPLINE
5
1CD
100
AcDbEntity
8
1
62
256
6
ByLayer
370
18
48
1
60
0
100
AcDbSpline
70
4
71
2
72
6
73
3
40
0
40
0
40
0
40
1
40
1
40
1
41
1.02830968163241
10
34.073454690969
20
8.28346916235425
30
0
41
1.02830968163241
10
34.0451287404247
20
7.85215882870364
30
0
41
1.02830968163241
10
34.0168027898804
20
7.42084849505306
30
0
0
SPLINE
5
1CE
100
AcDbEntity
8
1
62
256
6
ByLayer
370
18
48
1
60
0
100
AcDbSpline
70
4
71
3
72
11
73
7
40
0
40
0
40
0
40
0
40
0.268536746003807
40
0.487975722202665
40
0.707414698401523
40
1
40
1
40
1
40
1
41
1.0249090909279
10
34.8778671456645
20
17.0484064769181
30
0
41
1.0229768070834
10
36.1824042917885
20
17.3635421402985
30
0
41
1.0191099966158
10
38.4673791471334
20
17.8717626302963
30
0
41
1.01332460673153
10
42.2329955106694
20
18.4188156443002
30
0
41
1.01203732298747
10
44.2274032215838
20
18.8267726354046
30
0
41
1.00929221524307
10
45.9790639410533
20
19.0145202683369
30
0
41
1.0087712828333
10
46.7573239840636
20
19.0455630802105
30
0
0
SPLINE
5
1CF
100
AcDbEntity
8
1
62
256
6
ByLayer
370
18
48
1
60
0
100
AcDbSpline
70
4
71
3
72
8
73
4
40
0
40
0
40
0
40
0
40
1
40
1
40
1
40
1
41
1
10
24.7505958866186
20
15.2279207632821
30
0
41
1
10
25.026988790885
20
15.3069419284736
30
0
41
1
10
25.3010430109056
20
15.4207085929675
30
0
41
1
10
25.5530613224235
20
15.5693241309809
30
0
0
SPLINE
5
1D0
100
AcDbEntity
8
1
62
256
6
ByLayer
370
18
48
1
60
0
100
AcDbSpline
70
4
71
3
72
10
73
6
40
0
40
0
40
0
40
0
40
0.494168352806887
40
0.494168352806887
40
1
40
1
40
1
40
1
41
1
10
19.0116747637562
20
17.9025475854683
30
0
41
1
10
18.9154345885408
20
17.8615212271654
30
0
41
1
10
18.8171446847038
20
17.8148138833132
30
0
41
1
10
18.6236652862324
20
17.7100492874939
30
0
41
1
10
18.5272917084071
20
17.6509911624074
30
0
41
1
10
18.4368845365902
20
17.5876713389827
30
0
0
SPLINE
5
1D1
100
AcDbEntity
8
1
62
256
6
ByLayer
370
18
48
1
60
0
100
AcDbSpline
70
4
71
3
72
8
73
4
40
0
40
0
40
0
40
0
40
1
40
1
40
1
40
1
41
1
10
30.4874870029904
20
18.3760274505594
30
0
41
1
10
30.865177554321
20
18.4783517338784
30
0
41
1
10
31.2504509022938
20
18.527039479657
30
0
41
1
10
31.6422719172873
20
18.5267342073616
30
0
0
SPLINE
5
1D2
100
AcDbEntity
8
1
62
256
6
ByLayer
370
18
48
1
60
0
100
AcDbSpline
70
4
71
3
72
8
73
4
40
0
40
0
40
0
40
0
40
1
40
1
40
1
40
1
41
1
10
46.5320293316281
20
16.0986587751966
30
0
41
1
10
46.6580377691878
20
16.3617061392055
30
0
41
1
10
46.7840077077461
20
16.626871300615
30
0
41
1
10
46.9087209185119
20
16.8929553626828
30
0
0
SPLINE
5
1D3
100
AcDbEntity
8
1
62
256
6
ByLayer
370
18
48
1
60
0
100
AcDbSpline
70
4
71
3
72
8
73
4
40
0
40
0
40
0
40
0
40
1
40
1
40
1
40
1
41
1
10
32.6992570360286
20
10.3821329708666
30
0
41
1
10
33.0769475872353
20
10.4844572541521
30
0
41
1
10
33.4329261430134
20
10.6390237635824
30
0
41
1
10
33.7688901119429
20
10.8405999367017
30
0
0
SPLINE
5
1D4
100
AcDbEntity
8
1
62
256
6
ByLayer
370
18
48
1
60
0
100
AcDbSpline
70
4
71
3
72
11
73
7
40
0
40
0
40
0
40
0
40
0.268536746558077
40
0.487975722590654
40
0.707414698623231
40
1
40
1
40
1
40
1
41
1.02490909094426
10
35.7845325926997
20
13.7714889413071
30
0
41
1.02297680709541
10
37.0718994581321
20
14.1486823430574
30
0
41
1.019109996622
10
39.3078611852738
20
14.8340486464875
30
0
41
1.01332460673153
10
42.8577992281497
20
16.1606174982668
30
0
41
1.01203732298747
10
44.8058510882884
20
16.7361162202439
30
0
41
1.00929221524307
10
46.432127278008
20
17.3770351527257
30
0
41
1.0087712828333
10
47.1303936281905
20
17.6971953366479
30
0
0
SPLINE
5
1D5
100
AcDbEntity
8
1
62
256
6
ByLayer
370
18
48
1
60
0
100
AcDbSpline
70
4
71
3
72
16
73
12
40
0
40
0
40
0
40
0
40
0.125
40
0.125
40
0.25
40
0.25
40
0.5
40
0.5
40
0.75
40
0.75
40
1
40
1
40
1
40
1
41
1
10
34.6362929641681
20
7.58313635183532
30
0
41
1
10
34.8917427743679
20
7.94235851951817
30
0
41
1
10
35.2210986279147
20
8.3373031157459
30
0
41
1
10
36.0595326726823
20
9.18640392101278
30
0
41
1
10
36.5522527585638
20
9.62490362482941
30
0
41
1
10
38.1169602218125
20
10.903003814162
30
0
41
1
10
39.2322939151957
20
11.6779584754701
30
0
41
1
10
41.3691664926403
20
13.0641212701954
30
0
41
1
10
42.4263866430904
20
13.7237662826083
30
0
41
1
10
44.5386156800766
20
15.0364643174228
30
0
41
1
10
45.5603804962445
20
15.6006727583956
30
0
41
1
10
46.5320293316281
20
16.0986587751966
30
0
0
SPLINE
5
1D6
100
AcDbEntity
8
1
62
256
6
ByLayer
370
18
48
1
60
0
100
AcDbSpline
70
4
71
3
72
13
73
9
40
0
40
0
40
0
40
0
40
0.250661764437226
40
0.250661764437226
40
0.250661764437226
40
0.653096502165464
40
0.653096502165464
40
1
40
1
40
1
40
1
41
1
10
35.7845326533879
20
13.7714889590885
30
0
41
1
10
35.8256921605947
20
14.0594265405226
30
0
41
1
10
35.836593668922
20
14.354032717691
30
0
41
1
10
35.817126351735
20
14.6455939772599
30
0
41
1
10
35.786142084804
20
15.1096441494773
30
0
41
1
10
35.6762948009716
20
15.5764415740267
30
0
41
1
10
35.3415540363674
20
16.3802170293288
30
0
41
1
10
35.1310375056345
20
16.7346952904196
30
0
41
1
10
34.8778671961377
20
17.0484064891109
30
0
0
SPLINE
5
1D7
100
AcDbEntity
8
1
62
256
6
ByLayer
370
18
48
1
60
0
100
AcDbSpline
70
4
71
3
72
12
73
8
40
0
40
0
40
0
40
0
40
0.252749620142198
40
0.252749620142198
40
0.674711209428767
40
0.674711209428767
40
1
40
1
40
1
40
1
41
1
10
17.6254058305561
20
16.5729742478067
30
0
41
1
10
17.656958519335
20
16.6604935143645
30
0
41
1
10
17.6969282242174
20
16.7496133482543
30
0
41
1
10
17.8271776422017
20
16.9860353710467
30
0
41
1
10
17.9355006373451
20
17.1353307871872
30
0
41
1
10
18.1716319479916
20
17.3814942789748
30
0
41
1
10
18.2917841873634
20
17.4847800172503
30
0
41
1
10
18.4219649454687
20
17.5771534507873
30
0
0
SPLINE
5
1D8
100
AcDbEntity
8
1
62
256
6
ByLayer
370
18
48
1
60
0
100
AcDbSpline
70
4
71
3
72
10
73
6
40
0
40
0
40
0
40
0
40
0.325288492889664
40
0.325288492889664
40
1
40
1
40
1
40
1
41
1
10
17.4941906995841
20
15.6395749490366
30
0
41
1
10
17.4895162456973
20
15.7472204940575
30
0
41
1
10
17.490641908208
20
15.8523458881038
30
0
41
1
10
17.5128304499512
20
16.1685196913617
30
0
41
1
10
17.5540370894048
20
16.3750152109364
30
0
41
1
10
17.6254058305704
20
16.5729742478247
30
0
0
SPLINE
5
1D9
100
AcDbEntity
8
1
62
256
6
ByLayer
370
18
48
1
60
0
100
AcDbSpline
70
4
71
3
72
10
73
6
40
0
40
0
40
0
40
0
40
0.474805431212334
40
0.474805431212334
40
1
40
1
40
1
40
1
41
1
10
26.9977240233476
20
10.3479489349025
30
0
41
1
10
27.1830595574076
20
10.3451276124205
30
0
41
1
10
27.3685730851537
20
10.3238514994782
30
0
41
1
10
27.7467462905375
20
10.240901780171
30
0
41
1
10
27.9405318284977
20
10.1745632350264
30
0
41
1
10
28.120749991693
20
10.088093337841
30
0
0
SPLINE
5
1DA
100
AcDbEntity
8
1
62
256
6
ByLayer
370
18
48
1
60
0
100
AcDbSpline
70
4
71
3
72
8
73
4
40
0
40
0
40
0
40
0
40
1
40
1
40
1
40
1
41
1
10
20.3303097584427
20
5.38912569359604
30
0
41
1
10
20.4928160107652
20
5.08044110967876
30
0
41
1
10
20.6908796760096
20
4.81591797901379
30
0
41
1
10
20.9385258670137
20
4.59852320894177
30
0
0
SPLINE
5
1DB
100
AcDbEntity
8
1
62
256
6
ByLayer
370
18
48
1
60
0
100
AcDbSpline
70
4
71
3
72
12
73
8
40
0
40
0
40
0
40
0
40
0.383021196746336
40
0.383021196746336
40
0.691426259874177
40
0.691426259874177
40
1
40
1
40
1
40
1
41
1
10
21.2400090156453
20
0.899863085775593
30
0
41
1
10
21.278425547663
20
0.867853156928021
30
0
41
1
10
21.3172761539518
20
0.836356472902168
30
0
41
1
10
21.3881885223267
20
0.780499906672333
30
0
41
1
10
21.4201030797305
20
0.755941382341774
30
0
41
1
10
21.4845124486815
20
0.707569085696235
30
0
41
1
10
21.5170120082649
20
0.683752406775625
30
0
41
1
10
21.5497935560397
20
0.660335244747046
30
0
0
SPLINE
5
1DC
100
AcDbEntity
8
1
62
256
6
ByLayer
370
18
48
1
60
0
100
AcDbSpline
70
4
71
2
72
9
73
6
40
0
40
0
40
0
40
0.0580306533587644
40
0.434818392015259
40
0.623212261343506
40
1
40
1
40
1
41
1.02613459695995
10
20.9243349421682
20
1.18084111366377
30
0
41
1.02613459695995
10
20.8582310512492
20
1.27321480630583
30
0
41
1.02613459695995
10
20.3649491257391
20
2.00763747804864
30
0
41
1.02613459695995
10
20.1355682165819
20
2.51556307215213
30
0
41
1.02613459695995
10
19.8914742436932
20
3.10994116455458
30
0
41
1.02613459695995
10
19.7735056511898
20
3.53615154679979
30
0
0
SPLINE
5
1DD
100
AcDbEntity
8
1
62
256
6
ByLayer
370
18
48
1
60
0
100
AcDbSpline
70
4
71
3
72
8
73
4
40
0
40
0
40
0
40
0
40
1
40
1
40
1
40
1
41
1
10
22.0674431853701
20
24.0113106173276
30
0
41
1
10
21.9828111609018
20
23.6866862330112
30
0
41
1
10
21.8984837729073
20
23.3623823001686
30
0
41
1
10
21.8144982029413
20
23.0383917493697
30
0
0
SPLINE
5
1DE
100
AcDbEntity
8
1
62
256
6
ByLayer
370
18
48
1
60
0
100
AcDbSpline
70
4
71
2
72
9
73
6
40
0
40
0
40
0
40
0.212450297918642
40
0.527470178751185
40
0.684980119167457
40
1
40
1
40
1
41
1
10
21.5497935498981
20
0.660335249134278
30
0
41
1
10
21.2563300111206
20
0.981348976137554
30
0
41
1
10
20.5406086042017
20
2.04695061428643
30
0
41
1
10
20.3112276950445
20
2.55487620838994
30
0
41
1
10
20.0671337221558
20
3.14925430079242
30
0
41
1
10
19.9491651296524
20
3.57546468303764
30
0
0
SPLINE
5
1DF
100
AcDbEntity
8
1
62
256
6
ByLayer
370
18
48
1
60
0
100
AcDbSpline
70
4
71
3
72
8
73
4
40
0
40
0
40
0
40
0
40
1
40
1
40
1
40
1
41
1
10
20.9243349421681
20
1.18084111366397
30
0
41
1
10
20.9709496488563
20
1.13746202816847
30
0
41
1
10
21.0178801668315
20
1.09438087853974
30
0
41
1
10
21.0651433124845
20
1.05167763498258
30
0
0
SPLINE
5
1E0
100
AcDbEntity
8
1
62
256
6
ByLayer
370
18
48
1
60
0
100
AcDbSpline
70
4
71
3
72
10
73
6
40
0
40
0
40
0
40
0
40
0.321407344905319
40
0.321407344905319
40
1
40
1
40
1
40
1
41
1
10
17.6502234645
20
4.412368655297
30
0
41
1
10
17.6525533355225
20
4.41422040196406
30
0
41
1
10
17.6548865614883
20
4.41608639509283
30
0
41
1
10
17.6621584900655
20
4.42193596506905
30
0
41
1
10
17.6671089778299
20
4.42596662541442
30
0
41
1
10
17.6720747436199
20
4.43005162579789
30
0
0
SPLINE
5
1E1
100
AcDbEntity
8
1
62
256
6
ByLayer
370
18
48
1
60
0
100
AcDbSpline
70
4
71
2
72
6
73
3
40
0
40
0
40
0
40
1
40
1
40
1
41
1
10
19.8613353904211
20
3.55580811491873
30
0
41
1
10
19.8174205208055
20
3.54597983085927
30
0
41
1
10
19.7735056511898
20
3.5361515467998
30
0
0
SPLINE
5
1E2
100
AcDbEntity
8
1
62
256
6
ByLayer
370
18
48
1
60
0
100
AcDbSpline
70
4
71
2
72
6
73
3
40
0
40
0
40
0
40
1
40
1
40
1
41
1
10
19.9491651296524
20
3.57546468303764
30
0
41
1
10
19.9052502600367
20
3.56563639897817
30
0
41
1
10
19.8613353904211
20
3.55580811491873
30
0
0
SPLINE
5
1E3
100
AcDbEntity
8
1
62
256
6
ByLayer
370
18
48
1
60
0
100
AcDbSpline
70
4
71
3
72
28
73
24
40
0
40
0
40
0
40
0
40
0.375750764638386
40
0.375750764638386
40
0.835284225060471
40
0.835284225060471
40
0.95018262646717
40
0.95018262646717
40
0.979066688370559
40
0.979066688370559
40
0.985266406303486
40
0.985266406303486
40
0.987298849758769
40
0.987298849758769
40
0.988614383001113
40
0.988614383001113
40
0.989930637118059
40
0.989930637118059
40
0.992025986176409
40
0.992025986176409
40
0.994087300906733
40
0.994087300906733
40
1
40
1
40
1
40
1
41
1
10
17.6502234645028
20
4.41236865529632
30
0
41
1
10
17.6509114623399
20
4.41680409656951
30
0
41
1
10
17.6516050742728
20
4.42124817174141
30
0
41
1
10
17.6531596225676
20
4.43114573424958
30
0
41
1
10
17.6540199170698
20
4.43660598162217
30
0
41
1
10
17.6551193192786
20
4.44343605841098
30
0
41
1
10
17.6553329159387
20
4.44480838849518
30
0
41
1
10
17.6556369777583
20
4.44649842216236
30
0
41
1
10
17.6556919062209
20
4.44684555306125
30
0
41
1
10
17.6558078409655
20
4.44722060480868
30
0
41
1
10
17.6558304454239
20
4.44728681370816
30
0
41
1
10
17.655876016988
20
4.44735188032107
30
0
41
1
10
17.6558890158514
20
4.4473660469796
30
0
41
1
10
17.6559139938981
20
4.44738029132176
30
0
41
1
10
17.6559249569336
20
4.44738352201247
30
0
41
1
10
17.6559479133236
20
4.44738333882606
30
0
41
1
10
17.6559601495664
20
4.44737988769035
30
0
41
1
10
17.6559910209255
20
4.44736422233515
30
0
41
1
10
17.6560097789541
20
4.44734817015828
30
0
41
1
10
17.6560445764042
20
4.44731196164779
30
0
41
1
10
17.656061104682
20
4.44729147522867
30
0
41
1
10
17.6561224086683
20
4.44720886868808
30
0
41
1
10
17.6561635879153
20
4.44714003596792
30
0
41
1
10
17.6562033455413
20
4.44707050987867
30
0
0
SPLINE
5
1E4
100
AcDbEntity
8
1
62
256
6
ByLayer
370
18
48
1
60
0
100
AcDbSpline
70
4
71
3
72
8
73
4
40
0
40
0
40
0
40
0
40
1
40
1
40
1
40
1
41
1
10
27.417843041138
20
3.58343523107817
30
0
41
1
10
27.5366822172854
20
3.15392048949786
30
0
41
1
10
27.6114247755936
20
2.71463142076334
30
0
41
1
10
27.6379589409236
20
2.28973441565151
30
0
0
SPLINE
5
1E5
100
AcDbEntity
8
1
62
256
6
ByLayer
370
18
48
1
60
0
100
AcDbSpline
70
4
71
3
72
12
73
8
40
0
40
0
40
0
40
0
40
0.249999009664687
40
0.249999009664687
40
0.624998856339327
40
0.624998856339327
40
1
40
1
40
1
40
1
41
1
10
15.9053657608039
20
19.7451790786869
30
0
41
1
10
15.9126828144212
20
19.746791738137
30
0
41
1
10
15.9199992283998
20
19.7483968662087
30
0
41
1
10
15.9382886798325
20
19.7523908559916
30
0
41
1
10
15.9492609152169
20
19.7547703001485
30
0
41
1
10
15.9712024689284
20
19.7594952640218
30
0
41
1
10
15.9821717967318
20
19.7618407856634
30
0
41
1
10
15.993139629687
20
19.7641693294297
30
0
0
SPLINE
5
1E6
100
AcDbEntity
8
1
62
256
6
ByLayer
370
18
48
1
60
0
100
AcDbSpline
70
4
71
3
72
10
73
6
40
0
40
0
40
0
40
0
40
0.60834142572423
40
0.60834142572423
40
1
40
1
40
1
40
1
41
1
10
41.5279514274058
20
11.1438455272342
30
0
41
1
10
41.342871038805
20
11.0062792254042
30
0
41
1
10
41.1575612635649
20
10.8687729627638
30
0
41
1
10
40.8525956287172
20
10.6428301340916
30
0
41
1
10
40.7330647048382
20
10.5543608594968
30
0
41
1
10
40.6134491223723
20
10.4659137493798
30
0
0
SPLINE
5
1E7
100
AcDbEntity
8
1
62
256
6
ByLayer
370
18
48
1
60
0
100
AcDbSpline
70
4
71
3
72
8
73
4
40
0
40
0
40
0
40
0
40
1
40
1
40
1
40
1
41
1
10
21.7461350646049
20
22.8168170454274
30
0
41
1
10
21.4979518137162
20
22.0053782188395
30
0
41
1
10
21.2152113653718
20
20.9967887628069
30
0
41
1
10
20.9207923800001
20
19.9279612098285
30
0
0
SPLINE
5
1E8
100
AcDbEntity
8
1
62
256
6
ByLayer
370
18
48
1
60
0
100
AcDbSpline
70
4
71
3
72
12
73
8
40
0
40
0
40
0
40
0
40
0.5
40
0.5
40
0.75
40
0.75
40
1
40
1
40
1
40
1
41
1
10
15.993139629687
20
19.7641693294297
30
0
41
1
10
16.57279548236
20
19.8872341160526
30
0
41
1
10
17.2337501955353
20
19.9491655229321
30
0
41
1
10
18.6199610070216
20
19.9801014192182
30
0
41
1
10
19.1330266464493
20
19.98083781719
30
0
41
1
10
20.0903457665422
20
19.967185269075
30
0
41
1
10
20.5173164466123
20
19.952374541195
30
0
41
1
10
20.92079238
20
19.9279612098283
30
0
0
SPLINE
5
1E9
100
AcDbEntity
8
1
62
256
6
ByLayer
370
18
48
1
60
0
100
AcDbSpline
70
4
71
3
72
8
73
4
40
0
40
0
40
0
40
0
40
1
40
1
40
1
40
1
41
1
10
21.0651433124845
20
-19.7489873158093
30
0
41
1
10
21.0304207301919
20
-19.7489873158093
30
0
41
1
10
20.995695084021
20
-19.7488957415293
30
0
41
1
10
20.9609847588647
20
-19.7487125483234
30
0
0
SPLINE
5
1EA
100
AcDbEntity
8
1
62
256
6
ByLayer
370
18
48
1
60
0
100
AcDbSpline
70
4
71
2
72
9
73
6
40
0
40
0
40
0
40
0.143398252212994
40
0.486038951327797
40
0.657359300885198
40
1
40
1
40
1
41
1
10
21.2400090153519
20
0.899863086139987
30
0
41
1
10
21.0591188187067
20
1.12454495730347
30
0
41
1
10
20.4527788649704
20
2.02729404616753
30
0
41
1
10
20.2233979558132
20
2.53521964027104
30
0
41
1
10
19.9793039829244
20
3.12959773267349
30
0
41
1
10
19.8613353904211
20
3.55580811491873
30
0
0
SPLINE
5
1EB
100
AcDbEntity
8
1
62
256
6
ByLayer
370
18
48
1
60
0
100
AcDbSpline
70
4
71
3
72
8
73
4
40
0
40
0
40
0
40
0
40
1
40
1
40
1
40
1
41
1
10
18.9082258169316
20
3.58918768391621
30
0
41
1
10
19.4430370824165
20
2.71990716539276
30
0
41
1
10
20.1328721547526
20
1.91736686617847
30
0
41
1
10
20.9243349421682
20
1.1808411136638
30
0
0
SPLINE
5
1EC
100
AcDbEntity
8
1
62
256
6
ByLayer
370
18
48
1
60
0
100
AcDbSpline
70
4
71
3
72
16
73
12
40
0
40
0
40
0
40
0
40
0.464304267159304
40
0.464304267159304
40
0.647533485141974
40
0.647533485141974
40
0.833383675860506
40
0.833383675860506
40
0.950238074309851
40
0.950238074309851
40
1
40
1
40
1
40
1
41
1
10
9.33660254037844
20
-6.16973001948568
30
0
41
1
10
9.31929643456959
20
-6.10699311212741
30
0
41
1
10
9.29554416795261
20
-6.04466199750289
30
0
41
1
10
9.24667293447288
20
-5.96658891111872
30
0
41
1
10
9.23079711658974
20
-5.94525308185362
30
0
41
1
10
9.19394564855392
20
-5.90694983484818
30
0
41
1
10
9.17240809259957
20
-5.88959453036583
30
0
41
1
10
9.13286934844766
20
-5.86981268651903
30
0
41
1
10
9.1161352553444
20
-5.86416869949437
30
0
41
1
10
9.09170798023393
20
-5.86046107106307
30
0
41
1
10
9.08424032311152
20
-5.85988980456935
30
0
41
1
10
9.07679491924313
20
-5.85988980456935
30
0
0
SPLINE
5
1ED
100
AcDbEntity
8
1
62
256
6
ByLayer
370
18
48
1
60
0
100
AcDbSpline
70
4
71
3
72
10
73
6
40
0
40
0
40
0
40
0
40
0.5
40
0.5
40
1
40
1
40
1
40
1
41
1
10
17.0803645201175
20
-18.4785397031243
30
0
41
1
10
17.1607362481336
20
-18.8589247873746
30
0
41
1
10
17.5682113664009
20
-19.1459166129717
30
0
41
1
10
18.9669005807707
20
-19.5099726158561
30
0
41
1
10
19.9225318765138
20
-19.5880225669773
30
0
41
1
10
20.92079238
20
-19.5953859168696
30
0
0
SPLINE
5
1EE
100
AcDbEntity
8
1
62
256
6
ByLayer
370
18
48
1
60
0
100
AcDbSpline
70
4
71
3
72
8
73
4
40
0
40
0
40
0
40
0
40
1
40
1
40
1
40
1
41
1
10
21.746135067122
20
22.8168170536564
30
0
41
1
10
21.769168662537
20
22.8921168015212
30
0
41
1
10
21.7919507426373
20
22.9659632136723
30
0
41
1
10
21.8144982029415
20
23.0383917493705
30
0
0
SPLINE
5
1EF
100
AcDbEntity
8
1
62
256
6
ByLayer
370
18
48
1
60
0
100
AcDbSpline
70
4
71
3
72
12
73
8
40
0
40
0
40
0
40
0
40
0.25
40
0.25
40
0.5
40
0.5
40
1
40
1
40
1
40
1
41
1
10
15.6717480265634
20
18.3436105341824
30
0
41
1
10
15.2989278325512
20
18.4542862570108
30
0
41
1
10
14.9718967251337
20
18.5874138179287
30
0
41
1
10
14.5953026379797
20
18.8819450778328
30
0
41
1
10
14.5577949906098
20
19.0380020413447
30
0
41
1
10
14.7926063383364
20
19.4267178533844
30
0
41
1
10
15.2759933270761
20
19.60174214779
30
0
41
1
10
15.8175312796507
20
19.725465985399
30
0
0
SPLINE
5
1F0
100
AcDbEntity
8
1
62
256
6
ByLayer
370
18
48
1
60
0
100
AcDbSpline
70
4
71
3
72
8
73
4
40
0
40
0
40
0
40
0
40
1
40
1
40
1
40
1
41
1
10
40.6181496426424
20
10.5060967688314
30
0
41
1
10
40.5095497394164
20
10.42560311946
30
0
41
1
10
40.4008771974023
20
10.3451284849502
30
0
41
1
10
40.2921348750642
20
10.2646721191169
30
0
0
SPLINE
5
1F1
100
AcDbEntity
8
1
62
256
6
ByLayer
370
18
48
1
60
0
100
AcDbSpline
70
4
71
3
72
8
73
4
40
0
40
0
40
0
40
0
40
1
40
1
40
1
40
1
41
1
10
20.9609847588647
20
-19.7487125483234
30
0
41
1
10
20.9475817320637
20
-19.6976046271877
30
0
41
1
10
20.9341842105476
20
-19.6464956774885
30
0
41
1
10
20.92079238
20
-19.5953859168696
30
0
0
SPLINE
5
1F2
100
AcDbEntity
8
1
62
256
6
ByLayer
370
18
48
1
60
0
100
AcDbSpline
70
4
71
3
72
16
73
12
40
0
40
0
40
0
40
0
40
0.114691258188364
40
0.114691258188364
40
0.256006982052499
40
0.256006982052499
40
0.478481509698429
40
0.478481509698429
40
0.904237458570111
40
0.904237458570111
40
1
40
1
40
1
40
1
41
1
10
6.9232050807569
20
19.1222825906926
30
0
41
1
10
6.90623920058411
20
19.1222825906926
30
0
41
1
10
6.88906253212411
20
19.1213397893258
30
0
41
1
10
6.85346109846185
20
19.117563257367
30
0
41
1
10
6.83507168736793
20
19.1143205262483
30
0
41
1
10
6.79305201772169
20
19.1044641374228
30
0
41
1
10
6.77140364934789
20
19.0968571256395
30
0
41
1
10
6.71814486104421
20
19.0732678361841
30
0
41
1
10
6.69359399943792
20
19.0554522237109
30
0
41
1
10
6.67087946572559
20
19.0329978954364
30
0
41
1
10
6.66699503410797
20
19.0288038685174
30
0
41
1
10
6.66339745962154
20
19.0245744101322
30
0
0
SPLINE
5
1F3
100
AcDbEntity
8
1
62
256
6
ByLayer
370
18
48
1
60
0
100
AcDbSpline
70
4
71
3
72
8
73
4
40
0
40
0
40
0
40
0
40
1
40
1
40
1
40
1
41
1
10
22.0674431853701
20
22.86212842484
30
0
41
1
10
21.9838583390784
20
22.9223010327158
30
0
41
1
10
21.8994336129344
20
22.9811030894466
30
0
41
1
10
21.8144982029416
20
23.0383917493701
30
0
0
SPLINE
5
1F4
100
AcDbEntity
8
1
62
256
6
ByLayer
370
18
48
1
60
0
100
AcDbSpline
70
4
71
3
72
8
73
4
40
0
40
0
40
0
40
0
40
1
40
1
40
1
40
1
41
1
10
21.7461350646049
20
22.8168170454274
30
0
41
1
10
22.1246175231822
20
22.2722403950118
30
0
41
1
10
22.4304082509328
20
21.6092818795583
30
0
41
1
10
22.6212333309349
20
20.9195919340264
30
0
0
SPLINE
5
1F5
100
AcDbEntity
8
1
62
256
6
ByLayer
370
18
48
1
60
0
100
AcDbSpline
70
4
71
3
72
16
73
12
40
0
40
0
40
0
40
0
40
0.114691258188364
40
0.114691258188364
40
0.256006982052491
40
0.256006982052491
40
0.478481509698431
40
0.478481509698431
40
0.904237458570125
40
0.904237458570125
40
1
40
1
40
1
40
1
41
1
10
9.07679491924313
20
5.85988980456935
30
0
41
1
10
9.09376079941589
20
5.85988980456935
30
0
41
1
10
9.11093746787589
20
5.8629683550426
30
0
41
1
10
9.14653890153815
20
5.87527238052311
30
0
41
1
10
9.1649283126321
20
5.88582364044447
30
0
41
1
10
9.20694798227834
20
5.91775860341619
30
0
41
1
10
9.22859635065211
20
5.94228809980598
30
0
41
1
10
9.28185513895579
20
6.01773563791645
30
0
41
1
10
9.30640600056208
20
6.07398601286488
30
0
41
1
10
9.32912053427441
20
6.14371014971229
30
0
41
1
10
9.33300496589203
20
6.15668833929709
30
0
41
1
10
9.33660254037846
20
6.16973001948568
30
0
0
SPLINE
5
1F6
100
AcDbEntity
8
1
62
256
6
ByLayer
370
18
48
1
60
0
100
AcDbSpline
70
4
71
3
72
16
73
12
40
0
40
0
40
0
40
0
40
0.114691258188368
40
0.114691258188368
40
0.256006982052502
40
0.256006982052502
40
0.47848150969846
40
0.47848150969846
40
0.904237458570168
40
0.904237458570168
40
1
40
1
40
1
40
1
41
1
10
6.9232050807569
20
-5.85988980456938
30
0
41
1
10
6.90623920058411
20
-5.85988980456938
30
0
41
1
10
6.88906253212411
20
-5.8629683550426
30
0
41
1
10
6.85346109846185
20
-5.87527238052311
30
0
41
1
10
6.8350716873679
20
-5.88582364044447
30
0
41
1
10
6.79305201772166
20
-5.91775860341622
30
0
41
1
10
6.77140364934789
20
-5.94228809980598
30
0
41
1
10
6.71814486104418
20
-6.01773563791645
30
0
41
1
10
6.69359399943792
20
-6.07398601286491
30
0
41
1
10
6.67087946572559
20
-6.14371014971229
30
0
41
1
10
6.66699503410797
20
-6.15668833929709
30
0
41
1
10
6.66339745962154
20
-6.16973001948568
30
0
0
SPLINE
5
1F7
100
AcDbEntity
8
1
62
256
6
ByLayer
370
18
48
1
60
0
100
AcDbSpline
70
4
71
3
72
16
73
12
40
0
40
0
40
0
40
0
40
0.464304267159312
40
0.464304267159312
40
0.64753348514198
40
0.64753348514198
40
0.833383675860513
40
0.833383675860513
40
0.950238074309858
40
0.950238074309858
40
1
40
1
40
1
40
1
41
1
10
9.33660254037844
20
19.0245744101322
30
0
41
1
10
9.31929643456959
20
19.0449201888242
30
0
41
1
10
9.29554416795261
20
19.0647708693882
30
0
41
1
10
9.24667293447288
20
19.0892734034403
30
0
41
1
10
9.23079711658974
20
19.0959253431035
30
0
41
1
10
9.19394564855392
20
19.1078085849622
30
0
41
1
10
9.17240809259957
20
19.1131587398644
30
0
41
1
10
9.13286934844766
20
19.1192406569511
30
0
41
1
10
9.1161352553444
20
19.1209710216544
30
0
41
1
10
9.09170798023393
20
19.1221075563677
30
0
41
1
10
9.08424032311152
20
19.1222825906926
30
0
41
1
10
9.07679491924313
20
19.1222825906926
30
0
0
SPLINE
5
1F8
100
AcDbEntity
8
1
62
256
6
ByLayer
370
18
48
1
60
0
100
AcDbSpline
70
4
71
3
72
8
73
4
40
0
40
0
40
0
40
0
40
1
40
1
40
1
40
1
41
1
10
22.4361101793691
20
25.4228317485852
30
0
41
1
10
22.3130230042304
20
24.9523788303363
30
0
41
1
10
22.1901228022383
20
24.481874748863
30
0
41
1
10
22.0674431853701
20
24.0113106173276
30
0
0
SPLINE
5
1F9
100
AcDbEntity
8
1
62
256
6
ByLayer
370
18
48
1
60
0
100
AcDbSpline
70
4
71
3
72
10
73
6
40
0
40
0
40
0
40
0
40
0.5
40
0.5
40
1
40
1
40
1
40
1
41
1
10
21.5497935498981
20
0.660335249134278
30
0
41
1
10
22.5602259482278
20
-0.061456761082411
30
0
41
1
10
23.8598878021611
20
-0.381951336566317
30
0
41
1
10
26.2339389510787
20
0.175298732286393
30
0
41
1
10
27.2799021092182
20
1.09860154189184
30
0
41
1
10
27.6379589409236
20
2.28973441565154
30
0
0
SPLINE
5
1FA
100
AcDbEntity
8
1
62
256
6
ByLayer
370
18
48
1
60
0
100
AcDbSpline
70
4
71
2
72
6
73
3
40
0
40
0
40
0
40
1
40
1
40
1
41
1
10
18.9082438869225
20
3.58913777144573
30
0
41
1
10
19.3595385247115
20
3.44350441962138
30
0
41
1
10
19.7735056511898
20
3.5361515467998
30
0
0
SPLINE
5
1FB
100
AcDbEntity
8
1
62
256
6
ByLayer
370
18
48
1
60
0
100
AcDbSpline
70
4
71
3
72
16
73
12
40
0
40
0
40
0
40
0
40
0.114691258188362
40
0.114691258188362
40
0.256006982052503
40
0.256006982052503
40
0.47848150969845
40
0.47848150969845
40
0.904237458570186
40
0.904237458570186
40
1
40
1
40
1
40
1
41
1
10
9.0767949192431
20
-19.1222825906926
30
0
41
1
10
9.09376079941589
20
-19.1222825906926
30
0
41
1
10
9.11093746787589
20
-19.1213397893258
30
0
41
1
10
9.14653890153815
20
-19.117563257367
30
0
41
1
10
9.1649283126321
20
-19.1143205262483
30
0
41
1
10
9.20694798227834
20
-19.1044641374228
30
0
41
1
10
9.22859635065211
20
-19.0968571256395
30
0
41
1
10
9.28185513895582
20
-19.0732678361841
30
0
41
1
10
9.30640600056208
20
-19.0554522237109
30
0
41
1
10
9.32912053427441
20
-19.0329978954363
30
0
41
1
10
9.33300496589203
20
-19.0288038685174
30
0
41
1
10
9.33660254037846
20
-19.0245744101322
30
0
0
SPLINE
5
1FC
100
AcDbEntity
8
1
62
256
6
ByLayer
370
18
48
1
60
0
100
AcDbSpline
70
4
71
3
72
12
73
8
40
0
40
0
40
0
40
0
40
0.5
40
0.5
40
0.75
40
0.75
40
1
40
1
40
1
40
1
41
1
10
17.1464047269168
20
7.04402041334822
30
0
41
1
10
17.1617930866251
20
6.51634373146868
30
0
41
1
10
17.1840740699035
20
5.99804683228214
30
0
41
1
10
17.2643574310688
20
5.25155426876813
30
0
41
1
10
17.2988352440078
20
5.00321744222396
30
0
41
1
10
17.4141832621064
20
4.56228782752746
30
0
41
1
10
17.5176851138431
20
4.31883782135722
30
0
41
1
10
17.6502234644739
20
4.41236865527884
30
0
0
SPLINE
5
1FD
100
AcDbEntity
8
1
62
256
6
ByLayer
370
18
48
1
60
0
100
AcDbSpline
70
4
71
3
72
12
73
8
40
0
40
0
40
0
40
0
40
0.499998562505064
40
0.499998562505064
40
0.749999089468374
40
0.749999089468374
40
1
40
1
40
1
40
1
41
1
10
15.8175312796507
20
19.725465985399
30
0
41
1
10
15.8321753165282
20
19.7288116723115
30
0
41
1
10
15.84681689356
20
19.7321272881194
30
0
41
1
10
15.8687755049004
20
19.7370555676004
30
0
41
1
10
15.8760944408863
20
19.7386908088142
30
0
41
1
10
15.8907310504604
20
19.7419462364991
30
0
41
1
10
15.8980487268539
20
19.7435664235714
30
0
41
1
10
15.9053657608039
20
19.7451790786869
30
0
0
SPLINE
5
1FE
100
AcDbEntity
8
1
62
256
6
ByLayer
370
18
48
1
60
0
100
AcDbSpline
70
4
71
2
72
6
73
3
40
0
40
0
40
0
40
1
40
1
40
1
41
1
10
17.6561437111739
20
4.44696497482175
30
0
41
1
10
17.6640552274533
20
4.43842202081356
30
0
41
1
10
17.6719978584534
20
4.42993695185567
30
0
0
SPLINE
5
1FF
100
AcDbEntity
8
1
62
256
6
ByLayer
370
18
48
1
60
0
100
AcDbSpline
70
4
71
3
72
16
73
12
40
0
40
0
40
0
40
0
40
0.46430426715929
40
0.46430426715929
40
0.647533485141967
40
0.647533485141967
40
0.833383675860504
40
0.833383675860504
40
0.950238074309844
40
0.950238074309844
40
1
40
1
40
1
40
1
41
1
10
6.66339745962156
20
6.16973001948568
30
0
41
1
10
6.68070356543041
20
6.10699311212741
30
0
41
1
10
6.70445583204739
20
6.04466199750289
30
0
41
1
10
6.75332706552712
20
5.96658891111872
30
0
41
1
10
6.76920288341026
20
5.94525308185362
30
0
41
1
10
6.80605435144608
20
5.90694983484818
30
0
41
1
10
6.82759190740043
20
5.88959453036586
30
0
41
1
10
6.86713065155234
20
5.86981268651903
30
0
41
1
10
6.8838647446556
20
5.8641686994944
30
0
41
1
10
6.90829201976607
20
5.86046107106307
30
0
41
1
10
6.91575967688848
20
5.85988980456935
30
0
41
1
10
6.92320508075687
20
5.85988980456935
30
0
0
SPLINE
5
200
100
AcDbEntity
8
1
62
256
6
ByLayer
370
18
48
1
60
0
100
AcDbSpline
70
4
71
3
72
10
73
6
40
0
40
0
40
0
40
0
40
0.499900191247719
40
0.499900191247719
40
1
40
1
40
1
40
1
41
1
10
21.0651433124845
20
1.05167763498258
30
0
41
1
10
21.0937765824325
20
1.0258068749319
30
0
41
1
10
21.1226614058575
20
1.00021164414909
30
0
41
1
10
21.18094675009
20
0.949597172851924
30
0
41
1
10
21.2103504058203
20
0.924575625762429
30
0
41
1
10
21.2400090168667
20
0.899863087182069
30
0
0
SPLINE
5
201
100
AcDbEntity
8
1
62
256
6
ByLayer
370
18
48
1
60
0
100
AcDbSpline
70
4
71
3
72
16
73
12
40
0
40
0
40
0
40
0
40
0.464304267159293
40
0.464304267159293
40
0.647533485141969
40
0.647533485141969
40
0.833383675860506
40
0.833383675860506
40
0.950238074309852
40
0.950238074309852
40
1
40
1
40
1
40
1
41
1
10
6.66339745962156
20
-19.0245744101322
30
0
41
1
10
6.68070356543041
20
-19.0449201888242
30
0
41
1
10
6.70445583204739
20
-19.0647708693882
30
0
41
1
10
6.75332706552712
20
-19.0892734034403
30
0
41
1
10
6.76920288341026
20
-19.0959253431035
30
0
41
1
10
6.80605435144608
20
-19.1078085849622
30
0
41
1
10
6.82759190740043
20
-19.1131587398644
30
0
41
1
10
6.86713065155234
20
-19.1192406569511
30
0
41
1
10
6.8838647446556
20
-19.1209710216544
30
0
41
1
10
6.90829201976607
20
-19.1221075563677
30
0
41
1
10
6.91575967688848
20
-19.1222825906926
30
0
41
1
10
6.92320508075687
20
-19.1222825906926
30
0
0
SPLINE
5
202
100
AcDbEntity
8
SK1
62
256
6
ByLayer
370
18
48
1
60
0
100
AcDbSpline
70
4
71
3
72
22
73
18
40
0
40
0
40
0
40
0
40
0.0262442859026881
40
0.0262442859026881
40
0.0530261157854851
40
0.0530261157854851
40
0.0713559655737795
40
0.0713559655737795
40
0.0895874012639089
40
0.0895874012639089
40
0.119482247898519
40
0.119482247898519
40
0.178618886842945
40
0.178618886842945
40
0.388022338076953
40
0.388022338076953
40
1
40
1
40
1
40
1
41
1
10
-0.394976888875277
20
5.0009244140283
30
0
41
1
10
-0.389542958903149
20
4.99654803778401
30
0
41
1
10
-0.383617633691586
20
4.99263335383438
30
0
41
1
10
-0.370682657201087
20
4.98677476419829
30
0
41
1
10
-0.363425194676552
20
4.98483424058901
30
0
41
1
10
-0.350979181144169
20
4.98462903203949
30
0
41
1
10
-0.345738268039327
20
4.98542011278013
30
0
41
1
10
-0.335836240990062
20
4.98861553627458
30
0
41
1
10
-0.331061456711979
20
4.99102841332402
30
0
41
1
10
-0.319537139874143
20
4.9986715699325
30
0
41
1
10
-0.313226756018622
20
5.00478758784652
30
0
41
1
10
-0.29682625826149
20
5.02421063341325
30
0
41
1
10
-0.288455270980222
20
5.03906576138257
30
0
41
1
10
-0.256353055935392
20
5.10678482490906
30
0
41
1
10
-0.244000373144985
20
5.16381228581221
30
0
41
1
10
-0.204596889637315
20
5.38213882730372
30
0
41
1
10
-0.200000000000046
20
5.54465158381666
30
0
41
1
10
-0.200000000000046
20
5.70317614351262
30
0
0
SPLINE
5
203
100
AcDbEntity
8
SK1
62
256
6
ByLayer
370
18
48
1
60
0
100
AcDbSpline
70
4
71
3
72
30
73
26
40
0
40
0
40
0
40
0
40
0.337353368376273
40
0.337353368376273
40
0.421572476570396
40
0.421572476570396
40
0.437870507614647
40
0.437870507614647
40
0.454360744150349
40
0.454360744150349
40
0.46102437321649
40
0.46102437321649
40
0.467802724987302
40
0.467802724987302
40
0.473791453396888
40
0.473791453396888
40
0.481264268969724
40
0.481264268969724
40
0.494804301393218
40
0.494804301393218
40
0.541069262252274
40
0.541069262252274
40
0.762218024196531
40
0.762218024196531
40
1
40
1
40
1
40
1
41
1
10
-1.69999999999999
20
-2.5837250319525
30
0
41
1
10
-1.69946915813009
20
-2.45210484593008
30
0
41
1
10
-1.69760670671556
20
-2.31884997747196
30
0
41
1
10
-1.67915375522099
20
-2.15294187932722
30
0
41
1
10
-1.67485152519237
20
-2.11932442567118
30
0
41
1
10
-1.66472347048304
20
-2.08095979549279
30
0
41
1
10
-1.66287560510222
20
-2.07475454077749
30
0
41
1
10
-1.65846712486041
20
-2.06274931231133
30
0
41
1
10
-1.65588139752759
20
-2.05680133794195
30
0
41
1
10
-1.65120237663186
20
-2.0497680665317
30
0
41
1
10
-1.64969999009787
20
-2.04787870491481
30
0
41
1
10
-1.64639510213217
20
-2.0447894938039
30
0
41
1
10
-1.64453557847699
20
-2.04357912964019
30
0
41
1
10
-1.64096575658939
20
-2.04240828386776
30
0
41
1
10
-1.63922229186966
20
-2.04230771235822
30
0
41
1
10
-1.63551182442282
20
-2.04297037181766
30
0
41
1
10
-1.63353448434609
20
-2.04393506875687
30
0
41
1
10
-1.62845259442082
20
-2.04750201060256
30
0
41
1
10
-1.62558657915471
20
-2.0508033417303
30
0
41
1
10
-1.61425491864986
20
-2.06649024761731
30
0
41
1
10
-1.60795428020356
20
-2.08189579117942
30
0
41
1
10
-1.57473680217674
20
-2.17064161742221
30
0
41
1
10
-1.55852136531561
20
-2.25243693059593
30
0
41
1
10
-1.5247433730911
20
-2.41950302647342
30
0
41
1
10
-1.50941945205861
20
-2.5070083929059
30
0
41
1
10
-1.49503997793928
20
-2.59465115086951
30
0
0
SPLINE
5
204
100
AcDbEntity
8
SK1
62
256
6
ByLayer
370
18
48
1
60
0
100
AcDbSpline
70
4
71
3
72
24
73
20
40
0
40
0
40
0
40
0
40
0.470757791634908
40
0.470757791634908
40
0.661826126045254
40
0.661826126045254
40
0.85568916651581
40
0.85568916651581
40
0.884460546127643
40
0.884460546127643
40
0.91360691814161
40
0.91360691814161
40
0.932763100125268
40
0.932763100125268
40
0.95203909678233
40
0.95203909678233
40
0.974618894615272
40
0.974618894615272
40
1
40
1
40
1
40
1
41
1
10
-0.199999999999989
20
-5.70317605472911
30
0
41
1
10
-0.199999999999989
20
-5.58107998739831
30
0
41
1
10
-0.203895983734896
20
-5.45705658909691
30
0
41
1
10
-0.223509916035709
20
-5.28128624620587
30
0
41
1
10
-0.23086916609185
20
-5.23019697507434
30
0
41
1
10
-0.252992963272021
20
-5.12819212434212
30
0
41
1
10
-0.266168518183207
20
-5.0748758166919
30
0
41
1
10
-0.299311339940942
20
-5.02202983998879
30
0
41
1
10
-0.304166370278011
20
-5.01525404855027
30
0
41
1
10
-0.315232060467963
20
-5.00279573504582
30
0
41
1
10
-0.321587352348587
20
-4.99699852204864
30
0
41
1
10
-0.333432884234497
20
-4.98975078853741
30
0
41
1
10
-0.33858625385443
20
-4.98746585289803
30
0
41
1
10
-0.3491574393544
20
-4.98479989040243
30
0
41
1
10
-0.354703931885922
20
-4.98441392730476
30
0
41
1
10
-0.366193082216228
20
-4.98556317954746
30
0
41
1
10
-0.372213152675158
20
-4.98741181161262
30
0
41
1
10
-0.383950186909431
20
-4.99285513665984
30
0
41
1
10
-0.3896944310344
20
-4.99667072159761
30
0
41
1
10
-0.394976888882155
20
-5.00092508225598
30
0
0
SPLINE
5
205
100
AcDbEntity
8
SK1
62
256
6
ByLayer
370
18
48
1
60
0
100
AcDbSpline
70
4
71
3
72
22
73
18
40
0
40
0
40
0
40
0
40
0.0408146055975421
40
0.0408146055975421
40
0.0823243808208714
40
0.0823243808208714
40
0.113722137960843
40
0.113722137960843
40
0.144934004837801
40
0.144934004837801
40
0.197663645148653
40
0.197663645148653
40
0.33040493622216
40
0.33040493622216
40
0.796191409884692
40
0.796191409884692
40
1
40
1
40
1
40
1
41
1
10
-0.394976888875306
20
-5.00092508226666
30
0
41
1
10
-0.415530107853925
20
-5.01747813555136
30
0
41
1
10
-0.438024560131566
20
-5.03261131985604
30
0
41
1
10
-0.487324802537927
20
-5.05682200266617
30
0
41
1
10
-0.514951385379703
20
-5.065973715838
30
0
41
1
10
-0.565001076851473
20
-5.07238571210249
30
0
41
1
10
-0.587551462055302
20
-5.07198375916977
30
0
41
1
10
-0.630654498772856
20
-5.06497384681828
30
0
41
1
10
-0.651690830573216
20
-5.05839846240309
30
0
41
1
10
-0.704063404944179
20
-5.0354696203506
30
0
41
1
10
-0.733646054998758
20
-5.01537181535585
30
0
41
1
10
-0.825717517678271
20
-4.93804001611764
30
0
41
1
10
-0.875568215521128
20
-4.86927174197922
30
0
41
1
10
-1.06893868726922
20
-4.55513362670803
30
0
41
1
10
-1.15213866111816
20
-4.27852588598478
30
0
41
1
10
-1.25478905452405
20
-3.87761185644086
30
0
41
1
10
-1.28234760083203
20
-3.75339907142145
30
0
41
1
10
-1.30710678118763
20
-3.62781610099955
30
0
0
SPLINE
5
206
100
AcDbEntity
8
SK1
62
256
6
ByLayer
370
18
48
1
60
0
100
AcDbSpline
70
4
71
3
72
100
73
96
40
0
40
0
40
0
40
0
40
0.0043783247532282
40
0.0136712309453665
40
0.0229641371375048
40
0.0322570433296431
40
0.0415499495217814
40
0.0601357619060581
40
0.0787215742903348
40
0.0973073866746114
40
0.115893199058888
40
0.125186105251026
40
0.134479011443165
40
0.143771917635303
40
0.153064823827441
40
0.171650636211718
40
0.190236448595995
40
0.199529354788133
40
0.208822260980271
40
0.21811516717241
40
0.227408073364548
40
0.236700979556686
40
0.245993885748825
40
0.264579698133101
40
0.27387260432524
40
0.283165510517378
40
0.301751322901655
40
0.320337135285931
40
0.32963004147807
40
0.338922947670208
40
0.357508760054485
40
0.366801666246623
40
0.371448119342692
40
0.376094572438761
40
0.385387478630899
40
0.394680384823038
40
0.413266197207314
40
0.422559103399453
40
0.431852009591591
40
0.441144915783729
40
0.450437821975868
40
0.459730728168006
40
0.469023634360144
40
0.478316540552283
40
0.487609446744421
40
0.496902352936559
40
0.506195259128698
40
0.524781071512974
40
0.534073977705113
40
0.543366883897251
40
0.552659790089389
40
0.557306243185458
40
0.561952696281528
40
0.571245602473666
40
0.580538508665804
40
0.589831414857943
40
0.599124321050081
40
0.608417227242219
40
0.617710133434358
40
0.636295945818634
40
0.654881758202911
40
0.664174664395049
40
0.673467570587188
40
0.692053382971464
40
0.701346289163602
40
0.710639195355741
40
0.719932101547879
40
0.729225007740017
40
0.738517913932156
40
0.747810820124294
40
0.757103726316433
40
0.766396632508571
40
0.784982444892847
40
0.794275351084986
40
0.803568257277124
40
0.812861163469262
40
0.822154069661401
40
0.831446975853539
40
0.840739882045677
40
0.859325694429954
40
0.868618600622092
40
0.877911506814231
40
0.887204413006369
40
0.896497319198507
40
0.915083131582784
40
0.924376037774922
40
0.933668943967061
40
0.942961850159199
40
0.952254756351337
40
0.961547662543476
40
0.970840568735614
40
0.980133474927752
40
0.98942638111989
40
0.998719287312029
40
1
40
1
40
1
40
1
41
1
10
-0.394976888875306
20
-5.00092508225416
30
0
41
1
10
-0.394976888875306
20
-5.02359314607176
30
0
41
1
10
-0.394976888875306
20
-5.09425535366776
30
0
41
1
10
-0.394976888875306
20
-5.21232773830431
30
0
41
1
10
-0.394976888875306
20
-5.35463943777347
30
0
41
1
10
-0.394976888875306
20
-5.49591839522026
30
0
41
1
10
-0.394976888875306
20
-5.68302324398948
30
0
41
1
10
-0.394976888875306
20
-5.91406388300979
30
0
41
1
10
-0.394976888875306
20
-6.18726435105106
30
0
41
1
10
-0.394976888875306
20
-6.45627504712579
30
0
41
1
10
-0.394976888875306
20
-6.6768468885183
30
0
41
1
10
-0.394976888875306
20
-6.85136201549099
30
0
41
1
10
-0.394976888875306
20
-6.98112245032084
30
0
41
1
10
-0.394976888875306
20
-7.10982246715957
30
0
41
1
10
-0.394976888875306
20
-7.28009512097313
30
0
41
1
10
-0.394976888875306
20
-7.49008091096033
30
0
41
1
10
-0.394976888875306
20
-7.69650359935568
30
0
41
1
10
-0.394976888875306
20
-7.85964216476054
30
0
41
1
10
-0.394976888875306
20
-7.98086146605701
30
0
41
1
10
-0.394976888875306
20
-8.10100253994159
30
0
41
1
10
-0.394976888875306
20
-8.22006380191277
30
0
41
1
10
-0.394976888875306
20
-8.3380422654499
30
0
41
1
10
-0.394976888875306
20
-8.49397420958985
30
0
41
1
10
-0.394976888875306
20
-8.64751156797169
30
0
41
1
10
-0.394976888875306
20
-8.79907644696402
30
0
41
1
10
-0.394976888875306
20
-8.94918034619519
30
0
41
1
10
-0.394976888875306
20
-9.13390680482667
30
0
41
1
10
-0.394976888875306
20
-9.31494999082747
30
0
41
1
10
-0.394976888875306
20
-9.45767863215664
30
0
41
1
10
-0.394976888875306
20
-9.59892077296985
30
0
41
1
10
-0.394976888875306
20
-9.73773602301958
30
0
41
1
10
-0.394976888875306
20
-9.85736937045593
30
0
41
1
10
-0.394976888875306
20
-9.92517902838179
30
0
41
1
10
-0.394976888875306
20
-9.99261145812801
30
0
41
1
10
-0.394976888875306
20
-10.0761265678462
30
0
41
1
10
-0.394976888875306
20
-10.2083399899529
30
0
41
1
10
-0.394976888875306
20
-10.338096057249
30
0
41
1
10
-0.394976888875306
20
-10.4657231753345
30
0
41
1
10
-0.394976888875306
20
-10.5602461538978
30
0
41
1
10
-0.394976888875306
20
-10.6536100894112
30
0
41
1
10
-0.394976888875306
20
-10.7458098983122
30
0
41
1
10
-0.394976888875306
20
-10.8368404586376
30
0
41
1
10
-0.394976888875306
20
-10.9266969919675
30
0
41
1
10
-0.394976888875306
20
-11.0153746961414
30
0
41
1
10
-0.394976888875306
20
-11.1028676417001
30
0
41
1
10
-0.394976888875306
20
-11.1891707748317
30
0
41
1
10
-0.394976888875306
20
-11.3026972665534
30
0
41
1
10
-0.394976888875306
20
-11.413674138825
30
0
41
1
10
-0.394976888875306
20
-11.5223699808134
30
0
41
1
10
-0.394976888875306
20
-11.6026363770329
30
0
41
1
10
-0.394976888875306
20
-11.6684804460587
30
0
41
1
10
-0.394976888875306
20
-11.7205808983271
30
0
41
1
10
-0.394976888875306
20
-11.7722691819395
30
0
41
1
10
-0.394976888875306
20
-11.836053984022
30
0
41
1
10
-0.394976888875306
20
-11.9113764724791
30
0
41
1
10
-0.394976888875306
20
-11.9854459723214
30
0
41
1
10
-0.394976888875306
20
-12.0582544232072
30
0
41
1
10
-0.394976888875306
20
-12.1297946270485
30
0
41
1
10
-0.394976888875306
20
-12.2235215963167
30
0
41
1
10
-0.394976888875306
20
-12.3373769247913
30
0
41
1
10
-0.394976888875306
20
-12.446899173783
30
0
41
1
10
-0.394976888875306
20
-12.5319491682166
30
0
41
1
10
-0.394976888875306
20
-12.6152283642396
30
0
41
1
10
-0.394976888875306
20
-12.6957215996061
30
0
41
1
10
-0.394976888875306
20
-12.773610902979
30
0
41
1
10
-0.394976888875306
20
-12.8306328883531
30
0
41
1
10
-0.394976888875306
20
-12.8862769625636
30
0
41
1
10
-0.394976888875306
20
-12.940532100831
30
0
41
1
10
-0.394976888875306
20
-12.9933861205259
30
0
41
1
10
-0.394976888875306
20
-13.0448282543027
30
0
41
1
10
-0.394976888875306
20
-13.0948461430692
30
0
41
1
10
-0.394976888875306
20
-13.1596507828291
30
0
41
1
10
-0.394976888875306
20
-13.221467049789
30
0
41
1
10
-0.394976888875306
20
-13.2804176772461
30
0
41
1
10
-0.394976888875306
20
-13.3231185723383
30
0
41
1
10
-0.394976888875306
20
-13.3643136307331
30
0
41
1
10
-0.394976888875306
20
-13.4039879870964
30
0
41
1
10
-0.394976888875306
20
-13.4421262291561
30
0
41
1
10
-0.394976888875306
20
-13.490931201485
30
0
41
1
10
-0.394976888875306
20
-13.5365270011545
30
0
41
1
10
-0.394976888875306
20
-13.5789822078612
30
0
41
1
10
-0.394976888875306
20
-13.6091837809887
30
0
41
1
10
-0.394976888875306
20
-13.6377421279937
30
0
41
1
10
-0.394976888875306
20
-13.6736219491958
30
0
41
1
10
-0.394976888875306
20
-13.706079968468
30
0
41
1
10
-0.394976888875306
20
-13.7351343539634
30
0
41
1
10
-0.394976888875306
20
-13.7551609910392
30
0
41
1
10
-0.394976888875306
20
-13.7734119916164
30
0
41
1
10
-0.394976888875306
20
-13.7898613788954
30
0
41
1
10
-0.394976888875306
20
-13.8044829828858
30
0
41
1
10
-0.394976888875306
20
-13.8172491473121
30
0
41
1
10
-0.394976888875306
20
-13.8281307581185
30
0
41
1
10
-0.394976888875306
20
-13.8370980881852
30
0
41
1
10
-0.394976888875306
20
-13.8421014019358
30
0
41
1
10
-0.394976888875306
20
-13.8443373794894
30
0
41
1
10
-0.394976888875306
20
-13.8446019297682
30
0
0
SPLINE
5
207
100
AcDbEntity
8
SK1
62
256
6
ByLayer
370
18
48
1
60
0
100
AcDbSpline
70
4
71
3
72
24
73
20
40
0
40
0
40
0
40
0
40
0.408002420194574
40
0.408002420194574
40
0.586477084363329
40
0.586477084363329
40
0.763728221544513
40
0.763728221544513
40
0.83464833042642
40
0.83464833042642
40
0.871680147904128
40
0.871680147904128
40
0.909315863704638
40
0.909315863704638
40
0.941446160303591
40
0.941446160303591
40
0.988233002766673
40
0.988233002766673
40
1
40
1
40
1
40
1
41
1
10
-1.30710678118655
20
3.62781725664615
30
0
41
1
10
-1.25754709276271
20
3.87919081380429
30
0
41
1
10
-1.19771793926938
20
4.12580048883993
30
0
41
1
10
-1.07980138365164
20
4.46640123366592
30
0
41
1
10
-1.03947389583291
20
4.56855181342542
30
0
41
1
10
-0.943165684412492
20
4.76452984977917
30
0
41
1
10
-0.887972849225292
20
4.86076144162979
30
0
41
1
10
-0.781589632759733
20
4.97623115222154
30
0
41
1
10
-0.746942513659576
20
5.00751721259149
30
0
41
1
10
-0.685298347589708
20
5.04425501792002
30
0
41
1
10
-0.662073057062713
20
5.05499571071985
30
0
41
1
10
-0.612858105189787
20
5.06918922724967
30
0
41
1
10
-0.586087478285805
20
5.07253385323432
30
0
41
1
10
-0.537899014579068
20
5.06994558199364
30
0
41
1
10
-0.515734678473706
20
5.06532466911642
30
0
41
1
10
-0.465255653618982
20
5.04798484569733
30
0
41
1
10
-0.437776087568892
20
5.03248974169182
30
0
41
1
10
-0.406986543980821
20
5.01034621255963
30
0
41
1
10
-0.400907252385935
20
5.00570060770795
30
0
41
1
10
-0.394976888875277
20
5.00092441402839
30
0
0
SPLINE
5
208
100
AcDbEntity
8
SK1
62
256
6
ByLayer
370
18
48
1
60
0
100
AcDbSpline
70
4
71
3
72
10
73
6
40
0
40
0
40
0
40
0
40
0.5
40
0.5
40
1
40
1
40
1
40
1
41
1
10
-1.69999999999999
20
2.58372509632821
30
0
41
1
10
-1.83222262461143
20
1.751855044526
30
0
41
1
10
-1.92871617486691
20
0.884329181036094
30
0
41
1
10
-1.92842303871006
20
-0.888588835776119
30
0
41
1
10
-1.83224326233341
20
-1.75172436897285
30
0
41
1
10
-1.69999999999999
20
-2.58372503195247
30
0
0
SPLINE
5
209
100
AcDbEntity
8
SK1
62
256
6
ByLayer
370
18
48
1
60
0
100
AcDbSpline
70
4
71
3
72
8
73
4
40
0
40
0
40
0
40
0
40
1
40
1
40
1
40
1
41
1
10
-1.49503997793931
20
-2.59465115086957
30
0
41
1
10
-1.43729564430089
20
-2.94660231507382
30
0
41
1
10
-1.37345704405578
20
-3.29127575598179
30
0
41
1
10
-1.30710678118655
20
-3.6278161010051
30
0
0
SPLINE
5
20A
100
AcDbEntity
8
SK1
62
256
6
ByLayer
370
18
48
1
60
0
100
AcDbSpline
70
4
71
3
72
98
73
94
40
0
40
0
40
0
40
0
40
0.0012808740763045
40
0.0105737783742241
40
0.0198666826721437
40
0.0291595869700633
40
0.0384524912679829
40
0.0477453955659025
40
0.0663312041617417
40
0.0849170127575809
40
0.10350282135342
40
0.11279572565134
40
0.122088629949259
40
0.131381534247179
40
0.140674438545099
40
0.159260247140938
40
0.168553151438857
40
0.177846055736777
40
0.187138960034696
40
0.196431864332616
40
0.205724768630536
40
0.215017672928455
40
0.233603481524295
40
0.242896385822214
40
0.252189290120134
40
0.261482194418053
40
0.270775098715973
40
0.280068003013893
40
0.289360907311812
40
0.298653811609732
40
0.307946715907651
40
0.326532524503491
40
0.33582542880141
40
0.34511833309933
40
0.363704141695169
40
0.382289950291008
40
0.391582854588928
40
0.400875758886847
40
0.410168663184767
40
0.419461567482687
40
0.428754471780606
40
0.438047376078526
40
0.442693828227486
40
0.447340280376445
40
0.456633184674365
40
0.465926088972284
40
0.475218993270204
40
0.493804801866043
40
0.503097706163963
40
0.512390610461883
40
0.521683514759802
40
0.530976419057722
40
0.540269323355641
40
0.549562227653561
40
0.558855131951481
40
0.5681480362494
40
0.57744094054732
40
0.586733844845239
40
0.605319653441079
40
0.614612557738998
40
0.623905462036918
40
0.628551914185878
40
0.633198366334837
40
0.642491270632757
40
0.661077079228596
40
0.670369983526516
40
0.679662887824435
40
0.698248696420275
40
0.716834505016114
40
0.726127409314034
40
0.735420313611953
40
0.754006122207792
40
0.763299026505712
40
0.772591930803632
40
0.781884835101551
40
0.791177739399471
40
0.80047064369739
40
0.80976354799531
40
0.828349356591149
40
0.846935165186988
40
0.856228069484908
40
0.865520973782828
40
0.874813878080747
40
0.884106782378667
40
0.902692590974506
40
0.921278399570345
40
0.939864208166184
40
0.958450016762024
40
0.967742921059943
40
0.977035825357863
40
0.986328729655782
40
0.995621633953702
40
1
40
1
40
1
40
1
41
1
10
-0.394976888875277
20
13.8446015176322
30
0
41
1
10
-0.394976888875277
20
13.8443369604552
30
0
41
1
10
-0.394976888875277
20
13.842101166137
30
0
41
1
10
-0.394976888875277
20
13.8370982474882
30
0
41
1
10
-0.394976888875277
20
13.8281310063336
30
0
41
1
10
-0.394976888875277
20
13.8172492272358
30
0
41
1
10
-0.394976888875277
20
13.8044829705053
30
0
41
1
10
-0.394976888875277
20
13.7849758313288
30
0
41
1
10
-0.394976888875277
20
13.7560496751861
30
0
41
1
10
-0.394976888875277
20
13.7142204148031
30
0
41
1
10
-0.394976888875277
20
13.6736219510479
30
0
41
1
10
-0.394976888875277
20
13.6377421071264
30
0
41
1
10
-0.394976888875277
20
13.6091837483775
30
0
41
1
10
-0.394976888875277
20
13.5789821852606
30
0
41
1
10
-0.394976888875277
20
13.5365270016785
30
0
41
1
10
-0.394976888875277
20
13.4909311840823
30
0
41
1
10
-0.394976888875277
20
13.4421262012037
30
0
41
1
10
-0.394976888875277
20
13.4039879614121
30
0
41
1
10
-0.394976888875277
20
13.3643136176474
30
0
41
1
10
-0.394976888875277
20
13.3231185671574
30
0
41
1
10
-0.394976888875277
20
13.2804176635455
30
0
41
1
10
-0.394976888875277
20
13.2214670183476
30
0
41
1
10
-0.394976888875277
20
13.1596507604527
30
0
41
1
10
-0.394976888875277
20
13.094846134259
30
0
41
1
10
-0.394976888875277
20
13.0448282447276
30
0
41
1
10
-0.394976888875277
20
12.9933861020735
30
0
41
1
10
-0.394976888875277
20
12.9405320737836
30
0
41
1
10
-0.394976888875277
20
12.8862769376535
30
0
41
1
10
-0.394976888875277
20
12.8306328717281
30
0
41
1
10
-0.394976888875277
20
12.7736108931729
30
0
41
1
10
-0.394976888875277
20
12.6957215859151
30
0
41
1
10
-0.394976888875277
20
12.6152283382819
30
0
41
1
10
-0.394976888875277
20
12.5319491453114
30
0
41
1
10
-0.394976888875277
20
12.4468991604423
30
0
41
1
10
-0.394976888875277
20
12.3373769122162
30
0
41
1
10
-0.394976888875277
20
12.2235215734124
30
0
41
1
10
-0.394976888875277
20
12.1297946053789
30
0
41
1
10
-0.394976888875277
20
12.0582544060742
30
0
41
1
10
-0.394976888875277
20
11.9854459580753
30
0
41
1
10
-0.394976888875277
20
11.9113764581405
30
0
41
1
10
-0.394976888875277
20
11.8360539668501
30
0
41
1
10
-0.394976888875277
20
11.7722691621604
30
0
41
1
10
-0.394976888875277
20
11.7205808778945
30
0
41
1
10
-0.394976888875277
20
11.6684804259269
30
0
41
1
10
-0.394976888875277
20
11.6026363586083
30
0
41
1
10
-0.394976888875277
20
11.5223699646631
30
0
41
1
10
-0.394976888875277
20
11.4136741241806
30
0
41
1
10
-0.394976888875277
20
11.3026972493618
30
0
41
1
10
-0.394976888875277
20
11.1891707558493
30
0
41
1
10
-0.394976888875277
20
11.102867622286
30
0
41
1
10
-0.394976888875277
20
11.0153746780185
30
0
41
1
10
-0.394976888875277
20
10.9266969759659
30
0
41
1
10
-0.394976888875277
20
10.8368404439692
30
0
41
1
10
-0.394976888875277
20
10.74580988339
30
0
41
1
10
-0.394976888875277
20
10.6536100721469
30
0
41
1
10
-0.394976888875277
20
10.5602461340712
30
0
41
1
10
-0.394976888875277
20
10.4657231550753
30
0
41
1
10
-0.394976888875277
20
10.3380960413352
30
0
41
1
10
-0.394976888875277
20
10.2083399780688
30
0
41
1
10
-0.394976888875277
20
10.0761265525343
30
0
41
1
10
-0.394976888875277
20
9.99261143893298
30
0
41
1
10
-0.394976888875277
20
9.92517900727512
30
0
41
1
10
-0.394976888875277
20
9.85736934874495
30
0
41
1
10
-0.394976888875277
20
9.73773600630287
30
0
41
1
10
-0.394976888875277
20
9.59892076352932
30
0
41
1
10
-0.394976888875277
20
9.45767861814849
30
0
41
1
10
-0.394976888875277
20
9.3149499665038
30
0
41
1
10
-0.394976888875277
20
9.13390678694702
30
0
41
1
10
-0.394976888875277
20
8.94918033853523
30
0
41
1
10
-0.394976888875277
20
8.79907643306458
30
0
41
1
10
-0.394976888875277
20
8.64751154095558
30
0
41
1
10
-0.394976888875277
20
8.49397418950429
30
0
41
1
10
-0.394976888875277
20
8.33804225713789
30
0
41
1
10
-0.394976888875277
20
8.22006379392718
30
0
41
1
10
-0.394976888875277
20
8.10100252302422
30
0
41
1
10
-0.394976888875277
20
7.98086143927398
30
0
41
1
10
-0.394976888875277
20
7.85964213989763
30
0
41
1
10
-0.394976888875277
20
7.69650359349293
30
0
41
1
10
-0.394976888875277
20
7.49008089634199
30
0
41
1
10
-0.394976888875277
20
7.28009509164627
30
0
41
1
10
-0.394976888875277
20
7.10982244878713
30
0
41
1
10
-0.394976888875277
20
6.98112244545175
30
0
41
1
10
-0.394976888875277
20
6.85136200824962
30
0
41
1
10
-0.394976888875277
20
6.67684685573994
30
0
41
1
10
-0.394976888875277
20
6.45627503636445
30
0
41
1
10
-0.394976888875277
20
6.18726433662556
30
0
41
1
10
-0.394976888875277
20
5.91406385279547
30
0
41
1
10
-0.394976888875277
20
5.68302324019061
30
0
41
1
10
-0.394976888875277
20
5.49591838220567
30
0
41
1
10
-0.394976888875277
20
5.35463940810163
30
0
41
1
10
-0.394976888875277
20
5.21232773385495
30
0
41
1
10
-0.394976888875277
20
5.09425517295406
30
0
41
1
10
-0.394976888875277
20
5.02359271293304
30
0
41
1
10
-0.394976888875277
20
5.0009244140283
30
0
0
SPLINE
5
20B
100
AcDbEntity
8
SK1
62
256
6
ByLayer
370
18
48
1
60
0
100
AcDbSpline
70
4
71
3
72
8
73
4
40
0
40
0
40
0
40
0
40
1
40
1
40
1
40
1
41
1
10
-1.30710678118655
20
3.62781725664615
30
0
41
1
10
-1.37345758266253
20
3.29127686428785
30
0
41
1
10
-1.4372955614198
20
2.946602671997
30
0
41
1
10
-1.49503997793931
20
2.59465115838313
30
0
0
SPLINE
5
20C
100
AcDbEntity
8
SK1
62
256
6
ByLayer
370
18
48
1
60
0
100
AcDbSpline
70
4
71
3
72
32
73
28
40
0
40
0
40
0
40
0
40
0.335339404831972
40
0.335339404831972
40
0.429287156787091
40
0.429287156787091
40
0.47567705376244
40
0.47567705376244
40
0.494539743197707
40
0.494539743197707
40
0.513645880085613
40
0.513645880085613
40
0.520504273461007
40
0.520504273461007
40
0.527488218290634
40
0.527488218290634
40
0.533551201014328
40
0.533551201014328
40
0.540998152878254
40
0.540998152878254
40
0.554393631774451
40
0.554393631774451
40
0.598967269657032
40
0.598967269657032
40
0.809317334416222
40
0.809317334416222
40
1
40
1
40
1
40
1
41
1
10
-1.49503997793931
20
2.59465115838304
30
0
41
1
10
-1.51545804662706
20
2.47020327904033
30
0
41
1
10
-1.5371392192427
20
2.34554891087819
30
0
41
1
10
-1.57392592094843
20
2.19043955590803
30
0
41
1
10
-1.58255890853934
20
2.15670217135892
30
0
41
1
10
-1.5980595693656
20
2.1081468839686
30
0
41
1
10
-1.60359902440038
20
2.09231222948606
30
0
41
1
10
-1.61296122457534
20
2.07152520286885
30
0
41
1
10
-1.6158696741316
20
2.0656737244498
30
0
41
1
10
-1.62242426172162
20
2.05481886173052
30
0
41
1
10
-1.62611615645159
20
2.04963161073078
30
0
41
1
10
-1.63217263701876
20
2.04479089552191
30
0
41
1
10
-1.63391092603902
20
2.04372430879368
30
0
41
1
10
-1.63759701012464
20
2.04243943769597
30
0
41
1
10
-1.63960513001732
20
2.04224314885471
30
0
41
1
10
-1.64327142014687
20
2.04303363449088
30
0
41
1
10
-1.64498274878696
20
2.04388024545895
30
0
41
1
10
-1.64846923771176
20
2.04652261877811
30
0
41
1
10
-1.65023197368771
20
2.04850621085967
30
0
41
1
10
-1.65459297944469
20
2.05462030362457
30
0
41
1
10
-1.65687449353447
20
2.05928542847226
30
0
41
1
10
-1.66535432668744
20
2.07982184742582
30
0
41
1
10
-1.66919635898847
20
2.09736547364699
30
0
41
1
10
-1.68800967157858
20
2.19569498442294
30
0
41
1
10
-1.6917465712958
20
2.27904221250569
30
0
41
1
10
-1.69840552504974
20
2.43548746422863
30
0
41
1
10
-1.69970172620592
20
2.50976932903754
30
0
41
1
10
-1.69999999999999
20
2.58372509632824
30
0
0
INSERT
5
21E
100
AcDbEntity
8
2
62
256
6
ByLayer
370
25
48
1
60
0
100
AcDbBlockReference
2
DimnDraft3D11
10
0
20
0
30
0
41
1
42
1
43
1
50
0
210
0
220
0
230
1
0
LINE
5
72
100
AcDbEntity
8
1
62
256
6
ByLayer
370
18
48
1
60
0
100
AcDbLine
10
32.264923
20
10.414922
30
0
11
32.574736
21
10.593792
31
0
39
0
210
0
220
0
230
1
0
LINE
5
74
100
AcDbEntity
8
1
62
256
6
ByLayer
370
18
48
1
60
0
100
AcDbLine
10
18.783896
20
-4.17026
30
0
11
18.591639
21
-4.080609
31
0
39
0
210
0
220
0
230
1
0
LINE
5
75
100
AcDbEntity
8
1
62
256
6
ByLayer
370
18
48
1
60
0
100
AcDbLine
10
17.311558
20
-8.058307
30
0
11
19.720306
21
-7.181594
31
0
39
0
210
0
220
0
230
1
0
LINE
5
76
100
AcDbEntity
8
1
62
256
6
ByLayer
370
18
48
1
60
0
100
AcDbLine
10
0.3
20
-20
30
0
11
20.920792
21
-20
31
0
39
0
210
0
220
0
230
1
0
LINE
5
77
100
AcDbEntity
8
1
62
256
6
ByLayer
370
18
48
1
60
0
100
AcDbLine
10
0.3
20
20
30
0
11
0
21
19.7
31
0
39
0
210
0
220
0
230
1
0
LINE
5
78
100
AcDbEntity
8
1
62
256
6
ByLayer
370
18
48
1
60
0
100
AcDbLine
10
0
20
-19.7
30
0
11
0.3
21
-20
31
0
39
0
210
0
220
0
230
1
0
LINE
5
79
100
AcDbEntity
8
1
62
256
6
ByLayer
370
18
48
1
60
0
100
AcDbLine
10
20.960985
20
-20.15
30
0
11
21.495938
21
-20.15
31
0
39
0
210
0
220
0
230
1
0
LINE
5
7A
100
AcDbEntity
8
1
62
256
6
ByLayer
370
18
48
1
60
0
100
AcDbLine
10
22.373945
20
25.423238
30
0
11
20.920792
21
20
31
0
39
0
210
0
220
0
230
1
0
LINE
5
7B
100
AcDbEntity
8
1
62
256
6
ByLayer
370
18
48
1
60
0
100
AcDbLine
10
20.920792
20
-20
30
0
11
20.960985
21
-20.15
31
0
39
0
210
0
220
0
230
1
0
LINE
5
7C
100
AcDbEntity
8
1
62
256
6
ByLayer
370
18
48
1
60
0
100
AcDbLine
10
21.602379
20
18.921442
30
0
11
20.92659
21
18.712462
31
0
39
0
210
0
220
0
230
1
0
LINE
5
7D
100
AcDbEntity
8
1
62
256
6
ByLayer
370
18
48
1
60
0
100
AcDbLine
10
37.976106
20
24.98556
30
0
11
37.421997
21
24.665645
31
0
39
0
210
0
220
0
230
1
0
LINE
5
7E
100
AcDbEntity
8
1
62
256
6
ByLayer
370
18
48
1
60
0
100
AcDbLine
10
20.694945
20
18.62707
30
0
11
18.999721
21
17.897428
31
0
39
0
210
0
220
0
230
1
0
LINE
5
7F
100
AcDbEntity
8
1
62
256
6
ByLayer
370
18
48
1
60
0
100
AcDbLine
10
48.365122
20
9.273898
30
0
11
48.747988
21
9.494946
31
0
39
0
210
0
220
0
230
1
0
LINE
5
80
100
AcDbEntity
8
1
62
256
6
ByLayer
370
18
48
1
60
0
100
AcDbLine
10
24.586772
20
15.125128
30
0
11
25.178455
21
15.379795
31
0
39
0
210
0
220
0
230
1
0
LINE
5
81
100
AcDbEntity
8
1
62
256
6
ByLayer
370
18
48
1
60
0
100
AcDbLine
10
17.585986
20
15.070261
30
0
11
20.107564
21
5.956645
31
0
39
0
210
0
220
0
230
1
0
LINE
5
82
100
AcDbEntity
8
1
62
256
6
ByLayer
370
18
48
1
60
0
100
AcDbLine
10
16.885124
20
-7.983115
30
0
11
17.311558
21
-8.058307
31
0
39
0
210
0
220
0
230
1
0
LINE
5
83
100
AcDbEntity
8
1
62
256
6
ByLayer
370
18
48
1
60
0
100
AcDbLine
10
18.591639
20
-4.080609
30
0
11
16.421132
21
-4.870609
31
0
39
0
210
0
220
0
230
1
0
LINE
5
84
100
AcDbEntity
8
1
62
256
6
ByLayer
370
18
48
1
60
0
100
AcDbLine
10
19.720306
20
-7.181594
30
0
11
19.809956
21
-6.989337
31
0
39
0
210
0
220
0
230
1
0
LINE
5
85
100
AcDbEntity
8
1
62
256
6
ByLayer
370
18
48
1
60
0
100
AcDbLine
10
20.920792
20
20
30
0
11
0.3
21
20
31
0
39
0
210
0
220
0
230
1
0
LINE
5
86
100
AcDbEntity
8
1
62
256
6
ByLayer
370
18
48
1
60
0
100
AcDbLine
10
29.24957
20
14.094083
30
0
11
29.369124
21
14.163107
31
0
39
0
210
0
220
0
230
1
0
LINE
5
87
100
AcDbEntity
8
1
62
256
6
ByLayer
370
18
48
1
60
0
100
AcDbLine
10
30.896599
20
12.957242
30
0
11
30.610113
21
12.79184
31
0
39
0
210
0
220
0
230
1
0
LINE
5
88
100
AcDbEntity
8
1
62
256
6
ByLayer
370
18
48
1
60
0
100
AcDbLine
10
30.187119
20
15.120582
30
0
11
30.473605
21
15.285985
31
0
39
0
210
0
220
0
230
1
0
LINE
5
89
100
AcDbEntity
8
1
62
256
6
ByLayer
370
18
48
1
60
0
100
AcDbLine
10
32.001079
20
14.08012
30
0
11
31.714593
21
13.914718
31
0
39
0
210
0
220
0
230
1
0
LINE
5
8A
100
AcDbEntity
8
1
62
256
6
ByLayer
370
18
48
1
60
0
100
AcDbLine
10
28.574736
20
17.521996
30
0
11
28.264923
21
17.343125
31
0
39
0
210
0
220
0
230
1
0
LINE
5
8B
100
AcDbEntity
8
80
62
256
6
ByLayer
370
18
48
1
60
0
100
AcDbLine
10
0
20
0
30
0
11
-5
21
0
31
0
39
0
210
0
220
0
230
1
0
LINE
5
8C
100
AcDbEntity
8
4
62
256
6
ByLayer
370
18
48
0.05
60
0
100
AcDbLine
10
0
20
0
30
0
11
50
21
0
31
0
39
0
210
0
220
0
230
1
0
LINE
5
8E
100
AcDbEntity
8
81
62
256
6
ByLayer
370
18
48
1
60
0
100
AcDbLine
10
50
20
22
30
0
11
60
21
22
31
0
39
0
210
0
220
0
230
1
0
LINE
5
8F
100
AcDbEntity
8
SK4
62
256
6
ByLayer
370
18
48
0.05
60
0
100
AcDbLine
10
-29
20
0
30
0
11
50
21
0
31
0
39
0
210
0
220
0
230
1
0
LINE
5
91
100
AcDbEntity
8
1
62
256
6
ByLayer
370
18
48
1
60
0
100
AcDbLine
10
37.355329
20
21.338631
30
0
11
37.588028
21
24.366558
31
0
39
0
210
0
220
0
230
1
0
LINE
5
92
100
AcDbEntity
8
1
62
256
6
ByLayer
370
18
48
1
60
0
100
AcDbLine
10
48.15512
20
9.417572
30
0
11
41.077793
21
11.313936
31
0
39
0
210
0
220
0
230
1
0
LINE
5
93
100
AcDbEntity
8
1
62
256
6
ByLayer
370
18
48
1
60
0
100
AcDbLine
10
37.53072
20
24.333472
30
0
11
37.588028
21
24.366558
31
0
39
0
210
0
220
0
230
1
0
LINE
5
94
100
AcDbEntity
8
1
62
256
6
ByLayer
370
18
48
1
60
0
100
AcDbLine
10
48.11062
20
9.39188
30
0
11
48.15512
21
9.417572
31
0
39
0
210
0
220
0
230
1
0
LINE
5
95
100
AcDbEntity
8
1
62
256
6
ByLayer
370
18
48
1
60
0
100
AcDbLine
10
40.73073
20
10.552623
30
0
11
40.204325
21
10.693673
31
0
39
0
210
0
220
0
230
1
0
LINE
5
96
100
AcDbEntity
8
1
62
256
6
ByLayer
370
18
48
1
60
0
100
AcDbLine
10
40.393108
20
10.339304
30
0
11
39.893706
21
10.473119
31
0
39
0
210
0
220
0
230
1
0
LINE
5
97
100
AcDbEntity
8
1
62
256
6
ByLayer
370
18
48
1
60
0
100
AcDbLine
10
29.263614
20
14.104792
30
0
11
29.330562
21
14.143445
31
0
39
0
210
0
220
0
230
1
0
LINE
5
98
100
AcDbEntity
8
1
62
256
6
ByLayer
370
18
48
1
60
0
100
AcDbLine
10
32.264923
20
10.414922
30
0
11
32.265159
21
10.415058
31
0
39
0
210
0
220
0
230
1
0
LINE
5
99
100
AcDbEntity
8
1
62
256
6
ByLayer
370
18
48
1
60
0
100
AcDbLine
10
16.605452
20
-9.880252
30
0
11
16.809279
21
-10.440263
31
0
39
0
210
0
220
0
230
1
0
LINE
5
9A
100
AcDbEntity
8
1
62
256
6
ByLayer
370
18
48
1
60
0
100
AcDbLine
10
16.809279
20
-10.440263
30
0
11
16.743651
21
-10.46415
31
0
39
0
210
0
220
0
230
1
0
LINE
5
9B
100
AcDbEntity
8
1
62
256
6
ByLayer
370
18
48
1
60
0
100
AcDbLine
10
16.594223
20
-8.193975
30
0
11
16.393729
21
-7.643123
31
0
39
0
210
0
220
0
230
1
0
LINE
5
9C
100
AcDbEntity
8
1
62
256
6
ByLayer
370
18
48
1
60
0
100
AcDbLine
10
16.885124
20
-7.983115
30
0
11
16.393733
21
-6.63303
31
0
39
0
210
0
220
0
230
1
0
LINE
5
9D
100
AcDbEntity
8
1
62
256
6
ByLayer
370
18
48
1
60
0
100
AcDbLine
10
16.747225
20
-6.507814
30
0
11
17.311558
21
-8.058307
31
0
39
0
210
0
220
0
230
1
0
LINE
5
9E
100
AcDbEntity
8
1
62
256
6
ByLayer
370
18
48
1
60
0
100
AcDbLine
10
16.403622
20
-5.563773
30
0
11
16.747225
21
-6.507814
31
0
39
0
210
0
220
0
230
1
0
LINE
5
9F
100
AcDbEntity
8
1
62
256
6
ByLayer
370
18
48
1
60
0
100
AcDbLine
10
18.591639
20
-4.080609
30
0
11
19.720306
21
-7.181594
31
0
39
0
210
0
220
0
230
1
0
LINE
5
A0
100
AcDbEntity
8
1
62
256
6
ByLayer
370
18
48
1
60
0
100
AcDbLine
10
19.296926
20
-5.579799
30
0
11
19.809956
21
-6.989337
31
0
39
0
210
0
220
0
230
1
0
LINE
5
A1
100
AcDbEntity
8
1
62
256
6
ByLayer
370
18
48
1
60
0
100
AcDbLine
10
18.783896
20
-4.17026
30
0
11
19.296926
21
-5.579799
31
0
39
0
210
0
220
0
230
1
0
LINE
5
A2
100
AcDbEntity
8
1
62
256
6
ByLayer
370
18
48
1
60
0
100
AcDbLine
10
43.487308
20
13.586982
30
0
11
42.497701
21
12.844311
31
0
39
0
210
0
220
0
230
1
0
LINE
5
A3
100
AcDbEntity
8
1
62
256
6
ByLayer
370
18
48
1
60
0
100
AcDbLine
10
45.801036
20
14.80272
30
0
11
45.506725
21
15.045005
31
0
39
0
210
0
220
0
230
1
0
LINE
5
A4
100
AcDbEntity
8
1
62
256
6
ByLayer
370
18
48
1
60
0
100
AcDbLine
10
44.137809
20
20.814043
30
0
11
44.021773
21
20.411996
31
0
39
0
210
0
220
0
230
1
0
LINE
5
A5
100
AcDbEntity
8
1
62
256
6
ByLayer
370
18
48
1
60
0
100
AcDbLine
10
41.534987
20
20.643162
30
0
11
40.301084
21
20.783438
31
0
39
0
210
0
220
0
230
1
0
LINE
5
A6
100
AcDbEntity
8
1
62
256
6
ByLayer
370
18
48
1
60
0
100
AcDbLine
10
20.920792
20
20
30
0
11
20.920792
21
19.927961
31
0
39
0
210
0
220
0
230
1
0
LINE
5
A7
100
AcDbEntity
8
1
62
256
6
ByLayer
370
18
48
1
60
0
100
AcDbLine
10
20.920792
20
-19.595386
30
0
11
20.920792
21
-20
31
0
39
0
210
0
220
0
230
1
0
LINE
5
A8
100
AcDbEntity
8
1
62
256
6
ByLayer
370
18
48
1
60
0
100
AcDbLine
10
0.3
20
-20
30
0
11
0.3
21
20
31
0
39
0
210
0
220
0
230
1
0
LINE
5
A9
100
AcDbEntity
8
1
62
256
6
ByLayer
370
18
48
1
60
0
100
AcDbLine
10
0
20
-19.7
30
0
11
0
21
19.7
31
0
39
0
210
0
220
0
230
1
0
LINE
5
AA
100
AcDbEntity
8
SK1
62
256
6
ByLayer
370
18
48
1
60
0
100
AcDbLine
10
-0.2
20
5.703176
30
0
11
-0.2
21
14.083485
31
0
39
0
210
0
220
0
230
1
0
LINE
5
AC
100
AcDbEntity
8
SK1
62
256
6
ByLayer
370
18
48
1
60
0
100
AcDbLine
10
-0.2
20
-14.083485
30
0
11
-0.2
21
-5.703176
31
0
39
0
210
0
220
0
230
1
0
LINE
5
AD
100
AcDbEntity
8
1
62
256
6
ByLayer
370
18
48
1
60
0
100
AcDbLine
10
16.809278
20
-10.440259
30
0
11
16.815887
21
-10.458416
31
0
39
0
210
0
220
0
230
1
0
LINE
5
AE
100
AcDbEntity
8
1
62
256
6
ByLayer
370
18
48
1
60
0
100
AcDbLine
10
17.357044
20
-11.945234
30
0
11
17.357044
21
-8.041768
31
0
39
0
210
0
220
0
230
1
0
LINE
5
AF
100
AcDbEntity
8
1
62
256
6
ByLayer
370
18
48
1
60
0
100
AcDbLine
10
17.656127
20
4.446983
30
0
11
17.185576
21
6.147674
31
0
39
0
210
0
220
0
230
1
0
LINE
5
B0
100
AcDbEntity
8
1
62
256
6
ByLayer
370
18
48
1
60
0
100
AcDbLine
10
27.304993
20
5.469026
30
0
11
27.707121
21
3.672231
31
0
39
0
210
0
220
0
230
1
0
LINE
5
B1
100
AcDbEntity
8
1
62
256
6
ByLayer
370
18
48
1
60
0
100
AcDbLine
10
29.32029
20
6.037411
30
0
11
36.399094
21
-6.223437
31
0
39
0
210
0
220
0
230
1
0
LINE
5
B2
100
AcDbEntity
8
1
62
256
6
ByLayer
370
18
48
1
60
0
100
AcDbLine
10
20.960985
20
-20.15
30
0
11
20.960985
21
-19.748713
31
0
39
0
210
0
220
0
230
1
0
LINE
5
B3
100
AcDbEntity
8
1
62
256
6
ByLayer
370
18
48
1
60
0
100
AcDbLine
10
23.321154
20
21.134437
30
0
11
23.770087
21
19.511882
31
0
39
0
210
0
220
0
230
1
0
LINE
5
B4
100
AcDbEntity
8
1
62
256
6
ByLayer
370
18
48
1
60
0
100
AcDbLine
10
37.20333
20
21.352028
30
0
11
37.457258
21
24.656195
31
0
39
0
210
0
220
0
230
1
0
LINE
5
B5
100
AcDbEntity
8
1
62
256
6
ByLayer
370
18
48
1
60
0
100
AcDbLine
10
37.548686
20
24.56712
30
0
11
37.300953
21
21.343558
31
0
39
0
210
0
220
0
230
1
0
LINE
5
B6
100
AcDbEntity
8
1
62
256
6
ByLayer
370
18
48
1
60
0
100
AcDbLine
10
41.527951
20
11.143846
30
0
11
41.750164
21
11.085342
31
0
39
0
210
0
220
0
230
1
0
LINE
5
B7
100
AcDbEntity
8
1
62
256
6
ByLayer
370
18
48
1
60
0
100
AcDbLine
10
48.312014
20
9.357754
30
0
11
48.326035
21
9.354063
31
0
39
0
210
0
220
0
230
1
0
LINE
5
B8
100
AcDbEntity
8
1
62
256
6
ByLayer
370
18
48
1
60
0
100
AcDbLine
10
40.617252
20
10.501772
30
0
11
40.650206
21
10.493096
31
0
39
0
210
0
220
0
230
1
0
LINE
5
B9
100
AcDbEntity
8
1
62
256
6
ByLayer
370
18
48
1
60
0
100
AcDbLine
10
40.654775
20
10.496454
30
0
11
40.61815
21
10.506097
31
0
39
0
210
0
220
0
230
1
0
LINE
5
BA
100
AcDbEntity
8
1
62
256
6
ByLayer
370
18
48
1
60
0
100
AcDbLine
10
46.532029
20
16.098659
30
0
11
46.235669
21
15.621869
31
0
39
0
210
0
220
0
230
1
0
LINE
5
BB
100
AcDbEntity
8
1
62
256
6
ByLayer
370
18
48
1
60
0
100
AcDbLine
10
43.487293
20
13.58697
30
0
11
42.836551
21
13.124911
31
0
39
0
210
0
220
0
230
1
0
LINE
5
BC
100
AcDbEntity
8
1
62
256
6
ByLayer
370
18
48
1
60
0
100
AcDbLine
10
40.737124
20
20.712772
30
0
11
41.534968
21
20.643164
31
0
39
0
210
0
220
0
230
1
0
LINE
5
BD
100
AcDbEntity
8
1
62
256
6
ByLayer
370
18
48
1
60
0
100
AcDbLine
10
45.425539
20
20.097794
30
0
11
44.9422
21
20.296791
31
0
39
0
210
0
220
0
230
1
0
LINE
5
BE
100
AcDbEntity
8
1
62
256
6
ByLayer
370
18
48
1
60
0
100
AcDbLine
10
40.73103
20
10.552812
30
0
11
40.204626
21
10.693861
31
0
39
0
210
0
220
0
230
1
0
LINE
5
BF
100
AcDbEntity
8
1
62
256
6
ByLayer
370
18
48
1
60
0
100
AcDbLine
10
30.43516
20
12.594431
30
0
11
30.721646
21
12.759833
31
0
39
0
210
0
220
0
230
1
0
LINE
5
C0
100
AcDbEntity
8
1
62
256
6
ByLayer
370
18
48
1
60
0
100
AcDbLine
10
29.729049
20
15.146493
30
0
11
30.015535
21
15.311895
31
0
39
0
210
0
220
0
230
1
0
LINE
5
C1
100
AcDbEntity
8
1
62
256
6
ByLayer
370
18
48
1
60
0
100
AcDbLine
10
31.589552
20
13.295984
30
0
11
31.876038
21
13.461386
31
0
39
0
210
0
220
0
230
1
0
LINE
5
C2
100
AcDbEntity
8
1
62
256
6
ByLayer
370
18
48
1
60
0
100
AcDbLine
10
31.083589
20
15.124662
30
0
11
31.370075
21
15.290064
31
0
39
0
210
0
220
0
230
1
0
LINE
5
C3
100
AcDbEntity
8
1
62
256
6
ByLayer
370
18
48
1
60
0
100
AcDbLine
10
31.553008
20
14.657764
30
0
11
31.839494
21
14.823167
31
0
39
0
210
0
220
0
230
1
0
LINE
5
C4
100
AcDbEntity
8
1
62
256
6
ByLayer
370
18
48
1
60
0
100
AcDbLine
10
24.664619
20
8.137813
30
0
11
21.513784
21
7.163454
31
0
39
0
210
0
220
0
230
1
0
LINE
5
C5
100
AcDbEntity
8
1
62
256
6
ByLayer
370
18
48
1
60
0
100
AcDbLine
10
42.414224
20
12.866876
30
0
11
42.391219
21
12.855546
31
0
39
0
210
0
220
0
230
1
0
LINE
5
C6
100
AcDbEntity
8
1
62
256
6
ByLayer
370
18
48
1
60
0
100
AcDbLine
10
24.862753
20
5.788097
30
0
11
34.073455
21
8.283469
31
0
39
0
210
0
220
0
230
1
0
LINE
5
C7
100
AcDbEntity
8
1
62
256
6
ByLayer
370
18
48
1
60
0
100
AcDbLine
10
19.996282
20
6.510305
30
0
11
21.513784
21
7.163454
31
0
39
0
210
0
220
0
230
1
0
LINE
5
C8
100
AcDbEntity
8
1
62
256
6
ByLayer
370
18
48
1
60
0
100
AcDbLine
10
34.636293
20
7.583136
30
0
11
36.316071
21
7.932909
31
0
39
0
210
0
220
0
230
1
0
LINE
5
C9
100
AcDbEntity
8
1
62
256
6
ByLayer
370
18
48
1
60
0
100
AcDbLine
10
22.43686
20
16.189495
30
0
11
19.286025
21
15.215135
31
0
39
0
210
0
220
0
230
1
0
LINE
5
CA
100
AcDbEntity
8
1
62
256
6
ByLayer
370
18
48
1
60
0
100
AcDbLine
10
38.684919
20
21.222791
30
0
11
32.489443
21
21.763309
31
0
39
0
210
0
220
0
230
1
0
LINE
5
CB
100
AcDbEntity
8
1
62
256
6
ByLayer
370
18
48
1
60
0
100
AcDbLine
10
42.391219
20
12.855546
30
0
11
41.523136
21
12.239164
31
0
39
0
210
0
220
0
230
1
0
LINE
5
CC
100
AcDbEntity
8
1
62
256
6
ByLayer
370
18
48
1
60
0
100
AcDbLine
10
40.212223
20
20.730985
30
0
11
40.238175
21
20.731667
31
0
39
0
210
0
220
0
230
1
0
LINE
5
CD
100
AcDbEntity
8
1
62
256
6
ByLayer
370
18
48
1
60
0
100
AcDbLine
10
30.809664
20
21.413537
30
0
11
32.489443
21
21.763309
31
0
39
0
210
0
220
0
230
1
0
LINE
5
CE
100
AcDbEntity
8
1
62
256
6
ByLayer
370
18
48
1
60
0
100
AcDbLine
10
19.996282
20
6.510305
30
0
11
17.768523
21
14.561986
31
0
39
0
210
0
220
0
230
1
0
LINE
5
CF
100
AcDbEntity
8
1
62
256
6
ByLayer
370
18
48
1
60
0
100
AcDbLine
10
21.779469
20
18.972613
30
0
11
30.190174
21
21.251249
31
0
39
0
210
0
220
0
230
1
0
LINE
5
D0
100
AcDbEntity
8
1
62
256
6
ByLayer
370
18
48
1
60
0
100
AcDbLine
10
23.206714
20
9.338903
30
0
11
24.243583
21
9.659542
31
0
39
0
210
0
220
0
230
1
0
LINE
5
D1
100
AcDbEntity
8
1
62
256
6
ByLayer
370
18
48
1
60
0
100
AcDbLine
10
21.432113
20
18.187296
30
0
11
30.642814
21
20.682668
31
0
39
0
210
0
220
0
230
1
0
LINE
5
D2
100
AcDbEntity
8
1
62
256
6
ByLayer
370
18
48
1
60
0
100
AcDbLine
10
25.606097
20
5.142212
30
0
11
24.874802
21
4.916067
31
0
39
0
210
0
220
0
230
1
0
LINE
5
D3
100
AcDbEntity
8
1
62
256
6
ByLayer
370
18
48
1
60
0
100
AcDbLine
10
21.821027
20
14.347126
30
0
11
22.857896
21
14.667766
31
0
39
0
210
0
220
0
230
1
0
LINE
5
D4
100
AcDbEntity
8
1
62
256
6
ByLayer
370
18
48
1
60
0
100
AcDbLine
10
34.016803
20
7.420848
30
0
11
25.606097
21
5.142212
31
0
39
0
210
0
220
0
230
1
0
LINE
5
D5
100
AcDbEntity
8
1
62
256
6
ByLayer
370
18
48
1
60
0
100
AcDbLine
10
27.812709
20
5.62917
30
0
11
36.316071
21
7.932909
31
0
39
0
210
0
220
0
230
1
0
LINE
5
D6
100
AcDbEntity
8
1
62
256
6
ByLayer
370
18
48
1
60
0
100
AcDbLine
10
32.699257
20
10.382133
30
0
11
30.736801
21
9.850463
31
0
39
0
210
0
220
0
230
1
0
LINE
5
D7
100
AcDbEntity
8
1
62
256
6
ByLayer
370
18
48
1
60
0
100
AcDbLine
10
22.857896
20
14.667766
30
0
11
22.43686
21
16.189495
31
0
39
0
210
0
220
0
230
1
0
LINE
5
D8
100
AcDbEntity
8
1
62
256
6
ByLayer
370
18
48
1
60
0
100
AcDbLine
10
28.525031
20
17.844357
30
0
11
30.487487
21
18.376027
31
0
39
0
210
0
220
0
230
1
0
LINE
5
D9
100
AcDbEntity
8
1
62
256
6
ByLayer
370
18
48
1
60
0
100
AcDbLine
10
36.316071
20
7.932909
30
0
11
41.369255
21
11.520925
31
0
39
0
210
0
220
0
230
1
0
LINE
5
DA
100
AcDbEntity
8
1
62
256
6
ByLayer
370
18
48
1
60
0
100
AcDbLine
10
24.664619
20
8.137813
30
0
11
24.243583
21
9.659542
31
0
39
0
210
0
220
0
230
1
0
LINE
5
DB
100
AcDbEntity
8
1
62
256
6
ByLayer
370
18
48
1
60
0
100
AcDbLine
10
17.768523
20
14.561986
30
0
11
19.286025
21
15.215135
31
0
39
0
210
0
220
0
230
1
0
LINE
5
DC
100
AcDbEntity
8
1
62
256
6
ByLayer
370
18
48
1
60
0
100
AcDbLine
10
39.147907
20
20.82384
30
0
11
40.212223
21
20.730985
31
0
39
0
210
0
220
0
230
1
0
LINE
5
DD
100
AcDbEntity
8
1
62
256
6
ByLayer
370
18
48
1
60
0
100
AcDbLine
10
28.525031
20
17.844357
30
0
11
28.017405
21
17.625869
31
0
39
0
210
0
220
0
230
1
0
LINE
5
DE
100
AcDbEntity
8
1
62
256
6
ByLayer
370
18
48
1
60
0
100
AcDbLine
10
30.487487
20
18.376027
30
0
11
29.971108
21
18.153772
31
0
39
0
210
0
220
0
230
1
0
LINE
5
DF
100
AcDbEntity
8
1
62
256
6
ByLayer
370
18
48
1
60
0
100
AcDbLine
10
28.017405
20
17.625869
30
0
11
29.971108
21
18.153772
31
0
39
0
210
0
220
0
230
1
0
LINE
5
E0
100
AcDbEntity
8
1
62
256
6
ByLayer
370
18
48
1
60
0
100
AcDbLine
10
24.750596
20
15.227921
30
0
11
24.193766
21
14.988255
31
0
39
0
210
0
220
0
230
1
0
LINE
5
E1
100
AcDbEntity
8
1
62
256
6
ByLayer
370
18
48
1
60
0
100
AcDbLine
10
21.513784
20
7.163454
30
0
11
19.286025
21
15.215135
31
0
39
0
210
0
220
0
230
1
0
LINE
5
E2
100
AcDbEntity
8
1
62
256
6
ByLayer
370
18
48
1
60
0
100
AcDbLine
10
24.193766
20
14.988255
30
0
11
21.821027
21
14.347126
31
0
39
0
210
0
220
0
230
1
0
LINE
5
E3
100
AcDbEntity
8
1
62
256
6
ByLayer
370
18
48
1
60
0
100
AcDbLine
10
25.576201
20
4.923384
30
0
11
27.812709
21
5.62917
31
0
39
0
210
0
220
0
230
1
0
LINE
5
E4
100
AcDbEntity
8
1
62
256
6
ByLayer
370
18
48
1
60
0
100
AcDbLine
10
21.821027
20
14.347126
30
0
11
23.206714
21
9.338903
31
0
39
0
210
0
220
0
230
1
0
LINE
5
E5
100
AcDbEntity
8
1
62
256
6
ByLayer
370
18
48
1
60
0
100
AcDbLine
10
23.280961
20
4.230061
30
0
11
24.874802
21
4.916067
31
0
39
0
210
0
220
0
230
1
0
LINE
5
E6
100
AcDbEntity
8
1
62
256
6
ByLayer
370
18
48
1
60
0
100
AcDbLine
10
43.467018
20
12.909148
30
0
11
43.313831
21
12.936145
31
0
39
0
210
0
220
0
230
1
0
LINE
5
E7
100
AcDbEntity
8
1
62
256
6
ByLayer
370
18
48
1
60
0
100
AcDbLine
10
44.750784
20
12.181091
30
0
11
43.083915
21
11.729501
31
0
39
0
210
0
220
0
230
1
0
LINE
5
E8
100
AcDbEntity
8
1
62
256
6
ByLayer
370
18
48
1
60
0
100
AcDbLine
10
44.747966
20
13.256184
30
0
11
43.467018
21
12.909148
31
0
39
0
210
0
220
0
230
1
0
LINE
5
E9
100
AcDbEntity
8
1
62
256
6
ByLayer
370
18
48
1
60
0
100
AcDbLine
10
44.665433
20
21.815778
30
0
11
41.952761
21
22.293849
31
0
39
0
210
0
220
0
230
1
0
LINE
5
EA
100
AcDbEntity
8
1
62
256
6
ByLayer
370
18
48
1
60
0
100
AcDbLine
10
46.684081
20
14.905337
30
0
11
44.747966
21
13.256184
31
0
39
0
210
0
220
0
230
1
0
LINE
5
EB
100
AcDbEntity
8
1
62
256
6
ByLayer
370
18
48
1
60
0
100
AcDbLine
10
40.756824
20
21.02745
30
0
11
39.813017
21
21.439471
31
0
39
0
210
0
220
0
230
1
0
LINE
5
EC
100
AcDbEntity
8
1
62
256
6
ByLayer
370
18
48
1
60
0
100
AcDbLine
10
46.927023
20
15.132973
30
0
11
47.420129
21
16.534952
31
0
39
0
210
0
220
0
230
1
0
LINE
5
ED
100
AcDbEntity
8
1
62
256
6
ByLayer
370
18
48
1
60
0
100
AcDbLine
10
43.313831
20
12.936145
30
0
11
45.801036
21
14.80272
31
0
39
0
210
0
220
0
230
1
0
LINE
5
EE
100
AcDbEntity
8
1
62
256
6
ByLayer
370
18
48
1
60
0
100
AcDbLine
10
46.684081
20
14.905337
30
0
11
46.839035
21
13.959831
31
0
39
0
210
0
220
0
230
1
0
LINE
5
EF
100
AcDbEntity
8
1
62
256
6
ByLayer
370
18
48
1
60
0
100
AcDbLine
10
41.154534
20
21.267049
30
0
11
41.036608
21
21.166602
31
0
39
0
210
0
220
0
230
1
0
LINE
5
F0
100
AcDbEntity
8
1
62
256
6
ByLayer
370
18
48
1
60
0
100
AcDbLine
10
43.006583
20
12.896252
30
0
11
43.313831
21
12.936145
31
0
39
0
210
0
220
0
230
1
0
LINE
5
F1
100
AcDbEntity
8
1
62
256
6
ByLayer
370
18
48
1
60
0
100
AcDbLine
10
41.036608
20
21.166602
30
0
11
44.137809
21
20.814043
31
0
39
0
210
0
220
0
230
1
0
LINE
5
F2
100
AcDbEntity
8
1
62
256
6
ByLayer
370
18
48
1
60
0
100
AcDbLine
10
43.006583
20
12.896252
30
0
11
42.469642
21
11.837758
31
0
39
0
210
0
220
0
230
1
0
LINE
5
F3
100
AcDbEntity
8
1
62
256
6
ByLayer
370
18
48
1
60
0
100
AcDbLine
10
44.950525
20
21.170844
30
0
11
44.665433
21
21.815778
31
0
39
0
210
0
220
0
230
1
0
LINE
5
F4
100
AcDbEntity
8
1
62
256
6
ByLayer
370
18
48
1
60
0
100
AcDbLine
10
39.813017
20
21.439471
30
0
11
40.285892
21
21.842259
31
0
39
0
210
0
220
0
230
1
0
LINE
5
F5
100
AcDbEntity
8
1
62
256
6
ByLayer
370
18
48
1
60
0
100
AcDbLine
10
46.422811
20
20.139512
30
0
11
46.769235
21
20.835575
31
0
39
0
210
0
220
0
230
1
0
LINE
5
F6
100
AcDbEntity
8
1
62
256
6
ByLayer
370
18
48
1
60
0
100
AcDbLine
10
43.083915
20
11.729501
30
0
11
43.467018
21
12.909148
31
0
39
0
210
0
220
0
230
1
0
LINE
5
F7
100
AcDbEntity
8
1
62
256
6
ByLayer
370
18
48
1
60
0
100
AcDbLine
10
42.435481
20
21.614085
30
0
11
41.952761
21
22.293849
31
0
39
0
210
0
220
0
230
1
0
LINE
5
F8
100
AcDbEntity
8
1
62
256
6
ByLayer
370
18
48
1
60
0
100
AcDbLine
10
41.952761
20
22.293849
30
0
11
40.285892
21
21.842259
31
0
39
0
210
0
220
0
230
1
0
LINE
5
F9
100
AcDbEntity
8
1
62
256
6
ByLayer
370
18
48
1
60
0
100
AcDbLine
10
42.435481
20
21.614085
30
0
11
41.154534
21
21.267049
31
0
39
0
210
0
220
0
230
1
0
LINE
5
FA
100
AcDbEntity
8
1
62
256
6
ByLayer
370
18
48
1
60
0
100
AcDbLine
10
47.420129
20
16.534952
30
0
11
48.144846
21
15.86377
31
0
39
0
210
0
220
0
230
1
0
LINE
5
FB
100
AcDbEntity
8
1
62
256
6
ByLayer
370
18
48
1
60
0
100
AcDbLine
10
42.469642
20
11.837758
30
0
11
43.083915
21
11.729501
31
0
39
0
210
0
220
0
230
1
0
LINE
5
FC
100
AcDbEntity
8
1
62
256
6
ByLayer
370
18
48
1
60
0
100
AcDbLine
10
46.839035
20
13.959831
30
0
11
44.750784
21
12.181091
31
0
39
0
210
0
220
0
230
1
0
LINE
5
FD
100
AcDbEntity
8
1
62
256
6
ByLayer
370
18
48
1
60
0
100
AcDbLine
10
41.154534
20
21.267049
30
0
11
40.285892
21
21.842259
31
0
39
0
210
0
220
0
230
1
0
LINE
5
FE
100
AcDbEntity
8
1
62
256
6
ByLayer
370
18
48
1
60
0
100
AcDbLine
10
45.276768
20
21.097411
30
0
11
46.422811
21
20.139512
31
0
39
0
210
0
220
0
230
1
0
LINE
5
FF
100
AcDbEntity
8
1
62
256
6
ByLayer
370
18
48
1
60
0
100
AcDbLine
10
44.950525
20
21.170844
30
0
11
42.435481
21
21.614085
31
0
39
0
210
0
220
0
230
1
0
LINE
5
100
100
AcDbEntity
8
1
62
256
6
ByLayer
370
18
48
1
60
0
100
AcDbLine
10
41.036608
20
21.166602
30
0
11
40.756824
21
21.02745
31
0
39
0
210
0
220
0
230
1
0
LINE
5
101
100
AcDbEntity
8
1
62
256
6
ByLayer
370
18
48
1
60
0
100
AcDbLine
10
44.747966
20
13.256184
30
0
11
44.750784
21
12.181091
31
0
39
0
210
0
220
0
230
1
0
LINE
5
102
100
AcDbEntity
8
1
62
256
6
ByLayer
370
18
48
1
60
0
100
AcDbLine
10
9.076795
20
19.122283
30
0
11
6.923205
21
19.122283
31
0
39
0
210
0
220
0
230
1
0
LINE
5
103
100
AcDbEntity
8
1
62
256
6
ByLayer
370
18
48
1
60
0
100
AcDbLine
10
6.923205
20
-19.122283
30
0
11
6.923205
21
-5.85989
31
0
39
0
210
0
220
0
230
1
0
LINE
5
104
100
AcDbEntity
8
1
62
256
6
ByLayer
370
18
48
1
60
0
100
AcDbLine
10
6.923205
20
5.85989
30
0
11
6.923205
21
19.122283
31
0
39
0
210
0
220
0
230
1
0
LINE
5
105
100
AcDbEntity
8
1
62
256
6
ByLayer
370
18
48
1
60
0
100
AcDbLine
10
23.321154
20
21.134437
30
0
11
22.621233
21
20.919592
31
0
39
0
210
0
220
0
230
1
0
LINE
5
106
100
AcDbEntity
8
1
62
256
6
ByLayer
370
18
48
1
60
0
100
AcDbLine
10
21.065143
20
1.051678
30
0
11
21.065143
21
-19.748987
31
0
39
0
210
0
220
0
230
1
0
LINE
5
107
100
AcDbEntity
8
1
62
256
6
ByLayer
370
18
48
1
60
0
100
AcDbLine
10
9.076795
20
-19.122283
30
0
11
9.076795
21
-5.85989
31
0
39
0
210
0
220
0
230
1
0
LINE
5
108
100
AcDbEntity
8
1
62
256
6
ByLayer
370
18
48
1
60
0
100
AcDbLine
10
22.120351
20
-19.748987
30
0
11
21.065143
21
-19.748987
31
0
39
0
210
0
220
0
230
1
0
LINE
5
109
100
AcDbEntity
8
1
62
256
6
ByLayer
370
18
48
1
60
0
100
AcDbLine
10
6.923205
20
5.85989
30
0
11
9.076795
21
5.85989
31
0
39
0
210
0
220
0
230
1
0
LINE
5
10A
100
AcDbEntity
8
1
62
256
6
ByLayer
370
18
48
1
60
0
100
AcDbLine
10
6.663397
20
6.16973
30
0
11
6.663397
21
19.024574
31
0
39
0
210
0
220
0
230
1
0
LINE
5
10B
100
AcDbEntity
8
1
62
256
6
ByLayer
370
18
48
1
60
0
100
AcDbLine
10
9.076795
20
5.85989
30
0
11
9.076795
21
19.122283
31
0
39
0
210
0
220
0
230
1
0
LINE
5
10C
100
AcDbEntity
8
1
62
256
6
ByLayer
370
18
48
1
60
0
100
AcDbLine
10
6.663397
20
-19.024574
30
0
11
6.663397
21
-6.16973
31
0
39
0
210
0
220
0
230
1
0
LINE
5
10D
100
AcDbEntity
8
1
62
256
6
ByLayer
370
18
48
1
60
0
100
AcDbLine
10
17.080365
20
-11.185063
30
0
11
17.080365
21
-18.47854
31
0
39
0
210
0
220
0
230
1
0
LINE
5
10E
100
AcDbEntity
8
1
62
256
6
ByLayer
370
18
48
1
60
0
100
AcDbLine
10
48.059249
20
4.932601
30
0
11
36.399094
21
-6.223437
31
0
39
0
210
0
220
0
230
1
0
LINE
5
10F
100
AcDbEntity
8
1
62
256
6
ByLayer
370
18
48
1
60
0
100
AcDbLine
10
6.923205
20
-19.122283
30
0
11
9.076795
21
-19.122283
31
0
39
0
210
0
220
0
230
1
0
LINE
5
110
100
AcDbEntity
8
1
62
256
6
ByLayer
370
18
48
1
60
0
100
AcDbLine
10
16.393699
20
-6.636487
30
0
11
16.393699
21
-9.298465
31
0
39
0
210
0
220
0
230
1
0
LINE
5
111
100
AcDbEntity
8
1
62
256
6
ByLayer
370
18
48
1
60
0
100
AcDbLine
10
17.357044
20
-11.945234
30
0
11
17.080365
21
-11.185063
31
0
39
0
210
0
220
0
230
1
0
LINE
5
112
100
AcDbEntity
8
1
62
256
6
ByLayer
370
18
48
1
60
0
100
AcDbLine
10
48.389102
20
9.224725
30
0
11
48.326035
21
9.354063
31
0
39
0
210
0
220
0
230
1
0
LINE
5
113
100
AcDbEntity
8
1
62
256
6
ByLayer
370
18
48
1
60
0
100
AcDbLine
10
9.336603
20
-19.024574
30
0
11
9.336603
21
-6.16973
31
0
39
0
210
0
220
0
230
1
0
LINE
5
114
100
AcDbEntity
8
1
62
256
6
ByLayer
370
18
48
1
60
0
100
AcDbLine
10
37.457258
20
24.656195
30
0
11
37.548686
21
24.56712
31
0
39
0
210
0
220
0
230
1
0
LINE
5
115
100
AcDbEntity
8
1
62
256
6
ByLayer
370
18
48
1
60
0
100
AcDbLine
10
39.036284
20
9.255217
30
0
11
38.8385
21
9.272453
31
0
39
0
210
0
220
0
230
1
0
LINE
5
116
100
AcDbEntity
8
1
62
256
6
ByLayer
370
18
48
1
60
0
100
AcDbLine
10
48.059249
20
4.932601
30
0
11
48.389102
21
9.224725
31
0
39
0
210
0
220
0
230
1
0
LINE
5
117
100
AcDbEntity
8
1
62
256
6
ByLayer
370
18
48
1
60
0
100
AcDbLine
10
16.974978
20
17.932432
30
0
11
17.080365
21
10.107929
31
0
39
0
210
0
220
0
230
1
0
LINE
5
118
100
AcDbEntity
8
1
62
256
6
ByLayer
370
18
48
1
60
0
100
AcDbLine
10
17.080365
20
-11.185063
30
0
11
16.815887
21
-10.458416
31
0
39
0
210
0
220
0
230
1
0
LINE
5
119
100
AcDbEntity
8
1
62
256
6
ByLayer
370
18
48
1
60
0
100
AcDbLine
10
34.596133
20
25.422832
30
0
11
22.43611
21
25.422832
31
0
39
0
210
0
220
0
230
1
0
LINE
5
11A
100
AcDbEntity
8
1
62
256
6
ByLayer
370
18
48
1
60
0
100
AcDbLine
10
27.707121
20
3.672231
30
0
11
27.417843
21
3.583435
31
0
39
0
210
0
220
0
230
1
0
LINE
5
11B
100
AcDbEntity
8
1
62
256
6
ByLayer
370
18
48
1
60
0
100
AcDbLine
10
41.560378
20
11.022575
30
0
11
48.389102
21
9.224725
31
0
39
0
210
0
220
0
230
1
0
LINE
5
11C
100
AcDbEntity
8
1
62
256
6
ByLayer
370
18
48
1
60
0
100
AcDbLine
10
17.080365
20
10.107929
30
0
11
17.080365
21
-3.187521
31
0
39
0
210
0
220
0
230
1
0
LINE
5
11D
100
AcDbEntity
8
1
62
256
6
ByLayer
370
18
48
1
60
0
100
AcDbLine
10
37.457258
20
24.656195
30
0
11
34.596133
21
25.422832
31
0
39
0
210
0
220
0
230
1
0
LINE
5
11E
100
AcDbEntity
8
1
62
256
6
ByLayer
370
18
48
1
60
0
100
AcDbLine
10
22.067443
20
22.862128
30
0
11
22.067443
21
24.011311
31
0
39
0
210
0
220
0
230
1
0
LINE
5
11F
100
AcDbEntity
8
1
62
256
6
ByLayer
370
18
48
1
60
0
100
AcDbLine
10
22.120351
20
-19.748987
30
0
11
36.399094
21
-6.223437
31
0
39
0
210
0
220
0
230
1
0
LINE
5
120
100
AcDbEntity
8
1
62
256
6
ByLayer
370
18
48
1
60
0
100
AcDbLine
10
9.336603
20
6.16973
30
0
11
9.336603
21
19.024574
31
0
39
0
210
0
220
0
230
1
0
LINE
5
121
100
AcDbEntity
8
1
62
256
6
ByLayer
370
18
48
1
60
0
100
AcDbLine
10
9.076795
20
-5.85989
30
0
11
6.923205
21
-5.85989
31
0
39
0
210
0
220
0
230
1
0
LINE
5
122
100
AcDbEntity
8
1
62
256
6
ByLayer
370
18
48
1
60
0
100
AcDbLine
10
16.605465
20
-9.880287
30
0
11
16.393699
21
-9.298465
31
0
39
0
210
0
220
0
230
1
0
LINE
5
123
100
AcDbEntity
8
SK1
62
256
6
ByLayer
370
18
48
1
60
0
100
AcDbLine
10
-1.307107
20
-3.627816
30
0
11
-1.307107
21
3.627817
31
0
39
0
210
0
220
0
230
1
0
LINE
5
124
100
AcDbEntity
8
1
62
256
6
ByLayer
370
18
48
1
60
0
100
AcDbLine
10
49.997664
20
21.325251
30
0
11
49.136066
21
10.113948
31
0
39
0
210
0
220
0
230
1
0
LINE
5
125
100
AcDbEntity
8
1
62
256
6
ByLayer
370
18
48
1
60
0
100
AcDbLine
10
38.568974
20
25.062934
30
0
11
49.408703
21
22.158438
31
0
39
0
210
0
220
0
230
1
0
MTEXT
5
20D
100
AcDbEntity
8
SK6
62
256
6
ByLayer
370
18
48
1
60
0
100
AcDbMText
10
-8.625
20
-28.780537
30
0
210
0
220
0
230
1
1
\W0.7277;C4-CCRNR-22050-12-4
40
3.5
41
0
44
1.084337
50
0
71
7
72
5
7
iso_b_vert
0
DIMENSION
5
22C
100
AcDbEntity
8
2
62
256
6
ByLayer
370
13
48
1
60
0
100
AcDbDimension
2
DimnDraft3D2
10
42.434643
20
24.027131
30
0
11
39.668976
21
35.463653
31
0
70
34
71
5
72
1
41
1
210
0
220
0
230
1
3
Standard
100
AcDb2LineAngularDimension
13
50
23
22
33
0
14
50
24
20.4125
34
0
15
50
25
22
35
0
16
42.408402
26
31.893563
36
0
40
0
0
DIMENSION
5
242
100
AcDbEntity
8
SK2
62
256
6
ByLayer
370
13
48
1
60
0
100
AcDbDimension
2
DimnDraft3D3
10
-31.75
20
20
30
0
11
-31.75
21
-2.925
31
0
70
32
71
5
72
1
41
1
210
0
220
0
230
1
3
Standard
100
AcDbAlignedDimension
13
-2
23
-20
33
0
14
-2
24
20
34
0
50
90
100
AcDbRotatedDimension
1001
ACAD
1000
DSTYLE
1002
{
1070
    74
1070
     0
1070
   279
1070
     0
1070
   172
1070
     1
1070
   173
1070
     1
1070
   340
1005
20E
1070
    77
1070
     1
1070
    73
1070
     0
1070
   171
1070
     3
1070
   274
1070
     4
1070
   177
1070
     2
1070
   176
1070
     2
1070
   178
1070
     7
1070
    78
1070
     8
1070
    41
1041
3.175
1070
   147
1041
2.25
1070
    42
1041
2.0
1070
    44
1041
2.0
1070
   140
1041
4.5
1070
   343
1005
22D
1070
   344
1005
22D
1002
}
0
DIMENSION
5
250
100
AcDbEntity
8
2
62
256
6
ByLayer
370
13
48
1
60
0
100
AcDbDimension
2
DimnDraft3D4
10
72.25
20
22
30
0
11
72.25
21
5.718421
31
0
70
32
71
5
72
1
41
1
210
0
220
0
230
1
3
Standard
100
AcDbAlignedDimension
13
52
23
0
33
0
14
52
24
22
34
0
50
90
100
AcDbRotatedDimension
1001
ACAD
1000
DSTYLE
1002
{
1070
    74
1070
     0
1070
   279
1070
     0
1070
   172
1070
     1
1070
   173
1070
     1
1070
   340
1005
20E
1070
    77
1070
     1
1070
    73
1070
     0
1070
   171
1070
     3
1070
   274
1070
     4
1070
   177
1070
     2
1070
   176
1070
     2
1070
   178
1070
     7
1070
    78
1070
     8
1070
    41
1041
3.175
1070
   147
1041
2.25
1070
    42
1041
2.0
1070
    44
1041
2.0
1070
   140
1041
4.5
1070
   343
1005
22D
1070
   344
1005
22D
1002
}
0
ENDSEC
0
SECTION
2
OBJECTS
0
DICTIONARY
5
2bb
330
0
100
AcDbDictionary
280
0
281
1
3
ACAD_GROUP
350
2bc
3
ACAD_MLINESTYLE
350
2bd
0
DICTIONARY
5
2bc
330
0
100
AcDbDictionary
280
0
281
1
0
DICTIONARY
5
2bd
330
0
100
AcDbDictionary
280
0
281
1
3
Standard
350
18
0
MLINESTYLE
5
18
330
2bd
100
AcDbMlineStyle
2
Standard
70
0
3

62
256
51
90
52
90
71
2
49
-0.5
62
256
6
ByLayer
49
0.5
62
256
6
ByLayer
0
RASTERVARIABLES
5
2a9
330

100
AcDbRasterVariables
90
0
70
1
71
1
72
1
0
ENDSEC
0
EOF
