0
SECTION
2
HEADER
9
$ACADVER
1
AC1015
9
$DWGCODEPAGE
3
ANSI_1252
9
$HANDSEED
5
2c1
9
$ANGBASE
50
0
9
$ANGDIR
70
0
9
$ATTMODE
70
1
9
$AUNITS
70
0
9
$AUPREC
70
0
9
$CECOLOR
62
256
9
$CELTSCALE
40
1
9
$CELTYPE
6
ByLayer
9
$CELWEIGHT
370
18
9
$CLAYER
8
0
9
$CMLJUST
70
0
9
$CMLSCALE
40
1
9
$CMLSTYLE
2
Standard
9
$DIMSTYLE
2
Standard
9
$TEXTSIZE
40
0.2
9
$TEXTSTYLE
7
Standard
9
$LUNITS
70
2
9
$LUPREC
70
4
9
$EXTNAMES
290
1
9
$INSUNITS
70
4
9
$LTSCALE
40
1
9
$LWDISPLAY
290
1
9
$PDMODE
70
0
9
$PDSIZE
40
0
9
$PLINEGEN
70
0
0
ENDSEC
0
SECTION
2
CLASSES
0
CLASS
1
RASTERVARIABLES
2
AcDbRasterVariables
3
ISM
90
0
280
0
281
0
0
ENDSEC
0
SECTION
2
TABLES
0
TABLE
2
VPORT
5
2b7
100
AcDbSymbolTable
0
VPORT
5
1
100
AcDbSymbolTableRecord
100
AcDbViewportTableRecord
2
*Active
70
0
10
0
20
0
11
1
21
1
12
-1
22
1
13
0
23
0
14
0.5
24
0.5
15
10
25
10
16
0
26
0
36
1
17
0
27
0
37
0
0
ENDTAB
0
TABLE
2
LTYPE
5
2b8
100
AcDbSymbolTable
0
LTYPE
5
14
100
AcDbSymbolTableRecord
100
AcDbLinetypeTableRecord
70
0
2
ByBlock
3

72
65
73
0
40
0
0
LTYPE
5
15
100
AcDbSymbolTableRecord
100
AcDbLinetypeTableRecord
70
0
2
ByLayer
3

72
65
73
0
40
0
0
LTYPE
5
16
100
AcDbSymbolTableRecord
100
AcDbLinetypeTableRecord
70
0
2
CONTINUOUS
3
Solid line
72
65
73
0
40
0
0
LTYPE
5
6A
100
AcDbSymbolTableRecord
100
AcDbLinetypeTableRecord
70
0
2
CENTER
3
____ _ ____ _ ____ _ ____
72
65
73
4
40
47.5
49
22
74
0
49
-8.5
74
0
49
8.5
74
0
49
-8.5
74
0
0
LTYPE
5
6B
100
AcDbSymbolTableRecord
100
AcDbLinetypeTableRecord
70
0
2
DASHED
3
__ __ __ __ __ __ __ __ __
72
65
73
2
40
25.72
49
12.86
74
0
49
-12.86
74
0
0
ENDTAB
0
TABLE
2
LAYER
5
2b9
100
AcDbSymbolTable
0
LAYER
5
10
100
AcDbSymbolTableRecord
100
AcDbLayerTableRecord
2
0
70
0
62
7
6
CONTINUOUS
290
1
370
-3
390
0
0
LAYER
5
6D
100
AcDbSymbolTableRecord
100
AcDbLayerTableRecord
2
2
70
0
62
7
6
CONTINUOUS
290
1
370
-3
390
0
0
LAYER
5
6F
100
AcDbSymbolTableRecord
100
AcDbLayerTableRecord
2
80
70
0
62
-6
6
CONTINUOUS
290
1
370
-3
390
0
0
LAYER
5
71
100
AcDbSymbolTableRecord
100
AcDbLayerTableRecord
2
81
70
0
62
-3
6
CONTINUOUS
290
1
370
-3
390
0
0
LAYER
5
73
100
AcDbSymbolTableRecord
100
AcDbLayerTableRecord
2
1
70
0
62
4
6
CONTINUOUS
290
1
370
-3
390
0
0
LAYER
5
8C
100
AcDbSymbolTableRecord
100
AcDbLayerTableRecord
2
4
70
0
62
-2
6
CENTER
290
1
370
-3
390
0
0
LAYER
5
2a3
100
AcDbSymbolTableRecord
100
AcDbLayerTableRecord
2
SK4
70
0
62
2
6
CENTER
290
1
370
-3
390
0
0
LAYER
5
2a4
100
AcDbSymbolTableRecord
100
AcDbLayerTableRecord
2
SK1
70
0
62
4
6
CONTINUOUS
290
1
370
-3
390
0
0
LAYER
5
2a5
100
AcDbSymbolTableRecord
100
AcDbLayerTableRecord
2
SK6
70
0
62
5
6
CONTINUOUS
290
1
370
-3
390
0
0
LAYER
5
2a6
100
AcDbSymbolTableRecord
100
AcDbLayerTableRecord
2
SK2
70
0
62
7
6
CONTINUOUS
290
1
370
-3
390
0
0
ENDTAB
0
TABLE
2
STYLE
5
2ba
100
AcDbSymbolTable
0
STYLE
5
11
100
AcDbSymbolTableRecord
100
AcDbTextStyleTableRecord
2
Standard
3
txt
70
0
71
0
40
0
41
1
42
0
50
0
0
STYLE
5
207
100
AcDbSymbolTableRecord
100
AcDbTextStyleTableRecord
2
iso_b_vert
3
simplex.shx
70
0
71
0
40
0
41
1
42
0
50
0
0
STYLE
5
208
100
AcDbSymbolTableRecord
100
AcDbTextStyleTableRecord
2
DWGDirectTextStyle
3
simplex
70
0
71
0
40
0
41
1
42
0
50
0
0
ENDTAB
0
TABLE
2
DIMSTYLE
5
2bb
100
AcDbSymbolTable
100
AcDbDimStyleTable
0
DIMSTYLE
105
27
100
AcDbSymbolTableRecord
100
AcDbDimStyleTableRecord
2
Standard
70
0
3
<>
41
0.18
42
0.0625
44
0.18
140
0.18
147
0.09
73
0
74
0
77
1
271
2
275
0
278
52
280
0
340
11
0
ENDTAB
0
TABLE
2
VIEW
5
2bc
100
AcDbSymbolTable
0
ENDTAB
0
TABLE
2
UCS
5
2bd
100
AcDbSymbolTable
0
ENDTAB
0
TABLE
2
APPID
5
2be
100
AcDbSymbolTable
0
APPID
5
12
100
AcDbSymbolTableRecord
100
AcDbRegAppTableRecord
2
ACAD
70
0
0
ENDTAB
0
TABLE
2
BLOCK_RECORD
5
2bf
100
AcDbSymbolTable
0
BLOCK_RECORD
5
1F
100
AcDbSymbolTableRecord
100
AcDbBlockTableRecord
2
*Model_Space
340
0
70
0
0
BLOCK_RECORD
5
1B
100
AcDbSymbolTableRecord
100
AcDbBlockTableRecord
2
*Paper_Space
340
0
70
0
0
BLOCK_RECORD
5
23
100
AcDbSymbolTableRecord
100
AcDbBlockTableRecord
2
*Paper_Space0
340
0
70
0
0
BLOCK_RECORD
5
20A
100
AcDbSymbolTableRecord
100
AcDbBlockTableRecord
2
DimnDraft3D1
340
0
70
0
0
BLOCK_RECORD
5
218
100
AcDbSymbolTableRecord
100
AcDbBlockTableRecord
2
_CLOSED
340
0
70
0
0
BLOCK_RECORD
5
21F
100
AcDbSymbolTableRecord
100
AcDbBlockTableRecord
2
DimnDraft3D2
340
0
70
0
0
BLOCK_RECORD
5
22D
100
AcDbSymbolTableRecord
100
AcDbBlockTableRecord
2
DimnDraft3D3
340
0
70
0
0
BLOCK_RECORD
5
23C
100
AcDbSymbolTableRecord
100
AcDbBlockTableRecord
2
DimnDraft3D4
340
0
70
0
0
ENDTAB
0
ENDSEC
0
SECTION
2
BLOCKS
0
BLOCK
5
20
100
AcDbEntity
8
0
100
AcDbBlockBegin
2
*Model_Space
70
0
10
0
20
0
30
0
3
*Model_Space
0
ENDBLK
5
21
100
AcDbEntity
8
0
100
AcDbBlockEnd
0
BLOCK
5
1C
100
AcDbEntity
8
0
100
AcDbBlockBegin
2
*Paper_Space
70
0
10
0
20
0
30
0
3
*Paper_Space
0
ENDBLK
5
1D
100
AcDbEntity
8
0
100
AcDbBlockEnd
0
BLOCK
5
24
100
AcDbEntity
8
0
100
AcDbBlockBegin
2
*Paper_Space0
70
0
10
0
20
0
30
0
3
*Paper_Space0
0
ENDBLK
5
25
100
AcDbEntity
8
0
100
AcDbBlockEnd
0
BLOCK
5
215
100
AcDbEntity
8
0
100
AcDbBlockBegin
2
DimnDraft3D1
70
0
10
0
20
0
30
0
3
DimnDraft3D1
0
MTEXT
5
20B
100
AcDbEntity
8
2
62
256
6
ByLayer
370
18
48
1
60
0
100
AcDbMText
10
33.094067
20
-38.674116
30
0
210
0
220
0
230
1
1
\W0.7399;95%%d
40
4.5
41
0
44
1.084337
50
312.65427684
71
7
72
5
7
iso_b_vert
0
LINE
5
20C
100
AcDbEntity
8
2
62
256
6
ByLayer
370
13
48
1
60
0
100
AcDbLine
10
35.188235
20
-25.852285
30
0
11
26.655791
21
-25.152072
31
0
39
0
210
0
220
0
230
1
0
LINE
5
20D
100
AcDbEntity
8
2
62
256
6
ByLayer
370
13
48
1
60
0
100
AcDbLine
10
50
20
-29
30
0
11
50
21
-50.490491
31
0
39
0
210
0
220
0
230
1
0
ARC
5
20E
100
AcDbEntity
8
2
62
256
6
ByLayer
370
13
48
1
60
0
100
AcDbCircle
39
0
10
50
20
-27.067807
30
0
40
21.4226837810116
210
0
220
0
230
1
100
AcDbArc
50
175.308554
51
270
0
LINE
5
20F
100
AcDbEntity
8
2
62
256
6
ByLayer
370
13
48
1
60
0
100
AcDbLine
10
28.649091
20
-25.315652
30
0
11
28.924166
21
-28.506211
31
0
39
0
210
0
220
0
230
1
0
LINE
5
210
100
AcDbEntity
8
2
62
256
6
ByLayer
370
13
48
1
60
0
100
AcDbLine
10
28.649091
20
-25.315652
30
0
11
28.089015
21
-28.468693
31
0
39
0
210
0
220
0
230
1
0
LINE
5
211
100
AcDbEntity
8
2
62
256
6
ByLayer
370
13
48
1
60
0
100
AcDbLine
10
28.924166
20
-28.506211
30
0
11
28.089015
21
-28.468693
31
0
39
0
210
0
220
0
230
1
0
LINE
5
212
100
AcDbEntity
8
2
62
256
6
ByLayer
370
13
48
1
60
0
100
AcDbLine
10
50
20
-48.490491
30
0
11
46.811717
21
-48.790804
31
0
39
0
210
0
220
0
230
1
0
LINE
5
213
100
AcDbEntity
8
2
62
256
6
ByLayer
370
13
48
1
60
0
100
AcDbLine
10
50
20
-48.490491
30
0
11
46.842625
21
-47.955382
31
0
39
0
210
0
220
0
230
1
0
LINE
5
214
100
AcDbEntity
8
2
62
256
6
ByLayer
370
13
48
1
60
0
100
AcDbLine
10
46.811717
20
-48.790804
30
0
11
46.842625
21
-47.955382
31
0
39
0
210
0
220
0
230
1
0
ENDBLK
5
216
100
AcDbEntity
8
0
100
AcDbBlockEnd
0
BLOCK
5
219
100
AcDbEntity
8
0
100
AcDbBlockBegin
2
_CLOSED
70
0
10
0
20
0
30
0
3
_CLOSED
0
LINE
5
21B
100
AcDbEntity
8
0
62
256
6
ByLayer
370
-2
48
1
60
0
100
AcDbLine
10
-1
20
0.166667
30
0
11
0
21
0
31
0
39
0
210
0
220
0
230
1
0
LINE
5
21C
100
AcDbEntity
8
0
62
256
6
ByLayer
370
-2
48
1
60
0
100
AcDbLine
10
0
20
0
30
0
11
-1
21
-0.166667
31
0
39
0
210
0
220
0
230
1
0
LINE
5
21D
100
AcDbEntity
8
0
62
256
6
ByLayer
370
-2
48
1
60
0
100
AcDbLine
10
-1
20
0.166667
30
0
11
-1
21
-0.166667
31
0
39
0
210
0
220
0
230
1
0
LINE
5
21E
100
AcDbEntity
8
0
62
256
6
ByLayer
370
-2
48
1
60
0
100
AcDbLine
10
0
20
0
30
0
11
-1
21
0
31
0
39
0
210
0
220
0
230
1
0
ENDBLK
5
21A
100
AcDbEntity
8
0
100
AcDbBlockEnd
0
BLOCK
5
22A
100
AcDbEntity
8
0
100
AcDbBlockBegin
2
DimnDraft3D2
70
0
10
0
20
0
30
0
3
DimnDraft3D2
0
MTEXT
5
220
100
AcDbEntity
8
2
62
256
6
ByLayer
370
18
48
1
60
0
100
AcDbMText
10
20.843421
20
-53.125
30
0
210
0
220
0
230
1
1
\W0.7346;50.0
40
4.5
41
0
44
1.084337
50
0
71
7
72
5
7
iso_b_vert
0
LINE
5
221
100
AcDbEntity
8
2
62
256
6
ByLayer
370
13
48
1
60
0
100
AcDbLine
10
0
20
-22
30
0
11
0
21
-56.25
31
0
39
0
210
0
220
0
230
1
0
LINE
5
222
100
AcDbEntity
8
2
62
256
6
ByLayer
370
13
48
1
60
0
100
AcDbLine
10
50
20
-29
30
0
11
50
21
-56.25
31
0
39
0
210
0
220
0
230
1
0
LINE
5
223
100
AcDbEntity
8
2
62
256
6
ByLayer
370
13
48
1
60
0
100
AcDbLine
10
0
20
-54.25
30
0
11
50
21
-54.25
31
0
39
0
210
0
220
0
230
1
0
LINE
5
224
100
AcDbEntity
8
2
62
256
6
ByLayer
370
13
48
1
60
0
100
AcDbLine
10
0
20
-54.25
30
0
11
3.174998
21
-53.832003
31
0
39
0
210
0
220
0
230
1
0
LINE
5
225
100
AcDbEntity
8
2
62
256
6
ByLayer
370
13
48
1
60
0
100
AcDbLine
10
0
20
-54.25
30
0
11
3.175002
21
-54.667997
31
0
39
0
210
0
220
0
230
1
0
LINE
5
226
100
AcDbEntity
8
2
62
256
6
ByLayer
370
13
48
1
60
0
100
AcDbLine
10
3.174998
20
-53.832003
30
0
11
3.175002
21
-54.667997
31
0
39
0
210
0
220
0
230
1
0
LINE
5
227
100
AcDbEntity
8
2
62
256
6
ByLayer
370
13
48
1
60
0
100
AcDbLine
10
50
20
-54.25
30
0
11
46.825002
21
-54.667997
31
0
39
0
210
0
220
0
230
1
0
LINE
5
228
100
AcDbEntity
8
2
62
256
6
ByLayer
370
13
48
1
60
0
100
AcDbLine
10
50
20
-54.25
30
0
11
46.824998
21
-53.832003
31
0
39
0
210
0
220
0
230
1
0
LINE
5
229
100
AcDbEntity
8
2
62
256
6
ByLayer
370
13
48
1
60
0
100
AcDbLine
10
46.825002
20
-54.667997
30
0
11
46.824998
21
-53.832003
31
0
39
0
210
0
220
0
230
1
0
ENDBLK
5
22B
100
AcDbEntity
8
0
100
AcDbBlockEnd
0
BLOCK
5
239
100
AcDbEntity
8
0
100
AcDbBlockBegin
2
DimnDraft3D3
70
0
10
0
20
0
30
0
3
DimnDraft3D3
0
MTEXT
5
22E
100
AcDbEntity
8
SK2
62
256
6
ByLayer
370
18
48
1
60
0
100
AcDbMText
10
-32.875
20
-1.8
30
0
210
0
220
0
230
1
1
\W0.7361;40
40
4.5
41
0
44
1.084337
50
90
71
7
72
5
7
iso_b_vert
0
LINE
5
230
100
AcDbEntity
8
SK2
62
256
6
ByLayer
370
13
48
1
60
0
100
AcDbLine
10
-2
20
-20
30
0
11
-33.75
21
-20
31
0
39
0
210
0
220
0
230
1
0
LINE
5
231
100
AcDbEntity
8
SK2
62
256
6
ByLayer
370
13
48
1
60
0
100
AcDbLine
10
-2
20
20
30
0
11
-33.75
21
20
31
0
39
0
210
0
220
0
230
1
0
LINE
5
232
100
AcDbEntity
8
SK2
62
256
6
ByLayer
370
13
48
1
60
0
100
AcDbLine
10
-31.75
20
-20
30
0
11
-31.75
21
20
31
0
39
0
210
0
220
0
230
1
0
LINE
5
233
100
AcDbEntity
8
SK2
62
256
6
ByLayer
370
13
48
1
60
0
100
AcDbLine
10
-31.75
20
-20
30
0
11
-32.167997
21
-16.825002
31
0
39
0
210
0
220
0
230
1
0
LINE
5
234
100
AcDbEntity
8
SK2
62
256
6
ByLayer
370
13
48
1
60
0
100
AcDbLine
10
-31.75
20
-20
30
0
11
-31.332003
21
-16.824998
31
0
39
0
210
0
220
0
230
1
0
LINE
5
235
100
AcDbEntity
8
SK2
62
256
6
ByLayer
370
13
48
1
60
0
100
AcDbLine
10
-32.167997
20
-16.825002
30
0
11
-31.332003
21
-16.824998
31
0
39
0
210
0
220
0
230
1
0
LINE
5
236
100
AcDbEntity
8
SK2
62
256
6
ByLayer
370
13
48
1
60
0
100
AcDbLine
10
-31.75
20
20
30
0
11
-31.332003
21
16.825002
31
0
39
0
210
0
220
0
230
1
0
LINE
5
237
100
AcDbEntity
8
SK2
62
256
6
ByLayer
370
13
48
1
60
0
100
AcDbLine
10
-31.75
20
20
30
0
11
-32.167997
21
16.824998
31
0
39
0
210
0
220
0
230
1
0
LINE
5
238
100
AcDbEntity
8
SK2
62
256
6
ByLayer
370
13
48
1
60
0
100
AcDbLine
10
-31.332003
20
16.825002
30
0
11
-32.167997
21
16.824998
31
0
39
0
210
0
220
0
230
1
0
ENDBLK
5
23A
100
AcDbEntity
8
0
100
AcDbBlockEnd
0
BLOCK
5
247
100
AcDbEntity
8
0
100
AcDbBlockBegin
2
DimnDraft3D4
70
0
10
0
20
0
30
0
3
DimnDraft3D4
0
MTEXT
5
23D
100
AcDbEntity
8
2
62
256
6
ByLayer
370
18
48
1
60
0
100
AcDbMText
10
71.125
20
-17.656579
30
0
210
0
220
0
230
1
1
\W0.7346;27.0
40
4.5
41
0
44
1.084337
50
90
71
7
72
5
7
iso_b_vert
0
LINE
5
23E
100
AcDbEntity
8
2
62
256
6
ByLayer
370
13
48
1
60
0
100
AcDbLine
10
52
20
0
30
0
11
74.25
21
0
31
0
39
0
210
0
220
0
230
1
0
LINE
5
23F
100
AcDbEntity
8
2
62
256
6
ByLayer
370
13
48
1
60
0
100
AcDbLine
10
52
20
-27
30
0
11
74.25
21
-27
31
0
39
0
210
0
220
0
230
1
0
LINE
5
240
100
AcDbEntity
8
2
62
256
6
ByLayer
370
13
48
1
60
0
100
AcDbLine
10
72.25
20
0
30
0
11
72.25
21
-27
31
0
39
0
210
0
220
0
230
1
0
LINE
5
241
100
AcDbEntity
8
2
62
256
6
ByLayer
370
13
48
1
60
0
100
AcDbLine
10
72.25
20
0
30
0
11
72.667997
21
-3.174998
31
0
39
0
210
0
220
0
230
1
0
LINE
5
242
100
AcDbEntity
8
2
62
256
6
ByLayer
370
13
48
1
60
0
100
AcDbLine
10
72.25
20
0
30
0
11
71.832003
21
-3.175002
31
0
39
0
210
0
220
0
230
1
0
LINE
5
243
100
AcDbEntity
8
2
62
256
6
ByLayer
370
13
48
1
60
0
100
AcDbLine
10
72.667997
20
-3.174998
30
0
11
71.832003
21
-3.175002
31
0
39
0
210
0
220
0
230
1
0
LINE
5
244
100
AcDbEntity
8
2
62
256
6
ByLayer
370
13
48
1
60
0
100
AcDbLine
10
72.25
20
-27
30
0
11
71.832003
21
-23.825002
31
0
39
0
210
0
220
0
230
1
0
LINE
5
245
100
AcDbEntity
8
2
62
256
6
ByLayer
370
13
48
1
60
0
100
AcDbLine
10
72.25
20
-27
30
0
11
72.667997
21
-23.824998
31
0
39
0
210
0
220
0
230
1
0
LINE
5
246
100
AcDbEntity
8
2
62
256
6
ByLayer
370
13
48
1
60
0
100
AcDbLine
10
71.832003
20
-23.825002
30
0
11
72.667997
21
-23.824998
31
0
39
0
210
0
220
0
230
1
0
ENDBLK
5
248
100
AcDbEntity
8
0
100
AcDbBlockEnd
0
ENDSEC
0
SECTION
2
ENTITIES
0
ARC
5
117
100
AcDbEntity
8
SK1
62
256
6
ByLayer
370
18
48
1
60
0
100
AcDbCircle
39
0
10
0.6
20
-15
30
0
40
0.999999999999989
210
0
220
0
230
-1
100
AcDbArc
50
113.578178
51
126.869898
0
ARC
5
118
100
AcDbEntity
8
SK1
62
256
6
ByLayer
370
18
48
1
60
0
100
AcDbCircle
39
0
10
0.6
20
15
30
0
40
0.999999999999989
210
0
220
0
230
-1
100
AcDbArc
50
233.130102
51
246.421822
0
ELLIPSE
5
119
100
AcDbEntity
8
1
62
256
6
ByLayer
370
18
48
1
60
0
100
AcDbEllipse
10
8
20
-11.854645
30
0
11
2
21
0
31
0
210
0
220
0
230
1
40
0.707107
41
-2.76798032584005
42
-0.887820255905348
0
ELLIPSE
5
11A
100
AcDbEntity
8
1
62
256
6
ByLayer
370
18
48
1
60
0
100
AcDbEllipse
10
8
20
-11.854645
30
0
11
1.65
21
0
31
0
210
0
220
0
230
1
40
0.707107
41
-0.077452243044471
42
0.0236248379099313
0
ELLIPSE
5
11B
100
AcDbEntity
8
1
62
256
6
ByLayer
370
18
48
1
60
0
100
AcDbEllipse
10
8
20
-11.854645
30
0
11
1.65
21
0
31
0
210
0
220
0
230
1
40
0.707107
41
0.655241200597831
42
1.00924609937022
0
ELLIPSE
5
11C
100
AcDbEntity
8
1
62
256
6
ByLayer
370
18
48
1
60
0
100
AcDbEllipse
10
8
20
-11.854645
30
0
11
1.65
21
0
31
0
210
0
220
0
230
1
40
0.707107
41
2.13241116034379
42
2.31100286105307
0
ELLIPSE
5
11D
100
AcDbEntity
8
1
62
256
6
ByLayer
370
18
48
1
60
0
100
AcDbEllipse
10
8
20
-11.854645
30
0
11
1.65
21
0
31
0
210
0
220
0
230
1
40
0.707107
41
3.11803272614827
42
-0.858138502438683
0
ELLIPSE
5
11E
100
AcDbEntity
8
1
62
256
6
ByLayer
370
18
48
1
60
0
100
AcDbEllipse
10
40.623825
20
0
30
0
11
-18.8200450732356
21
20.1498792820721
31
0
210
0
220
0
230
1
40
0.003706
41
-0.203300115022349
42
-0.00344220078271373
0
ELLIPSE
5
11F
100
AcDbEntity
8
1
62
256
6
ByLayer
370
18
48
1
60
0
100
AcDbEllipse
10
22.494172
20
-56.366786
30
0
11
-2.3431153599346E-15
21
38.2672415935294
31
0
210
0
220
0
230
-1
40
0.104528
41
-0.347968197452925
42
-0.262387989457897
0
ELLIPSE
5
120
100
AcDbEntity
8
1
62
256
6
ByLayer
370
18
48
1
60
0
100
AcDbEllipse
10
43.518218
20
-20.518218
30
0
11
2.37173880783045
21
2.37173880781959
31
0
210
0
220
0
230
1
40
0.989133
41
-2.59181393921158
42
-1.70086719047659
0
ELLIPSE
5
121
100
AcDbEntity
8
1
62
256
6
ByLayer
370
18
48
1
60
0
100
AcDbEllipse
10
43.518218
20
-20.518218
30
0
11
2.37173880783045
21
2.37173880781959
31
0
210
0
220
0
230
1
40
0.989133
41
-1.68166364135479
42
-1.54290498204423
0
ELLIPSE
5
122
100
AcDbEntity
8
1
62
256
6
ByLayer
370
18
48
1
60
0
100
AcDbEllipse
10
43.518218
20
-20.518218
30
0
11
2.37173880783045
21
2.37173880781959
31
0
210
0
220
0
230
1
40
0.989133
41
-1.23157622516253
42
-0.200712863979349
0
ELLIPSE
5
123
100
AcDbEntity
8
1
62
256
6
ByLayer
370
18
48
1
60
0
100
AcDbEllipse
10
43.164749
20
-20.164749
30
0
11
-3.88908729653492
21
-3.8890872965171
31
0
210
0
220
0
230
1
40
0.989133
41
-2.53072741539178
42
-2.33726583878244
0
ELLIPSE
5
124
100
AcDbEntity
8
1
62
256
6
ByLayer
370
18
48
1
60
0
100
AcDbEllipse
10
43.445445
20
-20.445445
30
0
11
3.37752183088368
21
3.37752183086821
31
0
210
0
220
0
230
1
40
0.989133
41
0.704393121263897
42
0.721861308332415
0
ELLIPSE
5
125
100
AcDbEntity
8
1
62
256
6
ByLayer
370
18
48
1
60
0
100
AcDbEllipse
10
43.445445
20
-20.445445
30
0
11
3.37752183088368
21
3.37752183086821
31
0
210
0
220
0
230
1
40
0.989133
41
2.77078139220238
42
2.78626538272476
0
ELLIPSE
5
126
100
AcDbEntity
8
1
62
256
6
ByLayer
370
18
48
1
60
0
100
AcDbEllipse
10
43.164749
20
-20.164749
30
0
11
-3.88908729653492
21
-3.8890872965171
31
0
210
0
220
0
230
1
40
0.989133
41
-0.766101400253948
42
-0.261799387799151
0
ELLIPSE
5
127
100
AcDbEntity
8
1
62
256
6
ByLayer
370
18
48
1
60
0
100
AcDbEllipse
10
22.061104
20
-17.590527
30
0
11
1.03576618958991
21
1.9409246251471
31
0
210
0
220
0
230
1
40
0.157525
41
-3.14153875103848
42
-2.93023404533863E-05
0
ELLIPSE
5
128
100
AcDbEntity
8
1
62
256
6
ByLayer
370
18
48
1
60
0
100
AcDbEllipse
10
22.27891
20
-17.706758
30
0
11
-0.918065486227421
21
-1.72036500865311
31
0
210
0
220
0
230
1
40
0.157525
41
0.1602676582706
42
2.98138720462549
0
ELLIPSE
5
129
100
AcDbEntity
8
1
62
256
6
ByLayer
370
18
48
1
60
0
100
AcDbEllipse
10
32.259342
20
-11.392987
30
0
11
-0.268700576851503
21
-0.268700576850273
31
0
210
0
220
0
230
1
40
0.989133
41
2.42225340979503
42
2.68594738862236
0
ELLIPSE
5
12A
100
AcDbEntity
8
1
62
256
6
ByLayer
370
18
48
1
60
0
100
AcDbEllipse
10
31.009644
20
-13.170697
30
0
11
-0.268700576851503
21
-0.268700576850273
31
0
210
0
220
0
230
1
40
0.989133
41
0.455613680093755
42
1.06840509419363
0
ELLIPSE
5
12B
100
AcDbEntity
8
1
62
256
6
ByLayer
370
18
48
1
60
0
100
AcDbEllipse
10
33.05851
20
-11.335773
30
0
11
0.300520382004971
21
0.300520382003594
31
0
210
0
220
0
230
1
40
0.989133
41
2.42225340979506
42
-3.14158919864635
0
ELLIPSE
5
12C
100
AcDbEntity
8
1
62
256
6
ByLayer
370
18
48
1
60
0
100
AcDbEllipse
10
31.229015
20
-13.938253
30
0
11
0.300520382004971
21
0.300520382003594
31
0
210
0
220
0
230
1
40
0.989133
41
3.51676190266462E-06
42
1.06840509419364
0
ELLIPSE
5
12D
100
AcDbEntity
8
1
62
256
6
ByLayer
370
18
48
1
60
0
100
AcDbEllipse
10
33.27788
20
-12.103329
30
0
11
-0.268700576851503
21
-0.268700576850273
31
0
210
0
220
0
230
1
40
0.989133
41
1.37505585859845
42
2.68595059009182
0
ELLIPSE
5
12E
100
AcDbEntity
8
1
62
256
6
ByLayer
370
18
48
1
60
0
100
AcDbEllipse
10
32.028183
20
-13.881038
30
0
11
-0.268700576851503
21
-0.268700576850273
31
0
210
0
220
0
230
1
40
0.989133
41
0.45565646795622
42
2.11560264539022
0
ELLIPSE
5
12F
100
AcDbEntity
8
1
62
256
6
ByLayer
370
18
48
1
60
0
100
AcDbEllipse
10
33.719454
20
-12.766322
30
0
11
0.300520382004971
21
0.300520382003594
31
0
210
0
220
0
230
1
40
0.989133
41
1.37505585859845
42
3.14157045834451
0
ELLIPSE
5
130
100
AcDbEntity
8
1
62
256
6
ByLayer
370
18
48
1
60
0
100
AcDbEllipse
10
33.162301
20
-13.347354
30
0
11
-0.268700576851503
21
-0.268700576850273
31
0
210
0
220
0
230
1
40
0.989133
41
0.327858307401863
42
3.11070847430905
0
ELLIPSE
5
131
100
AcDbEntity
8
1
62
256
6
ByLayer
370
18
48
1
60
0
100
AcDbEllipse
10
32.034603
20
-12.527853
30
0
11
2.82842712475267
21
2.82842712473971
31
0
210
0
220
0
230
1
40
0.989133
41
0.790861385157302
42
3.14158710851734
0
ELLIPSE
5
132
100
AcDbEntity
8
1
62
256
6
ByLayer
370
18
48
1
60
0
100
AcDbEllipse
10
32.034603
20
-12.527853
30
0
11
2.82842712475267
21
2.82842712473971
31
0
210
0
220
0
230
1
40
0.989133
41
9.25359672384778E-05
42
0.790861385157302
0
ELLIPSE
5
133
100
AcDbEntity
8
1
62
256
6
ByLayer
370
18
48
1
60
0
100
AcDbEllipse
10
32.143762
20
-12.637013
30
0
11
0.813172798366392
21
0.813172798362667
31
0
210
0
220
0
230
1
40
0.989133
41
1.50864578969161
42
2.10741347849626
0
ELLIPSE
5
134
100
AcDbEntity
8
1
62
256
6
ByLayer
370
18
48
1
60
0
100
AcDbEllipse
10
32.143762
20
-12.637013
30
0
11
0.813172798366392
21
0.813172798362667
31
0
210
0
220
0
230
1
40
0.989133
41
2.72944968966501
42
-0.0517435354044309
0
ELLIPSE
5
135
100
AcDbEntity
8
1
62
256
6
ByLayer
370
18
48
1
60
0
100
AcDbEllipse
10
32.143762
20
-12.637013
30
0
11
0.813172798366392
21
0.813172798362667
31
0
210
0
220
0
230
1
40
0.989133
41
0.118491029831419
42
0.790860751325614
0
ELLIPSE
5
136
100
AcDbEntity
8
1
62
256
6
ByLayer
370
18
48
1
60
0
100
AcDbEllipse
10
32.055395
20
-12.548645
30
0
11
0.813172798366392
21
0.813172798362667
31
0
210
0
220
0
230
1
40
0.989133
41
-3.08671874739813
42
-0.118404155601879
0
ELLIPSE
5
137
100
AcDbEntity
8
1
62
256
6
ByLayer
370
18
48
1
60
0
100
AcDbEllipse
10
24.223965
20
-13.981292
30
0
11
2.08176526554849
21
2.16015123988017
31
0
210
0
220
0
230
1
40
0.986455
41
0.0604884076533369
42
0.156280282981023
0
ELLIPSE
5
138
100
AcDbEntity
8
1
62
256
6
ByLayer
370
18
48
1
60
0
100
AcDbEllipse
10
23.419128
20
-11.583461
30
0
11
-1.86177536637353
21
-2.35297642300863
31
0
210
0
220
0
230
1
40
0.877989
41
-1.5062897568939
42
0.0317898717378354
0
ELLIPSE
5
139
100
AcDbEntity
8
1
62
256
6
ByLayer
370
18
48
1
60
0
100
AcDbEllipse
10
32.702528
20
-13.065681
30
0
11
2.87977528400875
21
2.98820921516756
31
0
210
0
220
0
230
1
40
0.986455
41
-2.98531237060877
42
-0.0138074336181749
0
ELLIPSE
5
13A
100
AcDbEntity
8
1
62
256
6
ByLayer
370
18
48
1
60
0
100
AcDbEllipse
10
17.749773
20
0
30
0
11
1.22460635382238E-15
21
20.0000000000001
31
0
210
0
220
0
230
1
40
0.087489
41
0.392575063395561
42
2.57144697975525
0
ELLIPSE
5
13B
100
AcDbEntity
8
1
62
256
6
ByLayer
370
18
48
1
60
0
100
AcDbEllipse
10
21.065143
20
-0.129802
30
0
11
-3.28407334188189
21
-7.36579730713168
31
0
210
0
220
0
230
1
40
0.310029
41
-0.0494231938407835
42
0.96319246907314
0
ELLIPSE
5
13C
100
AcDbEntity
8
1
62
256
6
ByLayer
370
18
48
1
60
0
100
AcDbEllipse
10
17.749773
20
0
30
0
11
1.22460635565278E-15
21
20.0000000298938
31
0
210
0
220
0
230
1
40
0.087489
41
2.65039556340061
42
2.74901759039132
0
ELLIPSE
5
13D
100
AcDbEntity
8
1
62
256
6
ByLayer
370
18
48
1
60
0
100
AcDbEllipse
10
8
20
-12.137533
30
0
11
2
21
0
31
0
210
0
220
0
230
1
40
0.707107
41
-2.13933058448328
42
-1.00226206910651
0
ELLIPSE
5
13E
100
AcDbEntity
8
1
62
256
6
ByLayer
370
18
48
1
60
0
100
AcDbEllipse
10
8
20
-10.606602
30
0
11
-1.87399516862692
21
-2.78920145025283
31
0
210
0
220
0
230
1
40
0.250492
41
-1.19573565242856
42
0.482011273483799
0
ELLIPSE
5
13F
100
AcDbEntity
8
1
62
256
6
ByLayer
370
18
48
1
60
0
100
AcDbEllipse
10
27.339146
20
1.885239
30
0
11
-5.40670737041569
21
3.95647429459375
31
0
210
0
220
0
230
1
40
0.59704
41
-3.10976218905424
42
-2.95475389678509
0
ELLIPSE
5
140
100
AcDbEntity
8
1
62
256
6
ByLayer
370
18
48
1
60
0
100
AcDbEllipse
10
8
20
-12.137533
30
0
11
2
21
0
31
0
210
0
220
0
230
1
40
0.707107
41
1.00226206910651
42
2.13933058448328
0
ELLIPSE
5
141
100
AcDbEntity
8
1
62
256
6
ByLayer
370
18
48
1
60
0
100
AcDbEllipse
10
16.946952
20
-14.861381
30
0
11
-0.028573620359176
21
2.84633033923877
31
0
210
0
220
0
230
1
40
0.078707
41
2.9148737966309
42
-2.73444225923259
0
ELLIPSE
5
142
100
AcDbEntity
8
1
62
256
6
ByLayer
370
18
48
1
60
0
100
AcDbEllipse
10
21.065143
20
-4.378628
30
0
11
-2.30561411425564
21
-11.5527466369093
31
0
210
0
220
0
230
1
40
0.282934
41
-1.14510963564119
42
-1.04374212011109
0
ELLIPSE
5
143
100
AcDbEntity
8
1
62
256
6
ByLayer
370
18
48
1
60
0
100
AcDbEllipse
10
8
20
-10.606602
30
0
11
-1.87399516862688
21
2.78920145025279
31
0
210
0
220
0
230
1
40
0.250492
41
2.65958138010599
42
-1.94585700116122
0
ELLIPSE
5
144
100
AcDbEntity
8
1
62
256
6
ByLayer
370
18
48
1
60
0
100
AcDbEllipse
10
16.948929
20
0
30
0
11
-9.36741787978286
21
-19.7417491527512
31
0
210
0
220
0
230
1
40
0.341999
41
-1.09631952749986
42
-0.152726244898338
0
ELLIPSE
5
145
100
AcDbEntity
8
1
62
256
6
ByLayer
370
18
48
1
60
0
100
AcDbEllipse
10
16.946952
20
-14.861381
30
0
11
-0.0285736203589385
21
2.84633033922374
31
0
210
0
220
0
230
1
40
0.078707
41
-0.337585724074428
42
2.33689585040874
0
ELLIPSE
5
146
100
AcDbEntity
8
1
62
256
6
ByLayer
370
18
48
1
60
0
100
AcDbEllipse
10
-0.948929
20
0
30
0
11
-9.36741787978212
21
-19.7417491527504
31
0
210
0
220
0
230
1
40
0.341999
41
2.0452731260899
42
2.98886640869145
0
ELLIPSE
5
147
100
AcDbEntity
8
1
62
256
6
ByLayer
370
18
48
1
60
0
100
AcDbEllipse
10
16.948929
20
0
30
0
11
-9.36741787978228
21
19.7417491527506
31
0
210
0
220
0
230
1
40
0.341999
41
0.152726244898342
42
1.09631952749988
0
ELLIPSE
5
148
100
AcDbEntity
8
1
62
256
6
ByLayer
370
18
48
1
60
0
100
AcDbEllipse
10
16.433179
20
-14.587208
30
0
11
-2.7524886650614
21
0.672493728951028
31
0
210
0
220
0
230
1
40
0.874054
41
-1.56107538729477
42
-1.52274356848939
0
ELLIPSE
5
149
100
AcDbEntity
8
1
62
256
6
ByLayer
370
18
48
1
60
0
100
AcDbEllipse
10
-0.948929
20
0
30
0
11
-9.36741787978243
21
19.7417491527508
31
0
210
0
220
0
230
1
40
0.341999
41
-2.98886640869145
42
-2.04527312608992
0
ELLIPSE
5
14A
100
AcDbEntity
8
1
62
256
6
ByLayer
370
18
48
1
60
0
100
AcDbEllipse
10
49.210551
20
-26.210551
30
0
11
-0.561266007568108
21
-0.561266007565537
31
0
210
0
220
0
230
1
40
0.989133
41
0.698131700797726
42
2.44346095279207
0
ELLIPSE
5
14B
100
AcDbEntity
8
1
62
256
6
ByLayer
370
18
48
1
60
0
100
AcDbEllipse
10
48.293514
20
-15.035984
30
0
11
-0.561266007568108
21
-0.561266007565537
31
0
210
0
220
0
230
1
40
0.989133
41
2.44346095279208
42
-2.44346095279205
0
ELLIPSE
5
14C
100
AcDbEntity
8
1
62
256
6
ByLayer
370
18
48
1
60
0
100
AcDbEllipse
10
38.035984
20
-25.293514
30
0
11
-0.561266007568108
21
-0.561266007565537
31
0
210
0
220
0
230
1
40
0.989133
41
-0.698131700797726
42
0.698131700797739
0
ELLIPSE
5
14D
100
AcDbEntity
8
1
62
256
6
ByLayer
370
18
48
1
60
0
100
AcDbEllipse
10
26.825855
20
-3.554564
30
0
11
-2.63484102845564
21
-1.43867915685496
31
0
210
0
220
0
230
1
40
0.995352
41
-2.33628586873237
42
-2.33017562460841
0
ELLIPSE
5
14E
100
AcDbEntity
8
1
62
256
6
ByLayer
370
18
48
1
60
0
100
AcDbEllipse
10
30.376929
20
-8.203402
30
0
11
-4.09042179648945
21
2.87549118009498
31
0
210
0
220
0
230
1
40
0.02553
41
0.9070112111827
42
1.348042316539
0
ELLIPSE
5
14F
100
AcDbEntity
8
1
62
256
6
ByLayer
370
18
48
1
60
0
100
AcDbEllipse
10
30.988176
20
-17.138822
30
0
11
-9.28421974187023
21
3.35239987202635
31
0
210
0
220
0
230
1
40
0.116247
41
-0.310845503056495
42
0.408355396889004
0
ELLIPSE
5
150
100
AcDbEntity
8
1
62
256
6
ByLayer
370
18
48
1
60
0
100
AcDbEllipse
10
28.225382
20
-4.746505
30
0
11
-1.86177536637396
21
-2.35297642300821
31
0
210
0
220
0
230
1
40
0.877989
41
-3.07708608368861
42
-1.50628975689366
0
ELLIPSE
5
151
100
AcDbEntity
8
1
62
256
6
ByLayer
370
18
48
1
60
0
100
AcDbEllipse
10
35.79443
20
-10.301866
30
0
11
-6.10979165036758
21
7.86297520615159
31
0
210
0
220
0
230
1
40
0.131287
41
-0.399813170216395
42
0.319387729729223
0
ELLIPSE
5
152
100
AcDbEntity
8
1
62
256
6
ByLayer
370
18
48
1
60
0
100
AcDbEllipse
10
27.876067
20
-11.760909
30
0
11
-6.95114826979977
21
-1.22574374103312
31
0
210
0
220
0
230
1
40
0.085467
41
0.973171014433897
42
1.43723454275081
0
ELLIPSE
5
153
100
AcDbEntity
8
1
62
256
6
ByLayer
370
18
48
1
60
0
100
AcDbEllipse
10
27.387393
20
-12.456054
30
0
11
-4.09042179648945
21
2.87549118009498
31
0
210
0
220
0
230
1
40
0.02553
41
0.907011211182701
42
1.348042316539
0
ELLIPSE
5
154
100
AcDbEntity
8
1
62
256
6
ByLayer
370
18
48
1
60
0
100
AcDbEllipse
10
42.844425
20
-23.073697
30
0
11
-6.09125960842255
21
-1.37050086353168
31
0
210
0
220
0
230
1
40
0.534007
41
-0.689694561687097
42
-0.609956293981224
0
ELLIPSE
5
155
100
AcDbEntity
8
1
62
256
6
ByLayer
370
18
48
1
60
0
100
AcDbEllipse
10
39.818811
20
-22.400454
30
0
11
-1.05474550221858
21
0.233843842376265
31
0
210
0
220
0
230
1
40
0.175059
41
0.829086299713222
42
1.35268507532294
0
ELLIPSE
5
156
100
AcDbEntity
8
1
62
256
6
ByLayer
370
18
48
1
60
0
100
AcDbEllipse
10
45.671706
20
-19.051855
30
0
11
-0.347448890635602
21
-6.87818789474777
31
0
210
0
220
0
230
1
40
0.548566
41
-2.34732957095178
42
-2.26759130310169
0
ELLIPSE
5
157
100
AcDbEntity
8
1
62
256
6
ByLayer
370
18
48
1
60
0
100
AcDbEllipse
10
44.019724
20
-16.424602
30
0
11
-0.571116453331924
21
0.918981791305894
31
0
210
0
220
0
230
1
40
0.218147
41
-1.33296183506249
42
-0.809363059455526
0
ELLIPSE
5
158
100
AcDbEntity
8
1
62
256
6
ByLayer
370
18
48
1
60
0
100
AcDbEllipse
10
26.536876
20
0.09912
30
0
11
5.72659051508523
21
-4.02568765213298
31
0
210
0
220
0
230
1
40
0.02553
41
0.808573903783165
42
1.21583528734085
0
ELLIPSE
5
159
100
AcDbEntity
8
1
62
256
6
ByLayer
370
18
48
1
60
0
100
AcDbEllipse
10
22.018727
20
-10.391915
30
0
11
-2.64782040551622
21
-1.41177656956016
31
0
210
0
220
0
230
1
40
0.995536
41
0.118833623899537
42
0.124945327476368
0
ELLIPSE
5
15A
100
AcDbEntity
8
1
62
256
6
ByLayer
370
18
48
1
60
0
100
AcDbEllipse
10
29.888255
20
-8.898547
30
0
11
-1.22346796598851
21
6.93824243214822
31
0
210
0
220
0
230
1
40
0.060067
41
-1.46303974563105
42
-0.998976217309081
0
ELLIPSE
5
15B
100
AcDbEntity
8
1
62
256
6
ByLayer
370
18
48
1
60
0
100
AcDbEllipse
10
33.03862
20
-14.301475
30
0
11
0.300520382004971
21
0.300520382003594
31
0
210
0
220
0
230
1
40
0.989133
41
0.327858307401828
42
1.04609475784758
0
ELLIPSE
5
15C
100
AcDbEntity
8
1
62
256
6
ByLayer
370
18
48
1
60
0
100
AcDbEllipse
10
30.801984
20
-12.741618
30
0
11
0.300520382004971
21
0.300520382003594
31
0
210
0
220
0
230
1
40
0.989133
41
-0.697028907448704
42
0.0212075429970362
0
ELLIPSE
5
15D
100
AcDbEntity
8
1
62
256
6
ByLayer
370
18
48
1
60
0
100
AcDbEllipse
10
33.953368
20
-13.000235
30
0
11
0.300520382004971
21
0.300520382003594
31
0
210
0
220
0
230
1
40
0.989133
41
2.44456374614106
42
-3.12038511059276
0
ELLIPSE
5
15E
100
AcDbEntity
8
1
62
256
6
ByLayer
370
18
48
1
60
0
100
AcDbEllipse
10
33.511794
20
-12.337242
30
0
11
-0.268700576851503
21
-0.268700576850273
31
0
210
0
220
0
230
1
40
0.989133
41
1.37505585859847
42
-2.07318755939617
0
ELLIPSE
5
15F
100
AcDbEntity
8
1
62
256
6
ByLayer
370
18
48
1
60
0
100
AcDbEllipse
10
33.03862
20
-14.301475
30
0
11
0.300520382004971
21
0.300520382003594
31
0
210
0
220
0
230
1
40
0.989133
41
1.39736619494447
42
2.11560264539024
0
ELLIPSE
5
160
100
AcDbEntity
8
1
62
256
6
ByLayer
370
18
48
1
60
0
100
AcDbEllipse
10
32.377676
20
-12.870927
30
0
11
0.830850467896096
21
0.830850467892291
31
0
210
0
220
0
230
1
40
0.989133
41
2.20568417589393
42
2.33217187929134
0
ELLIPSE
5
161
100
AcDbEntity
8
1
62
256
6
ByLayer
370
18
48
1
60
0
100
AcDbEllipse
10
30.801984
20
-12.741618
30
0
11
0.300520382004971
21
0.300520382003594
31
0
210
0
220
0
230
1
40
0.989133
41
-1.76653679499136
42
-1.04830034454562
0
ELLIPSE
5
162
100
AcDbEntity
8
1
62
256
6
ByLayer
370
18
48
1
60
0
100
AcDbEllipse
10
32.287563
20
-12.780814
30
0
11
-2.82842712475267
21
-2.82842712473971
31
0
210
0
220
0
230
1
40
0.989133
41
0
42
6.28318530717959
0
ELLIPSE
5
163
100
AcDbEntity
8
1
62
256
6
ByLayer
370
18
48
1
60
0
100
AcDbEllipse
10
32.377676
20
-12.870927
30
0
11
0.830850467896096
21
0.830850467892291
31
0
210
0
220
0
230
1
40
0.989133
41
-0.935908477695848
42
-0.80942077429847
0
ELLIPSE
5
164
100
AcDbEntity
8
1
62
256
6
ByLayer
370
18
48
1
60
0
100
AcDbEllipse
10
31.243558
20
-13.404611
30
0
11
-0.268700576851503
21
-0.268700576850273
31
0
210
0
220
0
230
1
40
0.989133
41
-1.76653679499137
42
1.06840509419363
0
ELLIPSE
5
165
100
AcDbEntity
8
1
62
256
6
ByLayer
370
18
48
1
60
0
100
AcDbEllipse
10
32.377676
20
-12.870927
30
0
11
-1.62634559673278
21
-1.62634559672533
31
0
210
0
220
0
230
1
40
0.989133
41
0
42
6.28318530717959
0
ELLIPSE
5
166
100
AcDbEntity
8
1
62
256
6
ByLayer
370
18
48
1
60
0
100
AcDbEllipse
10
33.396215
20
-13.581268
30
0
11
-0.268700576851503
21
-0.268700576850273
31
0
210
0
220
0
230
1
40
0.989133
41
0.327858307401863
42
-3.12038511059279
0
ELLIPSE
5
167
100
AcDbEntity
8
1
62
256
6
ByLayer
370
18
48
1
60
0
100
AcDbEllipse
10
32.804707
20
-14.067562
30
0
11
0.300520382004971
21
0.300520382003594
31
0
210
0
220
0
230
1
40
0.989133
41
0.327858307401841
42
2.11560264539024
0
ELLIPSE
5
168
100
AcDbEntity
8
1
62
256
6
ByLayer
370
18
48
1
60
0
100
AcDbEllipse
10
32.377676
20
-12.870927
30
0
11
0.830850467896096
21
0.830850467892291
31
0
210
0
220
0
230
1
40
0.989133
41
0.111289073500738
42
0.237776776898128
0
ELLIPSE
5
169
100
AcDbEntity
8
1
62
256
6
ByLayer
370
18
48
1
60
0
100
AcDbEllipse
10
33.953368
20
-13.000235
30
0
11
0.300520382004971
21
0.300520382003594
31
0
210
0
220
0
230
1
40
0.989133
41
1.37505585859845
42
2.09329230904423
0
ELLIPSE
5
16A
100
AcDbEntity
8
1
62
256
6
ByLayer
370
18
48
1
60
0
100
AcDbEllipse
10
32.377676
20
-12.870927
30
0
11
0.830850467896096
21
0.830850467892291
31
0
210
0
220
0
230
1
40
0.989133
41
1.15848662469733
42
1.28497432809474
0
ELLIPSE
5
16B
100
AcDbEntity
8
1
62
256
6
ByLayer
370
18
48
1
60
0
100
AcDbEllipse
10
32.493255
20
-11.626901
30
0
11
-0.268700576851503
21
-0.268700576850273
31
0
210
0
220
0
230
1
40
0.989133
41
2.42225340979502
42
-1.02599000819957
0
ELLIPSE
5
16C
100
AcDbEntity
8
1
62
256
6
ByLayer
370
18
48
1
60
0
100
AcDbEllipse
10
31.462928
20
-14.172167
30
0
11
0.300520382004971
21
0.300520382003594
31
0
210
0
220
0
230
1
40
0.989133
41
-0.719339243794741
42
-0.00110279334898441
0
ELLIPSE
5
16D
100
AcDbEntity
8
1
62
256
6
ByLayer
370
18
48
1
60
0
100
AcDbEllipse
10
32.377676
20
-12.870927
30
0
11
0.830850467896096
21
0.830850467892291
31
0
210
0
220
0
230
1
40
0.989133
41
-1.98310602889246
42
-1.85661832549506
0
ELLIPSE
5
16E
100
AcDbEntity
8
1
62
256
6
ByLayer
370
18
48
1
60
0
100
AcDbEllipse
10
31.716732
20
-11.440378
30
0
11
0.300520382004971
21
0.300520382003594
31
0
210
0
220
0
230
1
40
0.989133
41
-1.7442264586453
42
-1.02599000819956
0
ELLIPSE
5
16F
100
AcDbEntity
8
1
62
256
6
ByLayer
370
18
48
1
60
0
100
AcDbEllipse
10
31.359137
20
-12.160585
30
0
11
-0.268700576851503
21
-0.268700576850273
31
0
210
0
220
0
230
1
40
0.989133
41
-2.81373434618794
42
0.021207542997011
0
ELLIPSE
5
170
100
AcDbEntity
8
1
62
256
6
ByLayer
370
18
48
1
60
0
100
AcDbEllipse
10
32.262097
20
-14.114952
30
0
11
-0.268700576851503
21
-0.268700576850273
31
0
210
0
220
0
230
1
40
0.989133
41
-0.719339243794749
42
2.11560264539021
0
ELLIPSE
5
171
100
AcDbEntity
8
1
62
256
6
ByLayer
370
18
48
1
60
0
100
AcDbEllipse
10
31.462928
20
-14.172167
30
0
11
0.300520382004971
21
0.300520382003594
31
0
210
0
220
0
230
1
40
0.989133
41
0.350168643747918
42
1.06840509419363
0
ELLIPSE
5
172
100
AcDbEntity
8
1
62
256
6
ByLayer
370
18
48
1
60
0
100
AcDbEllipse
10
32.377676
20
-12.870927
30
0
11
0.830850467896096
21
0.830850467892291
31
0
210
0
220
0
230
1
40
0.989133
41
-3.03030358008905
42
-2.90381587669165
0
ELLIPSE
5
173
100
AcDbEntity
8
1
62
256
6
ByLayer
370
18
48
1
60
0
100
AcDbEllipse
10
31.716732
20
-11.440378
30
0
11
0.300520382004971
21
0.300520382003594
31
0
210
0
220
0
230
1
40
0.989133
41
-2.81373434618796
42
-2.09549789574222
0
ELLIPSE
5
174
100
AcDbEntity
8
1
62
256
6
ByLayer
370
18
48
1
60
0
100
AcDbEllipse
10
33.292424
20
-11.569687
30
0
11
0.300520382004971
21
0.300520382003594
31
0
210
0
220
0
230
1
40
0.989133
41
-2.79142400984191
42
-2.07318755939614
0
ELLIPSE
5
175
100
AcDbEntity
8
1
62
256
6
ByLayer
370
18
48
1
60
0
100
AcDbEllipse
10
33.292424
20
-11.569687
30
0
11
0.300520382004971
21
0.300520382003594
31
0
210
0
220
0
230
1
40
0.989133
41
2.42225340979504
42
3.1404898602408
0
ELLIPSE
5
176
100
AcDbEntity
8
1
62
256
6
ByLayer
370
18
48
1
60
0
100
AcDbEllipse
10
43.6517
20
-20.504354
30
0
11
-3.18198051534675
21
-3.18198051533218
31
0
210
0
220
0
230
1
40
0.989133
41
2.35619449019234
42
2.87979326579065
0
ELLIPSE
5
177
100
AcDbEntity
8
1
62
256
6
ByLayer
370
18
48
1
60
0
100
AcDbEllipse
10
46.289769
20
-21.234314
30
0
11
-1.49847459157564
21
-1.63003079786671
31
0
210
0
220
0
230
1
40
0.652432
41
2.51919203123671
42
-2.74303571549637
0
ELLIPSE
5
178
100
AcDbEntity
8
1
62
256
6
ByLayer
370
18
48
1
60
0
100
AcDbEllipse
10
39.233913
20
-21.271633
30
0
11
-8.77928477669488
21
-0.377180955825492
31
0
210
0
220
0
230
1
40
0.731858
41
-2.21990583199112
42
-2.15633517213484
0
ELLIPSE
5
179
100
AcDbEntity
8
1
62
256
6
ByLayer
370
18
48
1
60
0
100
AcDbEllipse
10
44.005169
20
-20.857824
30
0
11
-2.53778696600816
21
-2.53778696599653
31
0
210
0
220
0
230
1
40
0.989133
41
0.610865238198011
42
0.704629737755969
0
ELLIPSE
5
17A
100
AcDbEntity
8
1
62
256
6
ByLayer
370
18
48
1
60
0
100
AcDbEllipse
10
44.005169
20
-20.857824
30
0
11
-2.53778696600816
21
-2.53778696599653
31
0
210
0
220
0
230
1
40
0.989133
41
2.78602876623268
42
2.87979326579065
0
ELLIPSE
5
17B
100
AcDbEntity
8
1
62
256
6
ByLayer
370
18
48
1
60
0
100
AcDbEllipse
10
43.122884
20
-15.739524
30
0
11
-1.49844309991469
21
9.06767820439751
31
0
210
0
220
0
230
1
40
0.721982
41
2.27742320986245
42
2.34099386911048
0
ELLIPSE
5
17C
100
AcDbEntity
8
1
62
256
6
ByLayer
370
18
48
1
60
0
100
AcDbEllipse
10
45.03135
20
-23.024429
30
0
11
-1.15902115055667
21
-1.55495811739099
31
0
210
0
220
0
230
1
40
0.75312
41
-0.162904209625056
42
0.858053350821765
0
ELLIPSE
5
17D
100
AcDbEntity
8
1
62
256
6
ByLayer
370
18
48
1
60
0
100
AcDbEllipse
10
43.6517
20
-20.504354
30
0
11
-3.18198051534675
21
-3.18198051533218
31
0
210
0
220
0
230
1
40
0.989133
41
0.61086523819801
42
1.13446401379631
0
ELLIPSE
5
17E
100
AcDbEntity
8
1
62
256
6
ByLayer
370
18
48
1
60
0
100
AcDbEllipse
10
44.005169
20
-20.857824
30
0
11
2.30693672462581
21
2.30693672461524
31
0
210
0
220
0
230
1
40
0.989133
41
-2.00712863979349
42
-0.78539816339745
0
ELLIPSE
5
17F
100
AcDbEntity
8
1
62
256
6
ByLayer
370
18
48
1
60
0
100
AcDbEllipse
10
43.6517
20
-20.504354
30
0
11
-3.18198051534675
21
-3.18198051533218
31
0
210
0
220
0
230
1
40
0.989133
41
1.13446401379631
42
2.35619449019234
0
POINT
5
6C
100
AcDbEntity
8
2
62
256
6
ByLayer
370
18
48
1
60
0
100
AcDbPoint
10
50
20
27
30
0
39
0
210
0
220
0
230
1
50
360
0
POINT
5
6E
100
AcDbEntity
8
80
62
256
6
ByLayer
370
18
48
1
60
0
100
AcDbPoint
10
0
20
0
30
0
39
0
210
0
220
0
230
1
50
360
0
POINT
5
70
100
AcDbEntity
8
81
62
256
6
ByLayer
370
18
48
1
60
0
100
AcDbPoint
10
50
20
-27
30
0
39
0
210
0
220
0
230
1
50
360
0
SPLINE
5
180
100
AcDbEntity
8
SK1
62
256
6
ByLayer
370
18
48
1
60
0
100
AcDbSpline
70
4
71
2
72
6
73
3
40
0
40
0
40
0
40
1
40
1
40
1
41
1
10
-22.5
20
-13.493394380475
30
0
41
1
10
-12.099999999963
20
-13.7545958471854
30
0
41
1
10
-1.69999999999999
20
-14.0157970602974
30
0
0
SPLINE
5
181
100
AcDbEntity
8
SK1
62
256
6
ByLayer
370
18
48
1
60
0
100
AcDbSpline
70
4
71
2
72
6
73
3
40
0
40
0
40
0
40
1
40
1
40
1
41
1
10
-1.69999999999999
20
14.0157977997179
30
0
41
1
10
-12.0999999999449
20
13.7545973909208
30
0
41
1
10
-22.5
20
13.4933966698402
30
0
0
SPLINE
5
182
100
AcDbEntity
8
SK1
62
256
6
ByLayer
370
18
48
1
60
0
100
AcDbSpline
70
4
71
3
72
13
73
9
40
0
40
0
40
0
40
0
40
0.239457531297589
40
0.368361583423433
40
0.500001014483274
40
0.631640276582825
40
0.760543863002551
40
1
40
1
40
1
40
1
41
1
10
-1.49503997793928
20
13.8251858327438
30
0
41
1
10
-1.52111030874428
20
13.8247841935567
30
0
41
1
10
-1.5588406423667
20
13.830956449625
30
0
41
1
10
-1.60627712752267
20
13.8540002532836
30
0
41
1
10
-1.63886378681673
20
13.8791676243503
30
0
41
1
10
-1.66563592205637
20
13.9104491790265
30
0
41
1
10
-1.69103284110332
20
13.9566683539303
30
0
41
1
10
-1.6990919864528
20
13.9940409390257
30
0
41
1
10
-1.69999999999999
20
14.0200984156386
30
0
0
SPLINE
5
183
100
AcDbEntity
8
SK1
62
256
6
ByLayer
370
18
48
1
60
0
100
AcDbSpline
70
4
71
3
72
13
73
9
40
0
40
0
40
0
40
0
40
0.239456137017857
40
0.368359723444941
40
0.499998985547708
40
0.631638416605807
40
0.760542468725193
40
1
40
1
40
1
40
1
41
1
10
-1.69999999999999
20
-14.0200984122732
30
0
41
1
10
-1.69909198645308
20
-13.9940409356568
30
0
41
1
10
-1.69103284110358
20
-13.9566683505561
30
0
41
1
10
-1.66563592205674
20
-13.9104491756451
30
0
41
1
10
-1.63886378681727
20
-13.8791676209635
30
0
41
1
10
-1.6062771275233
20
-13.8540002498915
30
0
41
1
10
-1.5588406423679
20
-13.8309564462263
30
0
41
1
10
-1.52111030874491
20
-13.8247841901529
30
0
41
1
10
-1.49503997793931
20
-13.8251858293361
30
0
0
SPLINE
5
184
100
AcDbEntity
8
SK1
62
256
6
ByLayer
370
18
48
1
60
0
100
AcDbSpline
70
4
71
2
72
6
73
3
40
0
40
0
40
0
40
1
40
1
40
1
41
1
10
-22.5
20
13.4970856697526
30
0
41
1
10
-23.2499999989322
20
13.0640911753538
30
0
41
1
10
-24
20
12.6310964932104
30
0
0
SPLINE
5
185
100
AcDbEntity
8
SK1
62
256
6
ByLayer
370
18
48
1
60
0
100
AcDbSpline
70
4
71
2
72
6
73
3
40
0
40
0
40
0
40
1
40
1
40
1
41
1
10
-24
20
-12.6310961283886
30
0
41
1
10
-23.2499999989318
20
-13.0640908004416
30
0
41
1
10
-22.5
20
-13.4970852847173
30
0
0
SPLINE
5
186
100
AcDbEntity
8
SK1
62
256
6
ByLayer
370
18
48
1
60
0
100
AcDbSpline
70
4
71
2
72
6
73
3
40
0
40
0
40
0
40
1
40
1
40
1
41
1
10
-0.394976888875277
20
13.7403788260786
30
0
41
1
10
-0.945008433407281
20
13.7266599565288
30
0
41
1
10
-1.49503997793928
20
13.7129410868425
30
0
0
SPLINE
5
187
100
AcDbEntity
8
SK1
62
256
6
ByLayer
370
18
48
1
60
0
100
AcDbSpline
70
4
71
2
72
6
73
3
40
0
40
0
40
0
40
1
40
1
40
1
41
1
10
-1.49503997793931
20
-13.7129423752897
30
0
41
1
10
-0.945008433407281
20
-13.7266611372792
30
0
41
1
10
-0.394976888875306
20
-13.740379899128
30
0
0
SPLINE
5
188
100
AcDbEntity
8
1
62
256
6
ByLayer
370
18
48
1
60
0
100
AcDbSpline
70
4
71
2
72
6
73
3
40
0
40
0
40
0
40
1
40
1
40
1
41
0.886138772719843
10
19.1175401437314
20
-11.0475660912984
30
0
41
0.915161195607646
10
18.2610599412283
20
-11.2418328208098
30
0
41
1.02613459695995
10
17.6751324191375
20
-10.8592473531643
30
0
0
SPLINE
5
189
100
AcDbEntity
8
SK1
62
256
6
ByLayer
370
18
48
1
60
0
100
AcDbSpline
70
4
71
3
72
22
73
18
40
0
40
0
40
0
40
0
40
0.0542788415511183
40
0.0542788415511183
40
0.109669437046208
40
0.109669437046208
40
0.147579660274657
40
0.147579660274657
40
0.185286337538609
40
0.185286337538609
40
0.247115732297045
40
0.247115732297045
40
0.369423792214894
40
0.369423792214894
40
0.802518637893466
40
0.802518637893466
40
1
40
1
40
1
40
1
41
1
10
-0.394976888875277
20
13.8446019297682
30
0
41
1
10
-0.389542940031561
20
13.8449158599001
30
0
41
1
10
-0.383617593481006
20
13.8454439659091
30
0
41
1
10
-0.370682577094897
20
13.8471856765741
30
0
41
1
10
-0.363425095790518
20
13.8484584409772
30
0
41
1
10
-0.350979043087193
20
13.8513238322133
30
0
41
1
10
-0.345738104843406
20
13.8527220431424
30
0
41
1
10
-0.335836036111374
20
13.8557300394867
30
0
41
1
10
-0.331061234651429
20
13.8573680363077
30
0
41
1
10
-0.319536857691617
20
13.8617043765564
30
0
41
1
10
-0.313226439154875
20
13.8644842406524
30
0
41
1
10
-0.296825865103983
20
13.8724174982475
30
0
41
1
10
-0.288454852011284
20
13.8774557840676
30
0
41
1
10
-0.256352537857253
20
13.8987262995108
30
0
41
1
10
-0.243999907013631
20
13.9124642192994
30
0
41
1
10
-0.229363924159344
20
13.9303243240481
30
0
41
1
10
-0.225387714743704
20
13.9356346474794
30
0
41
1
10
-0.221937450539599
20
13.9406885005316
30
0
0
SPLINE
5
18A
100
AcDbEntity
8
SK1
62
256
6
ByLayer
370
18
48
1
60
0
100
AcDbSpline
70
4
71
3
72
24
73
20
40
0
40
0
40
0
40
0
40
0.0014544386991579
40
0.0014544386991579
40
0.361956423059844
40
0.361956423059844
40
0.727731599250187
40
0.727731599250187
40
0.782013304695284
40
0.782013304695284
40
0.837002501937627
40
0.837002501937627
40
0.873144196436378
40
0.873144196436378
40
0.909511909647772
40
0.909511909647772
40
0.952113857168645
40
0.952113857168645
40
1
40
1
40
1
40
1
41
1
10
-0.217773520819833
20
-13.9477771104646
30
0
41
1
10
-0.217796303830511
20
-13.9477385212397
30
0
41
1
10
-0.217819113763113
20
-13.9476999169831
30
0
41
1
10
-0.223510113646853
20
-13.9380759054837
30
0
41
1
10
-0.230869554015214
20
-13.9275300777214
30
0
41
1
10
-0.252993763945881
20
-13.9036085654018
30
0
41
1
10
-0.266169306055218
20
-13.8900912648142
30
0
41
1
10
-0.299313210098944
20
-13.8713678522793
30
0
41
1
10
-0.304168151080091
20
-13.8688119846588
30
0
41
1
10
-0.315233613826848
20
-13.8635902765912
30
0
41
1
10
-0.321588767727178
20
-13.8608655729355
30
0
41
1
10
-0.333434048045547
20
-13.8565368608439
30
0
41
1
10
-0.338587345813778
20
-13.8548370746726
30
0
41
1
10
-0.349158334685967
20
-13.8517865918864
30
0
41
1
10
-0.354704697438706
20
-13.8504050227189
30
0
41
1
10
-0.366193697521936
20
-13.847969712967
30
0
41
1
10
-0.37221373013341
20
-13.8469665678177
30
0
41
1
10
-0.383950527302631
20
-13.8454141457692
30
0
41
1
10
-0.389694590782
20
-13.8449066720063
30
0
41
1
10
-0.394976888882155
20
-13.8446015176357
30
0
0
SPLINE
5
18B
100
AcDbEntity
8
SK1
62
256
6
ByLayer
370
18
48
1
60
0
100
AcDbSpline
70
4
71
3
72
120
73
116
40
0
40
0
40
0
40
0
40
0.0053555999418454
40
0.0131272595897366
40
0.0208989192376277
40
0.0286705788855189
40
0.0364422385334101
40
0.0442138981813013
40
0.0519855578291925
40
0.0597572174770837
40
0.0675288771249749
40
0.0753005367728661
40
0.0830721964207572
40
0.0908438560686484
40
0.0986155157165396
40
0.106387175364431
40
0.114158835012322
40
0.121930494660213
40
0.129702154308104
40
0.137473813955996
40
0.145245473603887
40
0.153017133251778
40
0.160788792899669
40
0.176332112195452
40
0.191875431491234
40
0.207418750787016
40
0.222962070082799
40
0.23073372973069
40
0.238505389378581
40
0.246277049026472
40
0.254048708674363
40
0.269592027970146
40
0.285135347265928
40
0.292907006913819
40
0.30067866656171
40
0.308450326209602
40
0.316221985857493
40
0.323993645505384
40
0.331765305153275
40
0.347308624449058
40
0.355080284096949
40
0.36285194374484
40
0.378395263040622
40
0.393938582336405
40
0.401710241984296
40
0.409481901632187
40
0.42502522092797
40
0.432796880575861
40
0.436682710399806
40
0.440568540223752
40
0.448340199871643
40
0.456111859519534
40
0.471655178815316
40
0.479426838463208
40
0.487198498111099
40
0.49497015775899
40
0.502741817406881
40
0.510513477054772
40
0.518285136702664
40
0.526056796350555
40
0.533828455998446
40
0.541600115646337
40
0.549371775294228
40
0.564915094590011
40
0.572686754237902
40
0.580458413885793
40
0.588230073533684
40
0.59211590335763
40
0.596001733181576
40
0.603773392829467
40
0.611545052477358
40
0.619316712125249
40
0.62708837177314
40
0.634860031421032
40
0.642631691068923
40
0.658175010364705
40
0.673718329660487
40
0.681489989308379
40
0.68926164895627
40
0.704804968252052
40
0.712576627899943
40
0.720348287547835
40
0.728119947195726
40
0.735891606843617
40
0.743663266491508
40
0.751434926139399
40
0.759206585787291
40
0.766978245435182
40
0.782521564730964
40
0.790293224378855
40
0.798064884026746
40
0.805836543674638
40
0.813608203322529
40
0.82137986297042
40
0.829151522618311
40
0.844694841914094
40
0.852466501561985
40
0.860238161209876
40
0.868009820857767
40
0.875781480505658
40
0.891324799801441
40
0.899096459449332
40
0.906868119097223
40
0.914639778745114
40
0.922411438393005
40
0.930183098040896
40
0.937954757688788
40
0.945726417336679
40
0.95349807698457
40
0.961269736632461
40
0.969041396280352
40
0.976813055928244
40
0.984584715576135
40
0.992356375224026
40
1
40
1
40
1
40
1
41
1
10
-1.69999999999999
20
2.5837250319525
30
0
41
1
10
-1.69999999999999
20
2.62111400924692
30
0
41
1
10
-1.69999999999999
20
2.71257747842986
30
0
41
1
10
-1.69999999999999
20
2.85743848960826
30
0
41
1
10
-1.69999999999999
20
3.01805529196176
30
0
41
1
10
-1.69999999999999
20
3.17766896347746
30
0
41
1
10
-1.69999999999999
20
3.33626946559076
30
0
41
1
10
-1.69999999999999
20
3.49384788295134
30
0
41
1
10
-1.69999999999999
20
3.65039703338328
30
0
41
1
10
-1.69999999999999
20
3.80591068333541
30
0
41
1
10
-1.69999999999999
20
3.9603838288908
30
0
41
1
10
-1.69999999999999
20
4.11381118090259
30
0
41
1
10
-1.69999999999999
20
4.26618881241484
30
0
41
1
10
-1.69999999999999
20
4.41751369191317
30
0
41
1
10
-1.69999999999999
20
4.56778315161375
30
0
41
1
10
-1.69999999999999
20
4.7169946256985
30
0
41
1
10
-1.69999999999999
20
4.86514572624662
30
0
41
1
10
-1.69999999999999
20
5.01223421717728
30
0
41
1
10
-1.69999999999999
20
5.15825863689906
30
0
41
1
10
-1.69999999999999
20
5.30321731736851
30
0
41
1
10
-1.69999999999999
20
5.44710902267545
30
0
41
1
10
-1.69999999999999
20
5.58993219435266
30
0
41
1
10
-1.69999999999999
20
5.77892152593586
30
0
41
1
10
-1.69999999999999
20
6.01251450148573
30
0
41
1
10
-1.69999999999999
20
6.28851702131561
30
0
41
1
10
-1.69999999999999
20
6.56021849497904
30
0
41
1
10
-1.69999999999999
20
6.78305839594086
30
0
41
1
10
-1.69999999999999
20
6.95914718913937
30
0
41
1
10
-1.69999999999999
20
7.0901422748378
30
0
41
1
10
-1.69999999999999
20
7.22005471809891
30
0
41
1
10
-1.69999999999999
20
7.391814483107
30
0
41
1
10
-1.69999999999999
20
7.60382757721297
30
0
41
1
10
-1.69999999999999
20
7.81221412115067
30
0
41
1
10
-1.69999999999999
20
7.97672004102665
30
0
41
1
10
-1.69999999999999
20
8.09901466976936
30
0
41
1
10
-1.69999999999999
20
8.22021382021134
30
0
41
1
10
-1.69999999999999
20
8.34031608257325
30
0
41
1
10
-1.69999999999999
20
8.45931946186533
30
0
41
1
10
-1.69999999999999
20
8.61651163422607
30
0
41
1
10
-1.69999999999999
20
8.77152769372714
30
0
41
1
10
-1.69999999999999
20
8.92429762219672
30
0
41
1
10
-1.69999999999999
20
9.07558728630886
30
0
41
1
10
-1.69999999999999
20
9.26193699842017
30
0
41
1
10
-1.69999999999999
20
9.44455857133374
30
0
41
1
10
-1.69999999999999
20
9.58839009925038
30
0
41
1
10
-1.69999999999999
20
9.73071863089592
30
0
41
1
10
-1.69999999999999
20
9.87081045044334
30
0
41
1
10
-1.69999999999999
20
9.99138145148612
30
0
41
1
10
-1.69999999999999
20
10.059706595653
30
0
41
1
10
-1.69999999999999
20
10.127650582945
30
0
41
1
10
-1.69999999999999
20
10.2118742978003
30
0
41
1
10
-1.69999999999999
20
10.3450861597474
30
0
41
1
10
-1.69999999999999
20
10.4760157822056
30
0
41
1
10
-1.69999999999999
20
10.6046008653873
30
0
41
1
10
-1.69999999999999
20
10.6998796625668
30
0
41
1
10
-1.69999999999999
20
10.7939888545435
30
0
41
1
10
-1.69999999999999
20
10.8869237943964
30
0
41
1
10
-1.69999999999999
20
10.9786794570574
30
0
41
1
10
-1.69999999999999
20
11.069250952524
30
0
41
1
10
-1.69999999999999
20
11.1586337774266
30
0
41
1
10
-1.69999999999999
20
11.2468221981049
30
0
41
1
10
-1.69999999999999
20
11.3338110691597
30
0
41
1
10
-1.69999999999999
20
11.4481829097131
30
0
41
1
10
-1.69999999999999
20
11.5601529310588
30
0
41
1
10
-1.69999999999999
20
11.6696587897978
30
0
41
1
10
-1.69999999999999
20
11.7505641463283
30
0
41
1
10
-1.69999999999999
20
11.8169591619061
30
0
41
1
10
-1.69999999999999
20
11.869448828233
30
0
41
1
10
-1.69999999999999
20
11.9215236271769
30
0
41
1
10
-1.69999999999999
20
11.9858436943514
30
0
41
1
10
-1.69999999999999
20
12.0617686735772
30
0
41
1
10
-1.69999999999999
20
12.1364317035572
30
0
41
1
10
-1.69999999999999
20
12.2098248313331
30
0
41
1
10
-1.69999999999999
20
12.2819407102379
30
0
41
1
10
-1.69999999999999
20
12.3763763795169
30
0
41
1
10
-1.69999999999999
20
12.4912006631364
30
0
41
1
10
-1.69999999999999
20
12.6016599065257
30
0
41
1
10
-1.69999999999999
20
12.687362440577
30
0
41
1
10
-1.69999999999999
20
12.7712834981639
30
0
41
1
10
-1.69999999999999
20
12.8525264302737
30
0
41
1
10
-1.69999999999999
20
12.9310230820619
30
0
41
1
10
-1.69999999999999
20
12.9885221046098
30
0
41
1
10
-1.69999999999999
20
13.0446338377524
30
0
41
1
10
-1.69999999999999
20
13.0993474417035
30
0
41
1
10
-1.69999999999999
20
13.1526505331688
30
0
41
1
10
-1.69999999999999
20
13.2045321176789
30
0
41
1
10
-1.69999999999999
20
13.2549799687684
30
0
41
1
10
-1.69999999999999
20
13.3203101272292
30
0
41
1
10
-1.69999999999999
20
13.3827344481881
30
0
41
1
10
-1.69999999999999
20
13.4421723383994
30
0
41
1
10
-1.69999999999999
20
13.4852529409442
30
0
41
1
10
-1.69999999999999
20
13.5268172136993
30
0
41
1
10
-1.69999999999999
20
13.5668499598694
30
0
41
1
10
-1.69999999999999
20
13.6053356175566
30
0
41
1
10
-1.69999999999999
20
13.6545611570253
30
0
41
1
10
-1.69999999999999
20
13.7006353167884
30
0
41
1
10
-1.69999999999999
20
13.7434661079967
30
0
41
1
10
-1.69999999999999
20
13.7739560268625
30
0
41
1
10
-1.69999999999999
20
13.8027899277569
30
0
41
1
10
-1.69999999999999
20
13.8389980176944
30
0
41
1
10
-1.69999999999999
20
13.8718187984145
30
0
41
1
10
-1.69999999999999
20
13.9011479145568
30
0
41
1
10
-1.69999999999999
20
13.9213794981548
30
0
41
1
10
-1.69999999999999
20
13.9398197437578
30
0
41
1
10
-1.69999999999999
20
13.9564420504847
30
0
41
1
10
-1.69999999999999
20
13.9712195410175
30
0
41
1
10
-1.69999999999999
20
13.9841238377961
30
0
41
1
10
-1.69999999999999
20
13.9951249982352
30
0
41
1
10
-1.69999999999999
20
14.0041924220526
30
0
41
1
10
-1.69999999999999
20
14.0112932507837
30
0
41
1
10
-1.69999999999999
20
14.0163938901866
30
0
41
1
10
-1.69999999999999
20
14.019458382701
30
0
41
1
10
-1.69999999999999
20
14.0204497516689
30
0
41
1
10
-1.69999999999999
20
14.0193347369004
30
0
41
1
10
-1.69999999999999
20
14.0171811880404
30
0
41
1
10
-1.69999999999999
20
14.0157592855012
30
0
0
SPLINE
5
18C
100
AcDbEntity
8
SK1
62
256
6
ByLayer
370
18
48
1
60
0
100
AcDbSpline
70
4
71
3
72
118
73
114
40
0
40
0
40
0
40
0
40
0.0076461639190052
40
0.015417803714398
40
0.0231894435097908
40
0.0309610833051837
40
0.0387327231005765
40
0.0465043628959693
40
0.0542760026913621
40
0.062047642486755
40
0.0698192822821478
40
0.0775909220775407
40
0.0931342016683263
40
0.108677481259112
40
0.124220760849898
40
0.13199240064529
40
0.139764040440683
40
0.147535680236076
40
0.155307320031469
40
0.170850599622255
40
0.178622239417647
40
0.18639387921304
40
0.194165519008433
40
0.201937158803826
40
0.209708798599219
40
0.217480438394612
40
0.233023717985397
40
0.24079535778079
40
0.248566997576183
40
0.256338637371576
40
0.264110277166969
40
0.271881916962361
40
0.279653556757754
40
0.287425196553147
40
0.29519683634854
40
0.310740115939326
40
0.318511755734719
40
0.326283395530111
40
0.341826675120897
40
0.357369954711683
40
0.365141594507075
40
0.372913234302468
40
0.380684874097861
40
0.388456513893254
40
0.396228153688647
40
0.40399979348404
40
0.407885613381736
40
0.411771433279432
40
0.419543073074825
40
0.427314712870218
40
0.435086352665611
40
0.450629632256397
40
0.458401272051789
40
0.466172911847182
40
0.473944551642575
40
0.481716191437968
40
0.489487831233361
40
0.497259471028754
40
0.505031110824146
40
0.512802750619539
40
0.520574390414932
40
0.528346030210325
40
0.543889309801111
40
0.551660949596503
40
0.559432589391896
40
0.563318409289593
40
0.567204229187289
40
0.574975868982682
40
0.590519148573467
40
0.59829078836886
40
0.606062428164253
40
0.621605707755039
40
0.637148987345824
40
0.644920627141217
40
0.65269226693661
40
0.668235546527396
40
0.676007186322789
40
0.683778826118182
40
0.691550465913574
40
0.699322105708967
40
0.70709374550436
40
0.714865385299753
40
0.730408664890538
40
0.745951944481324
40
0.753723584276717
40
0.76149522407211
40
0.769266863867503
40
0.777038503662895
40
0.792581783253681
40
0.808125062844467
40
0.823668342435252
40
0.839211622026038
40
0.846983261821431
40
0.854754901616824
40
0.862526541412217
40
0.870298181207609
40
0.878069821003002
40
0.885841460798395
40
0.893613100593788
40
0.901384740389181
40
0.909156380184574
40
0.916928019979966
40
0.924699659775359
40
0.932471299570752
40
0.940242939366145
40
0.948014579161538
40
0.955786218956931
40
0.963557858752323
40
0.971329498547716
40
0.979101138343109
40
0.986872778138502
40
0.994644417933895
40
1
40
1
40
1
40
1
41
1
10
-1.69999999999999
20
-14.0157582212158
30
0
41
1
10
-1.69999999999996
20
-14.0171808697676
30
0
41
1
10
-1.69999999999996
20
-14.0193350222336
30
0
41
1
10
-1.69999999999999
20
-14.0204498319149
30
0
41
1
10
-1.69999999999999
20
-14.0194577493028
30
0
41
1
10
-1.69999999999999
20
-14.0163929237538
30
0
41
1
10
-1.69999999999999
20
-14.0112928179987
30
0
41
1
10
-1.69999999999999
20
-14.0041925984504
30
0
41
1
10
-1.69999999999999
20
-13.9951252442004
30
0
41
1
10
-1.69999999999999
20
-13.9841239086368
30
0
41
1
10
-1.69999999999999
20
-13.9712195253815
30
0
41
1
10
-1.69999999999999
20
-13.9515178138587
30
0
41
1
10
-1.69999999999999
20
-13.9222750232465
30
0
41
1
10
-1.69999999999999
20
-13.8800204120324
30
0
41
1
10
-1.69999999999999
20
-13.838998019961
30
0
41
1
10
-1.69999999999999
20
-13.8027899045868
30
0
41
1
10
-1.69999999999999
20
-13.773955994413
30
0
41
1
10
-1.69999999999999
20
-13.7434660879001
30
0
41
1
10
-1.69999999999999
20
-13.7006353174901
30
0
41
1
10
-1.69999999999999
20
-13.6545611373555
30
0
41
1
10
-1.69999999999999
20
-13.6053355893185
30
0
41
1
10
-1.69999999999999
20
-13.5668499361124
30
0
41
1
10
-1.69999999999999
20
-13.5268172028035
30
0
41
1
10
-1.69999999999999
20
-13.485252935173
30
0
41
1
10
-1.69999999999999
20
-13.4421723218484
30
0
41
1
10
-1.69999999999999
20
-13.3827344162836
30
0
41
1
10
-1.69999999999999
20
-13.3203101073726
30
0
41
1
10
-1.69999999999999
20
-13.254979960848
30
0
41
1
10
-1.69999999999999
20
-13.2045321061977
30
0
41
1
10
-1.69999999999999
20
-13.1526505121852
30
0
41
1
10
-1.69999999999999
20
-13.099347414251
30
0
41
1
10
-1.69999999999999
20
-13.0446338149516
30
0
41
1
10
-1.69999999999999
20
-12.9885220902628
30
0
41
1
10
-1.69999999999999
20
-12.9310230723471
30
0
41
1
10
-1.69999999999999
20
-12.8525264142953
30
0
41
1
10
-1.69999999999999
20
-12.7712834714132
30
0
41
1
10
-1.69999999999999
20
-12.6873624197502
30
0
41
1
10
-1.69999999999999
20
-12.6016598943421
30
0
41
1
10
-1.69999999999999
20
-12.4912006491746
30
0
41
1
10
-1.69999999999999
20
-12.3763763558488
30
0
41
1
10
-1.69999999999999
20
-12.2819406900945
30
0
41
1
10
-1.69999999999999
20
-12.209824815618
30
0
41
1
10
-1.69999999999999
20
-12.1364316894724
30
0
41
1
10
-1.69999999999999
20
-12.0617686582407
30
0
41
1
10
-1.69999999999999
20
-11.9858436758677
30
0
41
1
10
-1.69999999999999
20
-11.9215236068653
30
0
41
1
10
-1.69999999999999
20
-11.8694488081267
30
0
41
1
10
-1.69999999999999
20
-11.8169591426362
30
0
41
1
10
-1.69999999999999
20
-11.7505641289662
30
0
41
1
10
-1.69999999999999
20
-11.6696587742526
30
0
41
1
10
-1.69999999999999
20
-11.5601529159528
30
0
41
1
10
-1.69999999999999
20
-11.448182891669
30
0
41
1
10
-1.69999999999999
20
-11.3338110499831
30
0
41
1
10
-1.69999999999999
20
-11.2468221792499
30
0
41
1
10
-1.69999999999999
20
-11.1586337603462
30
0
41
1
10
-1.69999999999999
20
-11.0692509372408
30
0
41
1
10
-1.69999999999999
20
-10.9786794422307
30
0
41
1
10
-1.69999999999999
20
-10.8869237783616
30
0
41
1
10
-1.69999999999999
20
-10.7939888359847
30
0
41
1
10
-1.69999999999999
20
-10.6998796425436
30
0
41
1
10
-1.69999999999999
20
-10.6046008465563
30
0
41
1
10
-1.69999999999999
20
-10.4760157679139
30
0
41
1
10
-1.69999999999999
20
-10.3450861470912
30
0
41
1
10
-1.69999999999999
20
-10.2118742799613
30
0
41
1
10
-1.69999999999999
20
-10.1276505623382
30
0
41
1
10
-1.69999999999999
20
-10.0597065749413
30
0
41
1
10
-1.69999999999999
20
-9.9913814320609
30
0
41
1
10
-1.69999999999999
20
-9.87081043657869
30
0
41
1
10
-1.69999999999999
20
-9.73071862052217
30
0
41
1
10
-1.69999999999999
20
-9.58839008121353
30
0
41
1
10
-1.69999999999999
20
-9.44455854729449
30
0
41
1
10
-1.69999999999999
20
-9.26193698423123
30
0
41
1
10
-1.69999999999999
20
-9.07558727703642
30
0
41
1
10
-1.69999999999999
20
-8.92429760284432
30
0
41
1
10
-1.69999999999999
20
-8.77152766795061
30
0
41
1
10
-1.69999999999999
20
-8.61651162008161
30
0
41
1
10
-1.69999999999999
20
-8.45931945344486
30
0
41
1
10
-1.69999999999999
20
-8.34031606829598
30
0
41
1
10
-1.69999999999999
20
-8.22021379775831
30
0
41
1
10
-1.69999999999999
20
-8.09901464495698
30
0
41
1
10
-1.69999999999999
20
-7.9767200242907
30
0
41
1
10
-1.69999999999999
20
-7.81221411547432
30
0
41
1
10
-1.69999999999999
20
-7.60382755625838
30
0
41
1
10
-1.69999999999999
20
-7.39181445781463
30
0
41
1
10
-1.69999999999999
20
-7.22005470774221
30
0
41
1
10
-1.69999999999999
20
-7.09014226669851
30
0
41
1
10
-1.69999999999999
20
-6.95914717066265
30
0
41
1
10
-1.69999999999999
20
-6.7830583657493
30
0
41
1
10
-1.69999999999999
20
-6.56021848903171
30
0
41
1
10
-1.69999999999999
20
-6.28851700104784
30
0
41
1
10
-1.69999999999999
20
-6.01251447744062
30
0
41
1
10
-1.69999999999999
20
-5.77892152059965
30
0
41
1
10
-1.69999999999999
20
-5.58993216915877
30
0
41
1
10
-1.69999999999999
20
-5.44710899667646
30
0
41
1
10
-1.69999999999999
20
-5.30321729486519
30
0
41
1
10
-1.69999999999999
20
-5.15825857839869
30
0
41
1
10
-1.69999999999999
20
-5.01223405348068
30
0
41
1
10
-1.69999999999999
20
-4.86514556778678
30
0
41
1
10
-1.69999999999999
20
-4.71699468615466
30
0
41
1
10
-1.69999999999999
20
-4.56778337246482
30
0
41
1
10
-1.69999999999999
20
-4.41751381174834
30
0
41
1
10
-1.69999999999999
20
-4.26618872973953
30
0
41
1
10
-1.69999999999999
20
-4.11381092681606
30
0
41
1
10
-1.69999999999999
20
-3.96038358832212
30
0
41
1
10
-1.69999999999999
20
-3.80591077742719
30
0
41
1
10
-1.69999999999999
20
-3.65039714326571
30
0
41
1
10
-1.69999999999999
20
-3.49384789900154
30
0
41
1
10
-1.69999999999999
20
-3.33626943234705
30
0
41
1
10
-1.69999999999999
20
-3.17766893265431
30
0
41
1
10
-1.69999999999999
20
-3.01805527431182
30
0
41
1
10
-1.69999999999999
20
-2.85743846779499
30
0
41
1
10
-1.69999999999999
20
-2.71257747642741
30
0
41
1
10
-1.69999999999999
20
-2.62111404232408
30
0
41
1
10
-1.69999999999999
20
-2.58372509632827
30
0
0
SPLINE
5
18D
100
AcDbEntity
8
SK1
62
256
6
ByLayer
370
18
48
1
60
0
100
AcDbSpline
70
4
71
3
72
287
73
283
40
0
40
0
40
0
40
0
40
0.0011530358898755
40
0.004641479683779
40
0.0081299234776825
40
0.011618367271586
40
0.0151068110654895
40
0.018595254859393
40
0.0220836986532965
40
0.0255721424472
40
0.0290605862411035
40
0.0325490300350069
40
0.0395259176228139
40
0.0465028052106209
40
0.0534796927984279
40
0.0569681365923314
40
0.0604565803862349
40
0.0639450241801384
40
0.0674334679740419
40
0.0744103555618489
40
0.0778987993557524
40
0.0813872431496559
40
0.0848756869435594
40
0.0883641307374629
40
0.0918525745313664
40
0.0953410183252698
40
0.102317905913077
40
0.10580634970698
40
0.109294793500884
40
0.112783237294787
40
0.116271681088691
40
0.119760124882594
40
0.123248568676498
40
0.126737012470401
40
0.130225456264305
40
0.137202343852112
40
0.140690787646015
40
0.144179231439919
40
0.151156119027726
40
0.158133006615533
40
0.161621450409436
40
0.16510989420334
40
0.168598337997243
40
0.172086781791147
40
0.17557522558505
40
0.179063669378954
40
0.180807891275905
40
0.182552113172857
40
0.186040556966761
40
0.189529000760664
40
0.193017444554568
40
0.199994332142375
40
0.203482775936278
40
0.206971219730182
40
0.210459663524085
40
0.213948107317989
40
0.217436551111892
40
0.220924994905796
40
0.224413438699699
40
0.227901882493603
40
0.231390326287506
40
0.23487877008141
40
0.241855657669217
40
0.24534410146312
40
0.248832545257024
40
0.250576767153975
40
0.252320989050927
40
0.255809432844831
40
0.262786320432638
40
0.266274764226541
40
0.269763208020445
40
0.276740095608252
40
0.283716983196058
40
0.287205426989962
40
0.290693870783865
40
0.297670758371673
40
0.301159202165576
40
0.30464764595948
40
0.308136089753383
40
0.311624533547286
40
0.31511297734119
40
0.318601421135093
40
0.325578308722901
40
0.332555196310708
40
0.336043640104611
40
0.339532083898515
40
0.343020527692418
40
0.346508971486321
40
0.353485859074128
40
0.360462746661936
40
0.367439634249742
40
0.374416521837549
40
0.377904965631453
40
0.381393409425356
40
0.38488185321926
40
0.388370297013163
40
0.391858740807067
40
0.39534718460097
40
0.398835628394874
40
0.402324072188777
40
0.405812515982681
40
0.409300959776584
40
0.412789403570488
40
0.416277847364391
40
0.419766291158295
40
0.423254734952198
40
0.426743178746102
40
0.430231622540005
40
0.433720066333909
40
0.437208510127812
40
0.440696953921716
40
0.444185397715619
40
0.447673841509523
40
0.449418063406475
40
0.451162285303426
40
0.45465072909733
40
0.456394950994282
40
0.458139172891233
40
0.459883394788185
40
0.461627616685137
40
0.463371838582089
40
0.46511606047904
40
0.466860282375992
40
0.468604504272944
40
0.472092948066847
40
0.473837169963799
40
0.475581391860751
40
0.477325613757703
40
0.479069835654654
40
0.480814057551606
40
0.482558279448558
40
0.48430250134551
40
0.486046723242461
40
0.487790945139413
40
0.489535167036365
40
0.491279388933317
40
0.493023610830268
40
0.49476783272722
40
0.496512054624172
40
0.498256276521123
40
0.500000498418075
40
0.501744720315027
40
0.503488942211979
40
0.50523316410893
40
0.506977386005882
40
0.508721607902834
40
0.510465829799786
40
0.512210051696738
40
0.513954273593689
40
0.515698495490641
40
0.517442717387593
40
0.519186939284544
40
0.520931161181496
40
0.522675383078448
40
0.5244196049754
40
0.526163826872352
40
0.527908048769303
40
0.531396492563207
40
0.533140714460158
40
0.53488493635711
40
0.536629158254062
40
0.538373380151014
40
0.540117602047965
40
0.541861823944917
40
0.543606045841869
40
0.545350267738821
40
0.548838711532724
40
0.550582933429676
40
0.552327155326628
40
0.555815599120531
40
0.559304042914435
40
0.562792486708338
40
0.566280930502242
40
0.569769374296145
40
0.573257818090049
40
0.576746261883952
40
0.580234705677856
40
0.583723149471759
40
0.587211593265663
40
0.590700037059566
40
0.59418848085347
40
0.597676924647373
40
0.601165368441277
40
0.60465381223518
40
0.608142256029083
40
0.611630699822987
40
0.615119143616891
40
0.618607587410794
40
0.622096031204697
40
0.625584474998601
40
0.632561362586408
40
0.639538250174215
40
0.646515137762022
40
0.653492025349829
40
0.656980469143732
40
0.660468912937636
40
0.66395735673154
40
0.667445800525443
40
0.67442268811325
40
0.681399575701057
40
0.68488801949496
40
0.688376463288864
40
0.691864907082767
40
0.695353350876671
40
0.698841794670574
40
0.702330238464478
40
0.709307126052285
40
0.712795569846188
40
0.716284013640092
40
0.723260901227899
40
0.730237788815706
40
0.733726232609609
40
0.737214676403513
40
0.74419156399132
40
0.747680007785223
40
0.749424229682175
40
0.751168451579127
40
0.75465689537303
40
0.758145339166934
40
0.765122226754741
40
0.768610670548644
40
0.772099114342548
40
0.775587558136451
40
0.779076001930355
40
0.782564445724258
40
0.786052889518162
40
0.789541333312065
40
0.793029777105969
40
0.796518220899872
40
0.800006664693776
40
0.806983552281583
40
0.810471996075486
40
0.81396043986939
40
0.817448883663293
40
0.819193105560245
40
0.820937327457197
40
0.8244257712511
40
0.827914215045004
40
0.831402658838907
40
0.834891102632811
40
0.838379546426714
40
0.841867990220618
40
0.848844877808425
40
0.855821765396232
40
0.859310209190135
40
0.862798652984039
40
0.869775540571846
40
0.873263984365749
40
0.876752428159653
40
0.880240871953556
40
0.883729315747459
40
0.887217759541363
40
0.890706203335267
40
0.89419464712917
40
0.897683090923073
40
0.904659978510881
40
0.908148422304784
40
0.911636866098688
40
0.915125309892591
40
0.918613753686495
40
0.922102197480398
40
0.925590641274302
40
0.932567528862109
40
0.936055972656012
40
0.939544416449915
40
0.943032860243819
40
0.946521304037722
40
0.95349819162553
40
0.956986635419433
40
0.960475079213337
40
0.96396352300724
40
0.967451966801144
40
0.970940410595047
40
0.974428854388951
40
0.977917298182854
40
0.981405741976757
40
0.984894185770661
40
0.988382629564564
40
0.991871073358468
40
0.995359517152372
40
0.998847960946275
40
1
40
1
40
1
40
1
41
1
10
-22.5
20
-13.4956358747152
30
0
41
1
10
-22.5
20
-13.4959444041748
30
0
41
1
10
-22.5
20
-13.497033692898
30
0
41
1
10
-22.5
20
-13.4978716184631
30
0
41
1
10
-22.5
20
-13.4969161903089
30
0
41
1
10
-22.5
20
-13.4939625245411
30
0
41
1
10
-22.5
20
-13.4890441905268
30
0
41
1
10
-22.5
20
-13.4821928739338
30
0
41
1
10
-22.5
20
-13.4734382711797
30
0
41
1
10
-22.5
20
-13.4628104278487
30
0
41
1
10
-22.5
20
-13.4503375493538
30
0
41
1
10
-22.5
20
-13.4312436783152
30
0
41
1
10
-22.5
20
-13.402990048048
30
0
41
1
10
-22.5
20
-13.3620642251226
30
0
41
1
10
-22.5
20
-13.3223661774289
30
0
41
1
10
-22.5
20
-13.2871835761246
30
0
41
1
10
-22.5
20
-13.2592104836088
30
0
41
1
10
-22.5
20
-13.2296213566399
30
0
41
1
10
-22.5
20
-13.1879639126742
30
0
41
1
10
-22.5
20
-13.1433841284413
30
0
41
1
10
-22.5
20
-13.0954724183383
30
0
41
1
10
-22.5
20
-13.0580720783436
30
0
41
1
10
-22.5
20
-13.0191589474766
30
0
41
1
10
-22.5
20
-12.9787481075024
30
0
41
1
10
-22.5
20
-12.9368537004398
30
0
41
1
10
-22.5
20
-12.8789379874313
30
0
41
1
10
-22.5
20
-12.8184132188765
30
0
41
1
10
-22.5
20
-12.7547247883428
30
0
41
1
10
-22.5
20
-12.7056201369325
30
0
41
1
10
-22.5
20
-12.6551113810006
30
0
41
1
10
-22.5
20
-12.6032111684974
30
0
41
1
10
-22.5
20
-12.5499297998313
30
0
41
1
10
-22.5
20
-12.4952790326449
30
0
41
1
10
-22.5
20
-12.4392702770472
30
0
41
1
10
-22.5
20
-12.3626709718699
30
0
41
1
10
-22.5
20
-12.2837700633604
30
0
41
1
10
-22.5
20
-12.2018541666219
30
0
41
1
10
-22.5
20
-12.1181901660327
30
0
41
1
10
-22.5
20
-12.0106580823312
30
0
41
1
10
-22.5
20
-11.8988607853737
30
0
41
1
10
-22.5
20
-11.8066390784571
30
0
41
1
10
-22.5
20
-11.7363216027856
30
0
41
1
10
-22.5
20
-11.6647550005754
30
0
41
1
10
-22.5
20
-11.59194615036
30
0
41
1
10
-22.5
20
-11.5179033392113
30
0
41
1
10
-22.5
20
-11.4552554262223
30
0
41
1
10
-22.5
20
-11.4043880916922
30
0
41
1
10
-22.5
20
-11.3531143221947
30
0
41
1
10
-22.5
20
-11.2884404549429
30
0
41
1
10
-22.5
20
-11.2095312020911
30
0
41
1
10
-22.5
20
-11.1025558247745
30
0
41
1
10
-22.5
20
-10.9936883814227
30
0
41
1
10
-22.5
20
-10.881957392112
30
0
41
1
10
-22.5
20
-10.7971107518715
30
0
41
1
10
-22.5
20
-10.7110949831286
30
0
41
1
10
-22.5
20
-10.6239149454148
30
0
41
1
10
-22.5
20
-10.5355769819029
30
0
41
1
10
-22.5
20
-10.4460865275718
30
0
41
1
10
-22.5
20
-10.3554481215356
30
0
41
1
10
-22.5
20
-10.2636670923514
30
0
41
1
10
-22.5
20
-10.1707494549495
30
0
41
1
10
-22.5
20
-10.0451570413025
30
0
41
1
10
-22.5
20
-9.9178935930201
30
0
41
1
10
-22.5
20
-9.78780083934149
30
0
41
1
10
-22.5
20
-9.70579078784201
30
0
41
1
10
-22.5
20
-9.63944489130401
30
0
41
1
10
-22.5
20
-9.57273011219269
30
0
41
1
10
-22.5
20
-9.45508832781687
30
0
41
1
10
-22.5
20
-9.31898450356377
30
0
41
1
10
-22.5
20
-9.18004983919923
30
0
41
1
10
-22.5
20
-9.03966368952013
30
0
41
1
10
-22.5
20
-8.86197296792949
30
0
41
1
10
-22.5
20
-8.68069429175793
30
0
41
1
10
-22.5
20
-8.53310893756458
30
0
41
1
10
-22.5
20
-8.38410353449396
30
0
41
1
10
-22.5
20
-8.23370690743869
30
0
41
1
10
-22.5
20
-8.08045168982594
30
0
41
1
10
-22.5
20
-7.96465014223952
30
0
41
1
10
-22.5
20
-7.84779993569691
30
0
41
1
10
-22.5
20
-7.72990617143802
30
0
41
1
10
-22.5
20
-7.61097083499584
30
0
41
1
10
-22.5
20
-7.45073654157579
30
0
41
1
10
-22.5
20
-7.24848505186407
30
0
41
1
10
-22.5
20
-7.04280518235291
30
0
41
1
10
-22.5
20
-6.87569112826711
30
0
41
1
10
-22.5
20
-6.74956632065386
30
0
41
1
10
-22.5
20
-6.62242827644155
30
0
41
1
10
-22.5
20
-6.45125553312127
30
0
41
1
10
-22.5
20
-6.23550102644131
30
0
41
1
10
-22.5
20
-5.97220551217549
30
0
41
1
10
-22.5
20
-5.70495651005669
30
0
41
1
10
-22.5
20
-5.47933703035866
30
0
41
1
10
-22.5
20
-5.29623480232564
30
0
41
1
10
-22.5
20
-5.15823567759486
30
0
41
1
10
-22.5
20
-5.01927995326392
30
0
41
1
10
-22.5
20
-4.87937450907222
30
0
41
1
10
-22.5
20
-4.73852599905979
30
0
41
1
10
-22.5
20
-4.59674211262629
30
0
41
1
10
-22.5
20
-4.45403157575558
30
0
41
1
10
-22.5
20
-4.31040309161108
30
0
41
1
10
-22.5
20
-4.16586580001649
30
0
41
1
10
-22.5
20
-4.02043049501106
30
0
41
1
10
-22.5
20
-3.87410976932693
30
0
41
1
10
-22.5
20
-3.72691565105669
30
0
41
1
10
-22.5
20
-3.57886126909131
30
0
41
1
10
-22.5
20
-3.4299627769704
30
0
41
1
10
-22.5
20
-3.28023687778401
30
0
41
1
10
-22.5
20
-3.12970257053468
30
0
41
1
10
-22.5
20
-2.97838003358396
30
0
41
1
10
-22.5
20
-2.8262921676581
30
0
41
1
10
-22.5
20
-2.67346525953189
30
0
41
1
10
-22.5
20
-2.51992549648591
30
0
41
1
10
-22.5
20
-2.39172828921559
30
0
41
1
10
-22.5
20
-2.2882368400623
30
0
41
1
10
-22.5
20
-2.18454587114542
30
0
41
1
10
-22.5
20
-2.08161602870015
30
0
41
1
10
-22.5
20
-1.97729727415896
30
0
41
1
10
-22.5
20
-1.89920682890118
30
0
41
1
10
-22.5
20
-1.82098464012651
30
0
41
1
10
-22.5
20
-1.74263823347056
30
0
41
1
10
-22.5
20
-1.66417084854152
30
0
41
1
10
-22.5
20
-1.58559123041411
30
0
41
1
10
-22.5
20
-1.50690426712365
30
0
41
1
10
-22.5
20
-1.40144074045128
30
0
41
1
10
-22.5
20
-1.29707563275716
30
0
41
1
10
-22.5
20
-1.19121858421377
30
0
41
1
10
-22.5
20
-1.11209553564783
30
0
41
1
10
-22.5
20
-1.03290644237791
30
0
41
1
10
-22.5
20
-0.95365606681014
30
0
41
1
10
-22.5
20
-0.874352168955852
30
0
41
1
10
-22.5
20
-0.795000198505278
30
0
41
1
10
-22.5
20
-0.71560660892132
30
0
41
1
10
-22.5
20
-0.63617666680787
30
0
41
1
10
-22.5
20
-0.556715993884097
30
0
41
1
10
-22.5
20
-0.477229338262958
30
0
41
1
10
-22.5
20
-0.397721593521055
30
0
41
1
10
-22.5
20
-0.318196568076161
30
0
41
1
10
-22.5
20
-0.238658582119825
30
0
41
1
10
-22.5
20
-0.159110826532412
30
0
41
1
10
-22.5
20
-0.0795570008675952
30
0
41
1
10
-22.5
20
4.3520458E-09
30
0
41
1
10
-22.5
20
0.0795570195282949
30
0
41
1
10
-22.5
20
0.159110863620981
30
0
41
1
10
-22.5
20
0.238658616598514
30
0
41
1
10
-22.5
20
0.318196574925025
30
0
41
1
10
-22.5
20
0.397721596430074
30
0
41
1
10
-22.5
20
0.477229377934975
30
0
41
1
10
-22.5
20
0.556716044364009
30
0
41
1
10
-22.5
20
0.63617667254502
30
0
41
1
10
-22.5
20
0.715606595157226
30
0
41
1
10
-22.5
20
0.795000235128668
30
0
41
1
10
-22.5
20
0.874352236673616
30
0
41
1
10
-22.5
20
0.953656082911976
30
0
41
1
10
-22.5
20
1.03290641330761
30
0
41
1
10
-22.5
20
1.11209555133374
30
0
41
1
10
-22.5
20
1.19121866112906
30
0
41
1
10
-22.5
20
1.29707565327635
30
0
41
1
10
-22.5
20
1.40144071039387
30
0
41
1
10
-22.5
20
1.50690430877853
30
0
41
1
10
-22.5
20
1.58559131690836
30
0
41
1
10
-22.5
20
1.66417088377818
30
0
41
1
10
-22.5
20
1.74263820265685
30
0
41
1
10
-22.5
20
1.82098461234611
30
0
41
1
10
-22.5
20
1.89920687090043
30
0
41
1
10
-22.5
20
1.97729736527978
30
0
41
1
10
-22.5
20
2.08161605220536
30
0
41
1
10
-22.5
20
2.18454583019772
30
0
41
1
10
-22.5
20
2.28823685042079
30
0
41
1
10
-22.5
20
2.39172837491469
30
0
41
1
10
-22.5
20
2.51992552331163
30
0
41
1
10
-22.5
20
2.67346522993279
30
0
41
1
10
-22.5
20
2.82629223006825
30
0
41
1
10
-22.5
20
2.9783800820847
30
0
41
1
10
-22.5
20
3.12970236953149
30
0
41
1
10
-22.5
20
3.2802363758513
30
0
41
1
10
-22.5
20
3.42996282061054
30
0
41
1
10
-22.5
20
3.57886234252629
30
0
41
1
10
-22.5
20
3.72691655621918
30
0
41
1
10
-22.5
20
3.87410940415094
30
0
41
1
10
-22.5
20
4.02042950258553
30
0
41
1
10
-22.5
20
4.1658649918152
30
0
41
1
10
-22.5
20
4.31040320562681
30
0
41
1
10
-22.5
20
4.45403251641869
30
0
41
1
10
-22.5
20
4.59674271442694
30
0
41
1
10
-22.5
20
4.73852585442467
30
0
41
1
10
-22.5
20
4.87937424460151
30
0
41
1
10
-22.5
20
5.01927991936705
30
0
41
1
10
-22.5
20
5.15823571506778
30
0
41
1
10
-22.5
20
5.29623478947158
30
0
41
1
10
-22.5
20
5.47933703089231
30
0
41
1
10
-22.5
20
5.70495655337433
30
0
41
1
10
-22.5
20
5.97220551419213
30
0
41
1
10
-22.5
20
6.23550104742759
30
0
41
1
10
-22.5
20
6.451255571394
30
0
41
1
10
-22.5
20
6.6224282598192
30
0
41
1
10
-22.5
20
6.74956631857708
30
0
41
1
10
-22.5
20
6.87569116366487
30
0
41
1
10
-22.5
20
7.04280522024894
30
0
41
1
10
-22.5
20
7.24848505302427
30
0
41
1
10
-22.5
20
7.4507365478344
30
0
41
1
10
-22.5
20
7.6109708771202
30
0
41
1
10
-22.5
20
7.72990620240671
30
0
41
1
10
-22.5
20
7.84779994085653
30
0
41
1
10
-22.5
20
7.96465013686171
30
0
41
1
10
-22.5
20
8.08045169790759
30
0
41
1
10
-22.5
20
8.23370694014301
30
0
41
1
10
-22.5
20
8.38410356414289
30
0
41
1
10
-22.5
20
8.53310893988203
30
0
41
1
10
-22.5
20
8.68069429599308
30
0
41
1
10
-22.5
20
8.8619729936481
30
0
41
1
10
-22.5
20
9.0396637144479
30
0
41
1
10
-22.5
20
9.18004984465043
30
0
41
1
10
-22.5
20
9.31898451102214
30
0
41
1
10
-22.5
20
9.45508835059127
30
0
41
1
10
-22.5
20
9.57273013875857
30
0
41
1
10
-22.5
20
9.63944491324963
30
0
41
1
10
-22.5
20
9.7057908040384
30
0
41
1
10
-22.5
20
9.7878008492857
30
0
41
1
10
-22.5
20
9.91789360326428
30
0
41
1
10
-22.5
20
10.0451570606616
30
0
41
1
10
-22.5
20
10.1707494782419
30
0
41
1
10
-22.5
20
10.2636671117607
30
0
41
1
10
-22.5
20
10.3554481360506
30
0
41
1
10
-22.5
20
10.4460865401309
30
0
41
1
10
-22.5
20
10.5355769962349
30
0
41
1
10
-22.5
20
10.6239149629423
30
0
41
1
10
-22.5
20
10.7110950034658
30
0
41
1
10
-22.5
20
10.7971107724731
30
0
41
1
10
-22.5
20
10.881957410682
30
0
41
1
10
-22.5
20
10.9936883968037
30
0
41
1
10
-22.5
20
11.1025558384385
30
0
41
1
10
-22.5
20
11.2095312195267
30
0
41
1
10
-22.5
20
11.2884404756242
30
0
41
1
10
-22.5
20
11.3531143441571
30
0
41
1
10
-22.5
20
11.4043881128182
30
0
41
1
10
-22.5
20
11.4552554448703
30
0
41
1
10
-22.5
20
11.5179033535968
30
0
41
1
10
-22.5
20
11.5919461625789
30
0
41
1
10
-22.5
20
11.664755015164
30
0
41
1
10
-22.5
20
11.7363216229303
30
0
41
1
10
-22.5
20
11.8066391033683
30
0
41
1
10
-22.5
20
11.8988608066557
30
0
41
1
10
-22.5
20
12.0106580919609
30
0
41
1
10
-22.5
20
12.1181901818312
30
0
41
1
10
-22.5
20
12.2018541939414
30
0
41
1
10
-22.5
20
12.2837700876339
30
0
41
1
10
-22.5
20
12.3626709807027
30
0
41
1
10
-22.5
20
12.4392702870471
30
0
41
1
10
-22.5
20
12.4952790541085
30
0
41
1
10
-22.5
20
12.5499298292215
30
0
41
1
10
-22.5
20
12.6032111946844
30
0
41
1
10
-22.5
20
12.6551113940766
30
0
41
1
10
-22.5
20
12.7056201424592
30
0
41
1
10
-22.5
20
12.7547247990428
30
0
41
1
10
-22.5
20
12.8184132466048
30
0
41
1
10
-22.5
20
12.8789380178894
30
0
41
1
10
-22.5
20
12.9368537080862
30
0
41
1
10
-22.5
20
12.9787481114295
30
0
41
1
10
-22.5
20
13.0191589652135
30
0
41
1
10
-22.5
20
13.0580721081213
30
0
41
1
10
-22.5
20
13.0954724456838
30
0
41
1
10
-22.5
20
13.143384141029
30
0
41
1
10
-22.5
20
13.1879639125281
30
0
41
1
10
-22.5
20
13.2296213845592
30
0
41
1
10
-22.5
20
13.2592105165633
30
0
41
1
10
-22.5
20
13.2871835921006
30
0
41
1
10
-22.5
20
13.3223661764574
30
0
41
1
10
-22.5
20
13.3540536969874
30
0
41
1
10
-22.5
20
13.3825245595672
30
0
41
1
10
-22.5
20
13.4021158939438
30
0
41
1
10
-22.5
20
13.4199649415155
30
0
41
1
10
-22.5
20
13.4360470510206
30
0
41
1
10
-22.5
20
13.4503375548199
30
0
41
1
10
-22.5
20
13.4628103286331
30
0
41
1
10
-22.5
20
13.4734380181859
30
0
41
1
10
-22.5
20
13.4821927509398
30
0
41
1
10
-22.5
20
13.4890446841776
30
0
41
1
10
-22.5
20
13.4939634903146
30
0
41
1
10
-22.5
20
13.4969168014739
30
0
41
1
10
-22.5
20
13.4978715423881
30
0
41
1
10
-22.5
20
13.4970334673316
30
0
41
1
10
-22.5
20
13.4959444969436
30
0
41
1
10
-22.5
20
13.4956362930801
30
0
0
SPLINE
5
18E
100
AcDbEntity
8
SK1
62
256
6
ByLayer
370
18
48
1
60
0
100
AcDbSpline
70
4
71
3
72
119
73
115
40
0
40
0
40
0
40
0
40
0.0017654123580115
40
0.0096870353215597
40
0.0176086582851078
40
0.025530281248656
40
0.0334519042122041
40
0.0413735271757523
40
0.0492951501393004
40
0.0572167731028486
40
0.0651383960663967
40
0.0730600190299449
40
0.080981641993493
40
0.0889032649570412
40
0.0968248879205893
40
0.104746510884138
40
0.112668133847686
40
0.120589756811234
40
0.128511379774782
40
0.13643300273833
40
0.144354625701878
40
0.152276248665426
40
0.160197871628975
40
0.176041117556071
40
0.191884363483167
40
0.207727609410263
40
0.22357085533736
40
0.231492478300908
40
0.239414101264456
40
0.247335724228004
40
0.255257347191552
40
0.271100593118648
40
0.286943839045745
40
0.294865462009293
40
0.302787084972841
40
0.310708707936389
40
0.318630330899937
40
0.326551953863486
40
0.334473576827034
40
0.35031682275413
40
0.358238445717678
40
0.366160068681226
40
0.382003314608323
40
0.397846560535419
40
0.405768183498967
40
0.413689806462515
40
0.429533052389611
40
0.43745467535316
40
0.441415486834934
40
0.445376298316708
40
0.453297921280256
40
0.461219544243804
40
0.4770627901709
40
0.484984413134449
40
0.492906036097997
40
0.500827659061545
40
0.508749282025093
40
0.516670904988641
40
0.524592527952189
40
0.532514150915738
40
0.540435773879286
40
0.548357396842834
40
0.556279019806382
40
0.572122265733478
40
0.580043888697026
40
0.587965511660574
40
0.595887134624123
40
0.599847946105897
40
0.603808757587671
40
0.611730380551219
40
0.619652003514767
40
0.627573626478315
40
0.635495249441863
40
0.643416872405411
40
0.65133849536896
40
0.667181741296056
40
0.683024987223152
40
0.6909466101867
40
0.698868233150249
40
0.714711479077345
40
0.722633102040893
40
0.730554725004441
40
0.738476347967989
40
0.746397970931537
40
0.754319593895086
40
0.762241216858634
40
0.770162839822182
40
0.77808446278573
40
0.793927708712826
40
0.801849331676375
40
0.809770954639923
40
0.817692577603471
40
0.825614200567019
40
0.833535823530567
40
0.841457446494115
40
0.857300692421211
40
0.86522231538476
40
0.873143938348308
40
0.881065561311856
40
0.888987184275404
40
0.9048304302025
40
0.912752053166048
40
0.920673676129597
40
0.928595299093145
40
0.936516922056693
40
0.944438545020241
40
0.952360167983789
40
0.960281790947337
40
0.968203413910885
40
0.976125036874434
40
0.984046659837982
40
0.99196828280153
40
0.999889905765078
40
1
40
1
40
1
40
1
41
1
10
-1.49503997793928
20
2.59465115086957
30
0
41
1
10
-1.49503997793928
20
2.606473243442
30
0
41
1
10
-1.49503997793928
20
2.67130382016646
30
0
41
1
10
-1.49503997793928
20
2.78881794693001
30
0
41
1
10
-1.49503997793928
20
2.94652921585708
30
0
41
1
10
-1.49503997793928
20
3.10333581737226
30
0
41
1
10
-1.49503997793928
20
3.25922160409144
30
0
41
1
10
-1.49503997793928
20
3.4141725129254
30
0
41
1
10
-1.49503997793928
20
3.56817684914566
30
0
41
1
10
-1.49503997793928
20
3.72122348266291
30
0
41
1
10
-1.49503997793928
20
3.87330241838259
30
0
41
1
10
-1.49503997793928
20
4.02440435063471
30
0
41
1
10
-1.49503997793928
20
4.17452257114442
30
0
41
1
10
-1.49503997793928
20
4.32365075555242
30
0
41
1
10
-1.49503997793928
20
4.47178250674139
30
0
41
1
10
-1.49503997793928
20
4.61891187892093
30
0
41
1
10
-1.49503997793928
20
4.7650335666859
30
0
41
1
10
-1.49503997793928
20
4.91014320448997
30
0
41
1
10
-1.49503997793928
20
5.05423700692032
30
0
41
1
10
-1.49503997793928
20
5.19731095699922
30
0
41
1
10
-1.49503997793928
20
5.33936160781602
30
0
41
1
10
-1.49503997793928
20
5.48038543010182
30
0
41
1
10
-1.49503997793928
20
5.66717892451575
30
0
41
1
10
-1.49503997793928
20
5.89779786635279
30
0
41
1
10
-1.49503997793928
20
6.17053537924178
30
0
41
1
10
-1.49503997793928
20
6.43910150489376
30
0
41
1
10
-1.49503997793928
20
6.65929861735816
30
0
41
1
10
-1.49503997793928
20
6.83355374310952
30
0
41
1
10
-1.49503997793928
20
6.96311018885424
30
0
41
1
10
-1.49503997793928
20
7.09160988853208
30
0
41
1
10
-1.49503997793928
20
7.26163684175143
30
0
41
1
10
-1.49503997793928
20
7.47128768043942
30
0
41
1
10
-1.49503997793928
20
7.67738590051292
30
0
41
1
10
-1.49503997793928
20
7.84029855153605
30
0
41
1
10
-1.49503997793928
20
7.96134018717205
30
0
41
1
10
-1.49503997793928
20
8.08130644558901
30
0
41
1
10
-1.49503997793928
20
8.2001957134178
30
0
41
1
10
-1.49503997793928
20
8.31800484031689
30
0
41
1
10
-1.49503997793928
20
8.47372856948019
30
0
41
1
10
-1.49503997793928
20
8.62702161678089
30
0
41
1
10
-1.49503997793928
20
8.7783873974316
30
0
41
1
10
-1.49503997793928
20
8.92829538452324
30
0
41
1
10
-1.49503997793928
20
9.11275364912453
30
0
41
1
10
-1.49503997793928
20
9.2935360539519
30
0
41
1
10
-1.49503997793928
20
9.43608247629777
30
0
41
1
10
-1.49503997793928
20
9.57714512355727
30
0
41
1
10
-1.49503997793928
20
9.71574945872365
30
0
41
1
10
-1.49503997793928
20
9.835227886979
30
0
41
1
10
-1.49503997793928
20
9.90295237623948
30
0
41
1
10
-1.49503997793928
20
9.97030028641953
30
0
41
1
10
-1.49503997793928
20
10.0536983203575
30
0
41
1
10
-1.49503997793928
20
10.1857467801784
30
0
41
1
10
-1.49503997793928
20
10.3153089526253
30
0
41
1
10
-1.49503997793928
20
10.4427777956644
30
0
41
1
10
-1.49503997793928
20
10.537175897834
30
0
41
1
10
-1.49503997793928
20
10.630416702033
30
0
41
1
10
-1.49503997793928
20
10.7224950525573
30
0
41
1
10
-1.49503997793928
20
10.8134058114344
30
0
41
1
10
-1.49503997793928
20
10.9031442186804
30
0
41
1
10
-1.49503997793928
20
10.9917054227684
30
0
41
1
10
-1.49503997793928
20
11.0790834618892
30
0
41
1
10
-1.49503997793928
20
11.165273297363
30
0
41
1
10
-1.49503997793928
20
11.2786601205037
30
0
41
1
10
-1.49503997793928
20
11.3894729046301
30
0
41
1
10
-1.49503997793928
20
11.4980349156059
30
0
41
1
10
-1.49503997793928
20
11.5781957427673
30
0
41
1
10
-1.49503997793928
20
11.6439487843731
30
0
41
1
10
-1.49503997793928
20
11.6959849306732
30
0
41
1
10
-1.49503997793928
20
11.747609354201
30
0
41
1
10
-1.49503997793928
20
11.8113057197552
30
0
41
1
10
-1.49503997793928
20
11.886528664654
30
0
41
1
10
-1.49503997793928
20
11.960500101414
30
0
41
1
10
-1.49503997793928
20
12.0332119519516
30
0
41
1
10
-1.49503997793928
20
12.1046570427268
30
0
41
1
10
-1.49503997793928
20
12.1982669205398
30
0
41
1
10
-1.49503997793928
20
12.3119621581916
30
0
41
1
10
-1.49503997793928
20
12.4213295969168
30
0
41
1
10
-1.49503997793928
20
12.5062717787185
30
0
41
1
10
-1.49503997793928
20
12.5894449263383
30
0
41
1
10
-1.49503997793928
20
12.6698142967672
30
0
41
1
10
-1.49503997793928
20
12.7476032540011
30
0
41
1
10
-1.49503997793928
20
12.8045464232669
30
0
41
1
10
-1.49503997793928
20
12.8601132308426
30
0
41
1
10
-1.49503997793928
20
12.9142926213842
30
0
41
1
10
-1.49503997793928
20
12.9670724454163
30
0
41
1
10
-1.49503997793928
20
13.0184419731185
30
0
41
1
10
-1.49503997793928
20
13.0683888234861
30
0
41
1
10
-1.49503997793928
20
13.133106637017
30
0
41
1
10
-1.49503997793928
20
13.1948224412614
30
0
41
1
10
-1.49503997793928
20
13.2536925631392
30
0
41
1
10
-1.49503997793928
20
13.296330722945
30
0
41
1
10
-1.49503997793928
20
13.3374647797226
30
0
41
1
10
-1.49503997793928
20
13.3770799229021
30
0
41
1
10
-1.49503997793928
20
13.4151607649325
30
0
41
1
10
-1.49503997793928
20
13.4638962511352
30
0
41
1
10
-1.49503997793928
20
13.5094130161235
30
0
41
1
10
-1.49503997793928
20
13.551806168738
30
0
41
1
10
-1.49503997793928
20
13.5819601013665
30
0
41
1
10
-1.49503997793928
20
13.6104729213425
30
0
41
1
10
-1.49503997793928
20
13.646298505966
30
0
41
1
10
-1.49503997793928
20
13.6786965897716
30
0
41
1
10
-1.49503997793928
20
13.7077055842542
30
0
41
1
10
-1.49503997793928
20
13.7276983600542
30
0
41
1
10
-1.49503997793928
20
13.7459180935577
30
0
41
1
10
-1.49503997793928
20
13.7623389110759
30
0
41
1
10
-1.49503997793928
20
13.7769347594832
30
0
41
1
10
-1.49503997793928
20
13.7896781016746
30
0
41
1
10
-1.49503997793928
20
13.800539960484
30
0
41
1
10
-1.49503997793928
20
13.8094907530557
30
0
41
1
10
-1.49503997793928
20
13.8164987457743
30
0
41
1
10
-1.49503997793928
20
13.821531562835
30
0
41
1
10
-1.49503997793928
20
13.8245545856003
30
0
41
1
10
-1.49503997793931
20
13.8252109196372
30
0
41
1
10
-1.49503997793931
20
13.8251847303265
30
0
41
1
10
-1.49503997793931
20
13.8251837302265
30
0
0
SPLINE
5
18F
100
AcDbEntity
8
SK1
62
256
6
ByLayer
370
18
48
1
60
0
100
AcDbSpline
70
4
71
3
72
117
73
113
40
0
40
0
40
0
40
0
40
0.0001127260764821
40
0.0080343282053247
40
0.0159559303341673
40
0.0238775324630099
40
0.0317991345918524
40
0.039720736720695
40
0.0476423388495376
40
0.0555639409783802
40
0.0634855431072227
40
0.0793287473649079
40
0.095171951622593
40
0.111015155880278
40
0.118936758009121
40
0.126858360137963
40
0.134779962266806
40
0.142701564395648
40
0.158544768653334
40
0.166466370782176
40
0.174387972911019
40
0.182309575039861
40
0.190231177168704
40
0.198152779297546
40
0.206074381426389
40
0.221917585684074
40
0.229839187812917
40
0.237760789941759
40
0.245682392070602
40
0.253603994199445
40
0.261525596328287
40
0.26944719845713
40
0.277368800585972
40
0.285290402714815
40
0.3011336069725
40
0.309055209101342
40
0.316976811230185
40
0.33282001548787
40
0.348663219745555
40
0.356584821874398
40
0.364506424003241
40
0.372428026132083
40
0.380349628260926
40
0.388271230389768
40
0.396192832518611
40
0.400153633583032
40
0.404114434647453
40
0.412036036776296
40
0.419957638905138
40
0.427879241033981
40
0.443722445291666
40
0.451644047420509
40
0.459565649549351
40
0.467487251678194
40
0.475408853807037
40
0.483330455935879
40
0.491252058064722
40
0.499173660193564
40
0.507095262322407
40
0.51501686445125
40
0.522938466580092
40
0.538781670837777
40
0.54670327296662
40
0.554624875095462
40
0.558585676159884
40
0.562546477224305
40
0.570468079353147
40
0.586311283610833
40
0.594232885739675
40
0.602154487868518
40
0.617997692126203
40
0.633840896383888
40
0.641762498512731
40
0.649684100641573
40
0.665527304899258
40
0.673448907028101
40
0.681370509156943
40
0.689292111285786
40
0.697213713414629
40
0.705135315543471
40
0.713056917672314
40
0.728900121929999
40
0.744743326187684
40
0.752664928316527
40
0.760586530445369
40
0.768508132574212
40
0.776429734703054
40
0.792272938960739
40
0.808116143218425
40
0.82395934747611
40
0.839802551733795
40
0.847724153862637
40
0.85564575599148
40
0.863567358120322
40
0.871488960249165
40
0.879410562378008
40
0.88733216450685
40
0.895253766635693
40
0.903175368764536
40
0.911096970893378
40
0.919018573022221
40
0.926940175151063
40
0.934861777279906
40
0.942783379408748
40
0.950704981537591
40
0.958626583666433
40
0.966548185795276
40
0.974469787924119
40
0.982391390052961
40
0.990312992181804
40
0.998234594310646
40
1
40
1
40
1
40
1
41
1
10
-1.49503997793939
20
-13.8251837281995
30
0
41
1
10
-1.49503997793934
20
-13.8251847282995
30
0
41
1
10
-1.49503997793931
20
-13.8252108753557
30
0
41
1
10
-1.49503997793931
20
-13.8245539604948
30
0
41
1
10
-1.49503997793931
20
-13.8215305966481
30
0
41
1
10
-1.49503997793931
20
-13.8164982902869
30
0
41
1
10
-1.49503997793931
20
-13.8094909095343
30
0
41
1
10
-1.49503997793931
20
-13.8005402090708
30
0
41
1
10
-1.49503997793931
20
-13.7896781830989
30
0
41
1
10
-1.49503997793931
20
-13.7769347476405
30
0
41
1
10
-1.49503997793931
20
-13.7574597557179
30
0
41
1
10
-1.49503997793931
20
-13.7285859139399
30
0
41
1
10
-1.49503997793931
20
-13.6868269300449
30
0
41
1
10
-1.49503997793931
20
-13.6462985077496
30
0
41
1
10
-1.49503997793931
20
-13.6104729008558
30
0
41
1
10
-1.49503997793931
20
-13.5819600687286
30
0
41
1
10
-1.49503997793931
20
-13.5518061457236
30
0
41
1
10
-1.49503997793931
20
-13.509413016618
30
0
41
1
10
-1.49503997793931
20
-13.4638962341071
30
0
41
1
10
-1.49503997793931
20
-13.4151607370273
30
0
41
1
10
-1.49503997793931
20
-13.3770798968994
30
0
41
1
10
-1.49503997793931
20
-13.3374647662751
30
0
41
1
10
-1.49503997793931
20
-13.2963307178616
30
0
41
1
10
-1.49503997793931
20
-13.2536925499096
30
0
41
1
10
-1.49503997793931
20
-13.1948224098965
30
0
41
1
10
-1.49503997793931
20
-13.1331066142243
30
0
41
1
10
-1.49503997793931
20
-13.0683888145289
30
0
41
1
10
-1.49503997793931
20
-13.0184419638584
30
0
41
1
10
-1.49503997793931
20
-12.9670724273821
30
0
41
1
10
-1.49503997793931
20
-12.9142925944038
30
0
41
1
10
-1.49503997793931
20
-12.860113205584
30
0
41
1
10
-1.49503997793931
20
-12.8045464062654
30
0
41
1
10
-1.49503997793931
20
-12.74760324418
30
0
41
1
10
-1.49503997793931
20
-12.6698142834541
30
0
41
1
10
-1.49503997793931
20
-12.5894449005116
30
0
41
1
10
-1.49503997793931
20
-12.50627175547
30
0
41
1
10
-1.49503997793931
20
-12.4213295833849
30
0
41
1
10
-1.49503997793931
20
-12.3119621458456
30
0
41
1
10
-1.49503997793931
20
-12.1982668977617
30
0
41
1
10
-1.49503997793931
20
-12.1046570208051
30
0
41
1
10
-1.49503997793931
20
-12.0332119345842
30
0
41
1
10
-1.49503997793931
20
-11.9605000871413
30
0
41
1
10
-1.49503997793931
20
-11.8865286504803
30
0
41
1
10
-1.49503997793931
20
-11.8113057028001
30
0
41
1
10
-1.49503997793931
20
-11.7476093345099
30
0
41
1
10
-1.49503997793931
20
-11.6959849101866
30
0
41
1
10
-1.49503997793931
20
-11.643948764099
30
0
41
1
10
-1.49503997793931
20
-11.5781957241672
30
0
41
1
10
-1.49503997793931
20
-11.4980348993556
30
0
41
1
10
-1.49503997793931
20
-11.3894728900619
30
0
41
1
10
-1.49503997793931
20
-11.278660103453
30
0
41
1
10
-1.49503997793931
20
-11.1652732784127
30
0
41
1
10
-1.49503997793931
20
-11.0790834423827
30
0
41
1
10
-1.49503997793931
20
-10.9917054044732
30
0
41
1
10
-1.49503997793931
20
-10.9031442025602
30
0
41
1
10
-1.49503997793931
20
-10.8134057967923
30
0
41
1
10
-1.49503997793931
20
-10.7224950378189
30
0
41
1
10
-1.49503997793931
20
-10.6304166849825
30
0
41
1
10
-1.49503997793931
20
-10.5371758780398
30
0
41
1
10
-1.49503997793931
20
-10.4427777751693
30
0
41
1
10
-1.49503997793931
20
-10.3153089364435
30
0
41
1
10
-1.49503997793931
20
-10.1857467684219
30
0
41
1
10
-1.49503997793931
20
-10.0536983054632
30
0
41
1
10
-1.49503997793931
20
-9.97030026745779
30
0
41
1
10
-1.49503997793931
20
-9.90295235506755
30
0
41
1
10
-1.49503997793931
20
-9.83522786489038
30
0
41
1
10
-1.49503997793931
20
-9.71574944153573
30
0
41
1
10
-1.49503997793931
20
-9.57714511427093
30
0
41
1
10
-1.49503997793931
20
-9.43608246295526
30
0
41
1
10
-1.49503997793931
20
-9.29353602958125
30
0
41
1
10
-1.49503997793931
20
-9.11275363063515
30
0
41
1
10
-1.49503997793931
20
-8.92829537712967
30
0
41
1
10
-1.49503997793931
20
-8.77838738443313
30
0
41
1
10
-1.49503997793931
20
-8.62702158956
30
0
41
1
10
-1.49503997793931
20
-8.47372854841302
30
0
41
1
10
-1.49503997793931
20
-8.31800483202281
30
0
41
1
10
-1.49503997793931
20
-8.20019570647173
30
0
41
1
10
-1.49503997793931
20
-8.08130642958628
30
0
41
1
10
-1.49503997793931
20
-7.96134016006346
30
0
41
1
10
-1.49503997793931
20
-7.84029852533041
30
0
41
1
10
-1.49503997793931
20
-7.67738589461936
30
0
41
1
10
-1.49503997793931
20
-7.47128766686797
30
0
41
1
10
-1.49503997793931
20
-7.261636811758
30
0
41
1
10
-1.49503997793931
20
-7.09160986883526
30
0
41
1
10
-1.49503997793931
20
-6.96311018452545
30
0
41
1
10
-1.49503997793931
20
-6.83355373772449
30
0
41
1
10
-1.49503997793931
20
-6.6592985841524
30
0
41
1
10
-1.49503997793931
20
-6.43910149333703
30
0
41
1
10
-1.49503997793931
20
-6.17053536578155
30
0
41
1
10
-1.49503997793931
20
-5.89779783511918
30
0
41
1
10
-1.49503997793931
20
-5.66717892097088
30
0
41
1
10
-1.49503997793931
20
-5.48038541909952
30
0
41
1
10
-1.49503997793931
20
-5.33936157753735
30
0
41
1
10
-1.49503997793931
20
-5.19731095553271
30
0
41
1
10
-1.49503997793931
20
-5.05423706888553
30
0
41
1
10
-1.49503997793931
20
-4.91014315579861
30
0
41
1
10
-1.49503997793931
20
-4.7650332428635
30
0
41
1
10
-1.49503997793931
20
-4.61891156596767
30
0
41
1
10
-1.49503997793931
20
-4.47178260268984
30
0
41
1
10
-1.49503997793931
20
-4.32365113214263
30
0
41
1
10
-1.49503997793931
20
-4.17452288947305
30
0
41
1
10
-1.49503997793931
20
-4.02440432752809
30
0
41
1
10
-1.49503997793931
20
-3.87330192992579
30
0
41
1
10
-1.49503997793931
20
-3.7212231412766
30
0
41
1
10
-1.49503997793931
20
-3.56817690176541
30
0
41
1
10
-1.49503997793931
20
-3.41417271020586
30
0
41
1
10
-1.49503997793931
20
-3.25922165821993
30
0
41
1
10
-1.49503997793931
20
-3.1033357799555
30
0
41
1
10
-1.49503997793931
20
-2.94652918151195
30
0
41
1
10
-1.49503997793931
20
-2.78881794429316
30
0
41
1
10
-1.49503997793931
20
-2.67130381064959
30
0
41
1
10
-1.49503997793931
20
-2.60647323876154
30
0
41
1
10
-1.49503997793931
20
-2.59465115838313
30
0
0
SPLINE
5
190
100
AcDbEntity
8
SK1
62
256
6
ByLayer
370
18
48
1
60
0
100
AcDbSpline
70
4
71
3
72
287
73
283
40
0
40
0
40
0
40
0
40
0.0005770541041046
40
0.0040695193303122
40
0.0075619845565199
40
0.0110544497827275
40
0.0145469150089351
40
0.0180393802351427
40
0.0215318454613504
40
0.025024310687558
40
0.0285167759137656
40
0.0320092411399732
40
0.0389941715923885
40
0.0459791020448037
40
0.0529640324972189
40
0.0564564977234266
40
0.0599489629496342
40
0.0634414281758418
40
0.0669338934020494
40
0.0739188238544646
40
0.0774112890806723
40
0.0809037543068798
40
0.0843962195330875
40
0.0878886847592951
40
0.0913811499855028
40
0.0948736152117104
40
0.101858545664126
40
0.105351010890333
40
0.108843476116541
40
0.112335941342748
40
0.115828406568956
40
0.119320871795164
40
0.122813337021371
40
0.126305802247579
40
0.129798267473786
40
0.136783197926202
40
0.140275663152409
40
0.143768128378617
40
0.150753058831032
40
0.157737989283447
40
0.161230454509655
40
0.164722919735863
40
0.16821538496207
40
0.171707850188278
40
0.175200315414486
40
0.178692780640693
40
0.180439013253797
40
0.182185245866901
40
0.185677711093108
40
0.189170176319316
40
0.192662641545524
40
0.199647571997939
40
0.203140037224147
40
0.206632502450354
40
0.210124967676562
40
0.213617432902769
40
0.217109898128977
40
0.220602363355185
40
0.224094828581392
40
0.2275872938076
40
0.231079759033808
40
0.234572224260015
40
0.24155715471243
40
0.245049619938638
40
0.248542085164846
40
0.250288317777949
40
0.252034550391053
40
0.255527015617261
40
0.262511946069676
40
0.266004411295884
40
0.269496876522091
40
0.276481806974507
40
0.283466737426922
40
0.286959202653129
40
0.290451667879337
40
0.297436598331752
40
0.30092906355796
40
0.304421528784168
40
0.307913994010375
40
0.311406459236583
40
0.31489892446279
40
0.318391389688998
40
0.325376320141413
40
0.332361250593828
40
0.335853715820036
40
0.339346181046244
40
0.342838646272451
40
0.346331111498659
40
0.353316041951074
40
0.360300972403489
40
0.367285902855905
40
0.37427083330832
40
0.377763298534527
40
0.381255763760735
40
0.384748228986943
40
0.38824069421315
40
0.391733159439358
40
0.395225624665565
40
0.398718089891773
40
0.402210555117981
40
0.405703020344188
40
0.409195485570396
40
0.412687950796604
40
0.416180416022811
40
0.419672881249019
40
0.423165346475226
40
0.426657811701434
40
0.430150276927642
40
0.433642742153849
40
0.437135207380057
40
0.440627672606265
40
0.444120137832472
40
0.44761260305868
40
0.449358835671784
40
0.451105068284887
40
0.454597533511095
40
0.456343766124199
40
0.458089998737303
40
0.459836231350407
40
0.46158246396351
40
0.463328696576614
40
0.465074929189718
40
0.466821161802822
40
0.468567394415926
40
0.472059859642133
40
0.473806092255237
40
0.475552324868341
40
0.477298557481445
40
0.479044790094548
40
0.480791022707652
40
0.482537255320756
40
0.48428348793386
40
0.486029720546964
40
0.487775953160068
40
0.489522185773171
40
0.491268418386275
40
0.493014650999379
40
0.494760883612483
40
0.496507116225587
40
0.49825334883869
40
0.499999581451794
40
0.501745814064898
40
0.503492046678002
40
0.505238279291106
40
0.506984511904209
40
0.508730744517313
40
0.510476977130417
40
0.512223209743521
40
0.513969442356625
40
0.515715674969728
40
0.517461907582832
40
0.519208140195936
40
0.52095437280904
40
0.522700605422144
40
0.524446838035248
40
0.526193070648351
40
0.527939303261455
40
0.531431768487663
40
0.533178001100767
40
0.53492423371387
40
0.536670466326974
40
0.538416698940078
40
0.540162931553182
40
0.541909164166286
40
0.543655396779389
40
0.545401629392493
40
0.548894094618701
40
0.550640327231805
40
0.552386559844908
40
0.555879025071116
40
0.559371490297324
40
0.562863955523531
40
0.566356420749739
40
0.569848885975946
40
0.573341351202154
40
0.576833816428362
40
0.580326281654569
40
0.583818746880777
40
0.587311212106985
40
0.590803677333192
40
0.5942961425594
40
0.597788607785607
40
0.601281073011815
40
0.604773538238023
40
0.60826600346423
40
0.611758468690438
40
0.615250933916646
40
0.618743399142853
40
0.622235864369061
40
0.625728329595269
40
0.632713260047684
40
0.639698190500099
40
0.646683120952514
40
0.653668051404929
40
0.657160516631137
40
0.660652981857345
40
0.664145447083552
40
0.66763791230976
40
0.674622842762175
40
0.68160777321459
40
0.685100238440798
40
0.688592703667006
40
0.692085168893213
40
0.695577634119421
40
0.699070099345628
40
0.702562564571836
40
0.709547495024251
40
0.713039960250459
40
0.716532425476667
40
0.723517355929082
40
0.730502286381497
40
0.733994751607705
40
0.737487216833912
40
0.744472147286327
40
0.747964612512535
40
0.749710845125639
40
0.751457077738743
40
0.75494954296495
40
0.758442008191158
40
0.765426938643573
40
0.768919403869781
40
0.772411869095988
40
0.775904334322196
40
0.779396799548404
40
0.782889264774611
40
0.786381730000819
40
0.789874195227026
40
0.793366660453234
40
0.796859125679442
40
0.800351590905649
40
0.807336521358065
40
0.810828986584272
40
0.81432145181048
40
0.817813917036687
40
0.819560149649791
40
0.821306382262895
40
0.824798847489103
40
0.82829131271531
40
0.831783777941518
40
0.835276243167725
40
0.838768708393933
40
0.842261173620141
40
0.849246104072556
40
0.856231034524971
40
0.859723499751179
40
0.863215964977387
40
0.870200895429802
40
0.873693360656009
40
0.877185825882217
40
0.880678291108425
40
0.884170756334632
40
0.88766322156084
40
0.891155686787047
40
0.894648152013255
40
0.898140617239463
40
0.905125547691878
40
0.908618012918086
40
0.912110478144293
40
0.915602943370501
40
0.919095408596708
40
0.922587873822916
40
0.926080339049124
40
0.933065269501539
40
0.936557734727747
40
0.940050199953954
40
0.943542665180162
40
0.94703513040637
40
0.954020060858785
40
0.957512526084992
40
0.9610049913112
40
0.964497456537407
40
0.967989921763615
40
0.971482386989823
40
0.97497485221603
40
0.978467317442238
40
0.981959782668446
40
0.985452247894653
40
0.988944713120861
40
0.992437178347068
40
0.995929643573276
40
0.999422108799484
40
1
40
1
40
1
40
1
41
1
10
-24
20
-12.6301466093104
30
0
41
1
10
-24
20
-12.6302729704645
30
0
41
1
10
-24
20
-12.6311019481838
30
0
41
1
10
-24
20
-12.6318299492432
30
0
41
1
10
-24
20
-12.6309352666138
30
0
41
1
10
-24
20
-12.6281658201647
30
0
41
1
10
-24
20
-12.623548726994
30
0
41
1
10
-24
20
-12.6171099043118
30
0
41
1
10
-24
20
-12.6088736083307
30
0
41
1
10
-24
20
-12.5988647342338
30
0
41
1
10
-24
20
-12.5871069661154
30
0
41
1
10
-24
20
-12.569020437469
30
0
41
1
10
-24
20
-12.5424060911485
30
0
41
1
10
-24
20
-12.5036823998811
30
0
41
1
10
-24
20
-12.466179119183
30
0
41
1
10
-24
20
-12.4326960489613
30
0
41
1
10
-24
20
-12.4061495447384
30
0
41
1
10
-24
20
-12.3780532328159
30
0
41
1
10
-24
20
-12.3383402816863
30
0
41
1
10
-24
20
-12.2962370819873
30
0
41
1
10
-24
20
-12.2505027270978
30
0
41
1
10
-24
20
-12.2149010201899
30
0
41
1
10
-24
20
-12.1778433481664
30
0
41
1
10
-24
20
-12.139344023803
30
0
41
1
10
-24
20
-12.0994154546281
30
0
41
1
10
-24
20
-12.0440223921018
30
0
41
1
10
-24
20
-11.9866456328948
30
0
41
1
10
-24
20
-11.9256779328098
30
0
41
1
10
-24
20
-11.8787993022056
30
0
41
1
10
-24
20
-11.8305656793587
30
0
41
1
10
-24
20
-11.78099039585
30
0
41
1
10
-24
20
-11.7300825884547
30
0
41
1
10
-24
20
-11.6778529900837
30
0
41
1
10
-24
20
-11.6243139686469
30
0
41
1
10
-24
20
-11.5508590476175
30
0
41
1
10
-24
20
-11.4758394707542
30
0
41
1
10
-24
20
-11.3972466128896
30
0
41
1
10
-24
20
-11.3169609533628
30
0
41
1
10
-24
20
-11.2142799019792
30
0
41
1
10
-24
20
-11.1074990885262
30
0
41
1
10
-24
20
-11.0189464603389
30
0
41
1
10
-24
20
-10.9516093773873
30
0
41
1
10
-24
20
-10.8830697782116
30
0
41
1
10
-24
20
-10.8133337656712
30
0
41
1
10
-24
20
-10.7424101789121
30
0
41
1
10
-24
20
-10.6825334430363
30
0
41
1
10
-24
20
-10.6336671760819
30
0
41
1
10
-24
20
-10.5844084477176
30
0
41
1
10
-24
20
-10.5225869468266
30
0
41
1
10
-24
20
-10.4469857296791
30
0
41
1
10
-24
20
-10.3442039867663
30
0
41
1
10
-24
20
-10.2404782892815
30
0
41
1
10
-24
20
-10.133123847137
30
0
41
1
10
-24
20
-10.0518274139735
30
0
41
1
10
-24
20
-9.96941226524035
30
0
41
1
10
-24
20
-9.8858827890852
30
0
41
1
10
-24
20
-9.80124634105394
30
0
41
1
10
-24
20
-9.71550990056983
30
0
41
1
10
-24
20
-9.62867742465991
30
0
41
1
10
-24
20
-9.54075474090101
30
0
41
1
10
-24
20
-9.45175012870757
30
0
41
1
10
-24
20
-9.33111730296773
30
0
41
1
10
-24
20
-9.20992961158598
30
0
41
1
10
-24
20
-9.08500600225796
30
0
41
1
10
-24
20
-9.00666454438806
30
0
41
1
10
-24
20
-8.94296708063843
30
0
41
1
10
-24
20
-8.87892107357061
30
0
41
1
10
-24
20
-8.76613371827506
30
0
41
1
10
-24
20
-8.63663898523424
30
0
41
1
10
-24
20
-8.50332881313912
30
0
41
1
10
-24
20
-8.36865251940401
30
0
41
1
10
-24
20
-8.19913342470036
30
0
41
1
10
-24
20
-8.02625870426021
30
0
41
1
10
-24
20
-7.88481232676438
30
0
41
1
10
-24
20
-7.74204568631339
30
0
41
1
10
-24
20
-7.59930458489882
30
0
41
1
10
-24
20
-7.45257386795717
30
0
41
1
10
-24
20
-7.34207855908448
30
0
41
1
10
-24
20
-7.23061782890775
30
0
41
1
10
-24
20
-7.11820191301106
30
0
41
1
10
-24
20
-7.00483374343872
30
0
41
1
10
-24
20
-6.8516785758469
30
0
41
1
10
-24
20
-6.65959441745028
30
0
41
1
10
-24
20
-6.46441027855923
30
0
41
1
10
-24
20
-6.30499529459033
30
0
41
1
10
-24
20
-6.18514753468796
30
0
41
1
10
-24
20
-6.06440158167572
30
0
41
1
10
-24
20
-5.90137597131746
30
0
41
1
10
-24
20
-5.69736367955667
30
0
41
1
10
-24
20
-5.44799894794272
30
0
41
1
10
-24
20
-5.19525670130326
30
0
41
1
10
-24
20
-4.98285125019771
30
0
41
1
10
-24
20
-4.80950544532163
30
0
41
1
10
-24
20
-4.67950096380329
30
0
41
1
10
-24
20
-4.54872537799758
30
0
41
1
10
-24
20
-4.41719445888799
30
0
41
1
10
-24
20
-4.28492388892991
30
0
41
1
10
-24
20
-4.15193103870837
30
0
41
1
10
-24
20
-4.01823650200188
30
0
41
1
10
-24
20
-3.88386015063668
30
0
41
1
10
-24
20
-3.74882265025218
30
0
41
1
10
-24
20
-3.61314816606938
30
0
41
1
10
-24
20
-3.47686551917991
30
0
41
1
10
-24
20
-3.34000139230267
30
0
41
1
10
-24
20
-3.20258393847712
30
0
41
1
10
-24
20
-3.06464837689458
30
0
41
1
10
-24
20
-2.9262304523017
30
0
41
1
10
-24
20
-2.78737006373561
30
0
41
1
10
-24
20
-2.64810891556724
30
0
41
1
10
-24
20
-2.50849315364215
30
0
41
1
10
-24
20
-2.36857603859875
30
0
41
1
10
-24
20
-2.22840727338092
30
0
41
1
10
-24
20
-2.11231267734073
30
0
41
1
10
-24
20
-2.01771125590744
30
0
41
1
10
-24
20
-1.92310511773127
30
0
41
1
10
-24
20
-1.8313714962141
30
0
41
1
10
-24
20
-1.73663368976398
30
0
41
1
10
-24
20
-1.66636839269287
30
0
41
1
10
-24
20
-1.59612143913762
30
0
41
1
10
-24
20
-1.52590617425699
30
0
41
1
10
-24
20
-1.45572440081648
30
0
41
1
10
-24
20
-1.38559146347788
30
0
41
1
10
-24
20
-1.31551245865842
30
0
41
1
10
-24
20
-1.22103102890804
30
0
41
1
10
-24
20
-1.13019491172781
30
0
41
1
10
-24
20
-1.03590357373665
30
0
41
1
10
-24
20
-0.966211278320685
30
0
41
1
10
-24
20
-0.896616942008535
30
0
41
1
10
-24
20
-0.827119549474418
30
0
41
1
10
-24
20
-0.757724503129253
30
0
41
1
10
-24
20
-0.688430802184314
30
0
41
1
10
-24
20
-0.619238394305086
30
0
41
1
10
-24
20
-0.550143822342449
30
0
41
1
10
-24
20
-0.481142957404018
30
0
41
1
10
-24
20
-0.412229055265982
30
0
41
1
10
-24
20
-0.343394373554958
30
0
41
1
10
-24
20
-0.274627961865065
30
0
41
1
10
-24
20
-0.205919183520024
30
0
41
1
10
-24
20
-0.137254128872428
30
0
41
1
10
-24
20
-0.068619580615092
30
0
41
1
10
-24
20
-1.20069785E-08
30
0
41
1
10
-24
20
0.0686195837654395
30
0
41
1
10
-24
20
0.1372541822264
30
0
41
1
10
-24
20
0.205919229600312
30
0
41
1
10
-24
20
0.274627932715674
30
0
41
1
10
-24
20
0.343394334295567
30
0
41
1
10
-24
20
0.412229116407673
30
0
41
1
10
-24
20
0.48114304712405
30
0
41
1
10
-24
20
0.55014378989776
30
0
41
1
10
-24
20
0.619238310392802
30
0
41
1
10
-24
20
0.688430856535206
30
0
41
1
10
-24
20
0.757724640342815
30
0
41
1
10
-24
20
0.827119544713668
30
0
41
1
10
-24
20
0.896616816711344
30
0
41
1
10
-24
20
0.966211277672699
30
0
41
1
10
-24
20
1.03590373801057
30
0
41
1
10
-24
20
1.13019491751672
30
0
41
1
10
-24
20
1.22103090337816
30
0
41
1
10
-24
20
1.31551253110209
30
0
41
1
10
-24
20
1.38559165365194
30
0
41
1
10
-24
20
1.45572444737027
30
0
41
1
10
-24
20
1.52590604398475
30
0
41
1
10
-24
20
1.59612132289769
30
0
41
1
10
-24
20
1.66636846888792
30
0
41
1
10
-24
20
1.73663389391052
30
0
41
1
10
-24
20
1.83137150908334
30
0
41
1
10
-24
20
1.923104963833
30
0
41
1
10
-24
20
2.01771124909399
30
0
41
1
10
-24
20
2.11231287096447
30
0
41
1
10
-24
20
2.22840729138045
30
0
41
1
10
-24
20
2.36857592379664
30
0
41
1
10
-24
20
2.50849329023109
30
0
41
1
10
-24
20
2.64810899336408
30
0
41
1
10
-24
20
2.7873694745272
30
0
41
1
10
-24
20
2.92622914514115
30
0
41
1
10
-24
20
3.06464867495961
30
0
41
1
10
-24
20
3.20258694679339
30
0
41
1
10
-24
20
3.34000339886188
30
0
41
1
10
-24
20
3.47686412773234
30
0
41
1
10
-24
20
3.61314539193521
30
0
41
1
10
-24
20
3.74882070125759
30
0
41
1
10
-24
20
3.88386081960974
30
0
41
1
10
-24
20
4.01823910176785
30
0
41
1
10
-24
20
4.15193237523465
30
0
41
1
10
-24
20
4.28492323331267
30
0
41
1
10
-24
20
4.41719365917407
30
0
41
1
10
-24
20
4.54872525063163
30
0
41
1
10
-24
20
4.67950102029136
30
0
41
1
10
-24
20
4.8095053694127
30
0
41
1
10
-24
20
4.98285124277228
30
0
41
1
10
-24
20
5.19525677656026
30
0
41
1
10
-24
20
5.44799891971269
30
0
41
1
10
-24
20
5.69736372546626
30
0
41
1
10
-24
20
5.90137602298265
30
0
41
1
10
-24
20
6.0644015068855
30
0
41
1
10
-24
20
6.1851475156806
30
0
41
1
10
-24
20
6.30499537148731
30
0
41
1
10
-24
20
6.46441033734266
30
0
41
1
10
-24
20
6.65959438580623
30
0
41
1
10
-24
20
6.85167858307042
30
0
41
1
10
-24
20
7.00483382763792
30
0
41
1
10
-24
20
7.11820195418233
30
0
41
1
10
-24
20
7.2306178054078
30
0
41
1
10
-24
20
7.34207852113332
30
0
41
1
10
-24
20
7.45257387547733
30
0
41
1
10
-24
20
7.5993046483614
30
0
41
1
10
-24
20
7.74204572237986
30
0
41
1
10
-24
20
7.88481230085068
30
0
41
1
10
-24
20
8.02625870014725
30
0
41
1
10
-24
20
8.19913346952643
30
0
41
1
10
-24
20
8.36865254580422
30
0
41
1
10
-24
20
8.50332879773273
30
0
41
1
10
-24
20
8.63663898786112
30
0
41
1
10
-24
20
8.76613375581505
30
0
41
1
10
-24
20
8.87892111197036
30
0
41
1
10
-24
20
8.94296710462893
30
0
41
1
10
-24
20
9.00666455327519
30
0
41
1
10
-24
20
9.08500599911847
30
0
41
1
10
-24
20
9.20992961783276
30
0
41
1
10
-24
20
9.33111733072479
30
0
41
1
10
-24
20
9.45175015939358
30
0
41
1
10
-24
20
9.54075475929304
30
0
41
1
10
-24
20
9.62867743247332
30
0
41
1
10
-24
20
9.71550990736878
30
0
41
1
10
-24
20
9.80124635456619
30
0
41
1
10
-24
20
9.88588281033205
30
0
41
1
10
-24
20
9.9694122909747
30
0
41
1
10
-24
20
10.0518274374696
30
0
41
1
10
-24
20
10.1331238647016
30
0
41
1
10
-24
20
10.240478300249
30
0
41
1
10
-24
20
10.3442039980406
30
0
41
1
10
-24
20
10.4469857502475
30
0
41
1
10
-24
20
10.5225869730086
30
0
41
1
10
-24
20
10.5844084741421
30
0
41
1
10
-24
20
10.6336671988976
30
0
41
1
10
-24
20
10.6825334589273
30
0
41
1
10
-24
20
10.7424101865055
30
0
41
1
10
-24
20
10.8133337727233
30
0
41
1
10
-24
20
10.8830697936353
30
0
41
1
10
-24
20
10.951609404873
30
0
41
1
10
-24
20
11.0189464931514
30
0
41
1
10
-24
20
11.1074991058536
30
0
41
1
10
-24
20
11.2142799044294
30
0
41
1
10
-24
20
11.3169609751523
30
0
41
1
10
-24
20
11.3972466509688
30
0
41
1
10
-24
20
11.4758394909226
30
0
41
1
10
-24
20
11.5508590446085
30
0
41
1
10
-24
20
11.6243139791192
30
0
41
1
10
-24
20
11.6778530233414
30
0
41
1
10
-24
20
11.7300826287653
30
0
41
1
10
-24
20
11.7809904199399
30
0
41
1
10
-24
20
11.8305656793297
30
0
41
1
10
-24
20
11.8787992978643
30
0
41
1
10
-24
20
11.9256779481161
30
0
41
1
10
-24
20
11.9866456736684
30
0
41
1
10
-24
20
12.0440224201629
30
0
41
1
10
-24
20
12.099415447517
30
0
41
1
10
-24
20
12.1393440246738
30
0
41
1
10
-24
20
12.1778433772408
30
0
41
1
10
-24
20
12.2149010599454
30
0
41
1
10
-24
20
12.250502752964
30
0
41
1
10
-24
20
12.2962370828382
30
0
41
1
10
-24
20
12.3383402824608
30
0
41
1
10
-24
20
12.3780532736994
30
0
41
1
10
-24
20
12.4061495785297
30
0
41
1
10
-24
20
12.4326960530149
30
0
41
1
10
-24
20
12.4661791203578
30
0
41
1
10
-24
20
12.4959885477691
30
0
41
1
10
-24
20
12.523037071398
30
0
41
1
10
-24
20
12.5415673540695
30
0
41
1
10
-24
20
12.55843663992
30
0
41
1
10
-24
20
12.5736235086905
30
0
41
1
10
-24
20
12.5871069547276
30
0
41
1
10
-24
20
12.5988645879939
30
0
41
1
10
-24
20
12.6088733436887
30
0
41
1
10
-24
20
12.617109869821
30
0
41
1
10
-24
20
12.6235493215145
30
0
41
1
10
-24
20
12.6281667848456
30
0
41
1
10
-24
20
12.630935840933
30
0
41
1
10
-24
20
12.6318298800803
30
0
41
1
10
-24
20
12.6311015702282
30
0
41
1
10
-24
20
12.6302722760186
30
0
41
1
10
-24
20
12.6301456992326
30
0
0
SPLINE
5
191
100
AcDbEntity
8
1
62
256
6
ByLayer
370
18
48
1
60
0
100
AcDbSpline
70
4
71
3
72
8
73
4
40
0
40
0
40
0
40
0
40
1
40
1
40
1
40
1
41
1
10
16.9710662897172
20
-17.3786655116368
30
0
41
1
10
17.0009331582736
20
-17.4109720786445
30
0
41
1
10
17.0312136045511
20
-17.4428017596581
30
0
41
1
10
17.0619022931068
20
-17.4741417052432
30
0
0
SPLINE
5
192
100
AcDbEntity
8
1
62
256
6
ByLayer
370
18
48
1
60
0
100
AcDbSpline
70
4
71
2
72
6
73
3
40
0
40
0
40
0
40
1
40
1
40
1
41
1.02613459695995
10
17.5250229200488
20
-10.761232307375
30
0
41
0.97055068281096
10
17.2482946652504
20
-10.5805406607444
30
0
41
0.935526365794472
10
17.0682221663023
20
-10.2839021179068
30
0
0
SPLINE
5
193
100
AcDbEntity
8
1
62
256
6
ByLayer
370
18
48
1
60
0
100
AcDbSpline
70
4
71
2
72
6
73
3
40
0
40
0
40
0
40
1
40
1
40
1
41
1.02613459695995
10
17.4362322962626
20
-18.0500884486009
30
0
41
1.02613459695995
10
17.2437150323527
20
-17.8478155312519
30
0
41
1.02613459695995
10
17.0785930455191
20
-17.6168285675162
30
0
0
SPLINE
5
194
100
AcDbEntity
8
1
62
256
6
ByLayer
370
18
48
1
60
0
100
AcDbSpline
70
4
71
2
72
6
73
3
40
0
40
0
40
0
40
1
40
1
40
1
41
1.02613459695995
10
17.1323545164327
20
-11.3830519144999
30
0
41
1.02613459695995
10
17.3108769774552
20
-11.0659192925339
30
0
41
1.02613459695995
10
17.5250229200488
20
-10.761232307375
30
0
0
SPLINE
5
195
100
AcDbEntity
8
1
62
256
6
ByLayer
370
18
48
1
60
0
100
AcDbSpline
70
4
71
3
72
12
73
8
40
0
40
0
40
0
40
0
40
0.350717471485295
40
0.350717471485295
40
0.917986456636174
40
0.917986456636174
40
1
40
1
40
1
40
1
41
1
10
19.0018519511823
20
-18.4566059379108
30
0
41
1
10
18.7895718831397
20
-18.4520927174187
30
0
41
1
10
18.588830469044
20
-18.4358838481259
30
0
41
1
10
18.1102432217863
20
-18.3620645675251
30
0
41
1
10
17.8536605866938
20
-18.2843589775711
30
0
41
1
10
17.623712261418
20
-18.1621560869229
30
0
41
1
10
17.5954335416875
20
-18.1458975170366
30
0
41
1
10
17.568282246442
20
-18.1290014491497
30
0
0
SPLINE
5
196
100
AcDbEntity
8
1
62
256
6
ByLayer
370
18
48
1
60
0
100
AcDbSpline
70
4
71
2
72
8
73
5
40
0
40
0
40
0
40
0.515963188851998
40
0.773944783277997
40
1
40
1
40
1
41
1.02613459695995
10
32.7594986431973
20
-1.92347611032821
30
0
41
1.02613459695995
10
31.970736892121
20
-1.34798400639367
30
0
41
1.02613459695995
10
30.4644323782269
20
-1.12988040302132
30
0
41
1.02613459695995
10
29.4465798945048
20
-1.22447987824344
30
0
41
1.02613459695995
10
28.9676335660815
20
-1.3605593779957
30
0
0
SPLINE
5
197
100
AcDbEntity
8
1
62
256
6
ByLayer
370
18
48
1
60
0
100
AcDbSpline
70
4
71
2
72
6
73
3
40
0
40
0
40
0
40
1
40
1
40
1
41
1
10
17.5682822464422
20
-18.1290014491499
30
0
41
1
10
17.2593330138388
20
-17.8000247840787
30
0
41
1
10
17.0218905152372
20
-17.3960991534842
30
0
0
SPLINE
5
198
100
AcDbEntity
8
1
62
256
6
ByLayer
370
18
48
1
60
0
100
AcDbSpline
70
4
71
2
72
6
73
3
40
0
40
0
40
0
40
1
40
1
40
1
41
1
10
17.0540113997041
20
-11.9131725789838
30
0
41
1
10
17.076808478044
20
-11.8676711963495
30
0
41
1
10
17.1009609656577
20
-11.8206078674083
30
0
0
SPLINE
5
199
100
AcDbEntity
8
1
62
256
6
ByLayer
370
18
48
1
60
0
100
AcDbSpline
70
4
71
2
72
7
73
4
40
0
40
0
40
0
40
0.139675058660684
40
1
40
1
40
1
41
1
10
17.1523578855833
20
-11.7216101167605
30
0
41
1
10
17.1834856759072
20
-11.6623140644631
30
0
41
1
10
17.4207432368444
20
-11.2211924457081
30
0
41
1
10
17.6751324191375
20
-10.8592473531643
30
0
0
SPLINE
5
19A
100
AcDbEntity
8
1
62
256
6
ByLayer
370
18
48
1
60
0
100
AcDbSpline
70
4
71
3
72
8
73
4
40
0
40
0
40
0
40
0
40
1
40
1
40
1
40
1
41
1
10
20.1088642078485
20
-12.704455776438
30
0
41
1
10
20.0729693225211
20
-12.6739047900244
30
0
41
1
10
20.0375433355223
20
-12.6426184900653
30
0
41
1
10
20.0026080966546
20
-12.6105758580134
30
0
0
SPLINE
5
19B
100
AcDbEntity
8
1
62
256
6
ByLayer
370
18
48
1
60
0
100
AcDbSpline
70
4
71
2
72
7
73
4
40
0
40
0
40
0
40
0.320937927107785
40
1
40
1
40
1
41
1.02613459695995
10
20.9223621331523
20
-14.5389571106465
30
0
41
1.02613459695995
10
20.8595538455192
20
-14.3452542980918
30
0
41
1.02613459695995
10
20.709290720302
20
-13.7065023586517
30
0
41
1.02613459695995
10
20.6778665287389
20
-13.2451196722247
30
0
0
SPLINE
5
19C
100
AcDbEntity
8
1
62
256
6
ByLayer
370
18
48
1
60
0
100
AcDbSpline
70
4
71
2
72
6
73
3
40
0
40
0
40
0
40
1
40
1
40
1
41
1.02613459695995
10
25.723883338271
20
0.590200456670605
30
0
41
0.91507617668803
10
26.3103142307503
20
0.207286309814345
30
0
41
0.886094351514703
10
26.440385182265
20
-0.632348720639903
30
0
0
SPLINE
5
19D
100
AcDbEntity
8
1
62
256
6
ByLayer
370
18
48
1
60
0
100
AcDbSpline
70
4
71
3
72
8
73
4
40
0
40
0
40
0
40
0
40
1
40
1
40
1
40
1
41
1
10
21.9322037711472
20
-23.7512875784564
30
0
41
1
10
21.9583149241082
20
-23.86256150151
30
0
41
1
10
22.007379915041
20
-23.9761217940883
30
0
41
1
10
22.0809290567073
20
-24.0921208864934
30
0
0
SPLINE
5
19E
100
AcDbEntity
8
1
62
256
6
ByLayer
370
18
48
1
60
0
100
AcDbSpline
70
4
71
2
72
6
73
3
40
0
40
0
40
0
40
1
40
1
40
1
41
1
10
17.5003171976715
20
-18.0875233737331
30
0
41
1
10
17.2618315836178
20
-17.834910989311
30
0
41
1
10
17.0657294396592
20
-17.537874855388
30
0
0
SPLINE
5
19F
100
AcDbEntity
8
1
62
256
6
ByLayer
370
18
48
1
60
0
100
AcDbSpline
70
4
71
2
72
6
73
3
40
0
40
0
40
0
40
1
40
1
40
1
41
1
10
17.1449343026449
20
-11.5454450882217
30
0
41
1
10
17.3477828661393
20
-11.1692050392509
30
0
41
1
10
17.6000776695932
20
-10.8102398302696
30
0
0
SPLINE
5
1A0
100
AcDbEntity
8
1
62
256
6
ByLayer
370
18
48
1
60
0
100
AcDbSpline
70
4
71
3
72
12
73
8
40
0
40
0
40
0
40
0
40
0.249914597223851
40
0.249914597223851
40
0.624901051810589
40
0.624901051810589
40
1
40
1
40
1
40
1
41
1
10
17.5003171976713
20
-18.0875233737328
30
0
41
1
10
17.4947991001411
20
-18.0842258718689
30
0
41
1
10
17.4893249169446
20
-18.0809726904408
30
0
41
1
10
17.4757489799725
20
-18.0729501417018
30
0
41
1
10
17.4677027033661
20
-18.0682364312118
30
0
41
1
10
17.4518136932903
20
-18.0590107264956
30
0
41
1
10
17.4439704258261
20
-18.0544984473438
30
0
41
1
10
17.4362322962624
20
-18.0500884486007
30
0
0
SPLINE
5
1A1
100
AcDbEntity
8
1
62
256
6
ByLayer
370
18
48
1
60
0
100
AcDbSpline
70
4
71
2
72
6
73
3
40
0
40
0
40
0
40
1
40
1
40
1
41
1.02613459695995
10
32.7594986431973
20
-1.92347611032821
30
0
41
0.994154916264658
10
32.9380882525672
20
-1.66943018041887
30
0
41
0.968980806969704
10
33.0905396135005
20
-1.40276118635099
30
0
0
SPLINE
5
1A2
100
AcDbEntity
8
1
62
256
6
ByLayer
370
18
48
1
60
0
100
AcDbSpline
70
4
71
3
72
16
73
12
40
0
40
0
40
0
40
0
40
0.114691258188364
40
0.114691258188364
40
0.256006982052491
40
0.256006982052491
40
0.478481509698431
40
0.478481509698431
40
0.904237458570125
40
0.904237458570125
40
1
40
1
40
1
40
1
41
1
10
9.07679491924313
20
-5.85988980456938
30
0
41
1
10
9.09376079941589
20
-5.85988980456938
30
0
41
1
10
9.11093746787589
20
-5.8629683550426
30
0
41
1
10
9.14653890153815
20
-5.87527238052311
30
0
41
1
10
9.1649283126321
20
-5.88582364044447
30
0
41
1
10
9.20694798227834
20
-5.91775860341619
30
0
41
1
10
9.22859635065211
20
-5.94228809980598
30
0
41
1
10
9.28185513895579
20
-6.01773563791645
30
0
41
1
10
9.30640600056208
20
-6.07398601286488
30
0
41
1
10
9.32912053427441
20
-6.14371014971229
30
0
41
1
10
9.33300496589203
20
-6.15668833929709
30
0
41
1
10
9.33660254037846
20
-6.16973001948568
30
0
0
SPLINE
5
1A3
100
AcDbEntity
8
1
62
256
6
ByLayer
370
18
48
1
60
0
100
AcDbSpline
70
4
71
3
72
8
73
4
40
0
40
0
40
0
40
0
40
1
40
1
40
1
40
1
41
1
10
22.0809290567073
20
-24.0921208864934
30
0
41
1
10
22.0800611033656
20
-24.0887875344155
30
0
41
1
10
22.0791931625295
20
-24.0854541789543
30
0
41
1
10
22.0783252342139
20
-24.0821208201059
30
0
0
SPLINE
5
1A4
100
AcDbEntity
8
1
62
256
6
ByLayer
370
18
48
1
60
0
100
AcDbSpline
70
4
71
3
72
12
73
8
40
0
40
0
40
0
40
0
40
0.249918343584431
40
0.249918343584431
40
0.624905291212985
40
0.624905291212985
40
1
40
1
40
1
40
1
41
1
10
17.568282246442
20
-18.1290014491497
30
0
41
1
10
17.5624527857094
20
-18.1253738150574
30
0
41
1
10
17.5566642487061
20
-18.121788676175
30
0
41
1
10
17.5422949273937
20
-18.1129318661575
30
0
41
1
10
17.5337658698748
20
-18.1077136831734
30
0
41
1
10
17.5168978240406
20
-18.0974719450221
30
0
41
1
10
17.5085582849509
20
-18.0924480784008
30
0
41
1
10
17.5003171976713
20
-18.0875233737328
30
0
0
SPLINE
5
1A5
100
AcDbEntity
8
1
62
256
6
ByLayer
370
18
48
1
60
0
100
AcDbSpline
70
4
71
3
72
12
73
8
40
0
40
0
40
0
40
0
40
0.287669803332675
40
0.287669803332675
40
0.575333926880675
40
0.575333926880675
40
1
40
1
40
1
40
1
41
1
10
26.8720768340626
20
2.08815151516816
30
0
41
1
10
26.9155764230214
20
2.1128085526743
30
0
41
1
10
26.9593030904737
20
2.13706770090758
30
0
41
1
10
27.0471062320414
20
2.18493438944171
30
0
41
1
10
27.0911856930605
20
2.20854272124512
30
0
41
1
10
27.200688702492
20
2.26632858575022
30
0
41
1
10
27.2662832886725
20
2.30018880561383
30
0
41
1
10
27.3321123585691
20
2.33358018729419
30
0
0
SPLINE
5
1A6
100
AcDbEntity
8
1
62
256
6
ByLayer
370
18
48
1
60
0
100
AcDbSpline
70
4
71
3
72
16
73
12
40
0
40
0
40
0
40
0
40
0.464304267159293
40
0.464304267159293
40
0.647533485141969
40
0.647533485141969
40
0.833383675860506
40
0.833383675860506
40
0.950238074309852
40
0.950238074309852
40
1
40
1
40
1
40
1
41
1
10
6.66339745962156
20
19.0245744101322
30
0
41
1
10
6.68070356543041
20
19.0449201888242
30
0
41
1
10
6.70445583204739
20
19.0647708693882
30
0
41
1
10
6.75332706552712
20
19.0892734034403
30
0
41
1
10
6.76920288341026
20
19.0959253431035
30
0
41
1
10
6.80605435144608
20
19.1078085849622
30
0
41
1
10
6.82759190740043
20
19.1131587398644
30
0
41
1
10
6.86713065155234
20
19.1192406569511
30
0
41
1
10
6.8838647446556
20
19.1209710216544
30
0
41
1
10
6.90829201976607
20
19.1221075563677
30
0
41
1
10
6.91575967688848
20
19.1222825906926
30
0
41
1
10
6.92320508075687
20
19.1222825906926
30
0
0
SPLINE
5
1A7
100
AcDbEntity
8
1
62
256
6
ByLayer
370
18
48
1
60
0
100
AcDbSpline
70
4
71
3
72
10
73
6
40
0
40
0
40
0
40
0
40
0.87893212280466
40
0.87893212280466
40
1
40
1
40
1
40
1
41
1
10
17.4362322962624
20
-18.0500884486007
30
0
41
1
10
17.2614188359125
20
-17.9504613831618
30
0
41
1
10
17.1484671841717
20
-17.8167249408222
30
0
41
1
10
17.0909908812865
20
-17.6284009102502
30
0
41
1
10
17.0851100870817
20
-17.6046753280922
30
0
41
1
10
17.0803645201175
20
-17.5802972759821
30
0
0
SPLINE
5
1A8
100
AcDbEntity
8
1
62
256
6
ByLayer
370
18
48
1
60
0
100
AcDbSpline
70
4
71
3
72
8
73
4
40
0
40
0
40
0
40
0
40
1
40
1
40
1
40
1
41
1
10
21.0651433124845
20
19.7489873158093
30
0
41
1
10
21.0304207301919
20
19.7489873158093
30
0
41
1
10
20.995695084021
20
19.7488957415293
30
0
41
1
10
20.9609847588647
20
19.7487125483234
30
0
0
SPLINE
5
1A9
100
AcDbEntity
8
1
62
256
6
ByLayer
370
18
48
1
60
0
100
AcDbSpline
70
4
71
3
72
16
73
12
40
0
40
0
40
0
40
0
40
0.464304267159304
40
0.464304267159304
40
0.647533485141974
40
0.647533485141974
40
0.833383675860506
40
0.833383675860506
40
0.950238074309851
40
0.950238074309851
40
1
40
1
40
1
40
1
41
1
10
9.33660254037844
20
6.16973001948568
30
0
41
1
10
9.31929643456959
20
6.10699311212741
30
0
41
1
10
9.29554416795261
20
6.04466199750289
30
0
41
1
10
9.24667293447288
20
5.96658891111872
30
0
41
1
10
9.23079711658974
20
5.94525308185362
30
0
41
1
10
9.19394564855392
20
5.90694983484818
30
0
41
1
10
9.17240809259957
20
5.88959453036583
30
0
41
1
10
9.13286934844766
20
5.86981268651903
30
0
41
1
10
9.1161352553444
20
5.86416869949437
30
0
41
1
10
9.09170798023393
20
5.86046107106307
30
0
41
1
10
9.08424032311152
20
5.85988980456935
30
0
41
1
10
9.07679491924313
20
5.85988980456935
30
0
0
SPLINE
5
1AA
100
AcDbEntity
8
1
62
256
6
ByLayer
370
18
48
1
60
0
100
AcDbSpline
70
4
71
2
72
8
73
5
40
0
40
0
40
0
40
0.301170762708094
40
0.534113841805396
40
1
40
1
40
1
41
1.02613459695995
10
26.8720768412742
20
2.0881515209029
30
0
41
1.02613459695995
10
26.554676865702
20
1.83575173121059
30
0
41
1.02613459695995
10
26.2585523859491
20
1.52852807997886
30
0
41
1.02613459695995
10
25.8282311015515
20
1.05011077594504
30
0
41
1.02613459695995
10
25.5737738391822
20
0.688215502459866
30
0
0
SPLINE
5
1AB
100
AcDbEntity
8
1
62
256
6
ByLayer
370
18
48
1
60
0
100
AcDbSpline
70
4
71
3
72
8
73
4
40
0
40
0
40
0
40
0
40
1
40
1
40
1
40
1
41
1
10
25.4175213500675
20
0.776854184404527
30
0
41
1
10
25.8087923846235
20
1.31137871873321
30
0
41
1
10
26.2913648965806
20
1.75898436084492
30
0
41
1
10
26.872076841274
20
2.08815152090273
30
0
0
SPLINE
5
1AC
100
AcDbEntity
8
1
62
256
6
ByLayer
370
18
48
1
60
0
100
AcDbSpline
70
4
71
3
72
16
73
12
40
0
40
0
40
0
40
0
40
0.114691258188362
40
0.114691258188362
40
0.256006982052503
40
0.256006982052503
40
0.47848150969845
40
0.47848150969845
40
0.904237458570186
40
0.904237458570186
40
1
40
1
40
1
40
1
41
1
10
9.07679491924313
20
19.1222825906926
30
0
41
1
10
9.09376079941589
20
19.1222825906926
30
0
41
1
10
9.11093746787589
20
19.1213397893258
30
0
41
1
10
9.14653890153815
20
19.117563257367
30
0
41
1
10
9.1649283126321
20
19.1143205262483
30
0
41
1
10
9.20694798227834
20
19.1044641374228
30
0
41
1
10
9.22859635065211
20
19.0968571256395
30
0
41
1
10
9.28185513895582
20
19.0732678361841
30
0
41
1
10
9.30640600056208
20
19.0554522237109
30
0
41
1
10
9.32912053427441
20
19.0329978954363
30
0
41
1
10
9.33300496589206
20
19.0288038685174
30
0
41
1
10
9.33660254037846
20
19.0245744101322
30
0
0
SPLINE
5
1AD
100
AcDbEntity
8
1
62
256
6
ByLayer
370
18
48
1
60
0
100
AcDbSpline
70
4
71
3
72
16
73
12
40
0
40
0
40
0
40
0
40
0.464304267159312
40
0.464304267159312
40
0.64753348514198
40
0.64753348514198
40
0.833383675860513
40
0.833383675860513
40
0.950238074309858
40
0.950238074309858
40
1
40
1
40
1
40
1
41
1
10
9.33660254037844
20
-19.0245744101322
30
0
41
1
10
9.31929643456959
20
-19.0449201888242
30
0
41
1
10
9.29554416795261
20
-19.0647708693882
30
0
41
1
10
9.24667293447288
20
-19.0892734034403
30
0
41
1
10
9.23079711658974
20
-19.0959253431035
30
0
41
1
10
9.19394564855392
20
-19.1078085849622
30
0
41
1
10
9.17240809259957
20
-19.1131587398644
30
0
41
1
10
9.13286934844766
20
-19.1192406569511
30
0
41
1
10
9.1161352553444
20
-19.1209710216544
30
0
41
1
10
9.09170798023393
20
-19.1221075563677
30
0
41
1
10
9.08424032311152
20
-19.1222825906926
30
0
41
1
10
9.07679491924313
20
-19.1222825906926
30
0
0
SPLINE
5
1AE
100
AcDbEntity
8
1
62
256
6
ByLayer
370
18
48
1
60
0
100
AcDbSpline
70
4
71
3
72
16
73
12
40
0
40
0
40
0
40
0
40
0.46430426715929
40
0.46430426715929
40
0.647533485141967
40
0.647533485141967
40
0.833383675860504
40
0.833383675860504
40
0.950238074309844
40
0.950238074309844
40
1
40
1
40
1
40
1
41
1
10
6.66339745962156
20
-6.16973001948568
30
0
41
1
10
6.68070356543041
20
-6.10699311212741
30
0
41
1
10
6.70445583204739
20
-6.04466199750289
30
0
41
1
10
6.75332706552712
20
-5.96658891111872
30
0
41
1
10
6.76920288341026
20
-5.94525308185362
30
0
41
1
10
6.80605435144608
20
-5.90694983484818
30
0
41
1
10
6.82759190740043
20
-5.88959453036586
30
0
41
1
10
6.86713065155234
20
-5.86981268651903
30
0
41
1
10
6.8838647446556
20
-5.8641686994944
30
0
41
1
10
6.90829201976607
20
-5.86046107106307
30
0
41
1
10
6.91575967688848
20
-5.85988980456935
30
0
41
1
10
6.92320508075687
20
-5.85988980456935
30
0
0
SPLINE
5
1AF
100
AcDbEntity
8
1
62
256
6
ByLayer
370
18
48
1
60
0
100
AcDbSpline
70
4
71
3
72
8
73
4
40
0
40
0
40
0
40
0
40
1
40
1
40
1
40
1
41
1
10
20.92079238
20
-19.5953859168696
30
0
41
1
10
20.968838563163
20
-19.7787535984853
30
0
41
1
10
21.0169583050094
20
-19.9621122648152
30
0
41
1
10
21.0651433124845
20
-20.1454517250657
30
0
0
SPLINE
5
1B0
100
AcDbEntity
8
1
62
256
6
ByLayer
370
18
48
1
60
0
100
AcDbSpline
70
4
71
2
72
6
73
3
40
0
40
0
40
0
40
1
40
1
40
1
41
1
10
17.6751324191375
20
-10.8592473531643
30
0
41
1
10
17.6376050443654
20
-10.834743591717
30
0
41
1
10
17.6000776695932
20
-10.8102398302696
30
0
0
SPLINE
5
1B1
100
AcDbEntity
8
1
62
256
6
ByLayer
370
18
48
1
60
0
100
AcDbSpline
70
4
71
3
72
10
73
6
40
0
40
0
40
0
40
0
40
0.5
40
0.5
40
1
40
1
40
1
40
1
41
1
10
27.7618280406254
20
2.53257417558319
30
0
41
1
10
29.0492933599483
20
3.06977964726099
30
0
41
1
10
30.5840243364123
20
3.01973067023678
30
0
41
1
10
32.8979114257986
20
1.46063882271994
30
0
41
1
10
33.5387935854995
20
-0.0724976850060273
30
0
41
1
10
33.0905396132758
20
-1.40276118674413
30
0
0
SPLINE
5
1B2
100
AcDbEntity
8
1
62
256
6
ByLayer
370
18
48
1
60
0
100
AcDbSpline
70
4
71
3
72
12
73
8
40
0
40
0
40
0
40
0
40
0.333189360095022
40
0.333189360095022
40
0.663294851950587
40
0.663294851950587
40
1
40
1
40
1
40
1
41
1
10
9.33660254037844
20
-11.19157847055
30
0
41
1
10
9.31789308604417
20
-11.1567788864642
30
0
41
1
10
9.29377210435143
20
-11.122396787119
30
0
41
1
10
9.24032710346995
20
-11.0604814754993
30
0
41
1
10
9.21032587479189
20
-11.0320255141877
30
0
41
1
10
9.14646741443011
20
-10.9827754735935
30
0
41
1
10
9.11182579535785
20
-10.9616137013193
30
0
41
1
10
9.07679491924313
20
-10.9457877206429
30
0
0
SPLINE
5
1B3
100
AcDbEntity
8
1
62
256
6
ByLayer
370
18
48
1
60
0
100
AcDbSpline
70
4
71
3
72
8
73
4
40
0
40
0
40
0
40
0
40
1
40
1
40
1
40
1
41
1
10
21.0651433124845
20
-20.1454517250657
30
0
41
1
10
21.0868301546452
20
-20.227968137216
30
0
41
1
10
21.1085217297753
20
-20.3104833309923
30
0
41
1
10
21.1302178734599
20
-20.3929973487186
30
0
0
SPLINE
5
1B4
100
AcDbEntity
8
1
62
256
6
ByLayer
370
18
48
1
60
0
100
AcDbSpline
70
4
71
3
72
8
73
4
40
0
40
0
40
0
40
0
40
1
40
1
40
1
40
1
41
1
10
20.9609847588647
20
19.7487125483234
30
0
41
1
10
20.9475817320637
20
19.6976046271877
30
0
41
1
10
20.9341842105476
20
19.6464956774885
30
0
41
1
10
20.92079238
20
19.5953859168696
30
0
0
SPLINE
5
1B5
100
AcDbEntity
8
1
62
256
6
ByLayer
370
18
48
1
60
0
100
AcDbSpline
70
4
71
3
72
12
73
8
40
0
40
0
40
0
40
0
40
0.413171019201417
40
0.413171019201417
40
0.806940059521557
40
0.806940059521557
40
1
40
1
40
1
40
1
41
1
10
6.92320508075687
20
-10.9457877206429
30
0
41
1
10
6.88038677978338
20
-10.9651318444263
30
0
41
1
10
6.83806656446751
20
-10.9925407650872
30
0
41
1
10
6.7633782730862
20
-11.0559851766987
30
0
41
1
10
6.72940750773819
20
-11.0925636909433
30
0
41
1
10
6.68714539754129
20
-11.1509795078407
30
0
41
1
10
6.67435574375281
20
-11.1711960626375
30
0
41
1
10
6.66339745962156
20
-11.19157847055
30
0
0
SPLINE
5
1B6
100
AcDbEntity
8
1
62
256
6
ByLayer
370
18
48
1
60
0
100
AcDbSpline
70
4
71
3
72
12
73
8
40
0
40
0
40
0
40
0
40
0.31670057856383
40
0.31670057856383
40
0.65823403070612
40
0.65823403070612
40
1
40
1
40
1
40
1
41
1
10
27.3321123593717
20
2.33358018577323
30
0
41
1
10
27.3767061833758
20
2.35620012253355
30
0
41
1
10
27.4215177431051
20
2.37839896608821
30
0
41
1
10
27.515201176377
20
2.42338661394064
30
0
41
1
10
27.5641042297766
20
2.44612618493048
30
0
41
1
10
27.6625142856606
20
2.49032922328965
30
0
41
1
10
27.7120301553724
20
2.51179559892222
30
0
41
1
10
27.7618280118114
20
2.53257416356035
30
0
0
SPLINE
5
1B7
100
AcDbEntity
8
1
62
256
6
ByLayer
370
18
48
1
60
0
100
AcDbSpline
70
4
71
3
72
10
73
6
40
0
40
0
40
0
40
0
40
0.5
40
0.5
40
1
40
1
40
1
40
1
41
1
10
17.0803645201175
20
18.4785397031243
30
0
41
1
10
17.1607362481336
20
18.8589247873746
30
0
41
1
10
17.5682113664009
20
19.1459166129717
30
0
41
1
10
18.9669005807707
20
19.5099726158561
30
0
41
1
10
19.9225318765138
20
19.5880225669773
30
0
41
1
10
20.92079238
20
19.5953859168696
30
0
0
SPLINE
5
1B8
100
AcDbEntity
8
1
62
256
6
ByLayer
370
18
48
1
60
0
100
AcDbSpline
70
4
71
2
72
6
73
3
40
0
40
0
40
0
40
1
40
1
40
1
41
1
10
17.6000776695932
20
-10.8102398302696
30
0
41
1
10
17.562550294821
20
-10.7857360688223
30
0
41
1
10
17.5250229200488
20
-10.761232307375
30
0
0
SPLINE
5
1B9
100
AcDbEntity
8
1
62
256
6
ByLayer
370
18
48
1
60
0
100
AcDbSpline
70
4
71
2
72
9
73
6
40
0
40
0
40
0
40
0.102506961382629
40
0.461504176829577
40
0.641002784553051
40
1
40
1
40
1
41
1
10
27.7618280406254
20
2.53257417558322
30
0
41
1
10
27.5908986324551
20
2.42050962846937
30
0
41
1
10
26.7961082085214
20
1.83248140322235
30
0
41
1
10
26.4086618850379
20
1.4305130341896
30
0
41
1
10
25.9783406006403
20
0.952095730155804
30
0
41
1
10
25.723883338271
20
0.590200456670601
30
0
0
SPLINE
5
1BA
100
AcDbEntity
8
1
62
256
6
ByLayer
370
18
48
1
60
0
100
AcDbSpline
70
4
71
2
72
8
73
5
40
0
40
0
40
0
40
0.398597512058947
40
0.599065008039298
40
1
40
1
40
1
41
1
10
27.3321123600871
20
2.33358018630301
30
0
41
1
10
26.7195475656489
20
1.87992658974059
30
0
41
1
10
26.3336071354935
20
1.47952055708424
30
0
41
1
10
25.9032858510959
20
1.00110325305044
30
0
41
1
10
25.6488285887266
20
0.639207979565214
30
0
0
SPLINE
5
1BB
100
AcDbEntity
8
1
62
256
6
ByLayer
370
18
48
1
60
0
100
AcDbSpline
70
4
71
1
72
4
73
2
40
0
40
0
40
1
40
1
41
1
10
25.6488285887266
20
0.639207979565214
30
0
41
1
10
25.5737738391823
20
0.688215502459855
30
0
0
SPLINE
5
1BC
100
AcDbEntity
8
1
62
256
6
ByLayer
370
18
48
1
60
0
100
AcDbSpline
70
4
71
3
72
12
73
8
40
0
40
0
40
0
40
0
40
0.33318936009506
40
0.33318936009506
40
0.663294851950627
40
0.663294851950627
40
1
40
1
40
1
40
1
41
1
10
6.66339745962156
20
-13.2956191778814
30
0
41
1
10
6.68210691395583
20
-13.2845901454823
30
0
41
1
10
6.70622789564857
20
-13.2798739138028
30
0
41
1
10
6.75967289653005
20
-13.2798391068043
30
0
41
1
10
6.78967412520811
20
-13.2844211835406
30
0
41
1
10
6.85353258556992
20
-13.3010528357657
30
0
41
1
10
6.88817420464216
20
-13.3134519127561
30
0
41
1
10
6.92320508075687
20
-13.3292778934325
30
0
0
SPLINE
5
1BD
100
AcDbEntity
8
1
62
256
6
ByLayer
370
18
48
1
60
0
100
AcDbSpline
70
4
71
3
72
16
73
12
40
0
40
0
40
0
40
0
40
0.114691258188364
40
0.114691258188364
40
0.256006982052499
40
0.256006982052499
40
0.478481509698429
40
0.478481509698429
40
0.904237458570111
40
0.904237458570111
40
1
40
1
40
1
40
1
41
1
10
6.92320508075687
20
-19.1222825906926
30
0
41
1
10
6.90623920058411
20
-19.1222825906926
30
0
41
1
10
6.88906253212411
20
-19.1213397893258
30
0
41
1
10
6.85346109846185
20
-19.117563257367
30
0
41
1
10
6.83507168736793
20
-19.1143205262483
30
0
41
1
10
6.79305201772169
20
-19.1044641374228
30
0
41
1
10
6.77140364934789
20
-19.0968571256395
30
0
41
1
10
6.71814486104421
20
-19.0732678361841
30
0
41
1
10
6.69359399943792
20
-19.0554522237109
30
0
41
1
10
6.67087946572559
20
-19.0329978954364
30
0
41
1
10
6.66699503410797
20
-19.0288038685174
30
0
41
1
10
6.66339745962154
20
-19.0245744101322
30
0
0
SPLINE
5
1BE
100
AcDbEntity
8
1
62
256
6
ByLayer
370
18
48
1
60
0
100
AcDbSpline
70
4
71
3
72
8
73
4
40
0
40
0
40
0
40
0
40
1
40
1
40
1
40
1
41
1
10
22.0783252342139
20
-24.0821208201058
30
0
41
1
10
21.7567681813916
20
-22.8471512632316
30
0
41
1
10
21.4397531803862
20
-21.6176012368932
30
0
41
1
10
21.1302178734599
20
-20.3929973487186
30
0
0
SPLINE
5
1BF
100
AcDbEntity
8
1
62
256
6
ByLayer
370
18
48
1
60
0
100
AcDbSpline
70
4
71
3
72
16
73
12
40
0
40
0
40
0
40
0
40
0.223150580815801
40
0.223150580815801
40
0.446272993558189
40
0.446272993558189
40
0.669843465198727
40
0.669843465198727
40
0.897182555479732
40
0.897182555479732
40
1
40
1
40
1
40
1
41
1
10
20.92079238
20
-19.5953859168696
30
0
41
1
10
20.4820356516982
20
-19.5921495679438
30
0
41
1
10
20.0400194234503
20
-19.5740335831371
30
0
41
1
10
19.2227830076886
20
-19.5055315827938
30
0
41
1
10
18.8363831801959
20
-19.4539599663908
30
0
41
1
10
18.1700045757175
20
-19.312705250157
30
0
41
1
10
17.8813325744675
20
-19.2207217559237
30
0
41
1
10
17.4314933461893
20
-18.9948322134414
30
0
41
1
10
17.2665208540444
20
-18.8571253883452
30
0
41
1
10
17.1268994980038
20
-18.6313879984429
30
0
41
1
10
17.096843168946
20
-18.5565302151828
30
0
41
1
10
17.0803645201174
20
-18.4785397031243
30
0
0
SPLINE
5
1C0
100
AcDbEntity
8
1
62
256
6
ByLayer
370
18
48
1
60
0
100
AcDbSpline
70
4
71
3
72
8
73
4
40
0
40
0
40
0
40
0
40
1
40
1
40
1
40
1
41
1
10
17.0803645201175
20
-17.5802972759821
30
0
41
1
10
17.0740818760961
20
-17.5480232348619
30
0
41
1
10
17.0679154403126
20
-17.5125844716957
30
0
41
1
10
17.0619022930937
20
-17.4741417052296
30
0
0
SPLINE
5
1C1
100
AcDbEntity
8
1
62
256
6
ByLayer
370
18
48
1
60
0
100
AcDbSpline
70
4
71
3
72
10
73
6
40
0
40
0
40
0
40
0
40
0.5
40
0.5
40
1
40
1
40
1
40
1
41
1
10
16.8053249484028
20
-16.8364471191964
30
0
41
1
10
16.6249841404926
20
-16.9546966358953
30
0
41
1
10
16.5747793296969
20
-17.1136595981537
30
0
41
1
10
16.664438137925
20
-17.3942065163708
30
0
41
1
10
16.7820617934119
20
-17.5208094850498
30
0
41
1
10
16.9244370944728
20
-17.6353768954076
30
0
0
SPLINE
5
1C2
100
AcDbEntity
8
1
62
256
6
ByLayer
370
18
48
1
60
0
100
AcDbSpline
70
4
71
3
72
12
73
8
40
0
40
0
40
0
40
0
40
0.413171019201411
40
0.413171019201411
40
0.806940059521569
40
0.806940059521569
40
1
40
1
40
1
40
1
41
1
10
9.07679491924313
20
-13.3292778934325
30
0
41
1
10
9.11961322021662
20
-13.3099337696491
30
0
41
1
10
9.16193343553249
20
-13.2956668911403
30
0
41
1
10
9.2366217269138
20
-13.2798753007804
30
0
41
1
10
9.27059249226181
20
-13.2775007879803
30
0
41
1
10
9.31285460245871
20
-13.2848737084385
30
0
41
1
10
9.32564425624719
20
-13.2891593812159
30
0
41
1
10
9.33660254037844
20
-13.2956191778814
30
0
0
SPLINE
5
1C3
100
AcDbEntity
8
1
62
256
6
ByLayer
370
18
48
1
60
0
100
AcDbSpline
70
4
71
1
72
4
73
2
40
0
40
0
40
1
40
1
41
1
10
25.723883338271
20
0.590200456670601
30
0
41
1
10
25.6488285887266
20
0.639207979565214
30
0
0
SPLINE
5
1C4
100
AcDbEntity
8
1
62
256
6
ByLayer
370
18
48
1
60
0
100
AcDbSpline
70
4
71
3
72
16
73
12
40
0
40
0
40
0
40
0
40
0.397438321340184
40
0.397438321340184
40
0.616281642191194
40
0.616281642191194
40
0.785899095891198
40
0.785899095891198
40
0.910714619688537
40
0.910714619688537
40
1
40
1
40
1
40
1
41
1
10
17.1360980955876
20
-8.55517339049786
30
0
41
1
10
17.1534388001186
20
-8.3056958782565
30
0
41
1
10
17.1808393686494
20
-8.06492462878404
30
0
41
1
10
17.2581705390714
20
-7.75263899096618
30
0
41
1
10
17.2934408895311
20
-7.65139269528712
30
0
41
1
10
17.3737747855878
20
-7.50963467165667
30
0
41
1
10
17.4157622674948
20
-7.45938745107634
30
0
41
1
10
17.4995877246149
20
-7.4080467849146
30
0
41
1
10
17.5394238872563
20
-7.39726034744444
30
0
41
1
10
17.6107060680097
20
-7.40514158932137
30
0
41
1
10
17.6418555487705
20
-7.41648670028391
30
0
41
1
10
17.67226285442
20
-7.43630501522648
30
0
0
SPLINE
5
1C5
100
AcDbEntity
8
1
62
256
6
ByLayer
370
18
48
1
60
0
100
AcDbSpline
70
4
71
2
72
6
73
3
40
0
40
0
40
0
40
1
40
1
40
1
41
0.996402688175599
10
25.4175288467652
20
0.776850524637167
30
0
41
1.01045012888897
10
25.4987710336984
20
0.737189108117331
30
0
41
1.02613459695995
10
25.5737738391822
20
0.688215502459866
30
0
0
SPLINE
5
1C6
100
AcDbEntity
8
1
62
256
6
ByLayer
370
18
48
1
60
0
100
AcDbSpline
70
4
71
3
72
16
73
12
40
0
40
0
40
0
40
0
40
0.114691258188368
40
0.114691258188368
40
0.256006982052502
40
0.256006982052502
40
0.47848150969846
40
0.47848150969846
40
0.904237458570168
40
0.904237458570168
40
1
40
1
40
1
40
1
41
1
10
6.9232050807569
20
5.85988980456938
30
0
41
1
10
6.90623920058411
20
5.85988980456938
30
0
41
1
10
6.88906253212411
20
5.8629683550426
30
0
41
1
10
6.85346109846185
20
5.87527238052311
30
0
41
1
10
6.8350716873679
20
5.88582364044447
30
0
41
1
10
6.79305201772166
20
5.91775860341622
30
0
41
1
10
6.77140364934789
20
5.94228809980598
30
0
41
1
10
6.71814486104418
20
6.01773563791645
30
0
41
1
10
6.69359399943792
20
6.07398601286491
30
0
41
1
10
6.67087946572559
20
6.14371014971229
30
0
41
1
10
6.66699503410797
20
6.15668833929709
30
0
41
1
10
6.66339745962154
20
6.16973001948568
30
0
0
SPLINE
5
1C7
100
AcDbEntity
8
SK1
62
256
6
ByLayer
370
18
48
1
60
0
100
AcDbSpline
70
4
71
3
72
32
73
28
40
0
40
0
40
0
40
0
40
0.335339404831972
40
0.335339404831972
40
0.429287156787091
40
0.429287156787091
40
0.47567705376244
40
0.47567705376244
40
0.494539743197707
40
0.494539743197707
40
0.513645880085613
40
0.513645880085613
40
0.520504273461007
40
0.520504273461007
40
0.527488218290634
40
0.527488218290634
40
0.533551201014328
40
0.533551201014328
40
0.540998152878254
40
0.540998152878254
40
0.554393631774451
40
0.554393631774451
40
0.598967269657032
40
0.598967269657032
40
0.809317334416222
40
0.809317334416222
40
1
40
1
40
1
40
1
41
1
10
-1.49503997793931
20
-2.59465115838304
30
0
41
1
10
-1.51545804662706
20
-2.47020327904033
30
0
41
1
10
-1.5371392192427
20
-2.34554891087819
30
0
41
1
10
-1.57392592094843
20
-2.19043955590803
30
0
41
1
10
-1.58255890853934
20
-2.15670217135892
30
0
41
1
10
-1.5980595693656
20
-2.1081468839686
30
0
41
1
10
-1.60359902440038
20
-2.09231222948606
30
0
41
1
10
-1.61296122457534
20
-2.07152520286885
30
0
41
1
10
-1.6158696741316
20
-2.0656737244498
30
0
41
1
10
-1.62242426172162
20
-2.05481886173052
30
0
41
1
10
-1.62611615645159
20
-2.04963161073078
30
0
41
1
10
-1.63217263701876
20
-2.04479089552191
30
0
41
1
10
-1.63391092603902
20
-2.04372430879368
30
0
41
1
10
-1.63759701012464
20
-2.04243943769597
30
0
41
1
10
-1.63960513001732
20
-2.04224314885471
30
0
41
1
10
-1.64327142014687
20
-2.04303363449088
30
0
41
1
10
-1.64498274878696
20
-2.04388024545895
30
0
41
1
10
-1.64846923771176
20
-2.04652261877811
30
0
41
1
10
-1.65023197368771
20
-2.04850621085967
30
0
41
1
10
-1.65459297944469
20
-2.05462030362457
30
0
41
1
10
-1.65687449353447
20
-2.05928542847226
30
0
41
1
10
-1.66535432668744
20
-2.07982184742582
30
0
41
1
10
-1.66919635898847
20
-2.09736547364699
30
0
41
1
10
-1.68800967157858
20
-2.19569498442294
30
0
41
1
10
-1.6917465712958
20
-2.27904221250569
30
0
41
1
10
-1.69840552504974
20
-2.43548746422863
30
0
41
1
10
-1.69970172620592
20
-2.50976932903754
30
0
41
1
10
-1.69999999999999
20
-2.58372509632824
30
0
0
SPLINE
5
1C8
100
AcDbEntity
8
SK1
62
256
6
ByLayer
370
18
48
1
60
0
100
AcDbSpline
70
4
71
3
72
22
73
18
40
0
40
0
40
0
40
0
40
0.0262442859026881
40
0.0262442859026881
40
0.0530261157854851
40
0.0530261157854851
40
0.0713559655737795
40
0.0713559655737795
40
0.0895874012639089
40
0.0895874012639089
40
0.119482247898519
40
0.119482247898519
40
0.178618886842945
40
0.178618886842945
40
0.388022338076953
40
0.388022338076953
40
1
40
1
40
1
40
1
41
1
10
-0.394976888875306
20
-5.0009244140283
30
0
41
1
10
-0.389542958903149
20
-4.99654803778401
30
0
41
1
10
-0.383617633691586
20
-4.99263335383438
30
0
41
1
10
-0.370682657201087
20
-4.98677476419829
30
0
41
1
10
-0.363425194676552
20
-4.98483424058901
30
0
41
1
10
-0.350979181144169
20
-4.98462903203949
30
0
41
1
10
-0.345738268039327
20
-4.98542011278013
30
0
41
1
10
-0.335836240990062
20
-4.98861553627458
30
0
41
1
10
-0.331061456711979
20
-4.99102841332402
30
0
41
1
10
-0.319537139874143
20
-4.9986715699325
30
0
41
1
10
-0.313226756018622
20
-5.00478758784652
30
0
41
1
10
-0.29682625826149
20
-5.02421063341325
30
0
41
1
10
-0.288455270980251
20
-5.03906576138257
30
0
41
1
10
-0.256353055935392
20
-5.10678482490906
30
0
41
1
10
-0.244000373144985
20
-5.16381228581221
30
0
41
1
10
-0.204596889637315
20
-5.38213882730372
30
0
41
1
10
-0.200000000000046
20
-5.54465158381666
30
0
41
1
10
-0.200000000000046
20
-5.70317614351262
30
0
0
SPLINE
5
1C9
100
AcDbEntity
8
SK1
62
256
6
ByLayer
370
18
48
1
60
0
100
AcDbSpline
70
4
71
3
72
30
73
26
40
0
40
0
40
0
40
0
40
0.337353368376273
40
0.337353368376273
40
0.421572476570396
40
0.421572476570396
40
0.437870507614647
40
0.437870507614647
40
0.454360744150349
40
0.454360744150349
40
0.46102437321649
40
0.46102437321649
40
0.467802724987302
40
0.467802724987302
40
0.473791453396888
40
0.473791453396888
40
0.481264268969724
40
0.481264268969724
40
0.494804301393218
40
0.494804301393218
40
0.541069262252274
40
0.541069262252274
40
0.762218024196531
40
0.762218024196531
40
1
40
1
40
1
40
1
41
1
10
-1.69999999999999
20
2.5837250319525
30
0
41
1
10
-1.69946915813009
20
2.45210484593008
30
0
41
1
10
-1.69760670671556
20
2.31884997747196
30
0
41
1
10
-1.67915375522099
20
2.15294187932722
30
0
41
1
10
-1.67485152519237
20
2.11932442567118
30
0
41
1
10
-1.66472347048304
20
2.08095979549279
30
0
41
1
10
-1.66287560510222
20
2.07475454077749
30
0
41
1
10
-1.65846712486041
20
2.06274931231133
30
0
41
1
10
-1.65588139752759
20
2.05680133794195
30
0
41
1
10
-1.65120237663186
20
2.0497680665317
30
0
41
1
10
-1.64969999009787
20
2.04787870491481
30
0
41
1
10
-1.64639510213217
20
2.0447894938039
30
0
41
1
10
-1.64453557847699
20
2.04357912964019
30
0
41
1
10
-1.64096575658939
20
2.04240828386776
30
0
41
1
10
-1.63922229186966
20
2.04230771235822
30
0
41
1
10
-1.63551182442282
20
2.04297037181766
30
0
41
1
10
-1.63353448434609
20
2.04393506875687
30
0
41
1
10
-1.62845259442082
20
2.04750201060256
30
0
41
1
10
-1.62558657915471
20
2.0508033417303
30
0
41
1
10
-1.61425491864986
20
2.06649024761731
30
0
41
1
10
-1.60795428020356
20
2.08189579117942
30
0
41
1
10
-1.57473680217674
20
2.17064161742221
30
0
41
1
10
-1.55852136531561
20
2.25243693059593
30
0
41
1
10
-1.5247433730911
20
2.41950302647342
30
0
41
1
10
-1.50941945205861
20
2.5070083929059
30
0
41
1
10
-1.49503997793928
20
2.59465115086951
30
0
0
SPLINE
5
1CA
100
AcDbEntity
8
SK1
62
256
6
ByLayer
370
18
48
1
60
0
100
AcDbSpline
70
4
71
3
72
8
73
4
40
0
40
0
40
0
40
0
40
1
40
1
40
1
40
1
41
1
10
-1.30710678118655
20
-3.62781725664615
30
0
41
1
10
-1.37345758266253
20
-3.29127686428785
30
0
41
1
10
-1.4372955614198
20
-2.946602671997
30
0
41
1
10
-1.49503997793931
20
-2.59465115838313
30
0
0
SPLINE
5
1CB
100
AcDbEntity
8
SK1
62
256
6
ByLayer
370
18
48
1
60
0
100
AcDbSpline
70
4
71
3
72
8
73
4
40
0
40
0
40
0
40
0
40
1
40
1
40
1
40
1
41
1
10
-1.49503997793931
20
2.59465115086957
30
0
41
1
10
-1.43729564430089
20
2.94660231507382
30
0
41
1
10
-1.37345704405578
20
3.29127575598179
30
0
41
1
10
-1.30710678118655
20
3.6278161010051
30
0
0
SPLINE
5
1CC
100
AcDbEntity
8
SK1
62
256
6
ByLayer
370
18
48
1
60
0
100
AcDbSpline
70
4
71
3
72
10
73
6
40
0
40
0
40
0
40
0
40
0.5
40
0.5
40
1
40
1
40
1
40
1
41
1
10
-1.69999999999999
20
-2.58372509632821
30
0
41
1
10
-1.83222262461143
20
-1.751855044526
30
0
41
1
10
-1.92871617486691
20
-0.884329181036094
30
0
41
1
10
-1.92842303871006
20
0.888588835776119
30
0
41
1
10
-1.83224326233341
20
1.75172436897285
30
0
41
1
10
-1.69999999999999
20
2.58372503195247
30
0
0
SPLINE
5
1CD
100
AcDbEntity
8
SK1
62
256
6
ByLayer
370
18
48
1
60
0
100
AcDbSpline
70
4
71
3
72
98
73
94
40
0
40
0
40
0
40
0
40
0.0012808740763045
40
0.0105737783742241
40
0.0198666826721437
40
0.0291595869700633
40
0.0384524912679829
40
0.0477453955659025
40
0.0663312041617417
40
0.0849170127575809
40
0.10350282135342
40
0.11279572565134
40
0.122088629949259
40
0.131381534247179
40
0.140674438545099
40
0.159260247140938
40
0.168553151438857
40
0.177846055736777
40
0.187138960034696
40
0.196431864332616
40
0.205724768630536
40
0.215017672928455
40
0.233603481524295
40
0.242896385822214
40
0.252189290120134
40
0.261482194418053
40
0.270775098715973
40
0.280068003013893
40
0.289360907311812
40
0.298653811609732
40
0.307946715907651
40
0.326532524503491
40
0.33582542880141
40
0.34511833309933
40
0.363704141695169
40
0.382289950291008
40
0.391582854588928
40
0.400875758886847
40
0.410168663184767
40
0.419461567482687
40
0.428754471780606
40
0.438047376078526
40
0.442693828227486
40
0.447340280376445
40
0.456633184674365
40
0.465926088972284
40
0.475218993270204
40
0.493804801866043
40
0.503097706163963
40
0.512390610461883
40
0.521683514759802
40
0.530976419057722
40
0.540269323355641
40
0.549562227653561
40
0.558855131951481
40
0.5681480362494
40
0.57744094054732
40
0.586733844845239
40
0.605319653441079
40
0.614612557738998
40
0.623905462036918
40
0.628551914185878
40
0.633198366334837
40
0.642491270632757
40
0.661077079228596
40
0.670369983526516
40
0.679662887824435
40
0.698248696420275
40
0.716834505016114
40
0.726127409314034
40
0.735420313611953
40
0.754006122207792
40
0.763299026505712
40
0.772591930803632
40
0.781884835101551
40
0.791177739399471
40
0.80047064369739
40
0.80976354799531
40
0.828349356591149
40
0.846935165186988
40
0.856228069484908
40
0.865520973782828
40
0.874813878080747
40
0.884106782378667
40
0.902692590974506
40
0.921278399570345
40
0.939864208166184
40
0.958450016762024
40
0.967742921059943
40
0.977035825357863
40
0.986328729655782
40
0.995621633953702
40
1
40
1
40
1
40
1
41
1
10
-0.394976888875306
20
-13.8446015176322
30
0
41
1
10
-0.394976888875306
20
-13.8443369604552
30
0
41
1
10
-0.394976888875306
20
-13.842101166137
30
0
41
1
10
-0.394976888875306
20
-13.8370982474882
30
0
41
1
10
-0.394976888875306
20
-13.8281310063336
30
0
41
1
10
-0.394976888875306
20
-13.8172492272358
30
0
41
1
10
-0.394976888875306
20
-13.8044829705053
30
0
41
1
10
-0.394976888875306
20
-13.7849758313288
30
0
41
1
10
-0.394976888875306
20
-13.7560496751861
30
0
41
1
10
-0.394976888875306
20
-13.7142204148031
30
0
41
1
10
-0.394976888875306
20
-13.6736219510479
30
0
41
1
10
-0.394976888875306
20
-13.6377421071264
30
0
41
1
10
-0.394976888875306
20
-13.6091837483775
30
0
41
1
10
-0.394976888875306
20
-13.5789821852606
30
0
41
1
10
-0.394976888875306
20
-13.5365270016785
30
0
41
1
10
-0.394976888875306
20
-13.4909311840823
30
0
41
1
10
-0.394976888875306
20
-13.4421262012037
30
0
41
1
10
-0.394976888875306
20
-13.4039879614121
30
0
41
1
10
-0.394976888875306
20
-13.3643136176474
30
0
41
1
10
-0.394976888875306
20
-13.3231185671574
30
0
41
1
10
-0.394976888875306
20
-13.2804176635455
30
0
41
1
10
-0.394976888875306
20
-13.2214670183476
30
0
41
1
10
-0.394976888875306
20
-13.1596507604527
30
0
41
1
10
-0.394976888875306
20
-13.094846134259
30
0
41
1
10
-0.394976888875306
20
-13.0448282447276
30
0
41
1
10
-0.394976888875306
20
-12.9933861020735
30
0
41
1
10
-0.394976888875306
20
-12.9405320737836
30
0
41
1
10
-0.394976888875306
20
-12.8862769376535
30
0
41
1
10
-0.394976888875306
20
-12.8306328717281
30
0
41
1
10
-0.394976888875306
20
-12.7736108931729
30
0
41
1
10
-0.394976888875306
20
-12.6957215859151
30
0
41
1
10
-0.394976888875306
20
-12.6152283382819
30
0
41
1
10
-0.394976888875306
20
-12.5319491453114
30
0
41
1
10
-0.394976888875306
20
-12.4468991604423
30
0
41
1
10
-0.394976888875306
20
-12.3373769122162
30
0
41
1
10
-0.394976888875306
20
-12.2235215734124
30
0
41
1
10
-0.394976888875306
20
-12.1297946053789
30
0
41
1
10
-0.394976888875306
20
-12.0582544060742
30
0
41
1
10
-0.394976888875306
20
-11.9854459580753
30
0
41
1
10
-0.394976888875306
20
-11.9113764581405
30
0
41
1
10
-0.394976888875306
20
-11.8360539668501
30
0
41
1
10
-0.394976888875306
20
-11.7722691621604
30
0
41
1
10
-0.394976888875306
20
-11.7205808778945
30
0
41
1
10
-0.394976888875306
20
-11.6684804259269
30
0
41
1
10
-0.394976888875306
20
-11.6026363586083
30
0
41
1
10
-0.394976888875306
20
-11.5223699646631
30
0
41
1
10
-0.394976888875306
20
-11.4136741241806
30
0
41
1
10
-0.394976888875306
20
-11.3026972493618
30
0
41
1
10
-0.394976888875306
20
-11.1891707558493
30
0
41
1
10
-0.394976888875306
20
-11.102867622286
30
0
41
1
10
-0.394976888875306
20
-11.0153746780185
30
0
41
1
10
-0.394976888875306
20
-10.9266969759659
30
0
41
1
10
-0.394976888875306
20
-10.8368404439692
30
0
41
1
10
-0.394976888875306
20
-10.74580988339
30
0
41
1
10
-0.394976888875306
20
-10.6536100721469
30
0
41
1
10
-0.394976888875306
20
-10.5602461340712
30
0
41
1
10
-0.394976888875306
20
-10.4657231550753
30
0
41
1
10
-0.394976888875306
20
-10.3380960413352
30
0
41
1
10
-0.394976888875306
20
-10.2083399780688
30
0
41
1
10
-0.394976888875306
20
-10.0761265525343
30
0
41
1
10
-0.394976888875306
20
-9.99261143893298
30
0
41
1
10
-0.394976888875306
20
-9.92517900727512
30
0
41
1
10
-0.394976888875306
20
-9.85736934874495
30
0
41
1
10
-0.394976888875306
20
-9.73773600630287
30
0
41
1
10
-0.394976888875306
20
-9.59892076352932
30
0
41
1
10
-0.394976888875306
20
-9.45767861814849
30
0
41
1
10
-0.394976888875306
20
-9.3149499665038
30
0
41
1
10
-0.394976888875306
20
-9.13390678694702
30
0
41
1
10
-0.394976888875306
20
-8.94918033853523
30
0
41
1
10
-0.394976888875306
20
-8.79907643306458
30
0
41
1
10
-0.394976888875306
20
-8.64751154095558
30
0
41
1
10
-0.394976888875306
20
-8.49397418950429
30
0
41
1
10
-0.394976888875306
20
-8.33804225713789
30
0
41
1
10
-0.394976888875306
20
-8.22006379392718
30
0
41
1
10
-0.394976888875306
20
-8.10100252302422
30
0
41
1
10
-0.394976888875306
20
-7.98086143927398
30
0
41
1
10
-0.394976888875306
20
-7.85964213989763
30
0
41
1
10
-0.394976888875306
20
-7.69650359349293
30
0
41
1
10
-0.394976888875306
20
-7.49008089634199
30
0
41
1
10
-0.394976888875306
20
-7.28009509164627
30
0
41
1
10
-0.394976888875306
20
-7.10982244878713
30
0
41
1
10
-0.394976888875306
20
-6.98112244545175
30
0
41
1
10
-0.394976888875306
20
-6.85136200824962
30
0
41
1
10
-0.394976888875306
20
-6.67684685573994
30
0
41
1
10
-0.394976888875306
20
-6.45627503636445
30
0
41
1
10
-0.394976888875306
20
-6.18726433662556
30
0
41
1
10
-0.394976888875306
20
-5.91406385279547
30
0
41
1
10
-0.394976888875306
20
-5.68302324019061
30
0
41
1
10
-0.394976888875306
20
-5.49591838220567
30
0
41
1
10
-0.394976888875306
20
-5.35463940810163
30
0
41
1
10
-0.394976888875306
20
-5.21232773385495
30
0
41
1
10
-0.394976888875306
20
-5.09425517295406
30
0
41
1
10
-0.394976888875306
20
-5.02359271293304
30
0
41
1
10
-0.394976888875306
20
-5.0009244140283
30
0
0
SPLINE
5
1CE
100
AcDbEntity
8
SK1
62
256
6
ByLayer
370
18
48
1
60
0
100
AcDbSpline
70
4
71
3
72
24
73
20
40
0
40
0
40
0
40
0
40
0.470757791634908
40
0.470757791634908
40
0.661826126045254
40
0.661826126045254
40
0.85568916651581
40
0.85568916651581
40
0.884460546127643
40
0.884460546127643
40
0.91360691814161
40
0.91360691814161
40
0.932763100125268
40
0.932763100125268
40
0.95203909678233
40
0.95203909678233
40
0.974618894615272
40
0.974618894615272
40
1
40
1
40
1
40
1
41
1
10
-0.199999999999989
20
5.70317605472911
30
0
41
1
10
-0.199999999999989
20
5.58107998739831
30
0
41
1
10
-0.203895983734896
20
5.45705658909691
30
0
41
1
10
-0.223509916035709
20
5.28128624620587
30
0
41
1
10
-0.23086916609185
20
5.23019697507434
30
0
41
1
10
-0.252992963272021
20
5.12819212434212
30
0
41
1
10
-0.266168518183207
20
5.0748758166919
30
0
41
1
10
-0.299311339940942
20
5.02202983998879
30
0
41
1
10
-0.304166370278011
20
5.01525404855027
30
0
41
1
10
-0.315232060467963
20
5.00279573504582
30
0
41
1
10
-0.321587352348587
20
4.99699852204864
30
0
41
1
10
-0.333432884234497
20
4.98975078853741
30
0
41
1
10
-0.33858625385443
20
4.98746585289803
30
0
41
1
10
-0.3491574393544
20
4.98479989040243
30
0
41
1
10
-0.354703931885922
20
4.98441392730476
30
0
41
1
10
-0.366193082216228
20
4.98556317954746
30
0
41
1
10
-0.372213152675158
20
4.98741181161262
30
0
41
1
10
-0.383950186909431
20
4.99285513665984
30
0
41
1
10
-0.3896944310344
20
4.99667072159761
30
0
41
1
10
-0.394976888882155
20
5.00092508225598
30
0
0
SPLINE
5
1CF
100
AcDbEntity
8
SK1
62
256
6
ByLayer
370
18
48
1
60
0
100
AcDbSpline
70
4
71
3
72
100
73
96
40
0
40
0
40
0
40
0
40
0.0043783247532282
40
0.0136712309453665
40
0.0229641371375048
40
0.0322570433296431
40
0.0415499495217814
40
0.0601357619060581
40
0.0787215742903348
40
0.0973073866746114
40
0.115893199058888
40
0.125186105251026
40
0.134479011443165
40
0.143771917635303
40
0.153064823827441
40
0.171650636211718
40
0.190236448595995
40
0.199529354788133
40
0.208822260980271
40
0.21811516717241
40
0.227408073364548
40
0.236700979556686
40
0.245993885748825
40
0.264579698133101
40
0.27387260432524
40
0.283165510517378
40
0.301751322901655
40
0.320337135285931
40
0.32963004147807
40
0.338922947670208
40
0.357508760054485
40
0.366801666246623
40
0.371448119342692
40
0.376094572438761
40
0.385387478630899
40
0.394680384823038
40
0.413266197207314
40
0.422559103399453
40
0.431852009591591
40
0.441144915783729
40
0.450437821975868
40
0.459730728168006
40
0.469023634360144
40
0.478316540552283
40
0.487609446744421
40
0.496902352936559
40
0.506195259128698
40
0.524781071512974
40
0.534073977705113
40
0.543366883897251
40
0.552659790089389
40
0.557306243185458
40
0.561952696281528
40
0.571245602473666
40
0.580538508665804
40
0.589831414857943
40
0.599124321050081
40
0.608417227242219
40
0.617710133434358
40
0.636295945818634
40
0.654881758202911
40
0.664174664395049
40
0.673467570587188
40
0.692053382971464
40
0.701346289163602
40
0.710639195355741
40
0.719932101547879
40
0.729225007740017
40
0.738517913932156
40
0.747810820124294
40
0.757103726316433
40
0.766396632508571
40
0.784982444892847
40
0.794275351084986
40
0.803568257277124
40
0.812861163469262
40
0.822154069661401
40
0.831446975853539
40
0.840739882045677
40
0.859325694429954
40
0.868618600622092
40
0.877911506814231
40
0.887204413006369
40
0.896497319198507
40
0.915083131582784
40
0.924376037774922
40
0.933668943967061
40
0.942961850159199
40
0.952254756351337
40
0.961547662543476
40
0.970840568735614
40
0.980133474927752
40
0.98942638111989
40
0.998719287312029
40
1
40
1
40
1
40
1
41
1
10
-0.394976888875277
20
5.00092508225416
30
0
41
1
10
-0.394976888875277
20
5.02359314607176
30
0
41
1
10
-0.394976888875277
20
5.09425535366776
30
0
41
1
10
-0.394976888875277
20
5.21232773830431
30
0
41
1
10
-0.394976888875277
20
5.35463943777347
30
0
41
1
10
-0.394976888875277
20
5.49591839522026
30
0
41
1
10
-0.394976888875277
20
5.68302324398948
30
0
41
1
10
-0.394976888875277
20
5.91406388300979
30
0
41
1
10
-0.394976888875277
20
6.18726435105106
30
0
41
1
10
-0.394976888875277
20
6.45627504712579
30
0
41
1
10
-0.394976888875277
20
6.6768468885183
30
0
41
1
10
-0.394976888875277
20
6.85136201549099
30
0
41
1
10
-0.394976888875277
20
6.98112245032084
30
0
41
1
10
-0.394976888875277
20
7.10982246715957
30
0
41
1
10
-0.394976888875277
20
7.28009512097313
30
0
41
1
10
-0.394976888875277
20
7.49008091096033
30
0
41
1
10
-0.394976888875277
20
7.69650359935568
30
0
41
1
10
-0.394976888875277
20
7.85964216476054
30
0
41
1
10
-0.394976888875277
20
7.98086146605701
30
0
41
1
10
-0.394976888875277
20
8.10100253994159
30
0
41
1
10
-0.394976888875277
20
8.22006380191277
30
0
41
1
10
-0.394976888875277
20
8.3380422654499
30
0
41
1
10
-0.394976888875277
20
8.49397420958985
30
0
41
1
10
-0.394976888875277
20
8.64751156797169
30
0
41
1
10
-0.394976888875277
20
8.79907644696402
30
0
41
1
10
-0.394976888875277
20
8.94918034619519
30
0
41
1
10
-0.394976888875277
20
9.13390680482667
30
0
41
1
10
-0.394976888875277
20
9.31494999082747
30
0
41
1
10
-0.394976888875277
20
9.45767863215664
30
0
41
1
10
-0.394976888875277
20
9.59892077296985
30
0
41
1
10
-0.394976888875277
20
9.73773602301958
30
0
41
1
10
-0.394976888875277
20
9.85736937045593
30
0
41
1
10
-0.394976888875277
20
9.92517902838179
30
0
41
1
10
-0.394976888875277
20
9.99261145812801
30
0
41
1
10
-0.394976888875277
20
10.0761265678462
30
0
41
1
10
-0.394976888875277
20
10.2083399899529
30
0
41
1
10
-0.394976888875277
20
10.338096057249
30
0
41
1
10
-0.394976888875277
20
10.4657231753345
30
0
41
1
10
-0.394976888875277
20
10.5602461538978
30
0
41
1
10
-0.394976888875277
20
10.6536100894112
30
0
41
1
10
-0.394976888875277
20
10.7458098983122
30
0
41
1
10
-0.394976888875277
20
10.8368404586376
30
0
41
1
10
-0.394976888875277
20
10.9266969919675
30
0
41
1
10
-0.394976888875277
20
11.0153746961414
30
0
41
1
10
-0.394976888875277
20
11.1028676417001
30
0
41
1
10
-0.394976888875277
20
11.1891707748317
30
0
41
1
10
-0.394976888875277
20
11.3026972665534
30
0
41
1
10
-0.394976888875277
20
11.413674138825
30
0
41
1
10
-0.394976888875277
20
11.5223699808134
30
0
41
1
10
-0.394976888875277
20
11.6026363770329
30
0
41
1
10
-0.394976888875277
20
11.6684804460587
30
0
41
1
10
-0.394976888875277
20
11.7205808983271
30
0
41
1
10
-0.394976888875277
20
11.7722691819395
30
0
41
1
10
-0.394976888875277
20
11.836053984022
30
0
41
1
10
-0.394976888875277
20
11.9113764724791
30
0
41
1
10
-0.394976888875277
20
11.9854459723214
30
0
41
1
10
-0.394976888875277
20
12.0582544232072
30
0
41
1
10
-0.394976888875277
20
12.1297946270485
30
0
41
1
10
-0.394976888875277
20
12.2235215963167
30
0
41
1
10
-0.394976888875277
20
12.3373769247913
30
0
41
1
10
-0.394976888875277
20
12.446899173783
30
0
41
1
10
-0.394976888875277
20
12.5319491682166
30
0
41
1
10
-0.394976888875277
20
12.6152283642396
30
0
41
1
10
-0.394976888875277
20
12.6957215996061
30
0
41
1
10
-0.394976888875277
20
12.773610902979
30
0
41
1
10
-0.394976888875277
20
12.8306328883531
30
0
41
1
10
-0.394976888875277
20
12.8862769625636
30
0
41
1
10
-0.394976888875277
20
12.940532100831
30
0
41
1
10
-0.394976888875277
20
12.9933861205259
30
0
41
1
10
-0.394976888875277
20
13.0448282543027
30
0
41
1
10
-0.394976888875277
20
13.0948461430692
30
0
41
1
10
-0.394976888875277
20
13.1596507828291
30
0
41
1
10
-0.394976888875277
20
13.221467049789
30
0
41
1
10
-0.394976888875277
20
13.2804176772461
30
0
41
1
10
-0.394976888875277
20
13.3231185723383
30
0
41
1
10
-0.394976888875277
20
13.3643136307331
30
0
41
1
10
-0.394976888875277
20
13.4039879870964
30
0
41
1
10
-0.394976888875277
20
13.4421262291561
30
0
41
1
10
-0.394976888875277
20
13.490931201485
30
0
41
1
10
-0.394976888875277
20
13.5365270011545
30
0
41
1
10
-0.394976888875277
20
13.5789822078612
30
0
41
1
10
-0.394976888875277
20
13.6091837809887
30
0
41
1
10
-0.394976888875277
20
13.6377421279937
30
0
41
1
10
-0.394976888875277
20
13.6736219491958
30
0
41
1
10
-0.394976888875277
20
13.706079968468
30
0
41
1
10
-0.394976888875277
20
13.7351343539634
30
0
41
1
10
-0.394976888875277
20
13.7551609910392
30
0
41
1
10
-0.394976888875277
20
13.7734119916164
30
0
41
1
10
-0.394976888875277
20
13.7898613788954
30
0
41
1
10
-0.394976888875277
20
13.8044829828858
30
0
41
1
10
-0.394976888875277
20
13.8172491473121
30
0
41
1
10
-0.394976888875277
20
13.8281307581185
30
0
41
1
10
-0.394976888875277
20
13.8370980881852
30
0
41
1
10
-0.394976888875277
20
13.8421014019358
30
0
41
1
10
-0.394976888875277
20
13.8443373794894
30
0
41
1
10
-0.394976888875277
20
13.8446019297682
30
0
0
SPLINE
5
1D0
100
AcDbEntity
8
SK1
62
256
6
ByLayer
370
18
48
1
60
0
100
AcDbSpline
70
4
71
3
72
22
73
18
40
0
40
0
40
0
40
0
40
0.0408146055975421
40
0.0408146055975421
40
0.0823243808208714
40
0.0823243808208714
40
0.113722137960843
40
0.113722137960843
40
0.144934004837801
40
0.144934004837801
40
0.197663645148653
40
0.197663645148653
40
0.33040493622216
40
0.33040493622216
40
0.796191409884692
40
0.796191409884692
40
1
40
1
40
1
40
1
41
1
10
-0.394976888875306
20
5.00092508226666
30
0
41
1
10
-0.415530107853925
20
5.01747813555136
30
0
41
1
10
-0.438024560131566
20
5.03261131985604
30
0
41
1
10
-0.487324802537927
20
5.05682200266617
30
0
41
1
10
-0.514951385379703
20
5.065973715838
30
0
41
1
10
-0.565001076851473
20
5.07238571210249
30
0
41
1
10
-0.587551462055302
20
5.07198375916977
30
0
41
1
10
-0.630654498772856
20
5.06497384681828
30
0
41
1
10
-0.651690830573216
20
5.05839846240309
30
0
41
1
10
-0.704063404944179
20
5.0354696203506
30
0
41
1
10
-0.733646054998758
20
5.01537181535585
30
0
41
1
10
-0.825717517678271
20
4.93804001611764
30
0
41
1
10
-0.875568215521128
20
4.86927174197922
30
0
41
1
10
-1.06893868726922
20
4.55513362670803
30
0
41
1
10
-1.15213866111816
20
4.27852588598478
30
0
41
1
10
-1.25478905452405
20
3.87761185644086
30
0
41
1
10
-1.28234760083203
20
3.75339907142145
30
0
41
1
10
-1.30710678118763
20
3.62781610099955
30
0
0
SPLINE
5
1D1
100
AcDbEntity
8
SK1
62
256
6
ByLayer
370
18
48
1
60
0
100
AcDbSpline
70
4
71
3
72
24
73
20
40
0
40
0
40
0
40
0
40
0.408002420194574
40
0.408002420194574
40
0.586477084363329
40
0.586477084363329
40
0.763728221544513
40
0.763728221544513
40
0.83464833042642
40
0.83464833042642
40
0.871680147904128
40
0.871680147904128
40
0.909315863704638
40
0.909315863704638
40
0.941446160303591
40
0.941446160303591
40
0.988233002766673
40
0.988233002766673
40
1
40
1
40
1
40
1
41
1
10
-1.30710678118655
20
-3.62781725664615
30
0
41
1
10
-1.25754709276271
20
-3.87919081380429
30
0
41
1
10
-1.19771793926938
20
-4.12580048883993
30
0
41
1
10
-1.07980138365164
20
-4.46640123366592
30
0
41
1
10
-1.03947389583291
20
-4.56855181342542
30
0
41
1
10
-0.943165684412492
20
-4.76452984977917
30
0
41
1
10
-0.887972849225292
20
-4.86076144162979
30
0
41
1
10
-0.781589632759733
20
-4.97623115222154
30
0
41
1
10
-0.746942513659576
20
-5.00751721259149
30
0
41
1
10
-0.685298347589708
20
-5.04425501792002
30
0
41
1
10
-0.662073057062713
20
-5.05499571071985
30
0
41
1
10
-0.612858105189787
20
-5.06918922724967
30
0
41
1
10
-0.586087478285805
20
-5.07253385323432
30
0
41
1
10
-0.537899014579097
20
-5.06994558199364
30
0
41
1
10
-0.515734678473706
20
-5.06532466911642
30
0
41
1
10
-0.465255653618982
20
-5.04798484569733
30
0
41
1
10
-0.437776087568892
20
-5.03248974169182
30
0
41
1
10
-0.406986543980821
20
-5.01034621255963
30
0
41
1
10
-0.400907252385935
20
-5.00570060770795
30
0
41
1
10
-0.394976888875277
20
-5.00092441402839
30
0
0
SPLINE
5
1D2
100
AcDbEntity
8
1
62
256
6
ByLayer
370
18
48
1
60
0
100
AcDbSpline
70
4
71
3
72
8
73
4
40
0
40
0
40
0
40
0
40
1
40
1
40
1
40
1
41
1
10
30.7464352578791
20
-16.825764181508
30
0
41
1
10
31.0672745448228
20
-17.0495214114731
30
0
41
1
10
31.4135825146184
20
-17.22503040475
30
0
41
1
10
31.782734177876
20
-17.3563994500208
30
0
0
SPLINE
5
1D3
100
AcDbEntity
8
1
62
256
6
ByLayer
370
18
48
1
60
0
100
AcDbSpline
70
4
71
3
72
10
73
6
40
0
40
0
40
0
40
0
40
0.325288492889665
40
0.325288492889665
40
1
40
1
40
1
40
1
41
1
10
19.3468138322665
20
-9.95728917585839
30
0
41
1
10
19.3054950613195
20
-10.0577885607453
30
0
41
1
10
19.2704523564345
20
-10.1578944726693
30
0
41
1
10
19.182680003346
20
-10.4653714731731
30
0
41
1
10
19.1503950591251
20
-10.6752767677378
30
0
41
1
10
19.1494245078072
20
-10.8872430697893
30
0
0
SPLINE
5
1D4
100
AcDbEntity
8
1
62
256
6
ByLayer
370
18
48
1
60
0
100
AcDbSpline
70
4
71
3
72
12
73
8
40
0
40
0
40
0
40
0
40
0.500000000000001
40
0.500000000000001
40
0.750000000000001
40
0.750000000000001
40
1
40
1
40
1
40
1
41
1
10
29.576619485375
20
-5.08202411551312
30
0
41
1
10
29.4267291150858
20
-5.09655142660094
30
0
41
1
10
29.2790965126614
20
-5.1131780586617
30
0
41
1
10
29.0609355994138
20
-5.14172198948103
30
0
41
1
10
28.9887763517999
20
-5.15175664990301
30
0
41
1
10
28.8456219341666
20
-5.17430953121715
30
0
41
1
10
28.7552690428627
20
-5.15373364079875
30
0
41
1
10
28.7073435166589
20
-5.22190829504734
30
0
0
SPLINE
5
1D5
100
AcDbEntity
8
1
62
256
6
ByLayer
370
18
48
1
60
0
100
AcDbSpline
70
4
71
3
72
18
73
14
40
0
40
0
40
0
40
0
40
0.148865436690718
40
0.148865436690718
40
0.336868556410365
40
0.336868556410365
40
0.519491108027854
40
0.519491108027854
40
0.711563055534802
40
0.711563055534802
40
0.930180979444755
40
0.930180979444755
40
1
40
1
40
1
40
1
41
1
10
43.0010559127209
20
-14.4915174065698
30
0
41
1
10
42.9982824235237
20
-14.4968340223501
30
0
41
1
10
42.99714402444
20
-14.5046033484643
30
0
41
1
10
42.9986551909757
20
-14.5271562303309
30
0
41
1
10
43.0024427632481
20
-14.5436143349694
30
0
41
1
10
43.0150522355972
20
-14.5808883978966
30
0
41
1
10
43.0238703457606
20
-14.6020174978039
30
0
41
1
10
43.0455359285937
20
-14.6474325535216
30
0
41
1
10
43.0588050304004
20
-14.6723508574119
30
0
41
1
10
43.08945646786
20
-14.7254584345553
30
0
41
1
10
43.1074970482606
20
-14.7542443112262
30
0
41
1
10
43.1319532408585
20
-14.7907808047588
30
0
41
1
10
43.13796711064
20
-14.7995794902368
30
0
41
1
10
43.1440231374735
20
-14.8082648758234
30
0
0
SPLINE
5
1D6
100
AcDbEntity
8
1
62
256
6
ByLayer
370
18
48
1
60
0
100
AcDbSpline
70
4
71
3
72
11
73
7
40
0
40
0
40
0
40
0
40
0.379738014043162
40
0.569607021064743
40
0.759476028086324
40
1
40
1
40
1
40
1
41
1.02830968163241
10
30.0923721028197
20
-19.0737232984306
30
0
41
1.02566133279165
10
32.5158837944973
20
-19.9234247559873
30
0
41
1.02050308371814
10
35.8071647460293
20
-20.7371699049775
30
0
41
1.01332460673153
10
41.3432448659369
20
-21.3825438650667
30
0
41
1.0120630214142
10
42.999738582361
20
-22.4490547111386
30
0
41
1.00944729087556
10
44.7934125201106
20
-22.8784406436981
30
0
41
1.00885690313847
10
45.5221689006619
20
-23.1320702134677
30
0
0
SPLINE
5
1D7
100
AcDbEntity
8
1
62
256
6
ByLayer
370
18
48
1
60
0
100
AcDbSpline
70
4
71
3
72
8
73
4
40
0
40
0
40
0
40
0
40
1
40
1
40
1
40
1
41
1
10
26.4121526719365
20
-11.9226607844276
30
0
41
1
10
26.6464963011733
20
-12.0894332270774
30
0
41
1
10
26.8667210554749
20
-12.288366148175
30
0
41
1
10
27.0542440174718
20
-12.5129344611395
30
0
0
SPLINE
5
1D8
100
AcDbEntity
8
1
62
256
6
ByLayer
370
18
48
1
60
0
100
AcDbSpline
70
4
71
3
72
8
73
4
40
0
40
0
40
0
40
0
40
1
40
1
40
1
40
1
41
1
10
36.3707837426998
20
-10.8298421554952
30
0
41
1
10
36.9554258414553
20
-9.85703652551837
30
0
41
1
10
37.3652299838824
20
-9.02329610258229
30
0
41
1
10
37.4937702758855
20
-8.54514278280348
30
0
0
SPLINE
5
1D9
100
AcDbEntity
8
1
62
256
6
ByLayer
370
18
48
1
60
0
100
AcDbSpline
70
4
71
3
72
18
73
14
40
0
40
0
40
0
40
0
40
0.0384430513828932
40
0.0384430513828932
40
0.294505767099372
40
0.294505767099372
40
0.507931675708718
40
0.507931675708718
40
0.723079147095957
40
0.723079147095957
40
0.912685296049715
40
0.912685296049715
40
1
40
1
40
1
40
1
41
1
10
38.0196110666804
20
-22.0978044764537
30
0
41
1
10
38.0139511610178
20
-22.0963172436305
30
0
41
1
10
38.0082681222289
20
-22.0948488451541
30
0
41
1
10
37.964942659691
20
-22.0838478151014
30
0
41
1
10
37.9259814929982
20
-22.0750861662056
30
0
41
1
10
37.8577304690775
20
-22.0621780904425
30
0
41
1
10
37.8271663956178
20
-22.0573805163864
30
0
41
1
10
37.7723843139573
20
-22.0511419072027
30
0
41
1
10
37.7474290892419
20
-22.0496578884687
30
0
41
1
10
37.7107496450107
20
-22.0505535374703
30
0
41
1
10
37.6973226079886
20
-22.0525106022432
30
0
41
1
10
37.684744684833
20
-22.0573198669325
30
0
41
1
10
37.681727304893
20
-22.0591419242418
30
0
41
1
10
37.6796998168835
20
-22.0612123205926
30
0
0
SPLINE
5
1DA
100
AcDbEntity
8
1
62
256
6
ByLayer
370
18
48
1
60
0
100
AcDbSpline
70
4
71
3
72
16
73
12
40
0
40
0
40
0
40
0
40
0.125
40
0.125
40
0.25
40
0.25
40
0.5
40
0.5
40
0.75
40
0.75
40
1
40
1
40
1
40
1
41
1
10
38.2398530533313
20
-8.09253856992805
30
0
41
1
10
38.364304978782
20
-8.51249609479657
30
0
41
1
10
38.5457735776664
20
-8.99147586138594
30
0
41
1
10
39.0558816317774
20
-10.0676293903259
30
0
41
1
10
39.3742884924636
20
-10.6446403812845
30
0
41
1
10
40.4206847468509
20
-12.3722134138046
30
0
41
1
10
41.2084823343938
20
-13.4789835878473
30
0
41
1
10
42.7481927372167
20
-15.5091515944226
30
0
41
1
10
43.5180248016126
20
-16.489615898517
30
0
41
1
10
45.0576843689369
20
-18.4437192260536
30
0
41
1
10
45.8242830297851
20
-19.324144814511
30
0
41
1
10
46.5651559078918
20
-20.1260753647513
30
0
0
SPLINE
5
1DB
100
AcDbEntity
8
1
62
256
6
ByLayer
370
18
48
1
60
0
100
AcDbSpline
70
4
71
3
72
8
73
4
40
0
40
0
40
0
40
0
40
1
40
1
40
1
40
1
41
1
10
29.6694948794468
20
-3.08839773805516
30
0
41
1
10
29.8207923609893
20
-3.6093014109029
30
0
41
1
10
29.6836695384277
20
-4.2510270154001
30
0
41
1
10
29.576619485385
20
-5.08202411551207
30
0
0
SPLINE
5
1DC
100
AcDbEntity
8
1
62
256
6
ByLayer
370
18
48
1
60
0
100
AcDbSpline
70
4
71
3
72
11
73
7
40
0
40
0
40
0
40
0
40
0.379738014043156
40
0.569607021064735
40
0.759476028086313
40
1
40
1
40
1
40
1
41
1.02830968163241
10
37.4937702758855
20
-8.5451427828035
30
0
41
1.02566133279165
10
39.1109137692384
20
-10.5419129836651
30
0
41
1.02050308371814
10
40.9857501084806
20
-13.3705681263677
30
0
41
1.01332460673153
10
43.4914956215447
20
-18.3266305741885
30
0
41
1.0120630214142
10
45.1000865343241
20
-19.4612837513907
30
0
41
1.00944729087556
10
46.1423401212407
20
-20.9595744340746
30
0
41
1.00885690313847
10
46.6481313773681
20
-21.5303746531994
30
0
0
SPLINE
5
1DD
100
AcDbEntity
8
1
62
256
6
ByLayer
370
18
48
1
60
0
100
AcDbSpline
70
4
71
3
72
10
73
6
40
0
40
0
40
0
40
0
40
0.494168352806882
40
0.494168352806882
40
1
40
1
40
1
40
1
41
1
10
20.0026080966546
20
-12.6105758580135
30
0
41
1
10
19.9254858217935
20
-12.5398392391589
30
0
41
1
10
19.8484440694541
20
-12.4629691486543
30
0
41
1
10
19.7013015394481
20
-12.2993902660982
30
0
41
1
10
19.6304261897212
20
-12.2113369223626
30
0
41
1
10
19.5666985874551
20
-12.1211859833494
30
0
0
SPLINE
5
1DE
100
AcDbEntity
8
1
62
256
6
ByLayer
370
18
48
1
60
0
100
AcDbSpline
70
4
71
3
72
10
73
6
40
0
40
0
40
0
40
0
40
0.494168352806885
40
0.494168352806885
40
1
40
1
40
1
40
1
41
1
10
28.2257385814741
20
-0.913070957521484
30
0
41
1
10
28.1339613047362
20
-0.863181260236104
30
0
41
1
10
28.0361057668163
20
-0.815919037352614
30
0
41
1
10
27.8328108716774
20
-0.732217589251604
30
0
41
1
10
27.7258303619361
20
-0.695524282545932
30
0
41
1
10
27.6189818552896
20
-0.666713363763876
30
0
0
SPLINE
5
1DF
100
AcDbEntity
8
1
62
256
6
ByLayer
370
18
48
1
60
0
100
AcDbSpline
70
4
71
3
72
16
73
12
40
0
40
0
40
0
40
0
40
0.0076436986798978
40
0.0076436986798978
40
0.0409116539642741
40
0.0409116539642741
40
0.185161591066357
40
0.185161591066357
40
0.76103989734915
40
0.76103989734915
40
1
40
1
40
1
40
1
41
1
10
24.7807471848805
20
-2.19097545826972
30
0
41
1
10
24.7828024431645
20
-2.18805182792079
30
0
41
1
10
24.7848253376385
20
-2.18509333201524
30
0
41
1
10
24.7953325297533
20
-2.16931403253457
30
0
41
1
10
24.8030183179334
20
-2.15628124191656
30
0
41
1
10
24.8406794321548
20
-2.08971795929577
30
0
41
1
10
24.8660398824196
20
-2.03968092310629
30
0
41
1
10
25.0034662621382
20
-1.79362581869015
30
0
41
1
10
25.1290228641128
20
-1.6122736142928
30
0
41
1
10
25.3345980925405
20
-1.38026204854097
30
0
41
1
10
25.3984060690456
20
-1.31504127171581
30
0
41
1
10
25.4655683975653
20
-1.25328506883085
30
0
0
SPLINE
5
1E0
100
AcDbEntity
8
1
62
256
6
ByLayer
370
18
48
1
60
0
100
AcDbSpline
70
4
71
3
72
8
73
4
40
0
40
0
40
0
40
0
40
1
40
1
40
1
40
1
41
1
10
46.5651559078918
20
-20.1260753647513
30
0
41
1
10
46.5957739230828
20
-20.4158625979569
30
0
41
1
10
46.6255478072376
20
-20.7077202517251
30
0
41
1
10
46.6536710757144
20
-21.0001669371182
30
0
0
SPLINE
5
1E1
100
AcDbEntity
8
1
62
256
6
ByLayer
370
18
48
1
60
0
100
AcDbSpline
70
4
71
3
72
8
73
4
40
0
40
0
40
0
40
0
40
1
40
1
40
1
40
1
41
1
10
46.6481313823102
20
-21.5303746587768
30
0
41
1
10
46.6680124784278
20
-21.3582022087441
30
0
41
1
10
46.670748428796
20
-21.1777499697631
30
0
41
1
10
46.6536710757144
20
-21.0001669371182
30
0
0
SPLINE
5
1E2
100
AcDbEntity
8
1
62
256
6
ByLayer
370
18
48
1
60
0
100
AcDbSpline
70
4
71
3
72
11
73
7
40
0
40
0
40
0
40
0
40
0.268536746003808
40
0.487975722202665
40
0.707414698401523
40
1
40
1
40
1
40
1
41
1.0249090909279
10
35.3275142353353
20
-17.0508290990111
30
0
41
1.0229768070834
10
36.4474483654805
20
-17.7886400336497
30
0
41
1.0191099966158
10
38.4222154567949
20
-19.0411936731743
30
0
41
1.01332460673153
10
41.7678974288288
20
-20.8376340342155
30
0
41
1.01203732298747
10
43.4969711482424
20
-21.9033838809043
30
0
41
1.00929221524307
10
45.071619721588
20
-22.6799675957947
30
0
41
1.0087712828333
10
45.7876751719819
20
-22.9767431630133
30
0
0
SPLINE
5
1E3
100
AcDbEntity
8
1
62
256
6
ByLayer
370
18
48
1
60
0
100
AcDbSpline
70
4
71
3
72
8
73
4
40
0
40
0
40
0
40
0
40
1
40
1
40
1
40
1
41
1
10
24.0513905072207
20
-12.9417307281861
30
0
41
1
10
23.3262937329835
20
-13.2996594681779
30
0
41
1
10
22.7816147866434
20
-13.6166326874545
30
0
41
1
10
22.268096706381
20
-13.6169782536822
30
0
0
SPLINE
5
1E4
100
AcDbEntity
8
1
62
256
6
ByLayer
370
18
48
1
60
0
100
AcDbSpline
70
4
71
1
72
4
73
2
40
0
40
0
40
1
40
1
41
1
10
37.4937702758855
20
-8.54514278280348
30
0
41
1
10
37.7130137934912
20
-7.72958515375521
30
0
0
SPLINE
5
1E5
100
AcDbEntity
8
1
62
256
6
ByLayer
370
18
48
1
60
0
100
AcDbSpline
70
4
71
3
72
12
73
8
40
0
40
0
40
0
40
0
40
0.407174084711917
40
0.407174084711917
40
0.69951127243093
40
0.69951127243093
40
1
40
1
40
1
40
1
41
1
10
46.582876223221
20
-21.8221541005734
30
0
41
1
10
46.5952538353463
20
-21.7849184136718
30
0
41
1
10
46.6064911361728
20
-21.7459074266757
30
0
41
1
10
46.6231029637128
20
-21.6777649242177
30
0
41
1
10
46.6292903295904
20
-21.6487372144543
30
0
41
1
10
46.6400376942264
20
-21.5898954559225
30
0
41
1
10
46.6445868182062
20
-21.5598583143503
30
0
41
1
10
46.6481313823102
20
-21.5303746587768
30
0
0
SPLINE
5
1E6
100
AcDbEntity
8
1
62
256
6
ByLayer
370
18
48
1
60
0
100
AcDbSpline
70
4
71
3
72
8
73
4
40
0
40
0
40
0
40
0
40
1
40
1
40
1
40
1
41
1
10
29.4016887276146
20
-7.67000874077465
30
0
41
1
10
29.6360323568514
20
-7.83678118342445
30
0
41
1
10
29.8966241547564
20
-7.97829148533327
30
0
41
1
10
30.1710160263852
20
-8.07928769908403
30
0
0
SPLINE
5
1E7
100
AcDbEntity
8
1
62
256
6
ByLayer
370
18
48
1
60
0
100
AcDbSpline
70
4
71
1
72
4
73
2
40
0
40
0
40
1
40
1
41
1
10
29.45729499358
20
-19.473447335843
30
0
41
1
10
30.0923721028197
20
-19.0737232984305
30
0
0
SPLINE
5
1E8
100
AcDbEntity
8
1
62
256
6
ByLayer
370
18
48
1
60
0
100
AcDbSpline
70
4
71
3
72
13
73
9
40
0
40
0
40
0
40
0
40
0.287856992129662
40
0.287856992129662
40
0.605626331970862
40
0.605626331970862
40
0.605626331970862
40
1
40
1
40
1
40
1
41
1
10
35.3275142786661
20
-17.0508291275574
30
0
41
1
10
35.0281350162192
20
-17.2338794067988
30
0
41
1
10
34.6962961507688
20
-17.3733672435502
30
0
41
1
10
33.9818019255606
20
-17.566253048934
30
0
41
1
10
33.5891230790799
20
-17.6124210576698
30
0
41
1
10
33.2009518258838
20
-17.607011270483
30
0
41
1
10
32.7214580152177
20
-17.6003287574124
30
0
41
1
10
32.2351589954751
20
-17.5143495048791
30
0
41
1
10
31.7827341801244
20
-17.3563994508209
30
0
0
SPLINE
5
1E9
100
AcDbEntity
8
1
62
256
6
ByLayer
370
18
48
1
60
0
100
AcDbSpline
70
4
71
3
72
8
73
4
40
0
40
0
40
0
40
0
40
1
40
1
40
1
40
1
41
1
10
45.0276707612288
20
-23.3131725110913
30
0
41
1
10
45.200270290408
20
-23.2695233231853
30
0
41
1
10
45.3682605717311
20
-23.2071153843378
30
0
41
1
10
45.5221689077826
20
-23.1320702159459
30
0
0
SPLINE
5
1EA
100
AcDbEntity
8
1
62
256
6
ByLayer
370
18
48
1
60
0
100
AcDbSpline
70
4
71
3
72
10
73
6
40
0
40
0
40
0
40
0
40
0.465995854460556
40
0.465995854460556
40
1
40
1
40
1
40
1
41
1
10
27.5763610715147
20
-13.5305070975561
30
0
41
1
10
27.532150808424
20
-13.3610114584576
30
0
41
1
10
27.4691718697093
20
-13.193079215633
30
0
41
1
10
27.2989112153388
20
-12.8493436476304
30
0
41
1
10
27.1854042332834
20
-12.6736851973703
30
0
41
1
10
27.0542440174718
20
-12.5129344611395
30
0
0
SPLINE
5
1EB
100
AcDbEntity
8
1
62
256
6
ByLayer
370
18
48
1
60
0
100
AcDbSpline
70
4
71
3
72
8
73
4
40
0
40
0
40
0
40
0
40
1
40
1
40
1
40
1
41
1
10
29.9841342534188
20
-19.8364007520152
30
0
41
1
10
29.8079192224589
20
-19.7149270117444
30
0
41
1
10
29.6320806209333
20
-19.5937625538356
30
0
41
1
10
29.45729499358
20
-19.473447335843
30
0
0
SPLINE
5
1EC
100
AcDbEntity
8
1
62
256
6
ByLayer
370
18
48
1
60
0
100
AcDbSpline
70
4
71
3
72
10
73
6
40
0
40
0
40
0
40
0
40
0.474805431212334
40
0.474805431212334
40
1
40
1
40
1
40
1
41
1
10
30.1710160263852
20
-8.07928769908403
30
0
41
1
10
30.3462189593723
20
-8.13919069477086
30
0
41
1
10
30.5277645712786
20
-8.18179647380825
30
0
41
1
10
30.9110515309256
20
-8.23146289768727
30
0
41
1
10
31.1154074243745
20
-8.23452065307595
30
0
41
1
10
31.3136831766228
20
-8.21412014249984
30
0
0
SPLINE
5
1ED
100
AcDbEntity
8
1
62
256
6
ByLayer
370
18
48
1
60
0
100
AcDbSpline
70
4
71
3
72
8
73
4
40
0
40
0
40
0
40
0
40
1
40
1
40
1
40
1
41
1
10
25.4655683975655
20
-1.25328506883082
30
0
41
1
10
25.720260850572
20
-1.01909368285868
30
0
41
1
10
25.9933092304283
20
-0.838715105233746
30
0
41
1
10
26.2972797027613
20
-0.719330578878896
30
0
0
SPLINE
5
1EE
100
AcDbEntity
8
1
62
256
6
ByLayer
370
18
48
1
60
0
100
AcDbSpline
70
4
71
1
72
4
73
2
40
0
40
0
40
1
40
1
41
1
10
46.5925502638952
20
-21.8317983820298
30
0
41
1
10
45.7876751719819
20
-22.9767431630133
30
0
0
SPLINE
5
1EF
100
AcDbEntity
8
1
62
256
6
ByLayer
370
18
48
1
60
0
100
AcDbSpline
70
4
71
3
72
14
73
10
40
0
40
0
40
0
40
0
40
0.0151857536690271
40
0.0151857536690271
40
0.0655730315774938
40
0.0655730315774938
40
0.287642754348332
40
0.287642754348332
40
1
40
1
40
1
40
1
41
1
10
19.9744930645979
20
-9.02793143614261
30
0
41
1
10
19.9704128629754
20
-9.03373557345523
30
0
41
1
10
19.9661730270388
20
-9.03943887730262
30
0
41
1
10
19.9479041011484
20
-9.06292170429739
30
0
41
1
10
19.933699316829
20
-9.07879872000234
30
0
41
1
10
19.8599723168255
20
-9.16082956421366
30
0
41
1
10
19.8044118191446
20
-9.22189640086827
30
0
41
1
10
19.583873098241
20
-9.49206086778679
30
0
41
1
10
19.4459954392291
20
-9.71605038139774
30
0
41
1
10
19.3468138322665
20
-9.95728917585819
30
0
0
SPLINE
5
1F0
100
AcDbEntity
8
1
62
256
6
ByLayer
370
18
48
1
60
0
100
AcDbSpline
70
4
71
3
72
12
73
8
40
0
40
0
40
0
40
0
40
0.500000000000002
40
0.500000000000002
40
0.750000000000001
40
0.750000000000001
40
1
40
1
40
1
40
1
41
1
10
24.0513905072184
20
-12.941730728176
30
0
41
1
10
24.0162045576996
20
-12.7930895809075
30
0
41
1
10
23.9838814348648
20
-12.6456870509523
30
0
41
1
10
23.9400762182465
20
-12.4262078451429
30
0
41
1
10
23.9261838836562
20
-12.3533571005613
30
0
41
1
10
23.9011702045488
20
-12.2078533189771
30
0
41
1
10
23.8531638701707
20
-12.1270389271657
30
0
41
1
10
23.9010893963762
20
-12.0588642729186
30
0
0
SPLINE
5
1F1
100
AcDbEntity
8
1
62
256
6
ByLayer
370
18
48
1
60
0
100
AcDbSpline
70
4
71
3
72
8
73
4
40
0
40
0
40
0
40
0
40
1
40
1
40
1
40
1
41
1
10
30.0923721028197
20
-19.0737232984305
30
0
41
1
10
30.4647114905647
20
-18.8393690740509
30
0
41
1
10
31.0815642826998
20
-18.2126772997341
30
0
41
1
10
31.782734172745
20
-17.3563994598328
30
0
0
SPLINE
5
1F2
100
AcDbEntity
8
1
62
256
6
ByLayer
370
18
48
1
60
0
100
AcDbSpline
70
4
71
3
72
12
73
8
40
0
40
0
40
0
40
0
40
0.252749620142199
40
0.252749620142199
40
0.674711209428767
40
0.674711209428767
40
1
40
1
40
1
40
1
41
1
10
19.1494245077996
20
-10.8872430697678
30
0
41
1
10
19.1489954193331
20
-10.9809550597941
30
0
41
1
10
19.1559928669582
20
-11.0789690330906
30
0
41
1
10
19.1974906117317
20
-11.3470061422439
30
0
41
1
10
19.2483862490654
20
-11.5249043150923
30
0
41
1
10
19.3868005070075
20
-11.8372680094717
30
0
41
1
10
19.4648439567253
20
-11.9753045255049
30
0
41
1
10
19.5562048734747
20
-12.1062441875562
30
0
0
SPLINE
5
1F3
100
AcDbEntity
8
1
62
256
6
ByLayer
370
18
48
1
60
0
100
AcDbSpline
70
4
71
3
72
8
73
4
40
0
40
0
40
0
40
0
40
1
40
1
40
1
40
1
41
1
10
38.2398530533228
20
-8.09253856992217
30
0
41
1
10
38.0636380223652
20
-7.9710648296531
30
0
41
1
10
37.8877994208421
20
-7.84990037174609
30
0
41
1
10
37.7130137934912
20
-7.72958515375521
30
0
0
SPLINE
5
1F4
100
AcDbEntity
8
1
62
256
6
ByLayer
370
18
48
1
60
0
100
AcDbSpline
70
4
71
3
72
8
73
4
40
0
40
0
40
0
40
0
40
1
40
1
40
1
40
1
41
1
10
33.851134463134
20
-8.87524911200717
30
0
41
1
10
33.1061326824252
20
-8.3556757880593
30
0
41
1
10
32.1944532479296
20
-8.12349807222117
30
0
41
1
10
31.3136831766229
20
-8.21412014249987
30
0
0
SPLINE
5
1F5
100
AcDbEntity
8
1
62
256
6
ByLayer
370
18
48
1
60
0
100
AcDbSpline
70
4
71
3
72
12
73
8
40
0
40
0
40
0
40
0
40
0.252749620142202
40
0.252749620142202
40
0.674711209428766
40
0.674711209428766
40
1
40
1
40
1
40
1
41
1
10
26.2972797027392
20
-0.719330578877987
30
0
41
1
10
26.3876905053174
20
-0.683821699477903
30
0
41
1
10
26.4845419177535
20
-0.654017295619184
30
0
41
1
10
26.7563698242237
20
-0.594406898734235
30
0
41
1
10
26.9440736772813
20
-0.577693691304376
30
0
41
1
10
27.2888948439956
20
-0.596441003052519
30
0
41
1
10
27.4465145265404
20
-0.621279342895349
30
0
41
1
10
27.6012960441466
20
-0.662002415208349
30
0
0
SPLINE
5
1F6
100
AcDbEntity
8
1
62
256
6
ByLayer
370
18
48
1
60
0
100
AcDbSpline
70
4
71
3
72
8
73
4
40
0
40
0
40
0
40
0
40
1
40
1
40
1
40
1
41
1
10
44.1779703676958
20
-23.5218763442365
30
0
41
1
10
44.4597107162083
20
-23.4544389499037
30
0
41
1
10
44.7434309920499
20
-23.3850547181531
30
0
41
1
10
45.0276707612288
20
-23.3131725110912
30
0
0
SPLINE
5
1F7
100
AcDbEntity
8
1
62
256
6
ByLayer
370
18
48
1
60
0
100
AcDbSpline
70
4
71
3
72
8
73
4
40
0
40
0
40
0
40
0
40
1
40
1
40
1
40
1
41
1
10
27.5763610715147
20
-13.530507097556
30
0
41
1
10
27.7998255168233
20
-14.3872368775995
30
0
41
1
10
28.3193741100629
20
-15.1331021494846
30
0
41
1
10
29.0793749896477
20
-15.6631360278379
30
0
0
SPLINE
5
1F8
100
AcDbEntity
8
1
62
256
6
ByLayer
370
18
48
1
60
0
100
AcDbSpline
70
4
71
3
72
10
73
6
40
0
40
0
40
0
40
0
40
0.704506512922702
40
0.704506512922702
40
1
40
1
40
1
40
1
41
1
10
37.7783788368897
20
-20.2966710888884
30
0
41
1
10
37.7457459213019
20
-20.3004017821362
30
0
41
1
10
37.711954564969
20
-20.3023480862428
30
0
41
1
10
37.6662712993254
20
-20.3025889225141
30
0
41
1
10
37.6529037687568
20
-20.3023559248737
30
0
41
1
10
37.6399157393412
20
-20.3018463309161
30
0
0
SPLINE
5
1F9
100
AcDbEntity
8
1
62
256
6
ByLayer
370
18
48
1
60
0
100
AcDbSpline
70
4
71
3
72
12
73
8
40
0
40
0
40
0
40
0
40
0.418782075282757
40
0.418782075282757
40
0.706182120811174
40
0.706182120811174
40
1
40
1
40
1
40
1
41
1
10
45.5221689077826
20
-23.1320702159459
30
0
41
1
10
45.5587721956733
20
-23.1139631026854
30
0
41
1
10
45.595909659424
20
-23.0934195813814
30
0
41
1
10
45.656592079025
20
-23.0562536051155
30
0
41
1
10
45.6809923947275
20
-23.0402759553249
30
0
41
1
10
45.7288371591085
20
-23.006877440317
30
0
41
1
10
45.7523832666214
20
-22.9893379029677
30
0
41
1
10
45.7749377567886
20
-22.9714565697287
30
0
0
SPLINE
5
1FA
100
AcDbEntity
8
1
62
256
6
ByLayer
370
18
48
1
60
0
100
AcDbSpline
70
4
71
3
72
16
73
12
40
0
40
0
40
0
40
0
40
0.25
40
0.25
40
0.499999999999999
40
0.499999999999999
40
0.749999999999999
40
0.749999999999999
40
0.875
40
0.875
40
1
40
1
40
1
40
1
41
1
10
44.1779703676958
20
-23.5218763442365
30
0
41
1
10
43.1556765600684
20
-23.1309551264098
30
0
41
1
10
42.0749576133237
20
-22.7449017727504
30
0
41
1
10
39.6738507237181
20
-21.9927638003947
30
0
41
1
10
38.4631519533378
20
-21.6157700781541
30
0
41
1
10
35.989881542815
20
-20.8812939317039
30
0
41
1
10
34.6588442553187
20
-20.5218569715474
30
0
41
1
10
32.7044689668169
20
-20.1154995526796
30
0
41
1
10
32.0603506973088
20
-20.0033289580022
30
0
41
1
10
30.9049368719264
20
-19.8612857350786
30
0
41
1
10
30.4054931318767
20
-19.8332845324282
30
0
41
1
10
29.9841342534154
20
-19.8364007520124
30
0
0
SPLINE
5
1FB
100
AcDbEntity
8
1
62
256
6
ByLayer
370
18
48
1
60
0
100
AcDbSpline
70
4
71
3
72
8
73
4
40
0
40
0
40
0
40
0
40
1
40
1
40
1
40
1
41
1
10
35.5181947313653
20
-10.0378772656773
30
0
41
1
10
35.8390340182038
20
-10.261634495569
30
0
41
1
10
36.1221402537573
20
-10.5270487379002
30
0
41
1
10
36.3707837337935
20
-10.8298421652453
30
0
0
SPLINE
5
1FC
100
AcDbEntity
8
1
62
256
6
ByLayer
370
18
48
1
60
0
100
AcDbSpline
70
4
71
3
72
11
73
7
40
0
40
0
40
0
40
0
40
0.268536746558077
40
0.487975722590654
40
0.707414698623231
40
1
40
1
40
1
40
1
41
1.02490909094425
10
37.2835898685254
20
-14.268287278813
30
0
41
1.02297680709541
10
38.3664801560581
20
-15.058793545224
30
0
41
1.019109996622
10
40.2355043969392
20
-16.4617677039605
30
0
41
1.01332460673153
10
43.1158734902737
20
-18.9201214015741
30
0
41
1.01203732298747
10
44.7449372779179
20
-20.1281366141291
30
0
41
1.00929221524307
10
46.0490763458828
20
-21.2895234487812
30
0
41
1.0087712828333
10
46.5925502638952
20
-21.8317983820298
30
0
0
SPLINE
5
1FD
100
AcDbEntity
8
1
62
256
6
ByLayer
370
18
48
1
60
0
100
AcDbSpline
70
4
71
3
72
8
73
4
40
0
40
0
40
0
40
0
40
1
40
1
40
1
40
1
41
1
10
28.6235452688369
20
-1.16293474630078
30
0
41
1
10
28.4968847994891
20
-1.07209184001806
30
0
41
1
10
28.3644333979957
20
-0.988464809434049
30
0
41
1
10
28.2257385814741
20
-0.913070957521484
30
0
0
SPLINE
5
1FE
100
AcDbEntity
8
1
62
256
6
ByLayer
370
18
48
1
60
0
100
AcDbSpline
70
4
71
3
72
13
73
9
40
0
40
0
40
0
40
0
40
0.250661764437225
40
0.250661764437225
40
0.250661764437225
40
0.653096502165464
40
0.653096502165464
40
1
40
1
40
1
40
1
41
1
10
37.2835899195742
20
-14.2682873160786
30
0
41
1
10
37.2252742411854
20
-14.5536081774002
30
0
41
1
10
37.1362670194744
20
-14.83499771128
30
0
41
1
10
37.0197439447578
20
-15.1032553842971
30
0
41
1
10
36.8342853108864
20
-15.5302154665328
30
0
41
1
10
36.5737851856526
20
-15.9331153079469
30
0
41
1
10
35.9884080458388
20
-16.5776581814893
30
0
41
1
10
35.6711446898838
20
-16.8406577813136
30
0
41
1
10
35.3275142786661
20
-17.0508291275574
30
0
0
SPLINE
5
1FF
100
AcDbEntity
8
1
62
256
6
ByLayer
370
18
48
1
60
0
100
AcDbSpline
70
4
71
3
72
12
73
8
40
0
40
0
40
0
40
0
40
0.322961595764271
40
0.322961595764271
40
0.710971356423584
40
0.710971356423584
40
1
40
1
40
1
40
1
41
1
10
36.3707837355526
20
-10.8298421673876
30
0
41
1
10
36.6197356683955
20
-11.1348631932974
30
0
41
1
10
36.8297156214218
20
-11.4783398714379
30
0
41
1
10
37.1803660864623
20
-12.2714968909191
30
0
41
1
10
37.304395512489
20
-12.7408929577015
30
0
41
1
10
37.3723472094999
20
-13.5638360364694
30
0
41
1
10
37.3537935857034
20
-13.924580767261
30
0
41
1
10
37.2835899195742
20
-14.2682873160786
30
0
0
SPLINE
5
200
100
AcDbEntity
8
1
62
256
6
ByLayer
370
18
48
1
60
0
100
AcDbSpline
70
4
71
3
72
12
73
8
40
0
40
0
40
0
40
0
40
0.392678099449948
40
0.392678099449948
40
0.791279335966111
40
0.791279335966111
40
1
40
1
40
1
40
1
41
1
10
33.1121156264509
20
-11.9539448588638
30
0
41
1
10
33.0947047599496
20
-11.9454995063538
30
0
41
1
10
33.0768998218578
20
-11.9356193729985
30
0
41
1
10
33.0431581007947
20
-11.9138659275282
30
0
41
1
10
33.0268571998317
20
-11.9016851900902
30
0
41
1
10
33.0051344372263
20
-11.8829729637897
30
0
41
1
10
32.9980850313121
20
-11.8764036082018
30
0
41
1
10
32.9915758388449
20
-11.8698789415249
30
0
0
SPLINE
5
201
100
AcDbEntity
8
1
62
256
6
ByLayer
370
18
48
1
60
0
100
AcDbSpline
70
4
71
3
72
14
73
10
40
0
40
0
40
0
40
0
40
0.164525200330963
40
0.164525200330963
40
0.54080498492484
40
0.54080498492484
40
0.917041398719688
40
0.917041398719688
40
1
40
1
40
1
40
1
41
1
10
32.7976832798602
20
-13.9568214314868
30
0
41
1
10
32.8037121151588
20
-13.9520081508344
30
0
41
1
10
32.8100601388464
20
-13.947303042562
30
0
41
1
10
32.831771503086
20
-13.9324861848836
30
0
41
1
10
32.8486720895802
20
-13.9229755239033
30
0
41
1
10
32.8836193275266
20
-13.9073476842461
30
0
41
1
10
32.9020523100534
20
-13.9010477318206
30
0
41
1
10
32.9239700273144
20
-13.8954617968473
30
0
41
1
10
32.9279453349183
20
-13.8945242173708
30
0
41
1
10
32.9319013903138
20
-13.8936621366433
30
0
0
SPLINE
5
202
100
AcDbEntity
8
1
62
256
6
ByLayer
370
18
48
1
60
0
100
AcDbSpline
70
4
71
3
72
14
73
10
40
0
40
0
40
0
40
0
40
0.164525200330971
40
0.164525200330971
40
0.54080498492486
40
0.54080498492486
40
0.917041398719709
40
0.917041398719709
40
1
40
1
40
1
40
1
41
1
10
31.9576688873826
20
-11.7850317101128
30
0
41
1
10
31.9509768163822
20
-11.7891817550634
30
0
41
1
10
31.9440510950552
20
-11.7933091656963
30
0
41
1
10
31.9207912232285
20
-11.8065775157876
30
0
41
1
10
31.9033639949387
20
-11.8155615349724
30
0
41
1
10
31.8686926203836
20
-11.8314652380209
30
0
41
1
10
31.8510616355871
20
-11.8385671881767
30
0
41
1
10
31.8307332564461
20
-11.84574246127
30
0
41
1
10
31.8270713923741
20
-11.8469934842784
30
0
41
1
10
31.8234507769292
20
-11.8481910049564
30
0
0
SPLINE
5
203
100
AcDbEntity
8
1
62
256
6
ByLayer
370
18
48
1
60
0
100
AcDbSpline
70
4
71
3
72
14
73
10
40
0
40
0
40
0
40
0
40
0.0829586012802517
40
0.0829586012802517
40
0.459195015075153
40
0.459195015075153
40
0.835474799669118
40
0.835474799669118
40
1
40
1
40
1
40
1
41
1
10
33.5321228226904
20
-13.039839719552
30
0
41
1
10
33.5316308830106
20
-13.0357740527951
30
0
41
1
10
33.5312004464012
20
-13.0316690094035
30
0
41
1
10
33.5292004900503
20
-13.0089216829405
30
0
41
1
10
33.5289536984883
20
-12.9893515536099
30
0
41
1
10
33.5317834706045
20
-12.9512411288496
30
0
41
1
10
33.5349002551536
20
-12.932276831746
30
0
41
1
10
33.5412317264521
20
-12.9072024087576
30
0
41
1
10
33.5434169264281
20
-12.8997689007442
30
0
41
1
10
33.5458011455353
20
-12.8926145073677
30
0
0
SPLINE
5
204
100
AcDbEntity
8
1
62
256
6
ByLayer
370
18
48
1
60
0
100
AcDbSpline
70
4
71
3
72
14
73
10
40
0
40
0
40
0
40
0
40
0.0829586012803156
40
0.0829586012803156
40
0.459195015075147
40
0.459195015075147
40
0.835474799669023
40
0.835474799669023
40
1
40
1
40
1
40
1
41
1
10
31.2232293445526
20
-12.7020134220478
30
0
41
1
10
31.2233858442817
20
-12.705743648854
30
0
41
1
10
31.2235028373593
20
-12.7095352487138
30
0
41
1
10
31.2239134555903
20
-12.7306932370569
30
0
41
1
10
31.2233582494219
20
-12.7494613686571
30
0
41
1
10
31.2202526139144
20
-12.7872959300261
30
0
41
1
10
31.2176624711609
20
-12.8067868689253
30
0
41
1
10
31.2128795074495
20
-12.8334097995008
30
0
41
1
10
31.2112720051129
20
-12.8414210051536
30
0
41
1
10
31.2095510217075
20
-12.8492386342319
30
0
0
SPLINE
5
205
100
AcDbEntity
8
1
62
256
6
ByLayer
370
18
48
1
60
0
100
AcDbSpline
70
4
71
3
72
12
73
8
40
0
40
0
40
0
40
0
40
0.392678099452567
40
0.392678099452567
40
0.791279335968757
40
0.791279335968757
40
1
40
1
40
1
40
1
41
1
10
31.6432365407924
20
-13.7879082827363
30
0
41
1
10
31.6590727016753
20
-13.7947789296278
30
0
41
1
10
31.6757882327923
20
-13.8035696560083
30
0
41
1
10
31.7087666387289
20
-13.824559786352
30
0
41
1
10
31.7254174364355
20
-13.8370904205337
30
0
41
1
10
31.7486655202531
20
-13.8573279680465
30
0
41
1
10
31.7564216548174
20
-13.8646040522845
30
0
41
1
10
31.7637763283985
20
-13.8719742000753
30
0
0
LINE
5
72
100
AcDbEntity
8
1
62
256
6
ByLayer
370
18
48
1
60
0
100
AcDbLine
10
0.3
20
-20
30
0
11
20.920792
21
-20
31
0
39
0
210
0
220
0
230
1
0
LINE
5
74
100
AcDbEntity
8
1
62
256
6
ByLayer
370
18
48
1
60
0
100
AcDbLine
10
20.920792
20
20
30
0
11
0.3
21
20
31
0
39
0
210
0
220
0
230
1
0
LINE
5
75
100
AcDbEntity
8
1
62
256
6
ByLayer
370
18
48
1
60
0
100
AcDbLine
10
0.3
20
20
30
0
11
0
21
19.7
31
0
39
0
210
0
220
0
230
1
0
LINE
5
76
100
AcDbEntity
8
1
62
256
6
ByLayer
370
18
48
1
60
0
100
AcDbLine
10
0
20
-19.7
30
0
11
0.3
21
-20
31
0
39
0
210
0
220
0
230
1
0
LINE
5
77
100
AcDbEntity
8
1
62
256
6
ByLayer
370
18
48
1
60
0
100
AcDbLine
10
20.960985
20
20.15
30
0
11
20.920792
21
20
31
0
39
0
210
0
220
0
230
1
0
LINE
5
78
100
AcDbEntity
8
1
62
256
6
ByLayer
370
18
48
1
60
0
100
AcDbLine
10
21.804152
20
20.15
30
0
11
20.960985
21
20.15
31
0
39
0
210
0
220
0
230
1
0
LINE
5
79
100
AcDbEntity
8
1
62
256
6
ByLayer
370
18
48
1
60
0
100
AcDbLine
10
23.096871
20
-15.649602
30
0
11
16.823485
21
-12.301837
31
0
39
0
210
0
220
0
230
1
0
LINE
5
7A
100
AcDbEntity
8
1
62
256
6
ByLayer
370
18
48
1
60
0
100
AcDbLine
10
16.619051
20
-17.180055
30
0
11
21.025338
21
-19.531452
31
0
39
0
210
0
220
0
230
1
0
LINE
5
7B
100
AcDbEntity
8
1
62
256
6
ByLayer
370
18
48
1
60
0
100
AcDbLine
10
32.75799
20
-11.636293
30
0
11
32.991888
21
-11.870191
31
0
39
0
210
0
220
0
230
1
0
LINE
5
7C
100
AcDbEntity
8
1
62
256
6
ByLayer
370
18
48
1
60
0
100
AcDbLine
10
31.763433
20
-13.87163
30
0
11
31.529535
21
-13.637733
31
0
39
0
210
0
220
0
230
1
0
LINE
5
7D
100
AcDbEntity
8
1
62
256
6
ByLayer
370
18
48
1
60
0
100
AcDbLine
10
36.930707
20
-25.31077
30
0
11
37.474718
21
-25.85478
31
0
39
0
210
0
220
0
230
1
0
LINE
5
7E
100
AcDbEntity
8
1
62
256
6
ByLayer
370
18
48
1
60
0
100
AcDbLine
10
48.85478
20
-14.474718
30
0
11
48.31077
21
-13.930707
31
0
39
0
210
0
220
0
230
1
0
LINE
5
7F
100
AcDbEntity
8
1
62
256
6
ByLayer
370
18
48
1
60
0
100
AcDbLine
10
21.623992
20
-13.987231
30
0
11
22.208395
21
-14.416157
31
0
39
0
210
0
220
0
230
1
0
LINE
5
80
100
AcDbEntity
8
1
62
256
6
ByLayer
370
18
48
1
60
0
100
AcDbLine
10
20.108339
20
-12.704002
30
0
11
21.492595
21
-13.883263
31
0
39
0
210
0
220
0
230
1
0
LINE
5
81
100
AcDbEntity
8
1
62
256
6
ByLayer
370
18
48
1
60
0
100
AcDbLine
10
31.102505
20
-12.441098
30
0
11
31.082359
21
-12.420952
31
0
39
0
210
0
220
0
230
1
0
LINE
5
82
100
AcDbEntity
8
1
62
256
6
ByLayer
370
18
48
1
60
0
100
AcDbLine
10
25.069886
20
-1.707905
30
0
11
19.625543
21
-9.45255
31
0
39
0
210
0
220
0
230
1
0
LINE
5
83
100
AcDbEntity
8
1
62
256
6
ByLayer
370
18
48
1
60
0
100
AcDbLine
10
20.920792
20
-20
30
0
11
21.927543
21
-23.757244
31
0
39
0
210
0
220
0
230
1
0
LINE
5
84
100
AcDbEntity
8
1
62
256
6
ByLayer
370
18
48
1
60
0
100
AcDbLine
10
33.418934
20
-13.066842
30
0
11
33.652848
21
-13.300756
31
0
39
0
210
0
220
0
230
1
0
LINE
5
85
100
AcDbEntity
8
1
62
256
6
ByLayer
370
18
48
1
60
0
100
AcDbLine
10
29.206176
20
-15.35628
30
0
11
29.459136
21
-15.609241
31
0
39
0
210
0
220
0
230
1
0
LINE
5
86
100
AcDbEntity
8
1
62
256
6
ByLayer
370
18
48
1
60
0
100
AcDbLine
10
35.11599
20
-9.952386
30
0
11
34.86303
21
-9.699426
31
0
39
0
210
0
220
0
230
1
0
LINE
5
87
100
AcDbEntity
8
1
62
256
6
ByLayer
370
18
48
1
60
0
100
AcDbLine
10
26.657628
20
-12.113718
30
0
11
26.173101
21
-11.700944
31
0
39
0
210
0
220
0
230
1
0
LINE
5
88
100
AcDbEntity
8
1
62
256
6
ByLayer
370
18
48
1
60
0
100
AcDbLine
10
21.087372
20
-19.532625
30
0
11
21.41583
21
-19.428163
31
0
39
0
210
0
220
0
230
1
0
LINE
5
89
100
AcDbEntity
8
1
62
256
6
ByLayer
370
18
48
1
60
0
100
AcDbLine
10
23.228449
20
-16.031491
30
0
11
23.132379
21
-15.700482
31
0
39
0
210
0
220
0
230
1
0
LINE
5
8A
100
AcDbEntity
8
80
62
256
6
ByLayer
370
18
48
1
60
0
100
AcDbLine
10
0
20
0
30
0
11
-5
21
0
31
0
39
0
210
0
220
0
230
1
0
LINE
5
8B
100
AcDbEntity
8
4
62
256
6
ByLayer
370
18
48
0.05
60
0
100
AcDbLine
10
0
20
0
30
0
11
50
21
0
31
0
39
0
210
0
220
0
230
1
0
LINE
5
8D
100
AcDbEntity
8
81
62
256
6
ByLayer
370
18
48
1
60
0
100
AcDbLine
10
50
20
-27
30
0
11
60
21
-27
31
0
39
0
210
0
220
0
230
1
0
LINE
5
8E
100
AcDbEntity
8
SK4
62
256
6
ByLayer
370
18
48
0.05
60
0
100
AcDbLine
10
-29
20
0
30
0
11
50
21
0
31
0
39
0
210
0
220
0
230
1
0
LINE
5
90
100
AcDbEntity
8
1
62
256
6
ByLayer
370
18
48
1
60
0
100
AcDbLine
10
20.920792
20
-19.595386
30
0
11
20.920792
21
-20
31
0
39
0
210
0
220
0
230
1
0
LINE
5
91
100
AcDbEntity
8
1
62
256
6
ByLayer
370
18
48
1
60
0
100
AcDbLine
10
20.920792
20
20
30
0
11
20.920792
21
19.595386
31
0
39
0
210
0
220
0
230
1
0
LINE
5
92
100
AcDbEntity
8
1
62
256
6
ByLayer
370
18
48
1
60
0
100
AcDbLine
10
0.3
20
0
30
0
11
0.3
21
-20
31
0
39
0
210
0
220
0
230
1
0
LINE
5
93
100
AcDbEntity
8
1
62
256
6
ByLayer
370
18
48
1
60
0
100
AcDbLine
10
0.3
20
20
30
0
11
0.3
21
0
31
0
39
0
210
0
220
0
230
1
0
LINE
5
94
100
AcDbEntity
8
1
62
256
6
ByLayer
370
18
48
1
60
0
100
AcDbLine
10
0
20
0
30
0
11
0
21
-19.7
31
0
39
0
210
0
220
0
230
1
0
LINE
5
95
100
AcDbEntity
8
1
62
256
6
ByLayer
370
18
48
1
60
0
100
AcDbLine
10
0
20
19.7
30
0
11
0
21
0
31
0
39
0
210
0
220
0
230
1
0
LINE
5
96
100
AcDbEntity
8
1
62
256
6
ByLayer
370
18
48
1
60
0
100
AcDbLine
10
44.17797
20
-23.521876
30
0
11
43.648687
21
-23.5535
31
0
39
0
210
0
220
0
230
1
0
LINE
5
97
100
AcDbEntity
8
SK1
62
256
6
ByLayer
370
18
48
1
60
0
100
AcDbLine
10
-0.2
20
14.083485
30
0
11
-0.2
21
5.703176
31
0
39
0
210
0
220
0
230
1
0
LINE
5
99
100
AcDbEntity
8
SK1
62
256
6
ByLayer
370
18
48
1
60
0
100
AcDbLine
10
-0.2
20
-5.703176
30
0
11
-0.2
21
-14.083485
31
0
39
0
210
0
220
0
230
1
0
LINE
5
9A
100
AcDbEntity
8
1
62
256
6
ByLayer
370
18
48
1
60
0
100
AcDbLine
10
21.065143
20
-20.145452
30
0
11
21.065143
21
-19.537618
31
0
39
0
210
0
220
0
230
1
0
LINE
5
9B
100
AcDbEntity
8
1
62
256
6
ByLayer
370
18
48
1
60
0
100
AcDbLine
10
17.672263
20
-7.436305
30
0
11
17.18153
21
-8.134378
31
0
39
0
210
0
220
0
230
1
0
LINE
5
9C
100
AcDbEntity
8
1
62
256
6
ByLayer
370
18
48
1
60
0
100
AcDbLine
10
39.550612
20
-22.530121
30
0
11
40.324565
21
-22.73349
31
0
39
0
210
0
220
0
230
1
0
LINE
5
9D
100
AcDbEntity
8
1
62
256
6
ByLayer
370
18
48
1
60
0
100
AcDbLine
10
22.968199
20
-17.05186
30
0
11
22.945532
21
-17.035274
31
0
39
0
210
0
220
0
230
1
0
LINE
5
9E
100
AcDbEntity
8
1
62
256
6
ByLayer
370
18
48
1
60
0
100
AcDbLine
10
34.786221
20
-5.599008
30
0
11
40.522951
21
0.137723
31
0
39
0
210
0
220
0
230
1
0
LINE
5
9F
100
AcDbEntity
8
1
62
256
6
ByLayer
370
18
48
1
60
0
100
AcDbLine
10
31.816506
20
-3.500727
30
0
11
32.818291
21
-1.966499
31
0
39
0
210
0
220
0
230
1
0
LINE
5
A0
100
AcDbEntity
8
1
62
256
6
ByLayer
370
18
48
1
60
0
100
AcDbLine
10
20.960985
20
20.15
30
0
11
20.960985
21
19.748713
31
0
39
0
210
0
220
0
230
1
0
LINE
5
A1
100
AcDbEntity
8
1
62
256
6
ByLayer
370
18
48
1
60
0
100
AcDbLine
10
22.968199
20
-17.05186
30
0
11
23.912166
21
-15.60618
31
0
39
0
210
0
220
0
230
1
0
LINE
5
A2
100
AcDbEntity
8
1
62
256
6
ByLayer
370
18
48
1
60
0
100
AcDbLine
10
36.82976
20
-22.175396
30
0
11
37.088123
21
-25.323681
31
0
39
0
210
0
220
0
230
1
0
LINE
5
A3
100
AcDbEntity
8
1
62
256
6
ByLayer
370
18
48
1
60
0
100
AcDbLine
10
22.078325
20
-18.655853
30
0
11
22.078325
21
-24.082121
31
0
39
0
210
0
220
0
230
1
0
LINE
5
A4
100
AcDbEntity
8
1
62
256
6
ByLayer
370
18
48
1
60
0
100
AcDbLine
10
22.568147
20
-17.817082
30
0
11
24.422906
21
-15.962322
31
0
39
0
210
0
220
0
230
1
0
LINE
5
A5
100
AcDbEntity
8
1
62
256
6
ByLayer
370
18
48
1
60
0
100
AcDbLine
10
42.905775
20
-13.639589
30
0
11
48.325329
21
-14.108203
31
0
39
0
210
0
220
0
230
1
0
LINE
5
A6
100
AcDbEntity
8
1
62
256
6
ByLayer
370
18
48
1
60
0
100
AcDbLine
10
37.198754
20
-25.275502
30
0
11
36.946878
21
-22.20626
31
0
39
0
210
0
220
0
230
1
0
LINE
5
A7
100
AcDbEntity
8
1
62
256
6
ByLayer
370
18
48
1
60
0
100
AcDbLine
10
42.991022
20
-13.761891
30
0
11
43.716598
21
-13.82463
31
0
39
0
210
0
220
0
230
1
0
LINE
5
A8
100
AcDbEntity
8
1
62
256
6
ByLayer
370
18
48
1
60
0
100
AcDbLine
10
48.325329
20
-14.108203
30
0
11
48.282785
21
-14.206035
31
0
39
0
210
0
220
0
230
1
0
LINE
5
A9
100
AcDbEntity
8
1
62
256
6
ByLayer
370
18
48
1
60
0
100
AcDbLine
10
46.310054
20
-18.661803
30
0
11
45.94607
21
-18.796048
31
0
39
0
210
0
220
0
230
1
0
LINE
5
AA
100
AcDbEntity
8
1
62
256
6
ByLayer
370
18
48
1
60
0
100
AcDbLine
10
44.536598
20
-16.741853
30
0
11
43.855714
21
-15.708339
31
0
39
0
210
0
220
0
230
1
0
LINE
5
AB
100
AcDbEntity
8
1
62
256
6
ByLayer
370
18
48
1
60
0
100
AcDbLine
10
40.324584
20
-22.733494
30
0
11
39.116647
21
-22.449721
31
0
39
0
210
0
220
0
230
1
0
LINE
5
AC
100
AcDbEntity
8
1
62
256
6
ByLayer
370
18
48
1
60
0
100
AcDbLine
10
42.721742
20
-23.766221
30
0
11
42.742376
21
-23.353342
31
0
39
0
210
0
220
0
230
1
0
LINE
5
AD
100
AcDbEntity
8
1
62
256
6
ByLayer
370
18
48
1
60
0
100
AcDbLine
10
31.084858
20
-12.423586
30
0
11
31.096133
21
-12.434862
31
0
39
0
210
0
220
0
230
1
0
LINE
5
AE
100
AcDbEntity
8
1
62
256
6
ByLayer
370
18
48
1
60
0
100
AcDbLine
10
32.143762
20
-11.493313
30
0
11
32.141147
21
-11.493344
31
0
39
0
210
0
220
0
230
1
0
LINE
5
AF
100
AcDbEntity
8
1
62
256
6
ByLayer
370
18
48
1
60
0
100
AcDbLine
10
36.990756
20
-22.217656
30
0
11
37.249175
21
-25.366614
31
0
39
0
210
0
220
0
230
1
0
LINE
5
B0
100
AcDbEntity
8
1
62
256
6
ByLayer
370
18
48
1
60
0
100
AcDbLine
10
48.366614
20
-14.249175
30
0
11
43.024996
21
-13.810817
31
0
39
0
210
0
220
0
230
1
0
LINE
5
B1
100
AcDbEntity
8
1
62
256
6
ByLayer
370
18
48
1
60
0
100
AcDbLine
10
48.295106
20
-14.177666
30
0
11
48.366614
21
-14.249175
31
0
39
0
210
0
220
0
230
1
0
LINE
5
B2
100
AcDbEntity
8
1
62
256
6
ByLayer
370
18
48
1
60
0
100
AcDbLine
10
37.170407
20
-25.287847
30
0
11
37.249175
21
-25.366614
31
0
39
0
210
0
220
0
230
1
0
LINE
5
B3
100
AcDbEntity
8
1
62
256
6
ByLayer
370
18
48
1
60
0
100
AcDbLine
10
44.536587
20
-16.741836
30
0
11
44.08
21
-16.087011
31
0
39
0
210
0
220
0
230
1
0
LINE
5
B4
100
AcDbEntity
8
1
62
256
6
ByLayer
370
18
48
1
60
0
100
AcDbLine
10
46.565156
20
-20.126075
30
0
11
46.439267
21
-19.583866
31
0
39
0
210
0
220
0
230
1
0
LINE
5
B5
100
AcDbEntity
8
1
62
256
6
ByLayer
370
18
48
1
60
0
100
AcDbLine
10
37.088123
20
-25.323681
30
0
11
37.198754
21
-25.275502
31
0
39
0
210
0
220
0
230
1
0
LINE
5
B6
100
AcDbEntity
8
1
62
256
6
ByLayer
370
18
48
1
60
0
100
AcDbLine
10
6.923205
20
19.122283
30
0
11
9.076795
21
19.122283
31
0
39
0
210
0
220
0
230
1
0
LINE
5
B7
100
AcDbEntity
8
1
62
256
6
ByLayer
370
18
48
1
60
0
100
AcDbLine
10
9.336603
20
-13.295619
30
0
11
9.336603
21
-19.024574
31
0
39
0
210
0
220
0
230
1
0
LINE
5
B8
100
AcDbEntity
8
1
62
256
6
ByLayer
370
18
48
1
60
0
100
AcDbLine
10
47.796284
20
-7.661517
30
0
11
48.325329
21
-14.108203
31
0
39
0
210
0
220
0
230
1
0
LINE
5
B9
100
AcDbEntity
8
1
62
256
6
ByLayer
370
18
48
1
60
0
100
AcDbLine
10
17.080365
20
-18.47854
30
0
11
17.080365
21
-17.580297
31
0
39
0
210
0
220
0
230
1
0
LINE
5
BA
100
AcDbEntity
8
1
62
256
6
ByLayer
370
18
48
1
60
0
100
AcDbLine
10
32.818291
20
-1.966499
30
0
11
32.759499
21
-1.923476
31
0
39
0
210
0
220
0
230
1
0
LINE
5
BB
100
AcDbEntity
8
1
62
256
6
ByLayer
370
18
48
1
60
0
100
AcDbLine
10
6.663397
20
-13.295619
30
0
11
6.663397
21
-19.024574
31
0
39
0
210
0
220
0
230
1
0
LINE
5
BC
100
AcDbEntity
8
1
62
256
6
ByLayer
370
18
48
1
60
0
100
AcDbLine
10
9.076795
20
-13.329278
30
0
11
9.076795
21
-19.122283
31
0
39
0
210
0
220
0
230
1
0
LINE
5
BD
100
AcDbEntity
8
1
62
256
6
ByLayer
370
18
48
1
60
0
100
AcDbLine
10
21.065143
20
-5.170874
30
0
11
25.417674
21
0.777063
31
0
39
0
210
0
220
0
230
1
0
LINE
5
BE
100
AcDbEntity
8
1
62
256
6
ByLayer
370
18
48
1
60
0
100
AcDbLine
10
9.076795
20
5.85989
30
0
11
6.923205
21
5.85989
31
0
39
0
210
0
220
0
230
1
0
LINE
5
BF
100
AcDbEntity
8
1
62
256
6
ByLayer
370
18
48
1
60
0
100
AcDbLine
10
21.065143
20
-5.170874
30
0
11
21.065143
21
19.748987
31
0
39
0
210
0
220
0
230
1
0
LINE
5
C0
100
AcDbEntity
8
1
62
256
6
ByLayer
370
18
48
1
60
0
100
AcDbLine
10
6.923205
20
-5.85989
30
0
11
9.076795
21
-5.85989
31
0
39
0
210
0
220
0
230
1
0
LINE
5
C1
100
AcDbEntity
8
1
62
256
6
ByLayer
370
18
48
1
60
0
100
AcDbLine
10
17.080365
20
-9.625729
30
0
11
17.080365
21
18.47854
31
0
39
0
210
0
220
0
230
1
0
LINE
5
C2
100
AcDbEntity
8
1
62
256
6
ByLayer
370
18
48
1
60
0
100
AcDbLine
10
6.923205
20
19.122283
30
0
11
6.923205
21
5.85989
31
0
39
0
210
0
220
0
230
1
0
LINE
5
C3
100
AcDbEntity
8
1
62
256
6
ByLayer
370
18
48
1
60
0
100
AcDbLine
10
6.923205
20
-5.85989
30
0
11
6.923205
21
-10.945788
31
0
39
0
210
0
220
0
230
1
0
LINE
5
C4
100
AcDbEntity
8
1
62
256
6
ByLayer
370
18
48
1
60
0
100
AcDbLine
10
9.076795
20
19.122283
30
0
11
9.076795
21
5.85989
31
0
39
0
210
0
220
0
230
1
0
LINE
5
C5
100
AcDbEntity
8
1
62
256
6
ByLayer
370
18
48
1
60
0
100
AcDbLine
10
22.206445
20
19.748987
30
0
11
21.065143
21
19.748987
31
0
39
0
210
0
220
0
230
1
0
LINE
5
C6
100
AcDbEntity
8
1
62
256
6
ByLayer
370
18
48
1
60
0
100
AcDbLine
10
37.088123
20
-25.323681
30
0
11
22.080929
21
-24.092121
31
0
39
0
210
0
220
0
230
1
0
LINE
5
C7
100
AcDbEntity
8
1
62
256
6
ByLayer
370
18
48
1
60
0
100
AcDbLine
10
6.923205
20
-13.329278
30
0
11
6.923205
21
-19.122283
31
0
39
0
210
0
220
0
230
1
0
LINE
5
C8
100
AcDbEntity
8
1
62
256
6
ByLayer
370
18
48
1
60
0
100
AcDbLine
10
16.99419
20
-12.174961
30
0
11
17.080365
21
-9.625729
31
0
39
0
210
0
220
0
230
1
0
LINE
5
C9
100
AcDbEntity
8
1
62
256
6
ByLayer
370
18
48
1
60
0
100
AcDbLine
10
9.336603
20
-6.16973
30
0
11
9.336603
21
-11.191578
31
0
39
0
210
0
220
0
230
1
0
LINE
5
CA
100
AcDbEntity
8
1
62
256
6
ByLayer
370
18
48
1
60
0
100
AcDbLine
10
9.076795
20
-19.122283
30
0
11
6.923205
21
-19.122283
31
0
39
0
210
0
220
0
230
1
0
LINE
5
CB
100
AcDbEntity
8
1
62
256
6
ByLayer
370
18
48
1
60
0
100
AcDbLine
10
22.206445
20
19.748987
30
0
11
40.522951
21
0.137723
31
0
39
0
210
0
220
0
230
1
0
LINE
5
CC
100
AcDbEntity
8
1
62
256
6
ByLayer
370
18
48
1
60
0
100
AcDbLine
10
6.663397
20
19.024574
30
0
11
6.663397
21
6.16973
31
0
39
0
210
0
220
0
230
1
0
LINE
5
CD
100
AcDbEntity
8
1
62
256
6
ByLayer
370
18
48
1
60
0
100
AcDbLine
10
47.796284
20
-7.661517
30
0
11
40.522951
21
0.137723
31
0
39
0
210
0
220
0
230
1
0
LINE
5
CE
100
AcDbEntity
8
1
62
256
6
ByLayer
370
18
48
1
60
0
100
AcDbLine
10
9.336603
20
19.024574
30
0
11
9.336603
21
6.16973
31
0
39
0
210
0
220
0
230
1
0
LINE
5
CF
100
AcDbEntity
8
1
62
256
6
ByLayer
370
18
48
1
60
0
100
AcDbLine
10
6.663397
20
-6.16973
30
0
11
6.663397
21
-11.191578
31
0
39
0
210
0
220
0
230
1
0
LINE
5
D0
100
AcDbEntity
8
1
62
256
6
ByLayer
370
18
48
1
60
0
100
AcDbLine
10
9.076795
20
-5.85989
30
0
11
9.076795
21
-10.945788
31
0
39
0
210
0
220
0
230
1
0
LINE
5
D1
100
AcDbEntity
8
SK1
62
256
6
ByLayer
370
18
48
1
60
0
100
AcDbLine
10
-1.307107
20
3.627816
30
0
11
-1.307107
21
-3.627817
31
0
39
0
210
0
220
0
230
1
0
LINE
5
D2
100
AcDbEntity
8
1
62
256
6
ByLayer
370
18
48
1
60
0
100
AcDbLine
10
37.962883
20
-26.080323
30
0
11
49.137451
21
-26.99736
31
0
39
0
210
0
220
0
230
1
0
LINE
5
D3
100
AcDbEntity
8
1
62
256
6
ByLayer
370
18
48
1
60
0
100
AcDbLine
10
49.99736
20
-26.137451
30
0
11
49.080323
21
-14.962883
31
0
39
0
210
0
220
0
230
1
0
LINE
5
D4
100
AcDbEntity
8
1
62
256
6
ByLayer
370
18
48
1
60
0
100
AcDbLine
10
29.079375
20
-15.663136
30
0
11
30.746435
21
-16.825764
31
0
39
0
210
0
220
0
230
1
0
LINE
5
D5
100
AcDbEntity
8
1
62
256
6
ByLayer
370
18
48
1
60
0
100
AcDbLine
10
22.268097
20
-13.616978
30
0
11
30.092372
21
-19.073723
31
0
39
0
210
0
220
0
230
1
0
LINE
5
D6
100
AcDbEntity
8
1
62
256
6
ByLayer
370
18
48
1
60
0
100
AcDbLine
10
22.312598
20
-14.490648
30
0
11
29.457295
21
-19.473447
31
0
39
0
210
0
220
0
230
1
0
LINE
5
D7
100
AcDbEntity
8
1
62
256
6
ByLayer
370
18
48
1
60
0
100
AcDbLine
10
26.412153
20
-11.922661
30
0
11
25.948698
21
-11.527839
31
0
39
0
210
0
220
0
230
1
0
LINE
5
D8
100
AcDbEntity
8
1
62
256
6
ByLayer
370
18
48
1
60
0
100
AcDbLine
10
23.932929
20
-10.123384
30
0
11
26.922465
21
-5.870732
31
0
39
0
210
0
220
0
230
1
0
LINE
5
D9
100
AcDbEntity
8
1
62
256
6
ByLayer
370
18
48
1
60
0
100
AcDbLine
10
28.623545
20
-1.162935
30
0
11
29.950114
21
-2.293052
31
0
39
0
210
0
220
0
230
1
0
LINE
5
DA
100
AcDbEntity
8
1
62
256
6
ByLayer
370
18
48
1
60
0
100
AcDbLine
10
29.079375
20
-15.663136
30
0
11
28.656873
21
-15.303202
31
0
39
0
210
0
220
0
230
1
0
LINE
5
DB
100
AcDbEntity
8
1
62
256
6
ByLayer
370
18
48
1
60
0
100
AcDbLine
10
30.746435
20
-16.825764
30
0
11
30.316648
21
-16.459624
31
0
39
0
210
0
220
0
230
1
0
LINE
5
DC
100
AcDbEntity
8
1
62
256
6
ByLayer
370
18
48
1
60
0
100
AcDbLine
10
39.678121
20
-9.010694
30
0
11
43.223645
21
-14.095585
31
0
39
0
210
0
220
0
230
1
0
LINE
5
DD
100
AcDbEntity
8
1
62
256
6
ByLayer
370
18
48
1
60
0
100
AcDbLine
10
25.948698
20
-11.527839
30
0
11
23.932929
21
-10.123384
31
0
39
0
210
0
220
0
230
1
0
LINE
5
DE
100
AcDbEntity
8
1
62
256
6
ByLayer
370
18
48
1
60
0
100
AcDbLine
10
37.713014
20
-7.729585
30
0
11
30.568316
21
-2.746786
31
0
39
0
210
0
220
0
230
1
0
LINE
5
DF
100
AcDbEntity
8
1
62
256
6
ByLayer
370
18
48
1
60
0
100
AcDbLine
10
19.974493
20
-9.027931
30
0
11
21.237524
21
-10.10392
31
0
39
0
210
0
220
0
230
1
0
LINE
5
E0
100
AcDbEntity
8
1
62
256
6
ByLayer
370
18
48
1
60
0
100
AcDbLine
10
43.753106
20
-15.681795
30
0
11
43.144023
21
-14.808265
31
0
39
0
210
0
220
0
230
1
0
LINE
5
E1
100
AcDbEntity
8
1
62
256
6
ByLayer
370
18
48
1
60
0
100
AcDbLine
10
29.669495
20
-3.088398
30
0
11
37.49377
21
-8.545143
31
0
39
0
210
0
220
0
230
1
0
LINE
5
E2
100
AcDbEntity
8
1
62
256
6
ByLayer
370
18
48
1
60
0
100
AcDbLine
10
24.780747
20
-2.190975
30
0
11
19.974493
21
-9.027931
31
0
39
0
210
0
220
0
230
1
0
LINE
5
E3
100
AcDbEntity
8
1
62
256
6
ByLayer
370
18
48
1
60
0
100
AcDbLine
10
24.809448
20
-10.766712
30
0
11
23.901089
21
-12.058864
31
0
39
0
210
0
220
0
230
1
0
LINE
5
E4
100
AcDbEntity
8
1
62
256
6
ByLayer
370
18
48
1
60
0
100
AcDbLine
10
43.770789
20
-15.70036
30
0
11
43.753106
21
-15.681795
31
0
39
0
210
0
220
0
230
1
0
LINE
5
E5
100
AcDbEntity
8
1
62
256
6
ByLayer
370
18
48
1
60
0
100
AcDbLine
10
26.922465
20
-5.870732
30
0
11
27.798984
21
-6.51406
31
0
39
0
210
0
220
0
230
1
0
LINE
5
E6
100
AcDbEntity
8
1
62
256
6
ByLayer
370
18
48
1
60
0
100
AcDbLine
10
30.565602
20
-2.574992
30
0
11
32.454714
21
-3.973001
31
0
39
0
210
0
220
0
230
1
0
LINE
5
E7
100
AcDbEntity
8
1
62
256
6
ByLayer
370
18
48
1
60
0
100
AcDbLine
10
39.052056
20
-22.369096
30
0
11
39.076095
21
-22.37862
31
0
39
0
210
0
220
0
230
1
0
LINE
5
E8
100
AcDbEntity
8
1
62
256
6
ByLayer
370
18
48
1
60
0
100
AcDbLine
10
23.901089
20
-12.058864
30
0
11
21.237524
21
-10.10392
31
0
39
0
210
0
220
0
230
1
0
LINE
5
E9
100
AcDbEntity
8
1
62
256
6
ByLayer
370
18
48
1
60
0
100
AcDbLine
10
28.656873
20
-15.303202
30
0
11
30.316648
21
-16.459624
31
0
39
0
210
0
220
0
230
1
0
LINE
5
EA
100
AcDbEntity
8
1
62
256
6
ByLayer
370
18
48
1
60
0
100
AcDbLine
10
26.043778
20
-3.266964
30
0
11
21.237524
21
-10.10392
31
0
39
0
210
0
220
0
230
1
0
LINE
5
EB
100
AcDbEntity
8
1
62
256
6
ByLayer
370
18
48
1
60
0
100
AcDbLine
10
30.568316
20
-2.746786
30
0
11
29.950114
21
-2.293052
31
0
39
0
210
0
220
0
230
1
0
LINE
5
EC
100
AcDbEntity
8
1
62
256
6
ByLayer
370
18
48
1
60
0
100
AcDbLine
10
38.019611
20
-22.097804
30
0
11
39.052056
21
-22.369096
31
0
39
0
210
0
220
0
230
1
0
LINE
5
ED
100
AcDbEntity
8
1
62
256
6
ByLayer
370
18
48
1
60
0
100
AcDbLine
10
32.454714
20
-3.973001
30
0
11
39.678121
21
-9.010694
31
0
39
0
210
0
220
0
230
1
0
LINE
5
EE
100
AcDbEntity
8
1
62
256
6
ByLayer
370
18
48
1
60
0
100
AcDbLine
10
37.432353
20
-22.333769
30
0
11
31.422403
21
-20.754556
31
0
39
0
210
0
220
0
230
1
0
LINE
5
EF
100
AcDbEntity
8
1
62
256
6
ByLayer
370
18
48
1
60
0
100
AcDbLine
10
28.707344
20
-5.221908
30
0
11
27.798984
21
-6.51406
31
0
39
0
210
0
220
0
230
1
0
LINE
5
F0
100
AcDbEntity
8
1
62
256
6
ByLayer
370
18
48
1
60
0
100
AcDbLine
10
23.932929
20
-10.123384
30
0
11
24.809448
21
-10.766712
31
0
39
0
210
0
220
0
230
1
0
LINE
5
F1
100
AcDbEntity
8
1
62
256
6
ByLayer
370
18
48
1
60
0
100
AcDbLine
10
28.707344
20
-5.221908
30
0
11
26.043778
21
-3.266964
31
0
39
0
210
0
220
0
230
1
0
LINE
5
F2
100
AcDbEntity
8
1
62
256
6
ByLayer
370
18
48
1
60
0
100
AcDbLine
10
38.239853
20
-8.092539
30
0
11
39.678121
21
-9.010694
31
0
39
0
210
0
220
0
230
1
0
LINE
5
F3
100
AcDbEntity
8
1
62
256
6
ByLayer
370
18
48
1
60
0
100
AcDbLine
10
29.984134
20
-19.836401
30
0
11
31.422403
21
-20.754556
31
0
39
0
210
0
220
0
230
1
0
LINE
5
F4
100
AcDbEntity
8
1
62
256
6
ByLayer
370
18
48
1
60
0
100
AcDbLine
10
24.780747
20
-2.190975
30
0
11
26.043778
21
-3.266964
31
0
39
0
210
0
220
0
230
1
0
LINE
5
F5
100
AcDbEntity
8
1
62
256
6
ByLayer
370
18
48
1
60
0
100
AcDbLine
10
35.518195
20
-10.037877
30
0
11
33.851134
21
-8.875249
31
0
39
0
210
0
220
0
230
1
0
LINE
5
F6
100
AcDbEntity
8
1
62
256
6
ByLayer
370
18
48
1
60
0
100
AcDbLine
10
32.636589
20
-11.365979
30
0
11
32.870503
21
-11.599893
31
0
39
0
210
0
220
0
230
1
0
LINE
5
F7
100
AcDbEntity
8
1
62
256
6
ByLayer
370
18
48
1
60
0
100
AcDbLine
10
33.486325
20
-12.416294
30
0
11
33.720239
21
-12.650208
31
0
39
0
210
0
220
0
230
1
0
LINE
5
F8
100
AcDbEntity
8
1
62
256
6
ByLayer
370
18
48
1
60
0
100
AcDbLine
10
32.394741
20
-13.969087
30
0
11
32.628654
21
-14.203
31
0
39
0
210
0
220
0
230
1
0
LINE
5
F9
100
AcDbEntity
8
1
62
256
6
ByLayer
370
18
48
1
60
0
100
AcDbLine
10
31.113198
20
-13.533022
30
0
11
31.347112
21
-13.766935
31
0
39
0
210
0
220
0
230
1
0
LINE
5
FA
100
AcDbEntity
8
1
62
256
6
ByLayer
370
18
48
1
60
0
100
AcDbLine
10
32.993499
20
-13.687328
30
0
11
33.227412
21
-13.921242
31
0
39
0
210
0
220
0
230
1
0
LINE
5
FB
100
AcDbEntity
8
1
62
256
6
ByLayer
370
18
48
1
60
0
100
AcDbLine
10
40.851053
20
-23.946303
30
0
11
39.762918
21
-23.187425
31
0
39
0
210
0
220
0
230
1
0
LINE
5
FC
100
AcDbEntity
8
1
62
256
6
ByLayer
370
18
48
1
60
0
100
AcDbLine
10
45.840097
20
-16.849326
30
0
11
44.751962
21
-16.090447
31
0
39
0
210
0
220
0
230
1
0
LINE
5
FD
100
AcDbEntity
8
1
62
256
6
ByLayer
370
18
48
1
60
0
100
AcDbLine
10
38.412547
20
-22.925687
30
0
11
38.721773
21
-23.464693
31
0
39
0
210
0
220
0
230
1
0
LINE
5
FE
100
AcDbEntity
8
1
62
256
6
ByLayer
370
18
48
1
60
0
100
AcDbLine
10
45.098289
20
-23.900851
30
0
11
45.159451
21
-24.701632
31
0
39
0
210
0
220
0
230
1
0
LINE
5
FF
100
AcDbEntity
8
1
62
256
6
ByLayer
370
18
48
1
60
0
100
AcDbLine
10
46.174302
20
-15.865119
30
0
11
44.758336
21
-14.877607
31
0
39
0
210
0
220
0
230
1
0
LINE
5
100
100
AcDbEntity
8
1
62
256
6
ByLayer
370
18
48
1
60
0
100
AcDbLine
10
39.685803
20
-23.053008
30
0
11
39.467169
21
-22.829662
31
0
39
0
210
0
220
0
230
1
0
LINE
5
101
100
AcDbEntity
8
1
62
256
6
ByLayer
370
18
48
1
60
0
100
AcDbLine
10
44.144055
20
-14.772547
30
0
11
44.758336
21
-14.877607
31
0
39
0
210
0
220
0
230
1
0
LINE
5
102
100
AcDbEntity
8
1
62
256
6
ByLayer
370
18
48
1
60
0
100
AcDbLine
10
47.106173
20
-19.0562
30
0
11
47.539864
21
-18.245404
31
0
39
0
210
0
220
0
230
1
0
LINE
5
103
100
AcDbEntity
8
1
62
256
6
ByLayer
370
18
48
1
60
0
100
AcDbLine
10
47.539864
20
-18.245404
30
0
11
46.174302
21
-15.865119
31
0
39
0
210
0
220
0
230
1
0
LINE
5
104
100
AcDbEntity
8
1
62
256
6
ByLayer
370
18
48
1
60
0
100
AcDbLine
10
42.850449
20
-24.916155
30
0
11
40.137739
21
-24.452205
31
0
39
0
210
0
220
0
230
1
0
LINE
5
105
100
AcDbEntity
8
1
62
256
6
ByLayer
370
18
48
1
60
0
100
AcDbLine
10
43.366132
20
-24.376454
30
0
11
40.851053
21
-23.946303
31
0
39
0
210
0
220
0
230
1
0
LINE
5
106
100
AcDbEntity
8
1
62
256
6
ByLayer
370
18
48
1
60
0
100
AcDbLine
10
39.685803
20
-23.053008
30
0
11
42.721742
21
-23.766221
31
0
39
0
210
0
220
0
230
1
0
LINE
5
107
100
AcDbEntity
8
1
62
256
6
ByLayer
370
18
48
1
60
0
100
AcDbLine
10
47.106173
20
-19.0562
30
0
11
45.840097
21
-16.849326
31
0
39
0
210
0
220
0
230
1
0
LINE
5
108
100
AcDbEntity
8
1
62
256
6
ByLayer
370
18
48
1
60
0
100
AcDbLine
10
43.366132
20
-24.376454
30
0
11
42.850449
21
-24.916155
31
0
39
0
210
0
220
0
230
1
0
LINE
5
109
100
AcDbEntity
8
1
62
256
6
ByLayer
370
18
48
1
60
0
100
AcDbLine
10
40.851053
20
-23.946303
30
0
11
40.137739
21
-24.452205
31
0
39
0
210
0
220
0
230
1
0
LINE
5
10A
100
AcDbEntity
8
1
62
256
6
ByLayer
370
18
48
1
60
0
100
AcDbLine
10
39.762918
20
-23.187425
30
0
11
38.721773
21
-23.464693
31
0
39
0
210
0
220
0
230
1
0
LINE
5
10B
100
AcDbEntity
8
1
62
256
6
ByLayer
370
18
48
1
60
0
100
AcDbLine
10
45.840097
20
-16.849326
30
0
11
46.174302
21
-15.865119
31
0
39
0
210
0
220
0
230
1
0
LINE
5
10C
100
AcDbEntity
8
1
62
256
6
ByLayer
370
18
48
1
60
0
100
AcDbLine
10
43.697745
20
-24.417233
30
0
11
45.098289
21
-23.900851
31
0
39
0
210
0
220
0
230
1
0
LINE
5
10D
100
AcDbEntity
8
1
62
256
6
ByLayer
370
18
48
1
60
0
100
AcDbLine
10
39.467169
20
-22.829662
30
0
11
38.412547
21
-22.925687
31
0
39
0
210
0
220
0
230
1
0
LINE
5
10E
100
AcDbEntity
8
1
62
256
6
ByLayer
370
18
48
1
60
0
100
AcDbLine
10
44.320889
20
-15.925186
30
0
11
44.144055
21
-14.772547
31
0
39
0
210
0
220
0
230
1
0
LINE
5
10F
100
AcDbEntity
8
1
62
256
6
ByLayer
370
18
48
1
60
0
100
AcDbLine
10
47.249943
20
-20.840097
30
0
11
48.127249
21
-20.479903
31
0
39
0
210
0
220
0
230
1
0
LINE
5
110
100
AcDbEntity
8
1
62
256
6
ByLayer
370
18
48
1
60
0
100
AcDbLine
10
39.762918
20
-23.187425
30
0
11
39.685803
21
-23.053008
31
0
39
0
210
0
220
0
230
1
0
LINE
5
111
100
AcDbEntity
8
1
62
256
6
ByLayer
370
18
48
1
60
0
100
AcDbLine
10
44.751962
20
-16.090447
30
0
11
44.598772
21
-16.064248
31
0
39
0
210
0
220
0
230
1
0
LINE
5
112
100
AcDbEntity
8
1
62
256
6
ByLayer
370
18
48
1
60
0
100
AcDbLine
10
44.758336
20
-14.877607
30
0
11
44.751962
21
-16.090447
31
0
39
0
210
0
220
0
230
1
0
LINE
5
113
100
AcDbEntity
8
1
62
256
6
ByLayer
370
18
48
1
60
0
100
AcDbLine
10
44.320889
20
-15.925186
30
0
11
44.598772
21
-16.064248
31
0
39
0
210
0
220
0
230
1
0
LINE
5
114
100
AcDbEntity
8
1
62
256
6
ByLayer
370
18
48
1
60
0
100
AcDbLine
10
44.598772
20
-16.064248
30
0
11
46.310054
21
-18.661803
31
0
39
0
210
0
220
0
230
1
0
LINE
5
115
100
AcDbEntity
8
1
62
256
6
ByLayer
370
18
48
1
60
0
100
AcDbLine
10
47.25807
20
-19.352626
30
0
11
47.249943
21
-20.840097
31
0
39
0
210
0
220
0
230
1
0
LINE
5
116
100
AcDbEntity
8
1
62
256
6
ByLayer
370
18
48
1
60
0
100
AcDbLine
10
40.137739
20
-24.452205
30
0
11
38.721773
21
-23.464693
31
0
39
0
210
0
220
0
230
1
0
MTEXT
5
206
100
AcDbEntity
8
SK6
62
256
6
ByLayer
370
18
48
1
60
0
100
AcDbMText
10
-3.625
20
29.2
30
0
210
0
220
0
230
1
1
\W0.7307;C4-CCLNL-27050-12-4
40
3.5
41
0
44
1.084337
50
0
71
7
72
5
7
iso_b_vert
0
DIMENSION
5
217
100
AcDbEntity
8
2
62
256
6
ByLayer
370
13
48
1
60
0
100
AcDbDimension
2
DimnDraft3D1
10
50
20
-25.4125
30
0
11
37.554118
21
-38.53416
31
0
70
34
71
5
72
1
41
1
210
0
220
0
230
1
3
Standard
100
AcDb2LineAngularDimension
13
37.181534
23
-26.015864
33
0
14
49.141329
24
-26.997341
34
0
15
50
25
-27
35
0
16
34.244568
26
-41.583239
36
0
40
0
0
DIMENSION
5
22C
100
AcDbEntity
8
2
62
256
6
ByLayer
370
13
48
1
60
0
100
AcDbDimension
2
DimnDraft3D2
10
50
20
-54.25
30
0
11
19.718421
21
-54.25
31
0
70
32
71
5
72
1
41
1
210
0
220
0
230
1
3
Standard
100
AcDbAlignedDimension
13
0
23
-22
33
0
14
50
24
-29
34
0
50
0
100
AcDbRotatedDimension
1001
ACAD
1000
DSTYLE
1002
{
1070
   279
1070
     0
1070
   172
1070
     1
1070
   173
1070
     1
1070
   340
1005
207
1070
    77
1070
     1
1070
    73
1070
     0
1070
   171
1070
     3
1070
   274
1070
     4
1070
   177
1070
     2
1070
   176
1070
     2
1070
   178
1070
     7
1070
    78
1070
     8
1070
    41
1041
3.175
1070
   147
1041
2.25
1070
    42
1041
2.0
1070
    44
1041
2.0
1070
   140
1041
4.5
1070
   343
1005
218
1070
   344
1005
218
1002
}
0
DIMENSION
5
23B
100
AcDbEntity
8
SK2
62
256
6
ByLayer
370
13
48
1
60
0
100
AcDbDimension
2
DimnDraft3D3
10
-31.75
20
20
30
0
11
-31.75
21
-2.925
31
0
70
32
71
5
72
1
41
1
210
0
220
0
230
1
3
Standard
100
AcDbAlignedDimension
13
-2
23
-20
33
0
14
-2
24
20
34
0
50
90
100
AcDbRotatedDimension
1001
ACAD
1000
DSTYLE
1002
{
1070
    74
1070
     0
1070
   279
1070
     0
1070
   172
1070
     1
1070
   173
1070
     1
1070
   340
1005
207
1070
    77
1070
     1
1070
    73
1070
     0
1070
   171
1070
     3
1070
   274
1070
     4
1070
   177
1070
     2
1070
   176
1070
     2
1070
   178
1070
     7
1070
    78
1070
     8
1070
    41
1041
3.175
1070
   147
1041
2.25
1070
    42
1041
2.0
1070
    44
1041
2.0
1070
   140
1041
4.5
1070
   343
1005
218
1070
   344
1005
218
1002
}
0
DIMENSION
5
249
100
AcDbEntity
8
2
62
256
6
ByLayer
370
13
48
1
60
0
100
AcDbDimension
2
DimnDraft3D4
10
72.25
20
-27
30
0
11
72.25
21
-18.781579
31
0
70
32
71
5
72
1
41
1
210
0
220
0
230
1
3
Standard
100
AcDbAlignedDimension
13
52
23
0
33
0
14
52
24
-27
34
0
50
90
100
AcDbRotatedDimension
1001
ACAD
1000
DSTYLE
1002
{
1070
    74
1070
     0
1070
   279
1070
     0
1070
   172
1070
     1
1070
   173
1070
     1
1070
   340
1005
207
1070
    77
1070
     1
1070
    73
1070
     0
1070
   171
1070
     3
1070
   274
1070
     4
1070
   177
1070
     2
1070
   176
1070
     2
1070
   178
1070
     7
1070
    78
1070
     8
1070
    41
1041
3.175
1070
   147
1041
2.25
1070
    42
1041
2.0
1070
    44
1041
2.0
1070
   140
1041
4.5
1070
   343
1005
218
1070
   344
1005
218
1002
}
0
ENDSEC
0
SECTION
2
OBJECTS
0
DICTIONARY
5
2b4
330
0
100
AcDbDictionary
280
0
281
1
3
ACAD_GROUP
350
2b5
3
ACAD_MLINESTYLE
350
2b6
0
DICTIONARY
5
2b5
330
0
100
AcDbDictionary
280
0
281
1
0
DICTIONARY
5
2b6
330
0
100
AcDbDictionary
280
0
281
1
3
Standard
350
18
0
MLINESTYLE
5
18
330
2b6
100
AcDbMlineStyle
2
Standard
70
0
3

62
256
51
90
52
90
71
2
49
-0.5
62
256
6
ByLayer
49
0.5
62
256
6
ByLayer
0
RASTERVARIABLES
5
2a2
330

100
AcDbRasterVariables
90
0
70
1
71
1
72
1
0
ENDSEC
0
EOF
