0
SECTION
2
HEADER
9
$ACADVER
1
AC1015
9
$DWGCODEPAGE
3
ANSI_1252
9
$HANDSEED
5
279
9
$ANGBASE
50
0
9
$ANGDIR
70
0
9
$ATTMODE
70
1
9
$AUNITS
70
0
9
$AUPREC
70
0
9
$CECOLOR
62
256
9
$CELTSCALE
40
1
9
$CELTYPE
6
ByLayer
9
$CELWEIGHT
370
18
9
$CLAYER
8
0
9
$CMLJUST
70
0
9
$CMLSCALE
40
1
9
$CMLSTYLE
2
Standard
9
$DIMSTYLE
2
Standard
9
$TEXTSIZE
40
0.2
9
$TEXTSTYLE
7
Standard
9
$LUNITS
70
2
9
$LUPREC
70
4
9
$EXTNAMES
290
1
9
$INSUNITS
70
4
9
$LTSCALE
40
1
9
$LWDISPLAY
290
1
9
$PDMODE
70
0
9
$PDSIZE
40
0
9
$PLINEGEN
70
0
0
ENDSEC
0
SECTION
2
CLASSES
0
CLASS
1
RASTERVARIABLES
2
AcDbRasterVariables
3
ISM
90
0
280
0
281
0
0
ENDSEC
0
SECTION
2
TABLES
0
TABLE
2
VPORT
5
26f
100
AcDbSymbolTable
0
VPORT
5
1
100
AcDbSymbolTableRecord
100
AcDbViewportTableRecord
2
*Active
70
0
10
0
20
0
11
1
21
1
12
-1
22
1
13
0
23
0
14
0.5
24
0.5
15
10
25
10
16
0
26
0
36
1
17
0
27
0
37
0
0
ENDTAB
0
TABLE
2
LTYPE
5
270
100
AcDbSymbolTable
0
LTYPE
5
14
100
AcDbSymbolTableRecord
100
AcDbLinetypeTableRecord
70
0
2
ByBlock
3

72
65
73
0
40
0
0
LTYPE
5
15
100
AcDbSymbolTableRecord
100
AcDbLinetypeTableRecord
70
0
2
ByLayer
3

72
65
73
0
40
0
0
LTYPE
5
16
100
AcDbSymbolTableRecord
100
AcDbLinetypeTableRecord
70
0
2
Continuous
3
Solid line
72
65
73
0
40
0
0
LTYPE
5
6E
100
AcDbSymbolTableRecord
100
AcDbLinetypeTableRecord
70
0
2
CENTER
3
____ _ ____ _ ____ _ ____
72
65
73
4
40
47.5
49
22
74
0
49
-8.5
74
0
49
8.5
74
0
49
-8.5
74
0
0
LTYPE
5
6F
100
AcDbSymbolTableRecord
100
AcDbLinetypeTableRecord
70
0
2
DASHED
3
__ __ __ __ __ __ __ __ __
72
65
73
2
40
25.72
49
12.86
74
0
49
-12.86
74
0
0
ENDTAB
0
TABLE
2
LAYER
5
271
100
AcDbSymbolTable
0
LAYER
5
10
100
AcDbSymbolTableRecord
100
AcDbLayerTableRecord
2
0
70
0
62
7
6
Continuous
290
1
370
-3
390
0
0
LAYER
5
71
100
AcDbSymbolTableRecord
100
AcDbLayerTableRecord
2
81
70
0
62
-3
6
Continuous
290
1
370
-3
390
0
0
LAYER
5
73
100
AcDbSymbolTableRecord
100
AcDbLayerTableRecord
2
80
70
0
62
-6
6
Continuous
290
1
370
-3
390
0
0
LAYER
5
75
100
AcDbSymbolTableRecord
100
AcDbLayerTableRecord
2
1
70
0
62
4
6
Continuous
290
1
370
-3
390
0
0
LAYER
5
F9
100
AcDbSymbolTableRecord
100
AcDbLayerTableRecord
2
4
70
0
62
-2
6
CENTER
290
1
370
-3
390
0
0
LAYER
5
1D5
100
AcDbSymbolTableRecord
100
AcDbLayerTableRecord
2
121
70
0
62
7
6
Continuous
290
1
370
-3
390
0
0
LAYER
5
1E5
100
AcDbSymbolTableRecord
100
AcDbLayerTableRecord
2
Defpoints
70
0
62
7
6
Continuous
290
0
370
-3
390
0
0
LAYER
5
1F2
100
AcDbSymbolTableRecord
100
AcDbLayerTableRecord
2
2
70
0
62
7
6
Continuous
290
1
370
-3
390
0
0
LAYER
5
25b
100
AcDbSymbolTableRecord
100
AcDbLayerTableRecord
2
SK1
70
0
62
4
6
Continuous
290
1
370
-3
390
0
0
LAYER
5
25c
100
AcDbSymbolTableRecord
100
AcDbLayerTableRecord
2
SK4
70
0
62
2
6
CENTER
290
1
370
-3
390
0
0
LAYER
5
25d
100
AcDbSymbolTableRecord
100
AcDbLayerTableRecord
2
SK2
70
0
62
7
6
Continuous
290
1
370
-3
390
0
0
LAYER
5
25e
100
AcDbSymbolTableRecord
100
AcDbLayerTableRecord
2
SK6
70
0
62
5
6
Continuous
290
1
370
-3
390
0
0
ENDTAB
0
TABLE
2
STYLE
5
272
100
AcDbSymbolTable
0
STYLE
5
11
100
AcDbSymbolTableRecord
100
AcDbTextStyleTableRecord
2
Standard
3
txt
70
0
71
0
40
0
41
1
42
0
50
0
0
STYLE
5
1D1
100
AcDbSymbolTableRecord
100
AcDbTextStyleTableRecord
2
iso_b_vert
3
simplex.shx
70
0
71
0
40
0
41
1
42
0
50
0
0
STYLE
5
1D2
100
AcDbSymbolTableRecord
100
AcDbTextStyleTableRecord
2
DWGDirectTextStyle
3
simplex
70
0
71
0
40
0
41
1
42
0
50
0
0
ENDTAB
0
TABLE
2
DIMSTYLE
5
273
100
AcDbSymbolTable
100
AcDbDimStyleTable
0
DIMSTYLE
105
27
100
AcDbSymbolTableRecord
100
AcDbDimStyleTableRecord
2
Standard
70
0
3
<>
41
0.18
42
0.0625
44
0.18
140
0.18
147
0.09
73
0
74
0
77
1
271
2
275
0
278
52
280
0
340
11
0
ENDTAB
0
TABLE
2
VIEW
5
274
100
AcDbSymbolTable
0
ENDTAB
0
TABLE
2
UCS
5
275
100
AcDbSymbolTable
0
ENDTAB
0
TABLE
2
APPID
5
276
100
AcDbSymbolTable
0
APPID
5
12
100
AcDbSymbolTableRecord
100
AcDbRegAppTableRecord
2
ACAD
70
0
0
APPID
5
1DF
100
AcDbSymbolTableRecord
100
AcDbRegAppTableRecord
2
ACAD_DSTYLE_DIMBREAK
70
0
0
APPID
5
21A
100
AcDbSymbolTableRecord
100
AcDbRegAppTableRecord
2
ACAD_DSTYLE_DIM_LINETYPE
70
0
0
APPID
5
21B
100
AcDbSymbolTableRecord
100
AcDbRegAppTableRecord
2
ACAD_DSTYLE_DIM_EXT1_LINETYPE
70
0
0
APPID
5
21C
100
AcDbSymbolTableRecord
100
AcDbRegAppTableRecord
2
ACAD_DSTYLE_DIM_EXT2_LINETYPE
70
0
0
APPID
5
257
100
AcDbSymbolTableRecord
100
AcDbRegAppTableRecord
2
ACAD_MLEADERVER
70
0
0
ENDTAB
0
TABLE
2
BLOCK_RECORD
5
277
100
AcDbSymbolTable
0
BLOCK_RECORD
5
1F
100
AcDbSymbolTableRecord
100
AcDbBlockTableRecord
2
*Model_Space
340
0
70
0
0
BLOCK_RECORD
5
1B
100
AcDbSymbolTableRecord
100
AcDbBlockTableRecord
2
*Paper_Space
340
0
70
0
0
BLOCK_RECORD
5
23
100
AcDbSymbolTableRecord
100
AcDbBlockTableRecord
2
*Paper_Space0
340
0
70
0
0
BLOCK_RECORD
5
1E6
100
AcDbSymbolTableRecord
100
AcDbBlockTableRecord
2
*D1
340
0
70
0
0
BLOCK_RECORD
5
1F3
100
AcDbSymbolTableRecord
100
AcDbBlockTableRecord
2
_U0
340
0
70
0
0
ENDTAB
0
ENDSEC
0
SECTION
2
BLOCKS
0
BLOCK
5
20
100
AcDbEntity
8
0
100
AcDbBlockBegin
2
*Model_Space
70
0
10
0
20
0
30
0
3
*Model_Space
0
ENDBLK
5
21
100
AcDbEntity
8
0
100
AcDbBlockEnd
0
BLOCK
5
1C
100
AcDbEntity
8
0
100
AcDbBlockBegin
2
*Paper_Space
70
0
10
0
20
0
30
0
3
*Paper_Space
0
ENDBLK
5
1D
100
AcDbEntity
8
0
100
AcDbBlockEnd
0
BLOCK
5
24
100
AcDbEntity
8
0
100
AcDbBlockBegin
2
*Paper_Space0
70
0
10
0
20
0
30
0
3
*Paper_Space0
0
ENDBLK
5
25
100
AcDbEntity
8
0
100
AcDbBlockEnd
0
BLOCK
5
1E7
100
AcDbEntity
8
0
100
AcDbBlockBegin
2
*D1
70
1
10
0
20
0
30
0
3
*D1
0
LINE
5
1E9
100
AcDbEntity
8
0
62
256
6
ByLayer
370
-2
48
1
60
0
100
AcDbLine
10
0
20
-21.5875
30
0
11
0
21
-42.1
31
0
39
0
210
0
220
0
230
1
0
LINE
5
1EA
100
AcDbEntity
8
0
62
256
6
ByLayer
370
-2
48
1
60
0
100
AcDbLine
10
32
20
-21.5875
30
0
11
32
21
-42.1
31
0
39
0
210
0
220
0
230
1
0
LINE
5
1EB
100
AcDbEntity
8
0
62
256
6
ByLayer
370
-2
48
1
60
0
100
AcDbLine
10
3.5
20
-40.1
30
0
11
28.5
21
-40.1
31
0
39
0
210
0
220
0
230
1
0
SOLID
5
1EC
100
AcDbEntity
8
0
62
256
6
ByLayer
370
-1
48
1
60
0
100
AcDbTrace
10
3.5
20
-39.516667
30
0
11
3.5
21
-40.683333
31
0
12
0
22
-40.1
32
0
13
0
23
-40.1
33
0
39
0
210
0
220
0
230
1
0
SOLID
5
1ED
100
AcDbEntity
8
0
62
256
6
ByLayer
370
-1
48
1
60
0
100
AcDbTrace
10
28.5
20
-40.683333
30
0
11
28.5
21
-39.516667
31
0
12
32
22
-40.1
32
0
13
32
23
-40.1
33
0
39
0
210
0
220
0
230
1
0
MTEXT
5
1EE
100
AcDbEntity
8
0
62
256
6
ByLayer
370
18
48
1
60
0
100
AcDbMText
10
16
20
-33.1
30
0
210
0
220
0
230
1
1
\A1;32
40
3.5
41
0
44
1
50
0
71
5
72
5
7
iso_b_vert
0
POINT
5
1EF
100
AcDbEntity
8
Defpoints
62
0
6
ByLayer
370
-1
48
1
60
0
100
AcDbPoint
10
0
20
-20
30
0
39
0
210
0
220
0
230
1
50
360
0
POINT
5
1F0
100
AcDbEntity
8
Defpoints
62
0
6
ByLayer
370
-1
48
1
60
0
100
AcDbPoint
10
32
20
-20
30
0
39
0
210
0
220
0
230
1
50
360
0
POINT
5
1F1
100
AcDbEntity
8
Defpoints
62
0
6
ByLayer
370
-1
48
1
60
0
100
AcDbPoint
10
32
20
-40.1
30
0
39
0
210
0
220
0
230
1
50
360
0
ENDBLK
5
1E8
100
AcDbEntity
8
0
100
AcDbBlockEnd
0
BLOCK
5
1FA
100
AcDbEntity
8
0
100
AcDbBlockBegin
2
_U0
70
0
10
0
20
0
30
0
3
_U0
0
MTEXT
5
1F4
100
AcDbEntity
8
2
62
256
6
ByLayer
370
18
48
1
60
0
100
AcDbMText
10
12.078301
20
-39.067366
30
0
210
0
220
0
230
1
1
\W0.7346;32.0
40
3.5
41
0
44
1.084337
50
0
71
7
72
5
7
iso_b_vert
0
LINE
5
1F5
100
AcDbEntity
8
2
62
256
6
ByLayer
370
13
48
1
60
0
100
AcDbLine
10
0
20
-21.5875
30
0
11
0
21
-42.1
31
0
39
0
210
0
220
0
230
1
0
LINE
5
1F6
100
AcDbEntity
8
2
62
256
6
ByLayer
370
13
48
1
60
0
100
AcDbLine
10
32
20
-21.5875
30
0
11
32
21
-42.1
31
0
39
0
210
0
220
0
230
1
0
LINE
5
1F7
100
AcDbEntity
8
2
62
256
6
ByLayer
370
13
48
1
60
0
100
AcDbLine
10
0
20
-40.1
30
0
11
32
21
-40.1
31
0
39
0
210
0
220
0
230
1
0
SOLID
5
1F8
100
AcDbEntity
8
2
62
256
6
ByLayer
370
18
48
1
60
0
100
AcDbTrace
10
0
20
-40.1
30
0
11
3.499998
21
-39.639216
31
0
12
3.500002
22
-40.560784
32
0
13
3.500002
23
-40.560784
33
0
39
0
210
0
220
0
230
1
0
SOLID
5
1F9
100
AcDbEntity
8
2
62
256
6
ByLayer
370
18
48
1
60
0
100
AcDbTrace
10
32
20
-40.1
30
0
11
28.500002
21
-40.560784
31
0
12
28.499998
22
-39.639216
32
0
13
28.499998
23
-39.639216
33
0
39
0
210
0
220
0
230
1
0
ENDBLK
5
1FB
100
AcDbEntity
8
0
100
AcDbBlockEnd
0
ENDSEC
0
SECTION
2
ENTITIES
0
ARC
5
10E
100
AcDbEntity
8
1
62
256
6
ByLayer
370
18
48
1
60
0
100
AcDbCircle
39
0
10
36.4255
20
-13.149495
30
0
40
0.25
210
0
220
0
230
1
100
AcDbArc
50
0
51
90
0
ARC
5
10F
100
AcDbEntity
8
1
62
256
6
ByLayer
370
18
48
1
60
0
100
AcDbCircle
39
0
10
36.4255
20
-6.649495
30
0
40
0.25
210
0
220
0
230
1
100
AcDbArc
50
270
51
0
0
ARC
5
110
100
AcDbEntity
8
1
62
256
6
ByLayer
370
18
48
1
60
0
100
AcDbCircle
39
0
10
36.4255
20
6.649495
30
0
40
0.25
210
0
220
0
230
1
100
AcDbArc
50
0
51
90
0
ARC
5
111
100
AcDbEntity
8
1
62
256
6
ByLayer
370
18
48
1
60
0
100
AcDbCircle
39
0
10
41.9255
20
-14.299495
30
0
40
0.6
210
0
220
0
230
1
100
AcDbArc
50
270
51
0
0
ARC
5
112
100
AcDbEntity
8
1
62
256
6
ByLayer
370
18
48
1
60
0
100
AcDbCircle
39
0
10
41.9255
20
-5.499495
30
0
40
0.6
210
0
220
0
230
1
100
AcDbArc
50
0
51
90
0
ARC
5
113
100
AcDbEntity
8
1
62
256
6
ByLayer
370
18
48
1
60
0
100
AcDbCircle
39
0
10
36.4255
20
13.149495
30
0
40
0.25
210
0
220
0
230
1
100
AcDbArc
50
270
51
0
0
ARC
5
114
100
AcDbEntity
8
1
62
256
6
ByLayer
370
18
48
1
60
0
100
AcDbCircle
39
0
10
41.9255
20
5.499495
30
0
40
0.6
210
0
220
0
230
1
100
AcDbArc
50
270
51
0
0
ARC
5
115
100
AcDbEntity
8
1
62
256
6
ByLayer
370
18
48
1
60
0
100
AcDbCircle
39
0
10
41.9255
20
14.299495
30
0
40
0.6
210
0
220
0
230
1
100
AcDbArc
50
0
51
90
0
ELLIPSE
5
116
100
AcDbEntity
8
1
62
256
6
ByLayer
370
18
48
1
60
0
100
AcDbEllipse
10
-0.948929
20
0
30
0
11
9.36741787978199
21
19.7417491527498
31
0
210
0
220
0
230
1
40
0.341999
41
-1.0963195274999
42
-0.152726244898346
0
ELLIPSE
5
117
100
AcDbEntity
8
1
62
256
6
ByLayer
370
18
48
1
60
0
100
AcDbEllipse
10
16.948929
20
0
30
0
11
9.36741787978144
21
-19.7417491527498
31
0
210
0
220
0
230
1
40
0.341999
41
-2.98886640869144
42
-2.04527312608988
0
ELLIPSE
5
118
100
AcDbEntity
8
1
62
256
6
ByLayer
370
18
48
1
60
0
100
AcDbEllipse
10
16.948929
20
0
30
0
11
9.3674178797814
21
19.7417491527498
31
0
210
0
220
0
230
1
40
0.341999
41
2.04527312608987
42
2.98886640869144
0
ELLIPSE
5
119
100
AcDbEntity
8
1
62
256
6
ByLayer
370
18
48
1
60
0
100
AcDbEllipse
10
-0.948929
20
0
30
0
11
9.36741787978197
21
-19.7417491527498
31
0
210
0
220
0
230
1
40
0.341999
41
0.15272624489835
42
1.0963195274999
0
POINT
5
70
100
AcDbEntity
8
81
62
256
6
ByLayer
370
18
48
1
60
0
100
AcDbPoint
10
32
20
0
30
0
39
0
210
0
220
0
230
1
50
360
0
POINT
5
72
100
AcDbEntity
8
80
62
256
6
ByLayer
370
18
48
1
60
0
100
AcDbPoint
10
0
20
0
30
0
39
0
210
0
220
0
230
1
50
360
0
POINT
5
1E0
100
AcDbEntity
8
121
62
7
6
Continuous
370
18
48
1
60
1
100
AcDbPoint
10
0
20
-20
30
0
39
0
210
0
220
0
230
1
50
360
0
POINT
5
1E1
100
AcDbEntity
8
121
62
7
6
Continuous
370
18
48
1
60
1
100
AcDbPoint
10
32
20
-20
30
0
39
0
210
0
220
0
230
1
50
360
0
SPLINE
5
11A
100
AcDbEntity
8
SK1
62
256
6
ByLayer
370
18
48
1
60
0
100
AcDbSpline
70
4
71
3
72
10
73
6
40
0
40
0
40
0
40
0
40
0.5
40
0.5
40
1
40
1
40
1
40
1
41
1
10
0
20
-5.20997845408499
30
0
41
1
10
-0.0266023652101097
20
-5.29927453248294
30
0
41
1
10
-0.0556335640953733
20
-5.38729103925701
30
0
41
1
10
-0.121003648185251
20
-5.56020190378453
30
0
41
1
10
-0.15717270123173
20
-5.64513968165727
30
0
41
1
10
-0.199999999997274
20
-5.72778130128899
30
0
0
SPLINE
5
11B
100
AcDbEntity
8
SK1
62
256
6
ByLayer
370
18
48
1
60
0
100
AcDbSpline
70
4
71
3
72
10
73
6
40
0
40
0
40
0
40
0
40
0.5
40
0.5
40
1
40
1
40
1
40
1
41
1
10
-0.200000000000003
20
5.72778184890603
30
0
41
1
10
-0.157172721768205
20
5.6451402000379
30
0
41
1
10
-0.121003677024532
20
5.56020239791641
30
0
41
1
10
-0.0556335917865454
20
5.38729149656763
30
0
41
1
10
-0.0266023831371314
20
5.29927497731066
30
0
41
1
10
1.279E-13
20
5.2099788939988
30
0
0
SPLINE
5
11C
100
AcDbEntity
8
SK1
62
256
6
ByLayer
370
18
48
1
60
0
100
AcDbSpline
70
4
71
3
72
9
73
5
40
0
40
0
40
0
40
0
40
0.562952075860644
40
1
40
1
40
1
40
1
41
1
10
-1.49503997793931
20
13.825265941945
30
0
41
1
10
-1.49503997793931
20
13.8254147697691
30
0
41
1
10
-1.49503997793931
20
13.8034442411914
30
0
41
1
10
-1.49503997793931
20
13.745881035623
30
0
41
1
10
-1.49503997793931
20
13.7143415967828
30
0
0
SPLINE
5
11D
100
AcDbEntity
8
SK1
62
256
6
ByLayer
370
13
48
1
60
0
100
AcDbSpline
70
4
71
3
72
20
73
16
40
0
40
0
40
0
40
0
40
0.0288653963463501
40
0.0980945835344325
40
0.167323770722515
40
0.30578214509868
40
0.444240519474844
40
0.513469706662926
40
0.582698893851009
40
0.721157268227174
40
0.790386455415256
40
0.859615642603338
40
0.928844829791421
40
0.998074016979503
40
1
40
1
40
1
40
1
41
1
10
-1.4950399779393
20
13.7143415967834
30
0
41
1
10
-1.49503997793928
20
13.6917867677232
30
0
41
1
10
-1.4950399779393
20
13.6040468044455
30
0
41
1
10
-1.4950399779393
20
13.3930994871677
30
0
41
1
10
-1.4950399779393
20
12.9130985214152
30
0
41
1
10
-1.4950399779393
20
12.0867940390283
30
0
41
1
10
-1.4950399779393
20
10.9917337096027
30
0
41
1
10
-1.4950399779393
20
9.96541221253273
30
0
41
1
10
-1.4950399779393
20
8.84271185764786
30
0
41
1
10
-1.4950399779393
20
7.58102898252227
30
0
41
1
10
-1.4950399779393
20
6.18114538947242
30
0
41
1
10
-1.4950399779393
20
5.0652758228772
30
0
41
1
10
-1.4950399779393
20
3.88412534084222
30
0
41
1
10
-1.4950399779393
20
3.04345481646683
30
0
41
1
10
-1.4950399779393
20
2.60753591899177
30
0
41
1
10
-1.4950399779393
20
2.59572959682796
30
0
0
SPLINE
5
11E
100
AcDbEntity
8
SK1
62
256
6
ByLayer
370
18
48
1
60
0
100
AcDbSpline
70
4
71
3
72
21
73
17
40
0
40
0
40
0
40
0
40
0.0619942547805964
40
0.12417150974839
40
0.186348764716184
40
0.248526019683977
40
0.372880529619565
40
0.497235039555152
40
0.559412294522946
40
0.621589549490739
40
0.745944059426327
40
0.80812131439412
40
0.870298569361914
40
0.932475824329708
40
0.994653079297501
40
1
40
1
40
1
40
1
41
1
10
-1.7
20
14.0157839585661
30
0
41
1
10
-1.70000000000002
20
14.0272529169257
30
0
41
1
10
-1.70000000000002
20
14.0038766523945
30
0
41
1
10
-1.7
20
13.8477062499051
30
0
41
1
10
-1.7
20
13.5829959818305
30
0
41
1
10
-1.7
20
13.0984067777707
30
0
41
1
10
-1.7
20
12.2637795792515
30
0
41
1
10
-1.7
20
11.1580265629749
30
0
41
1
10
-1.7
20
10.1227281115305
30
0
41
1
10
-1.7
20
8.98995375595479
30
0
41
1
10
-1.7
20
7.71376588282686
30
0
41
1
10
-1.7
20
6.29922705440438
30
0
41
1
10
-1.7
20
5.16941096177055
30
0
41
1
10
-1.7
20
3.97134131573901
30
0
41
1
10
-1.7
20
3.09163207213675
30
0
41
1
10
-1.7
20
2.62111308533417
30
0
41
1
10
-1.7
20
2.58377808521783
30
0
0
SPLINE
5
11F
100
AcDbEntity
8
SK1
62
256
6
ByLayer
370
18
48
1
60
0
100
AcDbSpline
70
4
71
3
72
21
73
17
40
0
40
0
40
0
40
0
40
0.0053469552529505
40
0.0675241957957068
40
0.129701436338463
40
0.191878676881219
40
0.254055917423975
40
0.378410398509488
40
0.440587639052244
40
0.502764879595
40
0.627119360680513
40
0.751473841766025
40
0.813651082308781
40
0.875828322851538
40
0.938005563394294
40
1
40
1
40
1
40
1
41
1
10
-1.7
20
-2.58377729734607
30
0
41
1
10
-1.7
20
-2.62111254506635
30
0
41
1
10
-1.7
20
-3.09163174208072
30
0
41
1
10
-1.7
20
-3.97134104745157
30
0
41
1
10
-1.7
20
-5.16941104441418
30
0
41
1
10
-1.7
20
-6.29922693017525
30
0
41
1
10
-1.7
20
-7.71376573381551
30
0
41
1
10
-1.7
20
-8.9899537434076
30
0
41
1
10
-1.7
20
-10.1227279817209
30
0
41
1
10
-1.7
20
-11.158026865053
30
0
41
1
10
-1.7
20
-12.2637792369573
30
0
41
1
10
-1.7
20
-13.0984073948343
30
0
41
1
10
-1.7
20
-13.5829958824317
30
0
41
1
10
-1.7
20
-13.8477064954836
30
0
41
1
10
-1.70000000000002
20
-14.003877315362
30
0
41
1
10
-1.7
20
-14.027253025369
30
0
41
1
10
-1.7
20
-14.0157839280315
30
0
0
SPLINE
5
120
100
AcDbEntity
8
SK1
62
256
6
ByLayer
370
18
48
1
60
0
100
AcDbSpline
70
4
71
3
72
39
73
35
40
0
40
0
40
0
40
0
40
0.016335461752347
40
0.0447863201153276
40
0.0732371784783084
40
0.101688036841289
40
0.15858975356725
40
0.215491470293212
40
0.243942328656192
40
0.272393187019173
40
0.329294903745134
40
0.357745762108115
40
0.386196620471096
40
0.414647478834076
40
0.443098337197057
40
0.471549195560038
40
0.485774624741528
40
0.500000053923019
40
0.514225483104509
40
0.528450912285999
40
0.55690177064898
40
0.585352629011961
40
0.613803487374942
40
0.642254345737922
40
0.670705204100903
40
0.727606920826864
40
0.756057779189845
40
0.784508637552826
40
0.841410354278787
40
0.898312071004748
40
0.926762929367729
40
0.95521378773071
40
0.98366464609369
40
1
40
1
40
1
40
1
41
1
10
-22.5
20
13.4958164722726
30
0
41
1
10
-22.5
20
13.4915511884719
30
0
41
1
10
-22.5
20
13.4607341126537
30
0
41
1
10
-22.5
20
13.3308793310681
30
0
41
1
10
-22.5
20
13.0738790940805
30
0
41
1
10
-22.5
20
12.6015910628856
30
0
41
1
10
-22.5
20
11.7892772585257
30
0
41
1
10
-22.5
20
10.7121915826386
30
0
41
1
10
-22.5
20
9.70096055319001
30
0
41
1
10
-22.5
20
8.59519482612015
30
0
41
1
10
-22.5
20
7.35789518762175
30
0
41
1
10
-22.5
20
5.98264738368823
30
0
41
1
10
-22.5
20
4.89022224945151
30
0
41
1
10
-22.5
20
3.73751327283387
30
0
41
1
10
-22.5
20
2.52988151772914
30
0
41
1
10
-22.5
20
1.48826017841199
30
0
41
1
10
-22.5
20
0.63722566300541
30
0
41
1
10
-22.5
20
1.01300202E-07
30
0
41
1
10
-22.5
20
-0.637225639727404
30
0
41
1
10
-22.5
20
-1.48826022368627
30
0
41
1
10
-22.5
20
-2.52988134516508
30
0
41
1
10
-22.5
20
-3.73751305004353
30
0
41
1
10
-22.5
20
-4.89022238185544
30
0
41
1
10
-22.5
20
-5.98264719956148
30
0
41
1
10
-22.5
20
-7.35789505897995
30
0
41
1
10
-22.5
20
-8.5951948167403
30
0
41
1
10
-22.5
20
-9.70096045673193
30
0
41
1
10
-22.5
20
-10.7121918739409
30
0
41
1
10
-22.5
20
-11.7892769425394
30
0
41
1
10
-22.5
20
-12.6015916721314
30
0
41
1
10
-22.5
20
-13.0738789920944
30
0
41
1
10
-22.5
20
-13.3308795934982
30
0
41
1
10
-22.5
20
-13.4607343747918
30
0
41
1
10
-22.5
20
-13.4915512416682
30
0
41
1
10
-22.5
20
-13.4958165274069
30
0
0
SPLINE
5
121
100
AcDbEntity
8
SK1
62
256
6
ByLayer
370
18
48
1
60
0
100
AcDbSpline
70
4
71
3
72
36
73
32
40
0
40
0
40
0
40
0
40
0.124999999999997
40
0.124999999999997
40
0.249999999999995
40
0.249999999999995
40
0.312499999999994
40
0.312499999999994
40
0.374999999999992
40
0.374999999999992
40
0.406249999999992
40
0.406249999999992
40
0.437499999999992
40
0.437499999999992
40
0.453124999999992
40
0.453124999999992
40
0.468749999999991
40
0.468749999999991
40
0.484374999999991
40
0.484374999999991
40
0.49999999999999
40
0.49999999999999
40
0.531249999999991
40
0.531249999999991
40
0.562499999999993
40
0.562499999999993
40
0.624999999999993
40
0.624999999999993
40
0.749999999999995
40
0.749999999999995
40
1
40
1
40
1
40
1
41
1
10
-1.7
20
2.58377808521783
30
0
41
1
10
-1.69980283176194
20
2.53494813104052
30
0
41
1
10
-1.69914629015307
20
2.48605219520388
30
0
41
1
10
-1.6965250123217
20
2.38809848078012
30
0
41
1
10
-1.69458987013775
20
2.33904299616421
30
0
41
1
10
-1.68996451253321
20
2.26528111364468
30
0
41
1
10
-1.68813273270565
20
2.2406638196293
30
0
41
1
10
-1.68351230038941
20
2.19134004598712
30
0
41
1
10
-1.68075232756119
20
2.16659121971188
30
0
41
1
10
-1.6751594901484
20
2.12981712458017
30
0
41
1
10
-1.67305217630945
20
2.11760538297833
30
0
41
1
10
-1.66788896083398
20
2.09336191022211
30
0
41
1
10
-1.66489176376339
20
2.0812167980948
30
0
41
1
10
-1.65853679929717
20
2.06399527606516
30
0
41
1
10
-1.65615085025308
20
2.05848683766297
30
0
41
1
10
-1.64990007736445
20
2.04874689378994
30
0
41
1
10
-1.64585244680074
20
2.04467800309183
30
0
41
1
10
-1.63700800605311
20
2.04294931985936
30
0
41
1
10
-1.63274291390648
20
2.04525125497747
30
0
41
1
10
-1.62570082643285
20
2.05168607565221
30
0
41
1
10
-1.62266900676535
20
2.05586039978149
30
0
41
1
10
-1.61443505776869
20
2.06908624517089
30
0
41
1
10
-1.60998566242219
20
2.07897687949134
30
0
41
1
10
-1.60173135359587
20
2.0994113601177
30
0
41
1
10
-1.59800183776957
20
2.11000295822441
30
0
41
1
10
-1.58752132339228
20
2.14206819971534
30
0
41
1
10
-1.58141440210633
20
2.16398299410423
30
0
41
1
10
-1.56421680497178
20
2.23037341461577
30
0
41
1
10
-1.5542887841046
20
2.2755201435352
30
0
41
1
10
-1.52628507611223
20
2.41180980880378
30
0
41
1
10
-1.51015162966532
20
2.50368116498174
30
0
41
1
10
-1.4950399779393
20
2.59572959682796
30
0
0
SPLINE
5
122
100
AcDbEntity
8
SK1
62
256
6
ByLayer
370
18
48
1
60
0
100
AcDbSpline
70
4
71
3
72
26
73
22
40
0
40
0
40
0
40
0
40
0.25
40
0.25
40
0.375
40
0.375
40
0.4375
40
0.4375
40
0.46875
40
0.46875
40
0.5
40
0.5
40
0.625
40
0.625
40
0.75
40
0.75
40
0.875
40
0.875
40
0.9375
40
0.9375
40
1
40
1
40
1
40
1
41
1
10
-1.7
20
-2.58377729734607
30
0
41
1
10
-1.76613065886878
20
-2.16784704245336
30
0
41
1
10
-1.82316215686583
20
-1.74568146733009
30
0
41
1
10
-1.88427766240593
20
-1.09995043784014
30
0
41
1
10
-1.90057185673113
20
-0.882620801089473
30
0
41
1
10
-1.9171940899932
20
-0.552958450347234
30
0
41
1
10
-1.92143351430276
20
-0.442459814342214
30
0
41
1
10
-1.92571062209051
20
-0.275747908317754
30
0
41
1
10
-1.92678890529305
20
-0.219949147197752
30
0
41
1
10
-1.92821915648834
20
-0.108715900509111
30
0
41
1
10
-1.92857376506791
20
-0.0532112388235646
30
0
41
1
10
-1.9285260192795
20
0.2237512458141
30
0
41
1
10
-1.92269285742202
20
0.443534065874218
30
0
41
1
10
-1.90073152159663
20
0.879827175945763
30
0
41
1
10
-1.88456941336774
20
1.09633072422011
30
0
41
1
10
-1.84395869573466
20
1.52647783394633
30
0
41
1
10
-1.8194991935238
20
1.74011907259901
30
0
41
1
10
-1.7779104307611
20
2.05868937391
30
0
41
1
10
-1.76321329032666
20
2.16467276723151
30
0
41
1
10
-1.73252928227532
20
2.37518275958951
30
0
41
1
10
-1.71653480458672
20
2.47978185665875
30
0
41
1
10
-1.7
20
2.58377808521783
30
0
0
SPLINE
5
123
100
AcDbEntity
8
SK1
62
256
6
ByLayer
370
18
48
1
60
0
100
AcDbSpline
70
4
71
3
72
36
73
32
40
0
40
0
40
0
40
0
40
0.250000000000004
40
0.250000000000004
40
0.375000000000006
40
0.375000000000006
40
0.437500000000006
40
0.437500000000006
40
0.468750000000005
40
0.468750000000005
40
0.500000000000005
40
0.500000000000005
40
0.515625000000004
40
0.515625000000004
40
0.531250000000004
40
0.531250000000004
40
0.546875000000004
40
0.546875000000004
40
0.562500000000004
40
0.562500000000004
40
0.593750000000003
40
0.593750000000003
40
0.625000000000003
40
0.625000000000003
40
0.687500000000003
40
0.687500000000003
40
0.750000000000002
40
0.750000000000002
40
0.875000000000001
40
0.875000000000001
40
1
40
1
40
1
40
1
41
1
10
-1.4950399779393
20
-2.59572866980201
30
0
41
1
10
-1.51026123722427
20
-2.5030127786944
30
0
41
1
10
-1.52651109107337
20
-2.41049873555403
30
0
41
1
10
-1.55477059605052
20
-2.27328358340611
30
0
41
1
10
-1.56481458786168
20
-2.22773052666972
30
0
41
1
10
-1.58228349561371
20
-2.16081267675313
30
0
41
1
10
-1.58850203306029
20
-2.13871110702161
30
0
41
1
10
-1.59920684184684
20
-2.10654042134553
30
0
41
1
10
-1.60299914819289
20
-2.09599696577868
30
0
41
1
10
-1.61148455352239
20
-2.07564920040667
30
0
41
1
10
-1.61613906919195
20
-2.0656913922966
30
0
41
1
10
-1.62477195539699
20
-2.05301401465994
30
0
41
1
10
-1.62793524211726
20
-2.04911817380733
30
0
41
1
10
-1.63551376705244
20
-2.04375885060341
30
0
41
1
10
-1.64013457652298
20
-2.04268510019753
30
0
41
1
10
-1.64864678478025
20
-2.04701800620362
30
0
41
1
10
-1.65220264159379
20
-2.05183497913686
30
0
41
1
10
-1.65780271049243
20
-2.06209889338859
30
0
41
1
10
-1.66005581238085
20
-2.0678117273763
30
0
41
1
10
-1.66591854409197
20
-2.08507186161151
30
0
41
1
10
-1.66875252659088
20
-2.09702122709632
30
0
41
1
10
-1.67370679113654
20
-2.12121687034832
30
0
41
1
10
-1.67575012136616
20
-2.13342095957788
30
0
41
1
10
-1.68115380351311
20
-2.16993349213553
30
0
41
1
10
-1.68382251839573
20
-2.19430149785728
30
0
41
1
10
-1.68832031406806
20
-2.24305704289961
30
0
41
1
10
-1.69011547560279
20
-2.26744567235397
30
0
41
1
10
-1.69465688317244
20
-2.34062742639443
30
0
41
1
10
-1.69657077641125
20
-2.38945991149225
30
0
41
1
10
-1.69915633746155
20
-2.48678291130122
30
0
41
1
10
-1.69980436369318
20
-2.53532682713822
30
0
41
1
10
-1.7
20
-2.58377729734607
30
0
0
SPLINE
5
124
100
AcDbEntity
8
SK1
62
256
6
ByLayer
370
18
48
1
60
0
100
AcDbSpline
70
4
71
3
72
8
73
4
40
0
40
0
40
0
40
0
40
1
40
1
40
1
40
1
41
1
10
-1.30710678118655
20
-3.62853202212773
30
0
41
1
10
-1.37356940710868
20
-3.29172262772087
30
0
41
1
10
-1.43720046286555
20
-2.94804131885212
30
0
41
1
10
-1.4950399779393
20
-2.59572866974992
30
0
0
SPLINE
5
125
100
AcDbEntity
8
SK1
62
256
6
ByLayer
370
18
48
1
60
0
100
AcDbSpline
70
4
71
3
72
8
73
4
40
0
40
0
40
0
40
0
40
1
40
1
40
1
40
1
41
1
10
-1.4950399779393
20
2.59572959682799
30
0
41
1
10
-1.43720049720228
20
2.94804273884372
30
0
41
1
10
-1.37356947571648
20
3.29172452904805
30
0
41
1
10
-1.30710678118655
20
3.62853433720642
30
0
0
SPLINE
5
126
100
AcDbEntity
8
SK1
62
256
6
ByLayer
370
18
48
1
60
0
100
AcDbSpline
70
4
71
3
72
26
73
22
40
0
40
0
40
0
40
0
40
0.03125
40
0.03125
40
0.0624999999999999
40
0.0624999999999999
40
0.0937499999999999
40
0.0937499999999999
40
0.125
40
0.125
40
0.1875
40
0.1875
40
0.25
40
0.25
40
0.374999999999999
40
0.374999999999999
40
0.499999999999999
40
0.499999999999999
40
0.75
40
0.75
40
1
40
1
40
1
40
1
41
1
10
-0.394913799811292
20
5.00116108217651
30
0
41
1
10
-0.388593077844192
20
4.99606988491178
30
0
41
1
10
-0.381696248959287
20
4.9916485202956
30
0
41
1
10
-0.366410571944329
20
4.98566435854278
30
0
41
1
10
-0.357950298206589
20
4.98423386424881
30
0
41
1
10
-0.341064499256632
20
4.98632315728017
30
0
41
1
10
-0.332737442838464
20
4.98989594405836
30
0
41
1
10
-0.318359831773947
20
4.9998063462177
30
0
41
1
10
-0.312107661781397
20
5.00605634377806
30
0
41
1
10
-0.295557308756486
20
5.02615606182937
30
0
41
1
10
-0.287201910927422
20
5.04137639572582
30
0
41
1
10
-0.272916655032205
20
5.07221259840793
30
0
41
1
10
-0.267068575155221
20
5.08792546636627
30
0
41
1
10
-0.251550533790692
20
5.13550128701092
30
0
41
1
10
-0.243883568597596
20
5.16792600720163
30
0
41
1
10
-0.231149880121436
20
5.23258507573851
30
0
41
1
10
-0.22616564222902
20
5.26480643303955
30
0
41
1
10
-0.213678908808859
20
5.36119137326014
30
0
41
1
10
-0.208609627305322
20
5.42507701724685
30
0
41
1
10
-0.201889470916583
20
5.55222154865814
30
0
41
1
10
-0.200325540023954
20
5.61547854140437
30
0
41
1
10
-0.200000000000003
20
5.67845201642962
30
0
0
SPLINE
5
127
100
AcDbEntity
8
SK1
62
256
6
ByLayer
370
18
48
1
60
0
100
AcDbSpline
70
4
71
3
72
26
73
22
40
0
40
0
40
0
40
0
40
0.25
40
0.25
40
0.499999999999999
40
0.499999999999999
40
0.625
40
0.625
40
0.750000000000001
40
0.750000000000001
40
0.812500000000001
40
0.812500000000001
40
0.875000000000001
40
0.875000000000001
40
0.906250000000001
40
0.906250000000001
40
0.9375
40
0.9375
40
0.96875
40
0.96875
40
1
40
1
40
1
40
1
41
1
10
-0.200000000000003
20
14.0005306290776
30
0
41
1
10
-0.200325526921617
20
13.992937784021
30
0
41
1
10
-0.201888714477079
20
13.9843134154886
30
0
41
1
10
-0.208628515439116
20
13.9645912547913
30
0
41
1
10
-0.213720500579399
20
13.9535077777846
30
0
41
1
10
-0.226297832831563
20
13.9343664914098
30
0
41
1
10
-0.231313142997905
20
13.9275805879124
30
0
41
1
10
-0.244061293421112
20
13.9129349686681
30
0
41
1
10
-0.251728467015695
20
13.9050753946242
30
0
41
1
10
-0.267181679795726
20
13.8922335922221
30
0
41
1
10
-0.272997114041203
20
13.887771829979
30
0
41
1
10
-0.287128669286204
20
13.8782791877473
30
0
41
1
10
-0.295478263319012
20
13.8731651598702
30
0
41
1
10
-0.312091372528215
20
13.865022403485
30
0
41
1
10
-0.318321797663017
20
13.8622381003803
30
0
41
1
10
-0.332666868372399
20
13.8567559126218
30
0
41
1
10
-0.340987965989839
20
13.8540289822524
30
0
41
1
10
-0.3579168589376
20
13.8496085548522
30
0
41
1
10
-0.366389783354194
20
13.8479390392461
30
0
41
1
10
-0.381642090740314
20
13.8456762078259
30
0
41
1
10
-0.38858479258954
20
13.845025452913
30
0
41
1
10
-0.394913799814603
20
13.8446595289409
30
0
0
SPLINE
5
128
100
AcDbEntity
8
SK1
62
256
6
ByLayer
370
18
48
1
60
0
100
AcDbSpline
70
4
71
3
72
9
73
5
40
0
40
0
40
0
40
0
40
0.399549051474429
40
1
40
1
40
1
40
1
41
1
10
-0.394913799811292
20
13.8446595289407
30
0
41
1
10
-0.394913799811292
20
13.8386282511807
30
0
41
1
10
-0.394913799811306
20
13.8153749446156
30
0
41
1
10
-0.39491379981132
20
13.7728148586386
30
0
41
1
10
-0.394913799811306
20
13.7407315289408
30
0
0
SPLINE
5
129
100
AcDbEntity
8
SK1
62
256
6
ByLayer
370
13
48
1
60
0
100
AcDbSpline
70
4
71
3
72
18
73
14
40
0
40
0
40
0
40
0
40
0.0329223023688921
40
0.113118245940781
40
0.193314189512669
40
0.353706076656446
40
0.514097963800224
40
0.594293907372112
40
0.674489850944001
40
0.834881738087778
40
0.915077681659666
40
0.995273625231555
40
1
40
1
40
1
40
1
41
1
10
-0.394913799811306
20
13.7407320822372
30
0
41
1
10
-0.394913799811306
20
13.7183887951208
30
0
41
1
10
-0.394913799811292
20
13.6307407319385
30
0
41
1
10
-0.394913799811292
20
13.4200270263956
30
0
41
1
10
-0.394913799811292
20
12.9393754432253
30
0
41
1
10
-0.394913799811292
20
12.1118907902116
30
0
41
1
10
-0.394913799811292
20
11.015314225612
30
0
41
1
10
-0.394913799811292
20
9.98771978618734
30
0
41
1
10
-0.394913799811292
20
8.86359092653058
30
0
41
1
10
-0.394913799811292
20
7.59985122616763
30
0
41
1
10
-0.394913799811292
20
6.19788950405021
30
0
41
1
10
-0.394913799811292
20
5.43069780454792
30
0
41
1
10
-0.394913799811292
20
5.02384266526141
30
0
41
1
10
-0.394913799811292
20
5.00116108217651
30
0
0
SPLINE
5
12A
100
AcDbEntity
8
SK1
62
256
6
ByLayer
370
13
48
1
60
0
100
AcDbSpline
70
4
71
3
72
18
73
14
40
0
40
0
40
0
40
0
40
0.0047264100290159
40
0.08492234506829
40
0.165118280107564
40
0.325510150186113
40
0.405706085225387
40
0.485902020264661
40
0.646293890343209
40
0.806685760421757
40
0.886881695461032
40
0.967077630500306
40
1
40
1
40
1
40
1
41
1
10
-0.394913799811292
20
-5.00116056257954
30
0
41
1
10
-0.394913799811292
20
-5.02384231959817
30
0
41
1
10
-0.394913799811292
20
-5.43069766104711
30
0
41
1
10
-0.394913799811292
20
-6.19788936064779
30
0
41
1
10
-0.394913799811292
20
-7.59985108367658
30
0
41
1
10
-0.394913799811292
20
-8.86359091499725
30
0
41
1
10
-0.394913799811292
20
-9.98771966705354
30
0
41
1
10
-0.394913799811292
20
-11.0153145242407
30
0
41
1
10
-0.394913799811292
20
-12.1118904563386
30
0
41
1
10
-0.394913799811292
20
-12.9393760577865
30
0
41
1
10
-0.394913799811292
20
-13.4200269261686
30
0
41
1
10
-0.394913799811292
20
-13.6307409908944
30
0
41
1
10
-0.394913799811292
20
-13.7183892159169
30
0
41
1
10
-0.394913799811292
20
-13.7407325624987
30
0
0
SPLINE
5
12B
100
AcDbEntity
8
SK1
62
256
6
ByLayer
370
18
48
1
60
0
100
AcDbSpline
70
4
71
3
72
9
73
5
40
0
40
0
40
0
40
0
40
0.600451847078558
40
1
40
1
40
1
40
1
41
1
10
-0.394913799811292
20
-13.7407316983865
30
0
41
1
10
-0.394913799811292
20
-13.772815142469
30
0
41
1
10
-0.394913799811278
20
-13.8153752757201
30
0
41
1
10
-0.394913799811292
20
-13.8386284705405
30
0
41
1
10
-0.394913799811292
20
-13.8446596982821
30
0
0
SPLINE
5
12C
100
AcDbEntity
8
SK1
62
256
6
ByLayer
370
18
48
1
60
0
100
AcDbSpline
70
4
71
3
72
10
73
6
40
0
40
0
40
0
40
0
40
0.5
40
0.5
40
1
40
1
40
1
40
1
41
1
10
-0.200000000000003
20
-14.0062758716595
30
0
41
1
10
-0.157182679471504
20
-14.0145317664402
30
0
41
1
10
-0.1210145466532
20
-14.0220023344625
30
0
41
1
10
-0.055637756076365
20
-14.0349846176618
30
0
41
1
10
-0.026601217208821
20
-14.0405022588028
30
0
41
1
10
3.5243E-12
20
-14.044929699906
30
0
0
SPLINE
5
12D
100
AcDbEntity
8
SK1
62
256
6
ByLayer
370
18
48
1
60
0
100
AcDbSpline
70
4
71
3
72
30
73
26
40
0
40
0
40
0
40
0
40
0.250000000000002
40
0.250000000000002
40
0.375000000000002
40
0.375000000000002
40
0.500000000000002
40
0.500000000000002
40
0.625000000000003
40
0.625000000000003
40
0.687500000000002
40
0.687500000000002
40
0.750000000000002
40
0.750000000000002
40
0.812500000000001
40
0.812500000000001
40
0.875000000000001
40
0.875000000000001
40
0.906250000000001
40
0.906250000000001
40
0.937500000000001
40
0.937500000000001
40
0.96875
40
0.96875
40
1
40
1
40
1
40
1
41
1
10
-1.30710678118655
20
3.62853433720642
30
0
41
1
10
-1.27666571440918
20
3.78279907073755
30
0
41
1
10
-1.24213371033558
20
3.93462763573854
30
0
41
1
10
-1.18109081197508
20
4.1583703791232
30
0
41
1
10
-1.15918165202707
20
4.23227919141883
30
0
41
1
10
-1.111162278332
20
4.37858537053415
30
0
41
1
10
-1.08507948586984
20
4.45096090623949
30
0
41
1
10
-1.02706832630062
20
4.59308791137028
30
0
41
1
10
-0.995084749893536
20
4.66317059286271
30
0
41
1
10
-0.940052913520788
20
4.76461628090829
30
0
41
1
10
-0.920529370906067
20
4.79779601403041
30
0
41
1
10
-0.878053724810215
20
4.86240606869328
30
0
41
1
10
-0.855145617589429
20
4.89385654551648
30
0
41
1
10
-0.803680918974464
20
4.95400421215445
30
0
41
1
10
-0.775266891414134
20
4.98261066908682
30
0
41
1
10
-0.710312740462712
20
5.0320109742261
30
0
41
1
10
-0.672789603751426
20
5.05335078499468
30
0
41
1
10
-0.609788395540505
20
5.06961980113226
30
0
41
1
10
-0.588380278389138
20
5.07223202598755
30
0
41
1
10
-0.544642575651949
20
5.07110826896442
30
0
41
1
10
-0.523210865501525
20
5.0673384865444
30
0
41
1
10
-0.482319922293428
20
5.05469252919983
30
0
41
1
10
-0.463152856090019
20
5.04595940949176
30
0
41
1
10
-0.427444682539473
20
5.02560401094564
30
0
41
1
10
-0.41066538649504
20
5.01384862569722
30
0
41
1
10
-0.394913799811292
20
5.00116108217657
30
0
0
SPLINE
5
12E
100
AcDbEntity
8
SK1
62
256
6
ByLayer
370
18
48
1
60
0
100
AcDbSpline
70
4
71
3
72
36
73
32
40
0
40
0
40
0
40
0
40
0.0312500000000011
40
0.0312500000000011
40
0.0625000000000021
40
0.0625000000000021
40
0.0781250000000022
40
0.0781250000000022
40
0.0937500000000023
40
0.0937500000000023
40
0.125000000000002
40
0.125000000000002
40
0.156250000000002
40
0.156250000000002
40
0.187500000000002
40
0.187500000000002
40
0.218750000000002
40
0.218750000000002
40
0.250000000000003
40
0.250000000000003
40
0.312500000000003
40
0.312500000000003
40
0.375000000000003
40
0.375000000000003
40
0.500000000000002
40
0.500000000000002
40
0.625000000000002
40
0.625000000000002
40
0.750000000000001
40
0.750000000000001
40
1
40
1
40
1
40
1
41
1
10
-0.394913799811292
20
-5.00116056259458
30
0
41
1
10
-0.410735023485501
20
-5.01390421021372
30
0
41
1
10
-0.427464692696915
20
-5.02563245239133
30
0
41
1
10
-0.463557658101991
20
-5.04617195191588
30
0
41
1
10
-0.482957659608005
20
-5.05493293700428
30
0
41
1
10
-0.513397366505359
20
-5.06428047819972
30
0
41
1
10
-0.523814898175615
20
-5.06678978581809
30
0
41
1
10
-0.545287446185483
20
-5.07038348981735
30
0
41
1
10
-0.556305436174611
20
-5.07144022363786
30
0
41
1
10
-0.589028412675717
20
-5.07217944541822
30
0
41
1
10
-0.611185322941935
20
-5.06938278090388
30
0
41
1
10
-0.653158736540718
20
-5.0582870324138
30
0
41
1
10
-0.673304446023849
20
-5.04998964808942
30
0
41
1
10
-0.710603681736117
20
-5.03020967741796
30
0
41
1
10
-0.727880800936873
20
-5.01875181168009
30
0
41
1
10
-0.760562866441759
20
-4.99368119602059
30
0
41
1
10
-0.775925116619902
20
-4.98006172498546
30
0
41
1
10
-0.804596803087961
20
-4.95193103238034
30
0
41
1
10
-0.818026122248128
20
-4.93731968623572
30
0
41
1
10
-0.856343638962045
20
-4.89227865326205
30
0
41
1
10
-0.879296662799163
20
-4.86066233046114
30
0
41
1
10
-0.922008240118998
20
-4.79538841352238
30
0
41
1
10
-0.941686145031539
20
-4.76176403475708
30
0
41
1
10
-0.99660976221125
20
-4.66001801708506
30
0
41
1
10
-1.02820118876318
20
-4.59048527939828
30
0
41
1
10
-1.08574263925539
20
-4.44915525030925
30
0
41
1
10
-1.11159177404312
20
-4.37733091026965
30
0
41
1
10
-1.15931218722136
20
-4.23182333007961
30
0
41
1
10
-1.18115763731852
20
-4.15813319977664
30
0
41
1
10
-1.24213713076347
20
-3.93459344202137
30
0
41
1
10
-1.27670549163005
20
-3.78259514832871
30
0
41
1
10
-1.30710678118751
20
-3.62853202212816
30
0
0
SPLINE
5
12F
100
AcDbEntity
8
SK1
62
256
6
ByLayer
370
18
48
1
60
0
100
AcDbSpline
70
4
71
3
72
26
73
22
40
0
40
0
40
0
40
0
40
0.25
40
0.25
40
0.500000000000001
40
0.500000000000001
40
0.625000000000003
40
0.625000000000003
40
0.750000000000004
40
0.750000000000004
40
0.812500000000005
40
0.812500000000005
40
0.875000000000005
40
0.875000000000005
40
0.906250000000004
40
0.906250000000004
40
0.937500000000002
40
0.937500000000002
40
0.968750000000001
40
0.968750000000001
40
1
40
1
40
1
40
1
41
1
10
-0.200000000000003
20
-5.67845150388078
30
0
41
1
10
-0.200325582586999
20
-5.61546983788438
30
0
41
1
10
-0.201889292856521
20
-5.55215860520633
30
0
41
1
10
-0.208629038638648
20
-5.4247754292544
30
0
41
1
10
-0.21372037477434
20
-5.36066104813321
30
0
41
1
10
-0.226295439929658
20
-5.26391096453341
30
0
41
1
10
-0.231309806283832
20
-5.23164989232524
30
0
41
1
10
-0.244056027637498
20
-5.16717583039298
30
0
41
1
10
-0.251722151097127
20
-5.13489726408193
30
0
41
1
10
-0.267174521636733
20
-5.08763962812955
30
0
41
1
10
-0.272989810764812
20
-5.07205528847371
30
0
41
1
10
-0.287121552431813
20
-5.04154827938743
30
0
41
1
10
-0.295471476548556
20
-5.02627441682441
30
0
41
1
10
-0.312085221058112
20
-5.0060758018395
30
0
41
1
10
-0.318315705386425
20
-4.9998472840303
30
0
41
1
10
-0.332661412714344
20
-4.98993685342148
30
0
41
1
10
-0.34098279179662
20
-4.98634390547855
30
0
41
1
10
-0.357912543190437
20
-4.98422689625053
30
0
41
1
10
-0.366386332442801
20
-4.98566051007197
30
0
41
1
10
-0.381640470183854
20
-4.99162000800124
30
0
41
1
10
-0.388584021384446
20
-4.99606206531197
30
0
41
1
10
-0.394913799807426
20
-5.0011605625827
30
0
0
SPLINE
5
130
100
AcDbEntity
8
SK1
62
256
6
ByLayer
370
18
48
1
60
0
100
AcDbSpline
70
4
71
3
72
39
73
35
40
0
40
0
40
0
40
0
40
0.0170751862102147
40
0.0454824695669473
40
0.0738897529236799
40
0.102297036280413
40
0.159111602993878
40
0.215926169707343
40
0.244333453064076
40
0.272740736420808
40
0.329555303134274
40
0.357962586491006
40
0.386369869847739
40
0.414777153204472
40
0.443184436561204
40
0.471591719917937
40
0.485795361596303
40
0.499999003274669
40
0.514202644953036
40
0.528406286631402
40
0.556813569988135
40
0.585220853344867
40
0.6136281367016
40
0.642035420058333
40
0.670442703415065
40
0.72725727012853
40
0.755664553485263
40
0.784071836841996
40
0.840886403555461
40
0.897700970268926
40
0.926108253625659
40
0.954515536982391
40
0.982922820339124
40
1
40
1
40
1
40
1
41
1
10
-24
20
-12.630758934013
30
0
41
1
10
-24
20
-12.6271435098565
30
0
41
1
10
-24
20
-12.5984157631734
30
0
41
1
10
-24
20
-12.4743692733745
30
0
41
1
10
-24
20
-12.2301460729139
30
0
41
1
10
-24
20
-11.7782448377074
30
0
41
1
10
-24
20
-11.0029089912388
30
0
41
1
10
-24
20
-9.97333275207075
30
0
41
1
10
-24
20
-9.00198709358403
30
0
41
1
10
-24
20
-7.94098139760015
30
0
41
1
10
-24
20
-6.76812911518888
30
0
41
1
10
-24
20
-5.45799609225458
30
0
41
1
10
-24
20
-4.4275375451636
30
0
41
1
10
-24
20
-3.35000208235883
30
0
41
1
10
-24
20
-2.23771697460674
30
0
41
1
10
-24
20
-1.30515943417132
30
0
41
1
10
-24
20
-0.551100895559586
30
0
41
1
10
-24
20
2.454147534E-07
30
0
41
1
10
-24
20
0.551100854738877
30
0
41
1
10
-24
20
1.30515932004789
30
0
41
1
10
-24
20
2.23771741989395
30
0
41
1
10
-24
20
3.35000222974921
30
0
41
1
10
-24
20
4.42753733029454
30
0
41
1
10
-24
20
5.45799637564653
30
0
41
1
10
-24
20
6.76812921007328
30
0
41
1
10
-24
20
7.94098140173097
30
0
41
1
10
-24
20
9.00198713477033
30
0
41
1
10
-24
20
9.97333247862687
30
0
41
1
10
-24
20
11.0029092636263
30
0
41
1
10
-24
20
11.778244241418
30
0
41
1
10
-24
20
12.230146179188
30
0
41
1
10
-24
20
12.4743689830171
30
0
41
1
10
-24
20
12.5984186706051
30
0
41
1
10
-24
20
12.6271458364319
30
0
41
1
10
-24
20
12.6307600660595
30
0
0
SPLINE
5
131
100
AcDbEntity
8
1
62
256
6
ByLayer
370
18
48
1
60
0
100
AcDbSpline
70
4
71
3
72
10
73
6
40
0
40
0
40
0
40
0
40
0.5
40
0.5
40
1
40
1
40
1
40
1
41
1
10
31.6055000000008
20
-3.78272843686833
30
0
41
1
10
31.739622539874
20
-3.47972837989258
30
0
41
1
10
31.8621250055221
20
-3.17145220039171
30
0
41
1
10
32.0787110718596
20
-2.54199618770895
30
0
41
1
10
32.172800078506
20
-2.22081880911483
30
0
41
1
10
32.2495000000006
20
-1.89174587477089
30
0
0
SPLINE
5
132
100
AcDbEntity
8
1
62
256
6
ByLayer
370
18
48
1
60
0
100
AcDbSpline
70
4
71
3
72
34
73
30
40
0
40
0
40
0
40
0
40
0.25
40
0.25
40
0.5
40
0.5
40
0.625
40
0.625
40
0.75
40
0.75
40
0.812499999999999
40
0.812499999999999
40
0.874999999999999
40
0.874999999999999
40
0.906249999999999
40
0.906249999999999
40
0.9375
40
0.9375
40
0.953125000000002
40
0.953125000000002
40
0.960937500000001
40
0.960937500000001
40
0.96875
40
0.96875
40
0.9765625
40
0.9765625
40
0.984374999999999
40
0.984374999999999
40
1
40
1
40
1
40
1
41
1
10
31.6055
20
-1.68093354208537
30
0
41
1
10
31.5953465332925
20
-1.86856162383148
30
0
41
1
10
31.5843708072372
20
-2.05602622869949
30
0
41
1
10
31.5624814887405
20
-2.43060998840107
30
0
41
1
10
31.5515138517231
20
-2.61772984290394
30
0
41
1
10
31.5372027368806
20
-2.8981254329407
30
0
41
1
10
31.5327968300852
20
-2.99154315427921
30
0
41
1
10
31.5254831497148
20
-3.17827399044839
30
0
41
1
10
31.5225351679381
20
-3.2715458172693
30
0
41
1
10
31.520533676288
20
-3.41078910394805
30
0
41
1
10
31.5202747525549
20
-3.45710621188027
30
0
41
1
10
31.5211546580903
20
-3.54944772811436
30
0
41
1
10
31.522240748443
20
-3.59548103644914
30
0
41
1
10
31.5260817286805
20
-3.66411512076087
30
0
41
1
10
31.5277367440043
20
-3.68693139674227
30
0
41
1
10
31.532408665708
20
-3.73185536769759
30
0
41
1
10
31.5353138606983
20
-3.75405257873084
30
0
41
1
10
31.5423699927684
20
-3.78613748291877
30
0
41
1
10
31.5451783656224
20
-3.79671257160231
30
0
41
1
10
31.5510156756257
20
-3.81100700088203
30
0
41
1
10
31.553273328892
20
-3.81559505581717
30
0
41
1
10
31.5588492493797
20
-3.82332137784215
30
0
41
1
10
31.5622569994082
20
-3.82651238166164
30
0
41
1
10
31.5703820707258
20
-3.82858172104341
30
0
41
1
10
31.5748176023891
20
-3.82712919062186
30
0
41
1
10
31.5827092358347
20
-3.82124552398895
30
0
41
1
10
31.5861296946894
20
-3.81718720805907
30
0
41
1
10
31.5956575801558
20
-3.80371592831921
30
0
41
1
10
31.6008116156138
20
-3.79332009981653
30
0
41
1
10
31.6055
20
-3.78272843686796
30
0
0
SPLINE
5
133
100
AcDbEntity
8
1
62
256
6
ByLayer
370
18
48
1
60
0
100
AcDbSpline
70
4
71
3
72
8
73
4
40
0
40
0
40
0
40
0
40
1
40
1
40
1
40
1
41
1
10
31.6055
20
1.68093354208537
30
0
41
1
10
31.6661423182086
20
0.560311180695123
30
0
41
1
10
31.6661423182086
20
-0.560311180695123
30
0
41
1
10
31.6055
20
-1.68093354208537
30
0
0
SPLINE
5
134
100
AcDbEntity
8
1
62
256
6
ByLayer
370
18
48
1
60
0
100
AcDbSpline
70
4
71
3
72
16
73
12
40
0
40
0
40
0
40
0
40
0.125000000000002
40
0.125000000000002
40
0.250000000000003
40
0.250000000000003
40
0.500000000000002
40
0.500000000000002
40
0.750000000000001
40
0.750000000000001
40
1
40
1
40
1
40
1
41
1
10
9.07679491924324
20
19.1222825906925
30
0
41
1
10
9.09558095295722
20
19.1222825906925
30
0
41
1
10
9.11384906187917
20
19.1211757542148
30
0
41
1
10
9.14859952398743
20
19.1171586755843
30
0
41
1
10
9.16442417341895
20
19.1143521510704
30
0
41
1
10
9.20863486580126
20
19.1042242696215
30
0
41
1
10
9.23213528231531
20
19.0956673725615
30
0
41
1
10
9.27225845989867
20
19.0770274497583
30
0
41
1
10
9.28838045037799
20
19.06709867989
30
0
41
1
10
9.31588453947575
20
19.0464153092313
30
0
41
1
10
9.32720842156829
20
19.0356185274184
30
0
41
1
10
9.33660254037858
20
19.0245744101322
30
0
0
SPLINE
5
135
100
AcDbEntity
8
1
62
256
6
ByLayer
370
18
48
1
60
0
100
AcDbSpline
70
4
71
3
72
34
73
30
40
0
40
0
40
0
40
0
40
0.0156249999999971
40
0.0156249999999971
40
0.0234374999999942
40
0.0234374999999942
40
0.0312499999999913
40
0.0312499999999913
40
0.0390624999999885
40
0.0390624999999885
40
0.0468749999999856
40
0.0468749999999856
40
0.0624999999999855
40
0.0624999999999855
40
0.0937499999999862
40
0.0937499999999862
40
0.124999999999987
40
0.124999999999987
40
0.187499999999988
40
0.187499999999988
40
0.249999999999989
40
0.249999999999989
40
0.374999999999991
40
0.374999999999991
40
0.499999999999992
40
0.499999999999992
40
0.749999999999996
40
0.749999999999996
40
1
40
1
40
1
40
1
41
1
10
31.6055
20
3.78272843686796
30
0
41
1
10
31.6007705655568
20
3.79341283717167
30
0
41
1
10
31.5955490543377
20
3.80393894997184
30
0
41
1
10
31.5859003902772
20
3.81747507150774
30
0
41
1
10
31.5823183437861
20
3.82165526629151
30
0
41
1
10
31.5743140468773
20
3.82737232957589
30
0
41
1
10
31.5697160151604
20
3.82862227898588
30
0
41
1
10
31.5617186600989
20
3.82613095390153
30
0
41
1
10
31.558300967182
20
3.82273280877371
30
0
41
1
10
31.552786193003
20
3.81471355379801
30
0
41
1
10
31.5506031074559
20
3.81011898269341
30
0
41
1
10
31.5448209116843
20
3.79555104104097
30
0
41
1
10
31.5420279700429
20
3.78480993104318
30
0
41
1
10
31.5349886696624
20
3.75206608762758
30
0
41
1
10
31.532125846609
20
3.72959578922291
30
0
41
1
10
31.5275463608367
20
3.6845910010536
30
0
41
1
10
31.5259366758227
20
3.66192772349069
30
0
41
1
10
31.5221879375995
20
3.59367053200731
30
0
41
1
10
31.5211237145157
20
3.54781048965842
30
0
41
1
10
31.5202775475736
20
3.45573587755709
30
0
41
1
10
31.5205447726049
20
3.40951027799318
30
0
41
1
10
31.5225656456907
20
3.27045940636381
30
0
41
1
10
31.5255202243384
20
3.17719305974379
30
0
41
1
10
31.5328352228856
20
2.99069866673489
30
0
41
1
10
31.5372388978757
20
2.89738223912499
30
0
41
1
10
31.5515416895533
20
2.61725417967088
30
0
41
1
10
31.5625016305453
20
2.43026460991317
30
0
41
1
10
31.5843793089832
20
2.05588144168129
30
0
41
1
10
31.5953521388833
20
1.86845803691867
30
0
41
1
10
31.6055
20
1.68093354208537
30
0
0
SPLINE
5
136
100
AcDbEntity
8
1
62
256
6
ByLayer
370
18
48
1
60
0
100
AcDbSpline
70
4
71
3
72
10
73
6
40
0
40
0
40
0
40
0
40
0.5
40
0.5
40
1
40
1
40
1
40
1
41
1
10
32.2495
20
1.89174587477362
30
0
41
1
10
32.1728000785054
20
2.22081880911705
30
0
41
1
10
32.078711071859
20
2.54199618771071
30
0
41
1
10
31.8621250055218
20
3.17145220039257
30
0
41
1
10
31.7396225398738
20
3.47972837989298
30
0
41
1
10
31.6055000000008
20
3.7827284368683
30
0
0
SPLINE
5
137
100
AcDbEntity
8
1
62
256
6
ByLayer
370
18
48
1
60
0
100
AcDbSpline
70
4
71
3
72
30
73
26
40
0
40
0
40
0
40
0
40
0.0625000000000071
40
0.0625000000000071
40
0.0937500000000101
40
0.0937500000000101
40
0.10937500000001
40
0.10937500000001
40
0.125000000000009
40
0.125000000000009
40
0.140625000000009
40
0.140625000000009
40
0.156250000000009
40
0.156250000000009
40
0.187500000000009
40
0.187500000000009
40
0.250000000000009
40
0.250000000000009
40
0.375000000000008
40
0.375000000000008
40
0.500000000000007
40
0.500000000000007
40
0.750000000000003
40
0.750000000000003
40
1
40
1
40
1
40
1
41
1
10
32.2495
20
1.89174587477362
30
0
41
1
10
32.2525852516023
20
1.87850892774452
30
0
41
1
10
32.2558995972791
20
1.86538177429711
30
0
41
1
10
32.2619053807286
20
1.84617869895402
30
0
41
1
10
32.2640836821845
20
1.83981910006827
30
0
41
1
10
32.2679839014834
20
1.83071597390034
30
0
41
1
10
32.2693797552487
20
1.8277761785663
30
0
41
1
10
32.2725811609238
20
1.82230024131368
30
0
41
1
10
32.2743975026897
20
1.8196829649799
30
0
41
1
10
32.27884813873
20
1.81619781034141
30
0
41
1
10
32.2815411891779
20
1.81581171408774
30
0
41
1
10
32.2859464023777
20
1.81848595671303
30
0
41
1
10
32.2876661329155
20
1.82100006371391
30
0
41
1
10
32.2919637677121
20
1.8290126886555
30
0
41
1
10
32.2939021855559
20
1.83529091828623
30
0
41
1
10
32.2989931063469
20
1.85431675174547
30
0
41
1
10
32.3012688288375
20
1.86761487411229
30
0
41
1
10
32.3072342190547
20
1.90773179577897
30
0
41
1
10
32.3098351252204
20
1.93495297752483
30
0
41
1
10
32.3142149381814
20
1.98944353727742
30
0
41
1
10
32.3159006901463
20
2.01678764403928
30
0
41
1
10
32.3201218686793
20
2.09897054954362
30
0
41
1
10
32.3218227272853
20
2.15397059930962
30
0
41
1
10
32.3240293491824
20
2.2640982784601
30
0
41
1
10
32.3245000000045
20
2.31921508841705
30
0
41
1
10
32.3245000000045
20
2.37436329711625
30
0
0
SPLINE
5
138
100
AcDbEntity
8
1
62
256
6
ByLayer
370
18
48
1
60
0
100
AcDbSpline
70
4
71
3
72
12
73
8
40
0
40
0
40
0
40
0
40
0.25
40
0.25
40
0.5
40
0.5
40
1
40
1
40
1
40
1
41
1
10
32.3245
20
3.63551555823611
30
0
41
1
10
32.3245
20
3.71325324495908
30
0
41
1
10
32.322321213052
20
3.79113360413129
30
0
41
1
10
32.3151576284524
20
3.94702554953744
30
0
41
1
10
32.3101186540553
20
4.02504255539921
30
0
41
1
10
32.2911229373505
20
4.25925970937678
30
0
41
1
10
32.2734535414259
20
4.41578263980546
30
0
41
1
10
32.2495000000001
20
4.57174589786143
30
0
0
SPLINE
5
139
100
AcDbEntity
8
1
62
256
6
ByLayer
370
18
48
1
60
0
100
AcDbSpline
70
4
71
3
72
8
73
4
40
0
40
0
40
0
40
0
40
1
40
1
40
1
40
1
41
1
10
31.6055000000001
20
7.71473982249813
30
0
41
1
10
31.8697062205963
20
6.68060882615384
30
0
41
1
10
32.0864300612877
20
5.63350618125864
30
0
41
1
10
32.2495000000003
20
4.57174589786149
30
0
0
SPLINE
5
13A
100
AcDbEntity
8
1
62
256
6
ByLayer
370
18
48
1
60
0
100
AcDbSpline
70
4
71
3
72
28
73
24
40
0
40
0
40
0
40
0
40
0.0312500000000012
40
0.0312500000000012
40
0.0625000000000023
40
0.0625000000000023
40
0.0937500000000036
40
0.0937500000000036
40
0.125000000000005
40
0.125000000000005
40
0.156250000000006
40
0.156250000000006
40
0.187500000000007
40
0.187500000000007
40
0.250000000000005
40
0.250000000000005
40
0.375000000000002
40
0.375000000000002
40
0.499999999999999
40
0.499999999999999
40
0.749999999999999
40
0.749999999999999
40
1
40
1
40
1
40
1
41
1
10
31.6055000000003
20
8.37361101742658
30
0
41
1
10
31.6000047373562
20
8.3797875327547
30
0
41
1
10
31.5942117994271
20
8.3854400041991
30
0
41
1
10
31.5821363315484
20
8.39446580599051
30
0
41
1
10
31.5757647756299
20
8.39785124933772
30
0
41
1
10
31.5633172962781
20
8.40029497592639
30
0
41
1
10
31.5575147722731
20
8.39919648353921
30
0
41
1
10
31.5478233717979
20
8.39340034883713
30
0
41
1
10
31.5438090778881
20
8.3887762613461
30
0
41
1
10
31.5372371666876
20
8.37796395532263
30
0
41
1
10
31.5346132394581
20
8.37171127711886
30
0
41
1
10
31.5303085729235
20
8.35860754730567
30
0
41
1
10
31.5286038692419
20
8.35169550185057
30
0
41
1
10
31.5243703523157
20
8.33024655544978
30
0
41
1
10
31.5227222129098
20
8.31500768205484
30
0
41
1
10
31.5197634773029
20
8.26920455495932
30
0
41
1
10
31.5202942584136
20
8.23786352107075
30
0
41
1
10
31.5236192209956
20
8.17441960623157
30
0
41
1
10
31.5265141599264
20
8.14228555379805
30
0
41
1
10
31.5376441464779
20
8.04503534315208
30
0
41
1
10
31.5483373226414
20
7.97887805299871
30
0
41
1
10
31.5737839041931
20
7.84691878935354
30
0
41
1
10
31.5886061523185
20
7.78086412303711
30
0
41
1
10
31.6055
20
7.7147398224981
30
0
0
SPLINE
5
13B
100
AcDbEntity
8
1
62
256
6
ByLayer
370
18
48
1
60
0
100
AcDbSpline
70
4
71
3
72
8
73
4
40
0
40
0
40
0
40
0
40
1
40
1
40
1
40
1
41
1
10
32.2495
20
7.63358295813433
30
0
41
1
10
32.0373665452931
20
7.88319830325074
30
0
41
1
10
31.8225293003015
20
8.12967639832334
30
0
41
1
10
31.6055
20
8.3736110174261
30
0
0
SPLINE
5
13C
100
AcDbEntity
8
1
62
256
6
ByLayer
370
18
48
1
60
0
100
AcDbSpline
70
4
71
3
72
18
73
14
40
0
40
0
40
0
40
0
40
0.125000000000005
40
0.125000000000005
40
0.250000000000011
40
0.250000000000011
40
0.375000000000016
40
0.375000000000016
40
0.500000000000022
40
0.500000000000022
40
0.750000000000011
40
0.750000000000011
40
1
40
1
40
1
40
1
41
1
10
32.2494999999984
20
7.63358295813151
30
0
41
1
10
32.2554139583019
20
7.62662406169034
30
0
41
1
10
32.2617704585627
20
7.62030972372813
30
0
41
1
10
32.2753056805866
20
7.61142405447754
30
0
41
1
10
32.2825539823758
20
7.60917728824265
30
0
41
1
10
32.2950877586338
20
7.61165495551512
30
0
41
1
10
32.300230069096
20
7.61609947706597
30
0
41
1
10
32.3081590515472
20
7.62751165373612
30
0
41
1
10
32.3111279719403
20
7.63451707959217
30
0
41
1
10
32.3182224099558
20
7.65669355896856
30
0
41
1
10
32.3207451881801
20
7.67337802668845
30
0
41
1
10
32.3239121953916
20
7.70715170013833
30
0
41
1
10
32.3245
20
7.72451069593018
30
0
41
1
10
32.3245
20
7.742142853187
30
0
0
SPLINE
5
13D
100
AcDbEntity
8
1
62
256
6
ByLayer
370
18
48
1
60
0
100
AcDbSpline
70
4
71
3
72
12
73
8
40
0
40
0
40
0
40
0
40
0.25
40
0.25
40
0.5
40
0.5
40
1
40
1
40
1
40
1
41
1
10
32.3245
20
8.1800854813311
30
0
41
1
10
32.3245
20
8.21493915084133
30
0
41
1
10
32.3219169517558
20
8.250545917111
30
0
41
1
10
32.313952554405
20
8.32253866084042
30
0
41
1
10
32.3084632666113
20
8.35905903325778
30
0
41
1
10
32.288693751875
20
8.4684794525102
30
0
41
1
10
32.2712510870854
20
8.54143111158021
30
0
41
1
10
32.2495000000002
20
8.61440504217308
30
0
0
SPLINE
5
13E
100
AcDbEntity
8
1
62
256
6
ByLayer
370
18
48
1
60
0
100
AcDbSpline
70
4
71
3
72
8
73
4
40
0
40
0
40
0
40
0
40
1
40
1
40
1
40
1
41
1
10
31.6055
20
10.5692423325784
30
0
41
1
10
31.837557523584
20
9.92526882917292
30
0
41
1
10
32.0529095032927
20
9.27395742250886
30
0
41
1
10
32.2495
20
8.6144050421731
30
0
0
SPLINE
5
13F
100
AcDbEntity
8
1
62
256
6
ByLayer
370
18
48
1
60
0
100
AcDbSpline
70
4
71
3
72
24
73
20
40
0
40
0
40
0
40
0
40
0.0625000000000028
40
0.0625000000000028
40
0.0937499999999928
40
0.0937499999999928
40
0.124999999999983
40
0.124999999999983
40
0.187499999999978
40
0.187499999999978
40
0.249999999999972
40
0.249999999999972
40
0.374999999999977
40
0.374999999999977
40
0.499999999999982
40
0.499999999999982
40
0.749999999999991
40
0.749999999999991
40
1
40
1
40
1
40
1
41
1
10
31.6055000000005
20
11.0193324895507
30
0
41
1
10
31.5963514999414
20
11.0278652865442
30
0
41
1
10
31.5866876697863
20
11.0351999066992
30
0
41
1
10
31.5723330899366
20
11.041820006238
30
0
41
1
10
31.5675547787909
20
11.0432723168304
30
0
41
1
10
31.5586414963532
20
11.0442508533819
30
0
41
1
10
31.5543655001453
20
11.0437754546187
30
0
41
1
10
31.5430939816221
20
11.0397104876866
30
0
41
1
10
31.5373469222962
20
11.0335113934086
30
0
41
1
10
31.5289338815004
20
11.01793447613
30
0
41
1
10
31.5261574723945
20
11.0085824314792
30
0
41
1
10
31.5204500881332
20
10.9788847800534
30
0
41
1
10
31.5199364302341
20
10.9563668452074
30
0
41
1
10
31.5218901242228
20
10.9105914997112
30
0
41
1
10
31.5244417108911
20
10.8869493256596
30
0
41
1
10
31.5351213490498
20
10.8145461173041
30
0
41
1
10
31.5459598179365
20
10.7658633474734
30
0
41
1
10
31.5721839896752
20
10.6679632963495
30
0
41
1
10
31.5876647221101
20
10.6187362951507
30
0
41
1
10
31.6054999999999
20
10.5692423325784
30
0
0
SPLINE
5
140
100
AcDbEntity
8
1
62
256
6
ByLayer
370
18
48
1
60
0
100
AcDbSpline
70
4
71
3
72
8
73
4
40
0
40
0
40
0
40
0
40
1
40
1
40
1
40
1
41
1
10
32.2495
20
10.4146279387559
30
0
41
1
10
32.035436607666
20
10.6170527580397
30
0
41
1
10
31.8207399691693
20
10.8185783823277
30
0
41
1
10
31.6055
20
11.019332489549
30
0
0
SPLINE
5
141
100
AcDbEntity
8
1
62
256
6
ByLayer
370
18
48
1
60
0
100
AcDbSpline
70
4
71
3
72
18
73
14
40
0
40
0
40
0
40
0
40
0.124999999999999
40
0.124999999999999
40
0.249999999999999
40
0.249999999999999
40
0.374999999999998
40
0.374999999999998
40
0.499999999999998
40
0.499999999999998
40
0.749999999999999
40
0.749999999999999
40
1
40
1
40
1
40
1
41
1
10
32.2494999999998
20
10.4146279387551
30
0
41
1
10
32.2550049788101
20
10.4094222642644
30
0
41
1
10
32.2607471989824
20
10.4047102840508
30
0
41
1
10
32.2722719837174
20
10.3973363917776
30
0
41
1
10
32.2782056647285
20
10.394621772586
30
0
41
1
10
32.2893124647998
20
10.3923988253769
30
0
41
1
10
32.2945557627869
20
10.392912597402
30
0
41
1
10
32.303434328157
20
10.396913079466
30
0
41
1
10
32.3071286351407
20
10.4003404441786
30
0
41
1
10
32.3160954547509
20
10.4129759221184
30
0
41
1
10
32.3195542386962
20
10.4245951089765
30
0
41
1
10
32.3237421835355
20
10.4491802546459
30
0
41
1
10
32.3245
20
10.4622966572634
30
0
41
1
10
32.3245
20
10.4758747057918
30
0
0
SPLINE
5
142
100
AcDbEntity
8
1
62
256
6
ByLayer
370
18
48
1
60
0
100
AcDbSpline
70
4
71
3
72
12
73
8
40
0
40
0
40
0
40
0
40
0.249999999999992
40
0.249999999999992
40
0.499999999999984
40
0.499999999999984
40
1
40
1
40
1
40
1
41
1
10
32.3245
20
10.7754639616859
30
0
41
1
10
32.3245
20
10.7999091198558
30
0
41
1
10
32.3218179813059
20
10.8257509458842
30
0
41
1
10
32.3135624753292
20
10.8782508842314
30
0
41
1
10
32.3079815642766
20
10.9046421962933
30
0
41
1
10
32.2881010272376
20
10.9841111952551
30
0
41
1
10
32.2707624125431
20
11.0374723673839
30
0
41
1
10
32.2495000000004
20
11.0912167009134
30
0
0
SPLINE
5
143
100
AcDbEntity
8
1
62
256
6
ByLayer
370
18
48
1
60
0
100
AcDbSpline
70
4
71
3
72
8
73
4
40
0
40
0
40
0
40
0
40
1
40
1
40
1
40
1
41
1
10
31.6055
20
12.6253933182574
30
0
41
1
10
31.829910422179
20
12.1194546037457
30
0
41
1
10
32.0449435898546
20
11.6082675252431
30
0
41
1
10
32.2495
20
11.0912167009135
30
0
0
SPLINE
5
144
100
AcDbEntity
8
1
62
256
6
ByLayer
370
18
48
1
60
0
100
AcDbSpline
70
4
71
3
72
24
73
20
40
0
40
0
40
0
40
0
40
0.0625000000000049
40
0.0625000000000049
40
0.12500000000001
40
0.12500000000001
40
0.187500000000014
40
0.187500000000014
40
0.250000000000019
40
0.250000000000019
40
0.375000000000016
40
0.375000000000016
40
0.500000000000014
40
0.500000000000014
40
0.625000000000011
40
0.625000000000011
40
0.750000000000008
40
0.750000000000008
40
1
40
1
40
1
40
1
41
1
10
31.6055
20
12.9705056015292
30
0
41
1
10
31.5972284375665
20
12.9776122011715
30
0
41
1
10
31.5889144198408
20
12.9837280890158
30
0
41
1
10
31.5721570837898
20
12.9929284146393
30
0
41
1
10
31.563911018039
20
12.9957843445632
30
0
41
1
10
31.549332527511
20
12.9966079268731
30
0
41
1
10
31.5430585144057
20
12.9945698287035
30
0
41
1
10
31.5331756087365
20
12.9866643331887
30
0
41
1
10
31.529511798149
20
12.9808577601684
30
0
41
1
10
31.5216186437243
20
12.9606395868765
30
0
41
1
10
31.520184061725
20
12.9433949621493
30
0
41
1
10
31.5209199022983
20
12.9077348478638
30
0
41
1
10
31.5231238534934
20
12.8888737778533
30
0
41
1
10
31.5298133073727
20
12.8498542855238
30
0
41
1
10
31.5343587101987
20
12.829630606807
30
0
41
1
10
31.5449466014965
20
12.7892938647489
30
0
41
1
10
31.5510225071257
20
12.7690160851208
30
0
41
1
10
31.5711758684454
20
12.7079111464973
30
0
41
1
10
31.5871256147204
20
12.6668188134641
30
0
41
1
10
31.6055
20
12.6253933182574
30
0
0
SPLINE
5
145
100
AcDbEntity
8
1
62
256
6
ByLayer
370
18
48
1
60
0
100
AcDbSpline
70
4
71
3
72
8
73
4
40
0
40
0
40
0
40
0
40
1
40
1
40
1
40
1
41
1
10
32.2495
20
12.4160122997164
30
0
41
1
10
32.0350057378337
20
12.6011103791873
30
0
41
1
10
31.8203319606478
20
12.7859304687195
30
0
41
1
10
31.6055
20
12.9705056015292
30
0
0
SPLINE
5
146
100
AcDbEntity
8
1
62
256
6
ByLayer
370
18
48
1
60
0
100
AcDbSpline
70
4
71
3
72
14
73
10
40
0
40
0
40
0
40
0
40
0.25
40
0.25
40
0.5
40
0.5
40
0.75
40
0.75
40
1
40
1
40
1
40
1
41
1
10
32.2494999999999
20
12.4160122997163
30
0
41
1
10
32.260085369069
20
12.4068776428477
30
0
41
1
10
32.2711217278698
20
12.3993650651572
30
0
41
1
10
32.2919675533707
20
12.3921063777258
30
0
41
1
10
32.3011759360961
20
12.3929374305927
30
0
41
1
10
32.3144074916597
20
12.4024577934998
30
0
41
1
10
32.3186099154229
20
12.4108018870577
30
0
41
1
10
32.3235869454225
20
12.4297872600658
30
0
41
1
10
32.3245
20
12.4404527178704
30
0
41
1
10
32.3245
20
12.4517920695674
30
0
0
SPLINE
5
147
100
AcDbEntity
8
1
62
256
6
ByLayer
370
18
48
1
60
0
100
AcDbSpline
70
4
71
3
72
12
73
8
40
0
40
0
40
0
40
0
40
0.249999999999995
40
0.249999999999995
40
0.499999999999991
40
0.499999999999991
40
1
40
1
40
1
40
1
41
1
10
32.3245
20
12.6809876861899
30
0
41
1
10
32.3245
20
12.6997071452707
30
0
41
1
10
32.3218553248734
20
12.719794914746
30
0
41
1
10
32.3135999420662
20
12.7614838723725
30
0
41
1
10
32.3078812973899
20
12.78314743734
30
0
41
1
10
32.2877834430177
20
12.8478323650262
30
0
41
1
10
32.2704170019078
20
12.8913749481953
30
0
41
1
10
32.2495
20
12.9353083296312
30
0
0
SPLINE
5
148
100
AcDbEntity
8
1
62
256
6
ByLayer
370
18
48
1
60
0
100
AcDbSpline
70
4
71
3
72
8
73
4
40
0
40
0
40
0
40
0
40
1
40
1
40
1
40
1
41
1
10
31.6055
20
14.2334897125276
30
0
41
1
10
31.8265103487022
20
13.8049585330932
30
0
41
1
10
32.0414057264598
20
13.3723826835176
30
0
41
1
10
32.2495
20
12.9353083296312
30
0
0
SPLINE
5
149
100
AcDbEntity
8
1
62
256
6
ByLayer
370
18
48
1
60
0
100
AcDbSpline
70
4
71
3
72
22
73
18
40
0
40
0
40
0
40
0
40
0.0625
40
0.0625
40
0.125
40
0.125
40
0.1875
40
0.1875
40
0.25
40
0.25
40
0.375
40
0.375
40
0.5
40
0.5
40
0.75
40
0.75
40
1
40
1
40
1
40
1
41
1
10
31.6055
20
14.5100772776504
30
0
41
1
10
31.5979531350988
20
14.5163237035143
30
0
41
1
10
31.5903309748307
20
14.5219282456636
30
0
41
1
10
31.5752150014688
20
14.5310758420371
30
0
41
1
10
31.567808263291
20
14.5345413709489
30
0
41
1
10
31.5541074431752
20
14.5383181156671
30
0
41
1
10
31.5479040735975
20
14.5385925023582
30
0
41
1
10
31.5373699622982
20
14.5357904907594
30
0
41
1
10
31.5332138313417
20
14.532825207766
30
0
41
1
10
31.5234244585301
20
14.52014194122
30
0
41
1
10
31.520891479662
20
14.5072078372263
30
0
41
1
10
31.5201926535017
20
14.4789157426782
30
0
41
1
10
31.5219655798816
20
14.4633166237993
30
0
41
1
10
31.5312522763401
20
14.4137784840492
30
0
41
1
10
31.5425200942079
20
14.3781366276164
30
0
41
1
10
31.5702156333429
20
14.3062248876231
30
0
41
1
10
31.5866797204593
20
14.2699815629601
30
0
41
1
10
31.6055
20
14.2334897125276
30
0
0
SPLINE
5
14A
100
AcDbEntity
8
1
62
256
6
ByLayer
370
18
48
1
60
0
100
AcDbSpline
70
4
71
3
72
8
73
4
40
0
40
0
40
0
40
0
40
1
40
1
40
1
40
1
41
1
10
32.2495
20
13.9767752987127
30
0
41
1
10
32.0348720691877
20
14.1546049768551
30
0
41
1
10
31.8202039791954
20
14.3323700434185
30
0
41
1
10
31.6055
20
14.5100772776498
30
0
0
SPLINE
5
14B
100
AcDbEntity
8
1
62
256
6
ByLayer
370
18
48
1
60
0
100
AcDbSpline
70
4
71
3
72
14
73
10
40
0
40
0
40
0
40
0
40
0.25
40
0.25
40
0.5
40
0.5
40
0.75
40
0.75
40
1
40
1
40
1
40
1
41
1
10
32.2495
20
13.9767752987124
30
0
41
1
10
32.2597330229031
20
13.9682967416001
30
0
41
1
10
32.2702346636054
20
13.9611039699823
30
0
41
1
10
32.289965723692
20
13.9523389980604
30
0
41
1
10
32.2990953847833
20
13.9510252133539
30
0
41
1
10
32.31290217886
20
13.9555071749107
30
0
41
1
10
32.3176394355067
20
13.9611014471509
30
0
41
1
10
32.3233787738377
20
13.9757839108189
30
0
41
1
10
32.3245000000044
20
13.9848636445606
30
0
41
1
10
32.3245000000043
20
13.9946525728915
30
0
0
SPLINE
5
14C
100
AcDbEntity
8
1
62
256
6
ByLayer
370
18
48
1
60
0
100
AcDbSpline
70
4
71
3
72
12
73
8
40
0
40
0
40
0
40
0
40
0.249999999999998
40
0.249999999999998
40
0.499999999999995
40
0.499999999999995
40
1
40
1
40
1
40
1
41
1
10
32.3245000000068
20
14.1775976034331
30
0
41
1
10
32.3245000000062
20
14.1924378510664
30
0
41
1
10
32.3218101058425
20
14.2092659533737
30
0
41
1
10
32.3135026485538
20
14.2438881515721
30
0
41
1
10
32.3078290051662
20
14.2618847017252
30
0
41
1
10
32.2874766500648
20
14.3171419602466
30
0
41
1
10
32.2700729926385
20
14.3543885787198
30
0
41
1
10
32.2495
20
14.3919878841886
30
0
0
SPLINE
5
14D
100
AcDbEntity
8
1
62
256
6
ByLayer
370
18
48
1
60
0
100
AcDbSpline
70
4
71
3
72
8
73
4
40
0
40
0
40
0
40
0
40
1
40
1
40
1
40
1
41
1
10
31.6055
20
15.5333158840139
30
0
41
1
10
31.8246182466614
20
15.1562223165521
30
0
41
1
10
32.0394393316015
20
14.7758958248991
30
0
41
1
10
32.2495
20
14.3919878841886
30
0
0
SPLINE
5
14E
100
AcDbEntity
8
1
62
256
6
ByLayer
370
18
48
1
60
0
100
AcDbSpline
70
4
71
3
72
20
73
16
40
0
40
0
40
0
40
0
40
0.125000000000023
40
0.125000000000023
40
0.187500000000032
40
0.187500000000032
40
0.250000000000041
40
0.250000000000041
40
0.375000000000037
40
0.375000000000037
40
0.500000000000034
40
0.500000000000034
40
0.750000000000013
40
0.750000000000013
40
1
40
1
40
1
40
1
41
1
10
31.6055
20
15.7591455874816
30
0
41
1
10
31.5912412099917
20
15.7707955390167
30
0
41
1
10
31.5768820097358
20
15.7804531729583
30
0
41
1
10
31.5574184338992
20
15.788465770257
30
0
41
1
10
31.55141786387
20
15.7899919676717
30
0
41
1
10
31.540736957698
20
15.7903960135115
30
0
41
1
10
31.536294750605
20
15.789278403277
30
0
41
1
10
31.5253975583987
20
15.7823442394068
30
0
41
1
10
31.521806464736
20
15.77297526137
30
0
41
1
10
31.5198177849194
20
15.7505443210121
30
0
41
1
10
31.5212007233627
20
15.7375040508776
30
0
41
1
10
31.5298415453329
20
15.6949118150192
30
0
41
1
10
31.5413348811657
20
15.663103963605
30
0
41
1
10
31.5695088592519
20
15.598922252976
30
0
41
1
10
31.5863155531056
20
15.5663315348299
30
0
41
1
10
31.6055
20
15.5333158840139
30
0
0
SPLINE
5
14F
100
AcDbEntity
8
1
62
256
6
ByLayer
370
18
48
1
60
0
100
AcDbSpline
70
4
71
3
72
8
73
4
40
0
40
0
40
0
40
0
40
1
40
1
40
1
40
1
41
1
10
32.2495
20
15.2329620912908
30
0
41
1
10
32.0348350239476
20
15.4083593488627
30
0
41
1
10
31.8201683008329
20
15.5837537555398
30
0
41
1
10
31.6055
20
15.7591455874816
30
0
0
SPLINE
5
150
100
AcDbEntity
8
1
62
256
6
ByLayer
370
18
48
1
60
0
100
AcDbSpline
70
4
71
3
72
14
73
10
40
0
40
0
40
0
40
0
40
0.25
40
0.25
40
0.5
40
0.5
40
0.75
40
0.75
40
1
40
1
40
1
40
1
41
1
10
32.2495
20
15.2329620912907
30
0
41
1
10
32.2595754747045
20
15.224729678792
30
0
41
1
10
32.2696634917799
20
15.2176576935563
30
0
41
1
10
32.2887340686952
20
15.2077835490402
30
0
41
1
10
32.2976723684017
20
15.2051360238348
30
0
41
1
10
32.3117771625899
20
15.2060335303122
30
0
41
1
10
32.3169055323747
20
15.2095373596982
30
0
41
1
10
32.3231989538685
20
15.2205854056194
30
0
41
1
10
32.3245000000012
20
15.228127808386
30
0
41
1
10
32.3245000000012
20
15.2365834598277
30
0
0
SPLINE
5
151
100
AcDbEntity
8
1
62
256
6
ByLayer
370
18
48
1
60
0
100
AcDbSpline
70
4
71
3
72
12
73
8
40
0
40
0
40
0
40
0
40
0.250000000000003
40
0.250000000000003
40
0.500000000000006
40
0.500000000000006
40
1
40
1
40
1
40
1
41
1
10
32.3245000000034
20
15.3850933995421
30
0
41
1
10
32.3245000000031
20
15.3970787264872
30
0
41
1
10
32.3218148236824
20
15.4112191757296
30
0
41
1
10
32.3134329178871
20
15.440781483875
30
0
41
1
10
32.307644159211
20
15.4564966194783
30
0
41
1
10
32.2872039700729
20
15.5044683083614
30
0
41
1
10
32.2698428653544
20
15.5371366987856
30
0
41
1
10
32.2495
20
15.5703702247132
30
0
0
SPLINE
5
152
100
AcDbEntity
8
1
62
256
6
ByLayer
370
18
48
1
60
0
100
AcDbSpline
70
4
71
3
72
8
73
4
40
0
40
0
40
0
40
0
40
1
40
1
40
1
40
1
41
1
10
31.6055
20
16.5974568928041
30
0
41
1
10
31.8234311235556
20
16.2578238253877
30
0
41
1
10
32.0382071317381
20
15.9155530145199
30
0
41
1
10
32.2495
20
15.5703702247132
30
0
0
SPLINE
5
153
100
AcDbEntity
8
1
62
256
6
ByLayer
370
18
48
1
60
0
100
AcDbSpline
70
4
71
3
72
22
73
18
40
0
40
0
40
0
40
0
40
0.125000000000037
40
0.125000000000037
40
0.187500000000037
40
0.187500000000037
40
0.250000000000037
40
0.250000000000037
40
0.312500000000037
40
0.312500000000037
40
0.375000000000038
40
0.375000000000038
40
0.500000000000028
40
0.500000000000028
40
0.750000000000014
40
0.750000000000014
40
1
40
1
40
1
40
1
41
1
10
31.6055
20
16.7826993267326
30
0
41
1
10
31.5919745228994
20
16.79377410663
30
0
41
1
10
31.5785728919488
20
16.8032351891506
30
0
41
1
10
31.5600728324478
20
16.8127399031511
30
0
41
1
10
31.5542464597728
20
16.8150706091348
30
0
41
1
10
31.5437822549354
20
16.8176552021779
30
0
41
1
10
31.5390803570253
20
16.8178985994964
30
0
41
1
10
31.5314043088806
20
16.8162564980175
30
0
41
1
10
31.5283069146796
20
16.814376925707
30
0
41
1
10
31.5236849638678
20
16.8087898475587
30
0
41
1
10
31.5221857379061
20
16.8051654829402
30
0
41
1
10
31.5196474365467
20
16.792280964629
30
0
41
1
10
31.5206044294397
20
16.7813013056084
30
0
41
1
10
31.5284300061337
20
16.7448847871389
30
0
41
1
10
31.5400814481016
20
16.7161474341274
30
0
41
1
10
31.5688013884062
20
16.6577627074369
30
0
41
1
10
31.5859730146255
20
16.6278885715471
30
0
41
1
10
31.6055
20
16.5974568928041
30
0
0
SPLINE
5
154
100
AcDbEntity
8
1
62
256
6
ByLayer
370
18
48
1
60
0
100
AcDbSpline
70
4
71
3
72
8
73
4
40
0
40
0
40
0
40
0
40
1
40
1
40
1
40
1
41
1
10
32.2495
20
16.2553382123749
30
0
41
1
10
32.0348401170212
20
16.4311362953957
30
0
41
1
10
31.8201732371937
20
16.6069229874503
30
0
41
1
10
31.6055
20
16.7826993267326
30
0
0
SPLINE
5
155
100
AcDbEntity
8
1
62
256
6
ByLayer
370
18
48
1
60
0
100
AcDbSpline
70
4
71
3
72
14
73
10
40
0
40
0
40
0
40
0
40
0.25
40
0.25
40
0.5
40
0.5
40
0.75
40
0.75
40
1
40
1
40
1
40
1
41
1
10
32.2495
20
16.2553382123748
30
0
41
1
10
32.2593988680458
20
16.2472314250126
30
0
41
1
10
32.2692232297387
20
16.2400961103482
30
0
41
1
10
32.2879744187915
20
16.2291854674856
30
0
41
1
10
32.2967314342812
20
16.2256010647453
30
0
41
1
10
32.3108522464072
20
16.2237352895698
30
0
41
1
10
32.3162924651551
20
16.2254991105443
30
0
41
1
10
32.3230201101131
20
16.2333581500304
30
0
41
1
10
32.3245000000004
20
16.2394805992425
30
0
41
1
10
32.3245000000004
20
16.2467427634159
30
0
0
SPLINE
5
156
100
AcDbEntity
8
1
62
256
6
ByLayer
370
18
48
1
60
0
100
AcDbSpline
70
4
71
3
72
12
73
8
40
0
40
0
40
0
40
0
40
0.249999999999997
40
0.249999999999997
40
0.499999999999994
40
0.499999999999994
40
1
40
1
40
1
40
1
41
1
10
32.324500000009
20
16.3675876053922
30
0
41
1
10
32.3245000000084
20
16.3772221576382
30
0
41
1
10
32.3218736994013
20
16.3890583159479
30
0
41
1
10
32.3134493924229
20
16.4145929308426
30
0
41
1
10
32.3076705406041
20
16.4282616213631
30
0
41
1
10
32.2870412716419
20
16.4708624306539
30
0
41
1
10
32.2696463919063
20
16.5001337171809
30
0
41
1
10
32.2495
20
16.5300799335829
30
0
0
SPLINE
5
157
100
AcDbEntity
8
1
62
256
6
ByLayer
370
18
48
1
60
0
100
AcDbSpline
70
4
71
3
72
8
73
4
40
0
40
0
40
0
40
0
40
1
40
1
40
1
40
1
41
1
10
31.6055
20
17.4690368442115
30
0
41
1
10
31.8226281001308
20
17.1583021627902
30
0
41
1
10
32.0373746492063
20
16.845389577551
30
0
41
1
10
32.2495
20
16.5300799335829
30
0
0
SPLINE
5
158
100
AcDbEntity
8
1
62
256
6
ByLayer
370
18
48
1
60
0
100
AcDbSpline
70
4
71
3
72
22
73
18
40
0
40
0
40
0
40
0
40
0.124999999999984
40
0.124999999999984
40
0.249999999999968
40
0.249999999999968
40
0.312499999999964
40
0.312499999999964
40
0.374999999999961
40
0.374999999999961
40
0.499999999999974
40
0.499999999999974
40
0.624999999999987
40
0.624999999999987
40
0.75
40
0.75
40
1
40
1
40
1
40
1
41
1
10
31.6055
20
17.6200829661946
30
0
41
1
10
31.5925334988623
20
17.6308327834681
30
0
41
1
10
31.5797531930941
20
17.6402864467316
30
0
41
1
10
31.5562544517051
20
17.654302916153
30
0
41
1
10
31.5454908274749
20
17.6587687434616
30
0
41
1
10
31.5334892269528
20
17.6596867674202
30
0
41
1
10
31.530205563054
20
17.6590766548954
30
0
41
1
10
31.5250177333854
20
17.6560886458349
30
0
41
1
10
31.5231561197148
20
17.653697451913
30
0
41
1
10
31.519717166478
20
17.6445192588561
30
0
41
1
10
31.5201814178571
20
17.6355833444457
30
0
41
1
10
31.5247925885223
20
17.6150938819369
30
0
41
1
10
31.528964218601
20
17.6033152733689
30
0
41
1
10
31.5395772269018
20
17.5786246428309
30
0
41
1
10
31.5461275380489
20
17.5654512705205
30
0
41
1
10
31.5681084752691
20
17.5251641327108
30
0
41
1
10
31.5856544550338
20
17.4974380464925
30
0
41
1
10
31.6055
20
17.4690368442115
30
0
0
SPLINE
5
159
100
AcDbEntity
8
1
62
256
6
ByLayer
370
18
48
1
60
0
100
AcDbSpline
70
4
71
3
72
8
73
4
40
0
40
0
40
0
40
0
40
1
40
1
40
1
40
1
41
1
10
32.2495
20
17.0859271543189
30
0
41
1
10
32.0348686848346
20
17.2640359061465
30
0
41
1
10
31.8202009468254
20
17.4420861479081
30
0
41
1
10
31.6055
20
17.6200829661946
30
0
0
SPLINE
5
15A
100
AcDbEntity
8
1
62
256
6
ByLayer
370
18
48
1
60
0
100
AcDbSpline
70
4
71
3
72
14
73
10
40
0
40
0
40
0
40
0
40
0.25
40
0.25
40
0.5
40
0.5
40
0.75
40
0.75
40
1
40
1
40
1
40
1
41
1
10
32.2495
20
17.0859271543188
30
0
41
1
10
32.259305222304
20
17.0777904297006
30
0
41
1
10
32.268941650508
20
17.070512356637
30
0
41
1
10
32.2873727965176
20
17.0586762048217
30
0
41
1
10
32.2959647459641
20
17.0543030091875
30
0
41
1
10
32.3101526926038
20
17.0501419836255
30
0
41
1
10
32.3157692403822
20
17.0504143348533
30
0
41
1
10
32.3228710110818
20
17.05544827789
30
0
41
1
10
32.3245000000001
20
17.0602107169181
30
0
41
1
10
32.3245000000001
20
17.0663360248446
30
0
0
SPLINE
5
15B
100
AcDbEntity
8
1
62
256
6
ByLayer
370
18
48
1
60
0
100
AcDbSpline
70
4
71
3
72
12
73
8
40
0
40
0
40
0
40
0
40
0.250000000000004
40
0.250000000000004
40
0.500000000000007
40
0.500000000000007
40
1
40
1
40
1
40
1
41
1
10
32.3245000000014
20
17.1637626739618
30
0
41
1
10
32.3245000000014
20
17.1715373958858
30
0
41
1
10
32.3219119832026
20
17.1813988967017
30
0
41
1
10
32.3134329614606
20
17.2035631073316
30
0
41
1
10
32.3076482942255
20
17.2155633646174
30
0
41
1
10
32.2869260374197
20
17.2535669467308
30
0
41
1
10
32.2694532524701
20
17.2802033455515
30
0
41
1
10
32.2495
20
17.3075317791603
30
0
0
SPLINE
5
15C
100
AcDbEntity
8
1
62
256
6
ByLayer
370
18
48
1
60
0
100
AcDbSpline
70
4
71
3
72
8
73
4
40
0
40
0
40
0
40
0
40
1
40
1
40
1
40
1
41
1
10
31.6055
20
18.1757784213042
30
0
41
1
10
31.8220560392467
20
17.8882313992869
30
0
41
1
10
32.0367823196005
20
17.598874807819
30
0
41
1
10
32.2495
20
17.3075317791603
30
0
0
SPLINE
5
15D
100
AcDbEntity
8
1
62
256
6
ByLayer
370
18
48
1
60
0
100
AcDbSpline
70
4
71
3
72
22
73
18
40
0
40
0
40
0
40
0
40
0.125000000000009
40
0.125000000000009
40
0.250000000000019
40
0.250000000000019
40
0.312500000000013
40
0.312500000000013
40
0.375000000000007
40
0.375000000000007
40
0.500000000000002
40
0.500000000000002
40
0.624999999999997
40
0.624999999999997
40
0.749999999999992
40
0.749999999999992
40
1
40
1
40
1
40
1
41
1
10
31.6055
20
18.2968754376164
30
0
41
1
10
31.592993500049
20
18.3074523250384
30
0
41
1
10
31.5807062764317
20
18.3169884662057
30
0
41
1
10
31.558138730979
20
18.3320952215856
30
0
41
1
10
31.5477275950539
20
18.3377169168032
30
0
41
1
10
31.5354434931644
20
18.3413685698684
30
0
41
1
10
31.5319682827651
20
18.3417770780818
30
0
41
1
10
31.5263821989246
20
18.3409817366965
30
0
41
1
10
31.5242299754903
20
18.3397516724482
30
0
41
1
10
31.5199462725363
20
18.3338790234322
30
0
41
1
10
31.5198997335545
20
18.3270135233085
30
0
41
1
10
31.5238716179545
20
18.3100249021396
30
0
41
1
10
31.5278862228095
20
18.299761289305
30
0
41
1
10
31.5384305992329
20
18.2776904215159
30
0
41
1
10
31.5449915632617
20
18.2657814976337
30
0
41
1
10
31.5674181822309
20
18.228501555755
30
0
41
1
10
31.5853406471265
20
18.2025463743235
30
0
41
1
10
31.6055
20
18.1757784213042
30
0
0
SPLINE
5
15E
100
AcDbEntity
8
1
62
256
6
ByLayer
370
18
48
1
60
0
100
AcDbSpline
70
4
71
3
72
8
73
4
40
0
40
0
40
0
40
0
40
1
40
1
40
1
40
1
41
1
10
32.2495
20
17.7516701480928
30
0
41
1
10
32.0349138148107
20
17.9335319303368
30
0
41
1
10
31.8202447540081
20
18.11526338816
30
0
41
1
10
31.6055
20
18.2968754376164
30
0
0
SPLINE
5
15F
100
AcDbEntity
8
1
62
256
6
ByLayer
370
18
48
1
60
0
100
AcDbSpline
70
4
71
3
72
14
73
10
40
0
40
0
40
0
40
0
40
0.25
40
0.25
40
0.5
40
0.5
40
0.75
40
0.75
40
1
40
1
40
1
40
1
41
1
10
32.2495
20
17.7516701480928
30
0
41
1
10
32.2592472411427
20
17.7434093616651
30
0
41
1
10
32.2687842391549
20
17.7358911180699
30
0
41
1
10
32.2869426760121
20
17.7231617994199
30
0
41
1
10
32.2954011977379
20
17.7180938406677
30
0
41
1
10
32.3096003699559
20
17.7119377182011
30
0
41
1
10
32.3153326448495
20
17.7109091615286
30
0
41
1
10
32.3227326686985
20
17.7133385198427
30
0
41
1
10
32.3245
20
17.7167960692811
30
0
41
1
10
32.3245
20
17.7218227111435
30
0
0
SPLINE
5
160
100
AcDbEntity
8
1
62
256
6
ByLayer
370
18
48
1
60
0
100
AcDbSpline
70
4
71
3
72
14
73
10
40
0
40
0
40
0
40
0
40
0.25
40
0.25
40
0.5
40
0.5
40
0.75
40
0.75
40
1
40
1
40
1
40
1
41
1
10
32.3245
20
17.7986396737458
30
0
41
1
10
32.3245
20
17.8046677602699
30
0
41
1
10
32.3219585951293
20
17.8129038412025
30
0
41
1
10
32.31345050483
20
17.8320919898525
30
0
41
1
10
32.3076457024702
20
17.8426975094091
30
0
41
1
10
32.2938160716918
20
17.8653586799415
30
0
41
1
10
32.2858454453667
20
17.8772918268094
30
0
41
1
10
32.2686722258868
20
17.9014801599266
30
0
41
1
10
32.2593984893985
20
17.9138435403137
30
0
41
1
10
32.2495
20
17.9264544727241
30
0
0
SPLINE
5
161
100
AcDbEntity
8
1
62
256
6
ByLayer
370
18
48
1
60
0
100
AcDbSpline
70
4
71
3
72
8
73
4
40
0
40
0
40
0
40
0
40
1
40
1
40
1
40
1
41
1
10
31.6055
20
18.7363442052146
30
0
41
1
10
31.8216327980189
20
18.46793539229
30
0
41
1
10
32.036344592726
20
18.1980199940686
30
0
41
1
10
32.2495
20
17.9264544727241
30
0
0
SPLINE
5
162
100
AcDbEntity
8
1
62
256
6
ByLayer
370
18
48
1
60
0
100
AcDbSpline
70
4
71
3
72
22
73
18
40
0
40
0
40
0
40
0
40
0.124999999999985
40
0.124999999999985
40
0.24999999999997
40
0.24999999999997
40
0.312499999999977
40
0.312499999999977
40
0.374999999999984
40
0.374999999999984
40
0.49999999999998
40
0.49999999999998
40
0.624999999999975
40
0.624999999999975
40
0.749999999999971
40
0.749999999999971
40
1
40
1
40
1
40
1
41
1
10
31.6055
20
18.8304003628101
30
0
41
1
10
31.5933808080385
20
18.8409166748025
30
0
41
1
10
31.5815029684041
20
18.850599351319
30
0
41
1
10
31.5596939458029
20
18.8666789353283
30
0
41
1
10
31.5495221623781
20
18.8732288666946
30
0
41
1
10
31.5372715379926
20
18.8790458665807
30
0
41
1
10
31.5336365800474
20
18.8803378471185
30
0
41
1
10
31.5277224198726
20
18.8814041831677
30
0
41
1
10
31.5253901081671
20
18.8812105482548
30
0
41
1
10
31.5203187268387
20
18.8783850311454
30
0
41
1
10
31.5197486324504
20
18.8735609996964
30
0
41
1
10
31.5230392710006
20
18.8599134489843
30
0
41
1
10
31.5268401757407
20
18.8511757274978
30
0
41
1
10
31.5373010855982
20
18.8315374121518
30
0
41
1
10
31.5438699092401
20
18.8207762383678
30
0
41
1
10
31.5666469913103
20
18.7863364356785
30
0
41
1
10
31.5850228332094
20
18.7617741819729
30
0
41
1
10
31.6055
20
18.7363442052146
30
0
0
SPLINE
5
163
100
AcDbEntity
8
1
62
256
6
ByLayer
370
18
48
1
60
0
100
AcDbSpline
70
4
71
3
72
8
73
4
40
0
40
0
40
0
40
0
40
1
40
1
40
1
40
1
41
1
10
32.2495
20
18.2705960321683
30
0
41
1
10
32.0349733553287
20
18.4574120577276
30
0
41
1
10
31.8203025465447
20
18.6440075237985
30
0
41
1
10
31.6055
20
18.8304003628101
30
0
0
SPLINE
5
164
100
AcDbEntity
8
1
62
256
6
ByLayer
370
18
48
1
60
0
100
AcDbSpline
70
4
71
3
72
14
73
10
40
0
40
0
40
0
40
0
40
0.25
40
0.25
40
0.5
40
0.5
40
0.75
40
0.75
40
1
40
1
40
1
40
1
41
1
10
32.2495
20
18.2705960321683
30
0
41
1
10
32.2592295119835
20
18.2621232908817
30
0
41
1
10
32.2688025775434
20
18.2542265447333
30
0
41
1
10
32.2866018633678
20
18.2406968240446
30
0
41
1
10
32.2949542474703
20
18.2349725137476
30
0
41
1
10
32.309141149508
20
18.2269970357157
30
0
41
1
10
32.3149572318672
20
18.2247944411961
30
0
41
1
10
32.3226030338568
20
18.2247762044744
30
0
41
1
10
32.3245
20
18.2269651603499
30
0
41
1
10
32.3245
20
18.2309126238237
30
0
0
SPLINE
5
165
100
AcDbEntity
8
1
62
256
6
ByLayer
370
18
48
1
60
0
100
AcDbSpline
70
4
71
3
72
14
73
10
40
0
40
0
40
0
40
0
40
0.25
40
0.25
40
0.5
40
0.5
40
0.75
40
0.75
40
1
40
1
40
1
40
1
41
1
10
32.3245
20
18.2890240128757
30
0
41
1
10
32.3245
20
18.2934918735213
30
0
41
1
10
32.3219923463417
20
18.3002811047651
30
0
41
1
10
32.313542185526
20
18.3166495690633
30
0
41
1
10
32.3076717384724
20
18.326113517657
30
0
41
1
10
32.2938197835888
20
18.3464514484414
30
0
41
1
10
32.285784157645
20
18.3573907805796
30
0
41
1
10
32.2685852242044
20
18.3796566607554
30
0
41
1
10
32.2593328298394
20
18.3911096182016
30
0
41
1
10
32.2495
20
18.4028498781752
30
0
0
SPLINE
5
166
100
AcDbEntity
8
1
62
256
6
ByLayer
370
18
48
1
60
0
100
AcDbSpline
70
4
71
3
72
8
73
4
40
0
40
0
40
0
40
0
40
1
40
1
40
1
40
1
41
1
10
31.6055
20
19.163566138175
30
0
41
1
10
31.8213104962892
20
18.9112851613349
30
0
41
1
10
32.0360116289069
20
18.6577519784765
30
0
41
1
10
32.2495
20
18.4028498781752
30
0
0
SPLINE
5
167
100
AcDbEntity
8
1
62
256
6
ByLayer
370
18
48
1
60
0
100
AcDbSpline
70
4
71
3
72
22
73
18
40
0
40
0
40
0
40
0
40
0.125
40
0.125
40
0.25
40
0.25
40
0.375
40
0.375
40
0.5
40
0.5
40
0.625
40
0.625
40
0.75
40
0.75
40
0.875
40
0.875
40
1
40
1
40
1
40
1
41
1
10
31.6055
20
19.232584456276
30
0
41
1
10
31.5937391002439
20
19.2431060346604
30
0
41
1
10
31.5822425516907
20
19.2529637034773
30
0
41
1
10
31.5610044894119
20
19.2700210168543
30
0
41
1
10
31.551171313917
20
19.2772898909988
30
0
41
1
10
31.5348594546792
20
19.287508216025
30
0
41
1
10
31.5284482392082
20
19.2903652507063
30
0
41
1
10
31.5209227239676
20
19.2903897893651
30
0
41
1
10
31.5197485987882
20
19.2875543836234
30
0
41
1
10
31.5222241743893
20
19.277369159435
30
0
41
1
10
31.5257825078704
20
19.2700835318898
30
0
41
1
10
31.5360083026821
20
19.2529765435597
30
0
41
1
10
31.542700715944
20
19.2431003754386
30
0
41
1
10
31.5579277503396
20
19.2221399537162
30
0
41
1
10
31.566628668
20
19.2108285302577
30
0
41
1
10
31.5851924552514
20
19.1876523821414
30
0
41
1
10
31.595079721552
20
19.1757473715766
30
0
41
1
10
31.6055
20
19.1635661381751
30
0
0
SPLINE
5
168
100
AcDbEntity
8
1
62
256
6
ByLayer
370
18
48
1
60
0
100
AcDbSpline
70
4
71
3
72
8
73
4
40
0
40
0
40
0
40
0
40
1
40
1
40
1
40
1
41
1
10
32.2495
20
18.654960886978
30
0
41
1
10
32.0350473703234
20
18.8478202535533
30
0
41
1
10
31.8203746839424
20
19.0403524947096
30
0
41
1
10
31.6055
20
19.232584456276
30
0
0
SPLINE
5
169
100
AcDbEntity
8
1
62
256
6
ByLayer
370
18
48
1
60
0
100
AcDbSpline
70
4
71
3
72
14
73
10
40
0
40
0
40
0
40
0
40
0.25
40
0.25
40
0.5
40
0.5
40
0.75
40
0.75
40
1
40
1
40
1
40
1
41
1
10
32.2495
20
18.654960886978
30
0
41
1
10
32.2592159985016
20
18.646223193626
30
0
41
1
10
32.2687261650705
20
18.6379823211317
30
0
41
1
10
32.2863466387967
20
18.6235082432094
30
0
41
1
10
32.2946257999411
20
18.6171378972796
30
0
41
1
10
32.3087737819881
20
18.6074583306913
30
0
41
1
10
32.3146448825017
20
18.6041706494088
30
0
41
1
10
32.3224850003474
20
18.6018182843393
30
0
41
1
10
32.3245
20
18.6027592296193
30
0
41
1
10
32.3245
20
18.6056268367875
30
0
0
SPLINE
5
16A
100
AcDbEntity
8
1
62
256
6
ByLayer
370
18
48
1
60
0
100
AcDbSpline
70
4
71
3
72
14
73
10
40
0
40
0
40
0
40
0
40
0.25
40
0.25
40
0.5
40
0.5
40
0.75
40
0.75
40
1
40
1
40
1
40
1
41
1
10
32.3245
20
18.6463193271823
30
0
41
1
10
32.3245
20
18.6493536764683
30
0
41
1
10
32.3220340114651
20
18.6547938153032
30
0
41
1
10
32.3136941357516
20
18.6685224069777
30
0
41
1
10
32.3077590882458
20
18.6769402543422
30
0
41
1
10
32.2939317352526
20
18.6951434737655
30
0
41
1
10
32.2858752775872
20
18.7051515681115
30
0
41
1
10
32.2685537467017
20
18.7258583546616
30
0
41
1
10
32.2592867142816
20
18.7365681993686
30
0
41
1
10
32.2495
20
18.7475864397169
30
0
0
SPLINE
5
16B
100
AcDbEntity
8
1
62
256
6
ByLayer
370
18
48
1
60
0
100
AcDbSpline
70
4
71
3
72
8
73
4
40
0
40
0
40
0
40
0
40
1
40
1
40
1
40
1
41
1
10
31.6055
20
19.4662256251216
30
0
41
1
10
31.8210594377484
20
19.2277459581948
30
0
41
1
10
32.0357525342202
20
18.9882311427327
30
0
41
1
10
32.2495
20
18.7475864397169
30
0
0
SPLINE
5
16C
100
AcDbEntity
8
1
62
256
6
ByLayer
370
18
48
1
60
0
100
AcDbSpline
70
4
71
3
72
22
73
18
40
0
40
0
40
0
40
0
40
0.250000000000002
40
0.250000000000002
40
0.312500000000002
40
0.312500000000002
40
0.375000000000002
40
0.375000000000002
40
0.500000000000002
40
0.500000000000002
40
0.625000000000001
40
0.625000000000001
40
0.750000000000001
40
0.750000000000001
40
0.875
40
0.875
40
1
40
1
40
1
40
1
41
1
10
31.6055
20
19.5115512430934
30
0
41
1
10
31.582537997433
20
19.5328190622729
30
0
41
1
10
31.5607535476664
20
19.5519654120075
30
0
41
1
10
31.5404048884699
20
19.5674556705879
30
0
41
1
10
31.5367592237662
20
19.5700669054193
30
0
41
1
10
31.5304144574532
20
19.574200409037
30
0
41
1
10
31.5277190447527
20
19.5757123360829
30
0
41
1
10
31.521544858164
20
19.5782568081098
30
0
41
1
10
31.5198761092045
20
19.5773008110934
30
0
41
1
10
31.521565633523
20
19.5705019246575
30
0
41
1
10
31.5248695785995
20
19.5646759138372
30
0
41
1
10
31.5348644937965
20
19.5500522686143
30
0
41
1
10
31.5416097334609
20
19.5411548521571
30
0
41
1
10
31.5570551246182
20
19.521869396227
30
0
41
1
10
31.5659412283818
20
19.5112472832549
30
0
41
1
10
31.5848489615513
20
19.4893103171526
30
0
41
1
10
31.5949114395793
20
19.4779400570609
30
0
41
1
10
31.6055
20
19.4662256251216
30
0
0
SPLINE
5
16D
100
AcDbEntity
8
1
62
256
6
ByLayer
370
18
48
1
60
0
100
AcDbSpline
70
4
71
3
72
8
73
4
40
0
40
0
40
0
40
0
40
1
40
1
40
1
40
1
41
1
10
32.2495
20
18.9129704705177
30
0
41
1
10
32.0351378607353
20
19.1129342405493
30
0
41
1
10
31.8204626786589
20
19.31244894935
30
0
41
1
10
31.6055
20
19.5115512430934
30
0
0
SPLINE
5
16E
100
AcDbEntity
8
1
62
256
6
ByLayer
370
18
48
1
60
0
100
AcDbSpline
70
4
71
3
72
14
73
10
40
0
40
0
40
0
40
0
40
0.25
40
0.25
40
0.5
40
0.5
40
0.75
40
0.75
40
1
40
1
40
1
40
1
41
1
10
32.2495
20
18.9129704705177
30
0
41
1
10
32.2592181581407
20
18.903905065842
30
0
41
1
10
32.2686645692863
20
18.8952835726591
30
0
41
1
10
32.2861495352743
20
18.8797984618444
30
0
41
1
10
32.2943752214035
20
18.8727705037188
30
0
41
1
10
32.3084746373257
20
18.8614390573629
30
0
41
1
10
32.3143816471265
20
18.8571198467058
30
0
41
1
10
32.3223777513261
20
18.8525031712641
30
0
41
1
10
32.3245
20
18.8522049260041
30
0
41
1
10
32.3245
20
18.8539790198802
30
0
0
SPLINE
5
16F
100
AcDbEntity
8
1
62
256
6
ByLayer
370
18
48
1
60
0
100
AcDbSpline
70
4
71
3
72
14
73
10
40
0
40
0
40
0
40
0
40
0.25
40
0.25
40
0.5
40
0.5
40
0.75
40
0.75
40
1
40
1
40
1
40
1
41
1
10
32.3245
20
18.8780838423543
30
0
41
1
10
32.3245
20
18.8798173955346
30
0
41
1
10
32.3221013638943
20
18.8839223696908
30
0
41
1
10
32.3138032295433
20
18.8952982718544
30
0
41
1
10
32.3078502165317
20
18.9026622738455
30
0
41
1
10
32.2939510937763
20
18.9190232687972
30
0
41
1
10
32.2858335791893
20
18.928226363608
30
0
41
1
10
32.2684939445531
20
18.9474193398036
30
0
41
1
10
32.2592424533952
20
18.9574479050799
30
0
41
1
10
32.2495
20
18.9678441313361
30
0
0
SPLINE
5
170
100
AcDbEntity
8
1
62
256
6
ByLayer
370
18
48
1
60
0
100
AcDbSpline
70
4
71
3
72
8
73
4
40
0
40
0
40
0
40
0
40
1
40
1
40
1
40
1
41
1
10
31.6055
20
19.6500792121576
30
0
41
1
10
31.8208603034311
20
19.4235405354009
30
0
41
1
10
32.0355472223686
20
19.1961543314658
30
0
41
1
10
32.2495
20
18.9678441313361
30
0
0
SPLINE
5
171
100
AcDbEntity
8
1
62
256
6
ByLayer
370
18
48
1
60
0
100
AcDbSpline
70
4
71
3
72
20
73
16
40
0
40
0
40
0
40
0
40
0.249999999999993
40
0.249999999999993
40
0.374999999999994
40
0.374999999999994
40
0.499999999999995
40
0.499999999999995
40
0.624999999999996
40
0.624999999999996
40
0.749999999999998
40
0.749999999999998
40
0.874999999999999
40
0.874999999999999
40
1
40
1
40
1
40
1
41
1
10
31.6055
20
19.67254327625
30
0
41
1
10
31.5829955316989
20
19.6942074323789
30
0
41
1
10
31.561880388332
20
19.7140674209438
30
0
41
1
10
31.5377038374728
20
19.7354993425979
30
0
41
1
10
31.5310440689488
20
19.7411000824371
30
0
41
1
10
31.5222396270613
20
19.7475810523313
30
0
41
1
10
31.5201181022848
20
19.748419125623
30
0
41
1
10
31.5210016685143
20
19.7449974364367
30
0
41
1
10
31.5239889034552
20
19.7407194293516
30
0
41
1
10
31.5336948862717
20
19.7286365874095
30
0
41
1
10
31.5404694325865
20
19.7207454646148
30
0
41
1
10
31.5561288184669
20
19.703103159907
30
0
41
1
10
31.5652095623422
20
19.6931288968652
30
0
41
1
10
31.5844816839385
20
19.6723146861223
30
0
41
1
10
31.5947308174893
20
19.6614073739258
30
0
41
1
10
31.6055
20
19.6500792121576
30
0
0
SPLINE
5
172
100
AcDbEntity
8
1
62
256
6
ByLayer
370
18
48
1
60
0
100
AcDbSpline
70
4
71
3
72
8
73
4
40
0
40
0
40
0
40
0
40
1
40
1
40
1
40
1
41
1
10
32.2495
20
19.0497595350354
30
0
41
1
10
32.0352478964824
20
19.2579256967411
30
0
41
1
10
31.8205696375729
20
19.4655042942751
30
0
41
1
10
31.6055
20
19.67254327625
30
0
0
SPLINE
5
173
100
AcDbEntity
8
1
62
256
6
ByLayer
370
18
48
1
60
0
100
AcDbSpline
70
4
71
3
72
14
73
10
40
0
40
0
40
0
40
0
40
0.25
40
0.25
40
0.5
40
0.5
40
0.75
40
0.75
40
1
40
1
40
1
40
1
41
1
10
32.2495000000009
20
19.0497595350347
30
0
41
1
10
32.2592507620437
20
19.0402857484307
30
0
41
1
10
32.2685315644711
20
19.0313407515936
30
0
41
1
10
32.2859568314169
20
19.0147203145367
30
0
41
1
10
32.2941812361887
20
19.006972118358
30
0
41
1
10
32.308177764175
20
18.9940407991515
30
0
41
1
10
32.3141301132091
20
18.9886933373445
30
0
41
1
10
32.3222743165323
20
18.9818216055315
30
0
41
1
10
32.3245
20
18.9802755671428
30
0
41
1
10
32.3245
20
18.9809298975149
30
0
0
SPLINE
5
174
100
AcDbEntity
8
1
62
256
6
ByLayer
370
18
48
1
60
0
100
AcDbSpline
70
4
71
3
72
14
73
10
40
0
40
0
40
0
40
0
40
0.25
40
0.25
40
0.5
40
0.5
40
0.75
40
0.75
40
1
40
1
40
1
40
1
41
1
10
32.3245
20
18.988914520495
30
0
41
1
10
32.3245
20
18.9894247455032
30
0
41
1
10
32.322179475846
20
18.9922388158724
30
0
41
1
10
32.3139404238711
20
19.0013490604847
30
0
41
1
10
32.3079761818693
20
19.0077021283887
30
0
41
1
10
32.2940034076216
20
19.0223363275757
30
0
41
1
10
32.2858210468891
20
19.0308010647053
30
0
41
1
10
32.2684517336469
20
19.0486391867036
30
0
41
1
10
32.2592082059552
20
19.0580727111611
30
0
41
1
10
32.2495
20
19.0679370847154
30
0
0
SPLINE
5
175
100
AcDbEntity
8
1
62
256
6
ByLayer
370
18
48
1
60
0
100
AcDbSpline
70
4
71
3
72
8
73
4
40
0
40
0
40
0
40
0
40
1
40
1
40
1
40
1
41
1
10
31.6055
20
19.7184503955052
30
0
41
1
10
31.8207000524708
20
19.5023166855204
30
0
41
1
10
32.0353821421022
20
19.2854992733109
30
0
41
1
10
32.2495
20
19.0679370847154
30
0
0
SPLINE
5
176
100
AcDbEntity
8
1
62
256
6
ByLayer
370
18
48
1
60
0
100
AcDbSpline
70
4
71
3
72
18
73
14
40
0
40
0
40
0
40
0
40
0.0268664973493905
40
0.0268664973493905
40
0.134992442088347
40
0.134992442088347
40
0.35124433156626
40
0.35124433156626
40
0.567496221044174
40
0.567496221044174
40
0.783748110522087
40
0.783748110522087
40
1
40
1
40
1
40
1
41
1
10
31.5233330257684
20
19.8011428523437
30
0
41
1
10
31.5229595197096
20
19.801519512991
30
0
41
1
10
31.5226211085382
20
19.801860792974
30
0
41
1
10
31.5211007379348
20
19.8033940774065
30
0
41
1
10
31.5204830212339
20
19.8040171245136
30
0
41
1
10
31.5205350517556
20
19.8039646473564
30
0
41
1
10
31.523156705949
20
19.8013201205635
30
0
41
1
10
31.5325099783761
20
19.7918899641521
30
0
41
1
10
31.5392844828075
20
19.7850614653389
30
0
41
1
10
31.5551493578736
20
19.7690814809519
30
0
41
1
10
31.5644347870152
20
19.7597336572633
30
0
41
1
10
31.5840916007173
20
19.7399607665405
30
0
41
1
10
31.5945385189195
20
19.729459433587
30
0
41
1
10
31.6055
20
19.7184503955052
30
0
0
SPLINE
5
177
100
AcDbEntity
8
1
62
256
6
ByLayer
370
18
48
1
60
0
100
AcDbSpline
70
4
71
3
72
20
73
16
40
0
40
0
40
0
40
0
40
0.191943889271506
40
0.191943889271506
40
0.383887778543012
40
0.383887778543012
40
0.575831667814518
40
0.575831667814518
40
0.671803612450255
40
0.671803612450255
40
0.767775557085991
40
0.767775557085991
40
0.959719446357465
40
0.959719446357465
40
1
40
1
40
1
40
1
41
1
10
31.6055
20
-19.7184503955052
30
0
41
1
10
31.5944736150805
20
-19.729524619015
30
0
41
1
10
31.5838033692869
20
-19.7402505448278
30
0
41
1
10
31.5640834313706
20
-19.760087248044
30
0
41
1
10
31.5550149215231
20
-19.769216810136
30
0
41
1
10
31.5389994683375
20
-19.7853486325378
30
0
41
1
10
31.5323266018195
20
-19.7920748098037
30
0
41
1
10
31.5253343264306
20
-19.7991246202076
30
0
41
1
10
31.5235363040347
20
-19.8009378239267
30
0
41
1
10
31.5211007379348
20
-19.8033940774064
30
0
41
1
10
31.5204830212339
20
-19.8040171245136
30
0
41
1
10
31.5205350517556
20
-19.8039646473564
30
0
41
1
10
31.523156705949
20
-19.8013201205635
30
0
41
1
10
31.5288147617669
20
-19.7956155554754
30
0
41
1
10
31.5298885704178
20
-19.7945329946272
30
0
41
1
10
31.5310460812856
20
-19.7933661574731
30
0
0
SPLINE
5
178
100
AcDbEntity
8
1
62
256
6
ByLayer
370
18
48
1
60
0
100
AcDbSpline
70
4
71
3
72
10
73
6
40
0
40
0
40
0
40
0
40
0.133161010722227
40
0.133161010722227
40
1
40
1
40
1
40
1
41
1
10
31.5697751454528
20
-19.7543622824288
30
0
41
1
10
31.5712563907715
20
-19.7528719491686
30
0
41
1
10
31.572753385694
20
-19.751365935763
30
0
41
1
10
31.5840916007173
20
-19.7399607665405
30
0
41
1
10
31.5945385189195
20
-19.729459433587
30
0
41
1
10
31.6055
20
-19.7184503955052
30
0
0
SPLINE
5
179
100
AcDbEntity
8
1
62
256
6
ByLayer
370
18
48
1
60
0
100
AcDbSpline
70
4
71
3
72
8
73
4
40
0
40
0
40
0
40
0
40
1
40
1
40
1
40
1
41
1
10
32.2495
20
-19.0679370847154
30
0
41
1
10
32.0353821421022
20
-19.2854992733109
30
0
41
1
10
31.8207000524708
20
-19.5023166855204
30
0
41
1
10
31.6055
20
-19.7184503955052
30
0
0
SPLINE
5
17A
100
AcDbEntity
8
1
62
256
6
ByLayer
370
18
48
1
60
0
100
AcDbSpline
70
4
71
3
72
14
73
10
40
0
40
0
40
0
40
0
40
0.25
40
0.25
40
0.5
40
0.5
40
0.75
40
0.75
40
1
40
1
40
1
40
1
41
1
10
32.2495
20
-19.0679370847154
30
0
41
1
10
32.2592112781079
20
-19.0580695895894
30
0
41
1
10
32.2684631746828
20
-19.0486275483861
30
0
41
1
10
32.2858574791356
20
-19.0307635373025
30
0
41
1
10
32.2940253176557
20
-19.0223134800282
30
0
41
1
10
32.3079744336769
20
-19.0077038595556
30
0
41
1
10
32.3139402091291
20
-19.0013494349122
30
0
41
1
10
32.3221868277214
20
-18.9922305495165
30
0
41
1
10
32.3245
20
-18.9894242585628
30
0
41
1
10
32.3245
20
-18.988914520495
30
0
0
SPLINE
5
17B
100
AcDbEntity
8
SK1
62
256
6
ByLayer
370
13
48
1
60
0
100
AcDbSpline
70
4
71
3
72
20
73
16
40
0
40
0
40
0
40
0
40
0.0019260293166234
40
0.0711552211285578
40
0.140384412940492
40
0.209613604752426
40
0.278842796564361
40
0.41730118018823
40
0.486530372000164
40
0.555759563812098
40
0.694217947435967
40
0.832676331059836
40
0.90190552287177
40
0.971134714683704
40
1
40
1
40
1
40
1
41
1
10
-1.4950399779393
20
-2.59572866980201
30
0
41
1
10
-1.4950399779393
20
-2.60753527399979
30
0
41
1
10
-1.4950399779393
20
-3.04345441166046
30
0
41
1
10
-1.4950399779393
20
-3.88412508952482
30
0
41
1
10
-1.4950399779393
20
-5.06527592408099
30
0
41
1
10
-1.4950399779393
20
-6.18114524290198
30
0
41
1
10
-1.4950399779393
20
-7.58102884110858
30
0
41
1
10
-1.4950399779393
20
-8.84271184628204
30
0
41
1
10
-1.4950399779393
20
-9.96541209516295
30
0
41
1
10
-1.4950399779393
20
-10.9917340076615
30
0
41
1
10
-1.4950399779393
20
-12.0867937065467
30
0
41
1
10
-1.4950399779393
20
-12.9130991355629
30
0
41
1
10
-1.4950399779393
20
-13.3930993868039
30
0
41
1
10
-1.49503997793931
20
-13.6040468454466
30
0
41
1
10
-1.4950399779393
20
-13.6917868784599
30
0
41
1
10
-1.4950399779393
20
-13.7143416697808
30
0
0
SPLINE
5
17C
100
AcDbEntity
8
SK1
62
256
6
ByLayer
370
18
48
1
60
0
100
AcDbSpline
70
4
71
3
72
9
73
5
40
0
40
0
40
0
40
0
40
0.436839595809863
40
1
40
1
40
1
40
1
41
1
10
-1.4950399779393
20
-13.7143420939944
30
0
41
1
10
-1.4950399779393
20
-13.7458814931204
30
0
41
1
10
-1.49503997793928
20
-13.8034720486095
30
0
41
1
10
-1.49503997793928
20
-13.8254358148974
30
0
41
1
10
-1.4950399779393
20
-13.825265628505
30
0
0
SPLINE
5
17D
100
AcDbEntity
8
1
62
256
6
ByLayer
370
18
48
1
60
0
100
AcDbSpline
70
4
71
3
72
14
73
10
40
0
40
0
40
0
40
0
40
0.25
40
0.25
40
0.5
40
0.5
40
0.75
40
0.75
40
1
40
1
40
1
40
1
41
1
10
32.3245
20
-18.9809298975149
30
0
41
1
10
32.3245
20
-18.9802749397073
30
0
41
1
10
32.3222686570517
20
-18.9818256856907
30
0
41
1
10
32.3141089561458
20
-18.9887118861319
30
0
41
1
10
32.3081416192179
20
-18.9940733211362
30
0
41
1
10
32.2940927457414
20
-19.0070547541498
30
0
41
1
10
32.2858401844453
20
-19.0148307852947
30
0
41
1
10
32.2684278710244
20
-19.0314404543229
30
0
41
1
10
32.2591841270817
20
-19.040350490592
30
0
41
1
10
32.2495
20
-19.0497595350354
30
0
0
SPLINE
5
17E
100
AcDbEntity
8
1
62
256
6
ByLayer
370
18
48
1
60
0
100
AcDbSpline
70
4
71
3
72
8
73
4
40
0
40
0
40
0
40
0
40
1
40
1
40
1
40
1
41
1
10
31.6055
20
-19.67254327625
30
0
41
1
10
31.8205696375729
20
-19.4655042942751
30
0
41
1
10
32.0352478964824
20
-19.2579256967411
30
0
41
1
10
32.2495
20
-19.0497595350354
30
0
0
SPLINE
5
17F
100
AcDbEntity
8
1
62
256
6
ByLayer
370
18
48
1
60
0
100
AcDbSpline
70
4
71
3
72
16
73
12
40
0
40
0
40
0
40
0
40
0.244870256099474
40
0.244870256099474
40
0.489740512198948
40
0.489740512198948
40
0.734610768298422
40
0.734610768298422
40
0.979481024397896
40
0.979481024397896
40
1
40
1
40
1
40
1
41
1
10
31.6055
20
-19.6500792121576
30
0
41
1
10
31.5946454997648
20
-19.6614971201053
30
0
41
1
10
31.5843093311551
20
-19.6724989869337
30
0
41
1
10
31.5650555070299
20
-19.6932971537009
30
0
41
1
10
31.5559904860575
20
-19.7032556166844
30
0
41
1
10
31.5402922665503
20
-19.7209485260459
30
0
41
1
10
31.5335960738648
20
-19.7287511946129
30
0
41
1
10
31.5238589844054
20
-19.740889765792
30
0
41
1
10
31.5209274233515
20
-19.7451121254574
30
0
41
1
10
31.5205123631195
20
-19.7469103574364
30
0
41
1
10
31.5204985695313
20
-19.7470311500933
30
0
41
1
10
31.5205028397931
20
-19.7471338530941
30
0
0
SPLINE
5
180
100
AcDbEntity
8
1
62
256
6
ByLayer
370
18
48
1
60
0
100
AcDbSpline
70
4
71
3
72
14
73
10
40
0
40
0
40
0
40
0
40
0.137563763803961
40
0.137563763803961
40
0.425042509202641
40
0.425042509202641
40
0.71252125460132
40
0.71252125460132
40
1
40
1
40
1
40
1
41
1
10
31.5220149595527
20
-19.7472840728836
30
0
41
1
10
31.5230805660169
20
-19.7468148993606
30
0
41
1
10
31.5246954568237
20
-19.745781491306
30
0
41
1
10
31.5312478930885
20
-19.7409318597074
30
0
41
1
10
31.5379815917346
20
-19.7352591146846
30
0
41
1
10
31.5540464393891
20
-19.721005839838
30
0
41
1
10
31.5635576945821
20
-19.7122726293567
30
0
41
1
10
31.5836466284833
20
-19.6934639928731
30
0
41
1
10
31.5943179210633
20
-19.6833078186817
30
0
41
1
10
31.6055
20
-19.67254327625
30
0
0
SPLINE
5
181
100
AcDbEntity
8
1
62
256
6
ByLayer
370
18
48
1
60
0
100
AcDbSpline
70
4
71
3
72
8
73
4
40
0
40
0
40
0
40
0
40
1
40
1
40
1
40
1
41
1
10
32.2495
20
-18.9678441313361
30
0
41
1
10
32.0355472223686
20
-19.1961543314658
30
0
41
1
10
31.8208603034311
20
-19.4235405354009
30
0
41
1
10
31.6055
20
-19.6500792121576
30
0
0
SPLINE
5
182
100
AcDbEntity
8
1
62
256
6
ByLayer
370
18
48
1
60
0
100
AcDbSpline
70
4
71
3
72
14
73
10
40
0
40
0
40
0
40
0
40
0.25
40
0.25
40
0.5
40
0.5
40
0.75
40
0.75
40
1
40
1
40
1
40
1
41
1
10
32.2495
20
-18.9678441313361
30
0
41
1
10
32.2592496041162
20
-18.9574402745057
30
0
41
1
10
32.2685192515779
20
-18.9473921852377
30
0
41
1
10
32.2859116916071
20
-18.9281390396628
30
0
41
1
10
32.2939838635032
20
-18.918985371031
30
0
41
1
10
32.3078579262551
20
-18.9026525202924
30
0
41
1
10
32.3138122574569
20
-18.8952874257051
30
0
41
1
10
32.3221165962266
20
-18.883899953024
30
0
41
1
10
32.3245
20
-18.8798131548509
30
0
41
1
10
32.3245
20
-18.8780838423543
30
0
0
SPLINE
5
183
100
AcDbEntity
8
1
62
256
6
ByLayer
370
18
48
1
60
0
100
AcDbSpline
70
4
71
3
72
14
73
10
40
0
40
0
40
0
40
0
40
0.25
40
0.25
40
0.5
40
0.5
40
0.75
40
0.75
40
1
40
1
40
1
40
1
41
1
10
32.3245
20
-18.8539790198802
30
0
41
1
10
32.3245
20
-18.852185749926
30
0
41
1
10
32.3223878094292
20
-18.8524939229067
30
0
41
1
10
32.3143250205302
20
-18.8571560020603
30
0
41
1
10
32.3084139015723
20
-18.8614855289318
30
0
41
1
10
32.2943158035337
20
-18.8728206174963
30
0
41
1
10
32.2860834716846
20
-18.879854510313
30
0
41
1
10
32.2684766460953
20
-18.8954524968059
30
0
41
1
10
32.2591819648805
20
-18.9039388280576
30
0
41
1
10
32.2495
20
-18.9129704705177
30
0
0
SPLINE
5
184
100
AcDbEntity
8
1
62
256
6
ByLayer
370
18
48
1
60
0
100
AcDbSpline
70
4
71
3
72
8
73
4
40
0
40
0
40
0
40
0
40
1
40
1
40
1
40
1
41
1
10
31.6055
20
-19.5115512430934
30
0
41
1
10
31.8204626786589
20
-19.31244894935
30
0
41
1
10
32.0351378607353
20
-19.1129342405493
30
0
41
1
10
32.2495
20
-18.9129704705177
30
0
0
SPLINE
5
185
100
AcDbEntity
8
1
62
256
6
ByLayer
370
18
48
1
60
0
100
AcDbSpline
70
4
71
3
72
20
73
16
40
0
40
0
40
0
40
0
40
0.25
40
0.25
40
0.375
40
0.375
40
0.5
40
0.5
40
0.625
40
0.625
40
0.75
40
0.75
40
0.875
40
0.875
40
1
40
1
40
1
40
1
41
1
10
31.6055
20
-19.4662256251216
30
0
41
1
10
31.5842527177492
20
-19.4897321106051
30
0
41
1
10
31.5647591784121
20
-19.512245602338
30
0
41
1
10
31.541538810157
20
-19.5412455910611
30
0
41
1
10
31.5348191531312
20
-19.5501143780702
30
0
41
1
10
31.5248488902685
20
-19.5647104400402
30
0
41
1
10
31.52154227505
20
-19.5705386140865
30
0
41
1
10
31.5198797900557
20
-19.5773439817586
30
0
41
1
10
31.5215268512072
20
-19.5782810305198
30
0
41
1
10
31.5299273542161
20
-19.5747851907473
30
0
41
1
10
31.5364749055013
20
-19.5704541370685
30
0
41
1
10
31.5527289309234
20
-19.5580671841504
30
0
41
1
10
31.5623212415122
20
-19.5501066098877
30
0
41
1
10
31.5830767110618
20
-19.5320647148509
30
0
41
1
10
31.5940553495815
20
-19.5221514838591
30
0
41
1
10
31.6055
20
-19.5115512430934
30
0
0
SPLINE
5
186
100
AcDbEntity
8
1
62
256
6
ByLayer
370
18
48
1
60
0
100
AcDbSpline
70
4
71
3
72
8
73
4
40
0
40
0
40
0
40
0
40
1
40
1
40
1
40
1
41
1
10
32.2495
20
-18.7475864397169
30
0
41
1
10
32.0357525342202
20
-18.9882311427327
30
0
41
1
10
31.8210594377484
20
-19.2277459581948
30
0
41
1
10
31.6055
20
-19.4662256251216
30
0
0
SPLINE
5
187
100
AcDbEntity
8
1
62
256
6
ByLayer
370
18
48
1
60
0
100
AcDbSpline
70
4
71
3
72
12
73
8
40
0
40
0
40
0
40
0
40
0.5
40
0.5
40
0.75
40
0.75
40
1
40
1
40
1
40
1
41
1
10
32.2495
20
-18.7475864397169
30
0
41
1
10
32.2690960393407
20
-18.7255245029813
30
0
41
1
10
32.2870555714388
20
-18.7041980616753
30
0
41
1
10
32.3077712526586
20
-18.6769230565226
30
0
41
1
10
32.3137084244209
20
-18.6685026888432
30
0
41
1
10
32.3220552838793
20
-18.6547549787377
30
0
41
1
10
32.3245000000001
20
-18.6493424979473
30
0
41
1
10
32.3245000000001
20
-18.6463193271822
30
0
0
SPLINE
5
188
100
AcDbEntity
8
1
62
256
6
ByLayer
370
18
48
1
60
0
100
AcDbSpline
70
4
71
3
72
14
73
10
40
0
40
0
40
0
40
0
40
0.250000000000006
40
0.250000000000006
40
0.500000000000004
40
0.500000000000004
40
0.750000000000002
40
0.750000000000002
40
1
40
1
40
1
40
1
41
1
10
32.3245
20
-18.6056268367875
30
0
41
1
10
32.3245
20
-18.6027236160964
30
0
41
1
10
32.3225179945146
20
-18.6018009379686
30
0
41
1
10
32.3145530102954
20
-18.6042057169858
30
0
41
1
10
32.3087143087579
20
-18.6074938193305
30
0
41
1
10
32.2945271501969
20
-18.6172106493221
30
0
41
1
10
32.2862785502885
20
-18.6235597234353
30
0
41
1
10
32.2685178816954
20
-18.6381579323392
30
0
41
1
10
32.2591829382417
20
-18.646252925044
30
0
41
1
10
32.2495
20
-18.654960886978
30
0
0
SPLINE
5
189
100
AcDbEntity
8
1
62
256
6
ByLayer
370
18
48
1
60
0
100
AcDbSpline
70
4
71
3
72
8
73
4
40
0
40
0
40
0
40
0
40
1
40
1
40
1
40
1
41
1
10
31.6055
20
-19.232584456276
30
0
41
1
10
31.8203746839424
20
-19.0403524947096
30
0
41
1
10
32.0350473703234
20
-18.8478202535533
30
0
41
1
10
32.2495
20
-18.654960886978
30
0
0
SPLINE
5
18A
100
AcDbEntity
8
1
62
256
6
ByLayer
370
18
48
1
60
0
100
AcDbSpline
70
4
71
3
72
22
73
18
40
0
40
0
40
0
40
0
40
0.249999999999973
40
0.249999999999973
40
0.374999999999981
40
0.374999999999981
40
0.499999999999988
40
0.499999999999988
40
0.624999999999996
40
0.624999999999996
40
0.687500000000003
40
0.687500000000003
40
0.75000000000001
40
0.75000000000001
40
0.875000000000005
40
0.875000000000005
40
1
40
1
40
1
40
1
41
1
10
31.6055
20
-19.1635661381751
30
0
41
1
10
31.5846180024195
20
-19.1879770488517
30
0
41
1
10
31.5655071796184
20
-19.2117045234637
30
0
41
1
10
31.5426899901217
20
-19.2431162129388
30
0
41
1
10
31.5359677807996
20
-19.2530413976178
30
0
41
1
10
31.5257886985559
20
-19.2700761212655
30
0
41
1
10
31.5222094422121
20
-19.2774045374631
30
0
41
1
10
31.5197505065651
20
-19.2875719003495
30
0
41
1
10
31.5209171874909
20
-19.290403795087
30
0
41
1
10
31.5266132401731
20
-19.2903641595357
30
0
41
1
10
31.5291885835889
20
-19.2896418406776
30
0
41
1
10
31.5353678257385
20
-19.2869190401382
30
0
41
1
10
31.5389962843699
20
-19.2849212703509
30
0
41
1
10
31.5513547524627
20
-19.2771657902722
30
0
41
1
10
31.561088840106
20
-19.2699596696235
30
0
41
1
10
31.5824853917302
20
-19.2527621693601
30
0
41
1
10
31.593773139625
20
-19.2430755822269
30
0
41
1
10
31.6055
20
-19.232584456276
30
0
0
SPLINE
5
18B
100
AcDbEntity
8
1
62
256
6
ByLayer
370
18
48
1
60
0
100
AcDbSpline
70
4
71
3
72
8
73
4
40
0
40
0
40
0
40
0
40
1
40
1
40
1
40
1
41
1
10
32.2495
20
-18.4028498781752
30
0
41
1
10
32.0360116289069
20
-18.6577519784764
30
0
41
1
10
31.8213104962892
20
-18.9112851613349
30
0
41
1
10
31.6055
20
-19.1635661381751
30
0
0
SPLINE
5
18C
100
AcDbEntity
8
1
62
256
6
ByLayer
370
18
48
1
60
0
100
AcDbSpline
70
4
71
3
72
12
73
8
40
0
40
0
40
0
40
0
40
0.499999999999994
40
0.499999999999994
40
0.749999999999997
40
0.749999999999997
40
1
40
1
40
1
40
1
41
1
10
32.2495
20
-18.4028498781752
30
0
41
1
10
32.2692137713121
20
-18.3793119136173
30
0
41
1
10
32.2870761228951
20
-18.3563670284796
30
0
41
1
10
32.3077117374033
20
-18.3260475722174
30
0
41
1
10
32.3136263405846
20
-18.3165008078665
30
0
41
1
10
32.3220024813361
20
-18.3002470594535
30
0
41
1
10
32.3245000000003
20
-18.293440494456
30
0
41
1
10
32.3245000000003
20
-18.2890240128755
30
0
0
SPLINE
5
18D
100
AcDbEntity
8
1
62
256
6
ByLayer
370
18
48
1
60
0
100
AcDbSpline
70
4
71
3
72
14
73
10
40
0
40
0
40
0
40
0
40
0.25
40
0.25
40
0.5
40
0.5
40
0.75
40
0.75
40
1
40
1
40
1
40
1
41
1
10
32.3245
20
-18.2309126238237
30
0
41
1
10
32.3245
20
-18.2269178971008
30
0
41
1
10
32.3226261329832
20
-18.2247594643014
30
0
41
1
10
32.314843542028
20
-18.2248115931792
30
0
41
1
10
32.3091628945776
20
-18.226981040974
30
0
41
1
10
32.2948542225229
20
-18.2350325359301
30
0
41
1
10
32.2865896124374
20
-18.2407014516844
30
0
41
1
10
32.2686127181097
20
-18.254375599661
30
0
41
1
10
32.259209704467
20
-18.2621405398416
30
0
41
1
10
32.2495
20
-18.2705960321683
30
0
0
SPLINE
5
18E
100
AcDbEntity
8
1
62
256
6
ByLayer
370
18
48
1
60
0
100
AcDbSpline
70
4
71
3
72
8
73
4
40
0
40
0
40
0
40
0
40
1
40
1
40
1
40
1
41
1
10
31.6055
20
-18.8304003628101
30
0
41
1
10
31.8203025465447
20
-18.6440075237985
30
0
41
1
10
32.0349733553287
20
-18.4574120577275
30
0
41
1
10
32.2495
20
-18.2705960321683
30
0
0
SPLINE
5
18F
100
AcDbEntity
8
1
62
256
6
ByLayer
370
18
48
1
60
0
100
AcDbSpline
70
4
71
3
72
24
73
20
40
0
40
0
40
0
40
0
40
0.250000000000023
40
0.250000000000023
40
0.375000000000026
40
0.375000000000026
40
0.500000000000029
40
0.500000000000029
40
0.625000000000031
40
0.625000000000031
40
0.687500000000025
40
0.687500000000025
40
0.750000000000018
40
0.750000000000018
40
0.812500000000012
40
0.812500000000012
40
0.875000000000005
40
0.875000000000005
40
1
40
1
40
1
40
1
41
1
10
31.6055
20
-18.7363442052146
30
0
41
1
10
31.5849336598929
20
-18.7618849236291
30
0
41
1
10
31.5662642298246
20
-18.7868862910127
30
0
41
1
10
31.543766769786
20
-18.8209469214415
30
0
41
1
10
31.5370921639868
20
-18.8318990550104
30
0
41
1
10
31.5267461011529
20
-18.8513838063828
30
0
41
1
10
31.5229510871462
20
-18.8601468439844
30
0
41
1
10
31.5197443444473
20
-18.8737149412441
30
0
41
1
10
31.5203964193229
20
-18.8785001258787
30
0
41
1
10
31.5254777593788
20
-18.8812221123845
30
0
41
1
10
31.5278883759314
20
-18.8813989058138
30
0
41
1
10
31.5338383866355
20
-18.8802752371659
30
0
41
1
10
31.5373848683436
20
-18.8789999511004
30
0
41
1
10
31.545559270928
20
-18.8751024509132
30
0
41
1
10
31.5501882859263
20
-18.8724678743436
30
0
41
1
10
31.559992242756
20
-18.866232942027
30
0
41
1
10
31.5652186566671
20
-18.8626093330226
30
0
41
1
10
31.5817540202293
20
-18.8504066896326
30
0
41
1
10
31.5934479686378
20
-18.8408583968401
30
0
41
1
10
31.6055
20
-18.8304003628102
30
0
0
SPLINE
5
190
100
AcDbEntity
8
1
62
256
6
ByLayer
370
18
48
1
60
0
100
AcDbSpline
70
4
71
3
72
8
73
4
40
0
40
0
40
0
40
0
40
1
40
1
40
1
40
1
41
1
10
32.2495
20
-17.9264544727241
30
0
41
1
10
32.036344592726
20
-18.1980199940686
30
0
41
1
10
31.8216327980189
20
-18.46793539229
30
0
41
1
10
31.6055
20
-18.7363442052146
30
0
0
SPLINE
5
191
100
AcDbEntity
8
1
62
256
6
ByLayer
370
18
48
1
60
0
100
AcDbSpline
70
4
71
3
72
14
73
10
40
0
40
0
40
0
40
0
40
0.25
40
0.25
40
0.5
40
0.5
40
0.75
40
0.75
40
1
40
1
40
1
40
1
41
1
10
32.2495
20
-17.9264544727241
30
0
41
1
10
32.2594452716602
20
-17.9137839384981
30
0
41
1
10
32.2688578737818
20
-17.9012296925005
30
0
41
1
10
32.2860631262544
20
-17.8769739480124
30
0
41
1
10
32.2939188644348
20
-17.865200408821
30
0
41
1
10
32.3077301342475
20
-17.8425488566719
30
0
41
1
10
32.313549981919
20
-17.831883452387
30
0
41
1
10
32.3219388885768
20
-17.8129323227157
30
0
41
1
10
32.324500000001
20
-17.8045938255255
30
0
41
1
10
32.324500000001
20
-17.7986396737449
30
0
0
SPLINE
5
192
100
AcDbEntity
8
1
62
256
6
ByLayer
370
18
48
1
60
0
100
AcDbSpline
70
4
71
3
72
14
73
10
40
0
40
0
40
0
40
0
40
0.25
40
0.25
40
0.5
40
0.5
40
0.75
40
0.75
40
1
40
1
40
1
40
1
41
1
10
32.3245
20
-17.7218227111435
30
0
41
1
10
32.3245
20
-17.7167636827918
30
0
41
1
10
32.3227493810509
20
-17.7133264469951
30
0
41
1
10
32.3152458304778
20
-17.7108983856196
30
0
41
1
10
32.3096041240067
20
-17.7119307814348
30
0
41
1
10
32.2953158700719
20
-17.7181361744954
30
0
41
1
10
32.2869391226995
20
-17.7231633913709
30
0
41
1
10
32.2687589075683
20
-17.7359097762675
30
0
41
1
10
32.2592455734682
20
-17.7434107750192
30
0
41
1
10
32.2495
20
-17.7516701480928
30
0
0
SPLINE
5
193
100
AcDbEntity
8
1
62
256
6
ByLayer
370
18
48
1
60
0
100
AcDbSpline
70
4
71
3
72
8
73
4
40
0
40
0
40
0
40
0
40
1
40
1
40
1
40
1
41
1
10
31.6055
20
-18.2968754376164
30
0
41
1
10
31.8202447540081
20
-18.11526338816
30
0
41
1
10
32.0349138148107
20
-17.9335319303368
30
0
41
1
10
32.2495
20
-17.7516701480928
30
0
0
SPLINE
5
194
100
AcDbEntity
8
1
62
256
6
ByLayer
370
18
48
1
60
0
100
AcDbSpline
70
4
71
3
72
22
73
18
40
0
40
0
40
0
40
0
40
0.250000000000017
40
0.250000000000017
40
0.375000000000019
40
0.375000000000019
40
0.500000000000021
40
0.500000000000021
40
0.625000000000023
40
0.625000000000023
40
0.750000000000024
40
0.750000000000024
40
0.812500000000027
40
0.812500000000027
40
0.87500000000003
40
0.87500000000003
40
1
40
1
40
1
40
1
41
1
10
31.6055
20
-18.1757784213043
30
0
41
1
10
31.5852735552583
20
-18.2026354601183
30
0
41
1
10
31.5669564518919
20
-18.2292229400242
30
0
41
1
10
31.5448335316356
20
-18.2660678844065
30
0
41
1
10
31.5382665741826
20
-18.2779981266209
30
0
41
1
10
31.5277428289439
20
-18.3000981082553
30
0
41
1
10
31.5238239716692
20
-18.3101313539303
30
0
41
1
10
31.5198638916737
20
-18.3272662268364
30
0
41
1
10
31.5199842070071
20
-18.3340533284695
30
0
41
1
10
31.5257809812265
20
-18.3417522150087
30
0
41
1
10
31.5316010084182
20
-18.3425395578433
30
0
41
1
10
31.5437264553199
20
-18.3388915542783
30
0
41
1
10
31.548412658276
20
-18.3368666430987
30
0
41
1
10
31.5584723291246
20
-18.3315512620657
30
0
41
1
10
31.5638465541738
20
-18.3282779831857
30
0
41
1
10
31.5808532195466
20
-18.3168828358452
30
0
41
1
10
31.593068792019
20
-18.3073886497742
30
0
41
1
10
31.6055
20
-18.2968754376165
30
0
0
SPLINE
5
195
100
AcDbEntity
8
1
62
256
6
ByLayer
370
18
48
1
60
0
100
AcDbSpline
70
4
71
3
72
8
73
4
40
0
40
0
40
0
40
0
40
1
40
1
40
1
40
1
41
1
10
32.2495
20
-17.3075317791603
30
0
41
1
10
32.0367823196005
20
-17.598874807819
30
0
41
1
10
31.8220560392467
20
-17.8882313992869
30
0
41
1
10
31.6055
20
-18.1757784213043
30
0
0
SPLINE
5
196
100
AcDbEntity
8
1
62
256
6
ByLayer
370
18
48
1
60
0
100
AcDbSpline
70
4
71
3
72
12
73
8
40
0
40
0
40
0
40
0
40
0.5
40
0.5
40
0.75
40
0.75
40
1
40
1
40
1
40
1
41
1
10
32.2495
20
-17.3075317791603
30
0
41
1
10
32.269569104578
20
-17.2800446718393
30
0
41
1
10
32.2870379816785
20
-17.253389227797
30
0
41
1
10
32.3077415968534
20
-17.2153783121061
30
0
41
1
10
32.3134913399265
20
-17.2034216639815
30
0
41
1
10
32.321898093649
20
-17.1814239866425
30
0
41
1
10
32.3245000000031
20
-17.1714323312695
30
0
41
1
10
32.3245000000032
20
-17.1637626739603
30
0
0
SPLINE
5
197
100
AcDbEntity
8
1
62
256
6
ByLayer
370
18
48
1
60
0
100
AcDbSpline
70
4
71
3
72
14
73
10
40
0
40
0
40
0
40
0
40
0.25
40
0.25
40
0.5
40
0.5
40
0.75
40
0.75
40
1
40
1
40
1
40
1
41
1
10
32.3245000000001
20
-17.0663360248446
30
0
41
1
10
32.3245000000001
20
-17.0602063448816
30
0
41
1
10
32.3228790884288
20
-17.0554417118855
30
0
41
1
10
32.3157237685987
20
-17.050394459048
30
0
41
1
10
32.3101243352504
20
-17.0501458087765
30
0
41
1
10
32.2959401497
20
-17.0543147310199
30
0
41
1
10
32.2873637090464
20
-17.0586844662361
30
0
41
1
10
32.2690111551928
20
-17.0704653043412
30
0
41
1
10
32.259309512901
20
-17.0777868692096
30
0
41
1
10
32.2495
20
-17.0859271543189
30
0
0
SPLINE
5
198
100
AcDbEntity
8
1
62
256
6
ByLayer
370
18
48
1
60
0
100
AcDbSpline
70
4
71
3
72
8
73
4
40
0
40
0
40
0
40
0
40
1
40
1
40
1
40
1
41
1
10
31.6055
20
-17.6200829661946
30
0
41
1
10
31.8202009468254
20
-17.4420861479081
30
0
41
1
10
32.0348686848346
20
-17.2640359061465
30
0
41
1
10
32.2495
20
-17.0859271543189
30
0
0
SPLINE
5
199
100
AcDbEntity
8
1
62
256
6
ByLayer
370
18
48
1
60
0
100
AcDbSpline
70
4
71
3
72
22
73
18
40
0
40
0
40
0
40
0
40
0.25000000000001
40
0.25000000000001
40
0.50000000000002
40
0.50000000000002
40
0.625000000000025
40
0.625000000000025
40
0.687500000000018
40
0.687500000000018
40
0.750000000000011
40
0.750000000000011
40
0.874999999999986
40
0.874999999999986
40
0.937499999999993
40
0.937499999999993
40
1
40
1
40
1
40
1
41
1
10
31.6055
20
-17.4690368442115
30
0
41
1
10
31.5855915537273
20
-17.4975280653221
30
0
41
1
10
31.5676956760301
20
-17.52586355086
30
0
41
1
10
31.5386672707896
20
-17.5791828628332
30
0
41
1
10
31.5270549522047
20
-17.6049237622154
30
0
41
1
10
31.5201581473621
20
-17.6357460390406
30
0
41
1
10
31.5196999481554
20
-17.6445659272814
30
0
41
1
10
31.5232122879929
20
-17.6538000958583
30
0
41
1
10
31.5250723321223
20
-17.6561404219928
30
0
41
1
10
31.5302755446604
20
-17.6590961389691
30
0
41
1
10
31.5336738502519
20
-17.6596962012999
30
0
41
1
10
31.5456268441332
20
-17.6587096977065
30
0
41
1
10
31.5563272950883
20
-17.6542651322379
30
0
41
1
10
31.5739236789625
20
-17.6437607679609
30
0
41
1
10
31.5801432038352
20
-17.6395811173996
30
0
41
1
10
31.5926860165345
20
-17.630425455486
30
0
41
1
10
31.5990533120789
20
-17.6254275627389
30
0
41
1
10
31.6055
20
-17.6200829661947
30
0
0
SPLINE
5
19A
100
AcDbEntity
8
1
62
256
6
ByLayer
370
18
48
1
60
0
100
AcDbSpline
70
4
71
3
72
8
73
4
40
0
40
0
40
0
40
0
40
1
40
1
40
1
40
1
41
1
10
32.2495
20
-16.5300799335829
30
0
41
1
10
32.0373746492063
20
-16.845389577551
30
0
41
1
10
31.8226281001308
20
-17.1583021627902
30
0
41
1
10
31.6055
20
-17.4690368442115
30
0
0
SPLINE
5
19B
100
AcDbEntity
8
1
62
256
6
ByLayer
370
18
48
1
60
0
100
AcDbSpline
70
4
71
3
72
14
73
10
40
0
40
0
40
0
40
0
40
0.25
40
0.25
40
0.5
40
0.5
40
0.75
40
0.75
40
1
40
1
40
1
40
1
41
1
10
32.2495
20
-16.5300799335829
30
0
41
1
10
32.2595755187232
20
-16.515103372745
30
0
41
1
10
32.2689399471698
20
-16.500282137731
30
0
41
1
10
32.2861613172573
20
-16.4709631921383
30
0
41
1
10
32.294078365003
20
-16.4563504489578
30
0
41
1
10
32.3077457705477
20
-16.4280858342372
30
0
41
1
10
32.3134679634117
20
-16.414541490867
30
0
41
1
10
32.3218707399949
20
-16.3890624272171
30
0
41
1
10
32.3245000000085
20
-16.3772185365104
30
0
41
1
10
32.3245000000091
20
-16.3675876053921
30
0
0
SPLINE
5
19C
100
AcDbEntity
8
1
62
256
6
ByLayer
370
18
48
1
60
0
100
AcDbSpline
70
4
71
3
72
14
73
10
40
0
40
0
40
0
40
0
40
0.25
40
0.25
40
0.5
40
0.5
40
0.75
40
0.75
40
1
40
1
40
1
40
1
41
1
10
32.3245000000001
20
-16.2467427634162
30
0
41
1
10
32.3245000000001
20
-16.2394710002288
30
0
41
1
10
32.3230505526095
20
-16.2333911075695
30
0
41
1
10
32.3162559492657
20
-16.2254590605736
30
0
41
1
10
32.3108018796898
20
-16.2237332697389
30
0
41
1
10
32.2967025470418
20
-16.225613605279
30
0
41
1
10
32.2879424393728
20
-16.2292077635721
30
0
41
1
10
32.269327473126
20
-16.2400317807444
30
0
41
1
10
32.2594058159219
20
-16.2472257349727
30
0
41
1
10
32.2495
20
-16.2553382123748
30
0
0
SPLINE
5
19D
100
AcDbEntity
8
1
62
256
6
ByLayer
370
18
48
1
60
0
100
AcDbSpline
70
4
71
3
72
8
73
4
40
0
40
0
40
0
40
0
40
1
40
1
40
1
40
1
41
1
10
31.6055
20
-16.7826993267326
30
0
41
1
10
31.8201732371937
20
-16.6069229874504
30
0
41
1
10
32.0348401170212
20
-16.4311362953957
30
0
41
1
10
32.2495
20
-16.255338212375
30
0
0
SPLINE
5
19E
100
AcDbEntity
8
1
62
256
6
ByLayer
370
18
48
1
60
0
100
AcDbSpline
70
4
71
3
72
24
73
20
40
0
40
0
40
0
40
0
40
0.250000000000012
40
0.250000000000012
40
0.375000000000007
40
0.375000000000007
40
0.500000000000001
40
0.500000000000001
40
0.624999999999996
40
0.624999999999996
40
0.74999999999999
40
0.74999999999999
40
0.812499999999993
40
0.812499999999993
40
0.874999999999995
40
0.874999999999995
40
0.937499999999998
40
0.937499999999998
40
1
40
1
40
1
40
1
41
1
10
31.6055
20
-16.5974568928041
30
0
41
1
10
31.5859306350477
20
-16.627954617671
30
0
41
1
10
31.5684043776613
20
-16.6584924379041
30
0
41
1
10
31.546981041172
20
-16.7021612457542
30
0
41
1
10
31.5406367983317
20
-16.7163852039587
30
0
41
1
10
31.5300049616654
20
-16.7439749121277
30
0
41
1
10
31.5257550687406
20
-16.7572748958537
30
0
41
1
10
31.5206023010412
20
-16.7813697613153
30
0
41
1
10
31.5196580046164
20
-16.7924512939753
30
0
41
1
10
31.5230585867862
20
-16.8094781184495
30
0
41
1
10
31.5275718217049
20
-16.8154965617001
30
0
41
1
10
31.5392932037595
20
-16.8179133314042
30
0
41
1
10
31.5438737154884
20
-16.817642095108
30
0
41
1
10
31.5543259951703
20
-16.8150413247482
30
0
41
1
10
31.5602042505498
20
-16.8126777169457
30
0
41
1
10
31.5724281931627
20
-16.8063867311992
30
0
41
1
10
31.5789268310879
20
-16.8023930464153
30
0
41
1
10
31.5921113198276
20
-16.7932881819859
30
0
41
1
10
31.5987765869105
20
-16.7882045166474
30
0
41
1
10
31.6055
20
-16.7826993267327
30
0
0
SPLINE
5
19F
100
AcDbEntity
8
1
62
256
6
ByLayer
370
18
48
1
60
0
100
AcDbSpline
70
4
71
3
72
8
73
4
40
0
40
0
40
0
40
0
40
1
40
1
40
1
40
1
41
1
10
32.2495
20
-15.5703702247132
30
0
41
1
10
32.0382071317381
20
-15.9155530145199
30
0
41
1
10
31.8234311235556
20
-16.2578238253877
30
0
41
1
10
31.6055
20
-16.5974568928041
30
0
0
SPLINE
5
1A0
100
AcDbEntity
8
1
62
256
6
ByLayer
370
18
48
1
60
0
100
AcDbSpline
70
4
71
3
72
14
73
10
40
0
40
0
40
0
40
0
40
0.25
40
0.25
40
0.5
40
0.5
40
0.75
40
0.75
40
1
40
1
40
1
40
1
41
1
10
32.2495
20
-15.5703702247132
30
0
41
1
10
32.2596892182419
20
-15.5537244060085
30
0
41
1
10
32.2691410712168
20
-15.5371479955473
30
0
41
1
10
32.2864885619919
20
-15.5041362228495
30
0
41
1
10
32.2943464228541
20
-15.4877581462691
30
0
41
1
10
32.3078272140934
20
-15.4560122948547
30
0
41
1
10
32.3135248842869
20
-15.4405314920262
30
0
41
1
10
32.3219195342535
20
-15.4107737469565
30
0
41
1
10
32.3245
20
-15.397025683911
30
0
41
1
10
32.3245
20
-15.3850933995447
30
0
0
SPLINE
5
1A1
100
AcDbEntity
8
1
62
256
6
ByLayer
370
18
48
1
60
0
100
AcDbSpline
70
4
71
3
72
14
73
10
40
0
40
0
40
0
40
0
40
0.25
40
0.25
40
0.5
40
0.5
40
0.75
40
0.75
40
1
40
1
40
1
40
1
41
1
10
32.3245
20
-15.2365834598287
30
0
41
1
10
32.3245
20
-15.2280574715485
30
0
41
1
10
32.3232265794519
20
-15.2206332405457
30
0
41
1
10
32.31687672309
20
-15.2094874469187
30
0
41
1
10
32.3116771773874
20
-15.2060071462587
30
0
41
1
10
32.2976317133279
20
-15.2051536604223
30
0
41
1
10
32.2887191089604
20
-15.2077937103421
30
0
41
1
10
32.2697156290151
20
-15.217628287636
30
0
41
1
10
32.2595363211322
20
-15.2247616701736
30
0
41
1
10
32.2495
20
-15.2329620912906
30
0
0
SPLINE
5
1A2
100
AcDbEntity
8
1
62
256
6
ByLayer
370
18
48
1
60
0
100
AcDbSpline
70
4
71
3
72
8
73
4
40
0
40
0
40
0
40
0
40
1
40
1
40
1
40
1
41
1
10
31.6055
20
-15.7591455874816
30
0
41
1
10
31.8201683008329
20
-15.5837537555397
30
0
41
1
10
32.0348350239476
20
-15.4083593488627
30
0
41
1
10
32.2495
20
-15.2329620912908
30
0
0
SPLINE
5
1A3
100
AcDbEntity
8
1
62
256
6
ByLayer
370
18
48
1
60
0
100
AcDbSpline
70
4
71
3
72
26
73
22
40
0
40
0
40
0
40
0
40
0.124999999999988
40
0.124999999999988
40
0.249999999999977
40
0.249999999999977
40
0.374999999999983
40
0.374999999999983
40
0.499999999999989
40
0.499999999999989
40
0.624999999999995
40
0.624999999999995
40
0.687499999999998
40
0.687499999999998
40
0.750000000000001
40
0.750000000000001
40
0.812500000000004
40
0.812500000000004
40
0.875000000000007
40
0.875000000000007
40
1
40
1
40
1
40
1
41
1
10
31.6055
20
-15.5333158840139
30
0
41
1
10
31.5958918484872
20
-15.5498511209733
30
0
41
1
10
31.5868679239031
20
-15.5663315893323
30
0
41
1
10
31.5700189601487
20
-15.5991763737715
30
0
41
1
10
31.5621623485242
20
-15.615616498999
30
0
41
1
10
31.5480821720497
20
-15.6477765695351
30
0
41
1
10
31.5418265485992
20
-15.663540203776
30
0
41
1
10
31.531248218515
20
-15.6942882460049
30
0
41
1
10
31.5268805409469
20
-15.7094347697568
30
0
41
1
10
31.5211849625344
20
-15.7376553641793
30
0
41
1
10
31.5197883614775
20
-15.7508866646789
30
0
41
1
10
31.5213761954243
20
-15.7677676580936
30
0
41
1
10
31.5225190456038
20
-15.7728014149721
30
0
41
1
10
31.5264023723426
20
-15.7813297714473
30
0
41
1
10
31.5291736513424
20
-15.7847936570811
30
0
41
1
10
31.5364537580244
20
-15.789331006793
30
0
41
1
10
31.541055609124
20
-15.7904205302319
30
0
41
1
10
31.5515714596233
20
-15.7899479027122
30
0
41
1
10
31.557659690864
20
-15.7883850305745
30
0
41
1
10
31.5769898352368
20
-15.7803707613262
30
0
41
1
10
31.5913559887425
20
-15.7707017605909
30
0
41
1
10
31.6055
20
-15.7591455874819
30
0
0
SPLINE
5
1A4
100
AcDbEntity
8
1
62
256
6
ByLayer
370
18
48
1
60
0
100
AcDbSpline
70
4
71
3
72
8
73
4
40
0
40
0
40
0
40
0
40
1
40
1
40
1
40
1
41
1
10
32.2495
20
-14.3919878841886
30
0
41
1
10
32.0394393316015
20
-14.7758958248991
30
0
41
1
10
31.8246182466614
20
-15.1562223165521
30
0
41
1
10
31.6055
20
-15.5333158840139
30
0
0
SPLINE
5
1A5
100
AcDbEntity
8
1
62
256
6
ByLayer
370
18
48
1
60
0
100
AcDbSpline
70
4
71
3
72
12
73
8
40
0
40
0
40
0
40
0
40
0.499999999999975
40
0.499999999999975
40
0.749999999999988
40
0.749999999999988
40
1
40
1
40
1
40
1
41
1
10
32.2495
20
-14.3919878841886
30
0
41
1
10
32.2701003209502
20
-14.354338633359
30
0
41
1
10
32.2877787394772
20
-14.3163913811337
30
0
41
1
10
32.3078803980417
20
-14.2617098394658
30
0
41
1
10
32.3135259625515
20
-14.2438253173232
30
0
41
1
10
32.3218604786181
20
-14.2090213858311
30
0
41
1
10
32.3245
20
-14.1924069066608
30
0
41
1
10
32.3245
20
-14.1775976034378
30
0
0
SPLINE
5
1A6
100
AcDbEntity
8
1
62
256
6
ByLayer
370
18
48
1
60
0
100
AcDbSpline
70
4
71
3
72
16
73
12
40
0
40
0
40
0
40
0
40
0.249999999999994
40
0.249999999999994
40
0.499999999999989
40
0.499999999999989
40
0.625000000000014
40
0.625000000000014
40
0.75000000000004
40
0.75000000000004
40
1
40
1
40
1
40
1
41
1
10
32.3245000000002
20
-13.9946525728947
30
0
41
1
10
32.3245000000003
20
-13.984793931125
30
0
41
1
10
32.3233647003519
20
-13.9757224015114
30
0
41
1
10
32.3176184398475
20
-13.9610733983107
30
0
41
1
10
32.3128322576153
20
-13.9554349467432
30
0
41
1
10
32.3023862346089
20
-13.9521189582845
30
0
41
1
10
32.2984597623733
20
-13.9518627336725
30
0
41
1
10
32.2897035298767
20
-13.9530805456519
30
0
41
1
10
32.2849092874381
20
-13.9545789497624
30
0
41
1
10
32.2702584567929
20
-13.961106001764
30
0
41
1
10
32.2597292289701
20
-13.968299885058
30
0
41
1
10
32.2495
20
-13.9767752987124
30
0
0
SPLINE
5
1A7
100
AcDbEntity
8
1
62
256
6
ByLayer
370
18
48
1
60
0
100
AcDbSpline
70
4
71
3
72
8
73
4
40
0
40
0
40
0
40
0
40
1
40
1
40
1
40
1
41
1
10
31.6055
20
-14.5100772776498
30
0
41
1
10
31.8202039791954
20
-14.3323700434185
30
0
41
1
10
32.0348720691877
20
-14.1546049768551
30
0
41
1
10
32.2495
20
-13.9767752987127
30
0
0
SPLINE
5
1A8
100
AcDbEntity
8
1
62
256
6
ByLayer
370
18
48
1
60
0
100
AcDbSpline
70
4
71
3
72
20
73
16
40
0
40
0
40
0
40
0
40
0.249999999999993
40
0.249999999999993
40
0.499999999999987
40
0.499999999999987
40
0.624999999999988
40
0.624999999999988
40
0.749999999999988
40
0.749999999999988
40
0.812499999999987
40
0.812499999999987
40
0.874999999999985
40
0.874999999999985
40
1
40
1
40
1
40
1
41
1
10
31.6055
20
-14.2334897125276
30
0
41
1
10
31.5866517826199
20
-14.2700357334336
30
0
41
1
10
31.5700039298075
20
-14.3067132975129
30
0
41
1
10
31.5423540195795
20
-14.3786299644915
30
0
41
1
10
31.5312606202711
20
-14.4137052273499
30
0
41
1
10
31.5219459700353
20
-14.463435638372
30
0
41
1
10
31.520163421698
20
-14.4791290996216
30
0
41
1
10
31.520937540741
20
-14.5076437025055
30
0
41
1
10
31.5235318896775
20
-14.520413368311
30
0
41
1
10
31.5333610563208
20
-14.5329477804308
30
0
41
1
10
31.5376625576701
20
-14.5359341976592
30
0
41
1
10
31.5481845403429
20
-14.538597526839
30
0
41
1
10
31.5543955213243
20
-14.538278325242
30
0
41
1
10
31.5749730316655
20
-14.5324844686063
30
0
41
1
10
31.5904547654825
20
-14.5225299905646
30
0
41
1
10
31.6055
20
-14.5100772776503
30
0
0
SPLINE
5
1A9
100
AcDbEntity
8
1
62
256
6
ByLayer
370
18
48
1
60
0
100
AcDbSpline
70
4
71
3
72
8
73
4
40
0
40
0
40
0
40
0
40
1
40
1
40
1
40
1
41
1
10
32.2495
20
-12.9353083296312
30
0
41
1
10
32.0414057264598
20
-13.3723826835176
30
0
41
1
10
31.8265103487022
20
-13.8049585330932
30
0
41
1
10
31.6055
20
-14.2334897125276
30
0
0
SPLINE
5
1AA
100
AcDbEntity
8
1
62
256
6
ByLayer
370
18
48
1
60
0
100
AcDbSpline
70
4
71
3
72
12
73
8
40
0
40
0
40
0
40
0
40
0.500000000000011
40
0.500000000000011
40
0.750000000000006
40
0.750000000000006
40
1
40
1
40
1
40
1
41
1
10
32.2495
20
-12.9353083296312
30
0
41
1
10
32.2704007391946
20
-12.8914091058621
30
0
41
1
10
32.2879822475922
20
-12.8472681461817
30
0
41
1
10
32.3079572516775
20
-12.782864662175
30
0
41
1
10
32.3135713793242
20
-12.7616176300328
30
0
41
1
10
32.3218661041996
20
-12.7197509393173
30
0
41
1
10
32.3245
20
-12.6996254052808
30
0
41
1
10
32.3245
20
-12.6809876861899
30
0
0
SPLINE
5
1AB
100
AcDbEntity
8
1
62
256
6
ByLayer
370
18
48
1
60
0
100
AcDbSpline
70
4
71
3
72
16
73
12
40
0
40
0
40
0
40
0
40
0.249999999999988
40
0.249999999999988
40
0.499999999999976
40
0.499999999999976
40
0.624999999999982
40
0.624999999999982
40
0.749999999999988
40
0.749999999999988
40
1
40
1
40
1
40
1
41
1
10
32.3245000000022
20
-12.4517920695657
30
0
41
1
10
32.3245000000022
20
-12.4403673839731
30
0
41
1
10
32.3235743306348
20
-12.429625754431
30
0
41
1
10
32.3185093869108
20
-12.4105343684028
30
0
41
1
10
32.3143452477188
20
-12.4023667097377
30
0
41
1
10
32.3043830436249
20
-12.3952686195637
30
0
41
1
10
32.3004139948646
20
-12.3938031093933
30
0
41
1
10
32.2915112087763
20
-12.3931584348768
30
0
41
1
10
32.2865270212046
20
-12.3939796046377
30
0
41
1
10
32.2710236762014
20
-12.3994427929495
30
0
41
1
10
32.2600273798581
20
-12.4069276847059
30
0
41
1
10
32.2494999999999
20
-12.4160122997158
30
0
0
SPLINE
5
1AC
100
AcDbEntity
8
1
62
256
6
ByLayer
370
18
48
1
60
0
100
AcDbSpline
70
4
71
3
72
8
73
4
40
0
40
0
40
0
40
0
40
1
40
1
40
1
40
1
41
1
10
31.6055
20
-12.9705056015292
30
0
41
1
10
31.8203319606478
20
-12.7859304687195
30
0
41
1
10
32.0350057378337
20
-12.6011103791873
30
0
41
1
10
32.2495
20
-12.4160122997164
30
0
0
SPLINE
5
1AD
100
AcDbEntity
8
1
62
256
6
ByLayer
370
18
48
1
60
0
100
AcDbSpline
70
4
71
3
72
24
73
20
40
0
40
0
40
0
40
0
40
0.250000000000002
40
0.250000000000002
40
0.500000000000004
40
0.500000000000004
40
0.625000000000003
40
0.625000000000003
40
0.687500000000002
40
0.687500000000002
40
0.750000000000002
40
0.750000000000002
40
0.812500000000001
40
0.812500000000001
40
0.875000000000001
40
0.875000000000001
40
0.9375
40
0.9375
40
1
40
1
40
1
40
1
41
1
10
31.6055
20
-12.6253933182574
30
0
41
1
10
31.5871052913815
20
-12.6668646329223
30
0
41
1
10
31.5710912961356
20
-12.7081105915473
30
0
41
1
10
31.5440852439905
20
-12.7901074712467
30
0
41
1
10
31.5329517483909
20
-12.8312335257821
30
0
41
1
10
31.5230384094654
20
-12.8895338130816
30
0
41
1
10
31.5208319714488
20
-12.9086042462075
30
0
41
1
10
31.5203839976251
20
-12.935547051479
30
0
41
1
10
31.5207198225128
20
-12.944158775789
30
0
41
1
10
31.5227347251933
20
-12.9603661394202
30
0
41
1
10
31.5244381152916
20
-12.9680544303652
30
0
41
1
10
31.529778126137
20
-12.9813298323849
30
0
41
1
10
31.5334545596744
20
-12.987003316287
30
0
41
1
10
31.5434049494314
20
-12.9947235523583
30
0
41
1
10
31.5497502602555
20
-12.9966617979703
30
0
41
1
10
31.5642590289375
20
-12.9956830047328
30
0
41
1
10
31.5724545920519
20
-12.9927821279149
30
0
41
1
10
31.588892883095
20
-12.9837225694705
30
0
41
1
10
31.59733722664
20
-12.9775187338987
30
0
41
1
10
31.6055000000001
20
-12.97050560153
30
0
0
SPLINE
5
1AE
100
AcDbEntity
8
1
62
256
6
ByLayer
370
18
48
1
60
0
100
AcDbSpline
70
4
71
3
72
8
73
4
40
0
40
0
40
0
40
0
40
1
40
1
40
1
40
1
41
1
10
32.2495
20
-11.0912167009135
30
0
41
1
10
32.0449435898546
20
-11.6082675252431
30
0
41
1
10
31.829910422179
20
-12.1194546037457
30
0
41
1
10
31.6055
20
-12.6253933182574
30
0
0
SPLINE
5
1AF
100
AcDbEntity
8
1
62
256
6
ByLayer
370
18
48
1
60
0
100
AcDbSpline
70
4
71
3
72
12
73
8
40
0
40
0
40
0
40
0
40
0.500000000000004
40
0.500000000000004
40
0.750000000000002
40
0.750000000000002
40
1
40
1
40
1
40
1
41
1
10
32.2495000000002
20
-11.0912167009135
30
0
41
1
10
32.2707493762863
20
-11.0375053187211
30
0
41
1
10
32.288114006892
20
-10.984092352797
30
0
41
1
10
32.308033340519
20
-10.9044186364488
30
0
41
1
10
32.3136471049518
20
-10.8778062422475
30
0
41
1
10
32.3218575668025
20
-10.8254042330729
30
0
41
1
10
32.3245
20
-10.7998432734029
30
0
41
1
10
32.3245
20
-10.7754639616859
30
0
0
SPLINE
5
1B0
100
AcDbEntity
8
1
62
256
6
ByLayer
370
18
48
1
60
0
100
AcDbSpline
70
4
71
3
72
20
73
16
40
0
40
0
40
0
40
0
40
0.25
40
0.25
40
0.375
40
0.375
40
0.5
40
0.5
40
0.625
40
0.625
40
0.75
40
0.75
40
0.875
40
0.875
40
1
40
1
40
1
40
1
41
1
10
32.3245000000103
20
-10.4758747057858
30
0
41
1
10
32.3245000000108
20
-10.4622480685125
30
0
41
1
10
32.3237200066662
20
-10.4489518311854
30
0
41
1
10
32.3205608214897
20
-10.4305545407479
30
0
41
1
10
32.3191774382012
20
-10.4247046537611
30
0
41
1
10
32.3154601805353
20
-10.4138219207665
30
0
41
1
10
32.3130942942822
20
-10.4087403605803
30
0
41
1
10
32.3071073011926
20
-10.4003169334065
30
0
41
1
10
32.3033938502503
20
-10.39688473922
30
0
41
1
10
32.294518318095
20
-10.3929059165863
30
0
41
1
10
32.2892737818143
20
-10.3923980908058
30
0
41
1
10
32.2781480202122
20
-10.3946418601521
30
0
41
1
10
32.2722402591585
20
-10.3973541368364
30
0
41
1
10
32.2607361074498
20
-10.4047199434934
30
0
41
1
10
32.2549952414778
20
-10.4094314721799
30
0
41
1
10
32.2494999999996
20
-10.4146279387547
30
0
0
SPLINE
5
1B1
100
AcDbEntity
8
1
62
256
6
ByLayer
370
18
48
1
60
0
100
AcDbSpline
70
4
71
3
72
8
73
4
40
0
40
0
40
0
40
0
40
1
40
1
40
1
40
1
41
1
10
31.6055
20
-11.019332489549
30
0
41
1
10
31.8207399691693
20
-10.8185783823277
30
0
41
1
10
32.035436607666
20
-10.6170527580397
30
0
41
1
10
32.2495
20
-10.4146279387559
30
0
0
SPLINE
5
1B2
100
AcDbEntity
8
1
62
256
6
ByLayer
370
18
48
1
60
0
100
AcDbSpline
70
4
71
3
72
26
73
22
40
0
40
0
40
0
40
0
40
0.249999999999986
40
0.249999999999986
40
0.499999999999972
40
0.499999999999972
40
0.624999999999967
40
0.624999999999967
40
0.687499999999972
40
0.687499999999972
40
0.749999999999977
40
0.749999999999977
40
0.812499999999982
40
0.812499999999982
40
0.843749999999984
40
0.843749999999984
40
0.874999999999987
40
0.874999999999987
40
0.937499999999993
40
0.937499999999993
40
1
40
1
40
1
40
1
41
1
10
31.6055
20
-10.5692423325784
30
0
41
1
10
31.5876431568551
20
-10.6187961400232
30
0
41
1
10
31.5720151535183
20
-10.6685126312753
30
0
41
1
10
31.5457683658979
20
-10.766660157988
30
0
41
1
10
31.5349848127961
20
-10.8153022796541
30
0
41
1
10
31.5244066800093
20
-10.8872728105716
30
0
41
1
10
31.5218528593706
20
-10.911043650543
30
0
41
1
10
31.5204188041757
20
-10.9452806611476
30
0
41
1
10
31.5203401032587
20
-10.956485071097
30
0
41
1
10
31.521316572032
20
-10.9783092712762
30
0
41
1
10
31.522379144929
20
-10.9889959860531
30
0
41
1
10
31.5262116700882
20
-11.00878926678
30
0
41
1
10
31.528987116134
20
-11.0180751916216
30
0
41
1
10
31.5353102988491
20
-11.0297189979099
30
0
41
1
10
31.5377554775792
20
-11.0331628737239
30
0
41
1
10
31.5435578935233
20
-11.0388720525554
30
0
41
1
10
31.5469352756757
20
-11.0411137199878
30
0
41
1
10
31.5582572753071
20
-11.045142446326
30
0
41
1
10
31.567713171199
20
-11.0439723663317
30
0
41
1
10
31.5867407936386
20
-11.0351534278306
30
0
41
1
10
31.5963755984043
20
-11.0278428099313
30
0
41
1
10
31.6055000000005
20
-11.0193324895505
30
0
0
SPLINE
5
1B3
100
AcDbEntity
8
1
62
256
6
ByLayer
370
18
48
1
60
0
100
AcDbSpline
70
4
71
3
72
8
73
4
40
0
40
0
40
0
40
0
40
1
40
1
40
1
40
1
41
1
10
32.2495
20
-8.6144050421731
30
0
41
1
10
32.0529095032927
20
-9.27395742250886
30
0
41
1
10
31.837557523584
20
-9.92526882917292
30
0
41
1
10
31.6055
20
-10.5692423325784
30
0
0
SPLINE
5
1B4
100
AcDbEntity
8
1
62
256
6
ByLayer
370
18
48
1
60
0
100
AcDbSpline
70
4
71
3
72
12
73
8
40
0
40
0
40
0
40
0
40
0.500000000000004
40
0.500000000000004
40
0.750000000000002
40
0.750000000000002
40
1
40
1
40
1
40
1
41
1
10
32.2495000000001
20
-8.61440504217308
30
0
41
1
10
32.2712546187304
20
-8.54141926306812
30
0
41
1
10
32.2887186806718
20
-8.46839262995726
30
0
41
1
10
32.3085114899594
20
-8.3587664318822
30
0
41
1
10
32.3139715238253
20
-8.32238837700748
30
0
41
1
10
32.321917021225
20
-8.25052405150089
30
0
41
1
10
32.3245
20
-8.21495282829233
30
0
41
1
10
32.3245
20
-8.18008548133113
30
0
0
SPLINE
5
1B5
100
AcDbEntity
8
1
62
256
6
ByLayer
370
18
48
1
60
0
100
AcDbSpline
70
4
71
3
72
18
73
14
40
0
40
0
40
0
40
0
40
0.249999999999989
40
0.249999999999989
40
0.499999999999978
40
0.499999999999978
40
0.624999999999984
40
0.624999999999984
40
0.749999999999989
40
0.749999999999989
40
0.874999999999995
40
0.874999999999995
40
1
40
1
40
1
40
1
41
1
10
32.3245
20
-7.742142853187
30
0
41
1
10
32.3245
20
-7.72451769938354
30
0
41
1
10
32.3239122919799
20
-7.70717174850193
30
0
41
1
10
32.3207529083203
20
-7.67344138464128
30
0
41
1
10
32.3182332122497
20
-7.65674285088005
30
0
41
1
10
32.3111398930036
20
-7.63454660946681
30
0
41
1
10
32.3081771461697
20
-7.6275421986266
30
0
41
1
10
32.3002308808571
20
-7.61609615481945
30
0
41
1
10
32.2951355455777
20
-7.61165458521384
30
0
41
1
10
32.2824510330992
20
-7.60916679688762
30
0
41
1
10
32.2752644858578
20
-7.61143589895386
30
0
41
1
10
32.2616724654686
20
-7.62038941044804
30
0
41
1
10
32.255362671196
20
-7.62668441072734
30
0
41
1
10
32.2495
20
-7.63358295813433
30
0
0
SPLINE
5
1B6
100
AcDbEntity
8
1
62
256
6
ByLayer
370
18
48
1
60
0
100
AcDbSpline
70
4
71
3
72
8
73
4
40
0
40
0
40
0
40
0
40
1
40
1
40
1
40
1
41
1
10
31.6055
20
-8.3736110174261
30
0
41
1
10
31.8225293003015
20
-8.12967639832331
30
0
41
1
10
32.0373665452931
20
-7.88319830325074
30
0
41
1
10
32.2495
20
-7.63358295813433
30
0
0
SPLINE
5
1B7
100
AcDbEntity
8
1
62
256
6
ByLayer
370
18
48
1
60
0
100
AcDbSpline
70
4
71
3
72
28
73
24
40
0
40
0
40
0
40
0
40
0.249999999999996
40
0.249999999999996
40
0.499999999999993
40
0.499999999999993
40
0.624999999999994
40
0.624999999999994
40
0.749999999999996
40
0.749999999999996
40
0.812499999999991
40
0.812499999999991
40
0.843749999999993
40
0.843749999999993
40
0.874999999999994
40
0.874999999999994
40
0.906249999999996
40
0.906249999999996
40
0.937499999999997
40
0.937499999999997
40
0.968749999999999
40
0.968749999999999
40
1
40
1
40
1
40
1
41
1
10
31.6054999999996
20
-7.71473982249813
30
0
41
1
10
31.5885769852419
20
-7.78097828604785
30
0
41
1
10
31.5737786406264
20
-7.84696793614933
30
0
41
1
10
31.5484174930481
20
-7.97844052354029
30
0
41
1
10
31.537797636014
20
-8.04392844473304
30
0
41
1
10
31.5265743250117
20
-8.14164486406762
30
0
41
1
10
31.5236218884951
20
-8.1741963552596
30
0
41
1
10
31.520256070083
20
-8.23876637118323
30
0
41
1
10
31.5197737989799
20
-8.27045006288586
30
0
41
1
10
31.5228330742295
20
-8.31614906135488
30
0
41
1
10
31.5244932097765
20
-8.33114878934836
30
0
41
1
10
31.5288006947063
20
-8.35253976664808
30
0
41
1
10
31.5305311270297
20
-8.35940949468366
30
0
41
1
10
31.5348759158401
20
-8.37237160833831
30
0
41
1
10
31.5375175995501
20
-8.37854005955063
30
0
41
1
10
31.5441354070324
20
-8.38918735486632
30
0
41
1
10
31.5481602808463
20
-8.39371783465458
30
0
41
1
10
31.5579708320389
20
-8.39934345018207
30
0
41
1
10
31.5637965862586
20
-8.40028225526362
30
0
41
1
10
31.5760487214159
20
-8.39770888838592
30
0
41
1
10
31.5824296550994
20
-8.39428785304662
30
0
41
1
10
31.5944898049967
20
-8.38518891230811
30
0
41
1
10
31.6001094477988
20
-8.37966984126294
30
0
41
1
10
31.6055
20
-8.3736110174261
30
0
0
SPLINE
5
1B8
100
AcDbEntity
8
1
62
256
6
ByLayer
370
18
48
1
60
0
100
AcDbSpline
70
4
71
3
72
8
73
4
40
0
40
0
40
0
40
0
40
1
40
1
40
1
40
1
41
1
10
32.2495000000003
20
-4.57174589786149
30
0
41
1
10
32.0864300612877
20
-5.63350618125864
30
0
41
1
10
31.8697062205963
20
-6.68060882615384
30
0
41
1
10
31.6055000000001
20
-7.71473982249813
30
0
0
SPLINE
5
1B9
100
AcDbEntity
8
1
62
256
6
ByLayer
370
18
48
1
60
0
100
AcDbSpline
70
4
71
3
72
12
73
8
40
0
40
0
40
0
40
0
40
0.499999999999998
40
0.499999999999998
40
0.749999999999999
40
0.749999999999999
40
1
40
1
40
1
40
1
41
1
10
32.2495
20
-4.5717458978614
30
0
41
1
10
32.2734498749667
20
-4.41580651238846
30
0
41
1
10
32.2910679373763
20
-4.25978962707757
30
0
41
1
10
32.310080956516
20
-4.0255811011771
30
0
41
1
10
32.3151331006438
20
-3.94748237441914
30
0
41
1
10
32.3223201941462
20
-3.79123244662023
30
0
41
1
10
32.3245
20
-3.71323815752797
30
0
41
1
10
32.3245
20
-3.63551555823611
30
0
0
SPLINE
5
1BA
100
AcDbEntity
8
1
62
256
6
ByLayer
370
18
48
1
60
0
100
AcDbSpline
70
4
71
3
72
29
73
25
40
0
40
0
40
0
40
0
40
0.249999999999979
40
0.249999999999979
40
0.499999999999959
40
0.624999999999947
40
0.624999999999947
40
0.749999999999936
40
0.749999999999936
40
0.812499999999929
40
0.812499999999929
40
0.843749999999929
40
0.843749999999929
40
0.859374999999936
40
0.859374999999936
40
0.874999999999942
40
0.874999999999942
40
0.890624999999948
40
0.890624999999948
40
0.906249999999955
40
0.906249999999955
40
0.937499999999973
40
0.937499999999973
40
1
40
1
40
1
40
1
41
1
10
32.3245000000001
20
-2.37436329715152
30
0
41
1
10
32.3245000000001
20
-2.31940641055107
30
0
41
1
10
32.3240323999323
20
-2.26449631457612
30
0
41
1
10
32.321844723872
20
-2.15482541361573
30
0
41
1
10
32.319316428687
20
-2.0726751218275
30
0
41
1
10
32.3143104212239
20
-1.99088027341219
30
0
41
1
10
32.3099789692881
20
-1.93650712811882
30
0
41
1
10
32.3074068235437
20
-1.90939960539265
30
0
41
1
10
32.3015807534019
20
-1.86948409506101
30
0
41
1
10
32.2993630930082
20
-1.85625551520161
30
0
41
1
10
32.294437082563
20
-1.83706853659669
30
0
41
1
10
32.2925937216098
20
-1.83082493458858
30
0
41
1
10
32.2885431714969
20
-1.82243858632876
30
0
41
1
10
32.2869632734355
20
-1.81977404820719
30
0
41
1
10
32.2828407766149
20
-1.81622276581149
30
0
41
1
10
32.2801531501683
20
-1.8157990354519
30
0
41
1
10
32.2754571598491
20
-1.8184796529832
30
0
41
1
10
32.2734636569784
20
-1.82104485592922
30
0
41
1
10
32.2700739002268
20
-1.82643038646259
30
0
41
1
10
32.2686013610436
20
-1.82940234054823
30
0
41
1
10
32.2645355434312
20
-1.83857501600201
30
0
41
1
10
32.2622853935206
20
-1.8450450665832
30
0
41
1
10
32.2560686746893
20
-1.86469526426183
30
0
41
1
10
32.2526604819255
20
-1.87818615996451
30
0
41
1
10
32.2495000000001
20
-1.89174587477058
30
0
0
SPLINE
5
1BB
100
AcDbEntity
8
1
62
256
6
ByLayer
370
18
48
1
60
0
100
AcDbSpline
70
4
71
3
72
18
73
14
40
0
40
0
40
0
40
0
40
0.249999999999994
40
0.249999999999994
40
0.499999999999989
40
0.499999999999989
40
0.624999999999992
40
0.624999999999992
40
0.749999999999994
40
0.749999999999994
40
0.874999999999997
40
0.874999999999997
40
1
40
1
40
1
40
1
41
1
10
9.33660254037858
20
6.16973001948574
30
0
41
1
10
9.32721186043494
20
6.13568757087469
30
0
41
1
10
9.31597445228977
20
6.10231901184952
30
0
41
1
10
9.28852371889997
20
6.03742672607436
30
0
41
1
10
9.27226224655618
20
6.00567161829611
30
0
41
1
10
9.24217730798267
20
5.96102885758611
30
0
41
1
10
9.23126332140683
20
5.94676259304853
30
0
41
1
10
9.20699632571436
20
5.91993010703163
30
0
41
1
10
9.19372453113988
20
5.90747721696036
30
0
41
1
10
9.1646877544699
20
5.88590801224899
30
0
41
1
10
9.14852956001863
20
5.87657212596483
30
0
41
1
10
9.11408210674728
20
5.8635821694487
30
0
41
1
10
9.0955561358237
20
5.85988980456941
30
0
41
1
10
9.07679491924327
20
5.85988980456941
30
0
0
SPLINE
5
1BC
100
AcDbEntity
8
1
62
256
6
ByLayer
370
18
48
1
60
0
100
AcDbSpline
70
4
71
3
72
16
73
12
40
0
40
0
40
0
40
0
40
0.125000000000003
40
0.125000000000003
40
0.250000000000006
40
0.250000000000006
40
0.500000000000004
40
0.500000000000004
40
0.750000000000002
40
0.750000000000002
40
1
40
1
40
1
40
1
41
1
10
6.92320508075687
20
5.85988980456938
30
0
41
1
10
6.90441904704289
20
5.85988980456938
30
0
41
1
10
6.88615093812098
20
5.8635044647273
30
0
41
1
10
6.85140047601269
20
5.87658838136369
30
0
41
1
10
6.83557582658116
20
5.88571770958595
30
0
41
1
10
6.79136513419885
20
5.91854200832066
30
0
41
1
10
6.7678647176848
20
5.94612987812175
30
0
41
1
10
6.72774154010145
20
6.00566371121207
30
0
41
1
10
6.71161954962213
20
6.03712755983028
30
0
41
1
10
6.68411546052437
20
6.10206728171738
30
0
41
1
10
6.67279157843183
20
6.13567510453117
30
0
41
1
10
6.66339745962154
20
6.16973001948571
30
0
0
SPLINE
5
1BD
100
AcDbEntity
8
1
62
256
6
ByLayer
370
18
48
1
60
0
100
AcDbSpline
70
4
71
3
72
18
73
14
40
0
40
0
40
0
40
0
40
0.249999999999997
40
0.249999999999997
40
0.499999999999994
40
0.499999999999994
40
0.624999999999996
40
0.624999999999996
40
0.749999999999997
40
0.749999999999997
40
0.874999999999999
40
0.874999999999999
40
1
40
1
40
1
40
1
41
1
10
6.66339745962154
20
19.0245744101322
30
0
41
1
10
6.67278813956517
20
19.0356144845436
30
0
41
1
10
6.68402554771035
20
19.0463346141653
30
0
41
1
10
6.71147628110015
20
19.0670039094876
30
0
41
1
10
6.7277377534439
20
19.0770249518318
30
0
41
1
10
6.75782269201741
20
19.0910025433169
30
0
41
1
10
6.76873667859329
20
19.0954500347066
30
0
41
1
10
6.79300367428576
20
19.1037856168331
30
0
41
1
10
6.80627546886024
20
19.1076382714245
30
0
41
1
10
6.83531224553022
20
19.1142934541629
30
0
41
1
10
6.85147043998148
20
19.1171636549363
30
0
41
1
10
6.88591789325284
20
19.1211519083817
30
0
41
1
10
6.90444386417642
20
19.1222825906925
30
0
41
1
10
6.92320508075687
20
19.1222825906926
30
0
0
SPLINE
5
1BE
100
AcDbEntity
8
1
62
256
6
ByLayer
370
18
48
1
60
0
100
AcDbSpline
70
4
71
3
72
16
73
12
40
0
40
0
40
0
40
0
40
0.124999999999998
40
0.124999999999998
40
0.249999999999997
40
0.249999999999997
40
0.499999999999998
40
0.499999999999998
40
0.749999999999999
40
0.749999999999999
40
1
40
1
40
1
40
1
41
1
10
6.92320508075687
20
-19.1222825906925
30
0
41
1
10
6.90441904704289
20
-19.1222825906925
30
0
41
1
10
6.88615093812098
20
-19.1211757542148
30
0
41
1
10
6.85140047601269
20
-19.1171586755843
30
0
41
1
10
6.83557582658119
20
-19.1143521510704
30
0
41
1
10
6.79136513419885
20
-19.1042242696216
30
0
41
1
10
6.7678647176848
20
-19.0956673725615
30
0
41
1
10
6.72774154010145
20
-19.0770274497583
30
0
41
1
10
6.71161954962213
20
-19.06709867989
30
0
41
1
10
6.68411546052437
20
-19.0464153092313
30
0
41
1
10
6.67279157843183
20
-19.0356185274184
30
0
41
1
10
6.66339745962154
20
-19.0245744101322
30
0
0
SPLINE
5
1BF
100
AcDbEntity
8
1
62
256
6
ByLayer
370
18
48
1
60
0
100
AcDbSpline
70
4
71
3
72
18
73
14
40
0
40
0
40
0
40
0
40
0.249999999999998
40
0.249999999999998
40
0.499999999999996
40
0.499999999999996
40
0.624999999999997
40
0.624999999999997
40
0.749999999999998
40
0.749999999999998
40
0.874999999999999
40
0.874999999999999
40
1
40
1
40
1
40
1
41
1
10
6.66339745962154
20
-6.16973001948571
30
0
41
1
10
6.67278813956517
20
-6.13568757087467
30
0
41
1
10
6.68402554771035
20
-6.10231901184949
30
0
41
1
10
6.71147628110015
20
-6.03742672607433
30
0
41
1
10
6.72773775344393
20
-6.00567161829608
30
0
41
1
10
6.75782269201744
20
-5.96102885758609
30
0
41
1
10
6.76873667859329
20
-5.9467625930485
30
0
41
1
10
6.79300367428576
20
-5.91993010703158
30
0
41
1
10
6.80627546886026
20
-5.9074772169603
30
0
41
1
10
6.83531224553022
20
-5.88590801224896
30
0
41
1
10
6.85147043998148
20
-5.87657212596477
30
0
41
1
10
6.88591789325287
20
-5.86358216944865
30
0
41
1
10
6.90444386417642
20
-5.85988980456935
30
0
41
1
10
6.92320508075687
20
-5.85988980456935
30
0
0
SPLINE
5
1C0
100
AcDbEntity
8
1
62
256
6
ByLayer
370
18
48
1
60
0
100
AcDbSpline
70
4
71
3
72
16
73
12
40
0
40
0
40
0
40
0
40
0.125000000000003
40
0.125000000000003
40
0.250000000000007
40
0.250000000000007
40
0.500000000000005
40
0.500000000000005
40
0.750000000000002
40
0.750000000000002
40
1
40
1
40
1
40
1
41
1
10
9.07679491924324
20
-5.85988980456941
30
0
41
1
10
9.09558095295722
20
-5.85988980456943
30
0
41
1
10
9.11384906187917
20
-5.86350446472733
30
0
41
1
10
9.14859952398746
20
-5.87658838136372
30
0
41
1
10
9.16442417341895
20
-5.88571770958598
30
0
41
1
10
9.20863486580129
20
-5.91854200832069
30
0
41
1
10
9.23213528231534
20
-5.94612987812181
30
0
41
1
10
9.27225845989869
20
-6.00566371121212
30
0
41
1
10
9.28838045037801
20
-6.03712755983034
30
0
41
1
10
9.31588453947577
20
-6.10206728171744
30
0
41
1
10
9.3272084215684
20
-6.13567510453157
30
0
41
1
10
9.33660254037869
20
-6.16973001948611
30
0
0
SPLINE
5
1C1
100
AcDbEntity
8
1
62
256
6
ByLayer
370
18
48
1
60
0
100
AcDbSpline
70
4
71
3
72
18
73
14
40
0
40
0
40
0
40
0
40
0.249999999999992
40
0.249999999999992
40
0.499999999999983
40
0.499999999999983
40
0.624999999999987
40
0.624999999999987
40
0.749999999999992
40
0.749999999999992
40
0.874999999999996
40
0.874999999999996
40
1
40
1
40
1
40
1
41
1
10
9.33660254037869
20
-19.0245744101321
30
0
41
1
10
9.32721186043506
20
-19.0356144845434
30
0
41
1
10
9.31597445228982
20
-19.0463346141653
30
0
41
1
10
9.2885237189
20
-19.0670039094875
30
0
41
1
10
9.27226224655624
20
-19.0770249518318
30
0
41
1
10
9.24217730798273
20
-19.0910025433169
30
0
41
1
10
9.23126332140686
20
-19.0954500347066
30
0
41
1
10
9.20699632571439
20
-19.1037856168331
30
0
41
1
10
9.19372453113991
20
-19.1076382714245
30
0
41
1
10
9.16468775446992
20
-19.1142934541629
30
0
41
1
10
9.14852956001866
20
-19.1171636549363
30
0
41
1
10
9.11408210674728
20
-19.1211519083817
30
0
41
1
10
9.09555613582373
20
-19.1222825906926
30
0
41
1
10
9.07679491924327
20
-19.1222825906926
30
0
0
SPLINE
5
1C2
100
AcDbEntity
8
SK1
62
256
6
ByLayer
370
18
48
1
60
0
100
AcDbSpline
70
4
71
3
72
8
73
4
40
0
40
0
40
0
40
0
40
1
40
1
40
1
40
1
41
0.980125716641699
10
-0.200000000000002
20
-5.69634850395925
30
0
41
0.980125716641699
10
-0.200000000000002
20
-5.69038569361854
30
0
41
0.980125716641699
10
-0.200000000000002
20
-5.68442002678323
30
0
41
0.980125716641699
10
-0.200000000000002
20
-5.67845150388105
30
0
0
SPLINE
5
1C3
100
AcDbEntity
8
SK1
62
256
6
ByLayer
370
18
48
1
60
0
100
AcDbSpline
70
4
71
3
72
26
73
22
40
0
40
0
40
0
40
0
40
0.0312499999999999
40
0.0312499999999999
40
0.0624999999999999
40
0.0624999999999999
40
0.0937499999999998
40
0.0937499999999998
40
0.125
40
0.125
40
0.1875
40
0.1875
40
0.25
40
0.25
40
0.374999999999999
40
0.374999999999999
40
0.499999999999999
40
0.499999999999999
40
0.75
40
0.75
40
1
40
1
40
1
40
1
41
1
10
-0.394913799811292
20
-13.8446596982821
30
0
41
1
10
-0.388593885243026
20
-13.8450250955503
30
0
41
1
10
-0.381697986923029
20
-13.8456694438159
30
0
41
1
10
-0.366414150147975
20
-13.8479342360846
30
0
41
1
10
-0.357954764476204
20
-13.8496012556341
30
0
41
1
10
-0.341070083536834
20
-13.8540052897844
30
0
41
1
10
-0.332743293280913
20
-13.8567292113688
30
0
41
1
10
-0.318366184722322
20
-13.8622189843533
30
0
41
1
10
-0.31211420249933
20
-13.8650128625779
30
0
41
1
10
-0.29556445753623
20
-13.8731201398341
30
0
41
1
10
-0.287209208096499
20
-13.878225468905
30
0
41
1
10
-0.272924030069333
20
-13.8878208927885
30
0
41
1
10
-0.267075773720634
20
-13.8923152006563
30
0
41
1
10
-0.251556816304273
20
-13.9052316346871
30
0
41
1
10
-0.24388876929018
20
-13.913115040607
30
0
41
1
10
-0.231153161037895
20
-13.9277833881154
30
0
41
1
10
-0.22616799926196
20
-13.9345502713768
30
0
41
1
10
-0.213679061265964
20
-13.9535995966933
30
0
41
1
10
-0.208609119240791
20
-13.9646403216358
30
0
41
1
10
-0.201888899753485
20
-13.984321015747
30
0
41
1
10
-0.20032548493181
20
-13.9929389755075
30
0
41
1
10
-0.200000000000003
20
-14.0005308360297
30
0
0
SPLINE
5
1C4
100
AcDbEntity
8
SK1
62
256
6
ByLayer
370
18
48
1
60
0
100
AcDbSpline
70
4
71
3
72
8
73
4
40
0
40
0
40
0
40
0
40
1
40
1
40
1
40
1
41
0.9801257166417
10
-0.200000000000002
20
5.67845201644855
30
0
41
0.9801257166417
10
-0.200000000000002
20
5.70585523578343
30
0
41
0.9801257166417
10
-0.200000000000002
20
5.73319824959807
30
0
41
0.9801257166417
10
-0.200000000000002
20
5.76048101644849
30
0
0
SPLINE
5
1C5
100
AcDbEntity
8
SK1
62
256
6
ByLayer
370
18
48
1
60
0
100
AcDbSpline
70
4
71
3
72
10
73
6
40
0
40
0
40
0
40
0
40
0.5
40
0.5
40
1
40
1
40
1
40
1
41
1
10
0
20
14.0449295131766
30
0
41
1
10
-0.0266012285181603
20
14.0405020558767
30
0
41
1
10
-0.0556377796240781
20
14.0349844024444
30
0
41
1
10
-0.12101457846947
20
14.0220021118348
30
0
41
1
10
-0.157182706415185
20
14.0145315496191
30
0
41
1
10
-0.19999999999726
20
14.006275669192
30
0
0
SPLINE
5
1C6
100
AcDbEntity
8
SK1
62
256
6
ByLayer
370
18
48
1
60
0
100
AcDbSpline
70
4
71
3
72
17
73
13
40
0
40
0
40
0
40
0
40
0.0691198910348735
40
0.14991014672157
40
0.230700402408266
40
0.392280913781658
40
0.553861425155051
40
0.634651680841747
40
0.715441936528443
40
0.877022447901835
40
0.957812703588531
40
1
40
1
40
1
40
1
41
1
10
-0.200000000000003
20
14.006275669192
30
0
41
1
10
-0.200000000000003
20
13.9739665357243
30
0
41
1
10
-0.200000000000003
20
13.8722046182929
30
0
41
1
10
-0.200000000000003
20
13.6197111420048
30
0
41
1
10
-0.200000000000003
20
13.1342348341326
30
0
41
1
10
-0.200000000000003
20
12.2979984966115
30
0
41
1
10
-0.200000000000003
20
11.1901781240568
30
0
41
1
10
-0.200000000000003
20
10.1531440412185
30
0
41
1
10
-0.200000000000003
20
9.01842194801017
30
0
41
1
10
-0.200000000000003
20
7.73942963488494
30
0
41
1
10
-0.200000000000003
20
6.49136847341114
30
0
41
1
10
-0.200000000000003
20
5.92516085301048
30
0
41
1
10
-0.200000000000003
20
5.72778184890603
30
0
0
SPLINE
5
1C7
100
AcDbEntity
8
SK1
62
256
6
ByLayer
370
18
48
1
60
0
100
AcDbSpline
70
4
71
3
72
17
73
13
40
0
40
0
40
0
40
0
40
0.0421873368484337
40
0.122977598784979
40
0.284558122658071
40
0.365348384594616
40
0.446138646531162
40
0.607719170404253
40
0.769299694277344
40
0.85008995621389
40
0.930880218150436
40
1
40
1
40
1
40
1
41
1
10
-0.200000000000003
20
-5.72778130128842
30
0
41
1
10
-0.200000000000003
20
-5.92516046675931
30
0
41
1
10
-0.200000000000003
20
-6.49136818680859
30
0
41
1
10
-0.200000000000003
20
-7.73942948440461
30
0
41
1
10
-0.200000000000003
20
-9.01842193523456
30
0
41
1
10
-0.200000000000003
20
-10.1531439090037
30
0
41
1
10
-0.200000000000003
20
-11.1901784269121
30
0
41
1
10
-0.200000000000003
20
-12.2979981524201
30
0
41
1
10
-0.200000000000003
20
-13.13423545176
30
0
41
1
10
-0.200000000000003
20
-13.6197110427926
30
0
41
1
10
-0.200000000000003
20
-13.8722047207609
30
0
41
1
10
-0.200000000000003
20
-13.9739667699685
30
0
41
1
10
-0.200000000000003
20
-14.0062758716595
30
0
0
SPLINE
5
1C8
100
AcDbEntity
8
SK1
62
256
6
ByLayer
370
18
48
1
60
0
100
AcDbSpline
70
4
71
2
72
6
73
3
40
0
40
0
40
0
40
1
40
1
40
1
41
1
10
-0.394913799811292
20
13.740447551665
30
0
41
1
10
-0.94497688887391
20
13.7267321696587
30
0
41
1
10
-1.4950399779393
20
13.7130167789402
30
0
0
SPLINE
5
1C9
100
AcDbEntity
8
SK1
62
256
6
ByLayer
370
18
48
1
60
0
100
AcDbSpline
70
4
71
2
72
6
73
3
40
0
40
0
40
0
40
1
40
1
40
1
41
1
10
-1.4950399779393
20
-13.713017019049
30
0
41
1
10
-0.94497688887391
20
-13.7267324097107
30
0
41
1
10
-0.394913799811292
20
-13.7404477916605
30
0
0
SPLINE
5
1CA
100
AcDbEntity
8
SK1
62
256
6
ByLayer
370
18
48
1
60
0
100
AcDbSpline
70
4
71
3
72
13
73
9
40
0
40
0
40
0
40
0
40
0.23950589568399
40
0.368426444928795
40
0.500072183930347
40
0.631705934787558
40
0.760593415031918
40
1
40
1
40
1
40
1
41
1
10
-1.4950399779393
20
13.825267079015
30
0
41
1
10
-1.52110926510646
20
13.8248649608707
30
0
41
1
10
-1.55883864920249
20
13.8310345631992
30
0
41
1
10
-1.60627567894029
20
13.8540679479736
30
0
41
1
10
-1.63886244004753
20
13.8792239231524
30
0
41
1
10
-1.6656349077962
20
13.9104916208042
30
0
41
1
10
-1.6910320761837
20
13.9566898348375
30
0
41
1
10
-1.69909121850789
20
13.9940471489176
30
0
41
1
10
-1.7
20
14.0200943498873
30
0
0
SPLINE
5
1CB
100
AcDbEntity
8
SK1
62
256
6
ByLayer
370
18
48
1
60
0
100
AcDbSpline
70
4
71
2
72
6
73
3
40
0
40
0
40
0
40
1
40
1
40
1
41
1
10
-1.7
20
14.0158106259661
30
0
41
1
10
-12.0999999986039
20
13.7547061446862
30
0
41
1
10
-22.5
20
13.4936007996938
30
0
0
SPLINE
5
1CC
100
AcDbEntity
8
SK1
62
256
6
ByLayer
370
18
48
1
60
0
100
AcDbSpline
70
4
71
3
72
13
73
9
40
0
40
0
40
0
40
0
40
0.239406584356299
40
0.368294064402717
40
0.499927815195495
40
0.631573554280471
40
0.760494103733156
40
1
40
1
40
1
40
1
41
1
10
-1.7
20
-14.020094440518
30
0
41
1
10
-1.69909121849834
20
-13.9940472396764
30
0
41
1
10
-1.69103207617424
20
-13.956689925787
30
0
41
1
10
-1.6656349077834
20
-13.9104917120148
30
0
41
1
10
-1.63886244003065
20
-13.8792240145368
30
0
41
1
10
-1.60627567892243
20
-13.8540680395026
30
0
41
1
10
-1.55883864918061
20
-13.8310346548635
30
0
41
1
10
-1.52110926509484
20
-13.8248650525742
30
0
41
1
10
-1.4950399779393
20
-13.8252671707288
30
0
0
SPLINE
5
1CD
100
AcDbEntity
8
SK1
62
256
6
ByLayer
370
18
48
1
60
0
100
AcDbSpline
70
4
71
2
72
6
73
3
40
0
40
0
40
0
40
1
40
1
40
1
41
1
10
-22.5
20
13.4973518251592
30
0
41
1
10
-23.249999936895
20
13.0645339427607
30
0
41
1
10
-24
20
12.6317156240216
30
0
0
SPLINE
5
1CE
100
AcDbEntity
8
SK1
62
256
6
ByLayer
370
18
48
1
60
0
100
AcDbSpline
70
4
71
2
72
6
73
3
40
0
40
0
40
0
40
1
40
1
40
1
41
1
10
-24
20
-12.6317156907499
30
0
41
1
10
-23.2499999368976
20
-13.0645340070691
30
0
41
1
10
-22.5
20
-13.4973518870616
30
0
0
SPLINE
5
1CF
100
AcDbEntity
8
SK1
62
256
6
ByLayer
370
18
48
1
60
0
100
AcDbSpline
70
4
71
2
72
6
73
3
40
0
40
0
40
0
40
1
40
1
40
1
41
1
10
-22.5
20
-13.4936010331935
30
0
41
1
10
-12.0999999986036
20
-13.7547063780669
30
0
41
1
10
-1.7
20
-14.0158108591592
30
0
0
LINE
5
74
100
AcDbEntity
8
1
62
256
6
ByLayer
370
18
48
1
60
0
100
AcDbLine
10
36.6755
20
-14.899495
30
0
11
36.6755
21
-4.899495
31
0
39
0
210
0
220
0
230
1
0
LINE
5
76
100
AcDbEntity
8
1
62
256
6
ByLayer
370
13
48
1
60
0
100
AcDbLine
10
36.4255
20
-6.899495
30
0
11
36.4255
21
-12.899495
31
0
39
0
210
0
220
0
230
1
0
LINE
5
77
100
AcDbEntity
8
1
62
256
6
ByLayer
370
18
48
1
60
0
100
AcDbLine
10
42.5255
20
-14.299495
30
0
11
42.5255
21
-5.499495
31
0
39
0
210
0
220
0
230
1
0
LINE
5
78
100
AcDbEntity
8
1
62
256
6
ByLayer
370
13
48
1
60
0
100
AcDbLine
10
41.9255
20
-4.899495
30
0
11
41.9255
21
-14.899495
31
0
39
0
210
0
220
0
230
1
0
LINE
5
79
100
AcDbEntity
8
1
62
256
6
ByLayer
370
18
48
1
60
0
100
AcDbLine
10
42.5255
20
14.299495
30
0
11
42.5255
21
5.499495
31
0
39
0
210
0
220
0
230
1
0
LINE
5
7A
100
AcDbEntity
8
1
62
256
6
ByLayer
370
13
48
1
60
0
100
AcDbLine
10
36.4255
20
12.899495
30
0
11
36.4255
21
6.899495
31
0
39
0
210
0
220
0
230
1
0
LINE
5
7B
100
AcDbEntity
8
1
62
256
6
ByLayer
370
18
48
1
60
0
100
AcDbLine
10
36.6755
20
14.899495
30
0
11
36.6755
21
4.899495
31
0
39
0
210
0
220
0
230
1
0
LINE
5
7C
100
AcDbEntity
8
1
62
256
6
ByLayer
370
13
48
1
60
0
100
AcDbLine
10
41.9255
20
14.899495
30
0
11
41.9255
21
4.899495
31
0
39
0
210
0
220
0
230
1
0
LINE
5
7D
100
AcDbEntity
8
1
62
256
6
ByLayer
370
13
48
1
60
0
100
AcDbLine
10
32.2495
20
-19.04976
30
0
11
32.2495
21
-18.967827
31
0
39
0
210
0
220
0
230
1
0
LINE
5
7E
100
AcDbEntity
8
1
62
256
6
ByLayer
370
13
48
1
60
0
100
AcDbLine
10
32.2495
20
18.967827
30
0
11
32.2495
21
19.04976
31
0
39
0
210
0
220
0
230
1
0
LINE
5
7F
100
AcDbEntity
8
1
62
256
6
ByLayer
370
13
48
1
60
0
100
AcDbLine
10
31.6055
20
19.672543
30
0
11
31.6055
21
19.649908
31
0
39
0
210
0
220
0
230
1
0
LINE
5
80
100
AcDbEntity
8
1
62
256
6
ByLayer
370
13
48
1
60
0
100
AcDbLine
10
31.6055
20
-19.649908
30
0
11
31.6055
21
-19.672543
31
0
39
0
210
0
220
0
230
1
0
LINE
5
81
100
AcDbEntity
8
1
62
256
6
ByLayer
370
18
48
1
60
0
100
AcDbLine
10
32.3245
20
18.230913
30
0
11
32.3245
21
17.798581
31
0
39
0
210
0
220
0
230
1
0
LINE
5
82
100
AcDbEntity
8
1
62
256
6
ByLayer
370
18
48
1
60
0
100
AcDbLine
10
32.3245
20
17.721823
30
0
11
32.3245
21
17.163684
31
0
39
0
210
0
220
0
230
1
0
LINE
5
83
100
AcDbEntity
8
1
62
256
6
ByLayer
370
13
48
1
60
0
100
AcDbLine
10
32.2495
20
18.747456
30
0
11
32.2495
21
18.91297
31
0
39
0
210
0
220
0
230
1
0
LINE
5
84
100
AcDbEntity
8
1
62
256
6
ByLayer
370
13
48
1
60
0
100
AcDbLine
10
32.2495
20
-18.91297
30
0
11
32.2495
21
-18.747456
31
0
39
0
210
0
220
0
230
1
0
LINE
5
85
100
AcDbEntity
8
1
62
256
6
ByLayer
370
13
48
1
60
0
100
AcDbLine
10
31.6055
20
-19.466108
30
0
11
31.6055
21
-19.511551
31
0
39
0
210
0
220
0
230
1
0
LINE
5
86
100
AcDbEntity
8
1
62
256
6
ByLayer
370
13
48
1
60
0
100
AcDbLine
10
31.6055
20
19.511551
30
0
11
31.6055
21
19.466108
31
0
39
0
210
0
220
0
230
1
0
LINE
5
87
100
AcDbEntity
8
1
62
256
6
ByLayer
370
18
48
1
60
0
100
AcDbLine
10
32.3245
20
-17.798581
30
0
11
32.3245
21
-18.230913
31
0
39
0
210
0
220
0
230
1
0
LINE
5
88
100
AcDbEntity
8
1
62
256
6
ByLayer
370
18
48
1
60
0
100
AcDbLine
10
32.3245
20
-17.163684
30
0
11
32.3245
21
-17.721823
31
0
39
0
210
0
220
0
230
1
0
LINE
5
89
100
AcDbEntity
8
1
62
256
6
ByLayer
370
13
48
1
60
0
100
AcDbLine
10
32.2495
20
-18.654961
30
0
11
32.2495
21
-18.402698
31
0
39
0
210
0
220
0
230
1
0
LINE
5
8A
100
AcDbEntity
8
1
62
256
6
ByLayer
370
13
48
1
60
0
100
AcDbLine
10
32.2495
20
18.402698
30
0
11
32.2495
21
18.654961
31
0
39
0
210
0
220
0
230
1
0
LINE
5
8B
100
AcDbEntity
8
1
62
256
6
ByLayer
370
13
48
1
60
0
100
AcDbLine
10
31.6055
20
-19.163428
30
0
11
31.6055
21
-19.232584
31
0
39
0
210
0
220
0
230
1
0
LINE
5
8C
100
AcDbEntity
8
1
62
256
6
ByLayer
370
13
48
1
60
0
100
AcDbLine
10
31.6055
20
19.232584
30
0
11
31.6055
21
19.163428
31
0
39
0
210
0
220
0
230
1
0
LINE
5
8D
100
AcDbEntity
8
1
62
256
6
ByLayer
370
18
48
1
60
0
100
AcDbLine
10
32.3245
20
17.066336
30
0
11
32.3245
21
16.367557
31
0
39
0
210
0
220
0
230
1
0
LINE
5
8E
100
AcDbEntity
8
1
62
256
6
ByLayer
370
18
48
1
60
0
100
AcDbLine
10
32.3245
20
-16.367557
30
0
11
32.3245
21
-17.066336
31
0
39
0
210
0
220
0
230
1
0
LINE
5
8F
100
AcDbEntity
8
1
62
256
6
ByLayer
370
13
48
1
60
0
100
AcDbLine
10
32.2495
20
17.926445
30
0
11
32.2495
21
18.270596
31
0
39
0
210
0
220
0
230
1
0
LINE
5
90
100
AcDbEntity
8
1
62
256
6
ByLayer
370
13
48
1
60
0
100
AcDbLine
10
32.2495
20
-18.270596
30
0
11
32.2495
21
-17.926445
31
0
39
0
210
0
220
0
230
1
0
LINE
5
91
100
AcDbEntity
8
1
62
256
6
ByLayer
370
13
48
1
60
0
100
AcDbLine
10
31.6055
20
-18.736267
30
0
11
31.6055
21
-18.8304
31
0
39
0
210
0
220
0
230
1
0
LINE
5
92
100
AcDbEntity
8
1
62
256
6
ByLayer
370
13
48
1
60
0
100
AcDbLine
10
31.6055
20
18.8304
30
0
11
31.6055
21
18.736267
31
0
39
0
210
0
220
0
230
1
0
LINE
5
93
100
AcDbEntity
8
1
62
256
6
ByLayer
370
18
48
1
60
0
100
AcDbLine
10
32.3245
20
16.246743
30
0
11
32.3245
21
15.385072
31
0
39
0
210
0
220
0
230
1
0
LINE
5
94
100
AcDbEntity
8
1
62
256
6
ByLayer
370
18
48
1
60
0
100
AcDbLine
10
32.3245
20
-15.385072
30
0
11
32.3245
21
-16.246743
31
0
39
0
210
0
220
0
230
1
0
LINE
5
95
100
AcDbEntity
8
1
62
256
6
ByLayer
370
13
48
1
60
0
100
AcDbLine
10
32.2495
20
17.30746
30
0
11
32.2495
21
17.75167
31
0
39
0
210
0
220
0
230
1
0
LINE
5
96
100
AcDbEntity
8
1
62
256
6
ByLayer
370
13
48
1
60
0
100
AcDbLine
10
32.2495
20
-17.75167
30
0
11
32.2495
21
-17.30746
31
0
39
0
210
0
220
0
230
1
0
LINE
5
97
100
AcDbEntity
8
1
62
256
6
ByLayer
370
13
48
1
60
0
100
AcDbLine
10
31.6055
20
-18.175685
30
0
11
31.6055
21
-18.296875
31
0
39
0
210
0
220
0
230
1
0
LINE
5
98
100
AcDbEntity
8
1
62
256
6
ByLayer
370
13
48
1
60
0
100
AcDbLine
10
31.6055
20
18.296875
30
0
11
31.6055
21
18.175685
31
0
39
0
210
0
220
0
230
1
0
LINE
5
99
100
AcDbEntity
8
1
62
256
6
ByLayer
370
18
48
1
60
0
100
AcDbLine
10
32.3245
20
15.236583
30
0
11
32.3245
21
14.177621
31
0
39
0
210
0
220
0
230
1
0
LINE
5
9A
100
AcDbEntity
8
1
62
256
6
ByLayer
370
18
48
1
60
0
100
AcDbLine
10
32.3245
20
-14.177621
30
0
11
32.3245
21
-15.236583
31
0
39
0
210
0
220
0
230
1
0
LINE
5
9B
100
AcDbEntity
8
1
62
256
6
ByLayer
370
13
48
1
60
0
100
AcDbLine
10
32.2495
20
16.530049
30
0
11
32.2495
21
17.085927
31
0
39
0
210
0
220
0
230
1
0
LINE
5
9C
100
AcDbEntity
8
1
62
256
6
ByLayer
370
13
48
1
60
0
100
AcDbLine
10
32.2495
20
-17.085927
30
0
11
32.2495
21
-16.530049
31
0
39
0
210
0
220
0
230
1
0
LINE
5
9D
100
AcDbEntity
8
1
62
256
6
ByLayer
370
13
48
1
60
0
100
AcDbLine
10
31.6055
20
-17.468992
30
0
11
31.6055
21
-17.620083
31
0
39
0
210
0
220
0
230
1
0
LINE
5
9E
100
AcDbEntity
8
1
62
256
6
ByLayer
370
13
48
1
60
0
100
AcDbLine
10
31.6055
20
17.620083
30
0
11
31.6055
21
17.468992
31
0
39
0
210
0
220
0
230
1
0
LINE
5
9F
100
AcDbEntity
8
1
62
256
6
ByLayer
370
18
48
1
60
0
100
AcDbLine
10
32.3245
20
-12.681014
30
0
11
32.3245
21
-13.994653
31
0
39
0
210
0
220
0
230
1
0
LINE
5
A0
100
AcDbEntity
8
1
62
256
6
ByLayer
370
18
48
1
60
0
100
AcDbLine
10
32.3245
20
13.994653
30
0
11
32.3245
21
12.681014
31
0
39
0
210
0
220
0
230
1
0
LINE
5
A1
100
AcDbEntity
8
1
62
256
6
ByLayer
370
13
48
1
60
0
100
AcDbLine
10
32.2495
20
-16.255338
30
0
11
32.2495
21
-15.570347
31
0
39
0
210
0
220
0
230
1
0
LINE
5
A2
100
AcDbEntity
8
1
62
256
6
ByLayer
370
13
48
1
60
0
100
AcDbLine
10
32.2495
20
15.570347
30
0
11
32.2495
21
16.255338
31
0
39
0
210
0
220
0
230
1
0
LINE
5
A3
100
AcDbEntity
8
1
62
256
6
ByLayer
370
13
48
1
60
0
100
AcDbLine
10
31.6055
20
-16.597446
30
0
11
31.6055
21
-16.782699
31
0
39
0
210
0
220
0
230
1
0
LINE
5
A4
100
AcDbEntity
8
1
62
256
6
ByLayer
370
13
48
1
60
0
100
AcDbLine
10
31.6055
20
16.782699
30
0
11
31.6055
21
16.597446
31
0
39
0
210
0
220
0
230
1
0
LINE
5
A5
100
AcDbEntity
8
1
62
256
6
ByLayer
370
13
48
1
60
0
100
AcDbLine
10
32.2495
20
14.391974
30
0
11
32.2495
21
15.232962
31
0
39
0
210
0
220
0
230
1
0
LINE
5
A6
100
AcDbEntity
8
1
62
256
6
ByLayer
370
13
48
1
60
0
100
AcDbLine
10
32.2495
20
-15.232962
30
0
11
32.2495
21
-14.391974
31
0
39
0
210
0
220
0
230
1
0
LINE
5
A7
100
AcDbEntity
8
1
62
256
6
ByLayer
370
13
48
1
60
0
100
AcDbLine
10
31.6055
20
-15.533307
30
0
11
31.6055
21
-15.759146
31
0
39
0
210
0
220
0
230
1
0
LINE
5
A8
100
AcDbEntity
8
1
62
256
6
ByLayer
370
13
48
1
60
0
100
AcDbLine
10
31.6055
20
15.759146
30
0
11
31.6055
21
15.533307
31
0
39
0
210
0
220
0
230
1
0
LINE
5
A9
100
AcDbEntity
8
1
62
256
6
ByLayer
370
13
48
1
60
0
100
AcDbLine
10
32.2495
20
12.935311
30
0
11
32.2495
21
13.976775
31
0
39
0
210
0
220
0
230
1
0
LINE
5
AA
100
AcDbEntity
8
1
62
256
6
ByLayer
370
13
48
1
60
0
100
AcDbLine
10
32.2495
20
-13.976775
30
0
11
32.2495
21
-12.935311
31
0
39
0
210
0
220
0
230
1
0
LINE
5
AB
100
AcDbEntity
8
1
62
256
6
ByLayer
370
13
48
1
60
0
100
AcDbLine
10
31.6055
20
14.510077
30
0
11
31.6055
21
14.233479
31
0
39
0
210
0
220
0
230
1
0
LINE
5
AC
100
AcDbEntity
8
1
62
256
6
ByLayer
370
13
48
1
60
0
100
AcDbLine
10
31.6055
20
-14.233479
30
0
11
31.6055
21
-14.510077
31
0
39
0
210
0
220
0
230
1
0
LINE
5
AD
100
AcDbEntity
8
SK1
62
256
6
ByLayer
370
18
48
1
60
0
100
AcDbLine
10
-0.2
20
5.727782
30
0
11
-0.2
21
5.678452
31
0
39
0
210
0
220
0
230
1
0
LINE
5
AF
100
AcDbEntity
8
1
62
256
6
ByLayer
370
18
48
1
60
0
100
AcDbLine
10
32.3245
20
2.374363
30
0
11
32.3245
21
-2.374363
31
0
39
0
210
0
220
0
230
1
0
LINE
5
B0
100
AcDbEntity
8
1
62
256
6
ByLayer
370
18
48
1
60
0
100
AcDbLine
10
32.3245
20
12.451792
30
0
11
32.3245
21
10.77508
31
0
39
0
210
0
220
0
230
1
0
LINE
5
B1
100
AcDbEntity
8
1
62
256
6
ByLayer
370
18
48
1
60
0
100
AcDbLine
10
32.3245
20
-10.77508
30
0
11
32.3245
21
-12.451792
31
0
39
0
210
0
220
0
230
1
0
LINE
5
B2
100
AcDbEntity
8
1
62
256
6
ByLayer
370
18
48
1
60
0
100
AcDbLine
10
32.3245
20
10.475875
30
0
11
32.3245
21
8.180021
31
0
39
0
210
0
220
0
230
1
0
LINE
5
B3
100
AcDbEntity
8
1
62
256
6
ByLayer
370
18
48
1
60
0
100
AcDbLine
10
32.3245
20
-8.180021
30
0
11
32.3245
21
-10.475875
31
0
39
0
210
0
220
0
230
1
0
LINE
5
B4
100
AcDbEntity
8
1
62
256
6
ByLayer
370
18
48
1
60
0
100
AcDbLine
10
32.3245
20
7.742143
30
0
11
32.3245
21
3.63542
31
0
39
0
210
0
220
0
230
1
0
LINE
5
B5
100
AcDbEntity
8
1
62
256
6
ByLayer
370
18
48
1
60
0
100
AcDbLine
10
32.3245
20
-3.63542
30
0
11
32.3245
21
-7.742143
31
0
39
0
210
0
220
0
230
1
0
LINE
5
B6
100
AcDbEntity
8
1
62
256
6
ByLayer
370
13
48
1
60
0
100
AcDbLine
10
32.2495
20
-12.416012
30
0
11
32.2495
21
-11.090991
31
0
39
0
210
0
220
0
230
1
0
LINE
5
B7
100
AcDbEntity
8
1
62
256
6
ByLayer
370
13
48
1
60
0
100
AcDbLine
10
32.2495
20
11.090991
30
0
11
32.2495
21
12.416012
31
0
39
0
210
0
220
0
230
1
0
LINE
5
B8
100
AcDbEntity
8
1
62
256
6
ByLayer
370
13
48
1
60
0
100
AcDbLine
10
31.6055
20
12.970506
30
0
11
31.6055
21
12.625166
31
0
39
0
210
0
220
0
230
1
0
LINE
5
B9
100
AcDbEntity
8
1
62
256
6
ByLayer
370
13
48
1
60
0
100
AcDbLine
10
31.6055
20
-12.625166
30
0
11
31.6055
21
-12.970506
31
0
39
0
210
0
220
0
230
1
0
LINE
5
BA
100
AcDbEntity
8
1
62
256
6
ByLayer
370
18
48
1
60
0
100
AcDbLine
10
32.3245
20
-18.877899
30
0
11
32.3245
21
-18.98093
31
0
39
0
210
0
220
0
230
1
0
LINE
5
BB
100
AcDbEntity
8
1
62
256
6
ByLayer
370
18
48
1
60
0
100
AcDbLine
10
32.3245
20
18.98093
30
0
11
32.3245
21
18.877899
31
0
39
0
210
0
220
0
230
1
0
LINE
5
BC
100
AcDbEntity
8
1
62
256
6
ByLayer
370
18
48
1
60
0
100
AcDbLine
10
32.3245
20
-18.646315
30
0
11
32.3245
21
-18.853979
31
0
39
0
210
0
220
0
230
1
0
LINE
5
BD
100
AcDbEntity
8
SK1
62
256
6
ByLayer
370
18
48
1
60
0
100
AcDbLine
10
-0.2
20
-5.678452
30
0
11
-0.2
21
-5.727781
31
0
39
0
210
0
220
0
230
1
0
LINE
5
BE
100
AcDbEntity
8
SK1
62
256
6
ByLayer
370
13
48
1
60
0
100
AcDbLine
10
-1.307107
20
3.628534
30
0
11
-1.307107
21
-3.628532
31
0
39
0
210
0
220
0
230
1
0
LINE
5
BF
100
AcDbEntity
8
1
62
256
6
ByLayer
370
13
48
1
60
0
100
AcDbLine
10
32.2495
20
-10.414628
30
0
11
32.2495
21
-8.614199
31
0
39
0
210
0
220
0
230
1
0
LINE
5
C0
100
AcDbEntity
8
1
62
256
6
ByLayer
370
13
48
1
60
0
100
AcDbLine
10
32.2495
20
8.614199
30
0
11
32.2495
21
10.414628
31
0
39
0
210
0
220
0
230
1
0
LINE
5
C1
100
AcDbEntity
8
1
62
256
6
ByLayer
370
13
48
1
60
0
100
AcDbLine
10
31.6055
20
11.019332
30
0
11
31.6055
21
10.568917
31
0
39
0
210
0
220
0
230
1
0
LINE
5
C2
100
AcDbEntity
8
1
62
256
6
ByLayer
370
13
48
1
60
0
100
AcDbLine
10
31.6055
20
-10.568917
30
0
11
31.6055
21
-11.019332
31
0
39
0
210
0
220
0
230
1
0
LINE
5
C3
100
AcDbEntity
8
1
62
256
6
ByLayer
370
13
48
1
60
0
100
AcDbLine
10
32.2495
20
-7.633583
30
0
11
32.2495
21
-4.571562
31
0
39
0
210
0
220
0
230
1
0
LINE
5
C4
100
AcDbEntity
8
1
62
256
6
ByLayer
370
13
48
1
60
0
100
AcDbLine
10
32.2495
20
4.571562
30
0
11
32.2495
21
7.633583
31
0
39
0
210
0
220
0
230
1
0
LINE
5
C5
100
AcDbEntity
8
1
62
256
6
ByLayer
370
13
48
1
60
0
100
AcDbLine
10
31.6055
20
8.373611
30
0
11
31.6055
21
7.714713
31
0
39
0
210
0
220
0
230
1
0
LINE
5
C6
100
AcDbEntity
8
1
62
256
6
ByLayer
370
13
48
1
60
0
100
AcDbLine
10
31.6055
20
-7.714713
30
0
11
31.6055
21
-8.373611
31
0
39
0
210
0
220
0
230
1
0
LINE
5
C7
100
AcDbEntity
8
1
62
256
6
ByLayer
370
13
48
1
60
0
100
AcDbLine
10
9.076795
20
-5.85989
30
0
11
9.076795
21
-19.122283
31
0
39
0
210
0
220
0
230
1
0
LINE
5
C8
100
AcDbEntity
8
1
62
256
6
ByLayer
370
13
48
1
60
0
100
AcDbLine
10
9.336603
20
-6.16973
30
0
11
9.336603
21
-19.024574
31
0
39
0
210
0
220
0
230
1
0
LINE
5
C9
100
AcDbEntity
8
1
62
256
6
ByLayer
370
13
48
1
60
0
100
AcDbLine
10
6.663397
20
19.024574
30
0
11
6.663397
21
6.16973
31
0
39
0
210
0
220
0
230
1
0
LINE
5
CA
100
AcDbEntity
8
1
62
256
6
ByLayer
370
13
48
1
60
0
100
AcDbLine
10
6.923205
20
19.122283
30
0
11
6.923205
21
5.85989
31
0
39
0
210
0
220
0
230
1
0
LINE
5
CB
100
AcDbEntity
8
1
62
256
6
ByLayer
370
13
48
1
60
0
100
AcDbLine
10
9.076795
20
19.122283
30
0
11
9.076795
21
5.85989
31
0
39
0
210
0
220
0
230
1
0
LINE
5
CC
100
AcDbEntity
8
1
62
256
6
ByLayer
370
13
48
1
60
0
100
AcDbLine
10
9.336603
20
19.024574
30
0
11
9.336603
21
6.16973
31
0
39
0
210
0
220
0
230
1
0
LINE
5
CD
100
AcDbEntity
8
1
62
256
6
ByLayer
370
13
48
1
60
0
100
AcDbLine
10
6.663397
20
-6.16973
30
0
11
6.663397
21
-19.024574
31
0
39
0
210
0
220
0
230
1
0
LINE
5
CE
100
AcDbEntity
8
1
62
256
6
ByLayer
370
13
48
1
60
0
100
AcDbLine
10
6.923205
20
-5.85989
30
0
11
6.923205
21
-19.122283
31
0
39
0
210
0
220
0
230
1
0
LINE
5
CF
100
AcDbEntity
8
1
62
256
6
ByLayer
370
13
48
1
60
0
100
AcDbLine
10
32.2495
20
-1.891746
30
0
11
32.2495
21
1.891746
31
0
39
0
210
0
220
0
230
1
0
LINE
5
D0
100
AcDbEntity
8
1
62
256
6
ByLayer
370
13
48
1
60
0
100
AcDbLine
10
31.6055
20
3.782728
30
0
11
31.6055
21
1.680832
31
0
39
0
210
0
220
0
230
1
0
LINE
5
D1
100
AcDbEntity
8
1
62
256
6
ByLayer
370
13
48
1
60
0
100
AcDbLine
10
31.6055
20
-1.680832
30
0
11
31.6055
21
-3.782728
31
0
39
0
210
0
220
0
230
1
0
LINE
5
D2
100
AcDbEntity
8
1
62
256
6
ByLayer
370
18
48
1
60
0
100
AcDbLine
10
32.3245
20
3.635516
30
0
11
32.3245
21
2.374363
31
0
39
0
210
0
220
0
230
1
0
LINE
5
D3
100
AcDbEntity
8
1
62
256
6
ByLayer
370
18
48
1
60
0
100
AcDbLine
10
32.3245
20
8.180085
30
0
11
32.3245
21
7.742143
31
0
39
0
210
0
220
0
230
1
0
LINE
5
D4
100
AcDbEntity
8
1
62
256
6
ByLayer
370
18
48
1
60
0
100
AcDbLine
10
32.3245
20
10.775464
30
0
11
32.3245
21
10.475875
31
0
39
0
210
0
220
0
230
1
0
LINE
5
D5
100
AcDbEntity
8
1
62
256
6
ByLayer
370
18
48
1
60
0
100
AcDbLine
10
32.3245
20
12.680988
30
0
11
32.3245
21
12.451792
31
0
39
0
210
0
220
0
230
1
0
LINE
5
D6
100
AcDbEntity
8
1
62
256
6
ByLayer
370
18
48
1
60
0
100
AcDbLine
10
32.3245
20
14.177598
30
0
11
32.3245
21
13.994653
31
0
39
0
210
0
220
0
230
1
0
LINE
5
D7
100
AcDbEntity
8
1
62
256
6
ByLayer
370
18
48
1
60
0
100
AcDbLine
10
32.3245
20
15.385093
30
0
11
32.3245
21
15.236583
31
0
39
0
210
0
220
0
230
1
0
LINE
5
D8
100
AcDbEntity
8
1
62
256
6
ByLayer
370
18
48
1
60
0
100
AcDbLine
10
32.3245
20
16.367588
30
0
11
32.3245
21
16.246743
31
0
39
0
210
0
220
0
230
1
0
LINE
5
D9
100
AcDbEntity
8
1
62
256
6
ByLayer
370
18
48
1
60
0
100
AcDbLine
10
32.3245
20
17.163763
30
0
11
32.3245
21
17.066336
31
0
39
0
210
0
220
0
230
1
0
LINE
5
DA
100
AcDbEntity
8
1
62
256
6
ByLayer
370
18
48
1
60
0
100
AcDbLine
10
32.3245
20
17.79864
30
0
11
32.3245
21
17.721823
31
0
39
0
210
0
220
0
230
1
0
LINE
5
DB
100
AcDbEntity
8
1
62
256
6
ByLayer
370
18
48
1
60
0
100
AcDbLine
10
32.3245
20
18.289024
30
0
11
32.3245
21
18.230913
31
0
39
0
210
0
220
0
230
1
0
LINE
5
DC
100
AcDbEntity
8
1
62
256
6
ByLayer
370
18
48
1
60
0
100
AcDbLine
10
32.3245
20
18.646319
30
0
11
32.3245
21
18.605627
31
0
39
0
210
0
220
0
230
1
0
LINE
5
DD
100
AcDbEntity
8
1
62
256
6
ByLayer
370
18
48
1
60
0
100
AcDbLine
10
32.3245
20
18.878084
30
0
11
32.3245
21
18.853979
31
0
39
0
210
0
220
0
230
1
0
LINE
5
DE
100
AcDbEntity
8
1
62
256
6
ByLayer
370
18
48
1
60
0
100
AcDbLine
10
32.3245
20
18.988915
30
0
11
32.3245
21
18.98093
31
0
39
0
210
0
220
0
230
1
0
LINE
5
DF
100
AcDbEntity
8
1
62
256
6
ByLayer
370
18
48
1
60
0
100
AcDbLine
10
31.3245
20
20
30
0
11
31.3245
21
-20
31
0
39
0
210
0
220
0
230
1
0
LINE
5
E0
100
AcDbEntity
8
1
62
256
6
ByLayer
370
18
48
1
60
0
100
AcDbLine
10
32.3245
20
-18.98093
30
0
11
32.3245
21
-18.988915
31
0
39
0
210
0
220
0
230
1
0
LINE
5
E1
100
AcDbEntity
8
1
62
256
6
ByLayer
370
18
48
1
60
0
100
AcDbLine
10
0.3
20
-20
30
0
11
0.3
21
20
31
0
39
0
210
0
220
0
230
1
0
LINE
5
E2
100
AcDbEntity
8
1
62
256
6
ByLayer
370
18
48
1
60
0
100
AcDbLine
10
32.3245
20
-18.853979
30
0
11
32.3245
21
-18.878084
31
0
39
0
210
0
220
0
230
1
0
LINE
5
E3
100
AcDbEntity
8
1
62
256
6
ByLayer
370
18
48
1
60
0
100
AcDbLine
10
32.3245
20
-18.289015
30
0
11
32.3245
21
-18.605627
31
0
39
0
210
0
220
0
230
1
0
LINE
5
E4
100
AcDbEntity
8
1
62
256
6
ByLayer
370
18
48
1
60
0
100
AcDbLine
10
32.3245
20
-18.605627
30
0
11
32.3245
21
-18.646319
31
0
39
0
210
0
220
0
230
1
0
LINE
5
E5
100
AcDbEntity
8
1
62
256
6
ByLayer
370
18
48
1
60
0
100
AcDbLine
10
32.3245
20
-18.230913
30
0
11
32.3245
21
-18.289024
31
0
39
0
210
0
220
0
230
1
0
LINE
5
E6
100
AcDbEntity
8
1
62
256
6
ByLayer
370
18
48
1
60
0
100
AcDbLine
10
32.3245
20
-17.721823
30
0
11
32.3245
21
-17.79864
31
0
39
0
210
0
220
0
230
1
0
LINE
5
E7
100
AcDbEntity
8
1
62
256
6
ByLayer
370
18
48
1
60
0
100
AcDbLine
10
32.3245
20
-17.066336
30
0
11
32.3245
21
-17.163763
31
0
39
0
210
0
220
0
230
1
0
LINE
5
E8
100
AcDbEntity
8
1
62
256
6
ByLayer
370
18
48
1
60
0
100
AcDbLine
10
32.3245
20
-16.246743
30
0
11
32.3245
21
-16.367588
31
0
39
0
210
0
220
0
230
1
0
LINE
5
E9
100
AcDbEntity
8
1
62
256
6
ByLayer
370
18
48
1
60
0
100
AcDbLine
10
32.3245
20
-15.236583
30
0
11
32.3245
21
-15.385093
31
0
39
0
210
0
220
0
230
1
0
LINE
5
EA
100
AcDbEntity
8
1
62
256
6
ByLayer
370
18
48
1
60
0
100
AcDbLine
10
32.3245
20
-13.994653
30
0
11
32.3245
21
-14.177598
31
0
39
0
210
0
220
0
230
1
0
LINE
5
EB
100
AcDbEntity
8
1
62
256
6
ByLayer
370
18
48
1
60
0
100
AcDbLine
10
32.3245
20
-12.451792
30
0
11
32.3245
21
-12.680988
31
0
39
0
210
0
220
0
230
1
0
LINE
5
EC
100
AcDbEntity
8
1
62
256
6
ByLayer
370
18
48
1
60
0
100
AcDbLine
10
32.3245
20
-10.475875
30
0
11
32.3245
21
-10.775464
31
0
39
0
210
0
220
0
230
1
0
LINE
5
ED
100
AcDbEntity
8
1
62
256
6
ByLayer
370
18
48
1
60
0
100
AcDbLine
10
32.3245
20
-7.742143
30
0
11
32.3245
21
-8.180085
31
0
39
0
210
0
220
0
230
1
0
LINE
5
EE
100
AcDbEntity
8
1
62
256
6
ByLayer
370
18
48
1
60
0
100
AcDbLine
10
32.3245
20
-2.374363
30
0
11
32.3245
21
-3.635516
31
0
39
0
210
0
220
0
230
1
0
LINE
5
EF
100
AcDbEntity
8
1
62
256
6
ByLayer
370
18
48
1
60
0
100
AcDbLine
10
0
20
-19.7
30
0
11
0
21
19.7
31
0
39
0
210
0
220
0
230
1
0
LINE
5
F0
100
AcDbEntity
8
1
62
256
6
ByLayer
370
18
48
1
60
0
100
AcDbLine
10
9.076795
20
5.85989
30
0
11
6.923205
21
5.85989
31
0
39
0
210
0
220
0
230
1
0
LINE
5
F1
100
AcDbEntity
8
1
62
256
6
ByLayer
370
18
48
1
60
0
100
AcDbLine
10
6.923205
20
19.122283
30
0
11
9.076795
21
19.122283
31
0
39
0
210
0
220
0
230
1
0
LINE
5
F2
100
AcDbEntity
8
1
62
256
6
ByLayer
370
18
48
1
60
0
100
AcDbLine
10
6.923205
20
-5.85989
30
0
11
9.076795
21
-5.85989
31
0
39
0
210
0
220
0
230
1
0
LINE
5
F3
100
AcDbEntity
8
1
62
256
6
ByLayer
370
18
48
1
60
0
100
AcDbLine
10
9.076795
20
-19.122283
30
0
11
6.923205
21
-19.122283
31
0
39
0
210
0
220
0
230
1
0
LINE
5
F4
100
AcDbEntity
8
1
62
256
6
ByLayer
370
18
48
1
60
0
100
AcDbLine
10
32.3245
20
18.605627
30
0
11
32.3245
21
18.289015
31
0
39
0
210
0
220
0
230
1
0
LINE
5
F5
100
AcDbEntity
8
1
62
256
6
ByLayer
370
18
48
1
60
0
100
AcDbLine
10
32.3245
20
18.853979
30
0
11
32.3245
21
18.646315
31
0
39
0
210
0
220
0
230
1
0
LINE
5
F6
100
AcDbEntity
8
SK4
62
256
6
ByLayer
370
18
48
0.05
60
0
100
AcDbLine
10
-29
20
0
30
0
11
37
21
0
31
0
39
0
210
0
220
0
230
1
0
LINE
5
F8
100
AcDbEntity
8
4
62
256
6
ByLayer
370
18
48
0.05
60
0
100
AcDbLine
10
0
20
0
30
0
11
32
21
0
31
0
39
0
210
0
220
0
230
1
0
LINE
5
FA
100
AcDbEntity
8
81
62
256
6
ByLayer
370
18
48
1
60
0
100
AcDbLine
10
32
20
0
30
0
11
37
21
0
31
0
39
0
210
0
220
0
230
1
0
LINE
5
FB
100
AcDbEntity
8
80
62
256
6
ByLayer
370
18
48
1
60
0
100
AcDbLine
10
0
20
0
30
0
11
-5
21
0
31
0
39
0
210
0
220
0
230
1
0
LINE
5
FC
100
AcDbEntity
8
1
62
256
6
ByLayer
370
18
48
1
60
0
100
AcDbLine
10
0
20
-19.7
30
0
11
0.3
21
-20
31
0
39
0
210
0
220
0
230
1
0
LINE
5
FD
100
AcDbEntity
8
1
62
256
6
ByLayer
370
18
48
1
60
0
100
AcDbLine
10
0.3
20
20
30
0
11
0
21
19.7
31
0
39
0
210
0
220
0
230
1
0
LINE
5
FE
100
AcDbEntity
8
1
62
256
6
ByLayer
370
18
48
1
60
0
100
AcDbLine
10
31.521897
20
19.802603
30
0
11
31.3245
21
20
31
0
39
0
210
0
220
0
230
1
0
LINE
5
FF
100
AcDbEntity
8
1
62
256
6
ByLayer
370
18
48
1
60
0
100
AcDbLine
10
31.3245
20
-20
30
0
11
31.521897
21
-19.802603
31
0
39
0
210
0
220
0
230
1
0
LINE
5
100
100
AcDbEntity
8
1
62
256
6
ByLayer
370
18
48
1
60
0
100
AcDbLine
10
31.3245
20
20
30
0
11
0.3
21
20
31
0
39
0
210
0
220
0
230
1
0
LINE
5
101
100
AcDbEntity
8
1
62
256
6
ByLayer
370
18
48
1
60
0
100
AcDbLine
10
0.3
20
-20
30
0
11
31.3245
21
-20
31
0
39
0
210
0
220
0
230
1
0
LINE
5
102
100
AcDbEntity
8
1
62
256
6
ByLayer
370
18
48
1
60
0
100
AcDbLine
10
32.324484
20
-12.899495
30
0
11
36.4255
21
-12.899495
31
0
39
0
210
0
220
0
230
1
0
LINE
5
103
100
AcDbEntity
8
1
62
256
6
ByLayer
370
18
48
1
60
0
100
AcDbLine
10
36.4255
20
-6.899495
30
0
11
32.324484
21
-6.899495
31
0
39
0
210
0
220
0
230
1
0
LINE
5
104
100
AcDbEntity
8
1
62
256
6
ByLayer
370
18
48
1
60
0
100
AcDbLine
10
36.6755
20
-14.899495
30
0
11
41.9255
21
-14.899495
31
0
39
0
210
0
220
0
230
1
0
LINE
5
105
100
AcDbEntity
8
1
62
256
6
ByLayer
370
18
48
1
60
0
100
AcDbLine
10
41.9255
20
-4.899495
30
0
11
36.6755
21
-4.899495
31
0
39
0
210
0
220
0
230
1
0
LINE
5
106
100
AcDbEntity
8
1
62
256
6
ByLayer
370
18
48
1
60
0
100
AcDbLine
10
32.324484
20
6.899495
30
0
11
36.4255
21
6.899495
31
0
39
0
210
0
220
0
230
1
0
LINE
5
107
100
AcDbEntity
8
1
62
256
6
ByLayer
370
18
48
1
60
0
100
AcDbLine
10
36.4255
20
12.899495
30
0
11
32.324484
21
12.899495
31
0
39
0
210
0
220
0
230
1
0
LINE
5
108
100
AcDbEntity
8
1
62
256
6
ByLayer
370
18
48
1
60
0
100
AcDbLine
10
36.6755
20
4.899495
30
0
11
41.9255
21
4.899495
31
0
39
0
210
0
220
0
230
1
0
LINE
5
109
100
AcDbEntity
8
1
62
256
6
ByLayer
370
18
48
1
60
0
100
AcDbLine
10
41.9255
20
14.899495
30
0
11
36.6755
21
14.899495
31
0
39
0
210
0
220
0
230
1
0
LINE
5
10A
100
AcDbEntity
8
SK2
62
256
6
ByLayer
370
13
48
1
60
0
100
AcDbLine
10
52.888211
20
20
30
0
11
52.888211
21
-20
31
0
39
0
210
0
220
0
230
1
0
LINE
5
10C
100
AcDbEntity
8
SK2
62
256
6
ByLayer
370
13
48
1
60
0
100
AcDbLine
10
33.5875
20
-20
30
0
11
54.888211
21
-20
31
0
39
0
210
0
220
0
230
1
0
LINE
5
10D
100
AcDbEntity
8
SK2
62
256
6
ByLayer
370
13
48
1
60
0
100
AcDbLine
10
33.5875
20
20
30
0
11
54.888211
21
20
31
0
39
0
210
0
220
0
230
1
0
LINE
5
1D4
100
AcDbEntity
8
121
62
2
6
Continuous
370
18
48
1
60
1
100
AcDbLine
10
52.888211
20
-20
30
0
11
52.427427
21
-16.500002
31
0
39
0
210
0
220
0
230
1
0
LINE
5
1D6
100
AcDbEntity
8
121
62
2
6
Continuous
370
18
48
1
60
1
100
AcDbLine
10
52.427427
20
-16.500002
30
0
11
53.348994
21
-16.499998
31
0
39
0
210
0
220
0
230
1
0
LINE
5
1D7
100
AcDbEntity
8
121
62
2
6
Continuous
370
18
48
1
60
1
100
AcDbLine
10
53.348994
20
-16.499998
30
0
11
52.888211
21
-20
31
0
39
0
210
0
220
0
230
1
0
LINE
5
1D9
100
AcDbEntity
8
121
62
2
6
Continuous
370
18
48
1
60
1
100
AcDbLine
10
52.888211
20
20
30
0
11
53.348994
21
16.500002
31
0
39
0
210
0
220
0
230
1
0
LINE
5
1DA
100
AcDbEntity
8
121
62
2
6
Continuous
370
18
48
1
60
1
100
AcDbLine
10
53.348994
20
16.500002
30
0
11
52.427427
21
16.499998
31
0
39
0
210
0
220
0
230
1
0
LINE
5
1DB
100
AcDbEntity
8
121
62
2
6
Continuous
370
18
48
1
60
1
100
AcDbLine
10
52.427427
20
16.499998
30
0
11
52.888211
21
20
31
0
39
0
210
0
220
0
230
1
0
MTEXT
5
1D0
100
AcDbEntity
8
SK2
62
256
6
ByLayer
370
18
48
1
60
0
100
AcDbMText
10
51.323577
20
-4.714889
30
0
210
0
220
0
230
1
1
%%c
40
3.5
41
0
44
1.084337
50
90
71
7
72
5
7
iso_b_vert
0
MTEXT
5
1D3
100
AcDbEntity
8
SK2
62
256
6
ByLayer
370
18
48
1
60
0
100
AcDbMText
10
51.323577
20
2.257767
30
0
210
0
220
0
230
1
1
\W0.7361;40
40
3.5
41
0
44
1.084337
50
90
71
7
72
5
7
iso_b_vert
0
MTEXT
5
1DD
100
AcDbEntity
8
SK6
62
256
6
ByLayer
370
18
48
1
60
0
100
AcDbMText
10
0.1855
20
29.282634
30
0
210
0
220
0
230
1
1
\W0.7361;C4-570-40-NG
40
3.5
41
0
44
1.084337
50
0
71
7
72
5
7
iso_b_vert
0
HATCH
5
1D8
100
AcDbEntity
8
SK2
62
256
6
ByLayer
370
13
48
1
60
0
100
AcDbHatch
10
0
20
0
30
0
210
0
220
0
230
1
2
ANSI31
70
0
71
0
91
1
92
5
93
3
72
1
10
52.888210575624
20
-20
11
52.4274268340713
21
-16.5000016925532
72
1
10
52.4274268340713
20
-16.5000016925532
11
53.3489943171768
21
-16.4999983074468
72
1
10
53.3489943171768
20
-16.4999983074468
11
52.888210575624
21
-20
97
0
75
0
76
1
52
0
41
0.0062
77
0
78
1
53
45
43
0
44
0
45
-0.0139193969876572
46
0.0139193969876572
79
0
47
0
98
1
10
0
20
0
0
HATCH
5
1DC
100
AcDbEntity
8
SK2
62
256
6
ByLayer
370
13
48
1
60
0
100
AcDbHatch
10
0
20
0
30
0
210
0
220
0
230
1
2
ANSI31
70
0
71
0
91
1
92
5
93
3
72
1
10
52.888210575624
20
20
11
53.3489943171768
21
16.5000016925532
72
1
10
53.3489943171768
20
16.5000016925532
11
52.4274268340713
21
16.4999983074468
72
1
10
52.4274268340713
20
16.4999983074468
11
52.888210575624
21
20
97
0
75
0
76
1
52
0
41
0.0062
77
0
78
1
53
45
43
0
44
0
45
-0.0139193969876572
46
0.0139193969876572
79
0
47
0
98
1
10
0
20
0
0
DIMENSION
5
1E2
100
AcDbEntity
8
2
62
256
6
ByLayer
370
18
48
1
60
0
100
AcDbDimension
2
_U0
10
32
20
-40.1
30
0
11
16
21
-40.1
31
0
70
32
71
1
72
1
41
1
210
0
220
0
230
1
3
Standard
100
AcDbAlignedDimension
13
0
23
-20
33
0
14
32
24
-20
34
0
50
0
100
AcDbRotatedDimension
1001
ACAD
1000
DSTYLE
1002
{
1070
   371
1070
    13
1070
   372
1070
    13
1070
     3
1000

1070
   170
1070
     0
1070
   144
1040
1.0
1070
   277
1070
     2
1070
   284
1070
     8
1070
   278
1070
    46
1070
   146
1040
1.0
1070
   345
1005
16
1070
   347
1005
16
1070
   346
1005
16
1070
   344
1005
0
1070
   343
1005
0
1070
   172
1070
     1
1070
    76
1070
     0
1070
    75
1070
     0
1070
   282
1070
     0
1070
   281
1070
     0
1070
    71
1070
     0
1070
    74
1070
     0
1070
   279
1070
     0
1070
   173
1070
     1
1070
   340
1005
1D1
1070
   271
1070
     2
1070
   272
1070
     2
1070
    77
1070
     1
1070
    73
1070
     1
1070
   171
1070
     3
1070
   274
1070
     4
1070
   177
1070
     2
1070
   176
1070
     2
1070
   178
1070
     2
1070
    78
1070
     8
1070
    48
1040
-0.1
1070
    41
1040
3.5
1070
   147
1040
1.75
1070
    42
1040
1.5875
1070
    44
1040
2.0
1070
   140
1040
3.5
1002
}
1001
ACAD_DSTYLE_DIM_LINETYPE
1070
   380
1005
16
1001
ACAD_DSTYLE_DIM_EXT1_LINETYPE
1070
   381
1005
16
1001
ACAD_DSTYLE_DIM_EXT2_LINETYPE
1070
   382
1005
16
0
ENDSEC
0
SECTION
2
OBJECTS
0
DICTIONARY
5
26c
330
0
100
AcDbDictionary
280
0
281
1
3
ACAD_GROUP
350
26d
3
ACAD_MLINESTYLE
350
26e
0
DICTIONARY
5
26d
330
0
100
AcDbDictionary
280
0
281
1
0
DICTIONARY
5
26e
330
0
100
AcDbDictionary
280
0
281
1
3
Standard
350
18
0
MLINESTYLE
5
18
330
26e
100
AcDbMlineStyle
2
Standard
70
0
3

62
256
51
90
52
90
71
2
49
-0.5
62
256
6
ByLayer
49
0.5
62
256
6
ByLayer
0
RASTERVARIABLES
5
25a
330

100
AcDbRasterVariables
90
0
70
1
71
1
72
1
0
ENDSEC
0
EOF
