0
SECTION
2
HEADER
9
$ACADVER
1
AC1015
9
$DWGCODEPAGE
3
ANSI_1252
9
$HANDSEED
5
1f3
9
$ANGBASE
50
0
9
$ANGDIR
70
0
9
$ATTMODE
70
1
9
$AUNITS
70
0
9
$AUPREC
70
0
9
$CECOLOR
62
256
9
$CELTSCALE
40
1
9
$CELTYPE
6
ByLayer
9
$CELWEIGHT
370
18
9
$CLAYER
8
0
9
$CMLJUST
70
0
9
$CMLSCALE
40
1
9
$CMLSTYLE
2
Standard
9
$DIMSTYLE
2
Standard
9
$TEXTSIZE
40
0.2
9
$TEXTSTYLE
7
Standard
9
$LUNITS
70
2
9
$LUPREC
70
4
9
$EXTNAMES
290
1
9
$INSUNITS
70
4
9
$LTSCALE
40
1
9
$LWDISPLAY
290
1
9
$PDMODE
70
0
9
$PDSIZE
40
0
9
$PLINEGEN
70
0
0
ENDSEC
0
SECTION
2
CLASSES
0
CLASS
1
RASTERVARIABLES
2
AcDbRasterVariables
3
ISM
90
0
280
0
281
0
0
ENDSEC
0
SECTION
2
TABLES
0
TABLE
2
VPORT
5
1e9
100
AcDbSymbolTable
0
VPORT
5
1
100
AcDbSymbolTableRecord
100
AcDbViewportTableRecord
2
*Active
70
0
10
0
20
0
11
1
21
1
12
-1
22
1
13
0
23
0
14
0.5
24
0.5
15
10
25
10
16
0
26
0
36
1
17
0
27
0
37
0
0
ENDTAB
0
TABLE
2
LTYPE
5
1ea
100
AcDbSymbolTable
0
LTYPE
5
14
100
AcDbSymbolTableRecord
100
AcDbLinetypeTableRecord
70
0
2
ByBlock
3

72
65
73
0
40
0
0
LTYPE
5
15
100
AcDbSymbolTableRecord
100
AcDbLinetypeTableRecord
70
0
2
ByLayer
3

72
65
73
0
40
0
0
LTYPE
5
16
100
AcDbSymbolTableRecord
100
AcDbLinetypeTableRecord
70
0
2
CONTINUOUS
3
Solid line
72
65
73
0
40
0
0
LTYPE
5
6A
100
AcDbSymbolTableRecord
100
AcDbLinetypeTableRecord
70
0
2
CENTER
3
____ _ ____ _ ____ _ ____
72
65
73
4
40
47.5
49
22
74
0
49
-8.5
74
0
49
8.5
74
0
49
-8.5
74
0
0
LTYPE
5
6B
100
AcDbSymbolTableRecord
100
AcDbLinetypeTableRecord
70
0
2
DASHED
3
__ __ __ __ __ __ __ __ __
72
65
73
2
40
25.72
49
12.86
74
0
49
-12.86
74
0
0
ENDTAB
0
TABLE
2
LAYER
5
1eb
100
AcDbSymbolTable
0
LAYER
5
10
100
AcDbSymbolTableRecord
100
AcDbLayerTableRecord
2
0
70
0
62
7
6
CONTINUOUS
290
1
370
-3
390
0
0
LAYER
5
6D
100
AcDbSymbolTableRecord
100
AcDbLayerTableRecord
2
80
70
0
62
-6
6
CONTINUOUS
290
1
370
-3
390
0
0
LAYER
5
6F
100
AcDbSymbolTableRecord
100
AcDbLayerTableRecord
2
81
70
0
62
-3
6
CONTINUOUS
290
1
370
-3
390
0
0
LAYER
5
72
100
AcDbSymbolTableRecord
100
AcDbLayerTableRecord
2
4
70
0
62
-2
6
CENTER
290
1
370
-3
390
0
0
LAYER
5
77
100
AcDbSymbolTableRecord
100
AcDbLayerTableRecord
2
1
70
0
62
4
6
CONTINUOUS
290
1
370
-3
390
0
0
LAYER
5
140
100
AcDbSymbolTableRecord
100
AcDbLayerTableRecord
2
2
70
0
62
7
6
CONTINUOUS
290
1
370
-3
390
0
0
LAYER
5
1d5
100
AcDbSymbolTableRecord
100
AcDbLayerTableRecord
2
SK4
70
0
62
2
6
CENTER
290
1
370
-3
390
0
0
LAYER
5
1d6
100
AcDbSymbolTableRecord
100
AcDbLayerTableRecord
2
SK1
70
0
62
4
6
CONTINUOUS
290
1
370
-3
390
0
0
LAYER
5
1d7
100
AcDbSymbolTableRecord
100
AcDbLayerTableRecord
2
SK6
70
0
62
5
6
CONTINUOUS
290
1
370
-3
390
0
0
LAYER
5
1d8
100
AcDbSymbolTableRecord
100
AcDbLayerTableRecord
2
SK2
70
0
62
7
6
CONTINUOUS
290
1
370
-3
390
0
0
ENDTAB
0
TABLE
2
STYLE
5
1ec
100
AcDbSymbolTable
0
STYLE
5
11
100
AcDbSymbolTableRecord
100
AcDbTextStyleTableRecord
2
Standard
3
txt
70
0
71
0
40
0
41
1
42
0
50
0
0
STYLE
5
13B
100
AcDbSymbolTableRecord
100
AcDbTextStyleTableRecord
2
iso_b_vert
3
simplex.shx
70
0
71
0
40
0
41
1
42
0
50
0
0
STYLE
5
13C
100
AcDbSymbolTableRecord
100
AcDbTextStyleTableRecord
2
DWGDirectTextStyle
3
simplex
70
0
71
0
40
0
41
1
42
0
50
0
0
ENDTAB
0
TABLE
2
DIMSTYLE
5
1ed
100
AcDbSymbolTable
100
AcDbDimStyleTable
0
DIMSTYLE
105
27
100
AcDbSymbolTableRecord
100
AcDbDimStyleTableRecord
2
Standard
70
0
3
<>
41
0.18
42
0.0625
44
0.18
140
0.18
147
0.09
73
0
74
0
77
1
271
2
275
0
278
52
280
0
340
11
0
ENDTAB
0
TABLE
2
VIEW
5
1ee
100
AcDbSymbolTable
0
ENDTAB
0
TABLE
2
UCS
5
1ef
100
AcDbSymbolTable
0
ENDTAB
0
TABLE
2
APPID
5
1f0
100
AcDbSymbolTable
0
APPID
5
12
100
AcDbSymbolTableRecord
100
AcDbRegAppTableRecord
2
ACAD
70
0
0
ENDTAB
0
TABLE
2
BLOCK_RECORD
5
1f1
100
AcDbSymbolTable
0
BLOCK_RECORD
5
1F
100
AcDbSymbolTableRecord
100
AcDbBlockTableRecord
2
*Model_Space
340
0
70
0
0
BLOCK_RECORD
5
1B
100
AcDbSymbolTableRecord
100
AcDbBlockTableRecord
2
*Paper_Space
340
0
70
0
0
BLOCK_RECORD
5
23
100
AcDbSymbolTableRecord
100
AcDbBlockTableRecord
2
*Paper_Space0
340
0
70
0
0
BLOCK_RECORD
5
13E
100
AcDbSymbolTableRecord
100
AcDbBlockTableRecord
2
DimnDraft3D1
340
0
70
0
0
BLOCK_RECORD
5
149
100
AcDbSymbolTableRecord
100
AcDbBlockTableRecord
2
DimnDraft3D22
340
0
70
0
0
BLOCK_RECORD
5
155
100
AcDbSymbolTableRecord
100
AcDbBlockTableRecord
2
DimnDraft3D3
340
0
70
0
0
BLOCK_RECORD
5
15F
100
AcDbSymbolTableRecord
100
AcDbBlockTableRecord
2
DimnDraft3D44
340
0
70
0
0
BLOCK_RECORD
5
169
100
AcDbSymbolTableRecord
100
AcDbBlockTableRecord
2
DimnDraft3D5
340
0
70
0
0
BLOCK_RECORD
5
171
100
AcDbSymbolTableRecord
100
AcDbBlockTableRecord
2
DimnDraft3D6
340
0
70
0
0
ENDTAB
0
ENDSEC
0
SECTION
2
BLOCKS
0
BLOCK
5
20
100
AcDbEntity
8
0
100
AcDbBlockBegin
2
*Model_Space
70
0
10
0
20
0
30
0
3
*Model_Space
0
ENDBLK
5
21
100
AcDbEntity
8
0
100
AcDbBlockEnd
0
BLOCK
5
1C
100
AcDbEntity
8
0
100
AcDbBlockBegin
2
*Paper_Space
70
0
10
0
20
0
30
0
3
*Paper_Space
0
ENDBLK
5
1D
100
AcDbEntity
8
0
100
AcDbBlockEnd
0
BLOCK
5
24
100
AcDbEntity
8
0
100
AcDbBlockBegin
2
*Paper_Space0
70
0
10
0
20
0
30
0
3
*Paper_Space0
0
ENDBLK
5
25
100
AcDbEntity
8
0
100
AcDbBlockEnd
0
BLOCK
5
146
100
AcDbEntity
8
0
100
AcDbBlockBegin
2
DimnDraft3D1
70
0
10
0
20
0
30
0
3
DimnDraft3D1
0
MTEXT
5
13F
100
AcDbEntity
8
2
62
256
6
ByLayer
370
13
48
1
60
0
100
AcDbMText
10
42.897105
20
40.925467
30
0
210
0
220
0
230
1
1
\W0.6740;88
40
3.175
41
0
44
1.084337
50
0
71
7
72
5
7
iso_b_vert
0
LINE
5
141
100
AcDbEntity
8
2
62
256
6
ByLayer
370
13
48
1
60
0
100
AcDbLine
10
0
20
1.5875
30
0
11
0
21
43.306717
31
0
39
0
210
0
220
0
230
1
0
LINE
5
142
100
AcDbEntity
8
2
62
256
6
ByLayer
370
13
48
1
60
0
100
AcDbLine
10
88
20
1.5875
30
0
11
88
21
43.306717
31
0
39
0
210
0
220
0
230
1
0
LINE
5
143
100
AcDbEntity
8
2
62
256
6
ByLayer
370
13
48
1
60
0
100
AcDbLine
10
0
20
40.131717
30
0
11
88
21
40.131717
31
0
39
0
210
0
220
0
230
1
0
SOLID
5
144
100
AcDbEntity
8
2
62
256
6
ByLayer
370
13
48
1
60
0
100
AcDbTrace
10
0
20
40.131717
30
0
11
3.174998
21
40.549714
31
0
12
3.175002
22
39.713721
32
0
13
0
23
40.131717
33
0
39
0
210
0
220
0
230
1
0
SOLID
5
145
100
AcDbEntity
8
2
62
256
6
ByLayer
370
13
48
1
60
0
100
AcDbTrace
10
88
20
40.131717
30
0
11
84.825002
21
39.713721
31
0
12
84.824998
22
40.549714
32
0
13
88
23
40.131717
33
0
39
0
210
0
220
0
230
1
0
ENDBLK
5
147
100
AcDbEntity
8
0
100
AcDbBlockEnd
0
BLOCK
5
14A
100
AcDbEntity
8
0
100
AcDbBlockBegin
2
DimnDraft3D22
70
0
10
0
20
0
30
0
3
DimnDraft3D22
0
LINE
5
14C
100
AcDbEntity
8
SK2
62
256
6
ByLayer
370
25
48
1
60
0
100
AcDbLine
10
-1.2865
20
-20
30
0
11
-42.353994
21
-20
31
0
39
0
210
0
220
0
230
1
0
LINE
5
14E
100
AcDbEntity
8
SK2
62
256
6
ByLayer
370
25
48
1
60
0
100
AcDbLine
10
-1.2865
20
20
30
0
11
-42.353994
21
20
31
0
39
0
210
0
220
0
230
1
0
LINE
5
14F
100
AcDbEntity
8
SK2
62
256
6
ByLayer
370
25
48
1
60
0
100
AcDbLine
10
-39.178994
20
-20
30
0
11
-39.178994
21
20
31
0
39
0
210
0
220
0
230
1
0
SOLID
5
150
100
AcDbEntity
8
SK2
62
256
6
ByLayer
370
25
48
1
60
0
100
AcDbTrace
10
-39.178994
20
-20
30
0
11
-39.596991
21
-16.825002
31
0
12
-38.760997
22
-16.824998
32
0
13
-39.178994
23
-20
33
0
39
0
210
0
220
0
230
1
0
SOLID
5
151
100
AcDbEntity
8
SK2
62
256
6
ByLayer
370
25
48
1
60
0
100
AcDbTrace
10
-39.178994
20
20
30
0
11
-38.760997
21
16.825002
31
0
12
-39.596991
22
16.824998
32
0
13
-39.178994
23
20
33
0
39
0
210
0
220
0
230
1
0
MTEXT
5
152
100
AcDbEntity
8
SK2
62
256
6
ByLayer
370
13
48
1
60
0
100
AcDbMText
10
-40.766494
20
-4.420195
30
0
210
0
220
0
230
1
1
%%c
40
3.175
41
0
44
1.084337
50
90
71
7
72
5
7
iso_b_vert
0
MTEXT
5
153
100
AcDbEntity
8
SK2
62
256
6
ByLayer
370
13
48
1
60
0
100
AcDbMText
10
-40.766494
20
3.4925
30
0
210
0
220
0
230
1
1
\W0.7361;40
40
3.175
41
0
44
1.084337
50
90
71
7
72
5
7
iso_b_vert
0
ENDBLK
5
14B
100
AcDbEntity
8
0
100
AcDbBlockEnd
0
BLOCK
5
15C
100
AcDbEntity
8
0
100
AcDbBlockBegin
2
DimnDraft3D3
70
0
10
0
20
0
30
0
3
DimnDraft3D3
0
MTEXT
5
156
100
AcDbEntity
8
SK2
62
256
6
ByLayer
370
13
48
1
60
0
100
AcDbMText
10
8.898105
20
-29.278404
30
0
210
0
220
0
230
1
1
\W0.6740;20
40
3.175
41
0
44
1.084337
50
0
71
7
72
5
7
iso_b_vert
0
LINE
5
157
100
AcDbEntity
8
SK2
62
256
6
ByLayer
370
13
48
1
60
0
100
AcDbLine
10
0.001
20
-21.2875
30
0
11
0.001
21
-33.247154
31
0
39
0
210
0
220
0
230
1
0
LINE
5
158
100
AcDbEntity
8
SK2
62
256
6
ByLayer
370
13
48
1
60
0
100
AcDbLine
10
20.001
20
-21.5875
30
0
11
20.001
21
-33.247154
31
0
39
0
210
0
220
0
230
1
0
LINE
5
159
100
AcDbEntity
8
SK2
62
256
6
ByLayer
370
13
48
1
60
0
100
AcDbLine
10
0.001
20
-30.072154
30
0
11
20.001
21
-30.072154
31
0
39
0
210
0
220
0
230
1
0
SOLID
5
15A
100
AcDbEntity
8
SK2
62
256
6
ByLayer
370
13
48
1
60
0
100
AcDbTrace
10
0.001
20
-30.072154
30
0
11
3.175998
21
-29.654157
31
0
12
3.176002
22
-30.49015
32
0
13
0.001
23
-30.072154
33
0
39
0
210
0
220
0
230
1
0
SOLID
5
15B
100
AcDbEntity
8
SK2
62
256
6
ByLayer
370
13
48
1
60
0
100
AcDbTrace
10
20.001
20
-30.072154
30
0
11
16.826002
21
-30.49015
31
0
12
16.825998
22
-29.654157
32
0
13
20.001
23
-30.072154
33
0
39
0
210
0
220
0
230
1
0
ENDBLK
5
15D
100
AcDbEntity
8
0
100
AcDbBlockEnd
0
BLOCK
5
160
100
AcDbEntity
8
0
100
AcDbBlockBegin
2
DimnDraft3D44
70
0
10
0
20
0
30
0
3
DimnDraft3D44
0
LINE
5
162
100
AcDbEntity
8
SK2
62
256
6
ByLayer
370
25
48
1
60
0
100
AcDbLine
10
88
20
-1.5875
30
0
11
88
21
-33.128304
31
0
39
0
210
0
220
0
230
1
0
LINE
5
163
100
AcDbEntity
8
SK2
62
256
6
ByLayer
370
25
48
1
60
0
100
AcDbLine
10
25.518371
20
-9.5875
30
0
11
25.518371
21
-33.128304
31
0
39
0
210
0
220
0
230
1
0
LINE
5
164
100
AcDbEntity
8
SK2
62
256
6
ByLayer
370
25
48
1
60
0
100
AcDbLine
10
88
20
-29.953304
30
0
11
25.518371
21
-29.953304
31
0
39
0
210
0
220
0
230
1
0
SOLID
5
165
100
AcDbEntity
8
SK2
62
256
6
ByLayer
370
25
48
1
60
0
100
AcDbTrace
10
88
20
-29.953304
30
0
11
84.825002
21
-30.371301
31
0
12
84.824998
22
-29.535307
32
0
13
88
23
-29.953304
33
0
39
0
210
0
220
0
230
1
0
SOLID
5
166
100
AcDbEntity
8
SK2
62
256
6
ByLayer
370
25
48
1
60
0
100
AcDbTrace
10
25.518371
20
-29.953304
30
0
11
28.69337
21
-29.535307
31
0
12
28.693373
22
-30.371301
32
0
13
25.518371
23
-29.953304
33
0
39
0
210
0
220
0
230
1
0
MTEXT
5
167
100
AcDbEntity
8
SK2
62
256
6
ByLayer
370
13
48
1
60
0
100
AcDbMText
10
53.910041
20
-29.159554
30
0
210
0
220
0
230
1
1
\W0.7150;62,5
40
3.175
41
0
44
1.084337
50
0
71
7
72
5
7
iso_b_vert
0
ENDBLK
5
161
100
AcDbEntity
8
0
100
AcDbBlockEnd
0
BLOCK
5
16E
100
AcDbEntity
8
0
100
AcDbBlockBegin
2
DimnDraft3D5
70
0
10
0
20
0
30
0
3
DimnDraft3D5
0
MTEXT
5
16A
100
AcDbEntity
8
SK2
62
256
6
ByLayer
370
13
48
1
60
0
100
AcDbMText
10
40.684453
20
27.722892
30
0
210
0
220
0
230
1
1
\W0.5404;3
40
3.175
41
0
44
1.084337
50
45.7800457658146
71
7
72
5
7
iso_b_vert
0
MTEXT
5
16B
100
AcDbEntity
8
SK2
62
256
6
ByLayer
370
13
48
1
60
0
100
AcDbMText
10
37.800046
20
24.758858
30
0
210
0
220
0
230
1
1
\W0.6380;R
40
3.175
41
0
44
1.084337
50
45.7800457658146
71
7
72
5
7
iso_b_vert
0
LINE
5
16C
100
AcDbEntity
8
SK2
62
256
6
ByLayer
370
13
48
1
60
0
100
AcDbLine
10
23.426127
20
8.849997
30
0
11
41.690339
21
27.618416
31
0
39
0
210
0
220
0
230
1
0
SOLID
5
16D
100
AcDbEntity
8
SK2
62
256
6
ByLayer
370
13
48
1
60
0
100
AcDbTrace
10
23.426127
20
8.849997
30
0
11
25.340853
21
11.416933
31
0
12
25.939985
22
10.833901
32
0
13
23.426127
23
8.849997
33
0
39
0
210
0
220
0
230
1
0
ENDBLK
5
16F
100
AcDbEntity
8
0
100
AcDbBlockEnd
0
BLOCK
5
179
100
AcDbEntity
8
0
100
AcDbBlockBegin
2
DimnDraft3D6
70
0
10
0
20
0
30
0
3
DimnDraft3D6
0
MTEXT
5
172
100
AcDbEntity
8
SK2
62
256
6
ByLayer
370
13
48
1
60
0
100
AcDbMText
10
115.737876
20
23.24658
30
0
210
0
220
0
230
1
1
%%c
40
3.175
41
0
44
1.084337
50
90
71
7
72
5
7
iso_b_vert
0
MTEXT
5
173
100
AcDbEntity
8
SK2
62
256
6
ByLayer
370
13
48
1
60
0
100
AcDbMText
10
115.737876
20
31.159276
30
0
210
0
220
0
230
1
1
\W0.5321;16
40
3.175
41
0
44
1.084337
50
90
71
7
72
5
7
iso_b_vert
0
LINE
5
174
100
AcDbEntity
8
SK2
62
256
6
ByLayer
370
13
48
1
60
0
100
AcDbLine
10
87.3885
20
8
30
0
11
120.500376
21
8
31
0
39
0
210
0
220
0
230
1
0
LINE
5
175
100
AcDbEntity
8
SK2
62
256
6
ByLayer
370
13
48
1
60
0
100
AcDbLine
10
87.3885
20
-8
30
0
11
120.500376
21
-8
31
0
39
0
210
0
220
0
230
1
0
LINE
5
176
100
AcDbEntity
8
SK2
62
256
6
ByLayer
370
13
48
1
60
0
100
AcDbLine
10
117.325376
20
-8
30
0
11
117.325376
21
33.365065
31
0
39
0
210
0
220
0
230
1
0
SOLID
5
177
100
AcDbEntity
8
SK2
62
256
6
ByLayer
370
13
48
1
60
0
100
AcDbTrace
10
117.325376
20
8
30
0
11
117.743373
21
4.825002
31
0
12
116.907379
22
4.824998
32
0
13
117.325376
23
8
33
0
39
0
210
0
220
0
230
1
0
SOLID
5
178
100
AcDbEntity
8
SK2
62
256
6
ByLayer
370
13
48
1
60
0
100
AcDbTrace
10
117.325376
20
-8
30
0
11
116.907379
21
-4.825002
31
0
12
117.743373
22
-4.824998
32
0
13
117.325376
23
-8
33
0
39
0
210
0
220
0
230
1
0
ENDBLK
5
17A
100
AcDbEntity
8
0
100
AcDbBlockEnd
0
ENDSEC
0
SECTION
2
ENTITIES
0
ARC
5
D2
100
AcDbEntity
8
SK1
62
256
6
ByLayer
370
18
48
1
60
0
100
AcDbCircle
39
0
10
0.599
20
-15
30
0
40
1
210
0
220
0
230
-1
100
AcDbArc
50
113.578178
51
126.869898
0
ARC
5
D3
100
AcDbEntity
8
SK1
62
256
6
ByLayer
370
18
48
1
60
0
100
AcDbCircle
39
0
10
0.599
20
15
30
0
40
1
210
0
220
0
230
-1
100
AcDbArc
50
233.130102
51
246.421822
0
ARC
5
D4
100
AcDbEntity
8
1
62
256
6
ByLayer
370
18
48
1
60
0
100
AcDbCircle
39
0
10
-25.518371
20
11
30
0
40
3
210
0
220
0
230
-1
100
AcDbArc
50
270
51
345
0
ARC
5
D5
100
AcDbEntity
8
1
62
256
6
ByLayer
370
18
48
1
60
0
100
AcDbCircle
39
0
10
-25.518371
20
-11
30
0
40
3
210
0
220
0
230
-1
100
AcDbArc
50
15
51
90
0
ARC
5
D6
100
AcDbEntity
8
1
62
256
6
ByLayer
370
18
48
1
60
0
100
AcDbCircle
39
0
10
85.801
20
-7.8
30
0
40
0.2
210
0
220
0
230
1
100
AcDbArc
50
270
51
0
0
ARC
5
D7
100
AcDbEntity
8
1
62
256
6
ByLayer
370
18
48
1
60
0
100
AcDbCircle
39
0
10
85.801
20
7.8
30
0
40
0.2
210
0
220
0
230
1
100
AcDbArc
50
0
51
90
0
CIRCLE
5
D8
100
AcDbEntity
8
1
62
256
6
ByLayer
370
18
48
1
60
0
100
AcDbCircle
10
82.001
20
0
30
0
40
0.5
39
0
210
0
220
0
230
1
0
ELLIPSE
5
D9
100
AcDbEntity
8
1
62
256
6
ByLayer
370
18
48
1
60
0
100
AcDbEllipse
10
-0.947929
20
0
30
0
11
9.36741787978237
21
19.7417491527506
31
0
210
0
220
0
230
1
40
0.341999
41
-1.09631952749989
42
-0.152726244898346
0
ELLIPSE
5
DA
100
AcDbEntity
8
1
62
256
6
ByLayer
370
18
48
1
60
0
100
AcDbEllipse
10
16.949929
20
0
30
0
11
-9.36741787978202
21
19.7417491527502
31
0
210
0
220
0
230
1
40
0.341999
41
0.152726244898346
42
1.0963195274999
0
ELLIPSE
5
DB
100
AcDbEntity
8
1
62
256
6
ByLayer
370
18
48
1
60
0
100
AcDbEllipse
10
-0.947929
20
0
30
0
11
-9.36741787978211
21
19.7417491527503
31
0
210
0
220
0
230
1
40
0.341999
41
-2.98886640869146
42
-2.0452731260899
0
ELLIPSE
5
DC
100
AcDbEntity
8
1
62
256
6
ByLayer
370
18
48
1
60
0
100
AcDbEllipse
10
16.949929
20
0
30
0
11
9.36741787978221
21
19.7417491527504
31
0
210
0
220
0
230
1
40
0.341999
41
2.04527312608991
42
2.98886640869145
0
POINT
5
6C
100
AcDbEntity
8
80
62
256
6
ByLayer
370
18
48
1
60
0
100
AcDbPoint
10
0
20
0
30
0
39
0
210
0
220
0
230
1
50
360
0
POINT
5
6E
100
AcDbEntity
8
81
62
256
6
ByLayer
370
18
48
1
60
0
100
AcDbPoint
10
88
20
0
30
0
39
0
210
0
220
0
230
1
50
360
0
SPLINE
5
DD
100
AcDbEntity
8
1
62
256
6
ByLayer
370
18
48
1
60
0
100
AcDbSpline
70
4
71
1
72
4
73
2
40
0
40
0
40
1
40
1
41
1
10
87.521
20
7.90174031463956
30
0
41
1
10
87.642
20
7.77921210663394
30
0
0
SPLINE
5
DE
100
AcDbEntity
8
1
62
256
6
ByLayer
370
18
48
1
60
0
100
AcDbSpline
70
4
71
3
72
12
73
8
40
0
40
0
40
0
40
0
40
0.0008404319388628
40
0.187693923336854
40
0.446619611187581
40
0.809317596170514
40
1
40
1
40
1
40
1
41
1
10
87.642
20
7.77921210663394
30
0
41
1
10
87.6420000015535
20
7.77920196069541
30
0
41
1
10
87.6420070504347
20
7.77692949577072
30
0
41
1
10
87.6460080874125
20
7.7674704186206
30
0
41
1
10
87.6667373087011
20
7.7377595626891
30
0
41
1
10
87.6991259704894
20
7.69825509210273
30
0
41
1
10
87.7241044034013
20
7.66965406630874
30
0
41
1
10
87.73325
20
7.6594024756846
30
0
0
SPLINE
5
DF
100
AcDbEntity
8
1
62
256
6
ByLayer
370
18
48
1
60
0
100
AcDbSpline
70
4
71
1
72
4
73
2
40
0
40
0
40
1
40
1
41
1
10
87.73325
20
7.6594024756846
30
0
41
1
10
88.271
20
7.04337915289114
30
0
0
SPLINE
5
E0
100
AcDbEntity
8
1
62
256
6
ByLayer
370
18
48
1
60
0
100
AcDbSpline
70
4
71
1
72
4
73
2
40
0
40
0
40
1
40
1
41
1
10
88.271
20
6.95956808769315
30
0
41
1
10
87.73325
20
7.42726857976425
30
0
0
SPLINE
5
E1
100
AcDbEntity
8
1
62
256
6
ByLayer
370
18
48
1
60
0
100
AcDbSpline
70
4
71
3
72
12
73
8
40
0
40
0
40
0
40
0
40
0.258986083599257
40
0.502034553227431
40
0.746905762425442
40
0.954129640298957
40
1
40
1
40
1
40
1
41
1
10
87.7332500000001
20
7.42726857976421
30
0
41
1
10
87.7205983951014
20
7.43835850661608
30
0
41
1
10
87.697920018039
20
7.45667247891417
30
0
41
1
10
87.667361102775
20
7.47704881804617
30
0
41
1
10
87.6477412098493
20
7.48339185031634
30
0
41
1
10
87.6423822433209
20
7.47786874351577
30
0
41
1
10
87.6419920852269
20
7.4727939617599
30
0
41
1
10
87.6420001052367
20
7.47179090729605
30
0
0
SPLINE
5
E2
100
AcDbEntity
8
1
62
256
6
ByLayer
370
18
48
1
60
0
100
AcDbSpline
70
4
71
1
72
4
73
2
40
0
40
0
40
1
40
1
41
1
10
87.73325
20
7.3200971437575
30
0
41
1
10
88.271
20
6.6144077990976
30
0
0
SPLINE
5
E3
100
AcDbEntity
8
1
62
256
6
ByLayer
370
18
48
1
60
0
100
AcDbSpline
70
4
71
1
72
4
73
2
40
0
40
0
40
1
40
1
41
1
10
88.271
20
6.46485787360058
30
0
41
1
10
87.73325
20
6.90991625466112
30
0
0
SPLINE
5
E4
100
AcDbEntity
8
1
62
256
6
ByLayer
370
18
48
1
60
0
100
AcDbSpline
70
4
71
3
72
12
73
8
40
0
40
0
40
0
40
0
40
0.210478310471928
40
0.429965748969949
40
0.650956031765805
40
0.840650842315377
40
1
40
1
40
1
40
1
41
1
10
87.7332500000003
20
6.90991625466102
30
0
41
1
10
87.7228633907411
20
6.91864626298458
30
0
41
1
10
87.7027794182387
20
6.93368421103725
30
0
41
1
10
87.674089915474
20
6.9498207449675
30
0
41
1
10
87.6532707960744
20
6.95295031224172
30
0
41
1
10
87.6435715338015
20
6.94402679046717
30
0
41
1
10
87.6418619105857
20
6.93439648199572
30
0
41
1
10
87.6420013365633
20
6.92898845200667
30
0
0
SPLINE
5
E5
100
AcDbEntity
8
1
62
256
6
ByLayer
370
18
48
1
60
0
100
AcDbSpline
70
4
71
1
72
4
73
2
40
0
40
0
40
1
40
1
41
1
10
87.73325
20
6.73618572365475
30
0
41
1
10
88.271
20
5.89632013836975
30
0
0
SPLINE
5
E6
100
AcDbEntity
8
1
62
256
6
ByLayer
370
18
48
1
60
0
100
AcDbSpline
70
4
71
1
72
4
73
2
40
0
40
0
40
1
40
1
41
1
10
88.271
20
5.65934507557843
30
0
41
1
10
87.73325
20
6.09955463430787
30
0
0
SPLINE
5
E7
100
AcDbEntity
8
1
62
256
6
ByLayer
370
18
48
1
60
0
100
AcDbSpline
70
4
71
3
72
13
73
9
40
0
40
0
40
0
40
0
40
0.158873435808812
40
0.383018003236838
40
0.573856014948189
40
0.737098581551044
40
0.988042459297373
40
1
40
1
40
1
40
1
41
1
10
87.7332500000009
20
6.09955463430752
30
0
41
1
10
87.7252633521089
20
6.1062389588654
30
0
41
1
10
87.706682648738
20
6.11975905201347
30
0
41
1
10
87.6790951833615
20
6.13314398880669
30
0
41
1
10
87.6580266280134
20
6.13173404268809
30
0
41
1
10
87.6448690561312
20
6.11793376651177
30
0
41
1
10
87.642069246542
20
6.10116047387334
30
0
41
1
10
87.641998941241
20
6.0896341311624
30
0
41
1
10
87.6420000560366
20
6.08910584112996
30
0
0
SPLINE
5
E8
100
AcDbEntity
8
1
62
256
6
ByLayer
370
18
48
1
60
0
100
AcDbSpline
70
4
71
1
72
4
73
2
40
0
40
0
40
1
40
1
41
1
10
87.73325
20
5.83468713926406
30
0
41
1
10
88.271
20
4.76002014864708
30
0
0
SPLINE
5
E9
100
AcDbEntity
8
1
62
256
6
ByLayer
370
18
48
1
60
0
100
AcDbSpline
70
4
71
1
72
4
73
2
40
0
40
0
40
1
40
1
41
1
10
88.271
20
4.37458409944217
30
0
41
1
10
87.73325
20
4.85151428189006
30
0
0
SPLINE
5
EA
100
AcDbEntity
8
1
62
256
6
ByLayer
370
18
48
1
60
0
100
AcDbSpline
70
4
71
3
72
14
73
10
40
0
40
0
40
0
40
0
40
0.0986331446670071
40
0.258637881950778
40
0.379016831610402
40
0.499239146121391
40
0.673396282815428
40
0.969901834472216
40
1
40
1
40
1
40
1
41
1
10
87.7332500000048
20
4.85151428188778
30
0
41
1
10
87.7280424340145
20
4.85621034685727
30
0
41
1
10
87.714456320686
20
4.86689036560921
30
0
41
1
10
87.6936560060949
20
4.87808444689179
30
0
41
1
10
87.674118778379
20
4.87934542621653
30
0
41
1
10
87.6585284236479
20
4.87092549547949
30
0
41
1
10
87.6451517032736
20
4.84666162103295
30
0
41
1
10
87.6421563294674
20
4.81819505656403
30
0
41
1
10
87.6419924931539
20
4.79870878706705
30
0
41
1
10
87.6420006175057
20
4.79689447950006
30
0
0
SPLINE
5
EB
100
AcDbEntity
8
1
62
256
6
ByLayer
370
18
48
1
60
0
100
AcDbSpline
70
4
71
2
72
6
73
3
40
0
40
0
40
0
40
1
40
1
40
1
41
1
10
87.73325
20
4.42560164527002
30
0
41
1
10
88.0548214327057
20
3.59737080986587
30
0
41
1
10
88.271
20
2.72470043434277
30
0
0
SPLINE
5
EC
100
AcDbEntity
8
1
62
256
6
ByLayer
370
18
48
1
60
0
100
AcDbSpline
70
4
71
1
72
4
73
2
40
0
40
0
40
1
40
1
41
1
10
88.271
20
1.7665744823563
30
0
41
1
10
87.73325
20
2.59707815013596
30
0
0
SPLINE
5
ED
100
AcDbEntity
8
1
62
256
6
ByLayer
370
18
48
1
60
0
100
AcDbSpline
70
4
71
3
72
15
73
11
40
0
40
0
40
0
40
0
40
0.0816420318889824
40
0.130773140230303
40
0.180351049496567
40
0.224509805356269
40
0.281679868099818
40
0.382080484504414
40
0.687647421846993
40
1
40
1
40
1
40
1
41
1
10
87.7332500000186
20
2.59707815010695
30
0
41
1
10
87.7278774466485
20
2.60496512182048
30
0
41
1
10
87.7185649223191
20
2.61538707768054
30
0
41
1
10
87.7040179070823
20
2.62634394471887
30
0
41
1
10
87.6917874978087
20
2.6297653614233
30
0
41
1
10
87.6801440275722
20
2.62642005090166
30
0
41
1
10
87.6681187721301
20
2.61418532503369
30
0
41
1
10
87.6508936604899
20
2.57296188702382
30
0
41
1
10
87.6432733216653
20
2.49447110833975
30
0
41
1
10
87.640672942381
20
2.42669240148738
30
0
41
1
10
87.6421485724976
20
2.3907755267223
30
0
0
SPLINE
5
EE
100
AcDbEntity
8
1
62
256
6
ByLayer
370
18
48
1
60
0
100
AcDbSpline
70
4
71
3
72
10
73
6
40
0
40
0
40
0
40
0
40
0.281445600517606
40
0.826858367201572
40
1
40
1
40
1
40
1
41
1
10
87.73325
20
-1.41538893316998
30
0
41
1
10
87.7217811959441
20
-1.5091798992802
30
0
41
1
10
87.6912616841792
20
-1.78370446651514
30
0
41
1
10
87.6515125228867
20
-2.11623226430888
30
0
41
1
10
87.6433598257406
20
-2.34896613181194
30
0
41
1
10
87.6420246018893
20
-2.40484857413098
30
0
0
SPLINE
5
EF
100
AcDbEntity
8
1
62
256
6
ByLayer
370
18
48
1
60
0
100
AcDbSpline
70
4
71
1
72
4
73
2
40
0
40
0
40
1
40
1
41
1
10
87.73325
20
-2.5970781501257
30
0
41
1
10
88.271
20
-1.76657448235583
30
0
0
SPLINE
5
F0
100
AcDbEntity
8
1
62
256
6
ByLayer
370
18
48
1
60
0
100
AcDbSpline
70
4
71
2
72
6
73
3
40
0
40
0
40
0
40
1
40
1
40
1
41
1
10
88.271
20
-2.72470043434277
30
0
41
1
10
88.0548363077099
20
-3.59736444472839
30
0
41
1
10
87.73325
20
-4.42560164527002
30
0
0
SPLINE
5
F1
100
AcDbEntity
8
1
62
256
6
ByLayer
370
18
48
1
60
0
100
AcDbSpline
70
4
71
2
72
6
73
3
40
0
40
0
40
0
40
1
40
1
40
1
41
1
10
87.73325
20
-4.42560164527002
30
0
41
1
10
87.6522468011628
20
-4.62247875987757
30
0
41
1
10
87.642004177383
20
-4.79589810845664
30
0
0
SPLINE
5
F2
100
AcDbEntity
8
1
62
256
6
ByLayer
370
18
48
1
60
0
100
AcDbSpline
70
4
71
1
72
4
73
2
40
0
40
0
40
1
40
1
41
1
10
87.73325
20
-4.85151428189006
30
0
41
1
10
88.271
20
-4.37458409944217
30
0
0
SPLINE
5
F3
100
AcDbEntity
8
1
62
256
6
ByLayer
370
18
48
1
60
0
100
AcDbSpline
70
4
71
1
72
4
73
2
40
0
40
0
40
1
40
1
41
1
10
88.271
20
-4.76002014864708
30
0
41
1
10
87.73325
20
-5.83468713926406
30
0
0
SPLINE
5
F4
100
AcDbEntity
8
1
62
256
6
ByLayer
370
18
48
1
60
0
100
AcDbSpline
70
4
71
3
72
10
73
6
40
0
40
0
40
0
40
0
40
0.520112983933316
40
0.801403847503219
40
1
40
1
40
1
40
1
41
1
10
87.73325
20
-5.83468713926405
30
0
41
1
10
87.7066799907377
20
-5.88268383160019
30
0
41
1
10
87.6746507352077
20
-5.95308456166638
30
0
41
1
10
87.6471123421898
20
-6.03853344101038
30
0
41
1
10
87.6426710645742
20
-6.07394489162281
30
0
41
1
10
87.6420064793313
20
-6.0879518934635
30
0
0
SPLINE
5
F5
100
AcDbEntity
8
1
62
256
6
ByLayer
370
18
48
1
60
0
100
AcDbSpline
70
4
71
1
72
4
73
2
40
0
40
0
40
1
40
1
41
1
10
87.73325
20
-6.09955463430787
30
0
41
1
10
88.271
20
-5.65934507557843
30
0
0
SPLINE
5
F6
100
AcDbEntity
8
1
62
256
6
ByLayer
370
18
48
1
60
0
100
AcDbSpline
70
4
71
1
72
4
73
2
40
0
40
0
40
1
40
1
41
1
10
88.271
20
-5.89632013836974
30
0
41
1
10
87.73325
20
-6.73618572365475
30
0
0
SPLINE
5
F7
100
AcDbEntity
8
1
62
256
6
ByLayer
370
18
48
1
60
0
100
AcDbSpline
70
4
71
3
72
10
73
6
40
0
40
0
40
0
40
0
40
0.517304710926199
40
0.798003793194059
40
1
40
1
40
1
40
1
41
1
10
87.73325
20
-6.73618572365475
30
0
41
1
10
87.7067097774327
20
-6.77503820889179
30
0
41
1
10
87.6746921629264
20
-6.83021969723102
30
0
41
1
10
87.6467834847708
20
-6.89541122177648
30
0
41
1
10
87.6425298924701
20
-6.91985479019737
30
0
41
1
10
87.6420001734404
20
-6.929231642553
30
0
0
SPLINE
5
F8
100
AcDbEntity
8
1
62
256
6
ByLayer
370
18
48
1
60
0
100
AcDbSpline
70
4
71
1
72
4
73
2
40
0
40
0
40
1
40
1
41
1
10
87.73325
20
-6.90991625466112
30
0
41
1
10
88.271
20
-6.46485787360058
30
0
0
SPLINE
5
F9
100
AcDbEntity
8
1
62
256
6
ByLayer
370
18
48
1
60
0
100
AcDbSpline
70
4
71
1
72
4
73
2
40
0
40
0
40
1
40
1
41
1
10
88.271
20
-6.61440779909759
30
0
41
1
10
87.73325
20
-7.3200971437575
30
0
0
SPLINE
5
FA
100
AcDbEntity
8
1
62
256
6
ByLayer
370
18
48
1
60
0
100
AcDbSpline
70
4
71
3
72
11
73
7
40
0
40
0
40
0
40
0
40
0.45089605696011
40
0.739930512565927
40
0.965970535508734
40
1
40
1
40
1
40
1
41
1
10
87.73325
20
-7.3200971437575
30
0
41
1
10
87.710545924478
20
-7.34870351005165
30
0
41
1
10
87.6798186916081
20
-7.39151055921927
30
0
41
1
10
87.6502244750546
20
-7.44201373184635
30
0
41
1
10
87.6424541223515
20
-7.46368899713742
30
0
41
1
10
87.6420113133743
20
-7.47085678095092
30
0
41
1
10
87.6420002617247
20
-7.47175289929578
30
0
0
SPLINE
5
FB
100
AcDbEntity
8
1
62
256
6
ByLayer
370
18
48
1
60
0
100
AcDbSpline
70
4
71
1
72
4
73
2
40
0
40
0
40
1
40
1
41
1
10
87.73325
20
-7.42726857976425
30
0
41
1
10
88.271
20
-6.95956808769315
30
0
0
SPLINE
5
FC
100
AcDbEntity
8
1
62
256
6
ByLayer
370
18
48
1
60
0
100
AcDbSpline
70
4
71
1
72
4
73
2
40
0
40
0
40
1
40
1
41
1
10
88.271
20
-7.04337915289114
30
0
41
1
10
87.73325
20
-7.6594024756846
30
0
0
SPLINE
5
FD
100
AcDbEntity
8
1
62
256
6
ByLayer
370
18
48
1
60
0
100
AcDbSpline
70
4
71
3
72
11
73
7
40
0
40
0
40
0
40
0
40
0.33918359848457
40
0.640450299551882
40
0.874484512520961
40
1
40
1
40
1
40
1
41
1
10
87.73325
20
-7.6594024756846
30
0
41
1
10
87.7165987053787
20
-7.67803151669889
30
0
41
1
10
87.6888590897958
20
-7.71034474006296
30
0
41
1
10
87.6578375786584
20
-7.74980829453353
30
0
41
1
10
87.6440332472158
20
-7.7713135454865
30
0
41
1
10
87.6420957297203
20
-7.77757418627385
30
0
41
1
10
87.642
20
-7.77921210663394
30
0
0
SPLINE
5
FE
100
AcDbEntity
8
1
62
256
6
ByLayer
370
18
48
1
60
0
100
AcDbSpline
70
4
71
1
72
4
73
2
40
0
40
0
40
1
40
1
41
1
10
87.642
20
-7.77921210663394
30
0
41
1
10
87.521
20
-7.90174031463956
30
0
0
SPLINE
5
FF
100
AcDbEntity
8
1
62
256
6
ByLayer
370
18
48
1
60
0
100
AcDbSpline
70
4
71
2
72
6
73
3
40
0
40
0
40
0
40
1
40
1
40
1
41
1
10
87.73325
20
1.41538893316998
30
0
41
1
10
87.8977033231209
20
0.0001138677404236
30
0
41
1
10
87.73325
20
-1.41538893316998
30
0
0
SPLINE
5
100
100
AcDbEntity
8
1
62
256
6
ByLayer
370
18
48
1
60
0
100
AcDbSpline
70
4
71
3
72
12
73
8
40
0
40
0
40
0
40
0
40
0.198699889835721
40
0.417379685735792
40
0.634401547292888
40
0.848811636477022
40
1
40
1
40
1
40
1
41
1
10
86.001
20
7.69918826890212
30
0
41
1
10
86.0011436214619
20
7.72078386761051
30
0
41
1
10
86.0076832807058
20
7.76373539101166
30
0
41
1
10
86.0388758178034
20
7.82453837678456
30
0
41
1
10
86.089418259713
20
7.87204428730114
30
0
41
1
10
86.146901145795
20
7.89714687417286
30
0
41
1
10
86.18474787083
20
7.90166841154856
30
0
41
1
10
86.2010000000001
20
7.90174031464004
30
0
0
SPLINE
5
101
100
AcDbEntity
8
1
62
256
6
ByLayer
370
18
48
1
60
0
100
AcDbSpline
70
4
71
3
72
13
73
9
40
0
40
0
40
0
40
0
40
0.160940797661695
40
0.289110211307357
40
0.50307775614239
40
0.716967602842413
40
0.932786989484417
40
1
40
1
40
1
40
1
41
1
10
86.201
20
-7.90174031463963
30
0
41
1
10
86.183718317289
20
-7.90167235146046
30
0
41
1
10
86.1537154019764
20
-7.89780834925895
30
0
41
1
10
86.1037973575392
20
-7.87910890788401
30
0
41
1
10
86.0557330781498
20
-7.84396573335131
30
0
41
1
10
86.0166827738592
20
-7.78734278493523
30
0
41
1
10
86.0025171375744
20
-7.73588372744279
30
0
41
1
10
86.0010034584009
20
-7.706294739804
30
0
41
1
10
86.0009999999992
20
-7.69918826890221
30
0
0
SPLINE
5
102
100
AcDbEntity
8
1
62
256
6
ByLayer
370
18
48
1
60
0
100
AcDbSpline
70
4
71
3
72
16
73
12
40
0
40
0
40
0
40
0
40
0.206094337879501
40
0.567291809728688
40
0.674946752557544
40
0.740288332070315
40
0.789223220022841
40
0.838488162639372
40
0.881937116442899
40
0.956438730203147
40
1
40
1
40
1
40
1
41
1
10
87.6420246018893
20
-2.40484857413098
30
0
41
1
10
87.6415692948986
20
-2.4272833391858
30
0
41
1
10
87.6431331894037
20
-2.48744836859146
30
0
41
1
10
87.6481637116569
20
-2.55902804870771
30
0
41
1
10
87.6644020136038
20
-2.60693589937042
30
0
41
1
10
87.6752324519928
20
-2.6224437874012
30
0
41
1
10
87.6861103999316
20
-2.62903294838759
30
0
41
1
10
87.6974303388478
20
-2.62881181392283
30
0
41
1
10
87.7108844357718
20
-2.62213941698908
30
0
41
1
10
87.7227611355042
20
-2.61057646656981
30
0
41
1
10
87.7305113022291
20
-2.60093295009016
30
0
41
1
10
87.73325
20
-2.59707815012566
30
0
0
SPLINE
5
103
100
AcDbEntity
8
1
62
256
6
ByLayer
370
18
48
1
60
0
100
AcDbSpline
70
4
71
2
72
6
73
3
40
0
40
0
40
0
40
1
40
1
40
1
41
1
10
87.6421485724976
20
2.3907755267223
30
0
41
1
10
87.6629489823693
20
1.910656884309
30
0
41
1
10
87.73325
20
1.41538893316998
30
0
0
SPLINE
5
104
100
AcDbEntity
8
1
62
256
6
ByLayer
370
18
48
1
60
0
100
AcDbSpline
70
4
71
3
72
12
73
8
40
0
40
0
40
0
40
0
40
0.107402965447478
40
0.594393968634115
40
0.78879967276229
40
0.984660568541533
40
1
40
1
40
1
40
1
41
1
10
87.642004177383
20
-4.79589810845664
30
0
41
1
10
87.6419423382164
20
-4.80042775816693
30
0
41
1
10
87.6424805054168
20
-4.82471894132312
30
0
41
1
10
87.6471839219011
20
-4.85531619289892
30
0
41
1
10
87.6645123793937
20
-4.87573951944586
30
0
41
1
10
87.6766232147726
20
-4.87891639148639
30
0
41
1
10
87.6836423389572
20
-4.87839598854142
30
0
41
1
10
87.6841570193307
20
-4.87834775845758
30
0
0
SPLINE
5
105
100
AcDbEntity
8
1
62
256
6
ByLayer
370
18
48
1
60
0
100
AcDbSpline
70
4
71
3
72
10
73
6
40
0
40
0
40
0
40
0
40
0.361691263252229
40
0.884328184973138
40
1
40
1
40
1
40
1
41
1
10
87.6841570193307
20
-4.87834775845758
30
0
41
1
10
87.6898241133757
20
-4.87759431184917
30
0
41
1
10
87.7038185329106
20
-4.87370419192452
30
0
41
1
10
87.7209818709295
20
-4.86197724853802
30
0
41
1
10
87.7313688591778
20
-4.85318173776445
30
0
41
1
10
87.7332500000001
20
-4.85151428189001
30
0
0
SPLINE
5
106
100
AcDbEntity
8
1
62
256
6
ByLayer
370
18
48
1
60
0
100
AcDbSpline
70
4
71
2
72
6
73
3
40
0
40
0
40
0
40
1
40
1
40
1
41
1
10
87.6420006175057
20
4.79689447950006
30
0
41
1
10
87.651760880559
20
4.62328104659513
30
0
41
1
10
87.73325
20
4.42560164527002
30
0
0
SPLINE
5
107
100
AcDbEntity
8
1
62
256
6
ByLayer
370
18
48
1
60
0
100
AcDbSpline
70
4
71
3
72
13
73
9
40
0
40
0
40
0
40
0
40
0.130006638336799
40
0.324757319233375
40
0.521146668294139
40
0.693064447740401
40
0.857283987494078
40
1
40
1
40
1
40
1
41
1
10
87.6420064793313
20
-6.0879518934635
30
0
41
1
10
87.6418547966514
20
-6.09392619236805
30
0
41
1
10
87.6428658592261
20
-6.10747375220879
30
0
41
1
10
87.6491850821267
20
-6.12526936307316
30
0
41
1
10
87.6651618627467
20
-6.13390502282204
30
0
41
1
10
87.687638049577
20
-6.1295017894784
30
0
41
1
10
87.7109423627915
20
-6.11668291225422
30
0
41
1
10
87.7260593450096
20
-6.1055391588295
30
0
41
1
10
87.73325
20
-6.09955463430787
30
0
0
SPLINE
5
108
100
AcDbEntity
8
1
62
256
6
ByLayer
370
18
48
1
60
0
100
AcDbSpline
70
4
71
3
72
10
73
6
40
0
40
0
40
0
40
0
40
0.260786281816042
40
0.74035848699655
40
1
40
1
40
1
40
1
41
1
10
87.6420000560366
20
6.08910584112996
30
0
41
1
10
87.6431773167323
20
6.07027192553371
30
0
41
1
10
87.6513448110333
20
6.01454386971247
30
0
41
1
10
87.687545250297
20
5.92413985115729
30
0
41
1
10
87.7203665349936
20
5.85828666143739
30
0
41
1
10
87.73325
20
5.83468713926405
30
0
0
SPLINE
5
109
100
AcDbEntity
8
1
62
256
6
ByLayer
370
18
48
1
60
0
100
AcDbSpline
70
4
71
3
72
13
73
9
40
0
40
0
40
0
40
0
40
0.030752104007252
40
0.245882669301719
40
0.462386220743304
40
0.652289710664075
40
0.901556028008781
40
1
40
1
40
1
40
1
41
1
10
87.6420001734405
20
-6.929231642553
30
0
41
1
10
87.6419943018194
20
-6.93023295646888
30
0
41
1
10
87.6422089790417
20
-6.93797339618975
30
0
41
1
10
87.6460801894713
20
-6.9494875632516
30
0
41
1
10
87.6618237153794
20
-6.95296691817466
30
0
41
1
10
87.6870498644593
20
-6.94357895026179
30
0
41
1
10
87.7120481102003
20
-6.92690613693753
30
0
41
1
10
87.7285037107102
20
-6.91386703311636
30
0
41
1
10
87.7332500000061
20
-6.90991625465909
30
0
0
SPLINE
5
10A
100
AcDbEntity
8
1
62
256
6
ByLayer
370
18
48
1
60
0
100
AcDbSpline
70
4
71
3
72
11
73
7
40
0
40
0
40
0
40
0
40
0.0681655761683775
40
0.343484457934691
40
0.780621350308078
40
1
40
1
40
1
40
1
41
1
10
87.6420013365633
20
6.92898845200667
30
0
41
1
10
87.6420674449172
20
6.92597201979593
30
0
41
1
10
87.6432617284658
20
6.91011605836921
30
0
41
1
10
87.6583905976121
20
6.86359045553117
30
0
41
1
10
87.6929826344572
20
6.79863565444804
30
0
41
1
10
87.7225446989191
20
6.75207182351328
30
0
41
1
10
87.7332499999991
20
6.73618572365476
30
0
0
SPLINE
5
10B
100
AcDbEntity
8
1
62
256
6
ByLayer
370
18
48
1
60
0
100
AcDbSpline
70
4
71
3
72
12
73
8
40
0
40
0
40
0
40
0
40
0.17505437992804
40
0.391274919354532
40
0.592099499163633
40
0.871599232716119
40
1
40
1
40
1
40
1
41
1
10
87.6420002617247
20
-7.47175289929579
30
0
41
1
10
87.6419452826669
20
-7.47571197501109
30
0
41
1
10
87.6443299356434
20
-7.48172434257581
30
0
41
1
10
87.6569837463731
20
-7.48133450578775
30
0
41
1
10
87.6812251327638
20
-7.46860184006372
30
0
41
1
10
87.7082145689801
20
-7.44847082938841
30
0
41
1
10
87.7271182267193
20
-7.43260794672151
30
0
41
1
10
87.7332500000116
20
-7.42726857975922
30
0
0
SPLINE
5
10C
100
AcDbEntity
8
1
62
256
6
ByLayer
370
18
48
1
60
0
100
AcDbSpline
70
4
71
3
72
11
73
7
40
0
40
0
40
0
40
0
40
0.134304602608446
40
0.404605436783174
40
0.802937606020837
40
1
40
1
40
1
40
1
41
1
10
87.6420001052367
20
7.47179090729605
30
0
41
1
10
87.6421767866269
20
7.46807531656392
30
0
41
1
10
87.6446029620887
20
7.45529496976801
30
0
41
1
10
87.6632876771668
20
7.41749002318728
30
0
41
1
10
87.6968129814421
20
7.36771134399066
30
0
41
1
10
87.7237285085528
20
7.33218343070986
30
0
41
1
10
87.7332499999999
20
7.32009714375716
30
0
0
SPLINE
5
10D
100
AcDbEntity
8
1
62
256
6
ByLayer
370
18
48
1
60
0
100
AcDbSpline
70
4
71
3
72
12
73
8
40
0
40
0
40
0
40
0
40
0.265719942217165
40
0.599036009117991
40
0.761657831218618
40
0.89756077426282
40
1
40
1
40
1
40
1
41
1
10
9.33760254037847
20
19.0245744101322
30
0
41
1
10
9.32839981151922
20
19.0364639229926
30
0
41
1
10
9.29991794835862
20
19.0618545760644
30
0
41
1
10
9.24686548363793
20
19.0922020308427
30
0
41
1
10
9.18104381265056
20
19.1119863348999
30
0
41
1
10
9.12795767963686
20
19.1206333617066
30
0
41
1
10
9.09337493297187
20
19.1221703099562
30
0
41
1
10
9.07779491924314
20
19.1222825906925
30
0
0
SPLINE
5
10E
100
AcDbEntity
8
1
62
256
6
ByLayer
370
18
48
1
60
0
100
AcDbSpline
70
4
71
3
72
13
73
9
40
0
40
0
40
0
40
0
40
0.0076032659669651
40
0.11769582150854
40
0.259929979044482
40
0.484696993414007
40
0.914227471159898
40
1
40
1
40
1
40
1
41
1
10
6.92420508075691
20
19.1222825906925
30
0
41
1
10
6.92308343162644
20
19.1222824818149
30
0
41
1
10
6.90575309307503
20
19.1222238234749
30
0
41
1
10
6.86738514382993
20
19.1199368878566
30
0
41
1
10
6.80637220365145
20
19.1089570197386
30
0
41
1
10
6.73021423963335
20
19.0818012839434
30
0
41
1
10
6.68842097944507
20
19.05077371029
30
0
41
1
10
6.66754748745397
20
19.0283578482605
30
0
41
1
10
6.66439745962159
20
19.0245744101322
30
0
0
SPLINE
5
10F
100
AcDbEntity
8
1
62
256
6
ByLayer
370
18
48
1
60
0
100
AcDbSpline
70
4
71
3
72
12
73
8
40
0
40
0
40
0
40
0
40
0.265719942217317
40
0.599036009118093
40
0.761657831218706
40
0.897560774262866
40
1
40
1
40
1
40
1
41
1
10
6.66439745962154
20
6.16973001948561
30
0
41
1
10
6.6736001884808
20
6.13301213651451
30
0
41
1
10
6.70208205164141
20
6.05402946027783
30
0
41
1
10
6.75513451636212
20
5.95737571232069
30
0
41
1
10
6.82095618734947
20
5.89343195669846
30
0
41
1
10
6.87404232036317
20
5.86526993273032
30
0
41
1
10
6.90862506702814
20
5.86026502058225
30
0
41
1
10
6.92420508075687
20
5.85988980456926
30
0
0
SPLINE
5
110
100
AcDbEntity
8
1
62
256
6
ByLayer
370
18
48
1
60
0
100
AcDbSpline
70
4
71
3
72
13
73
9
40
0
40
0
40
0
40
0
40
0.0076032659669883
40
0.117695821508561
40
0.259929979044522
40
0.48469699341403
40
0.914227471159926
40
1
40
1
40
1
40
1
41
1
10
9.07779491924309
20
5.85988980456928
30
0
41
1
10
9.07891656837356
20
5.85989017094223
30
0
41
1
10
9.096246906925
20
5.86008143011442
30
0
41
1
10
9.13461485617008
20
5.86754876580058
30
0
41
1
10
9.19562779634856
20
5.90327508738741
30
0
41
1
10
9.27178576036667
20
5.99082752985897
30
0
41
1
10
9.31357902055492
20
6.08874001225088
30
0
41
1
10
9.33445251254604
20
6.15805995337818
30
0
41
1
10
9.33760254037843
20
6.16973001948557
30
0
0
SPLINE
5
111
100
AcDbEntity
8
1
62
256
6
ByLayer
370
18
48
1
60
0
100
AcDbSpline
70
4
71
3
72
12
73
8
40
0
40
0
40
0
40
0
40
0.265719942217507
40
0.599036009118179
40
0.76165783121875
40
0.897560774262936
40
1
40
1
40
1
40
1
41
1
10
9.33760254037847
20
-6.16973001948571
30
0
41
1
10
9.3283998115192
20
-6.13301213651459
30
0
41
1
10
9.29991794835859
20
-6.05402946027791
30
0
41
1
10
9.24686548363788
20
-5.95737571232078
30
0
41
1
10
9.1810438126505
20
-5.89343195669858
30
0
41
1
10
9.12795767963683
20
-5.86526993273043
30
0
41
1
10
9.09337493297185
20
-5.8602650205824
30
0
41
1
10
9.07779491924314
20
-5.85988980456942
30
0
0
SPLINE
5
112
100
AcDbEntity
8
1
62
256
6
ByLayer
370
18
48
1
60
0
100
AcDbSpline
70
4
71
3
72
13
73
9
40
0
40
0
40
0
40
0
40
0.0076032659669655
40
0.117695821508565
40
0.259929979044501
40
0.484696993414045
40
0.914227471159988
40
1
40
1
40
1
40
1
41
1
10
6.92420508075691
20
-5.85988980456942
30
0
41
1
10
6.92308343162644
20
-5.85989017094237
30
0
41
1
10
6.90575309307503
20
-5.86008143011455
30
0
41
1
10
6.86738514382992
20
-5.86754876580074
30
0
41
1
10
6.80637220365145
20
-5.90327508738756
30
0
41
1
10
6.73021423963333
20
-5.99082752985914
30
0
41
1
10
6.68842097944506
20
-6.08874001225106
30
0
41
1
10
6.66754748745397
20
-6.15805995337837
30
0
41
1
10
6.66439745962159
20
-6.16973001948575
30
0
0
SPLINE
5
113
100
AcDbEntity
8
1
62
256
6
ByLayer
370
18
48
1
60
0
100
AcDbSpline
70
4
71
3
72
12
73
8
40
0
40
0
40
0
40
0
40
0.265719942217289
40
0.599036009118079
40
0.761657831218678
40
0.897560774262867
40
1
40
1
40
1
40
1
41
1
10
6.66439745962154
20
-19.0245744101322
30
0
41
1
10
6.6736001884808
20
-19.0364639229926
30
0
41
1
10
6.7020820516414
20
-19.0618545760644
30
0
41
1
10
6.7551345163621
20
-19.0922020308427
30
0
41
1
10
6.82095618734947
20
-19.1119863349
30
0
41
1
10
6.87404232036317
20
-19.1206333617066
30
0
41
1
10
6.90862506702814
20
-19.1221703099563
30
0
41
1
10
6.92420508075687
20
-19.1222825906926
30
0
0
SPLINE
5
114
100
AcDbEntity
8
1
62
256
6
ByLayer
370
18
48
1
60
0
100
AcDbSpline
70
4
71
3
72
13
73
9
40
0
40
0
40
0
40
0
40
0.0076032659669681
40
0.117695821508559
40
0.259929979044517
40
0.484696993414038
40
0.914227471159927
40
1
40
1
40
1
40
1
41
1
10
9.07779491924309
20
-19.1222825906926
30
0
41
1
10
9.07891656837356
20
-19.122282481815
30
0
41
1
10
9.09624690692498
20
-19.1222238234746
30
0
41
1
10
9.13461485617009
20
-19.1199368878568
30
0
41
1
10
9.19562779634856
20
-19.1089570197386
30
0
41
1
10
9.27178576036667
20
-19.0818012839434
30
0
41
1
10
9.31357902055492
20
-19.0507737102901
30
0
41
1
10
9.33445251254604
20
-19.0283578482605
30
0
41
1
10
9.33760254037843
20
-19.0245744101322
30
0
0
SPLINE
5
115
100
AcDbEntity
8
SK1
62
256
6
ByLayer
370
18
48
1
60
0
100
AcDbSpline
70
4
71
3
72
16
73
12
40
0
40
0
40
0
40
0
40
0.0342000354973573
40
0.0605905045752672
40
0.0816285829201538
40
0.102678614001618
40
0.131797822243899
40
0.184012126305108
40
0.347854568511447
40
0.68796249256673
40
1
40
1
40
1
40
1
41
1
10
-0.398999999999911
20
-4.85227456454995
30
0
41
1
10
-0.393081100360578
20
-4.84641475107354
30
0
41
1
10
-0.381427036885914
20
-4.83834528418683
30
0
41
1
10
-0.362733943798237
20
-4.83139115655347
30
0
41
1
10
-0.345531085981341
20
-4.83159527287138
30
0
41
1
10
-0.32838012393333
20
-4.83794108169008
30
0
41
1
10
-0.307694227448353
20
-4.85456705793342
30
0
41
1
10
-0.272475033183063
20
-4.90664052671328
30
0
41
1
10
-0.232585090780696
20
-5.04035814467212
30
0
41
1
10
-0.206225492083869
20
-5.2361893095412
30
0
41
1
10
-0.19869847469452
20
-5.39067777519391
30
0
41
1
10
-0.199744816461058
20
-5.46426413493323
30
0
0
SPLINE
5
116
100
AcDbEntity
8
SK1
62
256
6
ByLayer
370
18
48
1
60
0
100
AcDbSpline
70
4
71
3
72
17
73
13
40
0
40
0
40
0
40
0
40
0.394062956803909
40
0.579269931994641
40
0.673110491487895
40
0.766390439000195
40
0.820057603519885
40
0.859615627003421
40
0.892735432826609
40
0.925829545200736
40
0.975259144426349
40
1
40
1
40
1
40
1
41
1
10
-1.30610678118702
20
-3.58871727154681
30
0
41
1
10
-1.26582045103744
20
-3.82556370750089
30
0
41
1
10
-1.17391195517723
20
-4.15942341036761
30
0
41
1
10
-1.02492092892777
20
-4.52941808068158
30
0
41
1
10
-0.91626035860376
20
-4.72216668343688
30
0
41
1
10
-0.824038923768913
20
-4.83603647986041
30
0
41
1
10
-0.730909403949882
20
-4.907830089528
30
0
41
1
10
-0.653337073360726
20
-4.93888656804779
30
0
41
1
10
-0.581633243030824
20
-4.94424132471018
30
0
41
1
10
-0.505892759955285
20
-4.92696726390557
30
0
41
1
10
-0.44590537692051
20
-4.89164867646768
30
0
41
1
10
-0.410229086162111
20
-4.8627476894002
30
0
41
1
10
-0.398999999999912
20
-4.85227456454996
30
0
0
SPLINE
5
117
100
AcDbEntity
8
SK1
62
256
6
ByLayer
370
18
48
1
60
0
100
AcDbSpline
70
4
71
3
72
16
73
12
40
0
40
0
40
0
40
0
40
0.0458061793984073
40
0.0920319687734718
40
0.125201924585219
40
0.158337043073247
40
0.20843751348042
40
0.3043452881592
40
0.468912637256242
40
0.634261469004893
40
1
40
1
40
1
40
1
41
1
10
-0.398999999999912
20
4.85227506835233
30
0
41
1
10
-0.419700832949043
20
4.87244120540508
30
0
41
1
10
-0.465822839048379
20
4.90598931104072
30
0
41
1
10
-0.542097504775565
20
4.93918676362228
30
0
41
1
10
-0.618486377335265
20
4.94405673004105
30
0
41
1
10
-0.69447355172662
20
4.92599032748423
30
0
41
1
10
-0.793985769578137
20
4.86664880964093
30
0
41
1
10
-0.919653203427967
20
4.72330252222832
30
0
41
1
10
-1.04221510126071
20
4.50113768855481
30
0
41
1
10
-1.18365216025737
20
4.1145500757118
30
0
41
1
10
-1.26639085056728
20
3.80762261001774
30
0
41
1
10
-1.30610678118918
20
3.58871725124909
30
0
0
SPLINE
5
118
100
AcDbEntity
8
SK1
62
256
6
ByLayer
370
18
48
1
60
0
100
AcDbSpline
70
4
71
1
72
4
73
2
40
0
40
0
40
1
40
1
41
1
10
-0.198999999999942
20
5.5470428702547
30
0
41
1
10
-0.199301846969965
20
5.49397740642924
30
0
0
SPLINE
5
119
100
AcDbEntity
8
SK1
62
256
6
ByLayer
370
18
48
1
60
0
100
AcDbSpline
70
4
71
3
72
16
73
12
40
0
40
0
40
0
40
0
40
0.0493849502308078
40
0.0875116804556997
40
0.11793640007341
40
0.148377402694352
40
0.190550337600669
40
0.266222192819707
40
0.50380965526362
40
0.997009422643416
40
1
40
1
40
1
40
1
41
1
10
-0.398999999999965
20
13.8205590132786
30
0
41
1
10
-0.393073606076333
20
13.820600162639
30
0
41
1
10
-0.381406464473853
20
13.8214745590867
30
0
41
1
10
-0.36268822041011
20
13.8242480796256
30
0
41
1
10
-0.34546638321833
20
13.8283158419628
30
0
41
1
10
-0.328271881090486
20
13.8337752991639
30
0
41
1
10
-0.307629200909764
20
13.842324164013
30
0
41
1
10
-0.271151468661333
20
13.8624954491367
30
0
41
1
10
-0.253133913249712
20
13.89137329405
30
0
41
1
10
-0.124875884056776
20
13.9592617211792
30
0
41
1
10
-0.209803476865485
20
13.9396915836633
30
0
41
1
10
-0.210317539165016
20
13.9395727860659
30
0
0
SPLINE
5
11A
100
AcDbEntity
8
SK1
62
256
6
ByLayer
370
18
48
1
60
0
100
AcDbSpline
70
4
71
2
72
6
73
3
40
0
40
0
40
0
40
1
40
1
40
1
41
1
10
-2.499
20
14.0000000000425
30
0
41
1
10
-12.4992365839529
20
13.7487592491499
30
0
41
1
10
-22.4994731679057
20
13.4975184982574
30
0
0
SPLINE
5
11B
100
AcDbEntity
8
SK1
62
256
6
ByLayer
370
18
48
1
60
0
100
AcDbSpline
70
4
71
2
72
6
73
3
40
0
40
0
40
0
40
1
40
1
40
1
41
1
10
-22.4994731679057
20
-13.4975184982324
30
0
41
1
10
-12.4992365839529
20
-13.7487592491244
30
0
41
1
10
-2.499
20
-14.0000000000165
30
0
0
SPLINE
5
11C
100
AcDbEntity
8
SK1
62
256
6
ByLayer
370
18
48
1
60
0
100
AcDbSpline
70
4
71
3
72
13
73
9
40
0
40
0
40
0
40
0
40
0.159100309974683
40
0.343735843764981
40
0.528335281660789
40
0.712913164315448
40
0.897478294095563
40
1
40
1
40
1
40
1
41
1
10
-1.69893687531098
20
-14.020100365382
30
0
41
1
10
-1.69894538414022
20
-14.0183895005909
30
0
41
1
10
-1.69896140409277
20
-13.9751346176469
30
0
41
1
10
-1.69897687218163
20
-13.7696428966371
30
0
41
1
10
-1.69898698919573
20
-13.4223478971224
30
0
41
1
10
-1.69899285717934
20
-12.9534421236523
30
0
41
1
10
-1.69899557959138
20
-12.4581892532656
30
0
41
1
10
-1.69899664148501
20
-12.1146762049301
30
0
41
1
10
-1.69899692073963
20
-11.9864743023158
30
0
0
SPLINE
5
11D
100
AcDbEntity
8
SK1
62
256
6
ByLayer
370
18
48
1
60
0
100
AcDbSpline
70
4
71
1
72
4
73
2
40
0
40
0
40
1
40
1
41
1
10
-1.69401459340779
20
14.0202240353752
30
0
41
1
10
-1.70147692149313
20
14.0200365557195
30
0
0
SPLINE
5
11E
100
AcDbEntity
8
SK1
62
256
6
ByLayer
370
18
48
1
60
0
100
AcDbSpline
70
4
71
2
72
6
73
3
40
0
40
0
40
0
40
1
40
1
40
1
41
1
10
-1.70147692149313
20
14.0200365557195
30
0
41
1
10
-2.10023846074657
20
14.010018277881
30
0
41
1
10
-2.499
20
14.0000000000425
30
0
0
SPLINE
5
11F
100
AcDbEntity
8
SK1
62
256
6
ByLayer
370
18
48
1
60
0
100
AcDbSpline
70
4
71
2
72
6
73
3
40
0
40
0
40
0
40
1
40
1
40
1
41
1
10
-2.499
20
-14.0000000000165
30
0
41
1
10
-2.10780412766767
20
-14.0098282019681
30
0
41
1
10
-1.71660825533534
20
-14.0196564039197
30
0
0
SPLINE
5
120
100
AcDbEntity
8
SK1
62
256
6
ByLayer
370
18
48
1
60
0
100
AcDbSpline
70
4
71
1
72
4
73
2
40
0
40
0
40
1
40
1
41
1
10
-1.71660825533534
20
-14.0196564039197
30
0
41
1
10
-1.69401459340779
20
-14.0202240353492
30
0
0
SPLINE
5
121
100
AcDbEntity
8
SK1
62
256
6
ByLayer
370
18
48
1
60
0
100
AcDbSpline
70
4
71
3
72
13
73
9
40
0
40
0
40
0
40
0
40
0.114732482762473
40
0.298495508937696
40
0.482203741607765
40
0.667059897806827
40
0.850714839789897
40
1
40
1
40
1
40
1
41
1
10
-1.69896145737016
20
2.58069190327936
30
0
41
1
10
-1.69896431475483
20
2.80965750767172
30
0
41
1
10
-1.69897121461844
20
3.39748694554417
30
0
41
1
10
-1.69898009540474
20
4.31489106972618
30
0
41
1
10
-1.69898715014584
20
5.31718398961387
30
0
41
1
10
-1.69899186348018
20
6.27043405293038
30
0
41
1
10
-1.69899465609303
20
7.11806017201896
30
0
41
1
10
-1.69899587201021
20
7.63592034942421
30
0
41
1
10
-1.69899627454013
20
7.86268334022597
30
0
0
SPLINE
5
122
100
AcDbEntity
8
SK1
62
256
6
ByLayer
370
18
48
1
60
0
100
AcDbSpline
70
4
71
3
72
14
73
10
40
0
40
0
40
0
40
0
40
0.204234487539548
40
0.310102896854175
40
0.415945396780658
40
0.525102053955855
40
0.634264528387592
40
0.817031555528954
40
1
40
1
40
1
40
1
41
1
10
-1.69896145737017
20
2.58069190327936
30
0
41
1
10
-1.75493909595959
20
2.24281195540064
30
0
41
1
10
-1.82524082869748
20
1.7209418434484
30
0
41
1
10
-1.89288615311578
20
1.00153616331879
30
0
41
1
10
-1.92426164955488
20
0.439249543726392
30
0
41
1
10
-1.93094096393067
20
-0.132838237707682
30
0
41
1
10
-1.90822617373926
20
-0.83903303550607
30
0
41
1
10
-1.83316370970633
20
-1.66415858941529
30
0
41
1
10
-1.74920417376661
20
-2.27805642603999
30
0
41
1
10
-1.69896145715966
20
-2.58068890323811
30
0
0
SPLINE
5
123
100
AcDbEntity
8
SK1
62
256
6
ByLayer
370
18
48
1
60
0
100
AcDbSpline
70
4
71
1
72
4
73
2
40
0
40
0
40
1
40
1
41
1
10
-1.30610678118653
20
-3.58871727154921
30
0
41
1
10
-1.49899999999989
20
-2.55452633951475
30
0
0
SPLINE
5
124
100
AcDbEntity
8
SK1
62
256
6
ByLayer
370
18
48
1
60
0
100
AcDbSpline
70
4
71
3
72
20
73
16
40
0
40
0
40
0
40
0
40
0.345562919302941
40
0.427025786136921
40
0.454525500906422
40
0.476216827950564
40
0.498049695918619
40
0.506765230469235
40
0.512861980213392
40
0.518986997668402
40
0.52619214051833
40
0.538378134357748
40
0.575740325141693
40
0.745485760641008
40
1
40
1
40
1
40
1
41
1
10
-1.49899999999989
20
-2.55452633951474
30
0
41
1
10
-1.51548554874406
20
-2.42718372094838
30
0
41
1
10
-1.54734688105854
20
-2.27635031761977
30
0
41
1
10
-1.58985503125082
20
-2.1193215259614
30
0
41
1
10
-1.60568834123992
20
-2.07676248177445
30
0
41
1
10
-1.61586212901992
20
-2.05514661308357
30
0
41
1
10
-1.62521983626351
20
-2.04091302265078
30
0
41
1
10
-1.63400333842402
20
-2.03499959782051
30
0
41
1
10
-1.63972453855214
20
-2.03427026943717
30
0
41
1
10
-1.64506028838512
20
-2.03641167600511
30
0
41
1
10
-1.65108772007596
20
-2.0424882645219
30
0
41
1
10
-1.66101353830464
20
-2.06093430484973
30
0
41
1
10
-1.68190631443505
20
-2.14367576118889
30
0
41
1
10
-1.69357912012565
20
-2.32212847656804
30
0
41
1
10
-1.70133122684051
20
-2.48362461057229
30
0
41
1
10
-1.69896145715966
20
-2.58068890323811
30
0
0
SPLINE
5
125
100
AcDbEntity
8
SK1
62
256
6
ByLayer
370
18
48
1
60
0
100
AcDbSpline
70
4
71
3
72
19
73
15
40
0
40
0
40
0
40
0
40
0.324468387590947
40
0.410956847703731
40
0.454322928570292
40
0.469668851440635
40
0.477235712620306
40
0.483552830947824
40
0.489905958553625
40
0.497056051972002
40
0.509094168792749
40
0.546278138475011
40
0.716743128616003
40
1
40
1
40
1
40
1
41
1
10
-1.69896145737017
20
2.58069190327936
30
0
41
1
10
-1.70339481687506
20
2.45656504742783
30
0
41
1
10
-1.69548178924638
20
2.29964019729811
30
0
41
1
10
-1.67608625961683
20
2.12530094970731
30
0
41
1
10
-1.66399441461273
20
2.07022749428379
30
0
41
1
10
-1.65409647176958
20
2.04728811588842
30
0
41
1
10
-1.64800686779819
20
2.03903475012098
30
0
41
1
10
-1.64284774920754
20
2.0351592721522
30
0
41
1
10
-1.63730032020765
20
2.03417606455196
30
0
41
1
10
-1.63063427748031
20
2.03666990200846
30
0
41
1
10
-1.61854014177462
20
2.04879879083039
30
0
41
1
10
-1.58671108115576
20
2.11683795208022
30
0
41
1
10
-1.54745153470479
20
2.2911129910853
30
0
41
1
10
-1.51307272936499
20
2.4506164435976
30
0
41
1
10
-1.49899999999989
20
2.55452876952824
30
0
0
SPLINE
5
126
100
AcDbEntity
8
SK1
62
256
6
ByLayer
370
18
48
1
60
0
100
AcDbSpline
70
4
71
1
72
4
73
2
40
0
40
0
40
1
40
1
41
1
10
-1.49899999999989
20
2.55452876952821
30
0
41
1
10
-1.30610678118653
20
3.58871725126215
30
0
0
SPLINE
5
127
100
AcDbEntity
8
SK1
62
256
6
ByLayer
370
18
48
1
60
0
100
AcDbSpline
70
4
71
2
72
6
73
3
40
0
40
0
40
0
40
1
40
1
40
1
41
1
10
-22.4993908339782
20
13.4978821831766
30
0
41
1
10
-23.249195418368
20
13.0391711292673
30
0
41
1
10
-23.999
20
12.580456895609
30
0
0
SPLINE
5
128
100
AcDbEntity
8
SK1
62
256
6
ByLayer
370
18
48
1
60
0
100
AcDbSpline
70
4
71
2
72
6
73
3
40
0
40
0
40
0
40
1
40
1
40
1
41
1
10
-23.999
20
-12.579249793836
30
0
41
1
10
-23.2492022102608
20
-13.0377782396013
30
0
41
1
10
-22.4994044652863
20
-13.4963063088843
30
0
0
SPLINE
5
129
100
AcDbEntity
8
SK1
62
256
6
ByLayer
370
18
48
1
60
0
100
AcDbSpline
70
4
71
3
72
16
73
12
40
0
40
0
40
0
40
0
40
0.626110504454706
40
0.838701343801516
40
0.965252152349321
40
0.982128289662878
40
0.993183087862248
40
0.995190572255263
40
0.996984036378129
40
0.9986517820384
40
1
40
1
40
1
40
1
41
1
10
-1.51775091313556
20
13.8226324269327
30
0
41
1
10
-1.52183712788708
20
13.8208810872055
30
0
41
1
10
-1.5305818675623
20
13.8187674317585
30
0
41
1
10
-1.54489349101527
20
13.8164818049653
30
0
41
1
10
-1.55139229649428
20
13.8158164961424
30
0
41
1
10
-1.55822981862635
20
13.8169459920034
30
0
41
1
10
-1.5602105841537
20
13.817397424087
30
0
41
1
10
-1.56168660629051
20
13.8178229799926
30
0
41
1
10
-1.56229941409586
20
13.818011072361
30
0
41
1
10
-1.56288571936377
20
13.8182019124288
30
0
41
1
10
-1.56325016170833
20
13.818326782819
30
0
41
1
10
-1.56341450415118
20
13.8183842603284
30
0
0
SPLINE
5
12A
100
AcDbEntity
8
SK1
62
256
6
ByLayer
370
18
48
1
60
0
100
AcDbSpline
70
4
71
3
72
18
73
14
40
0
40
0
40
0
40
0
40
9.68234534682E-05
40
0.0006495584712787
40
0.0012670256397356
40
0.0027821471892591
40
0.0139718859049885
40
0.0348812913580284
40
0.109814458252947
40
0.235272377753824
40
0.41998130534551
40
0.674485628794762
40
1
40
1
40
1
40
1
41
1
10
-1.56341450415118
20
13.8183842603284
30
0
41
1
10
-1.56345137680016
20
13.8183971683155
30
0
41
1
10
-1.56369702317688
20
13.8184835233009
30
0
41
1
10
-1.56415924644772
20
13.8186514829945
30
0
41
1
10
-1.56502784404179
20
13.8189834684376
30
0
41
1
10
-1.5684016782386
20
13.8203883779526
30
0
41
1
10
-1.57180023378995
20
13.8223967285338
30
0
41
1
10
-1.57955711587687
20
13.8276028236356
30
0
41
1
10
-1.58673749886923
20
13.835087742321
30
0
41
1
10
-1.59594547227717
20
13.8453325080626
30
0
41
1
10
-1.60443729054366
20
13.8552357128356
30
0
41
1
10
-1.61285091946871
20
13.8611170064821
30
0
41
1
10
-1.61785092296528
20
13.8590755989278
30
0
41
1
10
-1.62005761499343
20
13.8557820629873
30
0
0
SPLINE
5
12B
100
AcDbEntity
8
SK1
62
256
6
ByLayer
370
18
48
1
60
0
100
AcDbSpline
70
4
71
1
72
4
73
2
40
0
40
0
40
1
40
1
41
1
10
-1.49899999999995
20
13.8251486126234
30
0
41
1
10
-1.50236273708494
20
13.8250555594789
30
0
0
SPLINE
5
12C
100
AcDbEntity
8
SK1
62
256
6
ByLayer
370
18
48
1
60
0
100
AcDbSpline
70
4
71
3
72
22
73
18
40
0
40
0
40
0
40
0
40
0.0140683667366217
40
0.0892332665460817
40
0.164395551634574
40
0.239803516023724
40
0.314963035302238
40
0.390122093655359
40
0.465507965345406
40
0.540667680217411
40
0.615828566561221
40
0.690991314130793
40
0.766421613815622
40
0.841591287493308
40
0.91676704414113
40
0.992340381662974
40
1
40
1
40
1
40
1
41
1
10
-1.69899627454013
20
7.86268334022597
30
0
41
1
10
-1.69899637312041
20
7.91488092633672
30
0
41
1
10
-1.69899697372515
20
8.24410811757989
30
0
41
1
10
-1.69899773557013
20
8.82921615751928
30
0
41
1
10
-1.698998269437
20
9.58192761302062
30
0
41
1
10
-1.6989984405575
20
10.2830851421293
30
0
41
1
10
-1.69899830628029
20
10.9315576832095
30
0
41
1
10
-1.69899782757509
20
11.5260339657362
30
0
41
1
10
-1.69899687028134
20
12.0648298803261
30
0
41
1
10
-1.69899520035386
20
12.5459187413993
30
0
41
1
10
-1.69899247763596
20
12.9665129202253
30
0
41
1
10
-1.69898822665159
20
13.3245285236674
30
0
41
1
10
-1.69898182571097
20
13.6156767428254
30
0
41
1
10
-1.69897246241492
20
13.8353589337997
30
0
41
1
10
-1.69895908044294
20
13.9779109936444
30
0
41
1
10
-1.69894596733709
20
14.0183157875337
30
0
41
1
10
-1.69893766092779
20
14.0200928056386
30
0
41
1
10
-1.69893688587214
20
14.0201003693626
30
0
0
SPLINE
5
12D
100
AcDbEntity
8
SK1
62
256
6
ByLayer
370
18
48
1
60
0
100
AcDbSpline
70
4
71
3
72
16
73
12
40
0
40
0
40
0
40
0
40
0.0235392749689216
40
0.0376717091212054
40
0.0519447529786971
40
0.0641838169633698
40
0.0818883159081324
40
0.115918915407646
40
0.238611331815329
40
0.725720205023145
40
1
40
1
40
1
40
1
41
1
10
-1.62365007239127
20
13.5637301859808
30
0
41
1
10
-1.6258555162322
20
13.5645192015202
30
0
41
1
10
-1.62981569621192
20
13.5666206181093
30
0
41
1
10
-1.63623891518061
20
13.571090061156
30
0
41
1
10
-1.64180612891612
20
13.5761178195486
30
0
41
1
10
-1.64744920558996
20
13.5824237943133
30
0
41
1
10
-1.65413966789588
20
13.5915339308593
30
0
41
1
10
-1.66669401449552
20
13.6136390645023
30
0
41
1
10
-1.68850076703067
20
13.6777437488159
30
0
41
1
10
-1.695516088852
20
13.7439903130112
30
0
41
1
10
-1.69905010010887
20
13.7965823234521
30
0
41
1
10
-1.69887639962217
20
13.8139891097793
30
0
0
SPLINE
5
12E
100
AcDbEntity
8
SK1
62
256
6
ByLayer
370
18
48
1
60
0
100
AcDbSpline
70
4
71
1
72
4
73
2
40
0
40
0
40
1
40
1
41
1
10
-1.50235337448489
20
-13.8244560820365
30
0
41
1
10
-1.49899999999995
20
-13.8251486130518
30
0
0
SPLINE
5
12F
100
AcDbEntity
8
SK1
62
256
6
ByLayer
370
18
48
1
60
0
100
AcDbSpline
70
4
71
2
72
6
73
3
40
0
40
0
40
0
40
1
40
1
40
1
41
1
10
-1.55895928788274
20
-13.6862588112244
30
0
41
1
10
-1.53662002435268
20
-13.7611319415175
30
0
41
1
10
-1.52259498282826
20
-13.7952261154278
30
0
0
SPLINE
5
130
100
AcDbEntity
8
SK1
62
256
6
ByLayer
370
18
48
1
60
0
100
AcDbSpline
70
4
71
1
72
4
73
2
40
0
40
0
40
1
40
1
41
1
10
-1.52259498282826
20
-13.7952261154278
30
0
41
1
10
-1.51865217654464
20
-13.8037754659331
30
0
0
SPLINE
5
131
100
AcDbEntity
8
SK1
62
256
6
ByLayer
370
18
48
1
60
0
100
AcDbSpline
70
4
71
3
72
11
73
7
40
0
40
0
40
0
40
0
40
0.0034341183134578
40
0.0278362955027287
40
0.117782077886833
40
1
40
1
40
1
40
1
41
1
10
-1.60553294573544
20
-13.6021083057444
30
0
41
1
10
-1.60537752965821
20
-13.6020446030624
30
0
41
1
10
-1.60415325321445
20
-13.6015583872232
30
0
41
1
10
-1.60091026090909
20
-13.6012041659862
30
0
41
1
10
-1.58724693477359
20
-13.6076126239481
30
0
41
1
10
-1.57751482801853
20
-13.6156599765471
30
0
41
1
10
-1.57936224726025
20
-13.6297566041791
30
0
0
SPLINE
5
132
100
AcDbEntity
8
SK1
62
256
6
ByLayer
370
18
48
1
60
0
100
AcDbSpline
70
4
71
3
72
10
73
6
40
0
40
0
40
0
40
0
40
0.0024095381437257
40
0.700831580718639
40
1
40
1
40
1
40
1
41
1
10
-1.66758163945402
20
-13.9162361468973
30
0
41
1
10
-1.66757717754034
20
-13.9162389970256
30
0
41
1
10
-1.66627866707675
20
-13.9170503523629
30
0
41
1
10
-1.66421757266769
20
-13.9112869820943
30
0
41
1
10
-1.66159558001652
20
-13.8945896279154
30
0
41
1
10
-1.66076838055382
20
-13.8886391240986
30
0
0
SPLINE
5
133
100
AcDbEntity
8
SK1
62
256
6
ByLayer
370
18
48
1
60
0
100
AcDbSpline
70
4
71
3
72
23
73
19
40
0
40
0
40
0
40
0
40
0.134703994330307
40
0.364358089740667
40
0.548072312138373
40
0.723775276353078
40
0.849509165048266
40
0.933355509701027
40
0.981333503110039
40
0.993406786482696
40
0.996775042200615
40
0.997885936577144
40
0.998330552076633
40
0.998725246519729
40
0.999097960293006
40
0.999480901020968
40
0.999903449154988
40
1
40
1
40
1
40
1
41
1
10
-1.66076838055382
20
-13.8886391240986
30
0
41
1
10
-1.66002756581201
20
-13.8832760179172
30
0
41
1
10
-1.65781952260714
20
-13.8663831850664
30
0
41
1
10
-1.65386627275034
20
-13.8316566843778
30
0
41
1
10
-1.64821894178133
20
-13.7817330805793
30
0
41
1
10
-1.64183412539421
20
-13.7307138063144
30
0
41
1
10
-1.63454755003316
20
-13.682587747706
30
0
41
1
10
-1.62676561786747
20
-13.6456135946053
30
0
41
1
10
-1.61998489737536
20
-13.6223565402933
30
0
41
1
10
-1.61362071623979
20
-13.6098865835841
30
0
41
1
10
-1.61038435796333
20
-13.6057444262185
30
0
41
1
10
-1.60878221021074
20
-13.6042113390737
30
0
41
1
10
-1.6079592892641
20
-13.6035443835239
30
0
41
1
10
-1.60737578963978
20
-13.6031206042032
30
0
41
1
10
-1.60678324823237
20
-13.6027403543831
30
0
41
1
10
-1.60619393261766
20
-13.6024116199535
30
0
41
1
10
-1.605788056569
20
-13.6022185968021
30
0
41
1
10
-1.60557244540913
20
-13.6021250359654
30
0
41
1
10
-1.60553294573544
20
-13.6021083057444
30
0
0
SPLINE
5
134
100
AcDbEntity
8
SK1
62
256
6
ByLayer
370
18
48
1
60
0
100
AcDbSpline
70
4
71
3
72
18
73
14
40
0
40
0
40
0
40
0
40
0.0516932676689895
40
0.167942667045579
40
0.284193192222676
40
0.400447608887743
40
0.516709485120435
40
0.632983865600241
40
0.749279345845691
40
0.865611861750894
40
0.92372443861728
40
0.982078601375584
40
1
40
1
40
1
40
1
41
1
10
-1.69899692073963
20
-11.9864743023158
30
0
41
1
10
-1.69899715437815
20
-11.883910418458
30
0
41
1
10
-1.69899782433319
20
-11.5400969029425
30
0
41
1
10
-1.69899836373944
20
-10.898753644446
30
0
41
1
10
-1.69899844991954
20
-10.0157965915711
30
0
41
1
10
-1.69899797783991
20
-9.03963647706589
30
0
41
1
10
-1.69899668795173
20
-7.97264080154235
30
0
41
1
10
-1.698993973276
20
-6.81628822560885
30
0
41
1
10
-1.69898883647604
20
-5.57169152927562
30
0
41
1
10
-1.69898130948002
20
-4.46140587846812
30
0
41
1
10
-1.69897252499595
20
-3.53013418829437
30
0
41
1
10
-1.69896629114291
20
-2.97619817537775
30
0
41
1
10
-1.69896239430717
20
-2.65619587568568
30
0
41
1
10
-1.69896145716259
20
-2.58068890323808
30
0
0
SPLINE
5
135
100
AcDbEntity
8
SK1
62
256
6
ByLayer
370
18
48
1
60
0
100
AcDbSpline
70
4
71
2
72
6
73
3
40
0
40
0
40
0
40
1
40
1
40
1
41
1
10
-1.49899999999995
20
-13.7870504860687
30
0
41
1
10
-0.948999999999955
20
-13.7870504860687
30
0
41
1
10
-0.398999999999963
20
-13.7870504860687
30
0
0
SPLINE
5
136
100
AcDbEntity
8
SK1
62
256
6
ByLayer
370
18
48
1
60
0
100
AcDbSpline
70
4
71
2
72
6
73
3
40
0
40
0
40
0
40
1
40
1
40
1
41
1
10
-0.398999999999963
20
13.787050293933
30
0
41
1
10
-0.948999999999955
20
13.787050293933
30
0
41
1
10
-1.49899999999995
20
13.787050293933
30
0
0
SPLINE
5
137
100
AcDbEntity
8
SK1
62
256
6
ByLayer
370
18
48
1
60
0
100
AcDbSpline
70
4
71
2
72
6
73
3
40
0
40
0
40
0
40
1
40
1
40
1
41
1
10
-0.199744816461058
20
-5.46426413493323
30
0
41
1
10
-0.19898756677337
20
-5.50576972917532
30
0
41
1
10
-0.198999999999911
20
-5.54704286105715
30
0
0
SPLINE
5
138
100
AcDbEntity
8
SK1
62
256
6
ByLayer
370
18
48
1
60
0
100
AcDbSpline
70
4
71
3
72
16
73
12
40
0
40
0
40
0
40
0
40
0.0421707788687355
40
0.399952716344494
40
0.646898168408735
40
0.770962939591916
40
0.813965475420395
40
0.857372639271984
40
0.897133406594816
40
0.938799544993199
40
1
40
1
40
1
40
1
41
1
10
-0.215255786881502
20
-13.9296106776505
30
0
41
1
10
-0.215903688272853
20
-13.9283927481296
30
0
41
1
10
-0.222433198369528
20
-13.9166755638577
30
0
41
1
10
-0.236865172034387
20
-13.8956082606712
30
0
41
1
10
-0.26704464717553
20
-13.8667049680213
30
0
41
1
10
-0.298244510483302
20
-13.8469040824707
30
0
41
1
10
-0.322138954555011
20
-13.8361398750612
30
0
41
1
10
-0.339977847427413
20
-13.8298084144674
30
0
41
1
10
-0.359554505948121
20
-13.8248326228131
30
0
41
1
10
-0.380089762041407
20
-13.8215768063063
30
0
41
1
10
-0.392441271379835
20
-13.8205832830335
30
0
41
1
10
-0.398999999999966
20
-13.8205593061295
30
0
0
SPLINE
5
139
100
AcDbEntity
8
SK1
62
256
6
ByLayer
370
18
48
1
60
0
100
AcDbSpline
70
4
71
3
72
17
73
13
40
0
40
0
40
0
40
0
40
0.430859289263179
40
0.643863792155958
40
0.789797909837152
40
0.863098549092154
40
0.888713360969829
40
0.914567147032547
40
0.934548097872687
40
0.954469140248284
40
0.987586465586162
40
1
40
1
40
1
40
1
41
1
10
-0.199301846969965
20
5.49397740642924
30
0
41
1
10
-0.197496831085282
20
5.38806425608713
30
0
41
1
10
-0.207842211789572
20
5.2290312302215
30
0
41
1
10
-0.236685633594326
20
5.03106092911067
30
0
41
1
10
-0.266917331201085
20
4.92367444715669
30
0
41
1
10
-0.297847869435578
20
4.86609435379624
30
0
41
1
10
-0.321531138486228
20
4.84260936260632
30
0
41
1
10
-0.338478156214289
20
4.83321539239518
30
0
41
1
10
-0.355706961334853
20
4.83087192143352
30
0
41
1
10
-0.374030998672527
20
4.83456146321869
30
0
41
1
10
-0.388154996970462
20
4.84309028904014
30
0
41
1
10
-0.39675198069576
20
4.85019121227135
30
0
41
1
10
-0.398999999999912
20
4.85227506835228
30
0
0
INSERT
5
154
100
AcDbEntity
8
SK2
62
256
6
ByLayer
370
25
48
1
60
0
100
AcDbBlockReference
2
DimnDraft3D22
10
0
20
0
30
0
41
1
42
1
43
1
50
0
210
0
220
0
230
1
0
INSERT
5
168
100
AcDbEntity
8
SK2
62
256
6
ByLayer
370
25
48
1
60
0
100
AcDbBlockReference
2
DimnDraft3D44
10
0
20
0
30
0
41
1
42
1
43
1
50
0
210
0
220
0
230
1
0
LINE
5
70
100
AcDbEntity
8
81
62
256
6
ByLayer
370
18
48
1
60
0
100
AcDbLine
10
88
20
0
30
0
11
96.8
21
0
31
0
39
0
210
0
220
0
230
1
0
LINE
5
71
100
AcDbEntity
8
4
62
256
6
ByLayer
370
18
48
0.05
60
0
100
AcDbLine
10
0
20
0
30
0
11
88
21
0
31
0
39
0
210
0
220
0
230
1
0
LINE
5
73
100
AcDbEntity
8
SK4
62
256
6
ByLayer
370
18
48
0.05
60
0
100
AcDbLine
10
-30
20
0
30
0
11
95
21
0
31
0
39
0
210
0
220
0
230
1
0
LINE
5
75
100
AcDbEntity
8
80
62
256
6
ByLayer
370
18
48
1
60
0
100
AcDbLine
10
0
20
0
30
0
11
-8.8
21
0
31
0
39
0
210
0
220
0
230
1
0
LINE
5
76
100
AcDbEntity
8
1
62
256
6
ByLayer
370
18
48
1
60
0
100
AcDbLine
10
86.201
20
7.90174
30
0
11
87.521
21
7.90174
31
0
39
0
210
0
220
0
230
1
0
LINE
5
78
100
AcDbEntity
8
1
62
256
6
ByLayer
370
18
48
1
60
0
100
AcDbLine
10
87.521
20
-7.90174
30
0
11
86.201
21
-7.90174
31
0
39
0
210
0
220
0
230
1
0
LINE
5
79
100
AcDbEntity
8
1
62
256
6
ByLayer
370
18
48
1
60
0
100
AcDbLine
10
87.73325
20
2.597078
30
0
11
87.73325
21
1.415389
31
0
39
0
210
0
220
0
230
1
0
LINE
5
7A
100
AcDbEntity
8
1
62
256
6
ByLayer
370
18
48
1
60
0
100
AcDbLine
10
87.73325
20
-1.415389
30
0
11
87.73325
21
-2.597078
31
0
39
0
210
0
220
0
230
1
0
LINE
5
7B
100
AcDbEntity
8
1
62
256
6
ByLayer
370
18
48
1
60
0
100
AcDbLine
10
88.271
20
-1.766574
30
0
11
88.271
21
1.766574
31
0
39
0
210
0
220
0
230
1
0
LINE
5
7C
100
AcDbEntity
8
1
62
256
6
ByLayer
370
18
48
1
60
0
100
AcDbLine
10
87.73325
20
4.851514
30
0
11
87.73325
21
4.425602
31
0
39
0
210
0
220
0
230
1
0
LINE
5
7D
100
AcDbEntity
8
1
62
256
6
ByLayer
370
18
48
1
60
0
100
AcDbLine
10
87.73325
20
-4.425602
30
0
11
87.73325
21
-4.851514
31
0
39
0
210
0
220
0
230
1
0
LINE
5
7E
100
AcDbEntity
8
1
62
256
6
ByLayer
370
18
48
1
60
0
100
AcDbLine
10
88.271
20
-4.374584
30
0
11
88.271
21
-2.7247
31
0
39
0
210
0
220
0
230
1
0
LINE
5
7F
100
AcDbEntity
8
1
62
256
6
ByLayer
370
18
48
1
60
0
100
AcDbLine
10
88.271
20
2.7247
30
0
11
88.271
21
4.374584
31
0
39
0
210
0
220
0
230
1
0
LINE
5
80
100
AcDbEntity
8
1
62
256
6
ByLayer
370
18
48
1
60
0
100
AcDbLine
10
87.73325
20
-5.834687
30
0
11
87.73325
21
-6.099555
31
0
39
0
210
0
220
0
230
1
0
LINE
5
81
100
AcDbEntity
8
1
62
256
6
ByLayer
370
18
48
1
60
0
100
AcDbLine
10
87.73325
20
6.099555
30
0
11
87.73325
21
5.834687
31
0
39
0
210
0
220
0
230
1
0
LINE
5
82
100
AcDbEntity
8
1
62
256
6
ByLayer
370
18
48
1
60
0
100
AcDbLine
10
88.271
20
-5.659345
30
0
11
88.271
21
-4.821009
31
0
39
0
210
0
220
0
230
1
0
LINE
5
83
100
AcDbEntity
8
1
62
256
6
ByLayer
370
18
48
1
60
0
100
AcDbLine
10
88.271
20
4.821009
30
0
11
88.271
21
5.659345
31
0
39
0
210
0
220
0
230
1
0
LINE
5
84
100
AcDbEntity
8
1
62
256
6
ByLayer
370
18
48
1
60
0
100
AcDbLine
10
87.73325
20
-6.736186
30
0
11
87.73325
21
-6.909916
31
0
39
0
210
0
220
0
230
1
0
LINE
5
85
100
AcDbEntity
8
1
62
256
6
ByLayer
370
18
48
1
60
0
100
AcDbLine
10
87.73325
20
6.909916
30
0
11
87.73325
21
6.736186
31
0
39
0
210
0
220
0
230
1
0
LINE
5
86
100
AcDbEntity
8
1
62
256
6
ByLayer
370
18
48
1
60
0
100
AcDbLine
10
88.271
20
5.89632
30
0
11
88.271
21
6.464858
31
0
39
0
210
0
220
0
230
1
0
LINE
5
87
100
AcDbEntity
8
1
62
256
6
ByLayer
370
18
48
1
60
0
100
AcDbLine
10
88.271
20
-6.464858
30
0
11
88.271
21
-5.89632
31
0
39
0
210
0
220
0
230
1
0
LINE
5
88
100
AcDbEntity
8
1
62
256
6
ByLayer
370
18
48
1
60
0
100
AcDbLine
10
87.73325
20
-7.320097
30
0
11
87.73325
21
-7.427269
31
0
39
0
210
0
220
0
230
1
0
LINE
5
89
100
AcDbEntity
8
1
62
256
6
ByLayer
370
18
48
1
60
0
100
AcDbLine
10
87.73325
20
7.427269
30
0
11
87.73325
21
7.320097
31
0
39
0
210
0
220
0
230
1
0
LINE
5
8A
100
AcDbEntity
8
1
62
256
6
ByLayer
370
18
48
1
60
0
100
AcDbLine
10
88.271
20
6.614408
30
0
11
88.271
21
6.959568
31
0
39
0
210
0
220
0
230
1
0
LINE
5
8B
100
AcDbEntity
8
1
62
256
6
ByLayer
370
18
48
1
60
0
100
AcDbLine
10
88.271
20
-6.959568
30
0
11
88.271
21
-6.614408
31
0
39
0
210
0
220
0
230
1
0
LINE
5
8C
100
AcDbEntity
8
SK1
62
256
6
ByLayer
370
18
48
1
60
0
100
AcDbLine
10
94.101
20
5.958757
30
0
11
91.001
21
5.958757
31
0
39
0
210
0
220
0
230
1
0
LINE
5
8E
100
AcDbEntity
8
SK1
62
256
6
ByLayer
370
18
48
1
60
0
100
AcDbLine
10
91.001
20
0.758757
30
0
11
94.101
21
0.758757
31
0
39
0
210
0
220
0
230
1
0
LINE
5
8F
100
AcDbEntity
8
SK1
62
256
6
ByLayer
370
18
48
1
60
0
100
AcDbLine
10
91.001
20
4.946257
30
0
11
88.271
21
4.946257
31
0
39
0
210
0
220
0
230
1
0
LINE
5
90
100
AcDbEntity
8
SK1
62
256
6
ByLayer
370
18
48
1
60
0
100
AcDbLine
10
88.271
20
1.771257
30
0
11
91.001
21
1.771257
31
0
39
0
210
0
220
0
230
1
0
LINE
5
91
100
AcDbEntity
8
1
62
256
6
ByLayer
370
18
48
1
60
0
100
AcDbLine
10
20.001
20
-20
30
0
11
22.620594
21
-10.223543
31
0
39
0
210
0
220
0
230
1
0
LINE
5
92
100
AcDbEntity
8
1
62
256
6
ByLayer
370
18
48
1
60
0
100
AcDbLine
10
22.620594
20
10.223543
30
0
11
20.001
21
20
31
0
39
0
210
0
220
0
230
1
0
LINE
5
93
100
AcDbEntity
8
1
62
256
6
ByLayer
370
18
48
1
60
0
100
AcDbLine
10
20.001
20
20
30
0
11
0.301
21
20
31
0
39
0
210
0
220
0
230
1
0
LINE
5
94
100
AcDbEntity
8
1
62
256
6
ByLayer
370
18
48
1
60
0
100
AcDbLine
10
0.301
20
-20
30
0
11
20.001
21
-20
31
0
39
0
210
0
220
0
230
1
0
LINE
5
95
100
AcDbEntity
8
1
62
256
6
ByLayer
370
18
48
1
60
0
100
AcDbLine
10
6.924205
20
19.122283
30
0
11
9.077795
21
19.122283
31
0
39
0
210
0
220
0
230
1
0
LINE
5
96
100
AcDbEntity
8
1
62
256
6
ByLayer
370
18
48
1
60
0
100
AcDbLine
10
9.077795
20
5.85989
30
0
11
6.924205
21
5.85989
31
0
39
0
210
0
220
0
230
1
0
LINE
5
97
100
AcDbEntity
8
1
62
256
6
ByLayer
370
18
48
1
60
0
100
AcDbLine
10
6.924205
20
-5.85989
30
0
11
9.077795
21
-5.85989
31
0
39
0
210
0
220
0
230
1
0
LINE
5
98
100
AcDbEntity
8
1
62
256
6
ByLayer
370
18
48
1
60
0
100
AcDbLine
10
9.077795
20
-19.122283
30
0
11
6.924205
21
-19.122283
31
0
39
0
210
0
220
0
230
1
0
LINE
5
99
100
AcDbEntity
8
1
62
256
6
ByLayer
370
18
48
1
60
0
100
AcDbLine
10
0.301
20
20
30
0
11
0.001
21
19.7
31
0
39
0
210
0
220
0
230
1
0
LINE
5
9A
100
AcDbEntity
8
1
62
256
6
ByLayer
370
18
48
1
60
0
100
AcDbLine
10
0.001
20
-19.7
30
0
11
0.301
21
-20
31
0
39
0
210
0
220
0
230
1
0
LINE
5
9B
100
AcDbEntity
8
1
62
256
6
ByLayer
370
18
48
1
60
0
100
AcDbLine
10
9.077795
20
5.85989
30
0
11
9.077795
21
19.122283
31
0
39
0
210
0
220
0
230
1
0
LINE
5
9C
100
AcDbEntity
8
1
62
256
6
ByLayer
370
18
48
1
60
0
100
AcDbLine
10
9.337603
20
6.16973
30
0
11
9.337603
21
19.024574
31
0
39
0
210
0
220
0
230
1
0
LINE
5
9D
100
AcDbEntity
8
1
62
256
6
ByLayer
370
18
48
1
60
0
100
AcDbLine
10
6.664397
20
-19.024574
30
0
11
6.664397
21
-6.16973
31
0
39
0
210
0
220
0
230
1
0
LINE
5
9E
100
AcDbEntity
8
1
62
256
6
ByLayer
370
18
48
1
60
0
100
AcDbLine
10
6.924205
20
-19.122283
30
0
11
6.924205
21
-5.85989
31
0
39
0
210
0
220
0
230
1
0
LINE
5
9F
100
AcDbEntity
8
1
62
256
6
ByLayer
370
18
48
1
60
0
100
AcDbLine
10
6.664397
20
6.16973
30
0
11
6.664397
21
19.024574
31
0
39
0
210
0
220
0
230
1
0
LINE
5
A0
100
AcDbEntity
8
1
62
256
6
ByLayer
370
18
48
1
60
0
100
AcDbLine
10
6.924205
20
5.85989
30
0
11
6.924205
21
19.122283
31
0
39
0
210
0
220
0
230
1
0
LINE
5
A1
100
AcDbEntity
8
1
62
256
6
ByLayer
370
18
48
1
60
0
100
AcDbLine
10
9.077795
20
-19.122283
30
0
11
9.077795
21
-5.85989
31
0
39
0
210
0
220
0
230
1
0
LINE
5
A2
100
AcDbEntity
8
1
62
256
6
ByLayer
370
18
48
1
60
0
100
AcDbLine
10
9.337603
20
-19.024574
30
0
11
9.337603
21
-6.16973
31
0
39
0
210
0
220
0
230
1
0
LINE
5
A3
100
AcDbEntity
8
1
62
256
6
ByLayer
370
18
48
1
60
0
100
AcDbLine
10
85.801
20
8
30
0
11
25.518371
21
8
31
0
39
0
210
0
220
0
230
1
0
LINE
5
A4
100
AcDbEntity
8
1
62
256
6
ByLayer
370
18
48
1
60
0
100
AcDbLine
10
25.518371
20
-8
30
0
11
85.801
21
-8
31
0
39
0
210
0
220
0
230
1
0
LINE
5
A5
100
AcDbEntity
8
SK1
62
256
6
ByLayer
370
18
48
1
60
0
100
AcDbLine
10
94.101
20
-0.758757
30
0
11
91.001
21
-0.758757
31
0
39
0
210
0
220
0
230
1
0
LINE
5
A6
100
AcDbEntity
8
SK1
62
256
6
ByLayer
370
18
48
1
60
0
100
AcDbLine
10
91.001
20
-5.958757
30
0
11
94.101
21
-5.958757
31
0
39
0
210
0
220
0
230
1
0
LINE
5
A7
100
AcDbEntity
8
SK1
62
256
6
ByLayer
370
18
48
1
60
0
100
AcDbLine
10
91.001
20
-1.771257
30
0
11
88.271
21
-1.771257
31
0
39
0
210
0
220
0
230
1
0
LINE
5
A8
100
AcDbEntity
8
SK1
62
256
6
ByLayer
370
18
48
1
60
0
100
AcDbLine
10
88.271
20
-4.946257
30
0
11
91.001
21
-4.946257
31
0
39
0
210
0
220
0
230
1
0
LINE
5
A9
100
AcDbEntity
8
1
62
256
6
ByLayer
370
18
48
1
60
0
100
AcDbLine
10
87.521
20
7.90174
30
0
11
87.521
21
-7.90174
31
0
39
0
210
0
220
0
230
1
0
LINE
5
AA
100
AcDbEntity
8
1
62
256
6
ByLayer
370
18
48
1
60
0
100
AcDbLine
10
88.271
20
7.043379
30
0
11
88.271
21
6.959568
31
0
39
0
210
0
220
0
230
1
0
LINE
5
AB
100
AcDbEntity
8
1
62
256
6
ByLayer
370
18
48
1
60
0
100
AcDbLine
10
88.271
20
6.614408
30
0
11
88.271
21
6.464858
31
0
39
0
210
0
220
0
230
1
0
LINE
5
AC
100
AcDbEntity
8
1
62
256
6
ByLayer
370
18
48
1
60
0
100
AcDbLine
10
88.271
20
5.89632
30
0
11
88.271
21
5.659345
31
0
39
0
210
0
220
0
230
1
0
LINE
5
AD
100
AcDbEntity
8
1
62
256
6
ByLayer
370
18
48
1
60
0
100
AcDbLine
10
88.271
20
4.76002
30
0
11
88.271
21
4.374584
31
0
39
0
210
0
220
0
230
1
0
LINE
5
AE
100
AcDbEntity
8
1
62
256
6
ByLayer
370
18
48
1
60
0
100
AcDbLine
10
88.271
20
2.7247
30
0
11
88.271
21
1.766574
31
0
39
0
210
0
220
0
230
1
0
LINE
5
AF
100
AcDbEntity
8
1
62
256
6
ByLayer
370
18
48
1
60
0
100
AcDbLine
10
88.271
20
-1.766574
30
0
11
88.271
21
-2.7247
31
0
39
0
210
0
220
0
230
1
0
LINE
5
B0
100
AcDbEntity
8
1
62
256
6
ByLayer
370
18
48
1
60
0
100
AcDbLine
10
88.271
20
-4.374584
30
0
11
88.271
21
-4.76002
31
0
39
0
210
0
220
0
230
1
0
LINE
5
B1
100
AcDbEntity
8
1
62
256
6
ByLayer
370
18
48
1
60
0
100
AcDbLine
10
88.271
20
-5.659345
30
0
11
88.271
21
-5.89632
31
0
39
0
210
0
220
0
230
1
0
LINE
5
B2
100
AcDbEntity
8
1
62
256
6
ByLayer
370
18
48
1
60
0
100
AcDbLine
10
88.271
20
-6.464858
30
0
11
88.271
21
-6.614408
31
0
39
0
210
0
220
0
230
1
0
LINE
5
B3
100
AcDbEntity
8
1
62
256
6
ByLayer
370
18
48
1
60
0
100
AcDbLine
10
88.271
20
-6.959568
30
0
11
88.271
21
-7.043379
31
0
39
0
210
0
220
0
230
1
0
LINE
5
B4
100
AcDbEntity
8
1
62
256
6
ByLayer
370
18
48
1
60
0
100
AcDbLine
10
86.001
20
-7.699188
30
0
11
86.001
21
0
31
0
39
0
210
0
220
0
230
1
0
LINE
5
B5
100
AcDbEntity
8
1
62
256
6
ByLayer
370
18
48
1
60
0
100
AcDbLine
10
86.001
20
0
30
0
11
86.001
21
7.699188
31
0
39
0
210
0
220
0
230
1
0
LINE
5
B6
100
AcDbEntity
8
1
62
256
6
ByLayer
370
18
48
1
60
0
100
AcDbLine
10
86.201
20
7.90174
30
0
11
86.201
21
-7.90174
31
0
39
0
210
0
220
0
230
1
0
LINE
5
B7
100
AcDbEntity
8
SK1
62
256
6
ByLayer
370
18
48
1
60
0
100
AcDbLine
10
94.101
20
5.958757
30
0
11
94.101
21
0.758757
31
0
39
0
210
0
220
0
230
1
0
LINE
5
B8
100
AcDbEntity
8
SK1
62
256
6
ByLayer
370
18
48
1
60
0
100
AcDbLine
10
91.001
20
5.958757
30
0
11
91.001
21
0.758757
31
0
39
0
210
0
220
0
230
1
0
LINE
5
B9
100
AcDbEntity
8
1
62
256
6
ByLayer
370
18
48
1
60
0
100
AcDbLine
10
20.001
20
20
30
0
11
20.001
21
-20
31
0
39
0
210
0
220
0
230
1
0
LINE
5
BA
100
AcDbEntity
8
1
62
256
6
ByLayer
370
18
48
1
60
0
100
AcDbLine
10
22.620594
20
10.223543
30
0
11
22.620594
21
-10.223543
31
0
39
0
210
0
220
0
230
1
0
LINE
5
BB
100
AcDbEntity
8
1
62
256
6
ByLayer
370
18
48
1
60
0
100
AcDbLine
10
0.301
20
20
30
0
11
0.301
21
-20
31
0
39
0
210
0
220
0
230
1
0
LINE
5
BC
100
AcDbEntity
8
1
62
256
6
ByLayer
370
18
48
1
60
0
100
AcDbLine
10
0.001
20
-19.7
30
0
11
0.001
21
19.7
31
0
39
0
210
0
220
0
230
1
0
LINE
5
BD
100
AcDbEntity
8
SK1
62
256
6
ByLayer
370
18
48
1
60
0
100
AcDbLine
10
-0.199
20
-14.083485
30
0
11
-0.199
21
-5.547043
31
0
39
0
210
0
220
0
230
1
0
LINE
5
BE
100
AcDbEntity
8
SK1
62
256
6
ByLayer
370
18
48
1
60
0
100
AcDbLine
10
-1.306107
20
-3.588717
30
0
11
-1.306107
21
3.588717
31
0
39
0
210
0
220
0
230
1
0
LINE
5
BF
100
AcDbEntity
8
SK1
62
256
6
ByLayer
370
18
48
1
60
0
100
AcDbLine
10
-0.199
20
5.547043
30
0
11
-0.199
21
14.083485
31
0
39
0
210
0
220
0
230
1
0
LINE
5
C0
100
AcDbEntity
8
1
62
256
6
ByLayer
370
18
48
1
60
0
100
AcDbLine
10
25.518371
20
8
30
0
11
25.518371
21
-8
31
0
39
0
210
0
220
0
230
1
0
LINE
5
C1
100
AcDbEntity
8
1
62
256
6
ByLayer
370
18
48
1
60
0
100
AcDbLine
10
85.801
20
-8
30
0
11
85.801
21
0
31
0
39
0
210
0
220
0
230
1
0
LINE
5
C2
100
AcDbEntity
8
1
62
256
6
ByLayer
370
18
48
1
60
0
100
AcDbLine
10
85.801
20
0
30
0
11
85.801
21
8
31
0
39
0
210
0
220
0
230
1
0
LINE
5
C3
100
AcDbEntity
8
1
62
256
6
ByLayer
370
18
48
1
60
0
100
AcDbLine
10
86.001
20
7.8
30
0
11
86.001
21
7.710343
31
0
39
0
210
0
220
0
230
1
0
LINE
5
C4
100
AcDbEntity
8
1
62
256
6
ByLayer
370
18
48
1
60
0
100
AcDbLine
10
86.001
20
7.710343
30
0
11
86.001
21
7.699188
31
0
39
0
210
0
220
0
230
1
0
LINE
5
C5
100
AcDbEntity
8
1
62
256
6
ByLayer
370
18
48
1
60
0
100
AcDbLine
10
86.001
20
7.699188
30
0
11
86.001
21
0
31
0
39
0
210
0
220
0
230
1
0
LINE
5
C6
100
AcDbEntity
8
1
62
256
6
ByLayer
370
18
48
1
60
0
100
AcDbLine
10
86.001
20
0
30
0
11
86.001
21
-7.699188
31
0
39
0
210
0
220
0
230
1
0
LINE
5
C7
100
AcDbEntity
8
1
62
256
6
ByLayer
370
18
48
1
60
0
100
AcDbLine
10
86.001
20
-7.699188
30
0
11
86.001
21
-7.71448
31
0
39
0
210
0
220
0
230
1
0
LINE
5
C8
100
AcDbEntity
8
1
62
256
6
ByLayer
370
18
48
1
60
0
100
AcDbLine
10
86.001
20
-7.71448
30
0
11
86.001
21
-7.8
31
0
39
0
210
0
220
0
230
1
0
LINE
5
C9
100
AcDbEntity
8
SK1
62
256
6
ByLayer
370
18
48
1
60
0
100
AcDbLine
10
94.101
20
-0.758757
30
0
11
94.101
21
-5.958757
31
0
39
0
210
0
220
0
230
1
0
LINE
5
CA
100
AcDbEntity
8
SK1
62
256
6
ByLayer
370
18
48
1
60
0
100
AcDbLine
10
91.001
20
-0.758757
30
0
11
91.001
21
-5.958757
31
0
39
0
210
0
220
0
230
1
0
LINE
5
CB
100
AcDbEntity
8
SK1
62
256
6
ByLayer
370
18
48
1
60
0
100
AcDbLine
10
-2.499
20
-14
30
0
11
-2.499
21
14
31
0
39
0
210
0
220
0
230
1
0
LINE
5
CC
100
AcDbEntity
8
SK1
62
256
6
ByLayer
370
18
48
1
60
0
100
AcDbLine
10
-22.499473
20
13.497014
30
0
11
-22.499473
21
-13.497265
31
0
39
0
210
0
220
0
230
1
0
LINE
5
CD
100
AcDbEntity
8
SK1
62
256
6
ByLayer
370
18
48
1
60
0
100
AcDbLine
10
-23.999
20
12.58007
30
0
11
-23.999
21
-12.579369
31
0
39
0
210
0
220
0
230
1
0
LINE
5
CE
100
AcDbEntity
8
SK1
62
256
6
ByLayer
370
18
48
1
60
0
100
AcDbLine
10
-1.499
20
-2.554526
30
0
11
-1.499
21
-13.787499
31
0
39
0
210
0
220
0
230
1
0
LINE
5
CF
100
AcDbEntity
8
SK1
62
256
6
ByLayer
370
18
48
1
60
0
100
AcDbLine
10
-0.399
20
-4.852275
30
0
11
-0.399
21
-13.788013
31
0
39
0
210
0
220
0
230
1
0
LINE
5
D0
100
AcDbEntity
8
SK1
62
256
6
ByLayer
370
18
48
1
60
0
100
AcDbLine
10
-0.399
20
13.788013
30
0
11
-0.399
21
4.852275
31
0
39
0
210
0
220
0
230
1
0
LINE
5
D1
100
AcDbEntity
8
SK1
62
256
6
ByLayer
370
18
48
1
60
0
100
AcDbLine
10
-1.499
20
13.787498
30
0
11
-1.499
21
2.554529
31
0
39
0
210
0
220
0
230
1
0
MTEXT
5
13A
100
AcDbEntity
8
SK6
62
256
6
ByLayer
370
13
48
1
60
0
100
AcDbMText
10
3.582003
20
55.991502
30
0
210
0
220
0
230
1
1
\W0.7075;C4-570-3C 16 088
40
3.175
41
0
44
1.084337
50
0
71
7
72
5
7
iso_b_vert
0
DIMENSION
5
148
100
AcDbEntity
8
2
62
256
6
ByLayer
370
13
48
1
60
0
100
AcDbDimension
2
DimnDraft3D1
10
88
20
40.131717
30
0
11
42.103355
21
40.131717
31
0
70
32
71
5
72
1
41
1
210
0
220
0
230
1
3
Standard
100
AcDbAlignedDimension
13
0
23
1.5875
33
0
14
88
24
1.5875
34
0
50
0
100
AcDbRotatedDimension
1001
ACAD
1000
DSTYLE
1002
{
1070
   279
1070
     0
1070
   173
1070
     1
1070
   340
1005
13B
1070
   271
1070
     1
1070
   272
1070
     2
1070
    77
1070
     1
1070
    73
1070
     0
1070
   171
1070
     3
1070
   274
1070
     4
1070
   177
1070
     7
1070
   176
1070
     7
1070
   178
1070
     7
1070
    78
1070
     8
1070
    48
1040
-0.005
1070
    41
1041
3.175
1070
   147
1041
1.5875
1070
    42
1041
1.5875
1070
    44
1041
3.175
1070
   140
1041
3.175
1070
   343
1005
0
1070
   344
1005
0
1002
}
0
DIMENSION
5
15E
100
AcDbEntity
8
SK2
62
256
6
ByLayer
370
13
48
1
60
0
100
AcDbDimension
2
DimnDraft3D3
10
20.001
20
-30.072154
30
0
11
8.104355
21
-30.072154
31
0
70
32
71
5
72
1
41
1
210
0
220
0
230
1
3
Standard
100
AcDbAlignedDimension
13
0.001
23
-21.2875
33
0
14
20.001
24
-21.5875
34
0
50
0
100
AcDbRotatedDimension
1001
ACAD
1000
DSTYLE
1002
{
1070
   279
1070
     0
1070
   173
1070
     1
1070
   340
1005
13B
1070
   271
1070
     1
1070
   272
1070
     2
1070
    77
1070
     1
1070
    73
1070
     0
1070
   171
1070
     3
1070
   274
1070
     4
1070
   177
1070
     7
1070
   176
1070
     7
1070
   178
1070
     7
1070
    78
1070
     8
1070
    48
1040
-0.005
1070
    41
1041
3.175
1070
   147
1041
1.5875
1070
    42
1041
1.5875
1070
    44
1041
3.175
1070
   140
1041
3.175
1070
   343
1005
0
1070
   344
1005
0
1002
}
0
DIMENSION
5
170
100
AcDbEntity
8
SK2
62
256
6
ByLayer
370
13
48
1
60
0
100
AcDbDimension
2
DimnDraft3D5
10
25.518371
20
11
30
0
11
39.562025
21
27.70761
31
0
70
36
71
5
72
1
41
1
210
0
220
0
230
1
3
Standard
100
AcDbRadialDimension
15
0
25
0
35
0
40
0
1001
ACAD
1000
DSTYLE
1002
{
1070
   279
1070
     0
1070
   173
1070
     1
1070
   340
1005
13B
1070
    75
1070
     1
1070
    76
1070
     1
1070
   271
1070
     1
1070
   272
1070
     2
1070
    77
1070
     1
1070
    73
1070
     0
1070
   171
1070
     3
1070
   274
1070
     4
1070
   177
1070
     7
1070
   176
1070
     7
1070
   178
1070
     7
1070
    78
1070
     8
1070
    48
1040
-0.005
1070
    41
1041
3.175
1070
   147
1041
1.5875
1070
    42
1041
1.5875
1070
    44
1041
3.175
1070
   140
1041
3.175
1070
   343
1005
0
1070
   344
1005
0
1002
}
0
DIMENSION
5
17B
100
AcDbEntity
8
SK2
62
256
6
ByLayer
370
13
48
1
60
0
100
AcDbDimension
2
DimnDraft3D6
10
117.325376
20
-8
30
0
11
117.325376
21
20.840526
31
0
70
32
71
5
72
1
41
1
210
0
220
0
230
1
3
Standard
100
AcDbAlignedDimension
13
87.3885
23
8
33
0
14
87.3885
24
-8
34
0
50
90
100
AcDbRotatedDimension
1001
ACAD
1000
DSTYLE
1002
{
1070
    74
1070
     0
1070
   279
1070
     0
1070
   173
1070
     1
1070
   340
1005
13B
1070
   271
1070
     1
1070
   272
1070
     2
1070
    77
1070
     1
1070
    73
1070
     0
1070
   171
1070
     3
1070
   274
1070
     4
1070
   177
1070
     7
1070
   176
1070
     7
1070
   178
1070
     7
1070
    78
1070
     8
1070
    48
1040
-0.005
1070
    41
1041
3.175
1070
   147
1041
1.5875
1070
    42
1041
1.5875
1070
    44
1041
3.175
1070
   140
1041
3.175
1070
   343
1005
0
1070
   344
1005
0
1002
}
0
ENDSEC
0
SECTION
2
OBJECTS
0
DICTIONARY
5
1e6
330
0
100
AcDbDictionary
280
0
281
1
3
ACAD_GROUP
350
1e7
3
ACAD_MLINESTYLE
350
1e8
0
DICTIONARY
5
1e7
330
0
100
AcDbDictionary
280
0
281
1
0
DICTIONARY
5
1e8
330
0
100
AcDbDictionary
280
0
281
1
3
Standard
350
18
0
MLINESTYLE
5
18
330
1e8
100
AcDbMlineStyle
2
Standard
70
0
3

62
256
51
90
52
90
71
2
49
-0.5
62
256
6
ByLayer
49
0.5
62
256
6
ByLayer
0
RASTERVARIABLES
5
1d4
330

100
AcDbRasterVariables
90
0
70
1
71
1
72
1
0
ENDSEC
0
EOF
