0
SECTION
2
HEADER
9
$ACADVER
1
AC1015
9
$DWGCODEPAGE
3
ANSI_1252
9
$HANDSEED
5
259
9
$ANGBASE
50
0
9
$ANGDIR
70
0
9
$ATTMODE
70
1
9
$AUNITS
70
0
9
$AUPREC
70
0
9
$CECOLOR
62
256
9
$CELTSCALE
40
1
9
$CELTYPE
6
ByLayer
9
$CELWEIGHT
370
18
9
$CLAYER
8
0
9
$CMLJUST
70
0
9
$CMLSCALE
40
1
9
$CMLSTYLE
2
Standard
9
$DIMSTYLE
2
Standard
9
$TEXTSIZE
40
0.2
9
$TEXTSTYLE
7
Standard
9
$LUNITS
70
2
9
$LUPREC
70
4
9
$EXTNAMES
290
1
9
$INSUNITS
70
4
9
$LTSCALE
40
1
9
$LWDISPLAY
290
1
9
$PDMODE
70
0
9
$PDSIZE
40
0
9
$PLINEGEN
70
0
0
ENDSEC
0
SECTION
2
CLASSES
0
CLASS
1
RASTERVARIABLES
2
AcDbRasterVariables
3
ISM
90
0
280
0
281
0
0
ENDSEC
0
SECTION
2
TABLES
0
TABLE
2
VPORT
5
24f
100
AcDbSymbolTable
0
VPORT
5
1
100
AcDbSymbolTableRecord
100
AcDbViewportTableRecord
2
*Active
70
0
10
0
20
0
11
1
21
1
12
-1
22
1
13
0
23
0
14
0.5
24
0.5
15
10
25
10
16
0
26
0
36
1
17
0
27
0
37
0
0
ENDTAB
0
TABLE
2
LTYPE
5
250
100
AcDbSymbolTable
0
LTYPE
5
14
100
AcDbSymbolTableRecord
100
AcDbLinetypeTableRecord
70
0
2
ByBlock
3

72
65
73
0
40
0
0
LTYPE
5
15
100
AcDbSymbolTableRecord
100
AcDbLinetypeTableRecord
70
0
2
ByLayer
3

72
65
73
0
40
0
0
LTYPE
5
16
100
AcDbSymbolTableRecord
100
AcDbLinetypeTableRecord
70
0
2
CONTINUOUS
3
Solid line
72
65
73
0
40
0
0
LTYPE
5
6A
100
AcDbSymbolTableRecord
100
AcDbLinetypeTableRecord
70
0
2
CENTER
3
____ _ ____ _ ____ _ ____
72
65
73
4
40
47.5
49
22
74
0
49
-8.5
74
0
49
8.5
74
0
49
-8.5
74
0
0
LTYPE
5
6B
100
AcDbSymbolTableRecord
100
AcDbLinetypeTableRecord
70
0
2
DASHED
3
__ __ __ __ __ __ __ __ __
72
65
73
2
40
25.72
49
12.86
74
0
49
-12.86
74
0
0
ENDTAB
0
TABLE
2
LAYER
5
251
100
AcDbSymbolTable
0
LAYER
5
10
100
AcDbSymbolTableRecord
100
AcDbLayerTableRecord
2
0
70
0
62
7
6
CONTINUOUS
290
1
370
-3
390
0
0
LAYER
5
6D
100
AcDbSymbolTableRecord
100
AcDbLayerTableRecord
2
80
70
0
62
-6
6
CONTINUOUS
290
1
370
-3
390
0
0
LAYER
5
6F
100
AcDbSymbolTableRecord
100
AcDbLayerTableRecord
2
81
70
0
62
-3
6
CONTINUOUS
290
1
370
-3
390
0
0
LAYER
5
76
100
AcDbSymbolTableRecord
100
AcDbLayerTableRecord
2
1
70
0
62
4
6
CONTINUOUS
290
1
370
-3
390
0
0
LAYER
5
92
100
AcDbSymbolTableRecord
100
AcDbLayerTableRecord
2
4
70
0
62
-2
6
CENTER
290
1
370
-3
390
0
0
LAYER
5
1C3
100
AcDbSymbolTableRecord
100
AcDbLayerTableRecord
2
2
70
0
62
7
6
CONTINUOUS
290
1
370
-3
390
0
0
LAYER
5
23b
100
AcDbSymbolTableRecord
100
AcDbLayerTableRecord
2
SK2
70
0
62
7
6
CONTINUOUS
290
1
370
-3
390
0
0
LAYER
5
23c
100
AcDbSymbolTableRecord
100
AcDbLayerTableRecord
2
SK4
70
0
62
2
6
CENTER
290
1
370
-3
390
0
0
LAYER
5
23d
100
AcDbSymbolTableRecord
100
AcDbLayerTableRecord
2
SK1
70
0
62
4
6
CONTINUOUS
290
1
370
-3
390
0
0
LAYER
5
23e
100
AcDbSymbolTableRecord
100
AcDbLayerTableRecord
2
SK6
70
0
62
5
6
CONTINUOUS
290
1
370
-3
390
0
0
ENDTAB
0
TABLE
2
STYLE
5
252
100
AcDbSymbolTable
0
STYLE
5
11
100
AcDbSymbolTableRecord
100
AcDbTextStyleTableRecord
2
Standard
3
txt
70
0
71
0
40
0
41
1
42
0
50
0
0
STYLE
5
1B4
100
AcDbSymbolTableRecord
100
AcDbTextStyleTableRecord
2
iso_b_vert
3
simplex.shx
70
0
71
0
40
0
41
1
42
0
50
0
0
STYLE
5
1B5
100
AcDbSymbolTableRecord
100
AcDbTextStyleTableRecord
2
DWGDirectTextStyle
3
simplex
70
0
71
0
40
0
41
1
42
0
50
0
0
ENDTAB
0
TABLE
2
DIMSTYLE
5
253
100
AcDbSymbolTable
100
AcDbDimStyleTable
0
DIMSTYLE
105
27
100
AcDbSymbolTableRecord
100
AcDbDimStyleTableRecord
2
Standard
70
0
3
<>
41
0.18
42
0.0625
44
0.18
140
0.18
147
0.09
73
0
74
0
77
1
271
2
275
0
278
52
280
0
340
11
0
ENDTAB
0
TABLE
2
VIEW
5
254
100
AcDbSymbolTable
0
ENDTAB
0
TABLE
2
UCS
5
255
100
AcDbSymbolTable
0
ENDTAB
0
TABLE
2
APPID
5
256
100
AcDbSymbolTable
0
APPID
5
12
100
AcDbSymbolTableRecord
100
AcDbRegAppTableRecord
2
ACAD
70
0
0
ENDTAB
0
TABLE
2
BLOCK_RECORD
5
257
100
AcDbSymbolTable
0
BLOCK_RECORD
5
1F
100
AcDbSymbolTableRecord
100
AcDbBlockTableRecord
2
*Model_Space
340
0
70
0
0
BLOCK_RECORD
5
1B
100
AcDbSymbolTableRecord
100
AcDbBlockTableRecord
2
*Paper_Space
340
0
70
0
0
BLOCK_RECORD
5
23
100
AcDbSymbolTableRecord
100
AcDbBlockTableRecord
2
*Paper_Space0
340
0
70
0
0
BLOCK_RECORD
5
1B7
100
AcDbSymbolTableRecord
100
AcDbBlockTableRecord
2
DimnDraft3D1
340
0
70
0
0
BLOCK_RECORD
5
1C1
100
AcDbSymbolTableRecord
100
AcDbBlockTableRecord
2
DimnDraft3D2
340
0
70
0
0
BLOCK_RECORD
5
1CC
100
AcDbSymbolTableRecord
100
AcDbBlockTableRecord
2
DimnDraft3D3
340
0
70
0
0
BLOCK_RECORD
5
1D7
100
AcDbSymbolTableRecord
100
AcDbBlockTableRecord
2
DimnDraft3D4
340
0
70
0
0
ENDTAB
0
ENDSEC
0
SECTION
2
BLOCKS
0
BLOCK
5
20
100
AcDbEntity
8
0
100
AcDbBlockBegin
2
*Model_Space
70
0
10
0
20
0
30
0
3
*Model_Space
0
ENDBLK
5
21
100
AcDbEntity
8
0
100
AcDbBlockEnd
0
BLOCK
5
1C
100
AcDbEntity
8
0
100
AcDbBlockBegin
2
*Paper_Space
70
0
10
0
20
0
30
0
3
*Paper_Space
0
ENDBLK
5
1D
100
AcDbEntity
8
0
100
AcDbBlockEnd
0
BLOCK
5
24
100
AcDbEntity
8
0
100
AcDbBlockBegin
2
*Paper_Space0
70
0
10
0
20
0
30
0
3
*Paper_Space0
0
ENDBLK
5
25
100
AcDbEntity
8
0
100
AcDbBlockEnd
0
BLOCK
5
1BE
100
AcDbEntity
8
0
100
AcDbBlockBegin
2
DimnDraft3D1
70
0
10
0
20
0
30
0
3
DimnDraft3D1
0
MTEXT
5
1B8
100
AcDbEntity
8
SK2
62
256
6
ByLayer
370
18
48
1
60
0
100
AcDbMText
10
25.775534
20
-29.224866
30
0
210
0
220
0
230
1
1
\W0.7121;8.6
40
3.5
41
0
44
1.084337
50
0
71
7
72
5
7
iso_b_vert
0
LINE
5
1B9
100
AcDbEntity
8
SK2
62
256
6
ByLayer
370
13
48
1
60
0
100
AcDbLine
10
23.4
20
-17.5875
30
0
11
23.4
21
-32.1
31
0
39
0
210
0
220
0
230
1
0
LINE
5
1BA
100
AcDbEntity
8
SK2
62
256
6
ByLayer
370
13
48
1
60
0
100
AcDbLine
10
32
20
-17.5875
30
0
11
32
21
-32.1
31
0
39
0
210
0
220
0
230
1
0
LINE
5
1BB
100
AcDbEntity
8
SK2
62
256
6
ByLayer
370
13
48
1
60
0
100
AcDbLine
10
14.65
20
-30.1
30
0
11
40.75
21
-30.1
31
0
39
0
210
0
220
0
230
1
0
SOLID
5
1BC
100
AcDbEntity
8
SK2
62
256
6
ByLayer
370
13
48
1
60
0
100
AcDbTrace
10
23.4
20
-30.1
30
0
11
19.900002
21
-30.560784
31
0
12
19.899998
22
-29.639216
32
0
13
23.4
23
-30.1
33
0
39
0
210
0
220
0
230
1
0
SOLID
5
1BD
100
AcDbEntity
8
SK2
62
256
6
ByLayer
370
13
48
1
60
0
100
AcDbTrace
10
32
20
-30.1
30
0
11
35.499998
21
-29.639216
31
0
12
35.500002
22
-30.560784
32
0
13
32
23
-30.1
33
0
39
0
210
0
220
0
230
1
0
ENDBLK
5
1BF
100
AcDbEntity
8
0
100
AcDbBlockEnd
0
BLOCK
5
1C9
100
AcDbEntity
8
0
100
AcDbBlockBegin
2
DimnDraft3D2
70
0
10
0
20
0
30
0
3
DimnDraft3D2
0
MTEXT
5
1C2
100
AcDbEntity
8
2
62
256
6
ByLayer
370
18
48
1
60
0
100
AcDbMText
10
12.767801
20
-39.224866
30
0
210
0
220
0
230
1
1
\W0.7346;32.0
40
3.5
41
0
44
1.084337
50
0
71
7
72
5
7
iso_b_vert
0
LINE
5
1C4
100
AcDbEntity
8
2
62
256
6
ByLayer
370
13
48
1
60
0
100
AcDbLine
10
0
20
-21.5875
30
0
11
0
21
-42.1
31
0
39
0
210
0
220
0
230
1
0
LINE
5
1C5
100
AcDbEntity
8
2
62
256
6
ByLayer
370
13
48
1
60
0
100
AcDbLine
10
32
20
-17.5875
30
0
11
32
21
-42.1
31
0
39
0
210
0
220
0
230
1
0
LINE
5
1C6
100
AcDbEntity
8
2
62
256
6
ByLayer
370
13
48
1
60
0
100
AcDbLine
10
0
20
-40.1
30
0
11
32
21
-40.1
31
0
39
0
210
0
220
0
230
1
0
SOLID
5
1C7
100
AcDbEntity
8
2
62
256
6
ByLayer
370
13
48
1
60
0
100
AcDbTrace
10
0
20
-40.1
30
0
11
3.499998
21
-39.639216
31
0
12
3.500002
22
-40.560784
32
0
13
0
23
-40.1
33
0
39
0
210
0
220
0
230
1
0
SOLID
5
1C8
100
AcDbEntity
8
2
62
256
6
ByLayer
370
13
48
1
60
0
100
AcDbTrace
10
32
20
-40.1
30
0
11
28.500002
21
-40.560784
31
0
12
28.499998
22
-39.639216
32
0
13
32
23
-40.1
33
0
39
0
210
0
220
0
230
1
0
ENDBLK
5
1CA
100
AcDbEntity
8
0
100
AcDbBlockEnd
0
BLOCK
5
1D4
100
AcDbEntity
8
0
100
AcDbBlockBegin
2
DimnDraft3D3
70
0
10
0
20
0
30
0
3
DimnDraft3D3
0
MTEXT
5
1CD
100
AcDbEntity
8
SK2
62
256
6
ByLayer
370
18
48
1
60
0
100
AcDbMText
10
-47.350134
20
2.975267
30
0
210
0
220
0
230
1
1
\W0.7361;40
40
3.5
41
0
44
1.084337
50
90
71
7
72
5
7
iso_b_vert
0
MTEXT
5
1CE
100
AcDbEntity
8
SK2
62
256
6
ByLayer
370
18
48
1
60
0
100
AcDbMText
10
-47.350134
20
-3.997389
30
0
210
0
220
0
230
1
1
%%c
40
3.5
41
0
44
1.084337
50
90
71
7
72
5
7
iso_b_vert
0
LINE
5
1CF
100
AcDbEntity
8
SK2
62
256
6
ByLayer
370
13
48
1
60
0
100
AcDbLine
10
-1.5875
20
20
30
0
11
-47.6
21
20
31
0
39
0
210
0
220
0
230
1
0
LINE
5
1D0
100
AcDbEntity
8
SK2
62
256
6
ByLayer
370
13
48
1
60
0
100
AcDbLine
10
-1.5875
20
-20
30
0
11
-47.6
21
-20
31
0
39
0
210
0
220
0
230
1
0
LINE
5
1D1
100
AcDbEntity
8
SK2
62
256
6
ByLayer
370
13
48
1
60
0
100
AcDbLine
10
-45.6
20
20
30
0
11
-45.6
21
-20
31
0
39
0
210
0
220
0
230
1
0
SOLID
5
1D2
100
AcDbEntity
8
SK2
62
256
6
ByLayer
370
13
48
1
60
0
100
AcDbTrace
10
-45.6
20
20
30
0
11
-45.139216
21
16.500002
31
0
12
-46.060784
22
16.499998
32
0
13
-45.6
23
20
33
0
39
0
210
0
220
0
230
1
0
SOLID
5
1D3
100
AcDbEntity
8
SK2
62
256
6
ByLayer
370
13
48
1
60
0
100
AcDbTrace
10
-45.6
20
-20
30
0
11
-46.060784
21
-16.500002
31
0
12
-45.139216
22
-16.499998
32
0
13
-45.6
23
-20
33
0
39
0
210
0
220
0
230
1
0
ENDBLK
5
1D5
100
AcDbEntity
8
0
100
AcDbBlockEnd
0
BLOCK
5
1DF
100
AcDbEntity
8
0
100
AcDbBlockBegin
2
DimnDraft3D4
70
0
10
0
20
0
30
0
3
DimnDraft3D4
0
MTEXT
5
1D8
100
AcDbEntity
8
SK2
62
256
6
ByLayer
370
18
48
1
60
0
100
AcDbMText
10
50.145186
20
3.159534
30
0
210
0
220
0
230
1
1
\W0.6740;32
40
3.5
41
0
44
1.084337
50
90
71
7
72
5
7
iso_b_vert
0
MTEXT
5
1D9
100
AcDbEntity
8
SK2
62
256
6
ByLayer
370
18
48
1
60
0
100
AcDbMText
10
50.145186
20
-3.813122
30
0
210
0
220
0
230
1
1
%%c
40
3.5
41
0
44
1.084337
50
90
71
7
72
5
7
iso_b_vert
0
LINE
5
1DA
100
AcDbEntity
8
SK2
62
256
6
ByLayer
370
13
48
1
60
0
100
AcDbLine
10
33.5875
20
16
30
0
11
53.895319
21
16
31
0
39
0
210
0
220
0
230
1
0
LINE
5
1DB
100
AcDbEntity
8
SK2
62
256
6
ByLayer
370
13
48
1
60
0
100
AcDbLine
10
33.5875
20
-16
30
0
11
53.895319
21
-16
31
0
39
0
210
0
220
0
230
1
0
LINE
5
1DC
100
AcDbEntity
8
SK2
62
256
6
ByLayer
370
13
48
1
60
0
100
AcDbLine
10
51.895319
20
16
30
0
11
51.895319
21
-16
31
0
39
0
210
0
220
0
230
1
0
SOLID
5
1DD
100
AcDbEntity
8
SK2
62
256
6
ByLayer
370
13
48
1
60
0
100
AcDbTrace
10
51.895319
20
16
30
0
11
52.356103
21
12.500002
31
0
12
51.434536
22
12.499998
32
0
13
51.895319
23
16
33
0
39
0
210
0
220
0
230
1
0
SOLID
5
1DE
100
AcDbEntity
8
SK2
62
256
6
ByLayer
370
13
48
1
60
0
100
AcDbTrace
10
51.895319
20
-16
30
0
11
51.434536
21
-12.500002
31
0
12
52.356103
22
-12.499998
32
0
13
51.895319
23
-16
33
0
39
0
210
0
220
0
230
1
0
ENDBLK
5
1E0
100
AcDbEntity
8
0
100
AcDbBlockEnd
0
ENDSEC
0
SECTION
2
ENTITIES
0
ARC
5
107
100
AcDbEntity
8
1
62
256
6
ByLayer
370
18
48
1
60
0
100
AcDbCircle
39
0
10
41.0855
20
-4.028175
30
0
40
0.5
210
0
220
0
230
1
100
AcDbArc
50
0
51
90
0
ARC
5
108
100
AcDbEntity
8
1
62
256
6
ByLayer
370
18
48
1
60
0
100
AcDbCircle
39
0
10
-36.4755
20
5.078175
30
0
40
0.2
210
0
220
0
230
-1
100
AcDbArc
50
90
51
180
0
ARC
5
109
100
AcDbEntity
8
1
62
256
6
ByLayer
370
18
48
1
60
0
100
AcDbCircle
39
0
10
41.0855
20
-11.528175
30
0
40
0.5
210
0
220
0
230
1
100
AcDbArc
50
270
51
0
0
ARC
5
10A
100
AcDbEntity
8
1
62
256
6
ByLayer
370
18
48
1
60
0
100
AcDbCircle
39
0
10
-36.4755
20
-5.078175
30
0
40
0.2
210
0
220
0
230
-1
100
AcDbArc
50
180
51
270
0
ARC
5
10B
100
AcDbEntity
8
1
62
256
6
ByLayer
370
18
48
1
60
0
100
AcDbCircle
39
0
10
41.0855
20
11.528175
30
0
40
0.5
210
0
220
0
230
1
100
AcDbArc
50
0
51
90
0
ARC
5
10C
100
AcDbEntity
8
1
62
256
6
ByLayer
370
18
48
1
60
0
100
AcDbCircle
39
0
10
41.0855
20
4.028175
30
0
40
0.5
210
0
220
0
230
1
100
AcDbArc
50
270
51
0
0
ARC
5
10D
100
AcDbEntity
8
1
62
256
6
ByLayer
370
18
48
1
60
0
100
AcDbCircle
39
0
10
-36.4755
20
10.478175
30
0
40
0.2
210
0
220
0
230
-1
100
AcDbArc
50
180
51
270
0
ARC
5
10E
100
AcDbEntity
8
1
62
256
6
ByLayer
370
18
48
1
60
0
100
AcDbCircle
39
0
10
-23.4
20
19
30
0
40
3
210
0
220
0
230
-1
100
AcDbArc
50
270
51
344.222436
0
ARC
5
10F
100
AcDbEntity
8
1
62
256
6
ByLayer
370
18
48
1
60
0
100
AcDbCircle
39
0
10
-23.4
20
-19
30
0
40
3
210
0
220
0
230
-1
100
AcDbArc
50
15.777564
51
90
0
ARC
5
110
100
AcDbEntity
8
1
62
256
6
ByLayer
370
18
48
1
60
0
100
AcDbCircle
39
0
10
-36.4755
20
10.478175
30
0
40
0.2
210
0
220
0
230
-1
100
AcDbArc
50
180
51
270
0
ARC
5
111
100
AcDbEntity
8
1
62
256
6
ByLayer
370
18
48
1
60
0
100
AcDbCircle
39
0
10
-36.4755
20
-10.478175
30
0
40
0.2
210
0
220
0
230
-1
100
AcDbArc
50
90
51
180
0
ARC
5
112
100
AcDbEntity
8
1
62
256
6
ByLayer
370
18
48
1
60
0
100
AcDbCircle
39
0
10
41.0855
20
11.528175
30
0
40
0.5
210
0
220
0
230
1
100
AcDbArc
50
0
51
90
0
ARC
5
113
100
AcDbEntity
8
1
62
256
6
ByLayer
370
18
48
1
60
0
100
AcDbCircle
39
0
10
41.0855
20
4.028175
30
0
40
0.5
210
0
220
0
230
1
100
AcDbArc
50
270
51
0
0
ARC
5
114
100
AcDbEntity
8
1
62
256
6
ByLayer
370
18
48
1
60
0
100
AcDbCircle
39
0
10
-36.4755
20
5.078175
30
0
40
0.2
210
0
220
0
230
-1
100
AcDbArc
50
90
51
180
0
ELLIPSE
5
115
100
AcDbEntity
8
1
62
256
6
ByLayer
370
18
48
1
60
0
100
AcDbEllipse
10
16.948929
20
0
30
0
11
9.3674178797811
21
-19.7417491527494
31
0
210
0
220
0
230
-1
40
0.341999
41
2.04527312608986
42
2.98886640869144
0
ELLIPSE
5
116
100
AcDbEntity
8
1
62
256
6
ByLayer
370
18
48
1
60
0
100
AcDbEllipse
10
-0.948929
20
0
30
0
11
9.36741787978306
21
-19.7417491527512
31
0
210
0
220
0
230
-1
40
0.341999
41
-1.09631952749985
42
-0.152726244898338
0
ELLIPSE
5
117
100
AcDbEntity
8
1
62
256
6
ByLayer
370
18
48
1
60
0
100
AcDbEllipse
10
-0.948929
20
0
30
0
11
9.36741787978252
21
19.7417491527505
31
0
210
0
220
0
230
-1
40
0.341999
41
0.15272624489834
42
1.09631952749988
0
ELLIPSE
5
118
100
AcDbEntity
8
1
62
256
6
ByLayer
370
18
48
1
60
0
100
AcDbEllipse
10
16.948929
20
0
30
0
11
9.36741787978159
21
19.74174915275
31
0
210
0
220
0
230
-1
40
0.341999
41
-2.98886640869144
42
-2.04527312608988
0
POINT
5
6C
100
AcDbEntity
8
80
62
256
6
ByLayer
370
18
48
1
60
0
100
AcDbPoint
10
0
20
0
30
0
39
0
210
0
220
0
230
1
50
360
0
POINT
5
6E
100
AcDbEntity
8
81
62
256
6
ByLayer
370
18
48
1
60
0
100
AcDbPoint
10
32
20
0
30
0
39
0
210
0
220
0
230
1
50
360
0
POINT
5
70
100
AcDbEntity
8
SK2
62
256
6
ByLayer
370
18
48
1
60
1
100
AcDbPoint
10
0
20
20
30
0
39
0
210
0
220
0
230
1
50
360
0
POINT
5
72
100
AcDbEntity
8
SK2
62
256
6
ByLayer
370
18
48
1
60
1
100
AcDbPoint
10
0
20
-20
30
0
39
0
210
0
220
0
230
1
50
360
0
POINT
5
73
100
AcDbEntity
8
SK2
62
256
6
ByLayer
370
18
48
1
60
1
100
AcDbPoint
10
32
20
16
30
0
39
0
210
0
220
0
230
1
50
360
0
POINT
5
74
100
AcDbEntity
8
SK2
62
256
6
ByLayer
370
18
48
1
60
1
100
AcDbPoint
10
32
20
-16
30
0
39
0
210
0
220
0
230
1
50
360
0
SPLINE
5
119
100
AcDbEntity
8
SK1
62
256
6
ByLayer
370
18
48
1
60
0
100
AcDbSpline
70
4
71
2
72
6
73
3
40
0
40
0
40
0
40
1
40
1
40
1
41
1
10
-22.5
20
-13.4936010331935
30
0
41
1
10
-12.0999999986036
20
-13.7547063780669
30
0
41
1
10
-1.7
20
-14.0158108591592
30
0
0
SPLINE
5
11A
100
AcDbEntity
8
SK1
62
256
6
ByLayer
370
18
48
1
60
0
100
AcDbSpline
70
4
71
2
72
6
73
3
40
0
40
0
40
0
40
1
40
1
40
1
41
1
10
-24
20
-12.63171569075
30
0
41
1
10
-23.2499999368976
20
-13.0645340070691
30
0
41
1
10
-22.5
20
-13.4973518870616
30
0
0
SPLINE
5
11B
100
AcDbEntity
8
SK1
62
256
6
ByLayer
370
18
48
1
60
0
100
AcDbSpline
70
4
71
2
72
6
73
3
40
0
40
0
40
0
40
1
40
1
40
1
41
1
10
-22.5
20
13.4973518251592
30
0
41
1
10
-23.249999936895
20
13.0645339427607
30
0
41
1
10
-24
20
12.6317156240216
30
0
0
SPLINE
5
11C
100
AcDbEntity
8
SK1
62
256
6
ByLayer
370
18
48
1
60
0
100
AcDbSpline
70
4
71
2
72
6
73
3
40
0
40
0
40
0
40
1
40
1
40
1
41
1
10
-1.7
20
14.0158106259661
30
0
41
1
10
-12.0999999986039
20
13.7547061446862
30
0
41
1
10
-22.5
20
13.4936007996938
30
0
0
SPLINE
5
11D
100
AcDbEntity
8
SK1
62
256
6
ByLayer
370
18
48
1
60
0
100
AcDbSpline
70
4
71
3
72
13
73
9
40
0
40
0
40
0
40
0
40
0.239406584356309
40
0.368294064402705
40
0.49992781519548
40
0.631573554280459
40
0.760494103733154
40
1
40
1
40
1
40
1
41
1
10
-1.7
20
-14.020094440518
30
0
41
1
10
-1.69909121849834
20
-13.9940472396764
30
0
41
1
10
-1.69103207617424
20
-13.956689925787
30
0
41
1
10
-1.6656349077834
20
-13.9104917120148
30
0
41
1
10
-1.63886244003065
20
-13.8792240145368
30
0
41
1
10
-1.60627567892243
20
-13.8540680395026
30
0
41
1
10
-1.55883864918061
20
-13.8310346548635
30
0
41
1
10
-1.52110926509484
20
-13.8248650525742
30
0
41
1
10
-1.4950399779393
20
-13.8252671707288
30
0
0
SPLINE
5
11E
100
AcDbEntity
8
SK1
62
256
6
ByLayer
370
18
48
1
60
0
100
AcDbSpline
70
4
71
3
72
13
73
9
40
0
40
0
40
0
40
0
40
0.239505895683991
40
0.3684264449288
40
0.500072183930361
40
0.63170593478759
40
0.760593415031946
40
1
40
1
40
1
40
1
41
1
10
-1.4950399779393
20
13.825267079015
30
0
41
1
10
-1.52110926510646
20
13.8248649608707
30
0
41
1
10
-1.55883864920249
20
13.8310345631992
30
0
41
1
10
-1.60627567894029
20
13.8540679479737
30
0
41
1
10
-1.63886244004753
20
13.8792239231524
30
0
41
1
10
-1.6656349077962
20
13.9104916208042
30
0
41
1
10
-1.6910320761837
20
13.9566898348375
30
0
41
1
10
-1.69909121850789
20
13.9940471489176
30
0
41
1
10
-1.7
20
14.0200943498873
30
0
0
SPLINE
5
11F
100
AcDbEntity
8
SK1
62
256
6
ByLayer
370
18
48
1
60
0
100
AcDbSpline
70
4
71
2
72
6
73
3
40
0
40
0
40
0
40
1
40
1
40
1
41
1
10
-1.4950399779393
20
-13.713017019049
30
0
41
1
10
-0.94497688887391
20
-13.7267324097107
30
0
41
1
10
-0.394913799811292
20
-13.7404477916605
30
0
0
SPLINE
5
120
100
AcDbEntity
8
SK1
62
256
6
ByLayer
370
18
48
1
60
0
100
AcDbSpline
70
4
71
2
72
6
73
3
40
0
40
0
40
0
40
1
40
1
40
1
41
1
10
-0.394913799811292
20
13.740447551665
30
0
41
1
10
-0.94497688887391
20
13.7267321696587
30
0
41
1
10
-1.4950399779393
20
13.7130167789402
30
0
0
SPLINE
5
121
100
AcDbEntity
8
SK1
62
256
6
ByLayer
370
18
48
1
60
0
100
AcDbSpline
70
4
71
3
72
26
73
22
40
0
40
0
40
0
40
0
40
0.249999999999998
40
0.249999999999998
40
0.499999999999997
40
0.499999999999997
40
0.624999999999996
40
0.624999999999996
40
0.749999999999995
40
0.749999999999995
40
0.812499999999996
40
0.812499999999996
40
0.874999999999997
40
0.874999999999997
40
0.906249999999998
40
0.906249999999998
40
0.937499999999998
40
0.937499999999998
40
0.968749999999999
40
0.968749999999999
40
1
40
1
40
1
40
1
41
1
10
-0.199999999999932
20
-5.67845150387905
30
0
41
1
10
-0.200325582586942
20
-5.61546983788247
30
0
41
1
10
-0.201889292856649
20
-5.55215860520229
30
0
41
1
10
-0.208629038638961
20
-5.42477542924993
30
0
41
1
10
-0.213720374774766
20
-5.36066104812858
30
0
41
1
10
-0.226295439930396
20
-5.26391096452849
30
0
41
1
10
-0.231309806284671
20
-5.23164989232023
30
0
41
1
10
-0.244056027638663
20
-5.16717583038789
30
0
41
1
10
-0.251722151098548
20
-5.13489726407653
30
0
41
1
10
-0.267174521638538
20
-5.08763962812455
30
0
41
1
10
-0.272989810766745
20
-5.07205528846893
30
0
41
1
10
-0.287121552433874
20
-5.04154827938362
30
0
41
1
10
-0.295471476550745
20
-5.02627441682068
30
0
41
1
10
-0.312085221061721
20
-5.00607580183564
30
0
41
1
10
-0.318315705391456
20
-4.9998472840258
30
0
41
1
10
-0.33266141272027
20
-4.98993685341839
30
0
41
1
10
-0.340982791803313
20
-4.98634390547625
30
0
41
1
10
-0.357912543199376
20
-4.98422689625085
30
0
41
1
10
-0.366386332451668
20
-4.98566051007415
30
0
41
1
10
-0.381640470192011
20
-4.99162000800573
30
0
41
1
10
-0.388584021391466
20
-4.99606206531726
30
0
41
1
10
-0.394913799814603
20
-5.0011605625885
30
0
0
SPLINE
5
122
100
AcDbEntity
8
SK1
62
256
6
ByLayer
370
18
48
1
60
0
100
AcDbSpline
70
4
71
3
72
8
73
4
40
0
40
0
40
0
40
0
40
1
40
1
40
1
40
1
41
1
10
-1.4950399779393
20
2.59572959682802
30
0
41
1
10
-1.43720049720228
20
2.94804273884375
30
0
41
1
10
-1.37356947571648
20
3.29172452904802
30
0
41
1
10
-1.30710678118655
20
3.62853433720642
30
0
0
SPLINE
5
123
100
AcDbEntity
8
SK1
62
256
6
ByLayer
370
18
48
1
60
0
100
AcDbSpline
70
4
71
3
72
21
73
17
40
0
40
0
40
0
40
0
40
0.0053469552527359
40
0.0675241957930219
40
0.129701436333308
40
0.191878676873594
40
0.25405591741388
40
0.378410398494452
40
0.440587639034738
40
0.502764879575024
40
0.627119360655596
40
0.751473841736168
40
0.813651082276453
40
0.87582832281674
40
0.938005563357025
40
1
40
1
40
1
40
1
41
1
10
-1.7
20
-2.5837772973461
30
0
41
1
10
-1.7
20
-2.62111254506638
30
0
41
1
10
-1.7
20
-3.09163174208075
30
0
41
1
10
-1.7
20
-3.9713410474516
30
0
41
1
10
-1.7
20
-5.16941104441418
30
0
41
1
10
-1.7
20
-6.29922693017525
30
0
41
1
10
-1.7
20
-7.71376573381551
30
0
41
1
10
-1.7
20
-8.98995374340757
30
0
41
1
10
-1.7
20
-10.1227279817209
30
0
41
1
10
-1.7
20
-11.158026865053
30
0
41
1
10
-1.7
20
-12.2637792369573
30
0
41
1
10
-1.7
20
-13.0984073948343
30
0
41
1
10
-1.7
20
-13.5829958824317
30
0
41
1
10
-1.7
20
-13.8477064954836
30
0
41
1
10
-1.70000000000002
20
-14.0038773153953
30
0
41
1
10
-1.69999999999997
20
-14.0272530253839
30
0
41
1
10
-1.7
20
-14.0157839280095
30
0
0
SPLINE
5
124
100
AcDbEntity
8
SK1
62
256
6
ByLayer
370
13
48
1
60
0
100
AcDbSpline
70
4
71
3
72
18
73
14
40
0
40
0
40
0
40
0
40
0.0047264100278361
40
0.0849223450648054
40
0.165118280101775
40
0.325510150175713
40
0.405706085212683
40
0.485902020249652
40
0.646293890323591
40
0.806685760397529
40
0.886881695434498
40
0.967077630471468
40
1
40
1
40
1
40
1
41
1
10
-0.394913799811292
20
-5.00116056259458
30
0
41
1
10
-0.394913799811292
20
-5.02384231960818
30
0
41
1
10
-0.394913799811292
20
-5.43069766105196
30
0
41
1
10
-0.394913799811292
20
-6.19788936064776
30
0
41
1
10
-0.394913799811292
20
-7.59985108367658
30
0
41
1
10
-0.394913799811292
20
-8.86359091499725
30
0
41
1
10
-0.394913799811292
20
-9.98771966705357
30
0
41
1
10
-0.394913799811292
20
-11.0153145242407
30
0
41
1
10
-0.394913799811292
20
-12.1118904563386
30
0
41
1
10
-0.394913799811292
20
-12.9393760577865
30
0
41
1
10
-0.394913799811292
20
-13.4200269261686
30
0
41
1
10
-0.394913799811306
20
-13.6307409909269
30
0
41
1
10
-0.394913799811306
20
-13.7183892159631
30
0
41
1
10
-0.394913799811292
20
-13.7407325625594
30
0
0
SPLINE
5
125
100
AcDbEntity
8
SK1
62
256
6
ByLayer
370
18
48
1
60
0
100
AcDbSpline
70
4
71
3
72
9
73
5
40
0
40
0
40
0
40
0
40
0.600451847374608
40
1
40
1
40
1
40
1
41
1
10
-0.394913799811263
20
-13.7407316982677
30
0
41
1
10
-0.394913799811278
20
-13.7728151424059
30
0
41
1
10
-0.394913799811278
20
-13.8153752757029
30
0
41
1
10
-0.394913799811292
20
-13.8386284705405
30
0
41
1
10
-0.394913799811292
20
-13.8446596982821
30
0
0
SPLINE
5
126
100
AcDbEntity
8
SK1
62
256
6
ByLayer
370
18
48
1
60
0
100
AcDbSpline
70
4
71
3
72
9
73
5
40
0
40
0
40
0
40
0
40
0.399549051474418
40
1
40
1
40
1
40
1
41
1
10
-0.394913799811292
20
13.8446595289407
30
0
41
1
10
-0.394913799811292
20
13.8386282511807
30
0
41
1
10
-0.394913799811292
20
13.8153749446156
30
0
41
1
10
-0.394913799811292
20
13.7728148586386
30
0
41
1
10
-0.394913799811263
20
13.7407315289408
30
0
0
SPLINE
5
127
100
AcDbEntity
8
SK1
62
256
6
ByLayer
370
13
48
1
60
0
100
AcDbSpline
70
4
71
3
72
18
73
14
40
0
40
0
40
0
40
0
40
0.0329223023252652
40
0.113118245900772
40
0.193314189476278
40
0.353706076627291
40
0.514097963778304
40
0.59429390735381
40
0.674489850929317
40
0.83488173808033
40
0.915077681655836
40
0.995273625231343
40
1
40
1
40
1
40
1
41
1
10
-0.394913799811292
20
13.7407320821454
30
0
41
1
10
-0.394913799811292
20
13.7183887950508
30
0
41
1
10
-0.394913799811292
20
13.6307407318893
30
0
41
1
10
-0.394913799811292
20
13.4200270263956
30
0
41
1
10
-0.394913799811292
20
12.9393754432253
30
0
41
1
10
-0.394913799811292
20
12.1118907902116
30
0
41
1
10
-0.394913799811292
20
11.015314225612
30
0
41
1
10
-0.394913799811292
20
9.98771978618734
30
0
41
1
10
-0.394913799811292
20
8.86359092653058
30
0
41
1
10
-0.394913799811292
20
7.59985122616766
30
0
41
1
10
-0.394913799811292
20
6.19788950405021
30
0
41
1
10
-0.394913799811292
20
5.43069780454792
30
0
41
1
10
-0.394913799811292
20
5.02384266526144
30
0
41
1
10
-0.394913799811292
20
5.00116108217654
30
0
0
SPLINE
5
128
100
AcDbEntity
8
SK1
62
256
6
ByLayer
370
18
48
1
60
0
100
AcDbSpline
70
4
71
3
72
9
73
5
40
0
40
0
40
0
40
0
40
0.562952091623692
40
1
40
1
40
1
40
1
41
1
10
-1.49503997793928
20
13.8252659419166
30
0
41
1
10
-1.4950399779393
20
13.8254147713464
30
0
41
1
10
-1.49503997793928
20
13.8034442432606
30
0
41
1
10
-1.49503997793928
20
13.7458810356383
30
0
41
1
10
-1.4950399779393
20
13.7143415968116
30
0
0
SPLINE
5
129
100
AcDbEntity
8
SK1
62
256
6
ByLayer
370
13
48
1
60
0
100
AcDbSpline
70
4
71
3
72
20
73
16
40
0
40
0
40
0
40
0
40
0.0288653963577456
40
0.0980945835450158
40
0.167323770732286
40
0.305782145106826
40
0.444240519481366
40
0.513469706668637
40
0.582698893855907
40
0.721157268230447
40
0.790386455417717
40
0.859615642604987
40
0.928844829792257
40
0.998074016979527
40
1
40
1
40
1
40
1
41
1
10
-1.49503997793931
20
13.7143415968109
30
0
41
1
10
-1.49503997793931
20
13.6917867677443
30
0
41
1
10
-1.49503997793931
20
13.6040468044602
30
0
41
1
10
-1.4950399779393
20
13.3930994871677
30
0
41
1
10
-1.4950399779393
20
12.9130985214152
30
0
41
1
10
-1.4950399779393
20
12.0867940390283
30
0
41
1
10
-1.4950399779393
20
10.9917337096027
30
0
41
1
10
-1.4950399779393
20
9.96541221253273
30
0
41
1
10
-1.4950399779393
20
8.84271185764786
30
0
41
1
10
-1.4950399779393
20
7.5810289825223
30
0
41
1
10
-1.4950399779393
20
6.18114538947242
30
0
41
1
10
-1.4950399779393
20
5.0652758228772
30
0
41
1
10
-1.4950399779393
20
3.88412534084222
30
0
41
1
10
-1.4950399779393
20
3.04345481646686
30
0
41
1
10
-1.4950399779393
20
2.6075359189918
30
0
41
1
10
-1.4950399779393
20
2.59572959682799
30
0
0
SPLINE
5
12A
100
AcDbEntity
8
SK1
62
256
6
ByLayer
370
18
48
1
60
0
100
AcDbSpline
70
4
71
3
72
10
73
6
40
0
40
0
40
0
40
0
40
0.5
40
0.5
40
1
40
1
40
1
40
1
41
1
10
0
20
-5.20997845408499
30
0
41
1
10
-0.0266023652104934
20
-5.29927453248274
30
0
41
1
10
-0.0556335640952881
20
-5.38729103925678
30
0
41
1
10
-0.121003648185194
20
-5.56020190378439
30
0
41
1
10
-0.157172701231687
20
-5.64513968165718
30
0
41
1
10
-0.19999999999726
20
-5.72778130128899
30
0
0
SPLINE
5
12B
100
AcDbEntity
8
SK1
62
256
6
ByLayer
370
18
48
1
60
0
100
AcDbSpline
70
4
71
3
72
36
73
32
40
0
40
0
40
0
40
0
40
0.0312499999999997
40
0.0312499999999997
40
0.0624999999999993
40
0.0624999999999993
40
0.0781249999999994
40
0.0781249999999994
40
0.0937499999999995
40
0.0937499999999995
40
0.125
40
0.125
40
0.15625
40
0.15625
40
0.1875
40
0.1875
40
0.21875
40
0.21875
40
0.25
40
0.25
40
0.3125
40
0.3125
40
0.375
40
0.375
40
0.5
40
0.5
40
0.625
40
0.625
40
0.749999999999999
40
0.749999999999999
40
1
40
1
40
1
40
1
41
1
10
-0.394913799811292
20
-5.00116056259455
30
0
41
1
10
-0.410735023485543
20
-5.01390421021375
30
0
41
1
10
-0.427464692688275
20
-5.02563245238568
30
0
41
1
10
-0.46355765809254
20
-5.04617195191128
30
0
41
1
10
-0.482957659598313
20
-5.05493293700039
30
0
41
1
10
-0.513397366495212
20
-5.06428047819708
30
0
41
1
10
-0.523814898165284
20
-5.06678978581584
30
0
41
1
10
-0.545287446174797
20
-5.07038348981607
30
0
41
1
10
-0.55630543616401
20
-5.07144022363713
30
0
41
1
10
-0.589028412665201
20
-5.07217944541901
30
0
41
1
10
-0.611185322931533
20
-5.06938278090567
30
0
41
1
10
-0.653158736531097
20
-5.05828703241724
30
0
41
1
10
-0.67330444601464
20
-5.0499896480936
30
0
41
1
10
-0.710603681727861
20
-5.03020967742307
30
0
41
1
10
-0.727880800928986
20
-5.01875181168555
30
0
41
1
10
-0.760562866434555
20
-4.99368119602664
30
0
41
1
10
-0.775925116613095
20
-4.98006172499171
30
0
41
1
10
-0.804596803081779
20
-4.95193103238685
30
0
41
1
10
-0.818026122242216
20
-4.93731968624232
30
0
41
1
10
-0.85634363895683
20
-4.89227865326887
30
0
41
1
10
-0.879296662794289
20
-4.86066233046807
30
0
41
1
10
-0.922008240114707
20
-4.79538841352945
30
0
41
1
10
-0.941686145027532
20
-4.7617640347641
30
0
41
1
10
-0.996609762207925
20
-4.66001801709203
30
0
41
1
10
-1.02820118876016
20
-4.59048527940513
30
0
41
1
10
-1.08574263925291
20
-4.44915525031584
30
0
41
1
10
-1.11159177404086
20
-4.37733091027616
30
0
41
1
10
-1.15931218721946
20
-4.23182333008583
30
0
41
1
10
-1.18115763731679
20
-4.15813319978272
30
0
41
1
10
-1.24213713076213
20
-3.93459344202697
30
0
41
1
10
-1.27670549162998
20
-3.78259514832911
30
0
41
1
10
-1.30710678118751
20
-3.62853202212813
30
0
0
SPLINE
5
12C
100
AcDbEntity
8
SK1
62
256
6
ByLayer
370
18
48
1
60
0
100
AcDbSpline
70
4
71
3
72
17
73
13
40
0
40
0
40
0
40
0
40
0.0691198910348733
40
0.149910146721569
40
0.230700402408266
40
0.392280913781658
40
0.553861425155051
40
0.634651680841747
40
0.715441936528443
40
0.877022447901836
40
0.957812703588532
40
1
40
1
40
1
40
1
41
1
10
-0.200000000000003
20
14.006275669192
30
0
41
1
10
-0.200000000000003
20
13.9739665357243
30
0
41
1
10
-0.200000000000003
20
13.8722046182929
30
0
41
1
10
-0.200000000000003
20
13.6197111420048
30
0
41
1
10
-0.200000000000003
20
13.1342348341326
30
0
41
1
10
-0.200000000000003
20
12.2979984966115
30
0
41
1
10
-0.200000000000003
20
11.1901781240568
30
0
41
1
10
-0.200000000000003
20
10.1531440412185
30
0
41
1
10
-0.200000000000003
20
9.01842194801017
30
0
41
1
10
-0.200000000000003
20
7.73942963488494
30
0
41
1
10
-0.200000000000003
20
6.49136847341114
30
0
41
1
10
-0.200000000000003
20
5.92516085301048
30
0
41
1
10
-0.200000000000003
20
5.72778184890603
30
0
0
SPLINE
5
12D
100
AcDbEntity
8
SK1
62
256
6
ByLayer
370
18
48
1
60
0
100
AcDbSpline
70
4
71
3
72
10
73
6
40
0
40
0
40
0
40
0
40
0.5
40
0.5
40
1
40
1
40
1
40
1
41
1
10
0
20
14.0449295131766
30
0
41
1
10
-0.0266012285184019
20
14.0405020558765
30
0
41
1
10
-0.0556377796240639
20
14.0349844024444
30
0
41
1
10
-0.12101457846947
20
14.0220021118348
30
0
41
1
10
-0.157182706415185
20
14.0145315496191
30
0
41
1
10
-0.19999999999726
20
14.006275669192
30
0
0
SPLINE
5
12E
100
AcDbEntity
8
SK1
62
256
6
ByLayer
370
13
48
1
60
0
100
AcDbSpline
70
4
71
3
72
20
73
16
40
0
40
0
40
0
40
0
40
0.0019260293167284
40
0.0711552211325586
40
0.140384412948389
40
0.209613604764219
40
0.27884279658005
40
0.41730118021171
40
0.486530372027541
40
0.555759563843371
40
0.694217947475031
40
0.832676331106692
40
0.901905522922522
40
0.971134714738353
40
1
40
1
40
1
40
1
41
1
10
-1.4950399779393
20
-2.59572866980207
30
0
41
1
10
-1.4950399779393
20
-2.60753527399984
30
0
41
1
10
-1.4950399779393
20
-3.04345441166049
30
0
41
1
10
-1.4950399779393
20
-3.88412508952482
30
0
41
1
10
-1.4950399779393
20
-5.06527592408099
30
0
41
1
10
-1.4950399779393
20
-6.18114524290195
30
0
41
1
10
-1.4950399779393
20
-7.58102884110858
30
0
41
1
10
-1.4950399779393
20
-8.84271184628201
30
0
41
1
10
-1.4950399779393
20
-9.96541209516295
30
0
41
1
10
-1.4950399779393
20
-10.9917340076615
30
0
41
1
10
-1.4950399779393
20
-12.0867937065467
30
0
41
1
10
-1.4950399779393
20
-12.9130991355629
30
0
41
1
10
-1.4950399779393
20
-13.3930993868039
30
0
41
1
10
-1.4950399779393
20
-13.6040468453757
30
0
41
1
10
-1.4950399779393
20
-13.6917868783592
30
0
41
1
10
-1.49503997793928
20
-13.7143416696489
30
0
0
SPLINE
5
12F
100
AcDbEntity
8
SK1
62
256
6
ByLayer
370
18
48
1
60
0
100
AcDbSpline
70
4
71
3
72
9
73
5
40
0
40
0
40
0
40
0
40
0.436839383465016
40
1
40
1
40
1
40
1
41
1
10
-1.49503997793928
20
-13.7143420944324
30
0
41
1
10
-1.4950399779393
20
-13.7458814933533
30
0
41
1
10
-1.49503997793931
20
-13.8034720764982
30
0
41
1
10
-1.4950399779393
20
-13.8254358361358
30
0
41
1
10
-1.49503997793931
20
-13.8252656280667
30
0
0
SPLINE
5
130
100
AcDbEntity
8
SK1
62
256
6
ByLayer
370
18
48
1
60
0
100
AcDbSpline
70
4
71
3
72
36
73
32
40
0
40
0
40
0
40
0
40
0.125000000000004
40
0.125000000000004
40
0.250000000000007
40
0.250000000000007
40
0.312500000000009
40
0.312500000000009
40
0.37500000000001
40
0.37500000000001
40
0.406250000000011
40
0.406250000000011
40
0.437500000000012
40
0.437500000000012
40
0.453125000000012
40
0.453125000000012
40
0.468750000000013
40
0.468750000000013
40
0.484375000000013
40
0.484375000000013
40
0.500000000000013
40
0.500000000000013
40
0.531250000000013
40
0.531250000000013
40
0.562500000000013
40
0.562500000000013
40
0.625000000000012
40
0.625000000000012
40
0.750000000000008
40
0.750000000000008
40
1
40
1
40
1
40
1
41
1
10
-1.7
20
2.58377808521789
30
0
41
1
10
-1.69980283176194
20
2.53494813104047
30
0
41
1
10
-1.69914629015305
20
2.48605219520374
30
0
41
1
10
-1.69652501232169
20
2.3880984807798
30
0
41
1
10
-1.69458987013773
20
2.33904299616381
30
0
41
1
10
-1.68996451253318
20
2.26528111364416
30
0
41
1
10
-1.68813273270561
20
2.24066381962874
30
0
41
1
10
-1.68351230038934
20
2.19134004598647
30
0
41
1
10
-1.68075232756111
20
2.16659121971119
30
0
41
1
10
-1.67515949014827
20
2.12981712457943
30
0
41
1
10
-1.67305217630931
20
2.11760538297756
30
0
41
1
10
-1.66788896083378
20
2.09336191022135
30
0
41
1
10
-1.66489176376315
20
2.08121679809398
30
0
41
1
10
-1.65853679929683
20
2.06399527606439
30
0
41
1
10
-1.6561508502527
20
2.05848683766223
30
0
41
1
10
-1.64990007736388
20
2.04874689378931
30
0
41
1
10
-1.64585244680006
20
2.04467800309138
30
0
41
1
10
-1.63700800605236
20
2.04294931985959
30
0
41
1
10
-1.63274291390576
20
2.04525125497796
30
0
41
1
10
-1.62570082643226
20
2.05168607565295
30
0
41
1
10
-1.62266900676482
20
2.05586039978229
30
0
41
1
10
-1.61443505776829
20
2.06908624517177
30
0
41
1
10
-1.60998566242182
20
2.07897687949222
30
0
41
1
10
-1.60173135359555
20
2.09941136011861
30
0
41
1
10
-1.59800183776929
20
2.11000295822529
30
0
41
1
10
-1.58752132339204
20
2.14206819971619
30
0
41
1
10
-1.58141440210613
20
2.16398299410503
30
0
41
1
10
-1.56421680497164
20
2.23037341461648
30
0
41
1
10
-1.55428878410447
20
2.27552014353583
30
0
41
1
10
-1.52628507611217
20
2.41180980880418
30
0
41
1
10
-1.5101516296656
20
2.50368116498208
30
0
41
1
10
-1.4950399779393
20
2.59572959682799
30
0
0
SPLINE
5
131
100
AcDbEntity
8
SK1
62
256
6
ByLayer
370
18
48
1
60
0
100
AcDbSpline
70
4
71
3
72
39
73
35
40
0
40
0
40
0
40
0
40
0.0163354623353873
40
0.0447863206902448
40
0.0732371790451022
40
0.10168803739996
40
0.158589754109674
40
0.215491470819389
40
0.243942329174247
40
0.272393187529104
40
0.329294904238819
40
0.357745762593677
40
0.386196620948534
40
0.414647479303392
40
0.443098337658249
40
0.471549196013106
40
0.485774625190535
40
0.500000054367964
40
0.514225483545392
40
0.528450912722821
40
0.556901771077679
40
0.585352629432536
40
0.613803487787394
40
0.642254346142251
40
0.670705204497109
40
0.727606921206824
40
0.756057779561681
40
0.784508637916538
40
0.841410354626253
40
0.898312071335968
40
0.926762929690826
40
0.955213788045683
40
0.98366464640054
40
1
40
1
40
1
40
1
41
1
10
-22.5
20
13.495816472733
30
0
41
1
10
-22.5
20
13.4915511892807
30
0
41
1
10
-22.5
20
13.4607341136958
30
0
41
1
10
-22.5
20
13.3308793310681
30
0
41
1
10
-22.5
20
13.0738790940806
30
0
41
1
10
-22.5
20
12.6015910628856
30
0
41
1
10
-22.5
20
11.7892772585257
30
0
41
1
10
-22.5
20
10.7121915826386
30
0
41
1
10
-22.5
20
9.70096055319001
30
0
41
1
10
-22.5
20
8.59519482612015
30
0
41
1
10
-22.5
20
7.35789518762178
30
0
41
1
10
-22.5
20
5.98264738368823
30
0
41
1
10
-22.5
20
4.89022224945154
30
0
41
1
10
-22.5
20
3.73751327283389
30
0
41
1
10
-22.5
20
2.52988151772914
30
0
41
1
10
-22.5
20
1.48826017841199
30
0
41
1
10
-22.5
20
0.63722566300541
30
0
41
1
10
-22.5
20
1.013002304E-07
30
0
41
1
10
-22.5
20
-0.637225639727404
30
0
41
1
10
-22.5
20
-1.48826022368627
30
0
41
1
10
-22.5
20
-2.52988134516508
30
0
41
1
10
-22.5
20
-3.73751305004353
30
0
41
1
10
-22.5
20
-4.89022238185544
30
0
41
1
10
-22.5
20
-5.98264719956148
30
0
41
1
10
-22.5
20
-7.35789505897995
30
0
41
1
10
-22.5
20
-8.59519481674027
30
0
41
1
10
-22.5
20
-9.70096045673193
30
0
41
1
10
-22.5
20
-10.7121918739408
30
0
41
1
10
-22.5
20
-11.7892769425394
30
0
41
1
10
-22.5
20
-12.6015916721313
30
0
41
1
10
-22.5
20
-13.0738789920944
30
0
41
1
10
-22.5
20
-13.3308795934982
30
0
41
1
10
-22.5
20
-13.460734374256
30
0
41
1
10
-22.5
20
-13.4915512412523
30
0
41
1
10
-22.5
20
-13.4958165271702
30
0
0
SPLINE
5
132
100
AcDbEntity
8
SK1
62
256
6
ByLayer
370
18
48
1
60
0
100
AcDbSpline
70
4
71
3
72
21
73
17
40
0
40
0
40
0
40
0
40
0.0619942550817215
40
0.124171510029555
40
0.186348764977388
40
0.248526019925221
40
0.372880529820887
40
0.497235039716554
40
0.559412294664387
40
0.62158954961222
40
0.745944059507886
40
0.80812131445572
40
0.870298569403553
40
0.932475824351386
40
0.994653079299219
40
1
40
1
40
1
40
1
41
1
10
-1.69999999999997
20
14.0157839583878
30
0
41
1
10
-1.69999999999997
20
14.0272529170467
30
0
41
1
10
-1.69999999999999
20
14.0038766526636
30
0
41
1
10
-1.7
20
13.8477062499051
30
0
41
1
10
-1.7
20
13.5829959818305
30
0
41
1
10
-1.7
20
13.0984067777707
30
0
41
1
10
-1.7
20
12.2637795792515
30
0
41
1
10
-1.7
20
11.1580265629749
30
0
41
1
10
-1.7
20
10.1227281115305
30
0
41
1
10
-1.7
20
8.98995375595479
30
0
41
1
10
-1.7
20
7.71376588282689
30
0
41
1
10
-1.7
20
6.29922705440435
30
0
41
1
10
-1.7
20
5.16941096177055
30
0
41
1
10
-1.7
20
3.97134131573904
30
0
41
1
10
-1.7
20
3.09163207213675
30
0
41
1
10
-1.7
20
2.6211130853342
30
0
41
1
10
-1.7
20
2.58377808521786
30
0
0
SPLINE
5
133
100
AcDbEntity
8
SK1
62
256
6
ByLayer
370
18
48
1
60
0
100
AcDbSpline
70
4
71
3
72
8
73
4
40
0
40
0
40
0
40
0
40
1
40
1
40
1
40
1
41
0.980125716641696
10
-0.200000000000003
20
-5.69634850379842
30
0
41
0.980125716641696
10
-0.200000000000003
20
-5.69038569351127
30
0
41
0.980125716641696
10
-0.200000000000003
20
-5.68442002672957
30
0
41
0.980125716641696
10
-0.200000000000003
20
-5.67845150388107
30
0
0
SPLINE
5
134
100
AcDbEntity
8
SK1
62
256
6
ByLayer
370
18
48
1
60
0
100
AcDbSpline
70
4
71
3
72
26
73
22
40
0
40
0
40
0
40
0
40
0.0312499999999996
40
0.0312499999999996
40
0.0624999999999991
40
0.0624999999999991
40
0.0937499999999987
40
0.0937499999999987
40
0.124999999999998
40
0.124999999999998
40
0.1875
40
0.1875
40
0.250000000000001
40
0.250000000000001
40
0.375000000000001
40
0.375000000000001
40
0.500000000000001
40
0.500000000000001
40
0.75
40
0.75
40
1
40
1
40
1
40
1
41
1
10
-0.394913799811292
20
5.00116108217654
30
0
41
1
10
-0.388593077844192
20
4.9960698849118
30
0
41
1
10
-0.381696248959301
20
4.99164852029563
30
0
41
1
10
-0.366410571944329
20
4.98566435854278
30
0
41
1
10
-0.357950298206603
20
4.98423386424881
30
0
41
1
10
-0.341064499256646
20
4.98632315728017
30
0
41
1
10
-0.332737442838479
20
4.98989594405839
30
0
41
1
10
-0.318359831773961
20
4.99980634621772
30
0
41
1
10
-0.312107661781397
20
5.00605634377806
30
0
41
1
10
-0.295557308756472
20
5.0261560618294
30
0
41
1
10
-0.287201910927422
20
5.04137639572582
30
0
41
1
10
-0.272916655032205
20
5.07221259840796
30
0
41
1
10
-0.267068575155221
20
5.0879254663663
30
0
41
1
10
-0.251550533790692
20
5.13550128701098
30
0
41
1
10
-0.243883568597582
20
5.16792600720166
30
0
41
1
10
-0.231149880121436
20
5.23258507573857
30
0
41
1
10
-0.226165642229006
20
5.26480643303961
30
0
41
1
10
-0.213678908808845
20
5.3611913732602
30
0
41
1
10
-0.208609627305322
20
5.42507701724693
30
0
41
1
10
-0.201889470916569
20
5.55222154865822
30
0
41
1
10
-0.200325540023954
20
5.61547854140437
30
0
41
1
10
-0.200000000000003
20
5.67845201642962
30
0
0
SPLINE
5
135
100
AcDbEntity
8
SK1
62
256
6
ByLayer
370
18
48
1
60
0
100
AcDbSpline
70
4
71
3
72
8
73
4
40
0
40
0
40
0
40
0
40
1
40
1
40
1
40
1
41
1
10
-1.30710678118655
20
-3.62853202213307
30
0
41
1
10
-1.37356940710903
20
-3.29172262772462
30
0
41
1
10
-1.43720046286526
20
-2.94804131885388
30
0
41
1
10
-1.4950399779393
20
-2.59572866974995
30
0
0
SPLINE
5
136
100
AcDbEntity
8
SK1
62
256
6
ByLayer
370
18
48
1
60
0
100
AcDbSpline
70
4
71
3
72
30
73
26
40
0
40
0
40
0
40
0
40
0.25
40
0.25
40
0.375
40
0.375
40
0.5
40
0.5
40
0.625
40
0.625
40
0.6875
40
0.6875
40
0.75
40
0.75
40
0.8125
40
0.8125
40
0.875
40
0.875
40
0.90625
40
0.90625
40
0.9375
40
0.9375
40
0.96875
40
0.96875
40
1
40
1
40
1
40
1
41
1
10
-1.30710678118655
20
3.62853433720642
30
0
41
1
10
-1.27666571440918
20
3.78279907073755
30
0
41
1
10
-1.24213371033556
20
3.93462763573851
30
0
41
1
10
-1.18109081197508
20
4.15837037912317
30
0
41
1
10
-1.15918165202706
20
4.23227919141883
30
0
41
1
10
-1.111162278332
20
4.37858537053413
30
0
41
1
10
-1.08507948586983
20
4.45096090623949
30
0
41
1
10
-1.02706832630062
20
4.59308791137028
30
0
41
1
10
-0.99508474989355
20
4.66317059286271
30
0
41
1
10
-0.940052913520802
20
4.76461628090829
30
0
41
1
10
-0.920529370906095
20
4.79779601403041
30
0
41
1
10
-0.878053724810243
20
4.86240606869328
30
0
41
1
10
-0.855145617589443
20
4.89385654551648
30
0
41
1
10
-0.803680918974479
20
4.95400421215445
30
0
41
1
10
-0.775266891414162
20
4.98261066908682
30
0
41
1
10
-0.71031274046274
20
5.0320109742261
30
0
41
1
10
-0.67278960375144
20
5.05335078499468
30
0
41
1
10
-0.609788395540534
20
5.06961980113229
30
0
41
1
10
-0.588380278389167
20
5.07223202598755
30
0
41
1
10
-0.544642575651963
20
5.07110826896445
30
0
41
1
10
-0.52321086550154
20
5.0673384865444
30
0
41
1
10
-0.482319922293442
20
5.05469252919983
30
0
41
1
10
-0.463152856090019
20
5.04595940949179
30
0
41
1
10
-0.427444682539473
20
5.02560401094567
30
0
41
1
10
-0.41066538649504
20
5.01384862569725
30
0
41
1
10
-0.394913799811292
20
5.00116108217659
30
0
0
SPLINE
5
137
100
AcDbEntity
8
SK1
62
256
6
ByLayer
370
18
48
1
60
0
100
AcDbSpline
70
4
71
3
72
26
73
22
40
0
40
0
40
0
40
0
40
0.03125
40
0.03125
40
0.0624999999999999
40
0.0624999999999999
40
0.0937499999999999
40
0.0937499999999999
40
0.125
40
0.125
40
0.187499999999999
40
0.187499999999999
40
0.249999999999998
40
0.249999999999998
40
0.374999999999998
40
0.374999999999998
40
0.499999999999997
40
0.499999999999997
40
0.749999999999999
40
0.749999999999999
40
1
40
1
40
1
40
1
41
1
10
-0.394913799811292
20
-13.8446596982821
30
0
41
1
10
-0.388593885243026
20
-13.8450250955503
30
0
41
1
10
-0.381697986923029
20
-13.8456694438159
30
0
41
1
10
-0.366414150147975
20
-13.8479342360846
30
0
41
1
10
-0.357954764476204
20
-13.8496012556341
30
0
41
1
10
-0.341070083536849
20
-13.8540052897844
30
0
41
1
10
-0.332743293280913
20
-13.8567292113688
30
0
41
1
10
-0.318366184722322
20
-13.8622189843533
30
0
41
1
10
-0.312114202499345
20
-13.8650128625779
30
0
41
1
10
-0.29556445753623
20
-13.8731201398341
30
0
41
1
10
-0.287209208096499
20
-13.878225468905
30
0
41
1
10
-0.272924030069333
20
-13.8878208927885
30
0
41
1
10
-0.267075773720634
20
-13.8923152006563
30
0
41
1
10
-0.251556816304273
20
-13.9052316346871
30
0
41
1
10
-0.24388876929018
20
-13.913115040607
30
0
41
1
10
-0.231153161037895
20
-13.9277833881154
30
0
41
1
10
-0.22616799926196
20
-13.9345502713768
30
0
41
1
10
-0.213679061265964
20
-13.9535995966933
30
0
41
1
10
-0.208609119240791
20
-13.9646403216358
30
0
41
1
10
-0.201888899753485
20
-13.984321015747
30
0
41
1
10
-0.20032548493181
20
-13.9929389755075
30
0
41
1
10
-0.200000000000003
20
-14.0005308360297
30
0
0
SPLINE
5
138
100
AcDbEntity
8
SK1
62
256
6
ByLayer
370
18
48
1
60
0
100
AcDbSpline
70
4
71
3
72
26
73
22
40
0
40
0
40
0
40
0
40
0.25
40
0.25
40
0.375
40
0.375
40
0.4375
40
0.4375
40
0.46875
40
0.46875
40
0.5
40
0.5
40
0.625
40
0.625
40
0.75
40
0.75
40
0.875
40
0.875
40
0.9375
40
0.9375
40
1
40
1
40
1
40
1
41
1
10
-1.7
20
-2.5837772973461
30
0
41
1
10
-1.76613065886879
20
-2.16784704245339
30
0
41
1
10
-1.82316215686583
20
-1.74568146733012
30
0
41
1
10
-1.88427766240593
20
-1.09995043784016
30
0
41
1
10
-1.90057185673113
20
-0.882620801089502
30
0
41
1
10
-1.9171940899932
20
-0.552958450347262
30
0
41
1
10
-1.92143351430276
20
-0.442459814342214
30
0
41
1
10
-1.92571062209051
20
-0.275747908317783
30
0
41
1
10
-1.92678890529307
20
-0.219949147197752
30
0
41
1
10
-1.92821915648834
20
-0.108715900509111
30
0
41
1
10
-1.92857376506792
20
-0.0532112388235646
30
0
41
1
10
-1.92852601927952
20
0.2237512458141
30
0
41
1
10
-1.92269285742202
20
0.443534065874189
30
0
41
1
10
-1.90073152159664
20
0.879827175945763
30
0
41
1
10
-1.88456941336776
20
1.09633072422011
30
0
41
1
10
-1.84395869573467
20
1.52647783394633
30
0
41
1
10
-1.8194991935238
20
1.74011907259901
30
0
41
1
10
-1.7779104307611
20
2.05868937391
30
0
41
1
10
-1.76321329032666
20
2.16467276723154
30
0
41
1
10
-1.73252928227532
20
2.37518275958954
30
0
41
1
10
-1.71653480458672
20
2.47978185665878
30
0
41
1
10
-1.7
20
2.58377808521786
30
0
0
SPLINE
5
139
100
AcDbEntity
8
SK1
62
256
6
ByLayer
370
18
48
1
60
0
100
AcDbSpline
70
4
71
3
72
10
73
6
40
0
40
0
40
0
40
0
40
0.5
40
0.5
40
1
40
1
40
1
40
1
41
1
10
-0.200000000000003
20
5.72778184890603
30
0
41
1
10
-0.157172721739357
20
5.64514020005359
30
0
41
1
10
-0.121003677024518
20
5.56020239791641
30
0
41
1
10
-0.0556335917865312
20
5.38729149656763
30
0
41
1
10
-0.0266023831371314
20
5.29927497731066
30
0
41
1
10
1.279E-13
20
5.20997889399882
30
0
0
SPLINE
5
13A
100
AcDbEntity
8
SK1
62
256
6
ByLayer
370
18
48
1
60
0
100
AcDbSpline
70
4
71
3
72
26
73
22
40
0
40
0
40
0
40
0
40
0.250000000000002
40
0.250000000000002
40
0.500000000000003
40
0.500000000000003
40
0.625000000000003
40
0.625000000000003
40
0.750000000000003
40
0.750000000000003
40
0.812500000000002
40
0.812500000000002
40
0.875000000000001
40
0.875000000000001
40
0.906250000000001
40
0.906250000000001
40
0.937500000000001
40
0.937500000000001
40
0.96875
40
0.96875
40
1
40
1
40
1
40
1
41
1
10
-0.200000000000003
20
14.0005306290776
30
0
41
1
10
-0.200325526921617
20
13.992937784021
30
0
41
1
10
-0.201888714477079
20
13.9843134154885
30
0
41
1
10
-0.208628515439116
20
13.9645912547913
30
0
41
1
10
-0.213720500579399
20
13.9535077777846
30
0
41
1
10
-0.226297832831563
20
13.9343664914099
30
0
41
1
10
-0.231313142997905
20
13.9275805879124
30
0
41
1
10
-0.244061293421098
20
13.9129349686681
30
0
41
1
10
-0.251728467015695
20
13.9050753946242
30
0
41
1
10
-0.267181679795726
20
13.8922335922221
30
0
41
1
10
-0.272997114041203
20
13.887771829979
30
0
41
1
10
-0.287128669286219
20
13.8782791877473
30
0
41
1
10
-0.295478263319012
20
13.8731651598702
30
0
41
1
10
-0.312091372528229
20
13.8650224034849
30
0
41
1
10
-0.318321797663046
20
13.8622381003803
30
0
41
1
10
-0.332666868372428
20
13.8567559126218
30
0
41
1
10
-0.340987965989854
20
13.8540289822524
30
0
41
1
10
-0.357916858937614
20
13.8496085548522
30
0
41
1
10
-0.366389783354194
20
13.8479390392461
30
0
41
1
10
-0.381642090740314
20
13.8456762078259
30
0
41
1
10
-0.388584792589526
20
13.845025452913
30
0
41
1
10
-0.394913799814603
20
13.8446595289409
30
0
0
SPLINE
5
13B
100
AcDbEntity
8
SK1
62
256
6
ByLayer
370
18
48
1
60
0
100
AcDbSpline
70
4
71
3
72
10
73
6
40
0
40
0
40
0
40
0
40
0.5
40
0.5
40
1
40
1
40
1
40
1
41
1
10
-0.200000000000003
20
-14.0062758716595
30
0
41
1
10
-0.157182679471191
20
-14.0145317664403
30
0
41
1
10
-0.1210145466532
20
-14.0220023344625
30
0
41
1
10
-0.055637756076365
20
-14.0349846176618
30
0
41
1
10
-0.0266012172124306
20
-14.0405022588021
30
0
41
1
10
1.279E-13
20
-14.0449296999054
30
0
0
SPLINE
5
13C
100
AcDbEntity
8
SK1
62
256
6
ByLayer
370
18
48
1
60
0
100
AcDbSpline
70
4
71
3
72
39
73
35
40
0
40
0
40
0
40
0
40
0.0170751870699796
40
0.0454824704317543
40
0.073889753793529
40
0.102297037155304
40
0.159111603878853
40
0.215926170602402
40
0.244333453964177
40
0.272740737325952
40
0.329555304049501
40
0.357962587411276
40
0.386369870773051
40
0.414777154134825
40
0.4431844374966
40
0.471591720858375
40
0.485795362539262
40
0.499999004220149
40
0.514202645901037
40
0.528406287581924
40
0.556813570943699
40
0.585220854305474
40
0.613628137667248
40
0.642035421029023
40
0.670442704390797
40
0.727257271114347
40
0.755664554476122
40
0.784071837837896
40
0.840886404561446
40
0.897700971284995
40
0.92610825464677
40
0.954515538008544
40
0.982922821370319
40
1
40
1
40
1
40
1
41
1
10
-24
20
-12.6307589345572
30
0
41
1
10
-24
20
-12.6271435109388
30
0
41
1
10
-24
20
-12.5984157646117
30
0
41
1
10
-24
20
-12.4743692733745
30
0
41
1
10
-24
20
-12.2301460729139
30
0
41
1
10
-24
20
-11.7782448377075
30
0
41
1
10
-24
20
-11.0029089912388
30
0
41
1
10
-24
20
-9.97333275207072
30
0
41
1
10
-24
20
-9.00198709358406
30
0
41
1
10
-24
20
-7.94098139760015
30
0
41
1
10
-24
20
-6.76812911518888
30
0
41
1
10
-24
20
-5.45799609225455
30
0
41
1
10
-24
20
-4.4275375451636
30
0
41
1
10
-24
20
-3.35000208235886
30
0
41
1
10
-24
20
-2.23771697460674
30
0
41
1
10
-24
20
-1.30515943417129
30
0
41
1
10
-24
20
-0.551100895559586
30
0
41
1
10
-24
20
2.454147534E-07
30
0
41
1
10
-24
20
0.551100854738905
30
0
41
1
10
-24
20
1.30515932004789
30
0
41
1
10
-24
20
2.23771741989395
30
0
41
1
10
-24
20
3.35000222974924
30
0
41
1
10
-24
20
4.42753733029454
30
0
41
1
10
-24
20
5.4579963756465
30
0
41
1
10
-24
20
6.76812921007331
30
0
41
1
10
-24
20
7.94098140173097
30
0
41
1
10
-24
20
9.00198713477033
30
0
41
1
10
-24
20
9.97333247862687
30
0
41
1
10
-24
20
11.0029092636263
30
0
41
1
10
-24
20
11.778244241418
30
0
41
1
10
-24
20
12.230146179188
30
0
41
1
10
-24
20
12.4743689830171
30
0
41
1
10
-24
20
12.5984186688688
30
0
41
1
10
-24
20
12.6271458351255
30
0
41
1
10
-24
20
12.6307600654029
30
0
0
SPLINE
5
13D
100
AcDbEntity
8
SK1
62
256
6
ByLayer
370
18
48
1
60
0
100
AcDbSpline
70
4
71
3
72
36
73
32
40
0
40
0
40
0
40
0
40
0.250000000000004
40
0.250000000000004
40
0.375000000000006
40
0.375000000000006
40
0.437500000000007
40
0.437500000000007
40
0.468750000000006
40
0.468750000000006
40
0.500000000000006
40
0.500000000000006
40
0.515625000000006
40
0.515625000000006
40
0.531250000000006
40
0.531250000000006
40
0.546875000000006
40
0.546875000000006
40
0.562500000000006
40
0.562500000000006
40
0.593750000000005
40
0.593750000000005
40
0.625000000000005
40
0.625000000000005
40
0.687500000000004
40
0.687500000000004
40
0.750000000000004
40
0.750000000000004
40
0.875000000000002
40
0.875000000000002
40
1
40
1
40
1
40
1
41
1
10
-1.4950399779393
20
-2.59572866980207
30
0
41
1
10
-1.51026123722426
20
-2.50301277869451
30
0
41
1
10
-1.52651109107333
20
-2.41049873555426
30
0
41
1
10
-1.55477059605045
20
-2.27328358340645
30
0
41
1
10
-1.56481458786159
20
-2.22773052667011
30
0
41
1
10
-1.58228349561361
20
-2.16081267675358
30
0
41
1
10
-1.58850203306017
20
-2.13871110702209
30
0
41
1
10
-1.59920684184669
20
-2.10654042134601
30
0
41
1
10
-1.60299914819272
20
-2.09599696577917
30
0
41
1
10
-1.61148455352219
20
-2.07564920040716
30
0
41
1
10
-1.61613906919172
20
-2.06569139229708
30
0
41
1
10
-1.6247719553967
20
-2.05301401466033
30
0
41
1
10
-1.62793524211693
20
-2.04911817380773
30
0
41
1
10
-1.63551376705205
20
-2.04375885060364
30
0
41
1
10
-1.64013457652256
20
-2.04268510019753
30
0
41
1
10
-1.6486467847799
20
-2.04701800620327
30
0
41
1
10
-1.6522026415935
20
-2.05183497913649
30
0
41
1
10
-1.65780271049222
20
-2.06209889338817
30
0
41
1
10
-1.66005581238066
20
-2.06781172737584
30
0
41
1
10
-1.66591854409184
20
-2.08507186161106
30
0
41
1
10
-1.66875252659077
20
-2.09702122709587
30
0
41
1
10
-1.67370679113645
20
-2.12121687034789
30
0
41
1
10
-1.67575012136609
20
-2.13342095957745
30
0
41
1
10
-1.68115380351306
20
-2.16993349213513
30
0
41
1
10
-1.68382251839569
20
-2.19430149785691
30
0
41
1
10
-1.68832031406804
20
-2.24305704289927
30
0
41
1
10
-1.69011547560278
20
-2.26744567235369
30
0
41
1
10
-1.69465688317243
20
-2.34062742639421
30
0
41
1
10
-1.69657077641123
20
-2.38945991149208
30
0
41
1
10
-1.69915633746155
20
-2.48678291130116
30
0
41
1
10
-1.69980436369318
20
-2.53532682713819
30
0
41
1
10
-1.7
20
-2.5837772973461
30
0
0
SPLINE
5
13E
100
AcDbEntity
8
SK1
62
256
6
ByLayer
370
18
48
1
60
0
100
AcDbSpline
70
4
71
3
72
8
73
4
40
0
40
0
40
0
40
0
40
1
40
1
40
1
40
1
41
0.980125716641701
10
-0.200000000000016
20
5.67845201644864
30
0
41
0.980125716641701
10
-0.200000000000016
20
5.70585523578354
30
0
41
0.980125716641701
10
-0.200000000000016
20
5.73319824959818
30
0
41
0.980125716641701
10
-0.200000000000016
20
5.76048101644861
30
0
0
SPLINE
5
13F
100
AcDbEntity
8
SK1
62
256
6
ByLayer
370
18
48
1
60
0
100
AcDbSpline
70
4
71
3
72
17
73
13
40
0
40
0
40
0
40
0
40
0.0421873368484342
40
0.12297759878498
40
0.284558122658071
40
0.365348384594616
40
0.446138646531162
40
0.607719170404253
40
0.769299694277345
40
0.85008995621389
40
0.930880218150436
40
1
40
1
40
1
40
1
41
1
10
-0.200000000000003
20
-5.72778130128842
30
0
41
1
10
-0.200000000000003
20
-5.92516046675928
30
0
41
1
10
-0.200000000000003
20
-6.49136818680859
30
0
41
1
10
-0.200000000000003
20
-7.73942948440458
30
0
41
1
10
-0.200000000000003
20
-9.01842193523453
30
0
41
1
10
-0.200000000000003
20
-10.1531439090037
30
0
41
1
10
-0.200000000000003
20
-11.190178426912
30
0
41
1
10
-0.200000000000003
20
-12.2979981524201
30
0
41
1
10
-0.200000000000003
20
-13.13423545176
30
0
41
1
10
-0.200000000000003
20
-13.6197110427926
30
0
41
1
10
-0.200000000000003
20
-13.8722047207609
30
0
41
1
10
-0.200000000000003
20
-13.9739667699685
30
0
41
1
10
-0.200000000000003
20
-14.0062758716595
30
0
0
SPLINE
5
140
100
AcDbEntity
8
1
62
256
6
ByLayer
370
18
48
1
60
0
100
AcDbSpline
70
4
71
3
72
18
73
14
40
0
40
0
40
0
40
0
40
0.250000000000003
40
0.250000000000003
40
0.500000000000006
40
0.500000000000006
40
0.625000000000005
40
0.625000000000005
40
0.750000000000003
40
0.750000000000003
40
0.875000000000002
40
0.875000000000002
40
1
40
1
40
1
40
1
41
1
10
9.33660254037858
20
6.16973001948577
30
0
41
1
10
9.32721186043494
20
6.13568757087472
30
0
41
1
10
9.31597445228977
20
6.10231901184949
30
0
41
1
10
9.28852371889997
20
6.03742672607433
30
0
41
1
10
9.27226224655621
20
6.00567161829611
30
0
41
1
10
9.2421773079827
20
5.96102885758611
30
0
41
1
10
9.23126332140683
20
5.94676259304853
30
0
41
1
10
9.20699632571436
20
5.9199301070316
30
0
41
1
10
9.19372453113988
20
5.90747721696036
30
0
41
1
10
9.1646877544699
20
5.88590801224899
30
0
41
1
10
9.14852956001863
20
5.87657212596483
30
0
41
1
10
9.11408210674728
20
5.8635821694487
30
0
41
1
10
9.0955561358237
20
5.85988980456941
30
0
41
1
10
9.07679491924327
20
5.85988980456941
30
0
0
SPLINE
5
141
100
AcDbEntity
8
1
62
256
6
ByLayer
370
18
48
1
60
0
100
AcDbSpline
70
4
71
3
72
16
73
12
40
0
40
0
40
0
40
0
40
0.125000000000003
40
0.125000000000003
40
0.250000000000006
40
0.250000000000006
40
0.500000000000004
40
0.500000000000004
40
0.750000000000002
40
0.750000000000002
40
1
40
1
40
1
40
1
41
1
10
6.92320508075687
20
-19.1222825906926
30
0
41
1
10
6.90441904704289
20
-19.1222825906926
30
0
41
1
10
6.88615093812098
20
-19.1211757542148
30
0
41
1
10
6.85140047601269
20
-19.1171586755843
30
0
41
1
10
6.83557582658116
20
-19.1143521510704
30
0
41
1
10
6.79136513419885
20
-19.1042242696216
30
0
41
1
10
6.7678647176848
20
-19.0956673725615
30
0
41
1
10
6.72774154010145
20
-19.0770274497583
30
0
41
1
10
6.71161954962213
20
-19.06709867989
30
0
41
1
10
6.68411546052437
20
-19.0464153092313
30
0
41
1
10
6.67279157843183
20
-19.0356185274184
30
0
41
1
10
6.66339745962154
20
-19.0245744101322
30
0
0
SPLINE
5
142
100
AcDbEntity
8
1
62
256
6
ByLayer
370
18
48
1
60
0
100
AcDbSpline
70
4
71
3
72
14
73
10
40
0
40
0
40
0
40
0
40
0.25
40
0.25
40
0.5
40
0.5
40
0.75
40
0.75
40
1
40
1
40
1
40
1
41
1
10
32.3245
20
-14.9758371977788
30
0
41
1
10
32.3245
20
-14.975010151807
30
0
41
1
10
32.322284241245
20
-14.9763656213642
30
0
41
1
10
32.3141413209643
20
-14.9828977215668
30
0
41
1
10
32.3081754435487
20
-14.9880969690085
30
0
41
1
10
32.294114874461
20
-15.0008084921357
30
0
41
1
10
32.285849928106
20
-15.0084721201479
30
0
41
1
10
32.2684278986169
20
-15.0248841894914
30
0
41
1
10
32.2591822534426
20
-15.0337112138913
30
0
41
1
10
32.2495
20
-15.0430495027661
30
0
0
SPLINE
5
143
100
AcDbEntity
8
1
62
256
6
ByLayer
370
18
48
1
60
0
100
AcDbSpline
70
4
71
3
72
8
73
4
40
0
40
0
40
0
40
0
40
1
40
1
40
1
40
1
41
1
10
31.6055
20
-5.14606797072287
30
0
41
1
10
31.8291937177752
20
-4.83553746428422
30
0
41
1
10
32.0449699968917
20
-4.51789503674206
30
0
41
1
10
32.2495
20
-4.19015052554323
30
0
0
SPLINE
5
144
100
AcDbEntity
8
1
62
256
6
ByLayer
370
18
48
1
60
0
100
AcDbSpline
70
4
71
3
72
14
73
10
40
0
40
0
40
0
40
0
40
0.25
40
0.25
40
0.5
40
0.5
40
0.75
40
0.75
40
1
40
1
40
1
40
1
41
1
10
32.3245000000001
20
-11.3117925379056
30
0
41
1
10
32.3245000000001
20
-11.3022737101784
30
0
41
1
10
32.3233318074937
20
-11.2936444727468
30
0
41
1
10
32.3174234147178
20
-11.2798827003035
30
0
41
1
10
32.3124953438838
20
-11.2747976904737
30
0
41
1
10
32.2985522443744
20
-11.271350662108
30
0
41
1
10
32.2894699974785
20
-11.2730825694772
30
0
41
1
10
32.2701153004325
20
-11.2820591512471
30
0
41
1
10
32.2596744834381
20
-11.2892245618826
30
0
41
1
10
32.2495
20
-11.2976112695866
30
0
0
SPLINE
5
145
100
AcDbEntity
8
1
62
256
6
ByLayer
370
18
48
1
60
0
100
AcDbSpline
70
4
71
3
72
18
73
14
40
0
40
0
40
0
40
0
40
0.125
40
0.125
40
0.1875
40
0.1875
40
0.25
40
0.25
40
0.5
40
0.5
40
0.75
40
0.75
40
1
40
1
40
1
40
1
41
1
10
31.6055
20
4.20101850039947
30
0
41
1
10
31.6653563685371
20
3.85245031258125
30
0
41
1
10
31.7181483814523
20
3.50248654513476
30
0
41
1
10
31.7863367406578
20
2.97536788591313
30
0
41
1
10
31.8072166984996
20
2.79940069396287
30
0
41
1
10
31.8451469744491
20
2.44784254590073
30
0
41
1
10
31.8622142434029
20
2.27212423027103
30
0
41
1
10
31.9380409431601
20
1.39383709401099
30
0
41
1
10
31.9682355588567
20
0.692182747710859
30
0
41
1
10
31.9677439738684
20
-0.70917690571045
30
0
41
1
10
31.9370590393874
20
-1.40888225336786
30
0
41
1
10
31.8157677485281
20
-2.80637462357015
30
0
41
1
10
31.7251647191855
20
-3.50416175262677
30
0
41
1
10
31.6055
20
-4.20101850039947
30
0
0
SPLINE
5
146
100
AcDbEntity
8
1
62
256
6
ByLayer
370
18
48
1
60
0
100
AcDbSpline
70
4
71
3
72
14
73
10
40
0
40
0
40
0
40
0
40
0.25
40
0.25
40
0.5
40
0.5
40
0.75
40
0.75
40
1
40
1
40
1
40
1
41
1
10
32.3245
20
14.8452702757127
30
0
41
1
10
32.3245
20
14.8474896268639
30
0
41
1
10
32.3220763784452
20
14.85209027778
30
0
41
1
10
32.3137640620137
20
14.8643294617756
30
0
41
1
10
32.3078186277286
20
14.8720753006388
30
0
41
1
10
32.2939475664615
20
14.8890954270051
30
0
41
1
10
32.2858524647832
20
14.8985829276961
30
0
41
1
10
32.2685183220492
20
14.9183056164328
30
0
41
1
10
32.2592599624489
20
14.9285701418024
30
0
41
1
10
32.2495
20
14.9391803988928
30
0
0
SPLINE
5
147
100
AcDbEntity
8
1
62
256
6
ByLayer
370
18
48
1
60
0
100
AcDbSpline
70
4
71
3
72
20
73
16
40
0
40
0
40
0
40
0
40
0.125000000000007
40
0.125000000000007
40
0.187500000000011
40
0.187500000000011
40
0.250000000000015
40
0.250000000000015
40
0.37500000000001
40
0.37500000000001
40
0.500000000000004
40
0.500000000000004
40
0.750000000000002
40
0.750000000000002
40
1
40
1
40
1
40
1
41
1
10
31.6055
20
11.8282288061873
30
0
41
1
10
31.5906092734133
20
11.8404929255935
30
0
41
1
10
31.5751942192751
20
11.8504811784598
30
0
41
1
10
31.554890008181
20
11.8568070994773
30
0
41
1
10
31.5487346821653
20
11.8574297155083
30
0
41
1
10
31.5381321528147
20
11.8554795242796
30
0
41
1
10
31.5338980630895
20
11.8529899232154
30
0
41
1
10
31.5238336836561
20
11.8417594961778
30
0
41
1
10
31.5210592914158
20
11.8296427680004
30
0
41
1
10
31.5200966597094
20
11.8027113601616
30
0
41
1
10
31.5217997890807
20
11.7877083777646
30
0
41
1
10
31.530979007161
20
11.7398052885815
30
0
41
1
10
31.5423114350604
20
11.7050551734654
30
0
41
1
10
31.5701098531134
20
11.6349536893476
30
0
41
1
10
31.5866332660355
20
11.5995661446199
30
0
41
1
10
31.6055
20
11.5638910107493
30
0
0
SPLINE
5
148
100
AcDbEntity
8
1
62
256
6
ByLayer
370
18
48
1
60
0
100
AcDbSpline
70
4
71
3
72
18
73
14
40
0
40
0
40
0
40
0
40
0.249999999999998
40
0.249999999999998
40
0.499999999999995
40
0.499999999999995
40
0.624999999999996
40
0.624999999999996
40
0.749999999999998
40
0.749999999999998
40
0.874999999999999
40
0.874999999999999
40
1
40
1
40
1
40
1
41
1
10
6.66339745962154
20
19.0245744101322
30
0
41
1
10
6.67278813956517
20
19.0356144845436
30
0
41
1
10
6.68402554771032
20
19.0463346141653
30
0
41
1
10
6.71147628110015
20
19.0670039094876
30
0
41
1
10
6.7277377534439
20
19.0770249518318
30
0
41
1
10
6.75782269201741
20
19.0910025433169
30
0
41
1
10
6.76873667859329
20
19.0954500347066
30
0
41
1
10
6.79300367428576
20
19.1037856168331
30
0
41
1
10
6.80627546886024
20
19.1076382714245
30
0
41
1
10
6.83531224553022
20
19.1142934541629
30
0
41
1
10
6.85147043998148
20
19.1171636549363
30
0
41
1
10
6.88591789325287
20
19.1211519083817
30
0
41
1
10
6.90444386417642
20
19.1222825906926
30
0
41
1
10
6.92320508075687
20
19.1222825906926
30
0
0
SPLINE
5
149
100
AcDbEntity
8
1
62
256
6
ByLayer
370
18
48
1
60
0
100
AcDbSpline
70
4
71
3
72
8
73
4
40
0
40
0
40
0
40
0
40
1
40
1
40
1
40
1
41
1
10
31.6055
20
9.97656766390921
30
0
41
1
10
31.8332755239774
20
9.45756757526462
30
0
41
1
10
32.0485705188501
20
8.93177794735095
30
0
41
1
10
32.2495
20
8.39817332868469
30
0
0
SPLINE
5
14A
100
AcDbEntity
8
1
62
256
6
ByLayer
370
18
48
1
60
0
100
AcDbSpline
70
4
71
3
72
14
73
10
40
0
40
0
40
0
40
0
40
0.25
40
0.25
40
0.5
40
0.5
40
0.75
40
0.75
40
1
40
1
40
1
40
1
41
1
10
32.2495
20
11.2976112695867
30
0
41
1
10
32.2596835276341
20
11.2892171068577
30
0
41
1
10
32.2700881623099
20
11.2820602997862
30
0
41
1
10
32.2896412795497
20
11.2730146525224
30
0
41
1
10
32.2987161672675
20
11.2713427533697
30
0
41
1
10
32.3126080537397
20
11.2748749611696
30
0
41
1
10
32.3174509941179
20
11.2799276064818
30
0
41
1
10
32.3233327606758
20
11.2936661183256
30
0
41
1
10
32.3245000000031
20
11.3023536797773
30
0
41
1
10
32.324500000003
20
11.3117925379033
30
0
0
SPLINE
5
14B
100
AcDbEntity
8
1
62
256
6
ByLayer
370
18
48
1
60
0
100
AcDbSpline
70
4
71
3
72
8
73
4
40
0
40
0
40
0
40
0
40
1
40
1
40
1
40
1
41
1
10
31.6055
20
-11.8282288061869
30
0
41
1
10
31.8201958861166
20
-11.6514035876185
30
0
41
1
10
32.0348639249866
20
-11.4745332759798
30
0
41
1
10
32.2495
20
-11.2976112695869
30
0
0
SPLINE
5
14C
100
AcDbEntity
8
1
62
256
6
ByLayer
370
18
48
1
60
0
100
AcDbSpline
70
4
71
3
72
8
73
4
40
0
40
0
40
0
40
0
40
1
40
1
40
1
40
1
41
1
10
32.2495
20
12.4631018098503
30
0
41
1
10
32.0348340263955
20
12.6384177707854
30
0
41
1
10
31.8201673316658
20
12.8137325544141
30
0
41
1
10
31.6055
20
12.9890462981537
30
0
0
SPLINE
5
14D
100
AcDbEntity
8
1
62
256
6
ByLayer
370
18
48
1
60
0
100
AcDbSpline
70
4
71
3
72
12
73
8
40
0
40
0
40
0
40
0
40
0.250000000000001
40
0.250000000000001
40
0.500000000000001
40
0.500000000000001
40
1
40
1
40
1
40
1
41
1
10
32.3245
20
4.98070765025406
30
0
41
1
10
32.3245
20
5.02669016522975
30
0
41
1
10
32.3220433117484
20
5.0731194125101
30
0
41
1
10
32.3143532365692
20
5.16642988938
30
0
41
1
10
32.3090430784869
20
5.21332705292204
30
0
41
1
10
32.289529013447
20
5.35457951486467
30
0
41
1
10
32.2719698398409
20
5.44883663463028
30
0
41
1
10
32.2495000000002
20
5.5427611875875
30
0
0
SPLINE
5
14E
100
AcDbEntity
8
1
62
256
6
ByLayer
370
18
48
1
60
0
100
AcDbSpline
70
4
71
3
72
14
73
10
40
0
40
0
40
0
40
0
40
0.25
40
0.25
40
0.5
40
0.5
40
0.75
40
0.75
40
1
40
1
40
1
40
1
41
1
10
32.2495
20
-14.9391803988928
30
0
41
1
10
32.2592688422695
20
-14.9285604883658
30
0
41
1
10
32.268549517462
20
-14.9182714615189
30
0
41
1
10
32.285948126181
20
-14.8984727358577
30
0
41
1
10
32.2939811056152
20
-14.8890552087862
30
0
41
1
10
32.3078292065754
20
-14.8720613820255
30
0
41
1
10
32.3137760629921
20
-14.8643141815311
30
0
41
1
10
32.322094334401
20
-14.8520614403499
30
0
41
1
10
32.3245
20
-14.8474829490225
30
0
41
1
10
32.3245
20
-14.8452702757127
30
0
0
SPLINE
5
14F
100
AcDbEntity
8
1
62
256
6
ByLayer
370
18
48
1
60
0
100
AcDbSpline
70
4
71
3
72
18
73
14
40
0
40
0
40
0
40
0
40
0.249739344334741
40
0.249739344334741
40
0.499478688669482
40
0.499478688669482
40
0.749218033004224
40
0.749218033004224
40
0.874087705171594
40
0.874087705171594
40
0.998957377338965
40
0.998957377338965
40
1
40
1
40
1
40
1
41
1
10
31.6055
20
-15.718310532624
30
0
41
1
10
31.5944754996679
20
-15.7293951337895
30
0
41
1
10
31.5838078688338
20
-15.7401326622105
30
0
41
1
10
31.5640893453649
20
-15.7599977126049
30
0
41
1
10
31.5550223235927
20
-15.7691413037976
30
0
41
1
10
31.5390096076375
20
-15.7852999128294
30
0
41
1
10
31.5323333626195
20
-15.7920430117566
30
0
41
1
10
31.5253372180741
20
-15.7991113050268
30
0
41
1
10
31.523538259436
20
-15.8009292985165
30
0
41
1
10
31.5211013483995
20
-15.8033921482608
30
0
41
1
10
31.5204830275985
20
-15.8040171549694
30
0
41
1
10
31.5205000179879
20
-15.8039999818186
30
0
41
1
10
31.5205007213674
20
-15.8039992708635
30
0
41
1
10
31.5205014247281
20
-15.8039985598897
30
0
0
SPLINE
5
150
100
AcDbEntity
8
1
62
256
6
ByLayer
370
18
48
1
60
0
100
AcDbSpline
70
4
71
3
72
14
73
10
40
0
40
0
40
0
40
0
40
0.25
40
0.25
40
0.5
40
0.5
40
0.75
40
0.75
40
1
40
1
40
1
40
1
41
1
10
32.2495
20
15.0430495027661
30
0
41
1
10
32.2592482878273
20
15.0336475253952
30
0
41
1
10
32.2685465544727
20
15.0247712727701
30
0
41
1
10
32.285982030222
20
15.0083488319076
30
0
41
1
10
32.2942152401408
20
15.0007164845316
30
0
41
1
10
32.3082186343777
20
14.988059206774
30
0
41
1
10
32.3141667305962
20
14.9828763154634
30
0
41
1
10
32.3222899299582
20
14.9763620848711
30
0
41
1
10
32.3245
20
14.9750110107122
30
0
41
1
10
32.3245
20
14.9758371977788
30
0
0
SPLINE
5
151
100
AcDbEntity
8
1
62
256
6
ByLayer
370
18
48
1
60
0
100
AcDbSpline
70
4
71
3
72
14
73
10
40
0
40
0
40
0
40
0
40
0.25
40
0.25
40
0.5
40
0.5
40
0.75
40
0.75
40
1
40
1
40
1
40
1
41
1
10
32.2495
20
-15.0660620158908
30
0
41
1
10
32.2592166204734
20
-15.0561463656865
30
0
41
1
10
32.2684720146339
20
-15.0466489518061
30
0
41
1
10
32.2858690552033
20
-15.0286546331068
30
0
41
1
10
32.2940267270367
20
-15.0201387406935
30
0
41
1
10
32.3079660685478
20
-15.0053613830818
30
0
41
1
10
32.3139294881319
20
-14.9989051291788
30
0
41
1
10
32.3221800478486
20
-14.9895483664142
30
0
41
1
10
32.3245
20
-14.9866030081846
30
0
41
1
10
32.3245
20
-14.9859559143441
30
0
0
SPLINE
5
152
100
AcDbEntity
8
1
62
256
6
ByLayer
370
18
48
1
60
0
100
AcDbSpline
70
4
71
3
72
8
73
4
40
0
40
0
40
0
40
0
40
1
40
1
40
1
40
1
41
1
10
32.2495
20
-13.5925630387594
30
0
41
1
10
32.0373626674526
20
-13.8865772022682
30
0
41
1
10
31.8225986716763
20
-14.1780125340789
30
0
41
1
10
31.6055
20
-14.467155704432
30
0
0
SPLINE
5
153
100
AcDbEntity
8
1
62
256
6
ByLayer
370
18
48
1
60
0
100
AcDbSpline
70
4
71
3
72
16
73
12
40
0
40
0
40
0
40
0
40
0.250000000000006
40
0.250000000000006
40
0.500000000000011
40
0.500000000000011
40
0.625000000000014
40
0.625000000000014
40
0.750000000000017
40
0.750000000000017
40
1
40
1
40
1
40
1
41
1
10
32.3245000000002
20
-13.3440248877616
30
0
41
1
10
32.3245000000002
20
-13.3376595306224
30
0
41
1
10
32.3229146038589
20
-13.3325991795629
30
0
41
1
10
32.3158401522479
20
-13.3269320790377
30
0
41
1
10
32.3102642210667
20
-13.3263649696745
30
0
41
1
10
32.2996424940577
20
-13.3291178545167
30
0
41
1
10
32.29565583939
20
-13.3306437571249
30
0
41
1
10
32.2872881296794
20
-13.3346490450637
30
0
41
1
10
32.2828807042835
20
-13.3371263174271
30
0
41
1
10
32.2690778203386
20
-13.345794578896
30
0
41
1
10
32.259328441041
20
-13.3530804624865
30
0
41
1
10
32.2495
20
-13.3612047752696
30
0
0
SPLINE
5
154
100
AcDbEntity
8
1
62
256
6
ByLayer
370
18
48
1
60
0
100
AcDbSpline
70
4
71
3
72
14
73
10
40
0
40
0
40
0
40
0
40
0.249787809827236
40
0.249787809827236
40
0.499858539884824
40
0.499858539884824
40
0.749929269942412
40
0.749929269942412
40
1
40
1
40
1
40
1
41
1
10
31.5205004918184
20
15.8039995028894
30
0
41
1
10
31.5205409761186
20
15.8039585820752
30
0
41
1
10
31.5231637642435
20
15.8013071251999
30
0
41
1
10
31.5325154208193
20
15.7918591255599
30
0
41
1
10
31.5392913352133
20
15.7850155171327
30
0
41
1
10
31.5551564238929
20
15.7690060856687
30
0
41
1
10
31.5644404254051
20
15.7596438308681
30
0
41
1
10
31.584094636967
20
15.7398439623325
30
0
41
1
10
31.5945399473858
20
15.7293303347303
30
0
41
1
10
31.6055
20
15.718310532624
30
0
0
SPLINE
5
155
100
AcDbEntity
8
1
62
256
6
ByLayer
370
18
48
1
60
0
100
AcDbSpline
70
4
71
3
72
18
73
14
40
0
40
0
40
0
40
0
40
0.250000000000004
40
0.250000000000004
40
0.500000000000008
40
0.500000000000008
40
0.625000000000006
40
0.625000000000006
40
0.750000000000004
40
0.750000000000004
40
0.875000000000002
40
0.875000000000002
40
1
40
1
40
1
40
1
41
1
10
6.66339745962154
20
-6.16973001948571
30
0
41
1
10
6.67278813956517
20
-6.13568757087464
30
0
41
1
10
6.68402554771035
20
-6.10231901184946
30
0
41
1
10
6.71147628110015
20
-6.0374267260743
30
0
41
1
10
6.72773775344393
20
-6.00567161829605
30
0
41
1
10
6.75782269201744
20
-5.96102885758609
30
0
41
1
10
6.76873667859329
20
-5.9467625930485
30
0
41
1
10
6.79300367428576
20
-5.91993010703158
30
0
41
1
10
6.80627546886026
20
-5.9074772169603
30
0
41
1
10
6.83531224553022
20
-5.88590801224896
30
0
41
1
10
6.85147043998148
20
-5.8765721259648
30
0
41
1
10
6.88591789325287
20
-5.86358216944865
30
0
41
1
10
6.90444386417642
20
-5.85988980456935
30
0
41
1
10
6.92320508075687
20
-5.85988980456935
30
0
0
SPLINE
5
156
100
AcDbEntity
8
1
62
256
6
ByLayer
370
18
48
1
60
0
100
AcDbSpline
70
4
71
3
72
12
73
8
40
0
40
0
40
0
40
0
40
0.499999999999994
40
0.499999999999994
40
0.749999999999997
40
0.749999999999997
40
1
40
1
40
1
40
1
41
1
10
32.2495000000002
20
-8.39817332868466
30
0
41
1
10
32.2709168268862
20
-8.3412970670326
30
0
41
1
10
32.2883123214796
20
-8.28465038938933
30
0
41
1
10
32.3081813848248
20
-8.20000277725302
30
0
41
1
10
32.313761770269
20
-8.17168821492066
30
0
41
1
10
32.3218859548331
20
-8.11599240616354
30
0
41
1
10
32.3245
20
-8.08872070987101
30
0
41
1
10
32.3245
20
-8.06252279407673
30
0
0
SPLINE
5
157
100
AcDbEntity
8
1
62
256
6
ByLayer
370
18
48
1
60
0
100
AcDbSpline
70
4
71
3
72
14
73
10
40
0
40
0
40
0
40
0
40
0.25
40
0.25
40
0.5
40
0.5
40
0.75
40
0.75
40
1
40
1
40
1
40
1
41
1
10
32.3245
20
14.5494063264194
30
0
41
1
10
32.3245
20
14.5533590303348
30
0
41
1
10
32.3220088954186
20
14.5596527303941
30
0
41
1
10
32.3135855874194
20
14.575066302088
30
0
41
1
10
32.3076971778658
20
14.5841317246029
30
0
41
1
10
32.2938373153333
20
14.6036837627801
30
0
41
1
10
32.2857800589614
20
14.6142824011503
30
0
41
1
10
32.2685646263829
20
14.6359067623047
30
0
41
1
10
32.259315111979
20
14.6470584016909
30
0
41
1
10
32.2495
20
14.6585127934132
30
0
0
SPLINE
5
158
100
AcDbEntity
8
1
62
256
6
ByLayer
370
18
48
1
60
0
100
AcDbSpline
70
4
71
3
72
8
73
4
40
0
40
0
40
0
40
0
40
1
40
1
40
1
40
1
41
1
10
32.2495
20
-8.39817332868469
30
0
41
1
10
32.0485705188501
20
-8.93177794735095
30
0
41
1
10
31.8332755239774
20
-9.45756757526462
30
0
41
1
10
31.6055
20
-9.97656766390921
30
0
0
SPLINE
5
159
100
AcDbEntity
8
1
62
256
6
ByLayer
370
18
48
1
60
0
100
AcDbSpline
70
4
71
3
72
8
73
4
40
0
40
0
40
0
40
0
40
1
40
1
40
1
40
1
41
1
10
32.2495
20
4.19015052554323
30
0
41
1
10
32.0449699968897
20
4.51789503674516
30
0
41
1
10
31.8291937177712
20
4.83553746429021
30
0
41
1
10
31.6054999999937
20
5.14606797073165
30
0
0
SPLINE
5
15A
100
AcDbEntity
8
1
62
256
6
ByLayer
370
18
48
1
60
0
100
AcDbSpline
70
4
71
3
72
8
73
4
40
0
40
0
40
0
40
0
40
1
40
1
40
1
40
1
41
1
10
31.6055
20
-15.4579633817609
30
0
41
1
10
31.820484571849
20
-15.262255066409
30
0
41
1
10
32.0351628256359
20
-15.0660998220099
30
0
41
1
10
32.2495
20
-14.8694469304906
30
0
0
SPLINE
5
15B
100
AcDbEntity
8
1
62
256
6
ByLayer
370
18
48
1
60
0
100
AcDbSpline
70
4
71
3
72
8
73
4
40
0
40
0
40
0
40
0
40
1
40
1
40
1
40
1
41
1
10
31.6055
20
-12.9890462981537
30
0
41
1
10
31.8201673316658
20
-12.8137325544141
30
0
41
1
10
32.0348340263955
20
-12.6384177707854
30
0
41
1
10
32.2495
20
-12.4631018098503
30
0
0
SPLINE
5
15C
100
AcDbEntity
8
1
62
256
6
ByLayer
370
18
48
1
60
0
100
AcDbSpline
70
4
71
3
72
12
73
8
40
0
40
0
40
0
40
0
40
0.500000000000006
40
0.500000000000006
40
0.750000000000003
40
0.750000000000003
40
1
40
1
40
1
40
1
41
1
10
32.2495
20
-10.2876833609242
30
0
41
1
10
32.2704036408553
20
-10.2441256344044
30
0
41
1
10
32.2880478435167
20
-10.2001482970997
30
0
41
1
10
32.3080124871787
20
-10.1361403677178
30
0
41
1
10
32.3135979453878
20
-10.1150820310287
30
0
41
1
10
32.3218355217092
20
-10.0737358009228
30
0
41
1
10
32.3245
20
-10.0535086186836
30
0
41
1
10
32.3245
20
-10.0349937176221
30
0
0
SPLINE
5
15D
100
AcDbEntity
8
1
62
256
6
ByLayer
370
18
48
1
60
0
100
AcDbSpline
70
4
71
3
72
26
73
22
40
0
40
0
40
0
40
0
40
0.125000000000004
40
0.125000000000004
40
0.250000000000009
40
0.250000000000009
40
0.375000000000013
40
0.375000000000013
40
0.500000000000018
40
0.500000000000018
40
0.562500000000017
40
0.562500000000017
40
0.625000000000016
40
0.625000000000016
40
0.750000000000015
40
0.750000000000015
40
0.812500000000009
40
0.812500000000009
40
0.875000000000004
40
0.875000000000004
40
1
40
1
40
1
40
1
41
1
10
31.6055
20
-12.7833973678525
30
0
41
1
10
31.5958196882104
20
-12.7992998714853
30
0
41
1
10
31.5867119718737
20
-12.8151410965808
30
0
41
1
10
31.569686947017
20
-12.8466913036925
30
0
41
1
10
31.5617646247039
20
-12.8624225400771
30
0
41
1
10
31.5475953059454
20
-12.8930786011976
30
0
41
1
10
31.5412978426812
20
-12.9080832569108
30
0
41
1
10
31.5306869842944
20
-12.9372775482178
30
0
41
1
10
31.5263523278395
20
-12.9515707233827
30
0
41
1
10
31.5222623307521
20
-12.971209319552
30
0
41
1
10
31.5212914759841
20
-12.9774830882788
30
0
41
1
10
31.5203456260816
20
-12.9893418571429
30
0
41
1
10
31.5203814606916
20
-12.9949406626693
30
0
41
1
10
31.5224213013725
20
-13.0097680476882
30
0
41
1
10
31.5264612862223
20
-13.0173614351735
30
0
41
1
10
31.5378369413517
20
-13.021929377841
30
0
41
1
10
31.5424508085518
20
-13.0222907317337
30
0
41
1
10
31.5529361720568
20
-13.0206929918554
30
0
41
1
10
31.5589459803639
20
-13.0186917250436
30
0
41
1
10
31.5777643120645
20
-13.0099122184026
30
0
41
1
10
31.5917029983008
20
-13.0003139838399
30
0
41
1
10
31.6055
20
-12.9890462981539
30
0
0
SPLINE
5
15E
100
AcDbEntity
8
1
62
256
6
ByLayer
370
18
48
1
60
0
100
AcDbSpline
70
4
71
3
72
8
73
4
40
0
40
0
40
0
40
0
40
1
40
1
40
1
40
1
41
1
10
31.6055
20
-15.1043141144439
30
0
41
1
10
31.8203606627147
20
-14.916458279648
30
0
41
1
10
32.035034489883
20
-14.7283182236773
30
0
41
1
10
32.2495
20
-14.5398612680685
30
0
0
SPLINE
5
15F
100
AcDbEntity
8
1
62
256
6
ByLayer
370
18
48
1
60
0
100
AcDbSpline
70
4
71
3
72
14
73
10
40
0
40
0
40
0
40
0
40
0.25
40
0.25
40
0.5
40
0.5
40
0.75
40
0.75
40
1
40
1
40
1
40
1
41
1
10
32.3245
20
-12.4603300643647
30
0
41
1
10
32.3245
20
-12.4524473196041
30
0
41
1
10
32.323147231239
20
-12.4457545015048
30
0
41
1
10
32.3165338839139
20
-12.4362607228493
30
0
41
1
10
32.3111988494931
20
-12.4337275802809
30
0
41
1
10
32.2971316331625
20
-12.4343290038086
30
0
41
1
10
32.2882919242977
20
-12.4374757114225
30
0
41
1
10
32.26950631544
20
-12.4478125892125
30
0
41
1
10
32.2594638972546
20
-12.4549643757123
30
0
41
1
10
32.2495
20
-12.4631018098501
30
0
0
SPLINE
5
160
100
AcDbEntity
8
1
62
256
6
ByLayer
370
18
48
1
60
0
100
AcDbSpline
70
4
71
3
72
12
73
8
40
0
40
0
40
0
40
0
40
0.499999999999985
40
0.499999999999985
40
0.749999999999993
40
0.749999999999993
40
1
40
1
40
1
40
1
41
1
10
32.2495
20
-13.5925630387594
30
0
41
1
10
32.2695150228623
20
-13.5648229887937
30
0
41
1
10
32.2869943096373
20
-13.5377710623862
30
0
41
1
10
32.3077086767589
20
-13.4990219659647
30
0
41
1
10
32.3134656791868
20
-13.4867957085093
30
0
41
1
10
32.3218886844303
20
-13.464200433562
30
0
41
1
10
32.3245000000037
20
-13.4538868817872
30
0
41
1
10
32.324500000004
20
-13.4458757333149
30
0
0
SPLINE
5
161
100
AcDbEntity
8
1
62
256
6
ByLayer
370
18
48
1
60
0
100
AcDbSpline
70
4
71
3
72
24
73
20
40
0
40
0
40
0
40
0
40
0.250000000000025
40
0.250000000000025
40
0.375000000000032
40
0.375000000000032
40
0.50000000000004
40
0.50000000000004
40
0.625000000000047
40
0.625000000000047
40
0.687500000000046
40
0.687500000000046
40
0.750000000000045
40
0.750000000000045
40
0.875000000000022
40
0.875000000000022
40
0.937500000000011
40
0.937500000000011
40
1
40
1
40
1
40
1
41
1
10
31.6055
20
-13.7334235069173
30
0
41
1
10
31.5857014326439
20
-13.7624495447249
30
0
41
1
10
31.5679133955475
20
-13.7913814935875
30
0
41
1
10
31.5462427725416
20
-13.8323487813085
30
0
41
1
10
31.5398178337017
20
-13.8456634430009
30
0
41
1
10
31.5291417249985
20
-13.8713003739318
30
0
41
1
10
31.5250354428614
20
-13.8832523961617
30
0
41
1
10
31.5202702011357
20
-13.9047387152758
30
0
41
1
10
31.5196714735777
20
-13.9141769391694
30
0
41
1
10
31.5229148663141
20
-13.9243233789456
30
0
41
1
10
31.5247026602586
20
-13.9270192811119
30
0
41
1
10
31.5297563239097
20
-13.9306099500663
30
0
41
1
10
31.5331005307613
20
-13.9315267410002
30
0
41
1
10
31.5449992604031
20
-13.931338621963
30
0
41
1
10
31.555764081996
20
-13.9272450817408
30
0
41
1
10
31.5735434402709
20
-13.9169835136226
30
0
41
1
10
31.5798369618822
20
-13.9128428044454
30
0
41
1
10
31.592539514375
20
-13.9036964653503
30
0
41
1
10
31.5989822218976
20
-13.8986779252488
30
0
41
1
10
31.6055
20
-13.8932951735595
30
0
0
SPLINE
5
162
100
AcDbEntity
8
1
62
256
6
ByLayer
370
18
48
1
60
0
100
AcDbSpline
70
4
71
3
72
18
73
14
40
0
40
0
40
0
40
0
40
0.243605503046003
40
0.243605503046003
40
0.487211006092005
40
0.487211006092005
40
0.730816509138008
40
0.730816509138008
40
0.852619260661006
40
0.852619260661006
40
0.974422012184004
40
0.974422012184004
40
1
40
1
40
1
40
1
41
1
10
31.6055
20
-15.6324538394991
30
0
41
1
10
31.5946982947576
20
-15.6439724854291
30
0
41
1
10
31.5844118441375
20
-15.6551023216108
30
0
41
1
10
31.5652650923032
20
-15.6761950701127
30
0
41
1
10
31.5562610520449
20
-15.6863191384373
30
0
41
1
10
31.5405980113183
20
-15.7044823911575
30
0
41
1
10
31.5339244419284
20
-15.7125331287251
30
0
41
1
10
31.5265411751117
20
-15.7221714627658
30
0
41
1
10
31.5245651189417
20
-15.7249175304988
30
0
41
1
10
31.5216978030223
20
-15.729365066138
30
0
41
1
10
31.5208174105651
20
-15.7310603772658
30
0
41
1
10
31.5205212560847
20
-15.7323266079736
30
0
41
1
10
31.5204985135444
20
-15.7325178567685
30
0
41
1
10
31.5205040357484
20
-15.7326807860342
30
0
0
SPLINE
5
163
100
AcDbEntity
8
1
62
256
6
ByLayer
370
18
48
1
60
0
100
AcDbSpline
70
4
71
3
72
14
73
10
40
0
40
0
40
0
40
0
40
0.128054604137716
40
0.128054604137716
40
0.418703069425144
40
0.418703069425144
40
0.709351534712572
40
0.709351534712572
40
1
40
1
40
1
40
1
41
1
10
31.5221323466613
20
-15.7332199945732
30
0
41
1
10
31.5231514302708
20
-15.7328897369016
30
0
41
1
10
31.5246384297932
20
-15.7320750599452
30
0
41
1
10
31.5309361387282
20
-15.727872437756
30
0
41
1
10
31.5376527692821
20
-15.7224962412466
30
0
41
1
10
31.5537652778246
20
-15.7086701136376
30
0
41
1
10
31.5633339952465
20
-15.7000809858593
30
0
41
1
10
31.5835331513508
20
-15.6814873386053
30
0
41
1
10
31.5942615311644
20
-15.6714017814226
30
0
41
1
10
31.6055
20
-15.6606819441533
30
0
0
SPLINE
5
164
100
AcDbEntity
8
1
62
256
6
ByLayer
370
18
48
1
60
0
100
AcDbSpline
70
4
71
3
72
22
73
18
40
0
40
0
40
0
40
0
40
0.249999999999992
40
0.249999999999992
40
0.374999999999994
40
0.374999999999994
40
0.499999999999996
40
0.499999999999996
40
0.624999999999998
40
0.624999999999998
40
0.687499999999997
40
0.687499999999997
40
0.749999999999996
40
0.749999999999996
40
0.874999999999998
40
0.874999999999998
40
1
40
1
40
1
40
1
41
1
10
31.6055
20
-15.0163333451349
30
0
41
1
10
31.5848938388945
20
-15.0415855913638
30
0
41
1
10
31.5660838750011
20
-15.0663600990457
30
0
41
1
10
31.5435446720046
20
-15.0997698501737
30
0
41
1
10
31.5368716828094
20
-15.1104596047056
30
0
41
1
10
31.5265286918553
20
-15.1294267701491
30
0
41
1
10
31.5227928890807
20
-15.1378172276995
30
0
41
1
10
31.5197317567559
20
-15.1506182317158
30
0
41
1
10
31.5205068030496
20
-15.1549334815141
30
0
41
1
10
31.5257130495559
20
-15.1569730699466
30
0
41
1
10
31.5281477755722
20
-15.1569315604486
30
0
41
1
10
31.5341877247795
20
-15.1553948558407
30
0
41
1
10
31.5377691855334
20
-15.1539252961955
30
0
41
1
10
31.550079815763
20
-15.1475663696834
30
0
41
1
10
31.560038950917
20
-15.1409011036832
30
0
41
1
10
31.5819530186579
20
-15.1243557876568
30
0
41
1
10
31.5935288070878
20
-15.1147807043242
30
0
41
1
10
31.6055
20
-15.1043141144439
30
0
0
SPLINE
5
165
100
AcDbEntity
8
1
62
256
6
ByLayer
370
18
48
1
60
0
100
AcDbSpline
70
4
71
3
72
8
73
4
40
0
40
0
40
0
40
0
40
1
40
1
40
1
40
1
41
1
10
31.6055
20
-8.29399436962493
30
0
41
1
10
31.8211953437772
20
-8.08569058843591
30
0
41
1
10
32.0359354469355
20
-7.87608303583337
30
0
41
1
10
32.2495
20
-7.66487101983498
30
0
0
SPLINE
5
166
100
AcDbEntity
8
1
62
256
6
ByLayer
370
18
48
1
60
0
100
AcDbSpline
70
4
71
3
72
16
73
12
40
0
40
0
40
0
40
0
40
0.125000000000002
40
0.125000000000002
40
0.250000000000003
40
0.250000000000003
40
0.500000000000002
40
0.500000000000002
40
0.750000000000001
40
0.750000000000001
40
1
40
1
40
1
40
1
41
1
10
9.07679491924324
20
19.1222825906925
30
0
41
1
10
9.09558095295722
20
19.1222825906925
30
0
41
1
10
9.11384906187917
20
19.1211757542148
30
0
41
1
10
9.14859952398743
20
19.1171586755843
30
0
41
1
10
9.16442417341895
20
19.1143521510704
30
0
41
1
10
9.20863486580126
20
19.1042242696216
30
0
41
1
10
9.23213528231531
20
19.0956673725615
30
0
41
1
10
9.27225845989867
20
19.0770274497583
30
0
41
1
10
9.28838045037799
20
19.06709867989
30
0
41
1
10
9.31588453947575
20
19.0464153092313
30
0
41
1
10
9.32720842156832
20
19.0356185274184
30
0
41
1
10
9.33660254037861
20
19.0245744101322
30
0
0
SPLINE
5
167
100
AcDbEntity
8
1
62
256
6
ByLayer
370
18
48
1
60
0
100
AcDbSpline
70
4
71
3
72
22
73
18
40
0
40
0
40
0
40
0
40
0.125000000000001
40
0.125000000000001
40
0.250000000000002
40
0.250000000000002
40
0.375000000000003
40
0.375000000000003
40
0.437500000000003
40
0.437500000000003
40
0.500000000000003
40
0.500000000000003
40
0.625000000000002
40
0.625000000000002
40
0.750000000000002
40
0.750000000000002
40
1
40
1
40
1
40
1
41
1
10
31.6055
20
13.8932951735594
30
0
41
1
10
31.5923897919611
20
13.9041223286666
30
0
41
1
10
31.5794532267684
20
13.9135790463364
30
0
41
1
10
31.5556664555314
20
13.9272949607354
30
0
41
1
10
31.5448178774582
20
13.9313954766623
30
0
41
1
10
31.5289697179716
20
13.931536873672
30
0
41
1
10
31.5239391821993
20
13.9276146247032
30
0
41
1
10
31.5207436371656
20
13.917486852346
30
0
41
1
10
31.5203576388296
20
13.9133751226588
30
0
41
1
10
31.5207360312479
20
13.9042499861399
30
0
41
1
10
31.5214840531057
20
13.8992382854602
30
0
41
1
10
31.5250781219021
20
13.8831153921803
30
0
41
1
10
31.5292894226803
20
13.8709116750718
30
0
41
1
10
31.5399279896784
20
13.8454337851257
30
0
41
1
10
31.5464701116894
20
13.8318876105376
30
0
41
1
10
31.5683265272113
20
13.7906651930248
30
0
41
1
10
31.5857588597082
20
13.7623653527675
30
0
41
1
10
31.6055
20
13.7334235069173
30
0
0
SPLINE
5
168
100
AcDbEntity
8
1
62
256
6
ByLayer
370
18
48
1
60
0
100
AcDbSpline
70
4
71
3
72
8
73
4
40
0
40
0
40
0
40
0
40
1
40
1
40
1
40
1
41
1
10
31.6055
20
15.0163333451349
30
0
41
1
10
31.8219338484439
20
14.7511000100563
30
0
41
1
10
32.0366690653106
20
14.4840466183653
30
0
41
1
10
32.2495
20
14.2149528187276
30
0
0
SPLINE
5
169
100
AcDbEntity
8
1
62
256
6
ByLayer
370
18
48
1
60
0
100
AcDbSpline
70
4
71
3
72
12
73
8
40
0
40
0
40
0
40
0
40
0.249999999999998
40
0.249999999999998
40
0.499999999999996
40
0.499999999999996
40
1
40
1
40
1
40
1
41
1
10
32.3245
20
13.4458757333182
30
0
41
1
10
32.3245
20
13.4539674030527
30
0
41
1
10
32.3219072687659
20
13.4641512284948
30
0
41
1
10
32.3134446310761
20
13.4868515226099
30
0
41
1
10
32.3076685378331
20
13.4991027991583
30
0
41
1
10
32.2869552366997
20
13.5378326083613
30
0
41
1
10
32.2694958530294
20
13.5648495574429
30
0
41
1
10
32.2495
20
13.5925630387594
30
0
0
SPLINE
5
16A
100
AcDbEntity
8
1
62
256
6
ByLayer
370
18
48
1
60
0
100
AcDbSpline
70
4
71
3
72
14
73
10
40
0
40
0
40
0
40
0
40
0.25
40
0.25
40
0.5
40
0.5
40
0.75
40
0.75
40
1
40
1
40
1
40
1
41
1
10
32.2495
20
-14.2149528187276
30
0
41
1
10
32.2594421157663
20
-14.2023824576009
30
0
41
1
10
32.2688604466112
20
-14.1899263187504
30
0
41
1
10
32.2860733291945
20
-14.1658822962868
30
0
41
1
10
32.2939309911731
20
-14.1542231365567
30
0
41
1
10
32.3077421095189
20
-14.1318198855193
30
0
41
1
10
32.3135644103324
20
-14.1212774923284
30
0
41
1
10
32.3219461335355
20
-14.102598620181
30
0
41
1
10
32.3245000000009
20
-14.0944054766572
30
0
41
1
10
32.3245000000009
20
-14.0885911056969
30
0
0
SPLINE
5
16B
100
AcDbEntity
8
1
62
256
6
ByLayer
370
18
48
1
60
0
100
AcDbSpline
70
4
71
3
72
28
73
24
40
0
40
0
40
0
40
0
40
0.249999999999993
40
0.249999999999993
40
0.499999999999987
40
0.499999999999987
40
0.624999999999983
40
0.624999999999983
40
0.749999999999979
40
0.749999999999979
40
0.812499999999977
40
0.812499999999977
40
0.874999999999975
40
0.874999999999975
40
0.906249999999976
40
0.906249999999976
40
0.937499999999977
40
0.937499999999977
40
0.953124999999979
40
0.953124999999979
40
0.968749999999982
40
0.968749999999982
40
1
40
1
40
1
40
1
41
1
10
31.6055
20
-4.20101850039947
30
0
41
1
10
31.5900405903694
20
-4.29104498432054
30
0
41
1
10
31.5760739172364
20
-4.3809578688124
30
0
41
1
10
31.5514902680674
20
-4.56054854146504
30
0
41
1
10
31.5408029893666
20
-4.65044602078822
30
0
41
1
10
31.5288664119751
20
-4.78425606075149
30
0
41
1
10
31.5255810643421
20
-4.82864701256332
30
0
41
1
10
31.5211380016732
20
-4.91683285262835
30
0
41
1
10
31.5199116803131
20
-4.96064358770141
30
0
41
1
10
31.5211817497251
20
-5.02556265369745
30
0
41
1
10
31.5221342180722
20
-5.04716503765917
30
0
41
1
10
31.5259274289865
20
-5.08943503165492
30
0
41
1
10
31.5286398032354
20
-5.11005347888647
30
0
41
1
10
31.5360219597604
20
-5.13894769977233
30
0
41
1
10
31.5390810604022
20
-5.14832698046163
30
0
41
1
10
31.5473751324916
20
-5.16454996501011
30
0
41
1
10
31.5528351385156
20
-5.17173771322584
30
0
41
1
10
31.563743364105
20
-5.1760307999451
30
0
41
1
10
31.5678321685478
20
-5.1762699086151
30
0
41
1
10
31.5760245443652
20
-5.17425723115466
30
0
41
1
10
31.5802058669296
20
-5.17203498860579
30
0
41
1
10
31.5920486089098
20
-5.16328508520698
30
0
41
1
10
31.5991058478889
20
-5.15494430088117
30
0
41
1
10
31.6055
20
-5.14606797072287
30
0
0
SPLINE
5
16C
100
AcDbEntity
8
1
62
256
6
ByLayer
370
18
48
1
60
0
100
AcDbSpline
70
4
71
3
72
12
73
8
40
0
40
0
40
0
40
0
40
0.249999999999997
40
0.249999999999997
40
0.499999999999994
40
0.499999999999994
40
1
40
1
40
1
40
1
41
1
10
32.3245
20
8.06252279407673
30
0
41
1
10
32.3245
20
8.08877438392989
30
0
41
1
10
32.3218617594051
20
8.1162462626074
30
0
41
1
10
32.3136794429824
20
8.17216347578744
30
0
41
1
10
32.3081312899982
20
8.20023384490875
30
0
41
1
10
32.2882979872324
20
8.28467600365443
30
0
41
1
10
32.2709276994985
20
8.34126819284231
30
0
41
1
10
32.2495000000004
20
8.39817332868464
30
0
0
SPLINE
5
16D
100
AcDbEntity
8
1
62
256
6
ByLayer
370
18
48
1
60
0
100
AcDbSpline
70
4
71
3
72
24
73
20
40
0
40
0
40
0
40
0
40
0.249999999999996
40
0.249999999999996
40
0.499999999999992
40
0.499999999999992
40
0.624999999999994
40
0.624999999999994
40
0.749999999999995
40
0.749999999999995
40
0.812499999999998
40
0.812499999999998
40
0.875000000000001
40
0.875000000000001
40
0.90625
40
0.90625
40
0.937499999999998
40
0.937499999999998
40
1
40
1
40
1
40
1
41
1
10
31.6054999999999
20
-7.80001470489825
30
0
41
1
10
31.5879867809472
20
-7.85299934184565
30
0
41
1
10
31.5727382518921
20
-7.90569216801634
30
0
41
1
10
31.5467914163629
20
-8.01047350598478
30
0
41
1
10
31.5360118982865
20
-8.06257059720232
30
0
41
1
10
31.5251151537234
20
-8.14006222055454
30
0
41
1
10
31.5223820049023
20
-8.16588268324642
30
0
41
1
10
31.5199531850072
20
-8.21565668024942
30
0
41
1
10
31.5200832096761
20
-8.23982742363057
30
0
41
1
10
31.5250398587167
20
-8.27362575546215
30
0
41
1
10
31.5274756658929
20
-8.28421835680601
30
0
41
1
10
31.535170778308
20
-8.30282088547523
30
0
41
1
10
31.5405053612523
20
-8.31084781520858
30
0
41
1
10
31.5518063449279
20
-8.31738998669348
30
0
41
1
10
31.5560881702045
20
-8.31859333913195
30
0
41
1
10
31.565449138091
20
-8.31864739025269
30
0
41
1
10
31.570448088906
20
-8.31750051835678
30
0
41
1
10
31.5857402502633
20
-8.3111140143906
30
0
41
1
10
31.5959233873071
20
-8.30324280587081
30
0
41
1
10
31.6055000000006
20
-8.29399436962666
30
0
0
SPLINE
5
16E
100
AcDbEntity
8
1
62
256
6
ByLayer
370
18
48
1
60
0
100
AcDbSpline
70
4
71
3
72
12
73
8
40
0
40
0
40
0
40
0
40
0.366886833251103
40
0.366886833251103
40
0.733773666502205
40
0.733773666502205
40
1
40
1
40
1
40
1
41
1
10
32.3245
20
10.3458881962642
30
0
41
1
10
32.3245
20
10.3319941671099
30
0
41
1
10
32.3216805955784
20
10.3159343004304
30
0
41
1
10
32.3129783121616
20
10.2817669754765
30
0
41
1
10
32.3071643812386
20
10.2640535429227
30
0
41
1
10
32.2954564553722
20
10.2327380737767
30
0
41
1
10
32.2899854732108
20
10.219285691308
30
0
41
1
10
32.2840895989397
20
10.2057177051724
30
0
0
SPLINE
5
16F
100
AcDbEntity
8
1
62
256
6
ByLayer
370
18
48
1
60
0
100
AcDbSpline
70
4
71
3
72
8
73
4
40
0
40
0
40
0
40
0
40
1
40
1
40
1
40
1
41
1
10
32.2495
20
-15.0660620158908
30
0
41
1
10
32.0355383552333
20
-15.2844063293729
30
0
41
1
10
31.8208468077431
20
-15.5017897467223
30
0
41
1
10
31.6055
20
-15.718310532624
30
0
0
SPLINE
5
170
100
AcDbEntity
8
1
62
256
6
ByLayer
370
18
48
1
60
0
100
AcDbSpline
70
4
71
3
72
16
73
12
40
0
40
0
40
0
40
0
40
0.124999999999997
40
0.124999999999997
40
0.249999999999993
40
0.249999999999993
40
0.499999999999996
40
0.499999999999996
40
0.749999999999998
40
0.749999999999998
40
1
40
1
40
1
40
1
41
1
10
6.92320508075687
20
5.85988980456941
30
0
41
1
10
6.90441904704289
20
5.85988980456941
30
0
41
1
10
6.88615093812098
20
5.8635044647273
30
0
41
1
10
6.85140047601269
20
5.87658838136369
30
0
41
1
10
6.83557582658116
20
5.88571770958595
30
0
41
1
10
6.79136513419885
20
5.91854200832063
30
0
41
1
10
6.7678647176848
20
5.94612987812175
30
0
41
1
10
6.72774154010145
20
6.00566371121207
30
0
41
1
10
6.71161954962213
20
6.03712755983028
30
0
41
1
10
6.68411546052437
20
6.10206728171738
30
0
41
1
10
6.67279157843183
20
6.1356751045312
30
0
41
1
10
6.66339745962154
20
6.16973001948574
30
0
0
SPLINE
5
171
100
AcDbEntity
8
1
62
256
6
ByLayer
370
18
48
1
60
0
100
AcDbSpline
70
4
71
3
72
12
73
8
40
0
40
0
40
0
40
0
40
0.500000000000023
40
0.500000000000023
40
0.750000000000012
40
0.750000000000012
40
1
40
1
40
1
40
1
41
1
10
32.2495
20
-14.6585127934132
30
0
41
1
10
32.2691752580471
20
-14.6355514544706
30
0
41
1
10
32.2870773639101
20
-14.6132323146513
30
0
41
1
10
32.3077389094137
20
-14.5840666360661
30
0
41
1
10
32.3136601331486
20
-14.574941859522
30
0
41
1
10
32.3220227856857
20
-14.5596152194333
30
0
41
1
10
32.3245000000001
20
-14.5533180764888
30
0
41
1
10
32.3245000000001
20
-14.5494063264192
30
0
0
SPLINE
5
172
100
AcDbEntity
8
1
62
256
6
ByLayer
370
18
48
1
60
0
100
AcDbSpline
70
4
71
3
72
14
73
10
40
0
40
0
40
0
40
0
40
0.25
40
0.25
40
0.5
40
0.5
40
0.75
40
0.75
40
1
40
1
40
1
40
1
41
1
10
32.3245
20
-14.0130715796893
30
0
41
1
10
32.3245
20
-14.0080651383296
30
0
41
1
10
32.3227445414937
20
-14.0046872275606
30
0
41
1
10
32.315227641366
20
-14.0023651888154
30
0
41
1
10
32.3095865919249
20
-14.003443079763
30
0
41
1
10
32.2952947677502
20
-14.0097191422157
30
0
41
1
10
32.286925940559
20
-14.014766182349
30
0
41
1
10
32.2687507800733
20
-14.0275439898635
30
0
41
1
10
32.2592436112319
20
-14.0350505460849
30
0
41
1
10
32.2495
20
-14.0433144011905
30
0
0
SPLINE
5
173
100
AcDbEntity
8
1
62
256
6
ByLayer
370
18
48
1
60
0
100
AcDbSpline
70
4
71
3
72
22
73
18
40
0
40
0
40
0
40
0
40
0.124999999999999
40
0.124999999999999
40
0.1875
40
0.1875
40
0.250000000000001
40
0.250000000000001
40
0.312500000000002
40
0.312500000000002
40
0.375000000000003
40
0.375000000000003
40
0.500000000000008
40
0.500000000000008
40
0.750000000000004
40
0.750000000000004
40
1
40
1
40
1
40
1
41
1
10
31.6055
20
12.9890462981537
30
0
41
1
10
31.5916227183265
20
13.0003795466002
30
0
41
1
10
31.5778149847256
20
13.0099058072124
30
0
41
1
10
31.5587640996215
20
13.0187678583176
30
0
41
1
10
31.5528778815586
20
13.0207157324357
30
0
41
1
10
31.5423005181068
20
13.0222994985667
30
0
41
1
10
31.5376805232072
20
13.021890488957
30
0
41
1
10
31.5302189661989
20
13.0188458080784
30
0
41
1
10
31.5272609873016
20
13.016162154544
30
0
41
1
10
31.5230323956632
20
13.0090993002862
30
0
41
1
10
31.5217153832485
20
13.0047461650243
30
0
41
1
10
31.5196904069084
20
12.9896936057726
30
0
41
1
10
31.5209009317694
20
12.9776739740765
30
0
41
1
10
31.5292113354176
20
12.9379891858555
30
0
41
1
10
31.5408135092952
20
12.9076642326321
30
0
41
1
10
31.5692151739163
20
12.8463921083411
30
0
41
1
10
31.5861723846301
20
12.8151481502975
30
0
41
1
10
31.6055
20
12.7833973678525
30
0
0
SPLINE
5
174
100
AcDbEntity
8
1
62
256
6
ByLayer
370
18
48
1
60
0
100
AcDbSpline
70
4
71
3
72
14
73
10
40
0
40
0
40
0
40
0
40
0.25
40
0.25
40
0.5
40
0.5
40
0.75
40
0.75
40
1
40
1
40
1
40
1
41
1
10
32.3245
20
-14.8146051206936
30
0
41
1
10
32.3245
20
-14.8123394090931
30
0
41
1
10
32.3224398714727
20
-14.8121342685845
30
0
41
1
10
32.3144191214464
20
-14.8158437620053
30
0
41
1
10
32.3085353513391
20
-14.8197296548517
30
0
41
1
10
32.2944025477758
20
-14.8303671160762
30
0
41
1
10
32.2861624186443
20
-14.8371020110641
30
0
41
1
10
32.2684926224885
20
-14.8522554632202
30
0
41
1
10
32.2591815631082
20
-14.8605641625558
30
0
41
1
10
32.2495
20
-14.8694469304906
30
0
0
SPLINE
5
175
100
AcDbEntity
8
1
62
256
6
ByLayer
370
18
48
1
60
0
100
AcDbSpline
70
4
71
3
72
8
73
4
40
0
40
0
40
0
40
0
40
1
40
1
40
1
40
1
41
1
10
31.6055
20
7.80001470489825
30
0
41
1
10
31.8503984452163
20
7.05909693474195
30
0
41
1
10
32.0666055459679
20
6.30726507168859
30
0
41
1
10
32.2495000000001
20
5.54276118758753
30
0
0
SPLINE
5
176
100
AcDbEntity
8
1
62
256
6
ByLayer
370
18
48
1
60
0
100
AcDbSpline
70
4
71
3
72
14
73
10
40
0
40
0
40
0
40
0
40
0.25
40
0.25
40
0.5
40
0.5
40
0.75
40
0.75
40
1
40
1
40
1
40
1
41
1
10
32.3245
20
-14.497218698419
30
0
41
1
10
32.3245
20
-14.4935619515478
30
0
41
1
10
32.3225747580154
20
-14.49179769191
30
0
41
1
10
32.314756697559
20
-14.4925854159394
30
0
41
1
10
32.3090311541528
20
-14.4950920713488
30
0
41
1
10
32.2947617336723
20
-14.5036534939647
30
0
41
1
10
32.2864996816712
20
-14.5095271302507
30
0
41
1
10
32.2685874880137
20
-14.5234746847632
30
0
41
1
10
32.2592035623053
20
-14.5313344713374
30
0
41
1
10
32.2495
20
-14.5398612680685
30
0
0
SPLINE
5
177
100
AcDbEntity
8
1
62
256
6
ByLayer
370
18
48
1
60
0
100
AcDbSpline
70
4
71
3
72
18
73
14
40
0
40
0
40
0
40
0
40
0.124999999999998
40
0.124999999999998
40
0.249999999999996
40
0.249999999999996
40
0.374999999999994
40
0.374999999999994
40
0.499999999999992
40
0.499999999999992
40
0.749999999999996
40
0.749999999999996
40
1
40
1
40
1
40
1
41
1
10
32.2494999999997
20
7.66487101983384
30
0
41
1
10
32.2550825771808
20
7.65934993796901
30
0
41
1
10
32.2608400805829
20
7.65443123214698
30
0
41
1
10
32.272887800992
20
7.64667976028716
30
0
41
1
10
32.2790379838132
20
7.64403531494779
30
0
41
1
10
32.290470788568
20
7.64254219960361
30
0
41
1
10
32.2957720298857
20
7.64374454640065
30
0
41
1
10
32.3045418797552
20
7.64926616914494
30
0
41
1
10
32.3080928103557
20
7.65350242879825
30
0
41
1
10
32.3166378240431
20
7.66829570395606
30
0
41
1
10
32.3198494486439
20
7.68107381810148
30
0
41
1
10
32.3237864855462
20
7.70777675622449
30
0
41
1
10
32.3245
20
7.72183870453074
30
0
41
1
10
32.3245
20
7.7362976051877
30
0
0
SPLINE
5
178
100
AcDbEntity
8
1
62
256
6
ByLayer
370
18
48
1
60
0
100
AcDbSpline
70
4
71
3
72
14
73
10
40
0
40
0
40
0
40
0
40
0.25
40
0.25
40
0.5
40
0.5
40
0.75
40
0.75
40
1
40
1
40
1
40
1
41
1
10
32.2495
20
12.4631018098503
30
0
41
1
10
32.2595285451955
20
12.454911578263
30
0
41
1
10
32.2693787576544
20
12.4478868517298
30
0
41
1
10
32.2883493100185
20
12.4374400764857
30
0
41
1
10
32.297175431408
20
12.4343141674245
30
0
41
1
10
32.3112592682041
20
12.4337380572478
30
0
41
1
10
32.3165617376619
20
12.4363049691996
30
0
41
1
10
32.3231105804424
20
12.445697632288
30
0
41
1
10
32.3245000000006
20
12.4525000394182
30
0
41
1
10
32.3245000000006
20
12.4603300643642
30
0
0
SPLINE
5
179
100
AcDbEntity
8
1
62
256
6
ByLayer
370
18
48
1
60
0
100
AcDbSpline
70
4
71
3
72
8
73
4
40
0
40
0
40
0
40
0
40
1
40
1
40
1
40
1
41
1
10
31.6055
20
14.467155704432
30
0
41
1
10
31.8225986716763
20
14.1780125340789
30
0
41
1
10
32.0373626674526
20
13.8865772022682
30
0
41
1
10
32.2495
20
13.5925630387594
30
0
0
SPLINE
5
17A
100
AcDbEntity
8
1
62
256
6
ByLayer
370
18
48
1
60
0
100
AcDbSpline
70
4
71
3
72
8
73
4
40
0
40
0
40
0
40
0
40
1
40
1
40
1
40
1
41
1
10
31.6055
20
-15.6606819441533
30
0
41
1
10
31.8206432773138
20
-15.4554670740397
30
0
41
1
10
32.0353272741426
20
-15.2496136869222
30
0
41
1
10
32.2495
20
-15.0430495027661
30
0
0
SPLINE
5
17B
100
AcDbEntity
8
1
62
256
6
ByLayer
370
18
48
1
60
0
100
AcDbSpline
70
4
71
3
72
8
73
4
40
0
40
0
40
0
40
0
40
1
40
1
40
1
40
1
41
1
10
32.2495
20
14.5398612680685
30
0
41
1
10
32.035034489883
20
14.7283182236774
30
0
41
1
10
31.8203606627147
20
14.916458279648
30
0
41
1
10
31.6055
20
15.1043141144439
30
0
0
SPLINE
5
17C
100
AcDbEntity
8
1
62
256
6
ByLayer
370
18
48
1
60
0
100
AcDbSpline
70
4
71
3
72
22
73
18
40
0
40
0
40
0
40
0
40
0.250000000000016
40
0.250000000000016
40
0.375000000000008
40
0.375000000000008
40
0.5
40
0.5
40
0.562499999999995
40
0.562499999999995
40
0.624999999999989
40
0.624999999999989
40
0.749999999999993
40
0.749999999999993
40
0.874999999999996
40
0.874999999999996
40
1
40
1
40
1
40
1
41
1
10
31.6055
20
-15.4007123240498
30
0
41
1
10
31.5844487710631
20
-15.4246823465028
30
0
41
1
10
31.5651564635438
20
-15.4478271489153
30
0
41
1
10
31.5421483682988
20
-15.4780785389166
30
0
41
1
10
31.5354160580684
20
-15.4875088448807
30
0
41
1
10
31.5253331633762
20
-15.5033650289358
30
0
41
1
10
31.5218740451311
20
-15.5099807042089
30
0
41
1
10
31.5203167438938
20
-15.5163677412186
30
0
41
1
10
31.5203991340239
20
-15.5179369018527
30
0
41
1
10
31.5218505392975
20
-15.5197064978898
30
0
41
1
10
31.5232033922375
20
-15.5199349313541
30
0
41
1
10
31.529205069968
20
-15.518589858402
30
0
41
1
10
31.535687397215
20
-15.5149608219587
30
0
41
1
10
31.5520532093454
20
-15.5035500426185
30
0
41
1
10
31.5617198351167
20
-15.4959485093586
30
0
41
1
10
31.5827867426636
20
-15.4783109541659
30
0
41
1
10
31.5939163852577
20
-15.4685083697449
30
0
41
1
10
31.6055
20
-15.4579633817609
30
0
0
SPLINE
5
17D
100
AcDbEntity
8
1
62
256
6
ByLayer
370
18
48
1
60
0
100
AcDbSpline
70
4
71
3
72
14
73
10
40
0
40
0
40
0
40
0
40
0.25
40
0.25
40
0.5
40
0.5
40
0.75
40
0.75
40
1
40
1
40
1
40
1
41
1
10
32.3245
20
14.0885911056977
30
0
41
1
10
32.3245
20
14.0944762792782
30
0
41
1
10
32.3219646694255
20
14.1025730885475
30
0
41
1
10
32.3134657695619
20
14.1214813899949
30
0
41
1
10
32.3076576638288
20
14.1319667983822
30
0
41
1
10
32.2938287565169
20
14.154378905963
30
0
41
1
10
32.2858501552656
20
14.1662050363976
30
0
41
1
10
32.2686706661525
20
14.1901801511552
30
0
41
1
10
32.2593959172503
20
14.2024408689132
30
0
41
1
10
32.2495
20
14.2149528187276
30
0
0
SPLINE
5
17E
100
AcDbEntity
8
1
62
256
6
ByLayer
370
18
48
1
60
0
100
AcDbSpline
70
4
71
3
72
8
73
4
40
0
40
0
40
0
40
0
40
1
40
1
40
1
40
1
41
1
10
31.6055
20
13.7334235069173
30
0
41
1
10
31.8235756476838
20
13.4137098690188
30
0
41
1
10
32.0383838344783
20
13.0910984549316
30
0
41
1
10
32.2495
20
12.7652127395764
30
0
0
SPLINE
5
17F
100
AcDbEntity
8
1
62
256
6
ByLayer
370
18
48
1
60
0
100
AcDbSpline
70
4
71
3
72
8
73
4
40
0
40
0
40
0
40
0
40
1
40
1
40
1
40
1
41
1
10
32.2495
20
13.3612047752696
30
0
41
1
10
32.0348672252561
20
13.5386229220787
30
0
41
1
10
31.8201992608209
20
13.7159843184299
30
0
41
1
10
31.6055
20
13.8932951735594
30
0
0
SPLINE
5
180
100
AcDbEntity
8
1
62
256
6
ByLayer
370
18
48
1
60
0
100
AcDbSpline
70
4
71
3
72
18
73
14
40
0
40
0
40
0
40
0
40
0.249999999999998
40
0.249999999999998
40
0.499999999999996
40
0.499999999999996
40
0.624999999999997
40
0.624999999999997
40
0.749999999999998
40
0.749999999999998
40
0.874999999999999
40
0.874999999999999
40
1
40
1
40
1
40
1
41
1
10
9.33660254037866
20
-19.0245744101321
30
0
41
1
10
9.32721186043506
20
-19.0356144845435
30
0
41
1
10
9.31597445228979
20
-19.0463346141653
30
0
41
1
10
9.2885237189
20
-19.0670039094875
30
0
41
1
10
9.27226224655624
20
-19.0770249518318
30
0
41
1
10
9.24217730798273
20
-19.0910025433169
30
0
41
1
10
9.23126332140686
20
-19.0954500347066
30
0
41
1
10
9.20699632571439
20
-19.1037856168331
30
0
41
1
10
9.19372453113991
20
-19.1076382714245
30
0
41
1
10
9.16468775446992
20
-19.1142934541629
30
0
41
1
10
9.14852956001866
20
-19.1171636549363
30
0
41
1
10
9.11408210674728
20
-19.1211519083817
30
0
41
1
10
9.0955561358237
20
-19.1222825906926
30
0
41
1
10
9.07679491924327
20
-19.1222825906926
30
0
0
SPLINE
5
181
100
AcDbEntity
8
1
62
256
6
ByLayer
370
18
48
1
60
0
100
AcDbSpline
70
4
71
3
72
8
73
4
40
0
40
0
40
0
40
0
40
1
40
1
40
1
40
1
41
1
10
32.2495
20
9.76950019574704
30
0
41
1
10
32.0350577211803
20
9.95490158076936
30
0
41
1
10
31.8203794218738
20
10.1399379145854
30
0
41
1
10
31.6055
20
10.3246631735588
30
0
0
SPLINE
5
182
100
AcDbEntity
8
1
62
256
6
ByLayer
370
18
48
1
60
0
100
AcDbSpline
70
4
71
3
72
18
73
14
40
0
40
0
40
0
40
0
40
0.250000000000004
40
0.250000000000004
40
0.500000000000008
40
0.500000000000008
40
0.625000000000006
40
0.625000000000006
40
0.750000000000004
40
0.750000000000004
40
0.875000000000002
40
0.875000000000002
40
1
40
1
40
1
40
1
41
1
10
32.3245
20
-7.7362976051877
30
0
41
1
10
32.3245
20
-7.72184292928992
30
0
41
1
10
32.3237870724261
20
-7.70778266770586
30
0
41
1
10
32.3198500409476
20
-7.68107590515606
30
0
41
1
10
32.3167405816158
20
-7.66851234957502
30
0
41
1
10
32.3081058304445
20
-7.65350581024677
30
0
41
1
10
32.3046260591323
20
-7.64933154040713
30
0
41
1
10
32.2957683537229
20
-7.64372997299307
30
0
41
1
10
32.2904867554595
20
-7.64254013358237
30
0
41
1
10
32.2790222022847
20
-7.64403735676106
30
0
41
1
10
32.2728515927768
20
-7.64670984441037
30
0
41
1
10
32.2609747993835
20
-7.65433782262477
30
0
41
1
10
32.2550919606135
20
-7.65934065789958
30
0
41
1
10
32.2494999999995
20
-7.6648710198335
30
0
0
SPLINE
5
183
100
AcDbEntity
8
1
62
256
6
ByLayer
370
18
48
1
60
0
100
AcDbSpline
70
4
71
3
72
8
73
4
40
0
40
0
40
0
40
0
40
1
40
1
40
1
40
1
41
1
10
32.2495
20
-11.6894628880304
30
0
41
1
10
32.0399891728598
20
-12.0581547059221
30
0
41
1
10
31.8251085260618
20
-12.4226315723511
30
0
41
1
10
31.6055
20
-12.7833973678525
30
0
0
SPLINE
5
184
100
AcDbEntity
8
1
62
256
6
ByLayer
370
18
48
1
60
0
100
AcDbSpline
70
4
71
3
72
8
73
4
40
0
40
0
40
0
40
0
40
1
40
1
40
1
40
1
41
1
10
31.6055
20
-10.3246631735588
30
0
41
1
10
31.8203794218738
20
-10.1399379145854
30
0
41
1
10
32.0350577211803
20
-9.95490158076936
30
0
41
1
10
32.2495
20
-9.76950019574704
30
0
0
SPLINE
5
185
100
AcDbEntity
8
1
62
256
6
ByLayer
370
18
48
1
60
0
100
AcDbSpline
70
4
71
3
72
12
73
8
40
0
40
0
40
0
40
0
40
0.275696765772718
40
0.275696765772718
40
0.637848382886359
40
0.637848382886359
40
1
40
1
40
1
40
1
41
1
10
32.2831077647045
20
-10.2033854986429
30
0
41
1
10
32.2892895965333
20
-10.2175292684657
30
0
41
1
10
32.2950150914873
20
-10.2315817776268
30
0
41
1
10
32.3071017294411
20
-10.2638548821781
30
0
41
1
10
32.3129474804953
20
-10.2816796727486
30
0
41
1
10
32.3216283001468
20
-10.3156955475608
30
0
41
1
10
32.3245
20
-10.3319833604656
30
0
41
1
10
32.3245
20
-10.3458881962642
30
0
0
SPLINE
5
186
100
AcDbEntity
8
1
62
256
6
ByLayer
370
18
48
1
60
0
100
AcDbSpline
70
4
71
3
72
8
73
4
40
0
40
0
40
0
40
0
40
1
40
1
40
1
40
1
41
1
10
32.2495
20
-12.7652127395764
30
0
41
1
10
32.0383838344783
20
-13.0910984549316
30
0
41
1
10
31.8235756476838
20
-13.4137098690188
30
0
41
1
10
31.6055
20
-13.7334235069173
30
0
0
SPLINE
5
187
100
AcDbEntity
8
1
62
256
6
ByLayer
370
18
48
1
60
0
100
AcDbSpline
70
4
71
3
72
8
73
4
40
0
40
0
40
0
40
0
40
1
40
1
40
1
40
1
41
1
10
32.2495
20
11.2976112695869
30
0
41
1
10
32.0348639249866
20
11.4745332759798
30
0
41
1
10
31.8201958861166
20
11.6514035876185
30
0
41
1
10
31.6055
20
11.8282288061869
30
0
0
SPLINE
5
188
100
AcDbEntity
8
1
62
256
6
ByLayer
370
18
48
1
60
0
100
AcDbSpline
70
4
71
3
72
8
73
4
40
0
40
0
40
0
40
0
40
1
40
1
40
1
40
1
41
1
10
32.2495
20
14.8694469304906
30
0
41
1
10
32.0351628256359
20
15.0660998220099
30
0
41
1
10
31.820484571849
20
15.262255066409
30
0
41
1
10
31.6055
20
15.4579633817609
30
0
0
SPLINE
5
189
100
AcDbEntity
8
1
62
256
6
ByLayer
370
18
48
1
60
0
100
AcDbSpline
70
4
71
3
72
8
73
4
40
0
40
0
40
0
40
0
40
1
40
1
40
1
40
1
41
1
10
31.6055
20
15.6324538394991
30
0
41
1
10
31.8211109108127
20
15.4025322035561
30
0
41
1
10
32.0358125818042
20
15.1714844119366
30
0
41
1
10
32.2495
20
14.9391803988928
30
0
0
SPLINE
5
18A
100
AcDbEntity
8
1
62
256
6
ByLayer
370
18
48
1
60
0
100
AcDbSpline
70
4
71
3
72
14
73
10
40
0
40
0
40
0
40
0
40
0.25
40
0.25
40
0.5
40
0.5
40
0.75
40
0.75
40
1
40
1
40
1
40
1
41
1
10
32.2494999999999
20
9.76950019574684
30
0
41
1
10
32.2600887480643
20
9.76034543126855
30
0
41
1
10
32.2711394646123
20
9.75281867950562
30
0
41
1
10
32.2920202054396
20
9.74561239157396
30
0
41
1
10
32.301227709581
20
9.7465213660266
30
0
41
1
10
32.3144353219523
20
9.75619140774609
30
0
41
1
10
32.3186242563821
20
9.76460347571754
30
0
41
1
10
32.3235888009734
20
9.78369998775335
30
0
41
1
10
32.3245
20
9.79441052495085
30
0
41
1
10
32.3245
20
9.80578785862338
30
0
0
SPLINE
5
18B
100
AcDbEntity
8
1
62
256
6
ByLayer
370
18
48
1
60
0
100
AcDbSpline
70
4
71
3
72
8
73
4
40
0
40
0
40
0
40
0
40
1
40
1
40
1
40
1
41
1
10
32.2495
20
-14.6585127934132
30
0
41
1
10
32.0361756971328
20
-14.9074656463368
30
0
41
1
10
31.8214601253758
20
-15.1548089105379
30
0
41
1
10
31.6055
20
-15.4007123240498
30
0
0
SPLINE
5
18C
100
AcDbEntity
8
1
62
256
6
ByLayer
370
18
48
1
60
0
100
AcDbSpline
70
4
71
3
72
8
73
4
40
0
40
0
40
0
40
0
40
1
40
1
40
1
40
1
41
1
10
32.2495
20
7.66487101983498
30
0
41
1
10
32.0359354469355
20
7.87608303583337
30
0
41
1
10
31.8211953437772
20
8.08569058843591
30
0
41
1
10
31.6055
20
8.29399436962493
30
0
0
SPLINE
5
18D
100
AcDbEntity
8
1
62
256
6
ByLayer
370
18
48
1
60
0
100
AcDbSpline
70
4
71
3
72
12
73
8
40
0
40
0
40
0
40
0
40
0.249999999999994
40
0.249999999999994
40
0.499999999999989
40
0.499999999999989
40
1
40
1
40
1
40
1
41
1
10
32.3245
20
10.0349937176221
30
0
41
1
10
32.3245
20
10.0535898597098
30
0
41
1
10
32.3218666312093
20
10.0735403657602
30
0
41
1
10
32.3136339039102
20
10.1149405184586
30
0
41
1
10
32.3079221542004
20
10.1364731820904
30
0
41
1
10
32.2878278136398
20
10.2007660179829
30
0
41
1
10
32.2704480558524
20
10.2440330851539
30
0
41
1
10
32.2495
20
10.2876833609242
30
0
0
SPLINE
5
18E
100
AcDbEntity
8
1
62
256
6
ByLayer
370
18
48
1
60
0
100
AcDbSpline
70
4
71
3
72
12
73
8
40
0
40
0
40
0
40
0
40
0.499999999999999
40
0.499999999999999
40
0.749999999999999
40
0.749999999999999
40
1
40
1
40
1
40
1
41
1
10
32.2495000000005
20
-5.5427611875875
30
0
41
1
10
32.2719654923217
20
-5.44885480738185
30
0
41
1
10
32.2894866931704
20
-5.35482616559491
30
0
41
1
10
32.3090138371483
20
-5.21356844296523
30
0
41
1
10
32.3143440367861
20
-5.16652855982855
30
0
41
1
10
32.3220441941806
20
-5.07312164983659
30
0
41
1
10
32.3245
20
-5.0266693550125
30
0
41
1
10
32.3245
20
-4.98070765025406
30
0
0
SPLINE
5
18F
100
AcDbEntity
8
1
62
256
6
ByLayer
370
18
48
1
60
0
100
AcDbSpline
70
4
71
3
72
14
73
10
40
0
40
0
40
0
40
0
40
0.25
40
0.25
40
0.5
40
0.5
40
0.75
40
0.75
40
1
40
1
40
1
40
1
41
1
10
32.2495
20
14.0433144011905
30
0
41
1
10
32.2592456998771
20
14.0350487746409
30
0
41
1
10
32.2687829184351
20
14.0275202919845
30
0
41
1
10
32.286929658101
20
14.0147646743886
30
0
41
1
10
32.2953844168923
20
14.0096743912255
30
0
41
1
10
32.3095811801607
20
14.0034508710611
30
0
41
1
10
32.3153166990107
20
14.0023753157994
30
0
41
1
10
32.3227268267543
20
14.0046993069554
30
0
41
1
10
32.3245
20
14.0080984772935
30
0
41
1
10
32.3245
20
14.0130715796893
30
0
0
SPLINE
5
190
100
AcDbEntity
8
1
62
256
6
ByLayer
370
18
48
1
60
0
100
AcDbSpline
70
4
71
3
72
8
73
4
40
0
40
0
40
0
40
0
40
1
40
1
40
1
40
1
41
1
10
31.6055
20
12.7833973678525
30
0
41
1
10
31.8251085260618
20
12.4226315723511
30
0
41
1
10
32.0399891728598
20
12.0581547059221
30
0
41
1
10
32.2495
20
11.6894628880304
30
0
0
SPLINE
5
191
100
AcDbEntity
8
1
62
256
6
ByLayer
370
18
48
1
60
0
100
AcDbSpline
70
4
71
3
72
24
73
20
40
0
40
0
40
0
40
0
40
0.124999999999975
40
0.124999999999975
40
0.249999999999949
40
0.249999999999949
40
0.31249999999995
40
0.31249999999995
40
0.37499999999995
40
0.37499999999995
40
0.49999999999996
40
0.49999999999996
40
0.62499999999997
40
0.62499999999997
40
0.74999999999998
40
0.74999999999998
40
0.87499999999999
40
0.87499999999999
40
1
40
1
40
1
40
1
41
1
10
31.6055
20
15.1043141144439
30
0
41
1
10
31.5934632937874
20
15.1148379835654
30
0
41
1
10
31.5816731389022
20
15.1245746550669
30
0
41
1
10
31.5600245480421
20
15.1409043189285
30
0
41
1
10
31.5499145553487
20
15.1476664271501
30
0
41
1
10
31.537673048248
20
15.153967446024
30
0
41
1
10
31.5340195691033
20
15.1554547605258
30
0
41
1
10
31.5280334555837
20
15.1569426994494
30
0
41
1
10
31.5256596730595
20
15.1569732503846
30
0
41
1
10
31.5204429724319
20
15.1548652458193
30
0
41
1
10
31.5197313235777
20
15.150516213461
30
0
41
1
10
31.5228604713893
20
15.1376407193304
30
0
41
1
10
31.5266068542954
20
15.1292581336757
30
0
41
1
10
31.5370511584458
20
15.1101564134492
30
0
41
1
10
31.5436321073829
20
15.0996272579293
30
0
41
1
10
31.5588539646259
20
15.0770902678142
30
0
41
1
10
31.5673625711935
20
15.0652921980547
30
0
41
1
10
31.5855242840147
20
15.0412423492767
30
0
41
1
10
31.5952281516895
20
15.0289211940523
30
0
41
1
10
31.6055
20
15.0163333451349
30
0
0
SPLINE
5
192
100
AcDbEntity
8
1
62
256
6
ByLayer
370
18
48
1
60
0
100
AcDbSpline
70
4
71
3
72
14
73
10
40
0
40
0
40
0
40
0
40
0.25
40
0.25
40
0.5
40
0.5
40
0.75
40
0.75
40
1
40
1
40
1
40
1
41
1
10
32.2495
20
14.5398612680685
30
0
41
1
10
32.2592240950433
20
14.5313164286353
30
0
41
1
10
32.2687784808572
20
14.5233216168232
30
0
41
1
10
32.2865180846811
20
14.5095172010961
30
0
41
1
10
32.294846895995
20
14.5035991411728
30
0
41
1
10
32.309021750586
20
14.4951009875526
30
0
41
1
10
32.3148564932133
20
14.4925606678929
30
0
41
1
10
32.3225654882072
20
14.491813492071
30
0
41
1
10
32.3245
20
14.4936117517551
30
0
41
1
10
32.3245
20
14.497218698419
30
0
0
SPLINE
5
193
100
AcDbEntity
8
1
62
256
6
ByLayer
370
18
48
1
60
0
100
AcDbSpline
70
4
71
3
72
8
73
4
40
0
40
0
40
0
40
0
40
1
40
1
40
1
40
1
41
1
10
31.6055
20
11.5638910107493
30
0
41
1
10
31.8277685085049
20
11.1436031744424
30
0
41
1
10
32.0427804369158
20
10.7184329254336
30
0
41
1
10
32.2495
20
10.2876833609242
30
0
0
SPLINE
5
194
100
AcDbEntity
8
1
62
256
6
ByLayer
370
18
48
1
60
0
100
AcDbSpline
70
4
71
3
72
16
73
12
40
0
40
0
40
0
40
0
40
0.249999999999986
40
0.249999999999986
40
0.499999999999971
40
0.499999999999971
40
0.624999999999964
40
0.624999999999964
40
0.749999999999956
40
0.749999999999956
40
1
40
1
40
1
40
1
41
1
10
32.3245000000016
20
-9.80578785862218
30
0
41
1
10
32.3245000000016
20
-9.79432339439131
30
0
41
1
10
32.3235753271722
20
-9.78354000799791
30
0
41
1
10
32.3185303945735
20
-9.76435291545852
30
0
41
1
10
32.314382390026
20
-9.75610894781281
30
0
41
1
10
32.3044326430874
20
-9.74889014192732
30
0
41
1
10
32.3004704742929
20
-9.74738538740354
30
0
41
1
10
32.2915612701955
20
-9.74667470285399
30
0
41
1
10
32.2865760468594
20
-9.74747025650817
30
0
41
1
10
32.2710425830605
20
-9.75289524861259
30
0
41
1
10
32.2600338082371
20
-9.76039293085682
30
0
41
1
10
32.2494999999999
20
-9.76950019574642
30
0
0
SPLINE
5
195
100
AcDbEntity
8
1
62
256
6
ByLayer
370
18
48
1
60
0
100
AcDbSpline
70
4
71
3
72
14
73
10
40
0
40
0
40
0
40
0
40
0.25
40
0.25
40
0.5
40
0.5
40
0.75
40
0.75
40
1
40
1
40
1
40
1
41
1
10
32.3245
20
14.9859559143441
30
0
41
1
10
32.3245
20
14.9866037881909
30
0
41
1
10
32.3221714238466
20
14.9895583980661
30
0
41
1
10
32.3139277494105
20
14.9989068493278
30
0
41
1
10
32.3079656550488
20
15.0053619807908
30
0
41
1
10
32.2940017220874
20
15.0201650892682
30
0
41
1
10
32.2858258606706
20
15.0286994782738
30
0
41
1
10
32.2684583541967
20
15.0466629130138
30
0
41
1
10
32.2592129025007
20
15.056150159816
30
0
41
1
10
32.2495
20
15.0660620158908
30
0
0
SPLINE
5
196
100
AcDbEntity
8
1
62
256
6
ByLayer
370
18
48
1
60
0
100
AcDbSpline
70
4
71
3
72
22
73
18
40
0
40
0
40
0
40
0
40
0.124999999999999
40
0.124999999999999
40
0.249999999999998
40
0.249999999999998
40
0.3125
40
0.3125
40
0.375000000000002
40
0.375000000000002
40
0.500000000000003
40
0.500000000000003
40
0.625000000000004
40
0.625000000000004
40
0.750000000000006
40
0.750000000000006
40
1
40
1
40
1
40
1
41
1
10
31.6055
20
14.5887620387653
30
0
41
1
10
31.5929845031714
20
14.5993482666228
30
0
41
1
10
31.5806879940926
20
14.6088941023579
30
0
41
1
10
31.5581074155188
20
14.6240121378288
30
0
41
1
10
31.5476913182949
20
14.6296362448251
30
0
41
1
10
31.5354071612165
20
14.6332761314102
30
0
41
1
10
31.5319337702328
20
14.6336780888104
30
0
41
1
10
31.5263533110019
20
14.6328644638049
30
0
41
1
10
31.5242053215013
20
14.631622156286
30
0
41
1
10
31.5199377739814
20
14.6257084033646
30
0
41
1
10
31.5199047753131
20
14.6188074918056
30
0
41
1
10
31.5238982521712
20
14.6017492602949
30
0
41
1
10
31.5279214212342
20
14.5914489173346
30
0
41
1
10
31.538474273465
20
14.5693096491524
30
0
41
1
10
31.5450386933838
20
14.5573625363887
30
0
41
1
10
31.5674538297115
20
14.5199933529968
30
0
41
1
10
31.5853599050208
20
14.4939793181766
30
0
41
1
10
31.6055
20
14.467155704432
30
0
0
SPLINE
5
197
100
AcDbEntity
8
1
62
256
6
ByLayer
370
18
48
1
60
0
100
AcDbSpline
70
4
71
3
72
8
73
4
40
0
40
0
40
0
40
0
40
1
40
1
40
1
40
1
41
1
10
32.2495
20
-10.2876833609242
30
0
41
1
10
32.0427804369158
20
-10.7184329254336
30
0
41
1
10
31.8277685085049
20
-11.1436031744424
30
0
41
1
10
31.6055
20
-11.5638910107493
30
0
0
SPLINE
5
198
100
AcDbEntity
8
1
62
256
6
ByLayer
370
18
48
1
60
0
100
AcDbSpline
70
4
71
3
72
8
73
4
40
0
40
0
40
0
40
0
40
1
40
1
40
1
40
1
41
1
10
31.6055
20
-14.5887620387653
30
0
41
1
10
31.8202658629213
20
-14.4071024217297
30
0
41
1
10
32.0349363755451
20
-14.2252923825811
30
0
41
1
10
32.2495
20
-14.0433144011905
30
0
0
SPLINE
5
199
100
AcDbEntity
8
1
62
256
6
ByLayer
370
18
48
1
60
0
100
AcDbSpline
70
4
71
3
72
14
73
10
40
0
40
0
40
0
40
0
40
0.25
40
0.25
40
0.5
40
0.5
40
0.75
40
0.75
40
1
40
1
40
1
40
1
41
1
10
32.2495
20
13.3612047752696
30
0
41
1
10
32.2593226313071
20
13.3530852648856
30
0
41
1
10
32.2689953447247
20
13.34584945113
30
0
41
1
10
32.2874920421366
20
13.3342273151596
30
0
41
1
10
32.2961194102698
20
13.3300265400418
30
0
41
1
10
32.3102957488525
20
13.3263612230327
30
0
41
1
10
32.3158785041992
20
13.3269535463815
30
0
41
1
10
32.3229029927876
20
13.3325991686977
30
0
41
1
10
32.3245000000002
20
13.3376563934627
30
0
41
1
10
32.3245000000001
20
13.3440248877616
30
0
0
SPLINE
5
19A
100
AcDbEntity
8
1
62
256
6
ByLayer
370
18
48
1
60
0
100
AcDbSpline
70
4
71
3
72
28
73
24
40
0
40
0
40
0
40
0
40
0.031249999999983
40
0.031249999999983
40
0.0468749999999758
40
0.0468749999999758
40
0.0624999999999686
40
0.0624999999999686
40
0.0937499999999692
40
0.0937499999999692
40
0.12499999999997
40
0.12499999999997
40
0.187499999999973
40
0.187499999999973
40
0.249999999999976
40
0.249999999999976
40
0.374999999999981
40
0.374999999999981
40
0.499999999999985
40
0.499999999999985
40
0.749999999999992
40
0.749999999999992
40
1
40
1
40
1
40
1
41
1
10
31.6054999999982
20
5.14606797073728
30
0
41
1
10
31.5990607196724
20
5.15500694765888
30
0
41
1
10
31.5920487227007
20
5.16326749775456
30
0
41
1
10
31.5802994716362
20
5.17197447704606
30
0
41
1
10
31.5761587189381
20
5.17419754881274
30
0
41
1
10
31.5679779528108
20
5.17625991206876
30
0
41
1
10
31.5639122456636
20
5.17605253125521
30
0
41
1
10
31.5530624890175
20
5.17191324931281
30
0
41
1
10
31.5475688170393
20
5.16482839498326
30
0
41
1
10
31.5392321251935
20
5.14871879582549
30
0
41
1
10
31.5361654659971
20
5.13940504498223
30
0
41
1
10
31.5287598614788
20
5.11072369469048
30
0
41
1
10
31.5260238660047
20
5.09020089867167
30
0
41
1
10
31.5221896601436
20
5.04807959305865
30
0
41
1
10
31.5212210441726
20
5.02660979314064
30
0
41
1
10
31.5198970504747
20
4.9617492140828
30
0
41
1
10
31.5211050214013
20
4.91769994918738
30
0
41
1
10
31.525548934381
20
4.82907530459752
30
0
41
1
10
31.5288395636416
20
4.78459792716092
30
0
41
1
10
31.5407635270371
20
4.65080708527111
30
0
41
1
10
31.5514182783238
20
4.5611088677739
30
0
41
1
10
31.5760447906576
20
4.38113636750927
30
0
41
1
10
31.5900307274928
20
4.29110241989679
30
0
41
1
10
31.6055
20
4.20101850039947
30
0
0
SPLINE
5
19B
100
AcDbEntity
8
1
62
256
6
ByLayer
370
18
48
1
60
0
100
AcDbSpline
70
4
71
3
72
16
73
12
40
0
40
0
40
0
40
0
40
0.125000000000003
40
0.125000000000003
40
0.250000000000007
40
0.250000000000007
40
0.500000000000005
40
0.500000000000005
40
0.750000000000002
40
0.750000000000002
40
1
40
1
40
1
40
1
41
1
10
9.07679491924324
20
-5.85988980456941
30
0
41
1
10
9.09558095295722
20
-5.85988980456941
30
0
41
1
10
9.11384906187917
20
-5.86350446472733
30
0
41
1
10
9.14859952398746
20
-5.87658838136372
30
0
41
1
10
9.16442417341898
20
-5.88571770958598
30
0
41
1
10
9.20863486580129
20
-5.91854200832069
30
0
41
1
10
9.23213528231534
20
-5.94612987812178
30
0
41
1
10
9.27225845989869
20
-6.00566371121209
30
0
41
1
10
9.28838045037801
20
-6.03712755983031
30
0
41
1
10
9.31588453947577
20
-6.10206728171744
30
0
41
1
10
9.3272084215684
20
-6.13567510453154
30
0
41
1
10
9.33660254037869
20
-6.16973001948608
30
0
0
SPLINE
5
19C
100
AcDbEntity
8
1
62
256
6
ByLayer
370
18
48
1
60
0
100
AcDbSpline
70
4
71
3
72
26
73
22
40
0
40
0
40
0
40
0
40
0.125
40
0.125
40
0.250000000000001
40
0.250000000000001
40
0.375000000000001
40
0.375000000000001
40
0.500000000000002
40
0.500000000000002
40
0.625000000000002
40
0.625000000000002
40
0.687500000000002
40
0.687500000000002
40
0.750000000000002
40
0.750000000000002
40
0.812500000000001
40
0.812500000000001
40
0.875000000000001
40
0.875000000000001
40
1
40
1
40
1
40
1
41
1
10
31.6055
20
-11.5638910107493
30
0
41
1
10
31.5960493295775
20
-11.5817612967842
30
0
41
1
10
31.5871814269742
20
-11.5996025503992
30
0
41
1
10
31.5706253943952
20
-11.6352220144038
30
0
41
1
10
31.5629184114111
20
-11.6530546184183
30
0
41
1
10
31.5490591808351
20
-11.6880742622174
30
0
41
1
10
31.5428724205169
20
-11.7053203764697
30
0
41
1
10
31.5323054810601
20
-11.7391727389531
30
0
41
1
10
31.5278851986168
20
-11.7559124325496
30
0
41
1
10
31.5217790680737
20
-11.7878552058963
30
0
41
1
10
31.520061806801
20
-11.8029393669194
30
0
41
1
10
31.520856800308
20
-11.8233513255689
30
0
41
1
10
31.5217056690621
20
-11.8296845211236
30
0
41
1
10
31.5249196991536
20
-11.8408280079046
30
0
41
1
10
31.5273336886007
20
-11.84573403173
30
0
41
1
10
31.5340693015642
20
-11.8531086434014
30
0
41
1
10
31.5384805347243
20
-11.8556083094396
30
0
41
1
10
31.5490084006567
20
-11.8574114046452
30
0
41
1
10
31.555247105383
20
-11.8567354425204
30
0
41
1
10
31.5754564096506
20
-11.8503173468117
30
0
41
1
10
31.5906709186585
20
-11.8404421540852
30
0
41
1
10
31.6055
20
-11.8282288061874
30
0
0
SPLINE
5
19D
100
AcDbEntity
8
1
62
256
6
ByLayer
370
18
48
1
60
0
100
AcDbSpline
70
4
71
3
72
8
73
4
40
0
40
0
40
0
40
0
40
1
40
1
40
1
40
1
41
1
10
32.2495
20
-14.9391803988928
30
0
41
1
10
32.0358125818042
20
-15.1714844119366
30
0
41
1
10
31.8211109108127
20
-15.4025322035561
30
0
41
1
10
31.6055
20
-15.6324538394991
30
0
0
SPLINE
5
19E
100
AcDbEntity
8
1
62
256
6
ByLayer
370
18
48
1
60
0
100
AcDbSpline
70
4
71
3
72
24
73
20
40
0
40
0
40
0
40
0
40
0.0624999999999951
40
0.0624999999999951
40
0.12499999999999
40
0.12499999999999
40
0.187499999999986
40
0.187499999999986
40
0.249999999999981
40
0.249999999999981
40
0.374999999999983
40
0.374999999999983
40
0.499999999999986
40
0.499999999999986
40
0.624999999999989
40
0.624999999999989
40
0.749999999999992
40
0.749999999999992
40
1
40
1
40
1
40
1
41
1
10
31.6055000000002
20
10.3246631735603
30
0
41
1
10
31.5972908220626
20
10.3317203524529
30
0
41
1
10
31.5888294563666
20
10.3379434777723
30
0
41
1
10
31.572156336855
20
10.3470822248402
30
0
41
1
10
31.56390538009
20
10.3499327609478
30
0
41
1
10
31.5493813671578
20
10.3507384660684
30
0
41
1
10
31.543058016479
20
10.3486864523546
30
0
41
1
10
31.5331440046893
20
10.3406952501179
30
0
41
1
10
31.5295379464697
20
10.3349316455587
30
0
41
1
10
31.5216517000027
20
10.3147017041259
30
0
41
1
10
31.520176950368
20
10.2973338809399
30
0
41
1
10
31.5209299083085
20
10.2611121046283
30
0
41
1
10
31.5231701003545
20
10.2420124699813
30
0
41
1
10
31.5299124700065
20
10.2025930021119
30
0
41
1
10
31.5344683999726
20
10.1822442124496
30
0
41
1
10
31.5450646287767
20
10.1416343023832
30
0
41
1
10
31.5511391063279
20
10.1212168100558
30
0
41
1
10
31.5712718337635
20
10.0596846218915
30
0
41
1
10
31.5871862607217
20
10.0182966088936
30
0
41
1
10
31.6055
20
9.97656766390921
30
0
0
SPLINE
5
19F
100
AcDbEntity
8
1
62
256
6
ByLayer
370
18
48
1
60
0
100
AcDbSpline
70
4
71
3
72
22
73
18
40
0
40
0
40
0
40
0
40
0.249999999999977
40
0.249999999999977
40
0.374999999999979
40
0.374999999999979
40
0.499999999999981
40
0.499999999999981
40
0.562499999999983
40
0.562499999999983
40
0.624999999999985
40
0.624999999999985
40
0.74999999999999
40
0.74999999999999
40
0.874999999999995
40
0.874999999999995
40
1
40
1
40
1
40
1
41
1
10
31.6055
20
15.4579633817609
30
0
41
1
10
31.582263425977
20
15.4791164845974
30
0
41
1
10
31.5600571063052
20
15.4979861196756
30
0
41
1
10
31.5356004480986
20
15.5150130275158
30
0
41
1
10
31.5291039397895
20
15.5186278790933
30
0
41
1
10
31.5212166421467
20
15.5203646678102
30
0
41
1
10
31.519795744961
20
15.5184659182163
30
0
41
1
10
31.5213682137262
20
15.5120748358367
30
0
41
1
10
31.5225019096432
20
15.5093305442332
30
0
41
1
10
31.5257546539314
20
15.5029841856744
30
0
41
1
10
31.5278673078737
20
15.4993780947692
30
0
41
1
10
31.5354600365086
20
15.4874432758273
30
0
41
1
10
31.5421827237264
20
15.4780317693818
30
0
41
1
10
31.5575174190538
20
15.4578726848728
30
0
41
1
10
31.5663064945326
20
15.4468918586348
30
0
41
1
10
31.5850325642714
20
15.4243125329395
30
0
41
1
10
31.5950016733861
20
15.4126662639081
30
0
41
1
10
31.6055
20
15.4007123240498
30
0
0
SPLINE
5
1A0
100
AcDbEntity
8
1
62
256
6
ByLayer
370
18
48
1
60
0
100
AcDbSpline
70
4
71
3
72
14
73
10
40
0
40
0
40
0
40
0
40
0.25
40
0.25
40
0.5
40
0.5
40
0.75
40
0.75
40
1
40
1
40
1
40
1
41
1
10
32.2495
20
-11.6894628880304
30
0
41
1
10
32.259777257634
20
-11.6713772317817
30
0
41
1
10
32.2692719561185
20
-11.6533300874752
30
0
41
1
10
32.286638475468
20
-11.6173088202017
30
0
41
1
10
32.2944660562457
20
-11.5994126448605
30
0
41
1
10
32.3078858654049
20
-11.5645222591319
30
0
41
1
10
32.3135404938684
20
-11.5474348816546
30
0
41
1
10
32.3218832081918
20
-11.5142710929153
30
0
41
1
10
32.3245
20
-11.4985773286792
30
0
41
1
10
32.3245
20
-11.484682147122
30
0
0
SPLINE
5
1A1
100
AcDbEntity
8
1
62
256
6
ByLayer
370
18
48
1
60
0
100
AcDbSpline
70
4
71
3
72
8
73
4
40
0
40
0
40
0
40
0
40
1
40
1
40
1
40
1
41
1
10
32.2495
20
15.0430495027661
30
0
41
1
10
32.0353272741426
20
15.2496136869222
30
0
41
1
10
31.8206432773138
20
15.4554670740397
30
0
41
1
10
31.6055
20
15.6606819441533
30
0
0
SPLINE
5
1A2
100
AcDbEntity
8
1
62
256
6
ByLayer
370
18
48
1
60
0
100
AcDbSpline
70
4
71
3
72
8
73
4
40
0
40
0
40
0
40
0
40
1
40
1
40
1
40
1
41
1
10
32.2495
20
14.0433144011905
30
0
41
1
10
32.0349363755451
20
14.2252923825811
30
0
41
1
10
31.8202658629213
20
14.4071024217297
30
0
41
1
10
31.6055
20
14.5887620387653
30
0
0
SPLINE
5
1A3
100
AcDbEntity
8
1
62
256
6
ByLayer
370
18
48
1
60
0
100
AcDbSpline
70
4
71
3
72
14
73
10
40
0
40
0
40
0
40
0
40
0.25
40
0.25
40
0.5
40
0.5
40
0.75
40
0.75
40
1
40
1
40
1
40
1
41
1
10
32.2495
20
-12.7652127395764
30
0
41
1
10
32.2596268005951
20
-12.7495806838879
30
0
41
1
10
32.2690240669662
20
-12.7340760766623
30
0
41
1
10
32.2862804481998
20
-12.7033283558361
30
0
41
1
10
32.2941997373812
20
-12.6879584717938
30
0
41
1
10
32.307792910941
20
-12.658264685519
30
0
41
1
10
32.3134921289402
20
-12.6439479860332
30
0
41
1
10
32.3218710690002
20
-12.6167753053822
30
0
41
1
10
32.3245000000129
20
-12.6040416188809
30
0
41
1
10
32.3245000000139
20
-12.5934407184002
30
0
0
SPLINE
5
1A4
100
AcDbEntity
8
1
62
256
6
ByLayer
370
18
48
1
60
0
100
AcDbSpline
70
4
71
3
72
8
73
4
40
0
40
0
40
0
40
0
40
1
40
1
40
1
40
1
41
1
10
31.6055
20
15.718310532624
30
0
41
1
10
31.8208468077431
20
15.5017897467223
30
0
41
1
10
32.0355383552333
20
15.2844063293729
30
0
41
1
10
32.2495
20
15.0660620158908
30
0
0
SPLINE
5
1A5
100
AcDbEntity
8
1
62
256
6
ByLayer
370
18
48
1
60
0
100
AcDbSpline
70
4
71
3
72
12
73
8
40
0
40
0
40
0
40
0
40
0.249999999999996
40
0.249999999999996
40
0.499999999999992
40
0.499999999999992
40
1
40
1
40
1
40
1
41
1
10
32.3245000000063
20
12.5934407184059
30
0
41
1
10
32.3245000000059
20
12.6040609437136
30
0
41
1
10
32.3218483991439
20
12.6168702933521
30
0
41
1
10
32.3134516370154
20
12.6440576677465
30
0
41
1
10
32.3076715399339
20
12.6585620464153
30
0
41
1
10
32.2871295287574
20
12.7033373881304
30
0
41
1
10
32.2697437386086
20
12.733963852398
30
0
41
1
10
32.2495
20
12.7652127395764
30
0
0
SPLINE
5
1A6
100
AcDbEntity
8
1
62
256
6
ByLayer
370
18
48
1
60
0
100
AcDbSpline
70
4
71
3
72
12
73
8
40
0
40
0
40
0
40
0
40
0.573509267101659
40
0.573509267101659
40
0.860263900652517
40
0.860263900652517
40
1
40
1
40
1
40
1
41
1
10
31.6055
20
15.6606819441533
30
0
41
1
10
31.5828740164312
20
15.6822637864365
30
0
41
1
10
31.5615785724027
20
15.7019823017567
30
0
41
1
10
31.5373661681723
20
15.7227335759311
30
0
41
1
10
31.5307180345658
20
15.7280413748142
30
0
41
1
10
31.5242744109112
20
15.7323058529334
30
0
41
1
10
31.5227154147643
20
15.733115050879
30
0
41
1
10
31.5217348857158
20
15.7333301965601
30
0
0
SPLINE
5
1A7
100
AcDbEntity
8
1
62
256
6
ByLayer
370
18
48
1
60
0
100
AcDbSpline
70
4
71
3
72
16
73
12
40
0
40
0
40
0
40
0
40
0.024822277056083
40
0.024822277056083
40
0.268616707792062
40
0.268616707792062
40
0.512411138528042
40
0.512411138528042
40
0.756205569264021
40
0.756205569264021
40
1
40
1
40
1
40
1
41
1
10
31.5205041303888
20
15.7326037808342
30
0
41
1
10
31.5205069809817
20
15.7324385260936
30
0
41
1
10
31.5205360516331
20
15.732247115728
30
0
41
1
10
31.5211369779532
20
15.7298921088132
30
0
41
1
10
31.5242117394882
20
15.7252031637545
30
0
41
1
10
31.5340008699192
20
15.7124427688096
30
0
41
1
10
31.5407720094601
20
15.7042767702902
30
0
41
1
10
31.5563778393302
20
15.6861876297347
30
0
41
1
10
31.5654067401733
20
15.6760368388836
30
0
41
1
10
31.5845812524088
20
15.6549179180248
30
0
41
1
10
31.5947798678576
20
15.6438854980846
30
0
41
1
10
31.6055
20
15.6324538394991
30
0
0
SPLINE
5
1A8
100
AcDbEntity
8
1
62
256
6
ByLayer
370
18
48
1
60
0
100
AcDbSpline
70
4
71
3
72
14
73
10
40
0
40
0
40
0
40
0
40
0.25
40
0.25
40
0.5
40
0.5
40
0.75
40
0.75
40
1
40
1
40
1
40
1
41
1
10
32.2495
20
14.8694469304906
30
0
41
1
10
32.2592164064059
20
14.8605321940685
30
0
41
1
10
32.2686910938154
20
14.8520819869761
30
0
41
1
10
32.2862297992528
20
14.8370475450745
30
0
41
1
10
32.2944777938064
20
14.83030705375
30
0
41
1
10
32.3085971952312
20
14.8196865659095
30
0
41
1
10
32.3144901225729
20
14.8158058873362
30
0
41
1
10
32.3224223598941
20
14.8121474390756
30
0
41
1
10
32.3245
20
14.8123719240181
30
0
41
1
10
32.3245
20
14.8146051206936
30
0
0
SPLINE
5
1A9
100
AcDbEntity
8
1
62
256
6
ByLayer
370
18
48
1
60
0
100
AcDbSpline
70
4
71
3
72
22
73
18
40
0
40
0
40
0
40
0
40
0.249999999999982
40
0.249999999999982
40
0.499999999999965
40
0.499999999999965
40
0.562499999999963
40
0.562499999999963
40
0.624999999999962
40
0.624999999999962
40
0.74999999999997
40
0.74999999999997
40
0.812499999999986
40
0.812499999999986
40
0.875000000000003
40
0.875000000000003
40
1
40
1
40
1
40
1
41
1
10
31.6055
20
-14.467155704432
30
0
41
1
10
31.58527553925
20
-14.4940916808468
30
0
41
1
10
31.5670591396718
20
-14.5206125550333
30
0
41
1
10
31.5375270047238
20
-14.5699249535707
30
0
41
1
10
31.5258167416482
20
-14.5933532343268
30
0
41
1
10
31.5208683205301
20
-14.6147433519966
30
0
41
1
10
31.5203921018051
20
-14.6185526327083
30
0
41
1
10
31.5206486777981
20
-14.6250695289775
30
0
41
1
10
31.521404966572
20
-14.627788513956
30
0
41
1
10
31.5257227142369
20
-14.6336278942287
30
0
41
1
10
31.5315311175299
20
-14.6344466988331
30
0
41
1
10
31.5436546036878
20
-14.6308210893545
30
0
41
1
10
31.5483422571655
20
-14.6288001895483
30
0
41
1
10
31.5584108665371
20
-14.6234853969643
30
0
41
1
10
31.5637907399353
20
-14.620209721638
30
0
41
1
10
31.5808170244288
20
-14.60880235706
30
0
41
1
10
31.5930505226165
20
-14.5992924241023
30
0
41
1
10
31.6055
20
-14.5887620387654
30
0
0
SPLINE
5
1AA
100
AcDbEntity
8
1
62
256
6
ByLayer
370
18
48
1
60
0
100
AcDbSpline
70
4
71
3
72
26
73
22
40
0
40
0
40
0
40
0
40
0.0624999999999952
40
0.0624999999999952
40
0.0937499999999927
40
0.0937499999999927
40
0.12499999999999
40
0.12499999999999
40
0.187499999999992
40
0.187499999999992
40
0.249999999999993
40
0.249999999999993
40
0.374999999999994
40
0.374999999999994
40
0.499999999999995
40
0.499999999999995
40
0.624999999999996
40
0.624999999999996
40
0.749999999999998
40
0.749999999999998
40
1
40
1
40
1
40
1
41
1
10
31.605500000001
20
8.2939943696278
30
0
41
1
10
31.5959989241314
20
8.30316985758407
30
0
41
1
10
31.5858638857553
20
8.3110165174941
30
0
41
1
10
31.5706712189837
20
8.31742962374136
30
0
41
1
10
31.5657085906512
20
8.31860057097828
30
0
41
1
10
31.5564049528667
20
8.31864057855296
30
0
41
1
10
31.5521202378956
20
8.31749833255162
30
0
41
1
10
31.5408437021558
20
8.31118135248067
30
0
41
1
10
31.5354920144169
20
8.30336456768697
30
0
41
1
10
31.5276841395793
20
8.28493985169891
30
0
41
1
10
31.5251886418262
20
8.27430676989079
30
0
41
1
10
31.5201666391899
20
8.24102638198161
30
0
41
1
10
31.5199416735382
20
8.21682284496842
30
0
41
1
10
31.5222886504303
20
8.1669053891716
30
0
41
1
10
31.5249603294812
20
8.14138275077389
30
0
41
1
10
31.5321803867062
20
8.0896091365419
30
0
41
1
10
31.5367529648605
20
8.06339426308924
30
0
41
1
10
31.5472331069995
20
8.01102482569172
30
0
41
1
10
31.5531603578125
20
7.9847768918095
30
0
41
1
10
31.5726834417356
20
7.90586774237951
30
0
41
1
10
31.5879719682517
20
7.85304415629676
30
0
41
1
10
31.6055
20
7.80001470489825
30
0
0
SPLINE
5
1AB
100
AcDbEntity
8
1
62
256
6
ByLayer
370
18
48
1
60
0
100
AcDbSpline
70
4
71
3
72
24
73
20
40
0
40
0
40
0
40
0
40
0.25
40
0.25
40
0.5
40
0.5
40
0.625
40
0.625
40
0.6875
40
0.6875
40
0.75
40
0.75
40
0.8125
40
0.8125
40
0.875
40
0.875
40
0.9375
40
0.9375
40
1
40
1
40
1
40
1
41
1
10
32.3245000000001
20
-4.36430128929476
30
0
41
1
10
32.3245000000001
20
-4.34075100487226
30
0
41
1
10
32.3240058753211
20
-4.31732566239109
30
0
41
1
10
32.321458489008
20
-4.27117804393649
30
0
41
1
10
32.3194828325135
20
-4.24839436697582
30
0
41
1
10
32.3139936623765
20
-4.21531057376004
30
0
41
1
10
32.3117179633608
20
-4.20436723670144
30
0
41
1
10
32.3070529089918
20
-4.18906189571703
30
0
41
1
10
32.305288063206
20
-4.18414169883826
30
0
41
1
10
32.3010352228235
20
-4.17493065908172
30
0
41
1
10
32.298523775894
20
-4.17059131939445
30
0
41
1
10
32.2923932276941
20
-4.16373499233842
30
0
41
1
10
32.28861086133
20
-4.1611862417252
30
0
41
1
10
32.2801378671503
20
-4.16014524351283
30
0
41
1
10
32.2755740167096
20
-4.16171387523943
30
0
41
1
10
32.2671124917708
20
-4.16745050184562
30
0
41
1
10
32.2631632743611
20
-4.17149371210948
30
0
41
1
10
32.255928809143
20
-4.18033280021987
30
0
41
1
10
32.2526285978213
20
-4.18513717421033
30
0
41
1
10
32.2495
20
-4.19015052554323
30
0
0
SPLINE
5
1AC
100
AcDbEntity
8
1
62
256
6
ByLayer
370
18
48
1
60
0
100
AcDbSpline
70
4
71
3
72
8
73
4
40
0
40
0
40
0
40
0
40
1
40
1
40
1
40
1
41
1
10
32.2495000000001
20
-5.54276118758753
30
0
41
1
10
32.0666055459679
20
-6.30726507168859
30
0
41
1
10
31.8503984452163
20
-7.05909693474195
30
0
41
1
10
31.6055
20
-7.80001470489825
30
0
0
SPLINE
5
1AD
100
AcDbEntity
8
1
62
256
6
ByLayer
370
18
48
1
60
0
100
AcDbSpline
70
4
71
3
72
24
73
20
40
0
40
0
40
0
40
0
40
0.250000000000016
40
0.250000000000016
40
0.500000000000031
40
0.500000000000031
40
0.625000000000033
40
0.625000000000033
40
0.687500000000027
40
0.687500000000027
40
0.750000000000022
40
0.750000000000022
40
0.812500000000016
40
0.812500000000016
40
0.875000000000011
40
0.875000000000011
40
0.937500000000005
40
0.937500000000005
40
1
40
1
40
1
40
1
41
1
10
31.6055
20
-9.97656766390921
30
0
41
1
10
31.5871798910663
20
-10.0183111225325
30
0
41
1
10
31.5712116281801
20
-10.0598230274815
30
0
41
1
10
31.5442448678505
20
-10.1423338694694
30
0
41
1
10
31.5330974947957
20
-10.1837302350407
30
0
41
1
10
31.5231172424616
20
-10.2424448734936
30
0
41
1
10
31.520881742774
20
-10.2616330904374
30
0
41
1
10
31.5203735268099
20
-10.2888154531627
30
0
41
1
10
31.5206879385433
20
-10.2975056830653
30
0
41
1
10
31.5226554903738
20
-10.3138685989044
30
0
41
1
10
31.5243309659136
20
-10.3216346318268
30
0
41
1
10
31.5296236232373
20
-10.3350898297097
30
0
41
1
10
31.5332701674035
20
-10.340847507557
30
0
41
1
10
31.5431970204705
20
-10.348746561468
30
0
41
1
10
31.5495394952628
20
-10.3507641377659
30
0
41
1
10
31.5640797062506
20
-10.349887849218
30
0
41
1
10
31.5723113146981
20
-10.3470063547565
30
0
41
1
10
31.588819538971
20
-10.3379397582797
30
0
41
1
10
31.5973025137125
20
-10.3317103014987
30
0
41
1
10
31.6055000000001
20
-10.3246631735596
30
0
0
SPLINE
5
1AE
100
AcDbEntity
8
1
62
256
6
ByLayer
370
18
48
1
60
0
100
AcDbSpline
70
4
71
3
72
24
73
20
40
0
40
0
40
0
40
0
40
0.0624999999999981
40
0.0624999999999981
40
0.124999999999996
40
0.124999999999996
40
0.187499999999994
40
0.187499999999994
40
0.249999999999993
40
0.249999999999993
40
0.312499999999991
40
0.312499999999991
40
0.374999999999989
40
0.374999999999989
40
0.499999999999987
40
0.499999999999987
40
0.749999999999994
40
0.749999999999994
40
1
40
1
40
1
40
1
41
1
10
32.2494999999986
20
4.19015052554172
30
0
41
1
10
32.252650479603
20
4.1851021102367
30
0
41
1
10
32.2559980984989
20
4.18024106708771
30
0
41
1
10
32.2631903026624
20
4.17146785933002
30
0
41
1
10
32.2671256027574
20
4.16744353682165
30
0
41
1
10
32.2755433272005
20
4.16173276191404
30
0
41
1
10
32.2801295898292
20
4.16014218404649
30
0
41
1
10
32.288632245568
20
4.16119091466771
30
0
41
1
10
32.2923300996017
20
4.16368208398362
30
0
41
1
10
32.2984842085366
20
4.17052966741841
30
0
41
1
10
32.3009877466847
20
4.17484851966302
30
0
41
1
10
32.3052204195654
20
4.18397506082425
30
0
41
1
10
32.3069865523199
20
4.18886922507809
30
0
41
1
10
32.3116624731073
20
4.20413659332868
30
0
41
1
10
32.3139401583551
20
4.21503076315585
30
0
41
1
10
32.3194736840518
20
4.24825523171026
30
0
41
1
10
32.3214624331312
20
4.27121971459388
30
0
41
1
10
32.3240095526549
20
4.31742214875297
30
0
41
1
10
32.3245
20
4.34078386445864
30
0
41
1
10
32.3245
20
4.36430128929479
30
0
0
SPLINE
5
1AF
100
AcDbEntity
8
1
62
256
6
ByLayer
370
18
48
1
60
0
100
AcDbSpline
70
4
71
3
72
8
73
4
40
0
40
0
40
0
40
0
40
1
40
1
40
1
40
1
41
1
10
31.6055
20
15.4007123240498
30
0
41
1
10
31.8214601253758
20
15.1548089105379
30
0
41
1
10
32.0361756971328
20
14.9074656463368
30
0
41
1
10
32.2495
20
14.6585127934132
30
0
0
SPLINE
5
1B0
100
AcDbEntity
8
1
62
256
6
ByLayer
370
18
48
1
60
0
100
AcDbSpline
70
4
71
3
72
8
73
4
40
0
40
0
40
0
40
0
40
1
40
1
40
1
40
1
41
1
10
32.2495
20
-14.2149528187276
30
0
41
1
10
32.0366690653106
20
-14.4840466183653
30
0
41
1
10
31.8219338484439
20
-14.7511000100563
30
0
41
1
10
31.6055
20
-15.0163333451349
30
0
0
SPLINE
5
1B1
100
AcDbEntity
8
1
62
256
6
ByLayer
370
18
48
1
60
0
100
AcDbSpline
70
4
71
3
72
12
73
8
40
0
40
0
40
0
40
0
40
0.249999999999994
40
0.249999999999994
40
0.499999999999987
40
0.499999999999987
40
1
40
1
40
1
40
1
41
1
10
32.324500000005
20
11.4846821471184
30
0
41
1
10
32.3245000000045
20
11.4986186392601
30
0
41
1
10
32.3218168192749
20
11.5145820361711
30
0
41
1
10
32.3134994891632
20
11.5475502348942
30
0
41
1
10
32.3077914383874
20
11.5648102449531
30
0
41
1
10
32.2874223644384
20
11.6176390305913
30
0
41
1
10
32.2700255746268
20
11.6533425045365
30
0
41
1
10
32.2495
20
11.6894628880304
30
0
0
SPLINE
5
1B2
100
AcDbEntity
8
1
62
256
6
ByLayer
370
18
48
1
60
0
100
AcDbSpline
70
4
71
3
72
8
73
4
40
0
40
0
40
0
40
0
40
1
40
1
40
1
40
1
41
1
10
31.6055
20
-13.8932951735594
30
0
41
1
10
31.8201992608209
20
-13.7159843184299
30
0
41
1
10
32.0348672252561
20
-13.5386229220787
30
0
41
1
10
32.2495
20
-13.3612047752696
30
0
0
LINE
5
75
100
AcDbEntity
8
1
62
256
6
ByLayer
370
18
48
1
60
0
100
AcDbLine
10
23.4
20
-16
30
0
11
31.3245
21
-16
31
0
39
0
210
0
220
0
230
1
0
LINE
5
77
100
AcDbEntity
8
1
62
256
6
ByLayer
370
18
48
1
60
0
100
AcDbLine
10
32.309989
20
-10.278175
30
0
11
36.4755
21
-10.278175
31
0
39
0
210
0
220
0
230
1
0
LINE
5
78
100
AcDbEntity
8
1
62
256
6
ByLayer
370
18
48
1
60
0
100
AcDbLine
10
41.0855
20
12.028175
30
0
11
36.6755
21
12.028175
31
0
39
0
210
0
220
0
230
1
0
LINE
5
79
100
AcDbEntity
8
1
62
256
6
ByLayer
370
18
48
1
60
0
100
AcDbLine
10
36.6755
20
3.528175
30
0
11
41.0855
21
3.528175
31
0
39
0
210
0
220
0
230
1
0
LINE
5
7A
100
AcDbEntity
8
1
62
256
6
ByLayer
370
18
48
1
60
0
100
AcDbLine
10
36.6755
20
-12.028175
30
0
11
41.0855
21
-12.028175
31
0
39
0
210
0
220
0
230
1
0
LINE
5
7B
100
AcDbEntity
8
1
62
256
6
ByLayer
370
18
48
1
60
0
100
AcDbLine
10
41.0855
20
-3.528175
30
0
11
36.6755
21
-3.528175
31
0
39
0
210
0
220
0
230
1
0
LINE
5
7C
100
AcDbEntity
8
1
62
256
6
ByLayer
370
18
48
1
60
0
100
AcDbLine
10
36.4755
20
-5.278175
30
0
11
32.32436
21
-5.278175
31
0
39
0
210
0
220
0
230
1
0
LINE
5
7D
100
AcDbEntity
8
1
62
256
6
ByLayer
370
18
48
1
60
0
100
AcDbLine
10
36.4755
20
10.278175
30
0
11
32.309634
21
10.278175
31
0
39
0
210
0
220
0
230
1
0
LINE
5
7E
100
AcDbEntity
8
1
62
256
6
ByLayer
370
18
48
1
60
0
100
AcDbLine
10
31.521894
20
15.802606
30
0
11
31.3245
21
16
31
0
39
0
210
0
220
0
230
1
0
LINE
5
7F
100
AcDbEntity
8
1
62
256
6
ByLayer
370
18
48
1
60
0
100
AcDbLine
10
31.3245
20
-16
30
0
11
31.521894
21
-15.802606
31
0
39
0
210
0
220
0
230
1
0
LINE
5
80
100
AcDbEntity
8
1
62
256
6
ByLayer
370
18
48
1
60
0
100
AcDbLine
10
20
20
20
30
0
11
0.3
21
20
31
0
39
0
210
0
220
0
230
1
0
LINE
5
81
100
AcDbEntity
8
1
62
256
6
ByLayer
370
18
48
1
60
0
100
AcDbLine
10
0.3
20
-20
30
0
11
20
21
-20
31
0
39
0
210
0
220
0
230
1
0
LINE
5
82
100
AcDbEntity
8
1
62
256
6
ByLayer
370
18
48
1
60
0
100
AcDbLine
10
0
20
-19.7
30
0
11
0.3
21
-20
31
0
39
0
210
0
220
0
230
1
0
LINE
5
83
100
AcDbEntity
8
1
62
256
6
ByLayer
370
18
48
1
60
0
100
AcDbLine
10
0.3
20
20
30
0
11
0
21
19.7
31
0
39
0
210
0
220
0
230
1
0
LINE
5
84
100
AcDbEntity
8
1
62
256
6
ByLayer
370
18
48
1
60
0
100
AcDbLine
10
20.513026
20
18.18429
30
0
11
20
21
20
31
0
39
0
210
0
220
0
230
1
0
LINE
5
85
100
AcDbEntity
8
1
62
256
6
ByLayer
370
18
48
1
60
0
100
AcDbLine
10
20
20
-20
30
0
11
20.513026
21
-18.18429
31
0
39
0
210
0
220
0
230
1
0
LINE
5
86
100
AcDbEntity
8
1
62
256
6
ByLayer
370
18
48
1
60
0
100
AcDbLine
10
32.32436
20
5.278175
30
0
11
36.4755
21
5.278175
31
0
39
0
210
0
220
0
230
1
0
LINE
5
87
100
AcDbEntity
8
1
62
256
6
ByLayer
370
18
48
1
60
0
100
AcDbLine
10
31.3245
20
16
30
0
11
23.4
21
16
31
0
39
0
210
0
220
0
230
1
0
LINE
5
88
100
AcDbEntity
8
1
62
256
6
ByLayer
370
18
48
1
60
0
100
AcDbLine
10
41.0855
20
12.028175
30
0
11
36.6755
21
12.028175
31
0
39
0
210
0
220
0
230
1
0
LINE
5
89
100
AcDbEntity
8
1
62
256
6
ByLayer
370
18
48
1
60
0
100
AcDbLine
10
36.6755
20
3.528175
30
0
11
41.0855
21
3.528175
31
0
39
0
210
0
220
0
230
1
0
LINE
5
8A
100
AcDbEntity
8
1
62
256
6
ByLayer
370
18
48
1
60
0
100
AcDbLine
10
36.4755
20
10.278175
30
0
11
32.309634
21
10.278175
31
0
39
0
210
0
220
0
230
1
0
LINE
5
8B
100
AcDbEntity
8
1
62
256
6
ByLayer
370
18
48
1
60
0
100
AcDbLine
10
32.32436
20
5.278175
30
0
11
36.4755
21
5.278175
31
0
39
0
210
0
220
0
230
1
0
LINE
5
8C
100
AcDbEntity
8
1
62
256
6
ByLayer
370
13
48
1
60
0
100
AcDbLine
10
32.324481
20
9.833175
30
0
11
36.4755
21
9.833175
31
0
39
0
210
0
220
0
230
1
0
LINE
5
8D
100
AcDbEntity
8
1
62
256
6
ByLayer
370
13
48
1
60
0
100
AcDbLine
10
32.324481
20
5.723175
30
0
11
36.4755
21
5.723175
31
0
39
0
210
0
220
0
230
1
0
LINE
5
8E
100
AcDbEntity
8
1
62
256
6
ByLayer
370
18
48
1
60
0
100
AcDbLine
10
36.4755
20
8.0788
30
0
11
36.4755
21
5.278175
31
0
39
0
210
0
220
0
230
1
0
LINE
5
8F
100
AcDbEntity
8
80
62
256
6
ByLayer
370
18
48
1
60
0
100
AcDbLine
10
0
20
0
30
0
11
-5
21
0
31
0
39
0
210
0
220
0
230
1
0
LINE
5
90
100
AcDbEntity
8
81
62
256
6
ByLayer
370
18
48
1
60
0
100
AcDbLine
10
32
20
0
30
0
11
37
21
0
31
0
39
0
210
0
220
0
230
1
0
LINE
5
91
100
AcDbEntity
8
4
62
256
6
ByLayer
370
18
48
0.05
60
0
100
AcDbLine
10
0
20
0
30
0
11
32
21
0
31
0
39
0
210
0
220
0
230
1
0
LINE
5
93
100
AcDbEntity
8
SK4
62
256
6
ByLayer
370
18
48
0.05
60
0
100
AcDbLine
10
-29
20
0
30
0
11
37
21
0
31
0
39
0
210
0
220
0
230
1
0
LINE
5
95
100
AcDbEntity
8
SK1
62
256
6
ByLayer
370
18
48
1
60
0
100
AcDbLine
10
-0.2
20
5.727782
30
0
11
-0.2
21
5.678452
31
0
39
0
210
0
220
0
230
1
0
LINE
5
97
100
AcDbEntity
8
SK1
62
256
6
ByLayer
370
18
48
1
60
0
100
AcDbLine
10
-0.2
20
-5.678452
30
0
11
-0.2
21
-5.727781
31
0
39
0
210
0
220
0
230
1
0
LINE
5
98
100
AcDbEntity
8
SK1
62
256
6
ByLayer
370
13
48
1
60
0
100
AcDbLine
10
-1.307107
20
3.628534
30
0
11
-1.307107
21
-3.628532
31
0
39
0
210
0
220
0
230
1
0
LINE
5
99
100
AcDbEntity
8
1
62
256
6
ByLayer
370
18
48
1
60
0
100
AcDbLine
10
9.076795
20
5.85989
30
0
11
6.923205
21
5.85989
31
0
39
0
210
0
220
0
230
1
0
LINE
5
9A
100
AcDbEntity
8
1
62
256
6
ByLayer
370
13
48
1
60
0
100
AcDbLine
10
31.6055
20
8.293994
30
0
11
31.6055
21
7.799983
31
0
39
0
210
0
220
0
230
1
0
LINE
5
9B
100
AcDbEntity
8
1
62
256
6
ByLayer
370
13
48
1
60
0
100
AcDbLine
10
31.6055
20
-7.799983
30
0
11
31.6055
21
-8.293994
31
0
39
0
210
0
220
0
230
1
0
LINE
5
9C
100
AcDbEntity
8
1
62
256
6
ByLayer
370
13
48
1
60
0
100
AcDbLine
10
31.6055
20
14.588762
30
0
11
31.6055
21
14.467117
31
0
39
0
210
0
220
0
230
1
0
LINE
5
9D
100
AcDbEntity
8
1
62
256
6
ByLayer
370
13
48
1
60
0
100
AcDbLine
10
31.6055
20
15.457963
30
0
11
31.6055
21
15.400639
31
0
39
0
210
0
220
0
230
1
0
LINE
5
9E
100
AcDbEntity
8
1
62
256
6
ByLayer
370
18
48
1
60
0
100
AcDbLine
10
32.3245
20
-14.497219
30
0
11
32.3245
21
-14.549406
31
0
39
0
210
0
220
0
230
1
0
LINE
5
9F
100
AcDbEntity
8
1
62
256
6
ByLayer
370
13
48
1
60
0
100
AcDbLine
10
9.336603
20
-6.16973
30
0
11
9.336603
21
-19.024574
31
0
39
0
210
0
220
0
230
1
0
LINE
5
A0
100
AcDbEntity
8
1
62
256
6
ByLayer
370
18
48
1
60
0
100
AcDbLine
10
32.3245
20
14.814605
30
0
11
32.3245
21
14.549342
31
0
39
0
210
0
220
0
230
1
0
LINE
5
A1
100
AcDbEntity
8
1
62
256
6
ByLayer
370
13
48
1
60
0
100
AcDbLine
10
32.2495
20
10.287691
30
0
11
32.2495
21
11.297611
31
0
39
0
210
0
220
0
230
1
0
LINE
5
A2
100
AcDbEntity
8
1
62
256
6
ByLayer
370
18
48
1
60
0
100
AcDbLine
10
32.3245
20
12.593441
30
0
11
32.3245
21
12.46033
31
0
39
0
210
0
220
0
230
1
0
LINE
5
A3
100
AcDbEntity
8
1
62
256
6
ByLayer
370
13
48
1
60
0
100
AcDbLine
10
31.6055
20
-15.400639
30
0
11
31.6055
21
-15.457963
31
0
39
0
210
0
220
0
230
1
0
LINE
5
A4
100
AcDbEntity
8
1
62
256
6
ByLayer
370
13
48
1
60
0
100
AcDbLine
10
31.6055
20
-15.632398
30
0
11
31.6055
21
-15.660682
31
0
39
0
210
0
220
0
230
1
0
LINE
5
A5
100
AcDbEntity
8
1
62
256
6
ByLayer
370
13
48
1
60
0
100
AcDbLine
10
32.2495
20
-14.539861
30
0
11
32.2495
21
-14.214869
31
0
39
0
210
0
220
0
230
1
0
LINE
5
A6
100
AcDbEntity
8
1
62
256
6
ByLayer
370
13
48
1
60
0
100
AcDbLine
10
31.6055
20
-15.016235
30
0
11
31.6055
21
-15.104314
31
0
39
0
210
0
220
0
230
1
0
LINE
5
A7
100
AcDbEntity
8
1
62
256
6
ByLayer
370
18
48
1
60
0
100
AcDbLine
10
32.3245
20
8.062523
30
0
11
32.3245
21
7.736298
31
0
39
0
210
0
220
0
230
1
0
LINE
5
A8
100
AcDbEntity
8
1
62
256
6
ByLayer
370
18
48
1
60
0
100
AcDbLine
10
32.3245
20
4.980708
30
0
11
32.3245
21
4.364301
31
0
39
0
210
0
220
0
230
1
0
LINE
5
A9
100
AcDbEntity
8
1
62
256
6
ByLayer
370
13
48
1
60
0
100
AcDbLine
10
6.663397
20
-6.16973
30
0
11
6.663397
21
-19.024574
31
0
39
0
210
0
220
0
230
1
0
LINE
5
AA
100
AcDbEntity
8
1
62
256
6
ByLayer
370
13
48
1
60
0
100
AcDbLine
10
31.6055
20
15.104314
30
0
11
31.6055
21
15.016235
31
0
39
0
210
0
220
0
230
1
0
LINE
5
AB
100
AcDbEntity
8
1
62
256
6
ByLayer
370
13
48
1
60
0
100
AcDbLine
10
32.2495
20
12.765188
30
0
11
32.2495
21
13.361205
31
0
39
0
210
0
220
0
230
1
0
LINE
5
AC
100
AcDbEntity
8
1
62
256
6
ByLayer
370
13
48
1
60
0
100
AcDbLine
10
32.2495
20
14.939166
30
0
11
32.2495
21
15.04305
31
0
39
0
210
0
220
0
230
1
0
LINE
5
AD
100
AcDbEntity
8
1
62
256
6
ByLayer
370
13
48
1
60
0
100
AcDbLine
10
32.2495
20
-15.04305
30
0
11
32.2495
21
-14.939166
31
0
39
0
210
0
220
0
230
1
0
LINE
5
AE
100
AcDbEntity
8
1
62
256
6
ByLayer
370
13
48
1
60
0
100
AcDbLine
10
9.076795
20
19.122283
30
0
11
9.076795
21
5.85989
31
0
39
0
210
0
220
0
230
1
0
LINE
5
AF
100
AcDbEntity
8
1
62
256
6
ByLayer
370
18
48
1
60
0
100
AcDbLine
10
6.923205
20
-5.85989
30
0
11
9.076795
21
-5.85989
31
0
39
0
210
0
220
0
230
1
0
LINE
5
B0
100
AcDbEntity
8
1
62
256
6
ByLayer
370
13
48
1
60
0
100
AcDbLine
10
32.2495
20
-14.043314
30
0
11
32.2495
21
-13.592505
31
0
39
0
210
0
220
0
230
1
0
LINE
5
B1
100
AcDbEntity
8
1
62
256
6
ByLayer
370
18
48
1
60
0
100
AcDbLine
10
32.3245
20
-14.013072
30
0
11
32.3245
21
-14.088591
31
0
39
0
210
0
220
0
230
1
0
LINE
5
B2
100
AcDbEntity
8
1
62
256
6
ByLayer
370
13
48
1
60
0
100
AcDbLine
10
31.6055
20
-14.467117
30
0
11
31.6055
21
-14.588762
31
0
39
0
210
0
220
0
230
1
0
LINE
5
B3
100
AcDbEntity
8
1
62
256
6
ByLayer
370
18
48
1
60
0
100
AcDbLine
10
32.3245
20
-14.814605
30
0
11
32.3245
21
-14.84527
31
0
39
0
210
0
220
0
230
1
0
LINE
5
B4
100
AcDbEntity
8
1
62
256
6
ByLayer
370
18
48
1
60
0
100
AcDbLine
10
20
20
20
30
0
11
20
21
-20
31
0
39
0
210
0
220
0
230
1
0
LINE
5
B5
100
AcDbEntity
8
1
62
256
6
ByLayer
370
13
48
1
60
0
100
AcDbLine
10
32.2495
20
14.214869
30
0
11
32.2495
21
14.539861
31
0
39
0
210
0
220
0
230
1
0
LINE
5
B6
100
AcDbEntity
8
1
62
256
6
ByLayer
370
18
48
1
60
0
100
AcDbLine
10
32.3245
20
4.364301
30
0
11
32.3245
21
-4.364301
31
0
39
0
210
0
220
0
230
1
0
LINE
5
B7
100
AcDbEntity
8
1
62
256
6
ByLayer
370
13
48
1
60
0
100
AcDbLine
10
31.6055
20
12.989046
30
0
11
31.6055
21
12.78336
31
0
39
0
210
0
220
0
230
1
0
LINE
5
B8
100
AcDbEntity
8
1
62
256
6
ByLayer
370
13
48
1
60
0
100
AcDbLine
10
9.076795
20
-5.85989
30
0
11
9.076795
21
-19.122283
31
0
39
0
210
0
220
0
230
1
0
LINE
5
B9
100
AcDbEntity
8
1
62
256
6
ByLayer
370
18
48
1
60
0
100
AcDbLine
10
32.3245
20
11.484682
30
0
11
32.3245
21
11.311793
31
0
39
0
210
0
220
0
230
1
0
LINE
5
BA
100
AcDbEntity
8
1
62
256
6
ByLayer
370
13
48
1
60
0
100
AcDbLine
10
31.6055
20
5.146068
30
0
11
31.6055
21
4.20096
31
0
39
0
210
0
220
0
230
1
0
LINE
5
BB
100
AcDbEntity
8
1
62
256
6
ByLayer
370
13
48
1
60
0
100
AcDbLine
10
31.6055
20
-4.20096
30
0
11
31.6055
21
-5.146068
31
0
39
0
210
0
220
0
230
1
0
LINE
5
BC
100
AcDbEntity
8
1
62
256
6
ByLayer
370
18
48
1
60
0
100
AcDbLine
10
32.3245
20
-7.736298
30
0
11
32.3245
21
-8.062523
31
0
39
0
210
0
220
0
230
1
0
LINE
5
BD
100
AcDbEntity
8
1
62
256
6
ByLayer
370
18
48
1
60
0
100
AcDbLine
10
32.3245
20
14.84527
30
0
11
32.3245
21
14.814605
31
0
39
0
210
0
220
0
230
1
0
LINE
5
BE
100
AcDbEntity
8
1
62
256
6
ByLayer
370
18
48
1
60
0
100
AcDbLine
10
32.3245
20
14.497219
30
0
11
32.3245
21
14.088558
31
0
39
0
210
0
220
0
230
1
0
LINE
5
BF
100
AcDbEntity
8
1
62
256
6
ByLayer
370
18
48
1
60
0
100
AcDbLine
10
32.3245
20
-11.311793
30
0
11
32.3245
21
-11.484682
31
0
39
0
210
0
220
0
230
1
0
LINE
5
C0
100
AcDbEntity
8
1
62
256
6
ByLayer
370
13
48
1
60
0
100
AcDbLine
10
32.2495
20
-13.361205
30
0
11
32.2495
21
-12.765188
31
0
39
0
210
0
220
0
230
1
0
LINE
5
C1
100
AcDbEntity
8
1
62
256
6
ByLayer
370
18
48
1
60
0
100
AcDbLine
10
32.3245
20
-10.345888
30
0
11
32.3245
21
-11.311793
31
0
39
0
210
0
220
0
230
1
0
LINE
5
C2
100
AcDbEntity
8
1
62
256
6
ByLayer
370
13
48
1
60
0
100
AcDbLine
10
32.2495
20
-12.463102
30
0
11
32.2495
21
-11.689484
31
0
39
0
210
0
220
0
230
1
0
LINE
5
C3
100
AcDbEntity
8
1
62
256
6
ByLayer
370
13
48
1
60
0
100
AcDbLine
10
32.2495
20
-14.869447
30
0
11
32.2495
21
-14.658425
31
0
39
0
210
0
220
0
230
1
0
LINE
5
C4
100
AcDbEntity
8
1
62
256
6
ByLayer
370
18
48
1
60
0
100
AcDbLine
10
32.3245
20
7.736298
30
0
11
32.3245
21
4.980483
31
0
39
0
210
0
220
0
230
1
0
LINE
5
C5
100
AcDbEntity
8
1
62
256
6
ByLayer
370
18
48
1
60
0
100
AcDbLine
10
32.3245
20
-4.980483
30
0
11
32.3245
21
-7.736298
31
0
39
0
210
0
220
0
230
1
0
LINE
5
C6
100
AcDbEntity
8
1
62
256
6
ByLayer
370
13
48
1
60
0
100
AcDbLine
10
32.2495
20
-9.7695
30
0
11
32.2495
21
-8.398107
31
0
39
0
210
0
220
0
230
1
0
LINE
5
C7
100
AcDbEntity
8
1
62
256
6
ByLayer
370
13
48
1
60
0
100
AcDbLine
10
32.2495
20
8.398107
30
0
11
32.2495
21
9.7695
31
0
39
0
210
0
220
0
230
1
0
LINE
5
C8
100
AcDbEntity
8
1
62
256
6
ByLayer
370
18
48
1
60
0
100
AcDbLine
10
32.3245
20
-4.364301
30
0
11
32.3245
21
-4.980708
31
0
39
0
210
0
220
0
230
1
0
LINE
5
C9
100
AcDbEntity
8
1
62
256
6
ByLayer
370
13
48
1
60
0
100
AcDbLine
10
6.923205
20
19.122283
30
0
11
6.923205
21
5.85989
31
0
39
0
210
0
220
0
230
1
0
LINE
5
CA
100
AcDbEntity
8
1
62
256
6
ByLayer
370
18
48
1
60
0
100
AcDbLine
10
32.3245
20
-14.845261
30
0
11
32.3245
21
-14.975837
31
0
39
0
210
0
220
0
230
1
0
LINE
5
CB
100
AcDbEntity
8
1
62
256
6
ByLayer
370
18
48
1
60
0
100
AcDbLine
10
32.3245
20
14.975837
30
0
11
32.3245
21
14.845261
31
0
39
0
210
0
220
0
230
1
0
LINE
5
CC
100
AcDbEntity
8
1
62
256
6
ByLayer
370
18
48
1
60
0
100
AcDbLine
10
0
20
-19.7
30
0
11
0
21
19.7
31
0
39
0
210
0
220
0
230
1
0
LINE
5
CD
100
AcDbEntity
8
1
62
256
6
ByLayer
370
18
48
1
60
0
100
AcDbLine
10
32.3245
20
13.445876
30
0
11
32.3245
21
13.344025
31
0
39
0
210
0
220
0
230
1
0
LINE
5
CE
100
AcDbEntity
8
1
62
256
6
ByLayer
370
13
48
1
60
0
100
AcDbLine
10
31.6055
20
-12.78336
30
0
11
31.6055
21
-12.989046
31
0
39
0
210
0
220
0
230
1
0
LINE
5
CF
100
AcDbEntity
8
1
62
256
6
ByLayer
370
18
48
1
60
0
100
AcDbLine
10
32.3245
20
-13.344025
30
0
11
32.3245
21
-13.445876
31
0
39
0
210
0
220
0
230
1
0
LINE
5
D0
100
AcDbEntity
8
1
62
256
6
ByLayer
370
13
48
1
60
0
100
AcDbLine
10
32.2495
20
14.658425
30
0
11
32.2495
21
14.869447
31
0
39
0
210
0
220
0
230
1
0
LINE
5
D1
100
AcDbEntity
8
1
62
256
6
ByLayer
370
18
48
1
60
0
100
AcDbLine
10
31.3245
20
16
30
0
11
31.3245
21
-16
31
0
39
0
210
0
220
0
230
1
0
LINE
5
D2
100
AcDbEntity
8
1
62
256
6
ByLayer
370
18
48
1
60
0
100
AcDbLine
10
32.3245
20
-9.805788
30
0
11
32.3245
21
-10.034994
31
0
39
0
210
0
220
0
230
1
0
LINE
5
D3
100
AcDbEntity
8
1
62
256
6
ByLayer
370
18
48
1
60
0
100
AcDbLine
10
32.3245
20
12.46033
30
0
11
32.3245
21
11.484691
31
0
39
0
210
0
220
0
230
1
0
LINE
5
D4
100
AcDbEntity
8
1
62
256
6
ByLayer
370
18
48
1
60
0
100
AcDbLine
10
32.3245
20
-10.278229
30
0
11
32.3245
21
-10.3459
31
0
39
0
210
0
220
0
230
1
0
LINE
5
D5
100
AcDbEntity
8
1
62
256
6
ByLayer
370
18
48
1
60
0
100
AcDbLine
10
32.3245
20
-13.445834
30
0
11
32.3245
21
-14.013072
31
0
39
0
210
0
220
0
230
1
0
LINE
5
D6
100
AcDbEntity
8
1
62
256
6
ByLayer
370
13
48
1
60
0
100
AcDbLine
10
31.6055
20
-11.563846
30
0
11
31.6055
21
-11.828229
31
0
39
0
210
0
220
0
230
1
0
LINE
5
D7
100
AcDbEntity
8
1
62
256
6
ByLayer
370
18
48
1
60
0
100
AcDbLine
10
32.3245
20
-14.975837
30
0
11
32.3245
21
-14.985956
31
0
39
0
210
0
220
0
230
1
0
LINE
5
D8
100
AcDbEntity
8
1
62
256
6
ByLayer
370
18
48
1
60
0
100
AcDbLine
10
32.3245
20
10.034994
30
0
11
32.3245
21
9.805788
31
0
39
0
210
0
220
0
230
1
0
LINE
5
D9
100
AcDbEntity
8
1
62
256
6
ByLayer
370
13
48
1
60
0
100
AcDbLine
10
23.4
20
16
30
0
11
23.4
21
-16
31
0
39
0
210
0
220
0
230
1
0
LINE
5
DA
100
AcDbEntity
8
1
62
256
6
ByLayer
370
18
48
1
60
0
100
AcDbLine
10
32.3245
20
14.985956
30
0
11
32.3245
21
14.975837
31
0
39
0
210
0
220
0
230
1
0
LINE
5
DB
100
AcDbEntity
8
1
62
256
6
ByLayer
370
18
48
1
60
0
100
AcDbLine
10
32.3245
20
14.549406
30
0
11
32.3245
21
14.497219
31
0
39
0
210
0
220
0
230
1
0
LINE
5
DC
100
AcDbEntity
8
1
62
256
6
ByLayer
370
18
48
1
60
0
100
AcDbLine
10
9.076795
20
-19.122283
30
0
11
6.923205
21
-19.122283
31
0
39
0
210
0
220
0
230
1
0
LINE
5
DD
100
AcDbEntity
8
1
62
256
6
ByLayer
370
18
48
1
60
0
100
AcDbLine
10
32.3245
20
9.805788
30
0
11
32.3245
21
8.062503
31
0
39
0
210
0
220
0
230
1
0
LINE
5
DE
100
AcDbEntity
8
1
62
256
6
ByLayer
370
18
48
1
60
0
100
AcDbLine
10
32.3245
20
-8.062503
30
0
11
32.3245
21
-9.805788
31
0
39
0
210
0
220
0
230
1
0
LINE
5
DF
100
AcDbEntity
8
1
62
256
6
ByLayer
370
18
48
1
60
0
100
AcDbLine
10
32.3245
20
11.311793
30
0
11
32.3245
21
10.345888
31
0
39
0
210
0
220
0
230
1
0
LINE
5
E0
100
AcDbEntity
8
1
62
256
6
ByLayer
370
13
48
1
60
0
100
AcDbLine
10
20.513026
20
18.18429
30
0
11
20.513026
21
-18.18429
31
0
39
0
210
0
220
0
230
1
0
LINE
5
E1
100
AcDbEntity
8
1
62
256
6
ByLayer
370
13
48
1
60
0
100
AcDbLine
10
9.336603
20
19.024574
30
0
11
9.336603
21
6.16973
31
0
39
0
210
0
220
0
230
1
0
LINE
5
E2
100
AcDbEntity
8
1
62
256
6
ByLayer
370
13
48
1
60
0
100
AcDbLine
10
31.6055
20
11.828229
30
0
11
31.6055
21
11.563846
31
0
39
0
210
0
220
0
230
1
0
LINE
5
E3
100
AcDbEntity
8
1
62
256
6
ByLayer
370
13
48
1
60
0
100
AcDbLine
10
32.2495
20
13.592505
30
0
11
32.2495
21
14.043314
31
0
39
0
210
0
220
0
230
1
0
LINE
5
E4
100
AcDbEntity
8
1
62
256
6
ByLayer
370
13
48
1
60
0
100
AcDbLine
10
6.923205
20
-5.85989
30
0
11
6.923205
21
-19.122283
31
0
39
0
210
0
220
0
230
1
0
LINE
5
E5
100
AcDbEntity
8
1
62
256
6
ByLayer
370
18
48
1
60
0
100
AcDbLine
10
32.3245
20
-14.549342
30
0
11
32.3245
21
-14.814605
31
0
39
0
210
0
220
0
230
1
0
LINE
5
E6
100
AcDbEntity
8
1
62
256
6
ByLayer
370
18
48
1
60
0
100
AcDbLine
10
32.3245
20
-12.46033
30
0
11
32.3245
21
-12.593441
31
0
39
0
210
0
220
0
230
1
0
LINE
5
E7
100
AcDbEntity
8
1
62
256
6
ByLayer
370
13
48
1
60
0
100
AcDbLine
10
31.6055
20
10.324663
30
0
11
31.6055
21
9.976528
31
0
39
0
210
0
220
0
230
1
0
LINE
5
E8
100
AcDbEntity
8
1
62
256
6
ByLayer
370
13
48
1
60
0
100
AcDbLine
10
31.6055
20
-9.976528
30
0
11
31.6055
21
-10.324663
31
0
39
0
210
0
220
0
230
1
0
LINE
5
E9
100
AcDbEntity
8
1
62
256
6
ByLayer
370
13
48
1
60
0
100
AcDbLine
10
32.2495
20
11.689484
30
0
11
32.2495
21
12.463102
31
0
39
0
210
0
220
0
230
1
0
LINE
5
EA
100
AcDbEntity
8
1
62
256
6
ByLayer
370
18
48
1
60
0
100
AcDbLine
10
32.3245
20
-14.088558
30
0
11
32.3245
21
-14.497219
31
0
39
0
210
0
220
0
230
1
0
LINE
5
EB
100
AcDbEntity
8
1
62
256
6
ByLayer
370
13
48
1
60
0
100
AcDbLine
10
32.2495
20
-7.664871
30
0
11
32.2495
21
-5.54266
31
0
39
0
210
0
220
0
230
1
0
LINE
5
EC
100
AcDbEntity
8
1
62
256
6
ByLayer
370
13
48
1
60
0
100
AcDbLine
10
32.2495
20
5.54266
30
0
11
32.2495
21
7.664871
31
0
39
0
210
0
220
0
230
1
0
LINE
5
ED
100
AcDbEntity
8
1
62
256
6
ByLayer
370
18
48
1
60
0
100
AcDbLine
10
32.3245
20
-11.484691
30
0
11
32.3245
21
-12.46033
31
0
39
0
210
0
220
0
230
1
0
LINE
5
EE
100
AcDbEntity
8
1
62
256
6
ByLayer
370
18
48
1
60
0
100
AcDbLine
10
32.3245
20
14.013072
30
0
11
32.3245
21
13.445834
31
0
39
0
210
0
220
0
230
1
0
LINE
5
EF
100
AcDbEntity
8
1
62
256
6
ByLayer
370
18
48
1
60
0
100
AcDbLine
10
32.3245
20
10.3459
30
0
11
32.3245
21
10.278229
31
0
39
0
210
0
220
0
230
1
0
LINE
5
F0
100
AcDbEntity
8
1
62
256
6
ByLayer
370
13
48
1
60
0
100
AcDbLine
10
31.6055
20
13.893295
30
0
11
31.6055
21
13.733396
31
0
39
0
210
0
220
0
230
1
0
LINE
5
F1
100
AcDbEntity
8
1
62
256
6
ByLayer
370
13
48
1
60
0
100
AcDbLine
10
32.2495
20
-11.297611
30
0
11
32.2495
21
-10.287691
31
0
39
0
210
0
220
0
230
1
0
LINE
5
F2
100
AcDbEntity
8
1
62
256
6
ByLayer
370
18
48
1
60
0
100
AcDbLine
10
32.3245
20
-12.593438
30
0
11
32.3245
21
-13.344025
31
0
39
0
210
0
220
0
230
1
0
LINE
5
F3
100
AcDbEntity
8
1
62
256
6
ByLayer
370
13
48
1
60
0
100
AcDbLine
10
6.663397
20
19.024574
30
0
11
6.663397
21
6.16973
31
0
39
0
210
0
220
0
230
1
0
LINE
5
F4
100
AcDbEntity
8
1
62
256
6
ByLayer
370
18
48
1
60
0
100
AcDbLine
10
6.923205
20
19.122283
30
0
11
9.076795
21
19.122283
31
0
39
0
210
0
220
0
230
1
0
LINE
5
F5
100
AcDbEntity
8
1
62
256
6
ByLayer
370
18
48
1
60
0
100
AcDbLine
10
32.3245
20
14.088591
30
0
11
32.3245
21
14.013072
31
0
39
0
210
0
220
0
230
1
0
LINE
5
F6
100
AcDbEntity
8
1
62
256
6
ByLayer
370
13
48
1
60
0
100
AcDbLine
10
31.6055
20
15.660682
30
0
11
31.6055
21
15.632398
31
0
39
0
210
0
220
0
230
1
0
LINE
5
F7
100
AcDbEntity
8
1
62
256
6
ByLayer
370
18
48
1
60
0
100
AcDbLine
10
32.3245
20
13.344025
30
0
11
32.3245
21
12.593438
31
0
39
0
210
0
220
0
230
1
0
LINE
5
F8
100
AcDbEntity
8
1
62
256
6
ByLayer
370
13
48
1
60
0
100
AcDbLine
10
31.6055
20
-13.733396
30
0
11
31.6055
21
-13.893295
31
0
39
0
210
0
220
0
230
1
0
LINE
5
F9
100
AcDbEntity
8
1
62
256
6
ByLayer
370
13
48
1
60
0
100
AcDbLine
10
32.2495
20
-4.190151
30
0
11
32.2495
21
4.190151
31
0
39
0
210
0
220
0
230
1
0
LINE
5
FA
100
AcDbEntity
8
1
62
256
6
ByLayer
370
18
48
1
60
0
100
AcDbLine
10
0.3
20
-20
30
0
11
0.3
21
20
31
0
39
0
210
0
220
0
230
1
0
LINE
5
FB
100
AcDbEntity
8
1
62
256
6
ByLayer
370
13
48
1
60
0
100
AcDbLine
10
41.0855
20
-3.528175
30
0
11
41.0855
21
-12.028175
31
0
39
0
210
0
220
0
230
1
0
LINE
5
FC
100
AcDbEntity
8
1
62
256
6
ByLayer
370
18
48
1
60
0
100
AcDbLine
10
36.6755
20
12.028175
30
0
11
36.6755
21
3.528175
31
0
39
0
210
0
220
0
230
1
0
LINE
5
FD
100
AcDbEntity
8
1
62
256
6
ByLayer
370
18
48
1
60
0
100
AcDbLine
10
36.6755
20
-12.028175
30
0
11
36.6755
21
-3.528175
31
0
39
0
210
0
220
0
230
1
0
LINE
5
FE
100
AcDbEntity
8
1
62
256
6
ByLayer
370
13
48
1
60
0
100
AcDbLine
10
36.4755
20
-5.278175
30
0
11
36.4755
21
-10.278175
31
0
39
0
210
0
220
0
230
1
0
LINE
5
FF
100
AcDbEntity
8
1
62
256
6
ByLayer
370
18
48
1
60
0
100
AcDbLine
10
41.5855
20
-11.528175
30
0
11
41.5855
21
-4.028175
31
0
39
0
210
0
220
0
230
1
0
LINE
5
100
100
AcDbEntity
8
1
62
256
6
ByLayer
370
13
48
1
60
0
100
AcDbLine
10
41.0855
20
12.028175
30
0
11
41.0855
21
3.528175
31
0
39
0
210
0
220
0
230
1
0
LINE
5
101
100
AcDbEntity
8
1
62
256
6
ByLayer
370
18
48
1
60
0
100
AcDbLine
10
41.5855
20
11.528175
30
0
11
41.5855
21
4.028175
31
0
39
0
210
0
220
0
230
1
0
LINE
5
102
100
AcDbEntity
8
1
62
256
6
ByLayer
370
13
48
1
60
0
100
AcDbLine
10
36.4755
20
10.278175
30
0
11
36.4755
21
5.278175
31
0
39
0
210
0
220
0
230
1
0
LINE
5
103
100
AcDbEntity
8
1
62
256
6
ByLayer
370
18
48
1
60
0
100
AcDbLine
10
36.6755
20
12.028175
30
0
11
36.6755
21
3.528175
31
0
39
0
210
0
220
0
230
1
0
LINE
5
104
100
AcDbEntity
8
1
62
256
6
ByLayer
370
18
48
1
60
0
100
AcDbLine
10
41.5855
20
11.528175
30
0
11
41.5855
21
4.028175
31
0
39
0
210
0
220
0
230
1
0
LINE
5
105
100
AcDbEntity
8
1
62
256
6
ByLayer
370
13
48
1
60
0
100
AcDbLine
10
41.0855
20
12.028175
30
0
11
41.0855
21
3.528175
31
0
39
0
210
0
220
0
230
1
0
LINE
5
106
100
AcDbEntity
8
1
62
256
6
ByLayer
370
13
48
1
60
0
100
AcDbLine
10
36.4755
20
10.278175
30
0
11
36.4755
21
5.278175
31
0
39
0
210
0
220
0
230
1
0
MTEXT
5
1B3
100
AcDbEntity
8
SK6
62
256
6
ByLayer
370
18
48
1
60
0
100
AcDbMText
10
0.875
20
29.125134
30
0
210
0
220
0
230
1
1
\W0.7272;C4-570-32-NG
40
3.5
41
0
44
1.084337
50
0
71
7
72
5
7
iso_b_vert
0
DIMENSION
5
1C0
100
AcDbEntity
8
SK2
62
256
6
ByLayer
370
13
48
1
60
0
100
AcDbDimension
2
DimnDraft3D1
10
32
20
-30.1
30
0
11
24.900534
21
-30.1
31
0
70
32
71
5
72
1
41
1
210
0
220
0
230
1
3
Standard
100
AcDbAlignedDimension
13
23.4
23
-17.5875
33
0
14
32
24
-17.5875
34
0
50
0
100
AcDbRotatedDimension
1001
ACAD
1000
DSTYLE
1002
{
1070
   279
1070
     0
1070
   172
1070
     1
1070
   173
1070
     1
1070
   340
1005
1B4
1070
   271
1070
     2
1070
   272
1070
     2
1070
    77
1070
     1
1070
    73
1070
     0
1070
   171
1070
     3
1070
   274
1070
     4
1070
   177
1070
     2
1070
   176
1070
     2
1070
   178
1070
     2
1070
    78
1070
     8
1070
    48
1040
-0.005
1070
    41
1041
3.5
1070
   147
1041
1.75
1070
    42
1041
1.5875
1070
    44
1041
2.0
1070
   140
1041
3.5
1070
   343
1005
0
1070
   344
1005
0
1002
}
0
DIMENSION
5
1CB
100
AcDbEntity
8
2
62
256
6
ByLayer
370
13
48
1
60
0
100
AcDbDimension
2
DimnDraft3D2
10
32
20
-40.1
30
0
11
11.892801
21
-40.1
31
0
70
32
71
5
72
1
41
1
210
0
220
0
230
1
3
Standard
100
AcDbAlignedDimension
13
0
23
-21.5875
33
0
14
32
24
-17.5875
34
0
50
0
100
AcDbRotatedDimension
1001
ACAD
1000
DSTYLE
1002
{
1070
   279
1070
     0
1070
   172
1070
     1
1070
   173
1070
     1
1070
   340
1005
1B4
1070
   271
1070
     2
1070
   272
1070
     2
1070
    77
1070
     1
1070
    73
1070
     0
1070
   171
1070
     3
1070
   274
1070
     4
1070
   177
1070
     2
1070
   176
1070
     2
1070
   178
1070
     2
1070
    78
1070
     8
1070
    48
1040
-0.005
1070
    41
1041
3.5
1070
   147
1041
1.75
1070
    42
1041
1.5875
1070
    44
1041
2.0
1070
   140
1041
3.5
1070
   343
1005
0
1070
   344
1005
0
1002
}
0
DIMENSION
5
1D6
100
AcDbEntity
8
SK2
62
256
6
ByLayer
370
13
48
1
60
0
100
AcDbDimension
2
DimnDraft3D3
10
-47.6
20
-20
30
0
11
-48.225
21
2.100267
31
0
70
33
71
5
72
1
41
1
210
0
220
0
230
1
3
Standard
100
AcDbAlignedDimension
13
-1.5875
23
20
33
0
14
-1.5875
24
-20
34
0
1001
ACAD
1000
DSTYLE
1002
{
1070
   279
1070
     0
1070
    74
1070
     0
1070
   173
1070
     1
1070
   340
1005
1B4
1070
   271
1070
     2
1070
   272
1070
     2
1070
    77
1070
     1
1070
    73
1070
     0
1070
   171
1070
     3
1070
   274
1070
     4
1070
   177
1070
     2
1070
   176
1070
     2
1070
   178
1070
     2
1070
    78
1070
     8
1070
    48
1040
-0.005
1070
    41
1041
3.5
1070
   147
1041
1.75
1070
    42
1041
1.5875
1070
    44
1041
2.0
1070
   140
1041
3.5
1070
   343
1005
0
1070
   344
1005
0
1002
}
0
DIMENSION
5
1E1
100
AcDbEntity
8
SK2
62
256
6
ByLayer
370
13
48
1
60
0
100
AcDbDimension
2
DimnDraft3D4
10
53.895319
20
-16
30
0
11
49.270319
21
2.284534
31
0
70
33
71
5
72
1
41
1
210
0
220
0
230
1
3
Standard
100
AcDbAlignedDimension
13
33.5875
23
16
33
0
14
33.5875
24
-16
34
0
1001
ACAD
1000
DSTYLE
1002
{
1070
   279
1070
     0
1070
    74
1070
     0
1070
   173
1070
     1
1070
   340
1005
1B4
1070
   271
1070
     2
1070
   272
1070
     2
1070
    77
1070
     1
1070
    73
1070
     0
1070
   171
1070
     3
1070
   274
1070
     4
1070
   177
1070
     2
1070
   176
1070
     2
1070
   178
1070
     2
1070
    78
1070
     8
1070
    48
1040
-0.005
1070
    41
1041
3.5
1070
   147
1041
1.75
1070
    42
1041
1.5875
1070
    44
1041
2.0
1070
   140
1041
3.5
1070
   343
1005
0
1070
   344
1005
0
1002
}
0
ENDSEC
0
SECTION
2
OBJECTS
0
DICTIONARY
5
24c
330
0
100
AcDbDictionary
280
0
281
1
3
ACAD_GROUP
350
24d
3
ACAD_MLINESTYLE
350
24e
0
DICTIONARY
5
24d
330
0
100
AcDbDictionary
280
0
281
1
0
DICTIONARY
5
24e
330
0
100
AcDbDictionary
280
0
281
1
3
Standard
350
18
0
MLINESTYLE
5
18
330
24e
100
AcDbMlineStyle
2
Standard
70
0
3

62
256
51
90
52
90
71
2
49
-0.5
62
256
6
ByLayer
49
0.5
62
256
6
ByLayer
0
RASTERVARIABLES
5
23a
330

100
AcDbRasterVariables
90
0
70
1
71
1
72
1
0
ENDSEC
0
EOF
