0
SECTION
2
HEADER
9
$ACADVER
1
AC1015
9
$DWGCODEPAGE
3
ANSI_1252
9
$HANDSEED
5
239
9
$ANGBASE
50
0
9
$ANGDIR
70
0
9
$ATTMODE
70
1
9
$AUNITS
70
0
9
$AUPREC
70
0
9
$CECOLOR
62
256
9
$CELTSCALE
40
1
9
$CELTYPE
6
ByLayer
9
$CELWEIGHT
370
18
9
$CLAYER
8
0
9
$CMLJUST
70
0
9
$CMLSCALE
40
1
9
$CMLSTYLE
2
Standard
9
$DIMSTYLE
2
Standard
9
$TEXTSIZE
40
0.2
9
$TEXTSTYLE
7
Standard
9
$LUNITS
70
2
9
$LUPREC
70
4
9
$EXTNAMES
290
1
9
$INSUNITS
70
4
9
$LTSCALE
40
1
9
$LWDISPLAY
290
1
9
$PDMODE
70
0
9
$PDSIZE
40
0
9
$PLINEGEN
70
0
0
ENDSEC
0
SECTION
2
CLASSES
0
CLASS
1
RASTERVARIABLES
2
AcDbRasterVariables
3
ISM
90
0
280
0
281
0
0
ENDSEC
0
SECTION
2
TABLES
0
TABLE
2
VPORT
5
22f
100
AcDbSymbolTable
0
VPORT
5
1
100
AcDbSymbolTableRecord
100
AcDbViewportTableRecord
2
*Active
70
0
10
0
20
0
11
1
21
1
12
-1
22
1
13
0
23
0
14
0.5
24
0.5
15
10
25
10
16
0
26
0
36
1
17
0
27
0
37
0
0
ENDTAB
0
TABLE
2
LTYPE
5
230
100
AcDbSymbolTable
0
LTYPE
5
14
100
AcDbSymbolTableRecord
100
AcDbLinetypeTableRecord
70
0
2
ByBlock
3

72
65
73
0
40
0
0
LTYPE
5
15
100
AcDbSymbolTableRecord
100
AcDbLinetypeTableRecord
70
0
2
ByLayer
3

72
65
73
0
40
0
0
LTYPE
5
16
100
AcDbSymbolTableRecord
100
AcDbLinetypeTableRecord
70
0
2
CONTINUOUS
3
Solid line
72
65
73
0
40
0
0
LTYPE
5
6A
100
AcDbSymbolTableRecord
100
AcDbLinetypeTableRecord
70
0
2
CENTER
3
____ _ ____ _ ____ _ ____
72
65
73
4
40
47.5
49
22
74
0
49
-8.5
74
0
49
8.5
74
0
49
-8.5
74
0
0
LTYPE
5
6B
100
AcDbSymbolTableRecord
100
AcDbLinetypeTableRecord
70
0
2
DASHED
3
__ __ __ __ __ __ __ __ __
72
65
73
2
40
25.72
49
12.86
74
0
49
-12.86
74
0
0
ENDTAB
0
TABLE
2
LAYER
5
231
100
AcDbSymbolTable
0
LAYER
5
10
100
AcDbSymbolTableRecord
100
AcDbLayerTableRecord
2
0
70
0
62
7
6
CONTINUOUS
290
1
370
-3
390
0
0
LAYER
5
6D
100
AcDbSymbolTableRecord
100
AcDbLayerTableRecord
2
80
70
0
62
-6
6
CONTINUOUS
290
1
370
-3
390
0
0
LAYER
5
6F
100
AcDbSymbolTableRecord
100
AcDbLayerTableRecord
2
81
70
0
62
-3
6
CONTINUOUS
290
1
370
-3
390
0
0
LAYER
5
76
100
AcDbSymbolTableRecord
100
AcDbLayerTableRecord
2
1
70
0
62
4
6
CONTINUOUS
290
1
370
-3
390
0
0
LAYER
5
92
100
AcDbSymbolTableRecord
100
AcDbLayerTableRecord
2
4
70
0
62
-2
6
CENTER
290
1
370
-3
390
0
0
LAYER
5
1A3
100
AcDbSymbolTableRecord
100
AcDbLayerTableRecord
2
2
70
0
62
7
6
CONTINUOUS
290
1
370
-3
390
0
0
LAYER
5
21b
100
AcDbSymbolTableRecord
100
AcDbLayerTableRecord
2
SK2
70
0
62
7
6
CONTINUOUS
290
1
370
-3
390
0
0
LAYER
5
21c
100
AcDbSymbolTableRecord
100
AcDbLayerTableRecord
2
SK4
70
0
62
2
6
CENTER
290
1
370
-3
390
0
0
LAYER
5
21d
100
AcDbSymbolTableRecord
100
AcDbLayerTableRecord
2
SK1
70
0
62
4
6
CONTINUOUS
290
1
370
-3
390
0
0
LAYER
5
21e
100
AcDbSymbolTableRecord
100
AcDbLayerTableRecord
2
SK6
70
0
62
5
6
CONTINUOUS
290
1
370
-3
390
0
0
ENDTAB
0
TABLE
2
STYLE
5
232
100
AcDbSymbolTable
0
STYLE
5
11
100
AcDbSymbolTableRecord
100
AcDbTextStyleTableRecord
2
Standard
3
txt
70
0
71
0
40
0
41
1
42
0
50
0
0
STYLE
5
194
100
AcDbSymbolTableRecord
100
AcDbTextStyleTableRecord
2
iso_b_vert
3
simplex.shx
70
0
71
0
40
0
41
1
42
0
50
0
0
STYLE
5
195
100
AcDbSymbolTableRecord
100
AcDbTextStyleTableRecord
2
DWGDirectTextStyle
3
simplex
70
0
71
0
40
0
41
1
42
0
50
0
0
ENDTAB
0
TABLE
2
DIMSTYLE
5
233
100
AcDbSymbolTable
100
AcDbDimStyleTable
0
DIMSTYLE
105
27
100
AcDbSymbolTableRecord
100
AcDbDimStyleTableRecord
2
Standard
70
0
3
<>
41
0.18
42
0.0625
44
0.18
140
0.18
147
0.09
73
0
74
0
77
1
271
2
275
0
278
52
280
0
340
11
0
ENDTAB
0
TABLE
2
VIEW
5
234
100
AcDbSymbolTable
0
ENDTAB
0
TABLE
2
UCS
5
235
100
AcDbSymbolTable
0
ENDTAB
0
TABLE
2
APPID
5
236
100
AcDbSymbolTable
0
APPID
5
12
100
AcDbSymbolTableRecord
100
AcDbRegAppTableRecord
2
ACAD
70
0
0
ENDTAB
0
TABLE
2
BLOCK_RECORD
5
237
100
AcDbSymbolTable
0
BLOCK_RECORD
5
1F
100
AcDbSymbolTableRecord
100
AcDbBlockTableRecord
2
*Model_Space
340
0
70
0
0
BLOCK_RECORD
5
1B
100
AcDbSymbolTableRecord
100
AcDbBlockTableRecord
2
*Paper_Space
340
0
70
0
0
BLOCK_RECORD
5
23
100
AcDbSymbolTableRecord
100
AcDbBlockTableRecord
2
*Paper_Space0
340
0
70
0
0
BLOCK_RECORD
5
197
100
AcDbSymbolTableRecord
100
AcDbBlockTableRecord
2
DimnDraft3D1
340
0
70
0
0
BLOCK_RECORD
5
1A1
100
AcDbSymbolTableRecord
100
AcDbBlockTableRecord
2
DimnDraft3D2
340
0
70
0
0
BLOCK_RECORD
5
1AC
100
AcDbSymbolTableRecord
100
AcDbBlockTableRecord
2
DimnDraft3D3
340
0
70
0
0
BLOCK_RECORD
5
1B7
100
AcDbSymbolTableRecord
100
AcDbBlockTableRecord
2
DimnDraft3D4
340
0
70
0
0
ENDTAB
0
ENDSEC
0
SECTION
2
BLOCKS
0
BLOCK
5
20
100
AcDbEntity
8
0
100
AcDbBlockBegin
2
*Model_Space
70
0
10
0
20
0
30
0
3
*Model_Space
0
ENDBLK
5
21
100
AcDbEntity
8
0
100
AcDbBlockEnd
0
BLOCK
5
1C
100
AcDbEntity
8
0
100
AcDbBlockBegin
2
*Paper_Space
70
0
10
0
20
0
30
0
3
*Paper_Space
0
ENDBLK
5
1D
100
AcDbEntity
8
0
100
AcDbBlockEnd
0
BLOCK
5
24
100
AcDbEntity
8
0
100
AcDbBlockBegin
2
*Paper_Space0
70
0
10
0
20
0
30
0
3
*Paper_Space0
0
ENDBLK
5
25
100
AcDbEntity
8
0
100
AcDbBlockEnd
0
BLOCK
5
19E
100
AcDbEntity
8
0
100
AcDbBlockBegin
2
DimnDraft3D1
70
0
10
0
20
0
30
0
3
DimnDraft3D1
0
MTEXT
5
198
100
AcDbEntity
8
SK2
62
256
6
ByLayer
370
18
48
1
60
0
100
AcDbMText
10
40.917801
20
-29.224866
30
0
210
0
220
0
230
1
1
\W0.7346;39.7
40
3.5
41
0
44
1.084337
50
0
71
7
72
5
7
iso_b_vert
0
LINE
5
199
100
AcDbEntity
8
SK2
62
256
6
ByLayer
370
13
48
1
60
0
100
AcDbLine
10
24.3
20
-14.0875
30
0
11
24.3
21
-32.1
31
0
39
0
210
0
220
0
230
1
0
LINE
5
19A
100
AcDbEntity
8
SK2
62
256
6
ByLayer
370
13
48
1
60
0
100
AcDbLine
10
64
20
-14.0875
30
0
11
64
21
-32.1
31
0
39
0
210
0
220
0
230
1
0
LINE
5
19B
100
AcDbEntity
8
SK2
62
256
6
ByLayer
370
13
48
1
60
0
100
AcDbLine
10
24.3
20
-30.1
30
0
11
64
21
-30.1
31
0
39
0
210
0
220
0
230
1
0
SOLID
5
19C
100
AcDbEntity
8
SK2
62
256
6
ByLayer
370
13
48
1
60
0
100
AcDbTrace
10
24.3
20
-30.1
30
0
11
27.799998
21
-29.639216
31
0
12
27.800002
22
-30.560784
32
0
13
24.3
23
-30.1
33
0
39
0
210
0
220
0
230
1
0
SOLID
5
19D
100
AcDbEntity
8
SK2
62
256
6
ByLayer
370
13
48
1
60
0
100
AcDbTrace
10
64
20
-30.1
30
0
11
60.500002
21
-30.560784
31
0
12
60.499998
22
-29.639216
32
0
13
64
23
-30.1
33
0
39
0
210
0
220
0
230
1
0
ENDBLK
5
19F
100
AcDbEntity
8
0
100
AcDbBlockEnd
0
BLOCK
5
1A9
100
AcDbEntity
8
0
100
AcDbBlockBegin
2
DimnDraft3D2
70
0
10
0
20
0
30
0
3
DimnDraft3D2
0
MTEXT
5
1A2
100
AcDbEntity
8
2
62
256
6
ByLayer
370
18
48
1
60
0
100
AcDbMText
10
28.583534
20
-39.224866
30
0
210
0
220
0
230
1
1
\W0.7640;64.0
40
3.5
41
0
44
1.084337
50
0
71
7
72
5
7
iso_b_vert
0
LINE
5
1A4
100
AcDbEntity
8
2
62
256
6
ByLayer
370
13
48
1
60
0
100
AcDbLine
10
0
20
-21.5875
30
0
11
0
21
-42.1
31
0
39
0
210
0
220
0
230
1
0
LINE
5
1A5
100
AcDbEntity
8
2
62
256
6
ByLayer
370
13
48
1
60
0
100
AcDbLine
10
64
20
-14.0875
30
0
11
64
21
-42.1
31
0
39
0
210
0
220
0
230
1
0
LINE
5
1A6
100
AcDbEntity
8
2
62
256
6
ByLayer
370
13
48
1
60
0
100
AcDbLine
10
0
20
-40.1
30
0
11
64
21
-40.1
31
0
39
0
210
0
220
0
230
1
0
SOLID
5
1A7
100
AcDbEntity
8
2
62
256
6
ByLayer
370
13
48
1
60
0
100
AcDbTrace
10
0
20
-40.1
30
0
11
3.499998
21
-39.639216
31
0
12
3.500002
22
-40.560784
32
0
13
0
23
-40.1
33
0
39
0
210
0
220
0
230
1
0
SOLID
5
1A8
100
AcDbEntity
8
2
62
256
6
ByLayer
370
13
48
1
60
0
100
AcDbTrace
10
64
20
-40.1
30
0
11
60.500002
21
-40.560784
31
0
12
60.499998
22
-39.639216
32
0
13
64
23
-40.1
33
0
39
0
210
0
220
0
230
1
0
ENDBLK
5
1AA
100
AcDbEntity
8
0
100
AcDbBlockEnd
0
BLOCK
5
1B4
100
AcDbEntity
8
0
100
AcDbBlockBegin
2
DimnDraft3D3
70
0
10
0
20
0
30
0
3
DimnDraft3D3
0
MTEXT
5
1AD
100
AcDbEntity
8
SK2
62
256
6
ByLayer
370
18
48
1
60
0
100
AcDbMText
10
-47.350134
20
2.975267
30
0
210
0
220
0
230
1
1
\W0.7361;40
40
3.5
41
0
44
1.084337
50
90
71
7
72
5
7
iso_b_vert
0
MTEXT
5
1AE
100
AcDbEntity
8
SK2
62
256
6
ByLayer
370
18
48
1
60
0
100
AcDbMText
10
-47.350134
20
-3.997389
30
0
210
0
220
0
230
1
1
%%c
40
3.5
41
0
44
1.084337
50
90
71
7
72
5
7
iso_b_vert
0
LINE
5
1AF
100
AcDbEntity
8
SK2
62
256
6
ByLayer
370
13
48
1
60
0
100
AcDbLine
10
-1.5875
20
20
30
0
11
-47.6
21
20
31
0
39
0
210
0
220
0
230
1
0
LINE
5
1B0
100
AcDbEntity
8
SK2
62
256
6
ByLayer
370
13
48
1
60
0
100
AcDbLine
10
-1.5875
20
-20
30
0
11
-47.6
21
-20
31
0
39
0
210
0
220
0
230
1
0
LINE
5
1B1
100
AcDbEntity
8
SK2
62
256
6
ByLayer
370
13
48
1
60
0
100
AcDbLine
10
-45.6
20
20
30
0
11
-45.6
21
-20
31
0
39
0
210
0
220
0
230
1
0
SOLID
5
1B2
100
AcDbEntity
8
SK2
62
256
6
ByLayer
370
13
48
1
60
0
100
AcDbTrace
10
-45.6
20
20
30
0
11
-45.139216
21
16.500002
31
0
12
-46.060784
22
16.499998
32
0
13
-45.6
23
20
33
0
39
0
210
0
220
0
230
1
0
SOLID
5
1B3
100
AcDbEntity
8
SK2
62
256
6
ByLayer
370
13
48
1
60
0
100
AcDbTrace
10
-45.6
20
-20
30
0
11
-46.060784
21
-16.500002
31
0
12
-45.139216
22
-16.499998
32
0
13
-45.6
23
-20
33
0
39
0
210
0
220
0
230
1
0
ENDBLK
5
1B5
100
AcDbEntity
8
0
100
AcDbBlockEnd
0
BLOCK
5
1BF
100
AcDbEntity
8
0
100
AcDbBlockBegin
2
DimnDraft3D4
70
0
10
0
20
0
30
0
3
DimnDraft3D4
0
MTEXT
5
1B8
100
AcDbEntity
8
SK2
62
256
6
ByLayer
370
18
48
1
60
0
100
AcDbMText
10
80.118771
20
3.159534
30
0
210
0
220
0
230
1
1
\W0.6740;25
40
3.5
41
0
44
1.084337
50
90
71
7
72
5
7
iso_b_vert
0
MTEXT
5
1B9
100
AcDbEntity
8
SK2
62
256
6
ByLayer
370
18
48
1
60
0
100
AcDbMText
10
80.118771
20
-3.813122
30
0
210
0
220
0
230
1
1
%%c
40
3.5
41
0
44
1.084337
50
90
71
7
72
5
7
iso_b_vert
0
LINE
5
1BA
100
AcDbEntity
8
SK2
62
256
6
ByLayer
370
13
48
1
60
0
100
AcDbLine
10
65.5875
20
12.5
30
0
11
83.868904
21
12.5
31
0
39
0
210
0
220
0
230
1
0
LINE
5
1BB
100
AcDbEntity
8
SK2
62
256
6
ByLayer
370
13
48
1
60
0
100
AcDbLine
10
65.5875
20
-12.5
30
0
11
83.868904
21
-12.5
31
0
39
0
210
0
220
0
230
1
0
LINE
5
1BC
100
AcDbEntity
8
SK2
62
256
6
ByLayer
370
13
48
1
60
0
100
AcDbLine
10
81.868904
20
12.5
30
0
11
81.868904
21
-12.5
31
0
39
0
210
0
220
0
230
1
0
SOLID
5
1BD
100
AcDbEntity
8
SK2
62
256
6
ByLayer
370
13
48
1
60
0
100
AcDbTrace
10
81.868904
20
12.5
30
0
11
82.329688
21
9.000002
31
0
12
81.408121
22
8.999998
32
0
13
81.868904
23
12.5
33
0
39
0
210
0
220
0
230
1
0
SOLID
5
1BE
100
AcDbEntity
8
SK2
62
256
6
ByLayer
370
13
48
1
60
0
100
AcDbTrace
10
81.868904
20
-12.5
30
0
11
81.408121
21
-9.000002
31
0
12
82.329688
22
-8.999998
32
0
13
81.868904
23
-12.5
33
0
39
0
210
0
220
0
230
1
0
ENDBLK
5
1C0
100
AcDbEntity
8
0
100
AcDbBlockEnd
0
ENDSEC
0
SECTION
2
ENTITIES
0
ARC
5
FB
100
AcDbEntity
8
1
62
256
6
ByLayer
370
18
48
1
60
0
100
AcDbCircle
39
0
10
71.2112
20
8.756854
30
0
40
0.4
210
0
220
0
230
1
100
AcDbArc
50
0
51
90
0
ARC
5
FC
100
AcDbEntity
8
1
62
256
6
ByLayer
370
18
48
1
60
0
100
AcDbCircle
39
0
10
71.2112
20
8.756854
30
0
40
0.4
210
0
220
0
230
1
100
AcDbArc
50
0
51
90
0
ARC
5
FD
100
AcDbEntity
8
1
62
256
6
ByLayer
370
18
48
1
60
0
100
AcDbCircle
39
0
10
71.2112
20
2.556854
30
0
40
0.4
210
0
220
0
230
1
100
AcDbArc
50
270
51
0
0
ARC
5
FE
100
AcDbEntity
8
1
62
256
6
ByLayer
370
18
48
1
60
0
100
AcDbCircle
39
0
10
-67.5012
20
7.856854
30
0
40
0.2
210
0
220
0
230
-1
100
AcDbArc
50
180
51
270
0
ARC
5
FF
100
AcDbEntity
8
1
62
256
6
ByLayer
370
18
48
1
60
0
100
AcDbCircle
39
0
10
-67.5012
20
-7.856854
30
0
40
0.2
210
0
220
0
230
-1
100
AcDbArc
50
90
51
180
0
ARC
5
100
100
AcDbEntity
8
1
62
256
6
ByLayer
370
18
48
1
60
0
100
AcDbCircle
39
0
10
71.2112
20
2.556854
30
0
40
0.4
210
0
220
0
230
1
100
AcDbArc
50
270
51
0
0
ARC
5
101
100
AcDbEntity
8
1
62
256
6
ByLayer
370
18
48
1
60
0
100
AcDbCircle
39
0
10
-24.3
20
15.5
30
0
40
3
210
0
220
0
230
-1
100
AcDbArc
50
270
51
345.117654
0
ARC
5
102
100
AcDbEntity
8
1
62
256
6
ByLayer
370
18
48
1
60
0
100
AcDbCircle
39
0
10
-24.3
20
-15.5
30
0
40
3
210
0
220
0
230
-1
100
AcDbArc
50
14.882346
51
90
0
ARC
5
103
100
AcDbEntity
8
1
62
256
6
ByLayer
370
18
48
1
60
0
100
AcDbCircle
39
0
10
-67.5012
20
7.856854
30
0
40
0.2
210
0
220
0
230
-1
100
AcDbArc
50
180
51
270
0
ARC
5
104
100
AcDbEntity
8
1
62
256
6
ByLayer
370
18
48
1
60
0
100
AcDbCircle
39
0
10
-67.5012
20
3.456854
30
0
40
0.2
210
0
220
0
230
-1
100
AcDbArc
50
90
51
180
0
ARC
5
105
100
AcDbEntity
8
1
62
256
6
ByLayer
370
18
48
1
60
0
100
AcDbCircle
39
0
10
71.2112
20
-2.556854
30
0
40
0.4
210
0
220
0
230
1
100
AcDbArc
50
0
51
90
0
ARC
5
106
100
AcDbEntity
8
1
62
256
6
ByLayer
370
18
48
1
60
0
100
AcDbCircle
39
0
10
71.2112
20
-8.756854
30
0
40
0.4
210
0
220
0
230
1
100
AcDbArc
50
270
51
0
0
ARC
5
107
100
AcDbEntity
8
1
62
256
6
ByLayer
370
18
48
1
60
0
100
AcDbCircle
39
0
10
-67.5012
20
-3.456854
30
0
40
0.2
210
0
220
0
230
-1
100
AcDbArc
50
180
51
270
0
ARC
5
108
100
AcDbEntity
8
1
62
256
6
ByLayer
370
18
48
1
60
0
100
AcDbCircle
39
0
10
-67.5012
20
3.456854
30
0
40
0.2
210
0
220
0
230
-1
100
AcDbArc
50
90
51
180
0
ELLIPSE
5
109
100
AcDbEntity
8
1
62
256
6
ByLayer
370
18
48
1
60
0
100
AcDbEllipse
10
-0.948929
20
0
30
0
11
9.36741787978252
21
19.7417491527505
31
0
210
0
220
0
230
-1
40
0.341999
41
0.15272624489834
42
1.09631952749988
0
ELLIPSE
5
10A
100
AcDbEntity
8
1
62
256
6
ByLayer
370
18
48
1
60
0
100
AcDbEllipse
10
16.948929
20
0
30
0
11
9.3674178797811
21
-19.7417491527494
31
0
210
0
220
0
230
-1
40
0.341999
41
2.04527312608986
42
2.98886640869144
0
ELLIPSE
5
10B
100
AcDbEntity
8
1
62
256
6
ByLayer
370
18
48
1
60
0
100
AcDbEllipse
10
-0.948929
20
0
30
0
11
9.36741787978306
21
-19.7417491527512
31
0
210
0
220
0
230
-1
40
0.341999
41
-1.09631952749985
42
-0.152726244898338
0
ELLIPSE
5
10C
100
AcDbEntity
8
1
62
256
6
ByLayer
370
18
48
1
60
0
100
AcDbEllipse
10
16.948929
20
0
30
0
11
9.36741787978159
21
19.74174915275
31
0
210
0
220
0
230
-1
40
0.341999
41
-2.98886640869144
42
-2.04527312608988
0
POINT
5
6C
100
AcDbEntity
8
80
62
256
6
ByLayer
370
18
48
1
60
0
100
AcDbPoint
10
0
20
0
30
0
39
0
210
0
220
0
230
1
50
360
0
POINT
5
6E
100
AcDbEntity
8
81
62
256
6
ByLayer
370
18
48
1
60
0
100
AcDbPoint
10
64
20
0
30
0
39
0
210
0
220
0
230
1
50
360
0
POINT
5
70
100
AcDbEntity
8
SK2
62
256
6
ByLayer
370
18
48
1
60
1
100
AcDbPoint
10
0
20
20
30
0
39
0
210
0
220
0
230
1
50
360
0
POINT
5
72
100
AcDbEntity
8
SK2
62
256
6
ByLayer
370
18
48
1
60
1
100
AcDbPoint
10
0
20
-20
30
0
39
0
210
0
220
0
230
1
50
360
0
POINT
5
73
100
AcDbEntity
8
SK2
62
256
6
ByLayer
370
18
48
1
60
1
100
AcDbPoint
10
64
20
12.5
30
0
39
0
210
0
220
0
230
1
50
360
0
POINT
5
74
100
AcDbEntity
8
SK2
62
256
6
ByLayer
370
18
48
1
60
1
100
AcDbPoint
10
64
20
-12.5
30
0
39
0
210
0
220
0
230
1
50
360
0
SPLINE
5
10D
100
AcDbEntity
8
SK1
62
256
6
ByLayer
370
18
48
1
60
0
100
AcDbSpline
70
4
71
2
72
6
73
3
40
0
40
0
40
0
40
1
40
1
40
1
41
1
10
-22.5
20
-13.4936010331935
30
0
41
1
10
-12.0999999986036
20
-13.7547063780669
30
0
41
1
10
-1.69999999999999
20
-14.0158108591592
30
0
0
SPLINE
5
10E
100
AcDbEntity
8
SK1
62
256
6
ByLayer
370
18
48
1
60
0
100
AcDbSpline
70
4
71
2
72
6
73
3
40
0
40
0
40
0
40
1
40
1
40
1
41
1
10
-24
20
-12.63171569075
30
0
41
1
10
-23.2499999368976
20
-13.0645340070691
30
0
41
1
10
-22.5
20
-13.4973518870616
30
0
0
SPLINE
5
10F
100
AcDbEntity
8
SK1
62
256
6
ByLayer
370
18
48
1
60
0
100
AcDbSpline
70
4
71
2
72
6
73
3
40
0
40
0
40
0
40
1
40
1
40
1
41
1
10
-22.5
20
13.4973518251592
30
0
41
1
10
-23.249999936895
20
13.0645339427607
30
0
41
1
10
-24
20
12.6317156240216
30
0
0
SPLINE
5
110
100
AcDbEntity
8
SK1
62
256
6
ByLayer
370
18
48
1
60
0
100
AcDbSpline
70
4
71
2
72
6
73
3
40
0
40
0
40
0
40
1
40
1
40
1
41
1
10
-1.69999999999999
20
14.0158106259661
30
0
41
1
10
-12.0999999986039
20
13.7547061446862
30
0
41
1
10
-22.5
20
13.4936007996938
30
0
0
SPLINE
5
111
100
AcDbEntity
8
SK1
62
256
6
ByLayer
370
18
48
1
60
0
100
AcDbSpline
70
4
71
3
72
13
73
9
40
0
40
0
40
0
40
0
40
0.239505895683991
40
0.3684264449288
40
0.500072183930361
40
0.63170593478759
40
0.760593415031946
40
1
40
1
40
1
40
1
41
1
10
-1.49503997793928
20
13.825267079015
30
0
41
1
10
-1.52110926510645
20
13.8248649608707
30
0
41
1
10
-1.55883864920247
20
13.8310345631992
30
0
41
1
10
-1.60627567894031
20
13.8540679479737
30
0
41
1
10
-1.63886244004755
20
13.8792239231524
30
0
41
1
10
-1.6656349077962
20
13.9104916208042
30
0
41
1
10
-1.69103207618372
20
13.9566898348375
30
0
41
1
10
-1.69909121850787
20
13.9940471489176
30
0
41
1
10
-1.69999999999999
20
14.0200943498873
30
0
0
SPLINE
5
112
100
AcDbEntity
8
SK1
62
256
6
ByLayer
370
18
48
1
60
0
100
AcDbSpline
70
4
71
3
72
13
73
9
40
0
40
0
40
0
40
0
40
0.239406584356309
40
0.368294064402705
40
0.49992781519548
40
0.631573554280459
40
0.760494103733154
40
1
40
1
40
1
40
1
41
1
10
-1.69999999999999
20
-14.020094440518
30
0
41
1
10
-1.69909121849832
20
-13.9940472396764
30
0
41
1
10
-1.69103207617425
20
-13.956689925787
30
0
41
1
10
-1.66563490778341
20
-13.9104917120148
30
0
41
1
10
-1.63886244003064
20
-13.8792240145368
30
0
41
1
10
-1.60627567892243
20
-13.8540680395026
30
0
41
1
10
-1.55883864918061
20
-13.8310346548635
30
0
41
1
10
-1.52110926509482
20
-13.8248650525742
30
0
41
1
10
-1.49503997793928
20
-13.8252671707288
30
0
0
SPLINE
5
113
100
AcDbEntity
8
SK1
62
256
6
ByLayer
370
18
48
1
60
0
100
AcDbSpline
70
4
71
2
72
6
73
3
40
0
40
0
40
0
40
1
40
1
40
1
41
1
10
-1.49503997793928
20
-13.713017019049
30
0
41
1
10
-0.944976888873896
20
-13.7267324097107
30
0
41
1
10
-0.394913799811292
20
-13.7404477916605
30
0
0
SPLINE
5
114
100
AcDbEntity
8
SK1
62
256
6
ByLayer
370
18
48
1
60
0
100
AcDbSpline
70
4
71
2
72
6
73
3
40
0
40
0
40
0
40
1
40
1
40
1
41
1
10
-0.394913799811292
20
13.740447551665
30
0
41
1
10
-0.944976888873896
20
13.7267321696587
30
0
41
1
10
-1.49503997793928
20
13.7130167789402
30
0
0
SPLINE
5
115
100
AcDbEntity
8
SK1
62
256
6
ByLayer
370
18
48
1
60
0
100
AcDbSpline
70
4
71
3
72
8
73
4
40
0
40
0
40
0
40
0
40
1
40
1
40
1
40
1
41
1
10
-1.49503997793928
20
2.59572959682802
30
0
41
1
10
-1.4372004972023
20
2.94804273884375
30
0
41
1
10
-1.37356947571646
20
3.29172452904802
30
0
41
1
10
-1.30710678118655
20
3.62853433720642
30
0
0
SPLINE
5
116
100
AcDbEntity
8
SK1
62
256
6
ByLayer
370
18
48
1
60
0
100
AcDbSpline
70
4
71
3
72
17
73
13
40
0
40
0
40
0
40
0
40
0.0691198910348733
40
0.149910146721569
40
0.230700402408266
40
0.392280913781658
40
0.553861425155051
40
0.634651680841747
40
0.715441936528443
40
0.877022447901836
40
0.957812703588532
40
1
40
1
40
1
40
1
41
1
10
-0.199999999999989
20
14.006275669192
30
0
41
1
10
-0.199999999999989
20
13.9739665357243
30
0
41
1
10
-0.199999999999989
20
13.8722046182929
30
0
41
1
10
-0.199999999999989
20
13.6197111420048
30
0
41
1
10
-0.199999999999989
20
13.1342348341326
30
0
41
1
10
-0.199999999999989
20
12.2979984966115
30
0
41
1
10
-0.199999999999989
20
11.1901781240568
30
0
41
1
10
-0.199999999999989
20
10.1531440412185
30
0
41
1
10
-0.199999999999989
20
9.01842194801017
30
0
41
1
10
-0.199999999999989
20
7.73942963488494
30
0
41
1
10
-0.199999999999989
20
6.49136847341114
30
0
41
1
10
-0.199999999999989
20
5.92516085301048
30
0
41
1
10
-0.199999999999989
20
5.72778184890603
30
0
0
SPLINE
5
117
100
AcDbEntity
8
SK1
62
256
6
ByLayer
370
18
48
1
60
0
100
AcDbSpline
70
4
71
3
72
36
73
32
40
0
40
0
40
0
40
0
40
0.0312499999999997
40
0.0312499999999997
40
0.0624999999999993
40
0.0624999999999993
40
0.0781249999999994
40
0.0781249999999994
40
0.0937499999999995
40
0.0937499999999995
40
0.125
40
0.125
40
0.15625
40
0.15625
40
0.1875
40
0.1875
40
0.21875
40
0.21875
40
0.25
40
0.25
40
0.3125
40
0.3125
40
0.375
40
0.375
40
0.5
40
0.5
40
0.625
40
0.625
40
0.749999999999999
40
0.749999999999999
40
1
40
1
40
1
40
1
41
1
10
-0.394913799811292
20
-5.00116056259455
30
0
41
1
10
-0.410735023485529
20
-5.01390421021375
30
0
41
1
10
-0.427464692688261
20
-5.02563245238568
30
0
41
1
10
-0.463557658092554
20
-5.04617195191128
30
0
41
1
10
-0.482957659598299
20
-5.05493293700039
30
0
41
1
10
-0.513397366495212
20
-5.06428047819708
30
0
41
1
10
-0.523814898165284
20
-5.06678978581584
30
0
41
1
10
-0.545287446174797
20
-5.07038348981607
30
0
41
1
10
-0.556305436163996
20
-5.07144022363713
30
0
41
1
10
-0.589028412665215
20
-5.07217944541901
30
0
41
1
10
-0.611185322931533
20
-5.06938278090567
30
0
41
1
10
-0.653158736531111
20
-5.05828703241724
30
0
41
1
10
-0.67330444601464
20
-5.0499896480936
30
0
41
1
10
-0.710603681727861
20
-5.03020967742307
30
0
41
1
10
-0.727880800928972
20
-5.01875181168555
30
0
41
1
10
-0.760562866434555
20
-4.99368119602664
30
0
41
1
10
-0.775925116613081
20
-4.98006172499171
30
0
41
1
10
-0.804596803081779
20
-4.95193103238685
30
0
41
1
10
-0.818026122242202
20
-4.93731968624232
30
0
41
1
10
-0.856343638956815
20
-4.89227865326887
30
0
41
1
10
-0.879296662794275
20
-4.86066233046807
30
0
41
1
10
-0.922008240114707
20
-4.79538841352945
30
0
41
1
10
-0.941686145027546
20
-4.7617640347641
30
0
41
1
10
-0.996609762207925
20
-4.66001801709203
30
0
41
1
10
-1.02820118876016
20
-4.59048527940513
30
0
41
1
10
-1.08574263925291
20
-4.44915525031584
30
0
41
1
10
-1.11159177404087
20
-4.37733091027616
30
0
41
1
10
-1.15931218721946
20
-4.23182333008583
30
0
41
1
10
-1.18115763731677
20
-4.15813319978272
30
0
41
1
10
-1.24213713076213
20
-3.93459344202697
30
0
41
1
10
-1.27670549162997
20
-3.78259514832911
30
0
41
1
10
-1.30710678118751
20
-3.62853202212813
30
0
0
SPLINE
5
118
100
AcDbEntity
8
SK1
62
256
6
ByLayer
370
18
48
1
60
0
100
AcDbSpline
70
4
71
3
72
17
73
13
40
0
40
0
40
0
40
0
40
0.0421873368484342
40
0.12297759878498
40
0.284558122658071
40
0.365348384594616
40
0.446138646531162
40
0.607719170404253
40
0.769299694277345
40
0.85008995621389
40
0.930880218150436
40
1
40
1
40
1
40
1
41
1
10
-0.199999999999989
20
-5.72778130128842
30
0
41
1
10
-0.199999999999989
20
-5.92516046675928
30
0
41
1
10
-0.199999999999989
20
-6.49136818680859
30
0
41
1
10
-0.199999999999989
20
-7.73942948440458
30
0
41
1
10
-0.199999999999989
20
-9.01842193523453
30
0
41
1
10
-0.199999999999989
20
-10.1531439090037
30
0
41
1
10
-0.199999999999989
20
-11.190178426912
30
0
41
1
10
-0.199999999999989
20
-12.2979981524201
30
0
41
1
10
-0.199999999999989
20
-13.13423545176
30
0
41
1
10
-0.199999999999989
20
-13.6197110427926
30
0
41
1
10
-0.199999999999989
20
-13.8722047207609
30
0
41
1
10
-0.199999999999989
20
-13.9739667699685
30
0
41
1
10
-0.199999999999989
20
-14.0062758716595
30
0
0
SPLINE
5
119
100
AcDbEntity
8
SK1
62
256
6
ByLayer
370
18
48
1
60
0
100
AcDbSpline
70
4
71
3
72
36
73
32
40
0
40
0
40
0
40
0
40
0.125000000000004
40
0.125000000000004
40
0.250000000000007
40
0.250000000000007
40
0.312500000000009
40
0.312500000000009
40
0.37500000000001
40
0.37500000000001
40
0.406250000000011
40
0.406250000000011
40
0.437500000000012
40
0.437500000000012
40
0.453125000000012
40
0.453125000000012
40
0.468750000000013
40
0.468750000000013
40
0.484375000000013
40
0.484375000000013
40
0.500000000000013
40
0.500000000000013
40
0.531250000000013
40
0.531250000000013
40
0.562500000000013
40
0.562500000000013
40
0.625000000000012
40
0.625000000000012
40
0.750000000000008
40
0.750000000000008
40
1
40
1
40
1
40
1
41
1
10
-1.69999999999999
20
2.58377808521789
30
0
41
1
10
-1.69980283176193
20
2.53494813104047
30
0
41
1
10
-1.69914629015307
20
2.48605219520374
30
0
41
1
10
-1.6965250123217
20
2.3880984807798
30
0
41
1
10
-1.69458987013772
20
2.33904299616381
30
0
41
1
10
-1.68996451253318
20
2.26528111364416
30
0
41
1
10
-1.68813273270561
20
2.24066381962874
30
0
41
1
10
-1.68351230038934
20
2.19134004598647
30
0
41
1
10
-1.68075232756112
20
2.16659121971119
30
0
41
1
10
-1.67515949014827
20
2.12981712457943
30
0
41
1
10
-1.67305217630931
20
2.11760538297756
30
0
41
1
10
-1.66788896083378
20
2.09336191022135
30
0
41
1
10
-1.66489176376317
20
2.08121679809398
30
0
41
1
10
-1.65853679929683
20
2.06399527606439
30
0
41
1
10
-1.65615085025269
20
2.05848683766223
30
0
41
1
10
-1.64990007736389
20
2.04874689378931
30
0
41
1
10
-1.64585244680006
20
2.04467800309138
30
0
41
1
10
-1.63700800605236
20
2.04294931985959
30
0
41
1
10
-1.63274291390576
20
2.04525125497796
30
0
41
1
10
-1.62570082643228
20
2.05168607565295
30
0
41
1
10
-1.62266900676482
20
2.05586039978229
30
0
41
1
10
-1.6144350577683
20
2.06908624517177
30
0
41
1
10
-1.60998566242182
20
2.07897687949222
30
0
41
1
10
-1.60173135359554
20
2.09941136011861
30
0
41
1
10
-1.59800183776929
20
2.11000295822529
30
0
41
1
10
-1.58752132339205
20
2.14206819971619
30
0
41
1
10
-1.58141440210613
20
2.16398299410503
30
0
41
1
10
-1.56421680497164
20
2.23037341461648
30
0
41
1
10
-1.55428878410447
20
2.27552014353583
30
0
41
1
10
-1.52628507611217
20
2.41180980880418
30
0
41
1
10
-1.51015162966559
20
2.50368116498208
30
0
41
1
10
-1.49503997793928
20
2.59572959682799
30
0
0
SPLINE
5
11A
100
AcDbEntity
8
SK1
62
256
6
ByLayer
370
13
48
1
60
0
100
AcDbSpline
70
4
71
3
72
20
73
16
40
0
40
0
40
0
40
0
40
0.0019260293167284
40
0.0711552211325586
40
0.140384412948389
40
0.209613604764219
40
0.27884279658005
40
0.41730118021171
40
0.486530372027541
40
0.555759563843371
40
0.694217947475031
40
0.832676331106692
40
0.901905522922522
40
0.971134714738353
40
1
40
1
40
1
40
1
41
1
10
-1.49503997793928
20
-2.59572866980207
30
0
41
1
10
-1.49503997793928
20
-2.60753527399984
30
0
41
1
10
-1.49503997793928
20
-3.04345441166049
30
0
41
1
10
-1.49503997793928
20
-3.88412508952482
30
0
41
1
10
-1.49503997793928
20
-5.06527592408099
30
0
41
1
10
-1.49503997793928
20
-6.18114524290195
30
0
41
1
10
-1.49503997793928
20
-7.58102884110858
30
0
41
1
10
-1.49503997793928
20
-8.84271184628201
30
0
41
1
10
-1.49503997793928
20
-9.96541209516295
30
0
41
1
10
-1.49503997793928
20
-10.9917340076615
30
0
41
1
10
-1.49503997793928
20
-12.0867937065467
30
0
41
1
10
-1.49503997793928
20
-12.9130991355629
30
0
41
1
10
-1.49503997793928
20
-13.3930993868039
30
0
41
1
10
-1.49503997793928
20
-13.6040468453757
30
0
41
1
10
-1.49503997793928
20
-13.6917868783592
30
0
41
1
10
-1.49503997793928
20
-13.7143416696489
30
0
0
SPLINE
5
11B
100
AcDbEntity
8
SK1
62
256
6
ByLayer
370
18
48
1
60
0
100
AcDbSpline
70
4
71
3
72
9
73
5
40
0
40
0
40
0
40
0
40
0.436839383465016
40
1
40
1
40
1
40
1
41
1
10
-1.49503997793928
20
-13.7143420944324
30
0
41
1
10
-1.49503997793928
20
-13.7458814933533
30
0
41
1
10
-1.49503997793928
20
-13.8034720764982
30
0
41
1
10
-1.49503997793928
20
-13.8254358361358
30
0
41
1
10
-1.49503997793928
20
-13.8252656280667
30
0
0
SPLINE
5
11C
100
AcDbEntity
8
SK1
62
256
6
ByLayer
370
18
48
1
60
0
100
AcDbSpline
70
4
71
3
72
39
73
35
40
0
40
0
40
0
40
0
40
0.0170751870699796
40
0.0454824704317543
40
0.073889753793529
40
0.102297037155304
40
0.159111603878853
40
0.215926170602402
40
0.244333453964177
40
0.272740737325952
40
0.329555304049501
40
0.357962587411276
40
0.386369870773051
40
0.414777154134825
40
0.4431844374966
40
0.471591720858375
40
0.485795362539262
40
0.499999004220149
40
0.514202645901037
40
0.528406287581924
40
0.556813570943699
40
0.585220854305474
40
0.613628137667248
40
0.642035421029023
40
0.670442704390797
40
0.727257271114347
40
0.755664554476122
40
0.784071837837896
40
0.840886404561446
40
0.897700971284995
40
0.92610825464677
40
0.954515538008544
40
0.982922821370319
40
1
40
1
40
1
40
1
41
1
10
-24
20
-12.6307589345572
30
0
41
1
10
-24
20
-12.6271435109388
30
0
41
1
10
-24
20
-12.5984157646117
30
0
41
1
10
-24
20
-12.4743692733745
30
0
41
1
10
-24
20
-12.2301460729139
30
0
41
1
10
-24
20
-11.7782448377075
30
0
41
1
10
-24
20
-11.0029089912388
30
0
41
1
10
-24
20
-9.97333275207072
30
0
41
1
10
-24
20
-9.00198709358406
30
0
41
1
10
-24
20
-7.94098139760015
30
0
41
1
10
-24
20
-6.76812911518888
30
0
41
1
10
-24
20
-5.45799609225455
30
0
41
1
10
-24
20
-4.4275375451636
30
0
41
1
10
-24
20
-3.35000208235886
30
0
41
1
10
-24
20
-2.23771697460674
30
0
41
1
10
-24
20
-1.30515943417129
30
0
41
1
10
-24
20
-0.551100895559586
30
0
41
1
10
-24
20
2.454147534E-07
30
0
41
1
10
-24
20
0.551100854738905
30
0
41
1
10
-24
20
1.30515932004789
30
0
41
1
10
-24
20
2.23771741989395
30
0
41
1
10
-24
20
3.35000222974924
30
0
41
1
10
-24
20
4.42753733029454
30
0
41
1
10
-24
20
5.4579963756465
30
0
41
1
10
-24
20
6.76812921007331
30
0
41
1
10
-24
20
7.94098140173097
30
0
41
1
10
-24
20
9.00198713477033
30
0
41
1
10
-24
20
9.97333247862687
30
0
41
1
10
-24
20
11.0029092636263
30
0
41
1
10
-24
20
11.778244241418
30
0
41
1
10
-24
20
12.230146179188
30
0
41
1
10
-24
20
12.4743689830171
30
0
41
1
10
-24
20
12.5984186688688
30
0
41
1
10
-24
20
12.6271458351255
30
0
41
1
10
-24
20
12.6307600654029
30
0
0
SPLINE
5
11D
100
AcDbEntity
8
SK1
62
256
6
ByLayer
370
18
48
1
60
0
100
AcDbSpline
70
4
71
3
72
36
73
32
40
0
40
0
40
0
40
0
40
0.250000000000004
40
0.250000000000004
40
0.375000000000006
40
0.375000000000006
40
0.437500000000007
40
0.437500000000007
40
0.468750000000006
40
0.468750000000006
40
0.500000000000006
40
0.500000000000006
40
0.515625000000006
40
0.515625000000006
40
0.531250000000006
40
0.531250000000006
40
0.546875000000006
40
0.546875000000006
40
0.562500000000006
40
0.562500000000006
40
0.593750000000005
40
0.593750000000005
40
0.625000000000005
40
0.625000000000005
40
0.687500000000004
40
0.687500000000004
40
0.750000000000004
40
0.750000000000004
40
0.875000000000002
40
0.875000000000002
40
1
40
1
40
1
40
1
41
1
10
-1.49503997793928
20
-2.59572866980207
30
0
41
1
10
-1.51026123722426
20
-2.50301277869451
30
0
41
1
10
-1.52651109107333
20
-2.41049873555426
30
0
41
1
10
-1.55477059605045
20
-2.27328358340645
30
0
41
1
10
-1.56481458786161
20
-2.22773052667011
30
0
41
1
10
-1.58228349561361
20
-2.16081267675358
30
0
41
1
10
-1.58850203306017
20
-2.13871110702209
30
0
41
1
10
-1.59920684184669
20
-2.10654042134601
30
0
41
1
10
-1.60299914819271
20
-2.09599696577917
30
0
41
1
10
-1.61148455352219
20
-2.07564920040716
30
0
41
1
10
-1.61613906919172
20
-2.06569139229708
30
0
41
1
10
-1.62477195539671
20
-2.05301401466033
30
0
41
1
10
-1.62793524211693
20
-2.04911817380773
30
0
41
1
10
-1.63551376705203
20
-2.04375885060364
30
0
41
1
10
-1.64013457652257
20
-2.04268510019753
30
0
41
1
10
-1.64864678477991
20
-2.04701800620327
30
0
41
1
10
-1.6522026415935
20
-2.05183497913649
30
0
41
1
10
-1.65780271049223
20
-2.06209889338817
30
0
41
1
10
-1.66005581238065
20
-2.06781172737584
30
0
41
1
10
-1.66591854409185
20
-2.08507186161106
30
0
41
1
10
-1.66875252659077
20
-2.09702122709587
30
0
41
1
10
-1.67370679113645
20
-2.12121687034789
30
0
41
1
10
-1.67575012136609
20
-2.13342095957745
30
0
41
1
10
-1.68115380351307
20
-2.16993349213513
30
0
41
1
10
-1.68382251839569
20
-2.19430149785691
30
0
41
1
10
-1.68832031406805
20
-2.24305704289927
30
0
41
1
10
-1.69011547560277
20
-2.26744567235369
30
0
41
1
10
-1.69465688317243
20
-2.34062742639421
30
0
41
1
10
-1.69657077641125
20
-2.38945991149208
30
0
41
1
10
-1.69915633746155
20
-2.48678291130116
30
0
41
1
10
-1.69980436369318
20
-2.53532682713819
30
0
41
1
10
-1.69999999999999
20
-2.5837772973461
30
0
0
SPLINE
5
11E
100
AcDbEntity
8
SK1
62
256
6
ByLayer
370
18
48
1
60
0
100
AcDbSpline
70
4
71
3
72
9
73
5
40
0
40
0
40
0
40
0
40
0.399549051474418
40
1
40
1
40
1
40
1
41
1
10
-0.394913799811292
20
13.8446595289407
30
0
41
1
10
-0.394913799811292
20
13.8386282511807
30
0
41
1
10
-0.394913799811292
20
13.8153749446156
30
0
41
1
10
-0.394913799811292
20
13.7728148586386
30
0
41
1
10
-0.394913799811263
20
13.7407315289408
30
0
0
SPLINE
5
11F
100
AcDbEntity
8
SK1
62
256
6
ByLayer
370
13
48
1
60
0
100
AcDbSpline
70
4
71
3
72
18
73
14
40
0
40
0
40
0
40
0
40
0.0329223023252652
40
0.113118245900772
40
0.193314189476278
40
0.353706076627291
40
0.514097963778304
40
0.59429390735381
40
0.674489850929317
40
0.83488173808033
40
0.915077681655836
40
0.995273625231343
40
1
40
1
40
1
40
1
41
1
10
-0.394913799811263
20
13.7407320821454
30
0
41
1
10
-0.394913799811292
20
13.7183887950508
30
0
41
1
10
-0.394913799811292
20
13.6307407318893
30
0
41
1
10
-0.394913799811292
20
13.4200270263956
30
0
41
1
10
-0.394913799811292
20
12.9393754432253
30
0
41
1
10
-0.394913799811292
20
12.1118907902116
30
0
41
1
10
-0.394913799811292
20
11.015314225612
30
0
41
1
10
-0.394913799811292
20
9.98771978618734
30
0
41
1
10
-0.394913799811292
20
8.86359092653058
30
0
41
1
10
-0.394913799811292
20
7.59985122616766
30
0
41
1
10
-0.394913799811292
20
6.19788950405021
30
0
41
1
10
-0.394913799811292
20
5.43069780454792
30
0
41
1
10
-0.394913799811292
20
5.02384266526144
30
0
41
1
10
-0.394913799811292
20
5.00116108217654
30
0
0
SPLINE
5
120
100
AcDbEntity
8
SK1
62
256
6
ByLayer
370
18
48
1
60
0
100
AcDbSpline
70
4
71
3
72
26
73
22
40
0
40
0
40
0
40
0
40
0.25
40
0.25
40
0.375
40
0.375
40
0.4375
40
0.4375
40
0.46875
40
0.46875
40
0.5
40
0.5
40
0.625
40
0.625
40
0.75
40
0.75
40
0.875
40
0.875
40
0.9375
40
0.9375
40
1
40
1
40
1
40
1
41
1
10
-1.69999999999999
20
-2.5837772973461
30
0
41
1
10
-1.76613065886878
20
-2.16784704245339
30
0
41
1
10
-1.82316215686583
20
-1.74568146733012
30
0
41
1
10
-1.88427766240593
20
-1.09995043784016
30
0
41
1
10
-1.90057185673112
20
-0.882620801089502
30
0
41
1
10
-1.91719408999322
20
-0.552958450347262
30
0
41
1
10
-1.92143351430278
20
-0.442459814342214
30
0
41
1
10
-1.92571062209052
20
-0.275747908317783
30
0
41
1
10
-1.92678890529305
20
-0.219949147197752
30
0
41
1
10
-1.92821915648835
20
-0.108715900509111
30
0
41
1
10
-1.92857376506791
20
-0.0532112388235646
30
0
41
1
10
-1.9285260192795
20
0.2237512458141
30
0
41
1
10
-1.92269285742202
20
0.443534065874189
30
0
41
1
10
-1.90073152159664
20
0.879827175945763
30
0
41
1
10
-1.88456941336776
20
1.09633072422011
30
0
41
1
10
-1.84395869573467
20
1.52647783394633
30
0
41
1
10
-1.8194991935238
20
1.74011907259901
30
0
41
1
10
-1.7779104307611
20
2.05868937391
30
0
41
1
10
-1.76321329032666
20
2.16467276723154
30
0
41
1
10
-1.73252928227532
20
2.37518275958954
30
0
41
1
10
-1.7165348045867
20
2.47978185665878
30
0
41
1
10
-1.69999999999999
20
2.58377808521786
30
0
0
SPLINE
5
121
100
AcDbEntity
8
SK1
62
256
6
ByLayer
370
18
48
1
60
0
100
AcDbSpline
70
4
71
3
72
39
73
35
40
0
40
0
40
0
40
0
40
0.0163354623353873
40
0.0447863206902448
40
0.0732371790451022
40
0.10168803739996
40
0.158589754109674
40
0.215491470819389
40
0.243942329174247
40
0.272393187529104
40
0.329294904238819
40
0.357745762593677
40
0.386196620948534
40
0.414647479303392
40
0.443098337658249
40
0.471549196013106
40
0.485774625190535
40
0.500000054367964
40
0.514225483545392
40
0.528450912722821
40
0.556901771077679
40
0.585352629432536
40
0.613803487787394
40
0.642254346142251
40
0.670705204497109
40
0.727606921206824
40
0.756057779561681
40
0.784508637916538
40
0.841410354626253
40
0.898312071335968
40
0.926762929690826
40
0.955213788045683
40
0.98366464640054
40
1
40
1
40
1
40
1
41
1
10
-22.5
20
13.495816472733
30
0
41
1
10
-22.5
20
13.4915511892807
30
0
41
1
10
-22.5
20
13.4607341136958
30
0
41
1
10
-22.5
20
13.3308793310681
30
0
41
1
10
-22.5
20
13.0738790940806
30
0
41
1
10
-22.5
20
12.6015910628856
30
0
41
1
10
-22.5
20
11.7892772585257
30
0
41
1
10
-22.5
20
10.7121915826386
30
0
41
1
10
-22.5
20
9.70096055319001
30
0
41
1
10
-22.5
20
8.59519482612015
30
0
41
1
10
-22.5
20
7.35789518762178
30
0
41
1
10
-22.5
20
5.98264738368823
30
0
41
1
10
-22.5
20
4.89022224945154
30
0
41
1
10
-22.5
20
3.73751327283389
30
0
41
1
10
-22.5
20
2.52988151772914
30
0
41
1
10
-22.5
20
1.48826017841199
30
0
41
1
10
-22.5
20
0.63722566300541
30
0
41
1
10
-22.5
20
1.013002304E-07
30
0
41
1
10
-22.5
20
-0.637225639727404
30
0
41
1
10
-22.5
20
-1.48826022368627
30
0
41
1
10
-22.5
20
-2.52988134516508
30
0
41
1
10
-22.5
20
-3.73751305004353
30
0
41
1
10
-22.5
20
-4.89022238185544
30
0
41
1
10
-22.5
20
-5.98264719956148
30
0
41
1
10
-22.5
20
-7.35789505897995
30
0
41
1
10
-22.5
20
-8.59519481674027
30
0
41
1
10
-22.5
20
-9.70096045673193
30
0
41
1
10
-22.5
20
-10.7121918739408
30
0
41
1
10
-22.5
20
-11.7892769425394
30
0
41
1
10
-22.5
20
-12.6015916721313
30
0
41
1
10
-22.5
20
-13.0738789920944
30
0
41
1
10
-22.5
20
-13.3308795934982
30
0
41
1
10
-22.5
20
-13.460734374256
30
0
41
1
10
-22.5
20
-13.4915512412523
30
0
41
1
10
-22.5
20
-13.4958165271702
30
0
0
SPLINE
5
122
100
AcDbEntity
8
SK1
62
256
6
ByLayer
370
18
48
1
60
0
100
AcDbSpline
70
4
71
3
72
8
73
4
40
0
40
0
40
0
40
0
40
1
40
1
40
1
40
1
41
1
10
-1.30710678118655
20
-3.62853202213307
30
0
41
1
10
-1.37356940710902
20
-3.29172262772462
30
0
41
1
10
-1.43720046286526
20
-2.94804131885388
30
0
41
1
10
-1.49503997793928
20
-2.59572866974995
30
0
0
SPLINE
5
123
100
AcDbEntity
8
SK1
62
256
6
ByLayer
370
13
48
1
60
0
100
AcDbSpline
70
4
71
3
72
18
73
14
40
0
40
0
40
0
40
0
40
0.0047264100278361
40
0.0849223450648054
40
0.165118280101775
40
0.325510150175713
40
0.405706085212683
40
0.485902020249652
40
0.646293890323591
40
0.806685760397529
40
0.886881695434498
40
0.967077630471468
40
1
40
1
40
1
40
1
41
1
10
-0.394913799811292
20
-5.00116056259458
30
0
41
1
10
-0.394913799811292
20
-5.02384231960818
30
0
41
1
10
-0.394913799811292
20
-5.43069766105196
30
0
41
1
10
-0.394913799811292
20
-6.19788936064776
30
0
41
1
10
-0.394913799811292
20
-7.59985108367658
30
0
41
1
10
-0.394913799811292
20
-8.86359091499725
30
0
41
1
10
-0.394913799811292
20
-9.98771966705357
30
0
41
1
10
-0.394913799811292
20
-11.0153145242407
30
0
41
1
10
-0.394913799811292
20
-12.1118904563386
30
0
41
1
10
-0.394913799811292
20
-12.9393760577865
30
0
41
1
10
-0.394913799811292
20
-13.4200269261686
30
0
41
1
10
-0.394913799811292
20
-13.6307409909269
30
0
41
1
10
-0.394913799811292
20
-13.7183892159631
30
0
41
1
10
-0.394913799811263
20
-13.7407325625594
30
0
0
SPLINE
5
124
100
AcDbEntity
8
SK1
62
256
6
ByLayer
370
18
48
1
60
0
100
AcDbSpline
70
4
71
3
72
9
73
5
40
0
40
0
40
0
40
0
40
0.600451847374608
40
1
40
1
40
1
40
1
41
1
10
-0.394913799811263
20
-13.7407316982677
30
0
41
1
10
-0.394913799811292
20
-13.7728151424059
30
0
41
1
10
-0.394913799811292
20
-13.8153752757029
30
0
41
1
10
-0.394913799811292
20
-13.8386284705405
30
0
41
1
10
-0.394913799811292
20
-13.8446596982821
30
0
0
SPLINE
5
125
100
AcDbEntity
8
SK1
62
256
6
ByLayer
370
18
48
1
60
0
100
AcDbSpline
70
4
71
3
72
21
73
17
40
0
40
0
40
0
40
0
40
0.0619942550817215
40
0.124171510029555
40
0.186348764977388
40
0.248526019925221
40
0.372880529820887
40
0.497235039716554
40
0.559412294664387
40
0.62158954961222
40
0.745944059507886
40
0.80812131445572
40
0.870298569403553
40
0.932475824351386
40
0.994653079299219
40
1
40
1
40
1
40
1
41
1
10
-1.69999999999996
20
14.0157839583878
30
0
41
1
10
-1.69999999999996
20
14.0272529170467
30
0
41
1
10
-1.69999999999999
20
14.0038766526636
30
0
41
1
10
-1.69999999999999
20
13.8477062499051
30
0
41
1
10
-1.69999999999999
20
13.5829959818305
30
0
41
1
10
-1.69999999999999
20
13.0984067777707
30
0
41
1
10
-1.69999999999999
20
12.2637795792515
30
0
41
1
10
-1.69999999999999
20
11.1580265629749
30
0
41
1
10
-1.69999999999999
20
10.1227281115305
30
0
41
1
10
-1.69999999999999
20
8.98995375595479
30
0
41
1
10
-1.69999999999999
20
7.71376588282689
30
0
41
1
10
-1.69999999999999
20
6.29922705440435
30
0
41
1
10
-1.69999999999999
20
5.16941096177055
30
0
41
1
10
-1.69999999999999
20
3.97134131573904
30
0
41
1
10
-1.69999999999999
20
3.09163207213675
30
0
41
1
10
-1.69999999999999
20
2.6211130853342
30
0
41
1
10
-1.69999999999999
20
2.58377808521786
30
0
0
SPLINE
5
126
100
AcDbEntity
8
SK1
62
256
6
ByLayer
370
18
48
1
60
0
100
AcDbSpline
70
4
71
3
72
26
73
22
40
0
40
0
40
0
40
0
40
0.0312499999999996
40
0.0312499999999996
40
0.0624999999999991
40
0.0624999999999991
40
0.0937499999999987
40
0.0937499999999987
40
0.124999999999998
40
0.124999999999998
40
0.1875
40
0.1875
40
0.250000000000001
40
0.250000000000001
40
0.375000000000001
40
0.375000000000001
40
0.500000000000001
40
0.500000000000001
40
0.75
40
0.75
40
1
40
1
40
1
40
1
41
1
10
-0.394913799811292
20
5.00116108217654
30
0
41
1
10
-0.388593077844178
20
4.9960698849118
30
0
41
1
10
-0.381696248959287
20
4.99164852029563
30
0
41
1
10
-0.366410571944329
20
4.98566435854278
30
0
41
1
10
-0.357950298206589
20
4.98423386424881
30
0
41
1
10
-0.341064499256646
20
4.98632315728017
30
0
41
1
10
-0.332737442838493
20
4.98989594405839
30
0
41
1
10
-0.318359831773961
20
4.99980634621772
30
0
41
1
10
-0.312107661781397
20
5.00605634377806
30
0
41
1
10
-0.295557308756486
20
5.0261560618294
30
0
41
1
10
-0.287201910927422
20
5.04137639572582
30
0
41
1
10
-0.272916655032191
20
5.07221259840796
30
0
41
1
10
-0.267068575155236
20
5.0879254663663
30
0
41
1
10
-0.251550533790692
20
5.13550128701098
30
0
41
1
10
-0.243883568597596
20
5.16792600720166
30
0
41
1
10
-0.231149880121421
20
5.23258507573857
30
0
41
1
10
-0.226165642229006
20
5.26480643303961
30
0
41
1
10
-0.213678908808845
20
5.3611913732602
30
0
41
1
10
-0.208609627305322
20
5.42507701724693
30
0
41
1
10
-0.201889470916569
20
5.55222154865822
30
0
41
1
10
-0.200325540023954
20
5.61547854140437
30
0
41
1
10
-0.199999999999989
20
5.67845201642962
30
0
0
SPLINE
5
127
100
AcDbEntity
8
SK1
62
256
6
ByLayer
370
18
48
1
60
0
100
AcDbSpline
70
4
71
3
72
26
73
22
40
0
40
0
40
0
40
0
40
0.03125
40
0.03125
40
0.0624999999999999
40
0.0624999999999999
40
0.0937499999999999
40
0.0937499999999999
40
0.125
40
0.125
40
0.187499999999999
40
0.187499999999999
40
0.249999999999998
40
0.249999999999998
40
0.374999999999998
40
0.374999999999998
40
0.499999999999997
40
0.499999999999997
40
0.749999999999999
40
0.749999999999999
40
1
40
1
40
1
40
1
41
1
10
-0.394913799811292
20
-13.8446596982821
30
0
41
1
10
-0.388593885243012
20
-13.8450250955503
30
0
41
1
10
-0.381697986923029
20
-13.8456694438159
30
0
41
1
10
-0.366414150147989
20
-13.8479342360846
30
0
41
1
10
-0.357954764476204
20
-13.8496012556341
30
0
41
1
10
-0.341070083536834
20
-13.8540052897844
30
0
41
1
10
-0.332743293280913
20
-13.8567292113688
30
0
41
1
10
-0.318366184722322
20
-13.8622189843533
30
0
41
1
10
-0.312114202499345
20
-13.8650128625779
30
0
41
1
10
-0.295564457536216
20
-13.8731201398341
30
0
41
1
10
-0.287209208096499
20
-13.878225468905
30
0
41
1
10
-0.272924030069333
20
-13.8878208927885
30
0
41
1
10
-0.267075773720649
20
-13.8923152006563
30
0
41
1
10
-0.251556816304287
20
-13.9052316346871
30
0
41
1
10
-0.24388876929018
20
-13.913115040607
30
0
41
1
10
-0.231153161037895
20
-13.9277833881154
30
0
41
1
10
-0.226167999261975
20
-13.9345502713768
30
0
41
1
10
-0.213679061265964
20
-13.9535995966933
30
0
41
1
10
-0.208609119240776
20
-13.9646403216358
30
0
41
1
10
-0.20188889975347
20
-13.984321015747
30
0
41
1
10
-0.200325484931824
20
-13.9929389755075
30
0
41
1
10
-0.199999999999989
20
-14.0005308360297
30
0
0
SPLINE
5
128
100
AcDbEntity
8
SK1
62
256
6
ByLayer
370
18
48
1
60
0
100
AcDbSpline
70
4
71
3
72
10
73
6
40
0
40
0
40
0
40
0
40
0.5
40
0.5
40
1
40
1
40
1
40
1
41
1
10
-0.199999999999989
20
5.72778184890603
30
0
41
1
10
-0.157172721739357
20
5.64514020005359
30
0
41
1
10
-0.121003677024532
20
5.56020239791641
30
0
41
1
10
-0.0556335917865454
20
5.38729149656763
30
0
41
1
10
-0.0266023831371172
20
5.29927497731066
30
0
41
1
10
1.137E-13
20
5.20997889399882
30
0
0
SPLINE
5
129
100
AcDbEntity
8
SK1
62
256
6
ByLayer
370
18
48
1
60
0
100
AcDbSpline
70
4
71
3
72
8
73
4
40
0
40
0
40
0
40
0
40
1
40
1
40
1
40
1
41
0.980125716641696
10
-0.200000000000003
20
-5.69634850379842
30
0
41
0.980125716641696
10
-0.200000000000003
20
-5.69038569351127
30
0
41
0.980125716641696
10
-0.200000000000003
20
-5.68442002672957
30
0
41
0.980125716641696
10
-0.200000000000003
20
-5.67845150388107
30
0
0
SPLINE
5
12A
100
AcDbEntity
8
SK1
62
256
6
ByLayer
370
18
48
1
60
0
100
AcDbSpline
70
4
71
3
72
10
73
6
40
0
40
0
40
0
40
0
40
0.5
40
0.5
40
1
40
1
40
1
40
1
41
1
10
0
20
14.0449295131766
30
0
41
1
10
-0.0266012285184161
20
14.0405020558765
30
0
41
1
10
-0.0556377796240781
20
14.0349844024444
30
0
41
1
10
-0.12101457846947
20
14.0220021118348
30
0
41
1
10
-0.15718270641517
20
14.0145315496191
30
0
41
1
10
-0.19999999999726
20
14.006275669192
30
0
0
SPLINE
5
12B
100
AcDbEntity
8
SK1
62
256
6
ByLayer
370
18
48
1
60
0
100
AcDbSpline
70
4
71
3
72
30
73
26
40
0
40
0
40
0
40
0
40
0.25
40
0.25
40
0.375
40
0.375
40
0.5
40
0.5
40
0.625
40
0.625
40
0.6875
40
0.6875
40
0.75
40
0.75
40
0.8125
40
0.8125
40
0.875
40
0.875
40
0.90625
40
0.90625
40
0.9375
40
0.9375
40
0.96875
40
0.96875
40
1
40
1
40
1
40
1
41
1
10
-1.30710678118655
20
3.62853433720642
30
0
41
1
10
-1.27666571440918
20
3.78279907073755
30
0
41
1
10
-1.24213371033556
20
3.93462763573851
30
0
41
1
10
-1.18109081197508
20
4.15837037912317
30
0
41
1
10
-1.15918165202706
20
4.23227919141883
30
0
41
1
10
-1.11116227833199
20
4.37858537053413
30
0
41
1
10
-1.08507948586984
20
4.45096090623949
30
0
41
1
10
-1.02706832630062
20
4.59308791137028
30
0
41
1
10
-0.99508474989355
20
4.66317059286271
30
0
41
1
10
-0.940052913520788
20
4.76461628090829
30
0
41
1
10
-0.920529370906081
20
4.79779601403041
30
0
41
1
10
-0.878053724810229
20
4.86240606869328
30
0
41
1
10
-0.855145617589443
20
4.89385654551648
30
0
41
1
10
-0.803680918974493
20
4.95400421215445
30
0
41
1
10
-0.775266891414162
20
4.98261066908682
30
0
41
1
10
-0.71031274046274
20
5.0320109742261
30
0
41
1
10
-0.672789603751426
20
5.05335078499468
30
0
41
1
10
-0.609788395540534
20
5.06961980113229
30
0
41
1
10
-0.588380278389167
20
5.07223202598755
30
0
41
1
10
-0.544642575651977
20
5.07110826896445
30
0
41
1
10
-0.52321086550154
20
5.0673384865444
30
0
41
1
10
-0.482319922293442
20
5.05469252919983
30
0
41
1
10
-0.463152856090033
20
5.04595940949179
30
0
41
1
10
-0.427444682539459
20
5.02560401094567
30
0
41
1
10
-0.410665386495026
20
5.01384862569725
30
0
41
1
10
-0.394913799811292
20
5.00116108217659
30
0
0
SPLINE
5
12C
100
AcDbEntity
8
SK1
62
256
6
ByLayer
370
18
48
1
60
0
100
AcDbSpline
70
4
71
3
72
26
73
22
40
0
40
0
40
0
40
0
40
0.250000000000002
40
0.250000000000002
40
0.500000000000003
40
0.500000000000003
40
0.625000000000003
40
0.625000000000003
40
0.750000000000003
40
0.750000000000003
40
0.812500000000002
40
0.812500000000002
40
0.875000000000001
40
0.875000000000001
40
0.906250000000001
40
0.906250000000001
40
0.937500000000001
40
0.937500000000001
40
0.96875
40
0.96875
40
1
40
1
40
1
40
1
41
1
10
-0.199999999999989
20
14.0005306290776
30
0
41
1
10
-0.200325526921631
20
13.992937784021
30
0
41
1
10
-0.201888714477093
20
13.9843134154885
30
0
41
1
10
-0.208628515439102
20
13.9645912547913
30
0
41
1
10
-0.213720500579399
20
13.9535077777846
30
0
41
1
10
-0.226297832831563
20
13.9343664914099
30
0
41
1
10
-0.231313142997891
20
13.9275805879124
30
0
41
1
10
-0.244061293421112
20
13.9129349686681
30
0
41
1
10
-0.251728467015681
20
13.9050753946242
30
0
41
1
10
-0.267181679795726
20
13.8922335922221
30
0
41
1
10
-0.272997114041203
20
13.887771829979
30
0
41
1
10
-0.287128669286204
20
13.8782791877473
30
0
41
1
10
-0.295478263319012
20
13.8731651598702
30
0
41
1
10
-0.312091372528243
20
13.8650224034849
30
0
41
1
10
-0.31832179766306
20
13.8622381003803
30
0
41
1
10
-0.332666868372428
20
13.8567559126218
30
0
41
1
10
-0.340987965989854
20
13.8540289822524
30
0
41
1
10
-0.357916858937614
20
13.8496085548522
30
0
41
1
10
-0.36638978335418
20
13.8479390392461
30
0
41
1
10
-0.381642090740314
20
13.8456762078259
30
0
41
1
10
-0.38858479258954
20
13.845025452913
30
0
41
1
10
-0.394913799814589
20
13.8446595289409
30
0
0
SPLINE
5
12D
100
AcDbEntity
8
SK1
62
256
6
ByLayer
370
18
48
1
60
0
100
AcDbSpline
70
4
71
3
72
21
73
17
40
0
40
0
40
0
40
0
40
0.0053469552527359
40
0.0675241957930219
40
0.129701436333308
40
0.191878676873594
40
0.25405591741388
40
0.378410398494452
40
0.440587639034738
40
0.502764879575024
40
0.627119360655596
40
0.751473841736168
40
0.813651082276453
40
0.87582832281674
40
0.938005563357025
40
1
40
1
40
1
40
1
41
1
10
-1.69999999999999
20
-2.5837772973461
30
0
41
1
10
-1.69999999999999
20
-2.62111254506638
30
0
41
1
10
-1.69999999999999
20
-3.09163174208075
30
0
41
1
10
-1.69999999999999
20
-3.9713410474516
30
0
41
1
10
-1.69999999999999
20
-5.16941104441418
30
0
41
1
10
-1.69999999999999
20
-6.29922693017525
30
0
41
1
10
-1.69999999999999
20
-7.71376573381551
30
0
41
1
10
-1.69999999999999
20
-8.98995374340757
30
0
41
1
10
-1.69999999999999
20
-10.1227279817209
30
0
41
1
10
-1.69999999999999
20
-11.158026865053
30
0
41
1
10
-1.69999999999999
20
-12.2637792369573
30
0
41
1
10
-1.69999999999999
20
-13.0984073948343
30
0
41
1
10
-1.69999999999999
20
-13.5829958824317
30
0
41
1
10
-1.69999999999999
20
-13.8477064954836
30
0
41
1
10
-1.69999999999999
20
-14.0038773153953
30
0
41
1
10
-1.69999999999999
20
-14.0272530253839
30
0
41
1
10
-1.70000000000002
20
-14.0157839280095
30
0
0
SPLINE
5
12E
100
AcDbEntity
8
SK1
62
256
6
ByLayer
370
18
48
1
60
0
100
AcDbSpline
70
4
71
3
72
10
73
6
40
0
40
0
40
0
40
0
40
0.5
40
0.5
40
1
40
1
40
1
40
1
41
1
10
-0.199999999999989
20
-14.0062758716595
30
0
41
1
10
-0.157182679471191
20
-14.0145317664403
30
0
41
1
10
-0.121014546653214
20
-14.0220023344625
30
0
41
1
10
-0.0556377560763792
20
-14.0349846176618
30
0
41
1
10
-0.0266012172124306
20
-14.0405022588021
30
0
41
1
10
1.137E-13
20
-14.0449296999054
30
0
0
SPLINE
5
12F
100
AcDbEntity
8
SK1
62
256
6
ByLayer
370
18
48
1
60
0
100
AcDbSpline
70
4
71
3
72
26
73
22
40
0
40
0
40
0
40
0
40
0.249999999999998
40
0.249999999999998
40
0.499999999999997
40
0.499999999999997
40
0.624999999999996
40
0.624999999999996
40
0.749999999999995
40
0.749999999999995
40
0.812499999999996
40
0.812499999999996
40
0.874999999999997
40
0.874999999999997
40
0.906249999999998
40
0.906249999999998
40
0.937499999999998
40
0.937499999999998
40
0.968749999999999
40
0.968749999999999
40
1
40
1
40
1
40
1
41
1
10
-0.199999999999932
20
-5.67845150387905
30
0
41
1
10
-0.200325582586942
20
-5.61546983788247
30
0
41
1
10
-0.201889292856663
20
-5.55215860520229
30
0
41
1
10
-0.208629038638975
20
-5.42477542924993
30
0
41
1
10
-0.213720374774766
20
-5.36066104812858
30
0
41
1
10
-0.226295439930396
20
-5.26391096452849
30
0
41
1
10
-0.231309806284685
20
-5.23164989232023
30
0
41
1
10
-0.244056027638663
20
-5.16717583038789
30
0
41
1
10
-0.251722151098562
20
-5.13489726407653
30
0
41
1
10
-0.267174521638538
20
-5.08763962812455
30
0
41
1
10
-0.272989810766745
20
-5.07205528846893
30
0
41
1
10
-0.28712155243386
20
-5.04154827938362
30
0
41
1
10
-0.295471476550745
20
-5.02627441682068
30
0
41
1
10
-0.312085221061721
20
-5.00607580183564
30
0
41
1
10
-0.318315705391456
20
-4.9998472840258
30
0
41
1
10
-0.332661412720256
20
-4.98993685341839
30
0
41
1
10
-0.340982791803327
20
-4.98634390547625
30
0
41
1
10
-0.357912543199376
20
-4.98422689625085
30
0
41
1
10
-0.366386332451668
20
-4.98566051007415
30
0
41
1
10
-0.381640470191996
20
-4.99162000800573
30
0
41
1
10
-0.388584021391466
20
-4.99606206531726
30
0
41
1
10
-0.394913799814617
20
-5.0011605625885
30
0
0
SPLINE
5
130
100
AcDbEntity
8
SK1
62
256
6
ByLayer
370
18
48
1
60
0
100
AcDbSpline
70
4
71
3
72
8
73
4
40
0
40
0
40
0
40
0
40
1
40
1
40
1
40
1
41
0.980125716641701
10
-0.199999999999973
20
5.67845201644864
30
0
41
0.980125716641701
10
-0.200000000000002
20
5.70585523578354
30
0
41
0.980125716641701
10
-0.200000000000002
20
5.73319824959818
30
0
41
0.980125716641701
10
-0.200000000000002
20
5.76048101644861
30
0
0
SPLINE
5
131
100
AcDbEntity
8
SK1
62
256
6
ByLayer
370
18
48
1
60
0
100
AcDbSpline
70
4
71
3
72
9
73
5
40
0
40
0
40
0
40
0
40
0.562952091623692
40
1
40
1
40
1
40
1
41
1
10
-1.49503997793926
20
13.8252659419166
30
0
41
1
10
-1.49503997793928
20
13.8254147713464
30
0
41
1
10
-1.49503997793928
20
13.8034442432606
30
0
41
1
10
-1.49503997793928
20
13.7458810356383
30
0
41
1
10
-1.49503997793931
20
13.7143415968116
30
0
0
SPLINE
5
132
100
AcDbEntity
8
SK1
62
256
6
ByLayer
370
13
48
1
60
0
100
AcDbSpline
70
4
71
3
72
20
73
16
40
0
40
0
40
0
40
0
40
0.0288653963577456
40
0.0980945835450158
40
0.167323770732286
40
0.305782145106826
40
0.444240519481366
40
0.513469706668637
40
0.582698893855907
40
0.721157268230447
40
0.790386455417717
40
0.859615642604987
40
0.928844829792257
40
0.998074016979527
40
1
40
1
40
1
40
1
41
1
10
-1.49503997793928
20
13.7143415968109
30
0
41
1
10
-1.49503997793928
20
13.6917867677443
30
0
41
1
10
-1.49503997793928
20
13.6040468044602
30
0
41
1
10
-1.49503997793928
20
13.3930994871677
30
0
41
1
10
-1.49503997793928
20
12.9130985214152
30
0
41
1
10
-1.49503997793928
20
12.0867940390283
30
0
41
1
10
-1.49503997793928
20
10.9917337096027
30
0
41
1
10
-1.49503997793928
20
9.96541221253273
30
0
41
1
10
-1.49503997793928
20
8.84271185764786
30
0
41
1
10
-1.49503997793928
20
7.5810289825223
30
0
41
1
10
-1.49503997793928
20
6.18114538947242
30
0
41
1
10
-1.49503997793928
20
5.0652758228772
30
0
41
1
10
-1.49503997793928
20
3.88412534084222
30
0
41
1
10
-1.49503997793928
20
3.04345481646686
30
0
41
1
10
-1.49503997793928
20
2.6075359189918
30
0
41
1
10
-1.49503997793928
20
2.59572959682799
30
0
0
SPLINE
5
133
100
AcDbEntity
8
SK1
62
256
6
ByLayer
370
18
48
1
60
0
100
AcDbSpline
70
4
71
3
72
10
73
6
40
0
40
0
40
0
40
0
40
0.5
40
0.5
40
1
40
1
40
1
40
1
41
1
10
0
20
-5.20997845408499
30
0
41
1
10
-0.0266023652104934
20
-5.29927453248274
30
0
41
1
10
-0.0556335640952739
20
-5.38729103925678
30
0
41
1
10
-0.121003648185194
20
-5.56020190378439
30
0
41
1
10
-0.157172701231701
20
-5.64513968165718
30
0
41
1
10
-0.19999999999726
20
-5.72778130128899
30
0
0
SPLINE
5
134
100
AcDbEntity
8
1
62
256
6
ByLayer
370
18
48
1
60
0
100
AcDbSpline
70
4
71
3
72
18
73
14
40
0
40
0
40
0
40
0
40
0.250000000000014
40
0.250000000000014
40
0.500000000000028
40
0.500000000000028
40
0.625000000000021
40
0.625000000000021
40
0.750000000000014
40
0.750000000000014
40
0.875000000000007
40
0.875000000000007
40
1
40
1
40
1
40
1
41
1
10
64.2988
20
-4.86464807044322
30
0
41
1
10
64.2988
20
-4.85070673183495
30
0
41
1
10
64.2983224961619
20
-4.83699094252688
30
0
41
1
10
64.2957580599212
20
-4.81033906630205
30
0
41
1
10
64.2937106492036
20
-4.79715657895784
30
0
41
1
10
64.2879735601157
20
-4.77973680982277
30
0
41
1
10
64.2855708191871
20
-4.77424338878987
30
0
41
1
10
64.2791728807873
20
-4.76536916079968
30
0
41
1
10
64.2750802110353
20
-4.7619727727801
30
0
41
1
10
64.2649428278782
20
-4.76021964470922
30
0
41
1
10
64.2592725855331
20
-4.7620731459503
30
0
41
1
10
64.2484854789732
20
-4.76918426443333
30
0
41
1
10
64.2434703086117
20
-4.77414929177741
30
0
41
1
10
64.2388
20
-4.7795966628
30
0
0
SPLINE
5
135
100
AcDbEntity
8
1
62
256
6
ByLayer
370
18
48
1
60
0
100
AcDbSpline
70
4
71
3
72
12
73
8
40
0
40
0
40
0
40
0
40
0.250000000000029
40
0.250000000000029
40
0.500000000000058
40
0.500000000000058
40
1
40
1
40
1
40
1
41
1
10
64.2988000000094
20
10.3543274075151
30
0
41
1
10
64.2988000000088
20
10.3612955290136
30
0
41
1
10
64.2967345507337
20
10.369994788301
30
0
41
1
10
64.2899881622532
20
10.3891404165462
30
0
41
1
10
64.2853769203838
20
10.3994148772212
30
0
41
1
10
64.2688088007619
20
10.4317882582397
30
0
41
1
10
64.2548668920319
20
10.454149728529
30
0
41
1
10
64.2388
20
10.4770863577007
30
0
0
SPLINE
5
136
100
AcDbEntity
8
1
62
256
6
ByLayer
370
18
48
1
60
0
100
AcDbSpline
70
4
71
3
72
8
73
4
40
0
40
0
40
0
40
0
40
1
40
1
40
1
40
1
41
1
10
63.6537
20
11.2915896128526
30
0
41
1
10
63.8515057273776
20
11.0227439323484
30
0
41
1
10
64.0466688736691
20
10.751367182408
30
0
41
1
10
64.2388
20
10.4770863577007
30
0
0
SPLINE
5
137
100
AcDbEntity
8
1
62
256
6
ByLayer
370
18
48
1
60
0
100
AcDbSpline
70
4
71
3
72
8
73
4
40
0
40
0
40
0
40
0
40
1
40
1
40
1
40
1
41
1
10
64.2388
20
-11.4355276778858
30
0
41
1
10
64.0452427400571
20
-11.6642550696971
30
0
41
1
10
63.8501472326454
20
-11.8912205765055
30
0
41
1
10
63.6537
20
-12.1166378380118
30
0
0
SPLINE
5
138
100
AcDbEntity
8
1
62
256
6
ByLayer
370
18
48
1
60
0
100
AcDbSpline
70
4
71
3
72
18
73
14
40
0
40
0
40
0
40
0
40
0.124999999999986
40
0.124999999999986
40
0.249999999999972
40
0.249999999999972
40
0.374999999999958
40
0.374999999999958
40
0.499999999999944
40
0.499999999999944
40
0.749999999999972
40
0.749999999999972
40
1
40
1
40
1
40
1
41
1
10
64.2388
20
4.77959666279995
30
0
41
1
10
64.2435322962975
20
4.77407699036178
30
0
41
1
10
64.2485422167114
20
4.76912854184957
30
0
41
1
10
64.2593871036243
20
4.76201626408519
30
0
41
1
10
64.2650581774496
20
4.76021061168817
30
0
41
1
10
64.2751335786673
20
4.76201147233016
30
0
41
1
10
64.2791844388714
20
4.765380700984
30
0
41
1
10
64.2855786488718
20
4.77425875395323
30
0
41
1
10
64.2879772818201
20
4.77974797451265
30
0
41
1
10
64.2937038279887
20
4.79713613879414
30
0
41
1
10
64.2957522990228
20
4.81029253471743
30
0
41
1
10
64.2983226419602
20
4.8369791461777
30
0
41
1
10
64.2988
20
4.85070379086378
30
0
41
1
10
64.2988
20
4.86464807044322
30
0
0
SPLINE
5
139
100
AcDbEntity
8
1
62
256
6
ByLayer
370
18
48
1
60
0
100
AcDbSpline
70
4
71
3
72
8
73
4
40
0
40
0
40
0
40
0
40
1
40
1
40
1
40
1
41
1
10
63.6537
20
7.16757720294379
30
0
41
1
10
63.8684026453649
20
6.62139505217831
30
0
41
1
10
64.0645631861399
20
6.06653124652075
30
0
41
1
10
64.2388
20
5.50140246635061
30
0
0
SPLINE
5
13A
100
AcDbEntity
8
1
62
256
6
ByLayer
370
18
48
1
60
0
100
AcDbSpline
70
4
71
3
72
26
73
22
40
0
40
0
40
0
40
0
40
0.0312499999999843
40
0.0312499999999843
40
0.0624999999999687
40
0.0624999999999687
40
0.093749999999953
40
0.093749999999953
40
0.124999999999937
40
0.124999999999937
40
0.187499999999941
40
0.187499999999941
40
0.249999999999945
40
0.249999999999945
40
0.374999999999953
40
0.374999999999953
40
0.499999999999961
40
0.499999999999961
40
0.74999999999998
40
0.74999999999998
40
1
40
1
40
1
40
1
41
1
10
63.6537000000063
20
5.44026224700781
30
0
41
1
10
63.6496462918971
20
5.44470688603508
30
0
41
1
10
63.6453668477416
20
5.44881004589772
30
0
41
1
10
63.6364560566441
20
5.45548451780076
30
0
41
1
10
63.6317912425863
20
5.45804130310955
30
0
41
1
10
63.6227386004623
20
5.46033244212518
30
0
41
1
10
63.6183601437642
20
5.45999422572922
30
0
41
1
10
63.6108685844658
20
5.45656827870081
30
0
41
1
10
63.6077260426324
20
5.45357530059582
30
0
41
1
10
63.5999162200934
20
5.44261973798123
30
0
41
1
10
63.5966875360143
20
5.43282011005144
30
0
41
1
10
63.5920898580456
20
5.41231025500267
30
0
41
1
10
63.5907281278895
20
5.40140390184953
30
0
41
1
10
63.5881526774069
20
5.36761786661859
30
0
41
1
10
63.5884612689023
20
5.34416781353758
30
0
41
1
10
63.5909271786866
20
5.2964147422496
30
0
41
1
10
63.5931492946958
20
5.27228816654386
30
0
41
1
10
63.6017035722756
20
5.19940586815102
30
0
41
1
10
63.6099241847904
20
5.15005955132
30
0
41
1
10
63.6294384047312
20
5.05153658676008
30
0
41
1
10
63.6407913884006
20
5.00220135489744
30
0
41
1
10
63.6537
20
4.95279766434373
30
0
0
SPLINE
5
13B
100
AcDbEntity
8
1
62
256
6
ByLayer
370
18
48
1
60
0
100
AcDbSpline
70
4
71
3
72
8
73
4
40
0
40
0
40
0
40
0
40
1
40
1
40
1
40
1
41
1
10
63.6537
20
11.7779010966008
30
0
41
1
10
63.8507028617765
20
11.5332735486462
30
0
41
1
10
64.0458252852634
20
11.2866638757324
30
0
41
1
10
64.2388
20
11.0377903544688
30
0
0
SPLINE
5
13C
100
AcDbEntity
8
1
62
256
6
ByLayer
370
18
48
1
60
0
100
AcDbSpline
70
4
71
3
72
20
73
16
40
0
40
0
40
0
40
0
40
0.125000000000008
40
0.125000000000008
40
0.250000000000016
40
0.250000000000016
40
0.375000000000024
40
0.375000000000024
40
0.500000000000032
40
0.500000000000032
40
0.62500000000004
40
0.62500000000004
40
0.750000000000048
40
0.750000000000048
40
1
40
1
40
1
40
1
41
1
10
63.6537
20
11.8493756704178
30
0
41
1
10
63.6444383857823
20
11.8574223944804
30
0
41
1
10
63.6353613809578
20
11.8648377047001
30
0
41
1
10
63.6186966590288
20
11.8771688252882
30
0
41
1
10
63.6109229075326
20
11.8822041043918
30
0
41
1
10
63.5984326657971
20
11.8882051989289
30
0
41
1
10
63.5937538500095
20
11.8891419106174
30
0
41
1
10
63.5885691832758
20
11.8863461541776
30
0
41
1
10
63.588123731336
20
11.8826935583316
30
0
41
1
10
63.5906328391312
20
11.8723096848055
30
0
41
1
10
63.5935380562702
20
11.8656489353602
30
0
41
1
10
63.6015401669106
20
11.8506575214998
30
0
41
1
10
63.6065653457386
20
11.8424376665863
30
0
41
1
10
63.6239871891598
20
11.8161236689195
30
0
41
1
10
63.638042800744
20
11.7973433637196
30
0
41
1
10
63.6537
20
11.7779010966008
30
0
0
SPLINE
5
13D
100
AcDbEntity
8
1
62
256
6
ByLayer
370
18
48
1
60
0
100
AcDbSpline
70
4
71
3
72
8
73
4
40
0
40
0
40
0
40
0
40
1
40
1
40
1
40
1
41
1
10
64.2388
20
11.6307868487751
30
0
41
1
10
64.0440980742321
20
11.8086794314395
30
0
41
1
10
63.8490512963434
20
11.9860665268797
30
0
41
1
10
63.6537
20
12.1630072565324
30
0
0
SPLINE
5
13E
100
AcDbEntity
8
1
62
256
6
ByLayer
370
18
48
1
60
0
100
AcDbSpline
70
4
71
3
72
14
73
10
40
0
40
0
40
0
40
0
40
0.25
40
0.25
40
0.5
40
0.5
40
0.75
40
0.75
40
1
40
1
40
1
40
1
41
1
10
64.2388
20
11.6307868487751
30
0
41
1
10
64.2465727284293
20
11.623685168968
30
0
41
1
10
64.2541585201845
20
11.616959543318
30
0
41
1
10
64.2682018920383
20
11.6050239823917
30
0
41
1
10
64.2748047802287
20
11.5996916828927
30
0
41
1
10
64.2861048778468
20
11.5913449144717
30
0
41
1
10
64.290815878409
20
11.5883337560926
30
0
41
1
10
64.2971475722313
20
11.5856112505822
30
0
41
1
10
64.2988
20
11.5859023647605
30
0
41
1
10
64.2988
20
11.5877869312441
30
0
0
SPLINE
5
13F
100
AcDbEntity
8
1
62
256
6
ByLayer
370
18
48
1
60
0
100
AcDbSpline
70
4
71
3
72
16
73
12
40
0
40
0
40
0
40
0
40
0.125000000000003
40
0.125000000000003
40
0.250000000000007
40
0.250000000000007
40
0.500000000000005
40
0.500000000000005
40
0.750000000000002
40
0.750000000000002
40
1
40
1
40
1
40
1
41
1
10
9.07679491924324
20
-5.85988980456941
30
0
41
1
10
9.09558095295722
20
-5.85988980456941
30
0
41
1
10
9.11384906187917
20
-5.86350446472733
30
0
41
1
10
9.14859952398746
20
-5.87658838136372
30
0
41
1
10
9.16442417341898
20
-5.88571770958598
30
0
41
1
10
9.20863486580129
20
-5.91854200832069
30
0
41
1
10
9.23213528231534
20
-5.94612987812178
30
0
41
1
10
9.27225845989869
20
-6.00566371121209
30
0
41
1
10
9.28838045037801
20
-6.03712755983031
30
0
41
1
10
9.31588453947577
20
-6.10206728171744
30
0
41
1
10
9.3272084215684
20
-6.13567510453154
30
0
41
1
10
9.33660254037869
20
-6.16973001948608
30
0
0
SPLINE
5
140
100
AcDbEntity
8
1
62
256
6
ByLayer
370
18
48
1
60
0
100
AcDbSpline
70
4
71
3
72
12
73
8
40
0
40
0
40
0
40
0
40
0.249999999999995
40
0.249999999999995
40
0.49999999999999
40
0.49999999999999
40
1
40
1
40
1
40
1
41
1
10
64.2988
20
5.16419946629543
30
0
41
1
10
64.2988
20
5.19122754133437
30
0
41
1
10
64.2967537406719
20
5.21887014093792
30
0
41
1
10
64.2904093450363
20
5.27479526539261
30
0
41
1
10
64.2860270854575
20
5.30317693413929
30
0
41
1
10
64.2702337570205
20
5.38811637568793
30
0
41
1
10
64.2562675717526
20
5.44474723202751
30
0
41
1
10
64.2388000000003
20
5.50140246635058
30
0
0
SPLINE
5
141
100
AcDbEntity
8
1
62
256
6
ByLayer
370
18
48
1
60
0
100
AcDbSpline
70
4
71
3
72
8
73
4
40
0
40
0
40
0
40
0
40
1
40
1
40
1
40
1
41
1
10
64.2388
20
-9.7252692088307
30
0
41
1
10
64.0479612225667
20
-10.0329275844172
30
0
41
1
10
63.8527328441534
20
-10.3368319366948
30
0
41
1
10
63.6537
20
-10.6374826781927
30
0
0
SPLINE
5
142
100
AcDbEntity
8
1
62
256
6
ByLayer
370
18
48
1
60
0
100
AcDbSpline
70
4
71
3
72
8
73
4
40
0
40
0
40
0
40
0
40
1
40
1
40
1
40
1
41
1
10
64.2388
20
-10.4770863577007
30
0
41
1
10
64.0466688736691
20
-10.751367182408
30
0
41
1
10
63.8515057273776
20
-11.0227439323484
30
0
41
1
10
63.6537
20
-11.2915896128526
30
0
0
SPLINE
5
143
100
AcDbEntity
8
1
62
256
6
ByLayer
370
18
48
1
60
0
100
AcDbSpline
70
4
71
3
72
8
73
4
40
0
40
0
40
0
40
0
40
1
40
1
40
1
40
1
41
1
10
63.6537
20
10.6374826781927
30
0
41
1
10
63.8527328441534
20
10.3368319366948
30
0
41
1
10
64.0479612225667
20
10.0329275844172
30
0
41
1
10
64.2388
20
9.7252692088307
30
0
0
SPLINE
5
144
100
AcDbEntity
8
1
62
256
6
ByLayer
370
18
48
1
60
0
100
AcDbSpline
70
4
71
3
72
16
73
12
40
0
40
0
40
0
40
0
40
0.125000000000002
40
0.125000000000002
40
0.250000000000003
40
0.250000000000003
40
0.500000000000002
40
0.500000000000002
40
0.750000000000001
40
0.750000000000001
40
1
40
1
40
1
40
1
41
1
10
9.07679491924324
20
19.1222825906925
30
0
41
1
10
9.09558095295722
20
19.1222825906925
30
0
41
1
10
9.11384906187917
20
19.1211757542148
30
0
41
1
10
9.14859952398743
20
19.1171586755843
30
0
41
1
10
9.16442417341895
20
19.1143521510704
30
0
41
1
10
9.20863486580126
20
19.1042242696216
30
0
41
1
10
9.23213528231531
20
19.0956673725615
30
0
41
1
10
9.27225845989867
20
19.0770274497583
30
0
41
1
10
9.28838045037799
20
19.06709867989
30
0
41
1
10
9.31588453947575
20
19.0464153092313
30
0
41
1
10
9.32720842156832
20
19.0356185274184
30
0
41
1
10
9.33660254037861
20
19.0245744101322
30
0
0
SPLINE
5
145
100
AcDbEntity
8
1
62
256
6
ByLayer
370
18
48
1
60
0
100
AcDbSpline
70
4
71
3
72
14
73
10
40
0
40
0
40
0
40
0
40
0.25
40
0.25
40
0.5
40
0.5
40
0.75
40
0.75
40
1
40
1
40
1
40
1
41
1
10
64.2388
20
8.40193962928015
30
0
41
1
10
64.2470335605336
20
8.39506205943013
30
0
41
1
10
64.2555317583225
20
8.38926293825776
30
0
41
1
10
64.2715008674734
20
8.38253856810096
30
0
41
1
10
64.2788518021405
20
8.38186955224447
30
0
41
1
10
64.2897999136333
20
8.38641168015207
30
0
41
1
10
64.2934850898033
20
8.39140889782945
30
0
41
1
10
64.2979442243404
20
8.404049120134
30
0
41
1
10
64.2988000000053
20
8.41166365738786
30
0
41
1
10
64.2988000000051
20
8.41981180798939
30
0
0
SPLINE
5
146
100
AcDbEntity
8
1
62
256
6
ByLayer
370
18
48
1
60
0
100
AcDbSpline
70
4
71
3
72
24
73
20
40
0
40
0
40
0
40
0
40
0.249999999999987
40
0.249999999999987
40
0.374999999999988
40
0.374999999999988
40
0.499999999999989
40
0.499999999999989
40
0.62499999999999
40
0.62499999999999
40
0.74999999999999
40
0.74999999999999
40
0.812499999999993
40
0.812499999999993
40
0.874999999999995
40
0.874999999999995
40
0.937499999999998
40
0.937499999999998
40
1
40
1
40
1
40
1
41
1
10
63.6537
20
-7.16757720294379
30
0
41
1
10
63.6399249216802
20
-7.20261963053406
30
0
41
1
10
63.6279483265488
20
-7.23745287146355
30
0
41
1
10
63.6127475156056
20
-7.28936912141387
30
0
41
1
10
63.6081511356147
20
-7.30661802661118
30
0
41
1
10
63.6000889169582
20
-7.3409823078367
30
0
41
1
10
63.5966010506968
20
-7.35820225425107
30
0
41
1
10
63.5912867673621
20
-7.3918621729874
30
0
41
1
10
63.5894314541351
20
-7.40829727913143
30
0
41
1
10
63.58830615816
20
-7.43991959208427
30
0
41
1
10
63.5889773213832
20
-7.45527295721087
30
0
41
1
10
63.5940622017235
20
-7.47476046420954
30
0
41
1
10
63.5964948464534
20
-7.48071117728603
30
0
41
1
10
63.6034612987959
20
-7.48987690985945
30
0
41
1
10
63.6081128430442
20
-7.49311117567638
30
0
41
1
10
63.6196920510902
20
-7.49478553128483
30
0
41
1
10
63.6264532204545
20
-7.49313739251437
30
0
41
1
10
63.6400668683423
20
-7.48626521198489
30
0
41
1
10
63.6470386037923
20
-7.48108379273594
30
0
41
1
10
63.6537000000002
20
-7.47512508656894
30
0
0
SPLINE
5
147
100
AcDbEntity
8
1
62
256
6
ByLayer
370
18
48
1
60
0
100
AcDbSpline
70
4
71
3
72
14
73
10
40
0
40
0
40
0
40
0
40
0.25
40
0.25
40
0.5
40
0.5
40
0.75
40
0.75
40
1
40
1
40
1
40
1
41
1
10
64.2388
20
10.2878877719919
30
0
41
1
10
64.2466828421626
20
10.2814042826097
30
0
41
1
10
64.2544706224093
20
10.2756598019612
30
0
41
1
10
64.2693576012234
20
10.2666233641559
30
0
41
1
10
64.2763058151444
20
10.2634830792263
30
0
41
1
10
64.2876297806206
20
10.2611921034879
30
0
41
1
10
64.2920484899793
20
10.2620832310733
30
0
41
1
10
64.2975643368486
20
10.267394543597
30
0
41
1
10
64.2988000000002
20
10.2718243353801
30
0
41
1
10
64.2988000000002
20
10.2772399463462
30
0
0
SPLINE
5
148
100
AcDbEntity
8
1
62
256
6
ByLayer
370
18
48
1
60
0
100
AcDbSpline
70
4
71
3
72
26
73
22
40
0
40
0
40
0
40
0
40
0.249999999999998
40
0.249999999999998
40
0.499999999999996
40
0.499999999999996
40
0.62499999999999
40
0.62499999999999
40
0.749999999999984
40
0.749999999999984
40
0.812499999999979
40
0.812499999999979
40
0.874999999999974
40
0.874999999999974
40
0.90624999999998
40
0.90624999999998
40
0.937499999999987
40
0.937499999999987
40
0.968749999999993
40
0.968749999999993
40
1
40
1
40
1
40
1
41
1
10
63.6536999999998
20
-4.95279766434373
30
0
41
1
10
63.6408026796776
20
-5.00215814105104
30
0
41
1
10
63.6294901836026
20
-5.05132992146247
30
0
41
1
10
63.6100670543549
20
-5.14928402624014
30
0
41
1
10
63.6019096504701
20
-5.19807026492998
30
0
41
1
10
63.593294055075
20
-5.27085370429751
30
0
41
1
10
63.5910265073946
20
-5.29516835980851
30
0
41
1
10
63.5884890671929
20
-5.34298593893584
30
0
41
1
10
63.5881436133054
20
-5.36643917512737
30
0
41
1
10
63.5906000885905
20
-5.40021313864082
30
0
41
1
10
63.5919364551742
20
-5.41134182826525
30
0
41
1
10
63.5964739405574
20
-5.43212947328161
30
0
41
1
10
63.599649048798
20
-5.44201609397598
30
0
41
1
10
63.6073977617169
20
-5.45321932770526
30
0
41
1
10
63.6105515465275
20
-5.45633451600531
30
0
41
1
10
63.6180632422822
20
-5.4599402760698
30
0
41
1
10
63.6224449708976
20
-5.46036147074304
30
0
41
1
10
63.6316471961596
20
-5.45812094474272
30
0
41
1
10
63.6363820870192
20
-5.455536911173
30
0
41
1
10
63.6453972488105
20
-5.448790272276
30
0
41
1
10
63.6496287483408
20
-5.44472612151213
30
0
41
1
10
63.6537000000214
20
-5.44026224704652
30
0
0
SPLINE
5
149
100
AcDbEntity
8
1
62
256
6
ByLayer
370
18
48
1
60
0
100
AcDbSpline
70
4
71
3
72
12
73
8
40
0
40
0
40
0
40
0
40
0.500000000000006
40
0.500000000000006
40
0.750000000000003
40
0.750000000000003
40
1
40
1
40
1
40
1
41
1
10
64.2388
20
-10.4770863577007
30
0
41
1
10
64.2548648298804
20
-10.4541526723966
30
0
41
1
10
64.2688974914623
20
-10.4316263706674
30
0
41
1
10
64.2853871790346
20
-10.3993890988059
30
0
41
1
10
64.2899783748886
20
-10.3891572507842
30
0
41
1
10
64.2967060146469
20
-10.3700866502967
30
0
41
1
10
64.2988000000044
20
-10.3613029369297
30
0
41
1
10
64.2988000000047
20
-10.3543274075189
30
0
0
SPLINE
5
14A
100
AcDbEntity
8
1
62
256
6
ByLayer
370
18
48
1
60
0
100
AcDbSpline
70
4
71
3
72
22
73
18
40
0
40
0
40
0
40
0
40
0.249999999999968
40
0.249999999999968
40
0.374999999999952
40
0.374999999999952
40
0.499999999999937
40
0.499999999999937
40
0.624999999999921
40
0.624999999999921
40
0.687499999999913
40
0.687499999999913
40
0.749999999999906
40
0.749999999999906
40
0.874999999999953
40
0.874999999999953
40
1
40
1
40
1
40
1
41
1
10
63.6537
20
-11.7779010966008
30
0
41
1
10
63.6379738584443
20
-11.7974289725559
30
0
41
1
10
63.6236958937992
20
-11.8165416839111
30
0
41
1
10
63.6064857576916
20
-11.8425690723568
30
0
41
1
10
63.6013795796811
20
-11.8509351070426
30
0
41
1
10
63.5934667042709
20
-11.8658065621029
30
0
41
1
10
63.5905647285912
20
-11.8724900071174
30
0
41
1
10
63.5881209696071
20
-11.8828094868443
30
0
41
1
10
63.5886271719326
20
-11.8864317029485
30
0
41
1
10
63.592525561535
20
-11.8884514032487
30
0
41
1
10
63.5943729553176
20
-11.8885644978237
30
0
41
1
10
63.5989274049423
20
-11.8876642573127
30
0
41
1
10
63.601641022712
20
-11.88666970001
30
0
41
1
10
63.6110207423754
20
-11.8821448424718
30
0
41
1
10
63.6187071790786
20
-11.8771667854125
30
0
41
1
10
63.6355561716671
20
-11.8646877536773
30
0
41
1
10
63.6444895577042
20
-11.8573779350237
30
0
41
1
10
63.6537
20
-11.8493756704179
30
0
0
SPLINE
5
14B
100
AcDbEntity
8
1
62
256
6
ByLayer
370
18
48
1
60
0
100
AcDbSpline
70
4
71
3
72
8
73
4
40
0
40
0
40
0
40
0
40
1
40
1
40
1
40
1
41
1
10
64.2388
20
8.40193962928058
30
0
41
1
10
64.0438486539358
20
8.5647843055832
30
0
41
1
10
63.8488108214788
20
8.72749099404598
30
0
41
1
10
63.6537
20
8.89008080973446
30
0
0
SPLINE
5
14C
100
AcDbEntity
8
1
62
256
6
ByLayer
370
18
48
1
60
0
100
AcDbSpline
70
4
71
3
72
8
73
4
40
0
40
0
40
0
40
0
40
1
40
1
40
1
40
1
41
1
10
63.6537
20
12.1166378380118
30
0
41
1
10
63.8501472326454
20
11.8912205765055
30
0
41
1
10
64.0452427400571
20
11.6642550696971
30
0
41
1
10
64.2388
20
11.4355276778858
30
0
0
SPLINE
5
14D
100
AcDbEntity
8
1
62
256
6
ByLayer
370
18
48
1
60
0
100
AcDbSpline
70
4
71
3
72
8
73
4
40
0
40
0
40
0
40
0
40
1
40
1
40
1
40
1
41
1
10
64.2388
20
-11.6869487307072
30
0
41
1
10
64.0662099606764
20
-11.8758537828802
30
0
41
1
10
63.8927481577954
20
-12.0636844911895
30
0
41
1
10
63.7185076211353
20
-12.2505555036615
30
0
0
SPLINE
5
14E
100
AcDbEntity
8
1
62
256
6
ByLayer
370
18
48
1
60
0
100
AcDbSpline
70
4
71
3
72
18
73
14
40
0
40
0
40
0
40
0
40
0.125000000000001
40
0.125000000000001
40
0.250000000000003
40
0.250000000000003
40
0.375000000000004
40
0.375000000000004
40
0.500000000000005
40
0.500000000000005
40
0.750000000000003
40
0.750000000000003
40
1
40
1
40
1
40
1
41
1
10
63.6537
20
9.95311903613029
30
0
41
1
10
63.6428206156255
20
9.96200560733425
30
0
41
1
10
63.6318820859251
20
9.96938553675557
30
0
41
1
10
63.612076202103
20
9.97767113496022
30
0
41
1
10
63.6036605151174
20
9.97813714426243
30
0
41
1
10
63.5925128829449
20
9.9713427845748
30
0
41
1
10
63.5897288671157
20
9.96431000878539
30
0
41
1
10
63.5881699191634
20
9.94734902995287
30
0
41
1
10
63.5892201895493
20
9.9374574742844
30
0
41
1
10
63.5958192409713
20
9.90510188906825
30
0
41
1
10
63.6046246797153
20
9.88087215585287
30
0
41
1
10
63.6261826727899
20
9.83198369391661
30
0
41
1
10
63.6390365172159
20
9.80714634152218
30
0
41
1
10
63.6537
20
9.78197727827148
30
0
0
SPLINE
5
14F
100
AcDbEntity
8
1
62
256
6
ByLayer
370
18
48
1
60
0
100
AcDbSpline
70
4
71
3
72
12
73
8
40
0
40
0
40
0
40
0
40
0.499999999999992
40
0.499999999999992
40
0.749999999999996
40
0.749999999999996
40
1
40
1
40
1
40
1
41
1
10
64.2388000000001
20
-5.50140246635058
30
0
41
1
10
64.2562702885728
20
-5.44473842015069
30
0
41
1
10
64.2702580740813
20
-5.38803523118284
30
0
41
1
10
64.2860750026264
20
-5.30289426655642
30
0
41
1
10
64.2904304177978
20
-5.27463308457004
30
0
41
1
10
64.2967542858281
20
-5.21884168159878
30
0
41
1
10
64.2988
20
-5.19123743691739
30
0
41
1
10
64.2988
20
-5.1641994662954
30
0
0
SPLINE
5
150
100
AcDbEntity
8
1
62
256
6
ByLayer
370
18
48
1
60
0
100
AcDbSpline
70
4
71
3
72
8
73
4
40
0
40
0
40
0
40
0
40
1
40
1
40
1
40
1
41
1
10
63.6537
20
-7.475125086568
30
0
41
1
10
63.8491945989851
20
-7.30025260695274
30
0
41
1
10
64.044260470264
20
-7.12474506839402
30
0
41
1
10
64.2388
20
-6.94845787902338
30
0
0
SPLINE
5
151
100
AcDbEntity
8
1
62
256
6
ByLayer
370
18
48
1
60
0
100
AcDbSpline
70
4
71
3
72
8
73
4
40
0
40
0
40
0
40
0
40
1
40
1
40
1
40
1
41
1
10
63.5488
20
12.4213525833542
30
0
41
1
10
63.6053716958134
20
12.364422696458
30
0
41
1
10
63.6619409374437
20
12.3074903707058
30
0
41
1
10
63.7185076211353
20
12.2505555036615
30
0
0
SPLINE
5
152
100
AcDbEntity
8
1
62
256
6
ByLayer
370
18
48
1
60
0
100
AcDbSpline
70
4
71
3
72
8
73
4
40
0
40
0
40
0
40
0
40
1
40
1
40
1
40
1
41
1
10
64.2388
20
9.47518401782193
30
0
41
1
10
64.0437680590821
20
9.63449796340683
30
0
41
1
10
63.8487346588869
20
9.79380952708405
30
0
41
1
10
63.6537
20
9.95311903613029
30
0
0
SPLINE
5
153
100
AcDbEntity
8
1
62
256
6
ByLayer
370
18
48
1
60
0
100
AcDbSpline
70
4
71
3
72
8
73
4
40
0
40
0
40
0
40
0
40
1
40
1
40
1
40
1
41
1
10
63.6537
20
4.95279766434373
30
0
41
1
10
63.9397161885443
20
3.85815978145394
30
0
41
1
10
64.140370197992
20
2.74363303512149
30
0
41
1
10
64.2388
20
1.60528867630751
30
0
0
SPLINE
5
154
100
AcDbEntity
8
1
62
256
6
ByLayer
370
18
48
1
60
0
100
AcDbSpline
70
4
71
3
72
14
73
10
40
0
40
0
40
0
40
0
40
0.25
40
0.25
40
0.5
40
0.5
40
0.75
40
0.75
40
1
40
1
40
1
40
1
41
1
10
64.2988
20
10.9332237261386
30
0
41
1
10
64.2988
20
10.9383198706235
30
0
41
1
10
64.2967593744711
20
10.9451604132227
30
0
41
1
10
64.2899642461881
20
10.9609477118015
30
0
41
1
10
64.2853269740271
20
10.9696323092749
30
0
41
1
10
64.2742687396781
20
10.9881415533191
30
0
41
1
10
64.267901677952
20
10.9978495835752
30
0
41
1
10
64.2541609888019
20
11.0175168877641
30
0
41
1
10
64.2467343537612
20
11.0275576638171
30
0
41
1
10
64.2388
20
11.0377903544688
30
0
0
SPLINE
5
155
100
AcDbEntity
8
1
62
256
6
ByLayer
370
18
48
1
60
0
100
AcDbSpline
70
4
71
3
72
8
73
4
40
0
40
0
40
0
40
0
40
1
40
1
40
1
40
1
41
1
10
63.6537
20
-8.89008080973446
30
0
41
1
10
63.8488108214788
20
-8.72749099404598
30
0
41
1
10
64.0438486539358
20
-8.5647843055832
30
0
41
1
10
64.2388
20
-8.40193962928058
30
0
0
SPLINE
5
156
100
AcDbEntity
8
1
62
256
6
ByLayer
370
18
48
1
60
0
100
AcDbSpline
70
4
71
3
72
8
73
4
40
0
40
0
40
0
40
0
40
1
40
1
40
1
40
1
41
1
10
63.6537
20
-12.1630072565324
30
0
41
1
10
63.8490512963434
20
-11.9860665268797
30
0
41
1
10
64.0440980742321
20
-11.8086794314395
30
0
41
1
10
64.2388
20
-11.6307868487751
30
0
0
SPLINE
5
157
100
AcDbEntity
8
1
62
256
6
ByLayer
370
18
48
1
60
0
100
AcDbSpline
70
4
71
3
72
20
73
16
40
0
40
0
40
0
40
0
40
0.249999999999998
40
0.249999999999998
40
0.374999999999998
40
0.374999999999998
40
0.499999999999999
40
0.499999999999999
40
0.624999999999999
40
0.624999999999999
40
0.749999999999999
40
0.749999999999999
40
0.875
40
0.875
40
1
40
1
40
1
40
1
41
1
10
63.6537
20
-12.1166378380118
30
0
41
1
10
63.6376413131325
20
-12.135064695791
30
0
41
1
10
63.6229289273803
20
-12.1528942805306
30
0
41
1
10
63.6053780518038
20
-12.176286434476
30
0
41
1
10
63.6002303487676
20
-12.1836107496298
30
0
41
1
10
63.5924977771917
20
-12.1959991853275
30
0
41
1
10
63.5898239384761
20
-12.2012197917351
30
0
41
1
10
63.5881500672436
20
-12.2080979030381
30
0
41
1
10
63.5891724323351
20
-12.2097484800394
30
0
41
1
10
63.5952019564951
20
-12.20875678792
30
0
41
1
10
63.6001374754813
20
-12.2061482592999
30
0
41
1
10
63.612677606421
20
-12.1976502618693
30
0
41
1
10
63.620084473155
20
-12.1919222882556
30
0
41
1
10
63.6362660927301
20
-12.1785289524226
30
0
41
1
10
63.644811167235
20
-12.1710583756426
30
0
41
1
10
63.6537
20
-12.1630072565324
30
0
0
SPLINE
5
158
100
AcDbEntity
8
1
62
256
6
ByLayer
370
18
48
1
60
0
100
AcDbSpline
70
4
71
3
72
8
73
4
40
0
40
0
40
0
40
0
40
1
40
1
40
1
40
1
41
1
10
63.6537
20
-9.95311903613029
30
0
41
1
10
63.8487346588869
20
-9.79380952708405
30
0
41
1
10
64.0437680590821
20
-9.63449796340683
30
0
41
1
10
64.2388
20
-9.47518401782196
30
0
0
SPLINE
5
159
100
AcDbEntity
8
1
62
256
6
ByLayer
370
18
48
1
60
0
100
AcDbSpline
70
4
71
3
72
8
73
4
40
0
40
0
40
0
40
0
40
1
40
1
40
1
40
1
41
1
10
63.7185076211353
20
12.2505555036615
30
0
41
1
10
63.8927481577954
20
12.0636844911895
30
0
41
1
10
64.0662099606764
20
11.8758537828802
30
0
41
1
10
64.2388
20
11.6869487307072
30
0
0
SPLINE
5
15A
100
AcDbEntity
8
1
62
256
6
ByLayer
370
18
48
1
60
0
100
AcDbSpline
70
4
71
3
72
8
73
4
40
0
40
0
40
0
40
0
40
1
40
1
40
1
40
1
41
1
10
64.2388
20
-5.50140246635061
30
0
41
1
10
64.0645631861399
20
-6.06653124652075
30
0
41
1
10
63.8684026453649
20
-6.62139505217831
30
0
41
1
10
63.6537
20
-7.16757720294379
30
0
0
SPLINE
5
15B
100
AcDbEntity
8
1
62
256
6
ByLayer
370
18
48
1
60
0
100
AcDbSpline
70
4
71
3
72
12
73
8
40
0
40
0
40
0
40
0
40
0.24999999999998
40
0.24999999999998
40
0.49999999999996
40
0.49999999999996
40
1
40
1
40
1
40
1
41
1
10
64.2988000000032
20
9.57934293563534
30
0
41
1
10
64.298800000003
20
9.58871678549792
30
0
41
1
10
64.2966609233738
20
9.59981441838204
30
0
41
1
10
64.2899610242877
20
9.6230675275726
30
0
41
1
10
64.2853357804125
20
9.63543179722149
30
0
41
1
10
64.2689702815853
20
9.67326241831537
30
0
41
1
10
64.2550716069608
20
9.69903713884435
30
0
41
1
10
64.2388
20
9.7252692088307
30
0
0
SPLINE
5
15C
100
AcDbEntity
8
1
62
256
6
ByLayer
370
18
48
1
60
0
100
AcDbSpline
70
4
71
3
72
8
73
4
40
0
40
0
40
0
40
0
40
1
40
1
40
1
40
1
41
1
10
63.6537000000002
20
-0.436361744766742
30
0
41
1
10
63.6779105058745
20
-0.145453914921632
30
0
41
1
10
63.6779105058744
20
0.145453914923508
30
0
41
1
10
63.6537
20
0.436361744768618
30
0
0
SPLINE
5
15D
100
AcDbEntity
8
1
62
256
6
ByLayer
370
18
48
1
60
0
100
AcDbSpline
70
4
71
3
72
14
73
10
40
0
40
0
40
0
40
0
40
0.25
40
0.25
40
0.5
40
0.5
40
0.75
40
0.75
40
1
40
1
40
1
40
1
41
1
10
64.2988
20
-10.8765056857042
30
0
41
1
10
64.2988
20
-10.8722674395642
30
0
41
1
10
64.2974201616677
20
-10.8692774419626
30
0
41
1
10
64.2914822786312
20
-10.8668613140493
30
0
41
1
10
64.2869705141344
20
-10.867458166037
30
0
41
1
10
64.2755619010242
20
-10.8720462132019
30
0
41
1
10
64.268821559448
20
-10.8759474015106
30
0
41
1
10
64.2542510289654
20
-10.885954015045
30
0
41
1
10
64.2466058259088
20
-10.891916016344
30
0
41
1
10
64.2388
20
-10.8984933567266
30
0
0
SPLINE
5
15E
100
AcDbEntity
8
1
62
256
6
ByLayer
370
18
48
1
60
0
100
AcDbSpline
70
4
71
3
72
16
73
12
40
0
40
0
40
0
40
0
40
0.25000000000005
40
0.25000000000005
40
0.375000000000088
40
0.375000000000088
40
0.500000000000125
40
0.500000000000125
40
0.750000000000063
40
0.750000000000063
40
1
40
1
40
1
40
1
41
1
10
64.2388
20
6.94845787902338
30
0
41
1
10
64.2474691296548
20
6.9406021157078
30
0
41
1
10
64.2567477113113
20
6.93422851046614
30
0
41
1
10
64.2696652746819
20
6.93076372767183
30
0
41
1
10
64.2737841211657
20
6.93067046062899
30
0
41
1
10
64.2809155614707
20
6.93264859319782
30
0
41
1
10
64.2839868966904
20
6.93470740725877
30
0
41
1
10
64.291496199121
20
6.94288944617415
30
0
41
1
10
64.2945122473782
20
6.95105887626991
30
0
41
1
10
64.2981437302692
20
6.96889203589845
30
0
41
1
10
64.2988
20
6.97856900931055
30
0
41
1
10
64.2988
20
6.98867053634987
30
0
0
SPLINE
5
15F
100
AcDbEntity
8
1
62
256
6
ByLayer
370
18
48
1
60
0
100
AcDbSpline
70
4
71
3
72
14
73
10
40
0
40
0
40
0
40
0
40
0.25
40
0.25
40
0.5
40
0.5
40
0.75
40
0.75
40
1
40
1
40
1
40
1
41
1
10
64.2988000000003
20
-10.2772399463462
30
0
41
1
10
64.2988000000003
20
-10.2718374947977
30
0
41
1
10
64.2975826775297
20
-10.2674111254809
30
0
41
1
10
64.2920273362389
20
-10.2620639409882
30
0
41
1
10
64.2876048964769
20
-10.2611941124128
30
0
41
1
10
64.2762999694895
20
-10.2634872955498
30
0
41
1
10
64.269349649987
20
-10.266631649781
30
0
41
1
10
64.2545533152526
20
-10.2756061653975
30
0
41
1
10
64.2466903033134
20
-10.2813981459535
30
0
41
1
10
64.2388
20
-10.2878877719919
30
0
0
SPLINE
5
160
100
AcDbEntity
8
1
62
256
6
ByLayer
370
18
48
1
60
0
100
AcDbSpline
70
4
71
3
72
16
73
12
40
0
40
0
40
0
40
0
40
0.250000000000041
40
0.250000000000041
40
0.500000000000082
40
0.500000000000082
40
0.625000000000105
40
0.625000000000105
40
0.750000000000129
40
0.750000000000129
40
1
40
1
40
1
40
1
41
1
10
64.2988000000008
20
-8.41981180799272
30
0
41
1
10
64.2988000000008
20
-8.41161792003697
30
0
41
1
10
64.2979238891325
20
-8.40396396406356
30
0
41
1
10
64.2934703568299
20
-8.39139486457154
30
0
41
1
10
64.2898090373891
20
-8.38638044337537
30
0
41
1
10
64.2814581471934
20
-8.38296877809321
30
0
41
1
10
64.2783142063508
20
-8.38255295774081
30
0
41
1
10
64.271307415007
20
-8.38317731674513
30
0
41
1
10
64.267412376776
20
-8.3842548182439
30
0
41
1
10
64.255547115545
20
-8.38926730544759
30
0
41
1
10
64.2470364290372
20
-8.39505966334244
30
0
41
1
10
64.2388
20
-8.40193962928026
30
0
0
SPLINE
5
161
100
AcDbEntity
8
1
62
256
6
ByLayer
370
18
48
1
60
0
100
AcDbSpline
70
4
71
3
72
22
73
18
40
0
40
0
40
0
40
0
40
0.062500000000012
40
0.062500000000012
40
0.125000000000024
40
0.125000000000024
40
0.187500000000036
40
0.187500000000036
40
0.250000000000048
40
0.250000000000048
40
0.375000000000042
40
0.375000000000042
40
0.500000000000037
40
0.500000000000037
40
0.750000000000018
40
0.750000000000018
40
1
40
1
40
1
40
1
41
1
10
63.6537
20
8.89008080973511
30
0
41
1
10
63.64781912285
20
8.89498146426914
30
0
41
1
10
63.6418612866156
20
8.89935607511214
30
0
41
1
10
63.6300361352536
20
8.9063608229566
30
0
41
1
10
63.6242261461997
20
8.90892809017254
30
0
41
1
10
63.6135957981561
20
8.91137398168598
30
0
41
1
10
63.6087763455857
20
8.91122514434215
30
0
41
1
10
63.6008287396636
20
8.90824152027631
30
0
41
1
10
63.5976631568866
20
8.90542084634114
30
0
41
1
10
63.5905732824604
20
8.89440895860892
30
0
41
1
10
63.5888279452321
20
8.88378277658637
30
0
41
1
10
63.5885853258833
20
8.86044565244961
30
0
41
1
10
63.590093910489
20
8.84761342811538
30
0
41
1
10
63.5973975672197
20
8.8080668962707
30
0
41
1
10
63.6060577253979
20
8.77963649934574
30
0
41
1
10
63.6269818748611
20
8.72306854079582
30
0
41
1
10
63.6394213464843
20
8.69448370840024
30
0
41
1
10
63.6537
20
8.66562872597191
30
0
0
SPLINE
5
162
100
AcDbEntity
8
1
62
256
6
ByLayer
370
18
48
1
60
0
100
AcDbSpline
70
4
71
3
72
14
73
10
40
0
40
0
40
0
40
0
40
0.25
40
0.25
40
0.5
40
0.5
40
0.75
40
0.75
40
1
40
1
40
1
40
1
41
1
10
64.2988
20
11.3460859343397
30
0
41
1
10
64.2988
20
11.3494928553531
30
0
41
1
10
64.2968004893541
20
11.3547596788529
30
0
41
1
10
64.2900519507624
20
11.3675310566526
30
0
41
1
10
64.2853504090537
20
11.3749655967161
30
0
41
1
10
64.2742675815596
20
11.3909624242537
30
0
41
1
10
64.2678309310216
20
11.3995951145645
30
0
41
1
10
64.2540641512972
20
11.4171819396427
30
0
41
1
10
64.2466617911479
20
11.4262373676966
30
0
41
1
10
64.2388
20
11.4355276778858
30
0
0
SPLINE
5
163
100
AcDbEntity
8
1
62
256
6
ByLayer
370
18
48
1
60
0
100
AcDbSpline
70
4
71
3
72
8
73
4
40
0
40
0
40
0
40
0
40
1
40
1
40
1
40
1
41
1
10
63.6537
20
9.78197727827148
30
0
41
1
10
63.8547714107343
20
9.43684923951164
30
0
41
1
10
64.0501133488709
20
9.08745966338395
30
0
41
1
10
64.2388
20
8.73311993629673
30
0
0
SPLINE
5
164
100
AcDbEntity
8
1
62
256
6
ByLayer
370
18
48
1
60
0
100
AcDbSpline
70
4
71
3
72
14
73
10
40
0
40
0
40
0
40
0
40
0.25
40
0.25
40
0.5
40
0.5
40
0.75
40
0.75
40
1
40
1
40
1
40
1
41
1
10
64.2388
20
-11.6869487307072
30
0
41
1
10
64.2466199980609
20
-11.6783895047666
30
0
41
1
10
64.2540470747241
20
-11.6700881037889
30
0
41
1
10
64.2679666578866
20
-11.6540914147995
30
0
41
1
10
64.2743828579067
20
-11.6464803373234
30
0
41
1
10
64.2854546549578
20
-11.6326958005578
30
0
41
1
10
64.2902103105594
20
-11.6263895732093
30
0
41
1
10
64.2968691527245
20
-11.616344006815
30
0
41
1
10
64.2988
20
-11.6125439197583
30
0
41
1
10
64.2988
20
-11.610639560896
30
0
0
SPLINE
5
165
100
AcDbEntity
8
1
62
256
6
ByLayer
370
18
48
1
60
0
100
AcDbSpline
70
4
71
3
72
18
73
14
40
0
40
0
40
0
40
0
40
0.250000000000003
40
0.250000000000003
40
0.500000000000006
40
0.500000000000006
40
0.625000000000005
40
0.625000000000005
40
0.750000000000003
40
0.750000000000003
40
0.875000000000002
40
0.875000000000002
40
1
40
1
40
1
40
1
41
1
10
9.33660254037858
20
6.16973001948577
30
0
41
1
10
9.32721186043494
20
6.13568757087472
30
0
41
1
10
9.31597445228977
20
6.10231901184949
30
0
41
1
10
9.28852371889997
20
6.03742672607433
30
0
41
1
10
9.27226224655621
20
6.00567161829611
30
0
41
1
10
9.2421773079827
20
5.96102885758611
30
0
41
1
10
9.23126332140683
20
5.94676259304853
30
0
41
1
10
9.20699632571436
20
5.9199301070316
30
0
41
1
10
9.19372453113988
20
5.90747721696036
30
0
41
1
10
9.1646877544699
20
5.88590801224899
30
0
41
1
10
9.14852956001863
20
5.87657212596483
30
0
41
1
10
9.11408210674728
20
5.8635821694487
30
0
41
1
10
9.0955561358237
20
5.85988980456941
30
0
41
1
10
9.07679491924327
20
5.85988980456941
30
0
0
SPLINE
5
166
100
AcDbEntity
8
1
62
256
6
ByLayer
370
18
48
1
60
0
100
AcDbSpline
70
4
71
3
72
18
73
14
40
0
40
0
40
0
40
0
40
0.249999999999998
40
0.249999999999998
40
0.499999999999996
40
0.499999999999996
40
0.624999999999997
40
0.624999999999997
40
0.749999999999998
40
0.749999999999998
40
0.874999999999999
40
0.874999999999999
40
1
40
1
40
1
40
1
41
1
10
9.33660254037866
20
-19.0245744101321
30
0
41
1
10
9.32721186043506
20
-19.0356144845435
30
0
41
1
10
9.31597445228979
20
-19.0463346141653
30
0
41
1
10
9.2885237189
20
-19.0670039094875
30
0
41
1
10
9.27226224655624
20
-19.0770249518318
30
0
41
1
10
9.24217730798273
20
-19.0910025433169
30
0
41
1
10
9.23126332140686
20
-19.0954500347066
30
0
41
1
10
9.20699632571439
20
-19.1037856168331
30
0
41
1
10
9.19372453113991
20
-19.1076382714245
30
0
41
1
10
9.16468775446992
20
-19.1142934541629
30
0
41
1
10
9.14852956001866
20
-19.1171636549363
30
0
41
1
10
9.11408210674728
20
-19.1211519083817
30
0
41
1
10
9.0955561358237
20
-19.1222825906926
30
0
41
1
10
9.07679491924327
20
-19.1222825906926
30
0
0
SPLINE
5
167
100
AcDbEntity
8
1
62
256
6
ByLayer
370
18
48
1
60
0
100
AcDbSpline
70
4
71
3
72
18
73
14
40
0
40
0
40
0
40
0
40
0.249999999999998
40
0.249999999999998
40
0.499999999999995
40
0.499999999999995
40
0.624999999999996
40
0.624999999999996
40
0.749999999999998
40
0.749999999999998
40
0.874999999999999
40
0.874999999999999
40
1
40
1
40
1
40
1
41
1
10
6.66339745962154
20
19.0245744101322
30
0
41
1
10
6.67278813956517
20
19.0356144845436
30
0
41
1
10
6.68402554771032
20
19.0463346141653
30
0
41
1
10
6.71147628110015
20
19.0670039094876
30
0
41
1
10
6.7277377534439
20
19.0770249518318
30
0
41
1
10
6.75782269201741
20
19.0910025433169
30
0
41
1
10
6.76873667859329
20
19.0954500347066
30
0
41
1
10
6.79300367428576
20
19.1037856168331
30
0
41
1
10
6.80627546886024
20
19.1076382714245
30
0
41
1
10
6.83531224553022
20
19.1142934541629
30
0
41
1
10
6.85147043998148
20
19.1171636549363
30
0
41
1
10
6.88591789325287
20
19.1211519083817
30
0
41
1
10
6.90444386417642
20
19.1222825906926
30
0
41
1
10
6.92320508075687
20
19.1222825906926
30
0
0
SPLINE
5
168
100
AcDbEntity
8
1
62
256
6
ByLayer
370
18
48
1
60
0
100
AcDbSpline
70
4
71
3
72
16
73
12
40
0
40
0
40
0
40
0
40
0.124999999999997
40
0.124999999999997
40
0.249999999999993
40
0.249999999999993
40
0.499999999999996
40
0.499999999999996
40
0.749999999999998
40
0.749999999999998
40
1
40
1
40
1
40
1
41
1
10
6.92320508075687
20
5.85988980456941
30
0
41
1
10
6.90441904704289
20
5.85988980456941
30
0
41
1
10
6.88615093812098
20
5.8635044647273
30
0
41
1
10
6.85140047601269
20
5.87658838136369
30
0
41
1
10
6.83557582658116
20
5.88571770958595
30
0
41
1
10
6.79136513419885
20
5.91854200832063
30
0
41
1
10
6.7678647176848
20
5.94612987812175
30
0
41
1
10
6.72774154010145
20
6.00566371121207
30
0
41
1
10
6.71161954962213
20
6.03712755983028
30
0
41
1
10
6.68411546052437
20
6.10206728171738
30
0
41
1
10
6.67279157843183
20
6.1356751045312
30
0
41
1
10
6.66339745962154
20
6.16973001948574
30
0
0
SPLINE
5
169
100
AcDbEntity
8
1
62
256
6
ByLayer
370
18
48
1
60
0
100
AcDbSpline
70
4
71
3
72
14
73
10
40
0
40
0
40
0
40
0
40
0.25
40
0.25
40
0.5
40
0.5
40
0.75
40
0.75
40
1
40
1
40
1
40
1
41
1
10
64.2988
20
-9.47733854509801
30
0
41
1
10
64.2988
20
-9.47059603734036
30
0
41
1
10
64.2977739561157
20
-9.46475396566467
30
0
41
1
10
64.292657664164
20
-9.45602507434251
30
0
41
1
10
64.2884820564433
20
-9.45335471015173
30
0
41
1
10
64.2772438290514
20
-9.45283925299387
30
0
41
1
10
64.2701217613457
20
-9.45500735974829
30
0
41
1
10
64.2549464215831
20
-9.46292709578839
30
0
41
1
10
64.2468191259667
20
-9.46863350823926
30
0
41
1
10
64.2388
20
-9.47518401782182
30
0
0
SPLINE
5
16A
100
AcDbEntity
8
1
62
256
6
ByLayer
370
18
48
1
60
0
100
AcDbSpline
70
4
71
3
72
20
73
16
40
0
40
0
40
0
40
0
40
0.249999999999988
40
0.249999999999988
40
0.37499999999999
40
0.37499999999999
40
0.499999999999992
40
0.499999999999992
40
0.624999999999994
40
0.624999999999994
40
0.749999999999996
40
0.749999999999996
40
0.874999999999998
40
0.874999999999998
40
1
40
1
40
1
40
1
41
1
10
63.6537
20
-10.6374826781927
30
0
41
1
10
63.6386514027517
20
-10.660214463695
30
0
41
1
10
63.6251473720362
20
-10.6829302716955
30
0
41
1
10
63.6086709270264
20
-10.7152439939019
30
0
41
1
10
63.6037900357861
20
-10.7257534363507
30
0
41
1
10
63.5956370029254
20
-10.7460825039312
30
0
41
1
10
63.5924381409534
20
-10.7557260763472
30
0
41
1
10
63.5886438172491
20
-10.7731136782379
30
0
41
1
10
63.5880533583625
20
-10.780949553158
30
0
41
1
10
63.5910106059887
20
-10.7925708204841
30
0
41
1
10
63.5947303657984
20
-10.7963271136522
30
0
41
1
10
63.6067804101159
20
-10.7973506899279
30
0
41
1
10
63.61506675943
20
-10.7946355833983
30
0
41
1
10
63.6334584242745
20
-10.7845575485995
30
0
41
1
10
63.6435832586293
20
-10.7772811676252
30
0
41
1
10
63.6537
20
-10.7689656091545
30
0
0
SPLINE
5
16B
100
AcDbEntity
8
1
62
256
6
ByLayer
370
18
48
1
60
0
100
AcDbSpline
70
4
71
3
72
8
73
4
40
0
40
0
40
0
40
0
40
1
40
1
40
1
40
1
41
1
10
64.2388
20
11.3396948849662
30
0
41
1
10
64.0439595276573
20
11.5098836791623
30
0
41
1
10
63.8489182565972
20
11.6797651245808
30
0
41
1
10
63.6537
20
11.8493756704178
30
0
0
SPLINE
5
16C
100
AcDbEntity
8
1
62
256
6
ByLayer
370
18
48
1
60
0
100
AcDbSpline
70
4
71
3
72
18
73
14
40
0
40
0
40
0
40
0
40
0.25
40
0.25
40
0.5
40
0.5
40
0.625
40
0.625
40
0.75
40
0.75
40
0.875
40
0.875
40
1
40
1
40
1
40
1
41
1
10
63.6537
20
-11.2915896128526
30
0
41
1
10
63.6383067899464
20
-11.3125111406914
30
0
41
1
10
63.6244471593308
20
-11.3331771045285
30
0
41
1
10
63.60197982234
20
-11.371735419902
30
0
41
1
10
63.5930502077849
20
-11.3901093147363
30
0
41
1
10
63.5882694062786
20
-11.4109513962493
30
0
41
1
10
63.5882187795035
20
-11.4165862070618
30
0
41
1
10
63.5923965485885
20
-11.4235041164584
30
0
41
1
10
63.5967418598626
20
-11.4246110461213
30
0
41
1
10
63.6090570093007
20
-11.4216343574713
30
0
41
1
10
63.6170930955301
20
-11.4175813497413
30
0
41
1
10
63.6346086968857
20
-11.4062025528887
30
0
41
1
10
63.6440876394923
20
-11.398937330127
30
0
41
1
10
63.6537
20
-11.3908587048967
30
0
0
SPLINE
5
16D
100
AcDbEntity
8
1
62
256
6
ByLayer
370
18
48
1
60
0
100
AcDbSpline
70
4
71
3
72
8
73
4
40
0
40
0
40
0
40
0
40
1
40
1
40
1
40
1
41
1
10
64.2388
20
6.94845787902338
30
0
41
1
10
64.044260470264
20
7.12474506839402
30
0
41
1
10
63.8491945989851
20
7.30025260695274
30
0
41
1
10
63.6537
20
7.475125086568
30
0
0
SPLINE
5
16E
100
AcDbEntity
8
1
62
256
6
ByLayer
370
18
48
1
60
0
100
AcDbSpline
70
4
71
3
72
14
73
10
40
0
40
0
40
0
40
0
40
0.25
40
0.25
40
0.5
40
0.5
40
0.75
40
0.75
40
1
40
1
40
1
40
1
41
1
10
64.2388
20
-9.7252692088307
30
0
41
1
10
64.2469410831828
20
-9.71214466223049
30
0
41
1
10
64.2544832851578
20
-9.69909931306631
30
0
41
1
10
64.2683131596348
20
-9.67316870903431
30
0
41
1
10
64.2746385639201
20
-9.66019394691335
30
0
41
1
10
64.2854612195125
20
-9.63510636453893
30
0
41
1
10
64.2900053146151
20
-9.62294263906273
30
0
41
1
10
64.2966944115014
20
-9.59966902728991
30
0
41
1
10
64.2988000000157
20
-9.58868498170978
30
0
41
1
10
64.2988000000169
20
-9.57934293562522
30
0
0
SPLINE
5
16F
100
AcDbEntity
8
1
62
256
6
ByLayer
370
18
48
1
60
0
100
AcDbSpline
70
4
71
3
72
14
73
10
40
0
40
0
40
0
40
0
40
0.25
40
0.25
40
0.5
40
0.5
40
0.75
40
0.75
40
1
40
1
40
1
40
1
41
1
10
64.2988
20
-11.3070814513531
30
0
41
1
10
64.2988
20
-11.3039909564544
30
0
41
1
10
64.2972853267509
20
-11.3023838851723
30
0
41
1
10
64.2910488552351
20
-11.3026457507592
30
0
41
1
10
64.2864915583268
20
-11.3044793109912
30
0
41
1
10
64.2750562887651
20
-11.3110671001825
30
0
41
1
10
64.2684459863765
20
-11.3156591312772
30
0
41
1
10
64.2540826283186
20
-11.3266742635179
30
0
41
1
10
64.2465656644779
20
-11.3329117507553
30
0
41
1
10
64.2388
20
-11.3396948849661
30
0
0
SPLINE
5
170
100
AcDbEntity
8
1
62
256
6
ByLayer
370
18
48
1
60
0
100
AcDbSpline
70
4
71
3
72
20
73
16
40
0
40
0
40
0
40
0
40
0.249999999999978
40
0.249999999999978
40
0.499999999999956
40
0.499999999999956
40
0.624999999999952
40
0.624999999999952
40
0.749999999999948
40
0.749999999999948
40
0.812499999999961
40
0.812499999999961
40
0.874999999999974
40
0.874999999999974
40
1
40
1
40
1
40
1
41
1
10
63.6537
20
-8.66562872597191
30
0
41
1
10
63.6394051870842
20
-8.69451636408473
30
0
41
1
10
63.6268252647031
20
-8.72341492261157
30
0
41
1
10
63.6057541636186
20
-8.78053587906729
30
0
41
1
10
63.5973165338937
20
-8.80832221339148
30
0
41
1
10
63.5900305478969
20
-8.84805020306689
30
0
41
1
10
63.5885655921822
20
-8.86077764748669
30
0
41
1
10
63.5888532391006
20
-8.88393823642141
30
0
41
1
10
63.5905803486999
20
-8.89451743600154
30
0
41
1
10
63.5977872406598
20
-8.90556350971727
30
0
41
1
10
63.6009456109516
20
-8.90832877615915
30
0
41
1
10
63.6089894659834
20
-8.91125994982124
30
0
41
1
10
63.6136856974091
20
-8.91137640097963
30
0
41
1
10
63.6298221627868
20
-8.90759331413074
30
0
41
1
10
63.6419514607909
20
-8.89987110639888
30
0
41
1
10
63.6537
20
-8.89008080973491
30
0
0
SPLINE
5
171
100
AcDbEntity
8
1
62
256
6
ByLayer
370
18
48
1
60
0
100
AcDbSpline
70
4
71
3
72
8
73
4
40
0
40
0
40
0
40
0
40
1
40
1
40
1
40
1
41
1
10
64.2388
20
-8.73311993629673
30
0
41
1
10
64.0501133488709
20
-9.08745966338395
30
0
41
1
10
63.8547714107343
20
-9.43684923951164
30
0
41
1
10
63.6537
20
-9.78197727827148
30
0
0
SPLINE
5
172
100
AcDbEntity
8
1
62
256
6
ByLayer
370
18
48
1
60
0
100
AcDbSpline
70
4
71
3
72
22
73
18
40
0
40
0
40
0
40
0
40
0.249999999999957
40
0.249999999999957
40
0.374999999999951
40
0.374999999999951
40
0.499999999999944
40
0.499999999999944
40
0.624999999999937
40
0.624999999999937
40
0.687499999999934
40
0.687499999999934
40
0.74999999999993
40
0.74999999999993
40
0.874999999999965
40
0.874999999999965
40
1
40
1
40
1
40
1
41
1
10
63.6537
20
-9.78197727827148
30
0
41
1
10
63.6390113002327
20
-9.80718962508959
30
0
41
1
10
63.6259424902129
20
-9.83246374039388
30
0
41
1
10
63.6097841320957
20
-9.86920510575555
30
0
41
1
10
63.6049961815281
20
-9.88120906008504
30
0
41
1
10
63.5968989192547
20
-9.90461624851196
30
0
41
1
10
63.5935557526446
20
-9.91614312611648
30
0
41
1
10
63.5892081226458
20
-9.93757443126398
30
0
41
1
10
63.5881486801359
20
-9.94762423851094
30
0
41
1
10
63.5893910656132
20
-9.96036848488362
30
0
41
1
10
63.5902760592142
20
-9.96416133597211
30
0
41
1
10
63.5932749476399
20
-9.97056406014855
30
0
41
1
10
63.5954067000093
20
-9.97314146892995
30
0
41
1
10
63.6037940011345
20
-9.97814641097813
30
0
41
1
10
63.6123004821154
20
-9.977605062431
30
0
41
1
10
63.6319549479232
20
-9.96932687964656
30
0
41
1
10
63.6429082826419
20
-9.96193399857825
30
0
41
1
10
63.6537
20
-9.95311903613049
30
0
0
SPLINE
5
173
100
AcDbEntity
8
1
62
256
6
ByLayer
370
18
48
1
60
0
100
AcDbSpline
70
4
71
3
72
8
73
4
40
0
40
0
40
0
40
0
40
1
40
1
40
1
40
1
41
1
10
63.6537
20
-11.3908587048967
30
0
41
1
10
63.8488189529212
20
-11.2268726689251
30
0
41
1
10
64.0438561496156
20
-11.0627568279414
30
0
41
1
10
64.2388
20
-10.8984933567267
30
0
0
SPLINE
5
174
100
AcDbEntity
8
1
62
256
6
ByLayer
370
18
48
1
60
0
100
AcDbSpline
70
4
71
3
72
8
73
4
40
0
40
0
40
0
40
0
40
1
40
1
40
1
40
1
41
1
10
63.6537
20
8.66562872597191
30
0
41
1
10
63.8586564023084
20
8.25144307599831
30
0
41
1
10
64.054224776759
20
7.83144930875173
30
0
41
1
10
64.2388
20
7.40465437810948
30
0
0
SPLINE
5
175
100
AcDbEntity
8
1
62
256
6
ByLayer
370
18
48
1
60
0
100
AcDbSpline
70
4
71
3
72
18
73
14
40
0
40
0
40
0
40
0
40
0.250000000000004
40
0.250000000000004
40
0.500000000000008
40
0.500000000000008
40
0.625000000000006
40
0.625000000000006
40
0.750000000000004
40
0.750000000000004
40
0.875000000000002
40
0.875000000000002
40
1
40
1
40
1
40
1
41
1
10
6.66339745962154
20
-6.16973001948571
30
0
41
1
10
6.67278813956517
20
-6.13568757087464
30
0
41
1
10
6.68402554771035
20
-6.10231901184946
30
0
41
1
10
6.71147628110015
20
-6.0374267260743
30
0
41
1
10
6.72773775344393
20
-6.00567161829605
30
0
41
1
10
6.75782269201744
20
-5.96102885758609
30
0
41
1
10
6.76873667859329
20
-5.9467625930485
30
0
41
1
10
6.79300367428576
20
-5.91993010703158
30
0
41
1
10
6.80627546886026
20
-5.9074772169603
30
0
41
1
10
6.83531224553022
20
-5.88590801224896
30
0
41
1
10
6.85147043998148
20
-5.8765721259648
30
0
41
1
10
6.88591789325287
20
-5.86358216944865
30
0
41
1
10
6.90444386417642
20
-5.85988980456935
30
0
41
1
10
6.92320508075687
20
-5.85988980456935
30
0
0
SPLINE
5
176
100
AcDbEntity
8
1
62
256
6
ByLayer
370
18
48
1
60
0
100
AcDbSpline
70
4
71
3
72
22
73
18
40
0
40
0
40
0
40
0
40
0.124999999999999
40
0.124999999999999
40
0.249999999999998
40
0.249999999999998
40
0.312500000000001
40
0.312500000000001
40
0.375000000000004
40
0.375000000000004
40
0.500000000000002
40
0.500000000000002
40
0.625
40
0.625
40
0.749999999999999
40
0.749999999999999
40
1
40
1
40
1
40
1
41
1
10
63.6537
20
11.3908587048967
30
0
41
1
10
63.6440354182898
20
11.3989812189848
30
0
41
1
10
63.6345317643609
20
11.4062565024041
30
0
41
1
10
63.6170759487027
20
11.4175884962756
30
0
41
1
10
63.609059140555
20
11.4216563125757
30
0
41
1
10
63.5996683407329
20
11.4238921796057
30
0
41
1
10
63.5970668583353
20
11.4239848544496
30
0
41
1
10
63.5928804054165
20
11.4229117688721
30
0
41
1
10
63.591292551058
20
11.4217142348521
30
0
41
1
10
63.5882101296677
20
11.416493049497
30
0
41
1
10
63.5882965779776
20
11.4107644155137
30
0
41
1
10
63.5914917879331
20
11.3969731879562
30
0
41
1
10
63.5946061374333
20
11.3887674311182
30
0
41
1
10
63.6026912889542
20
11.3712863510341
30
0
41
1
10
63.6077112730526
20
11.3618822985956
30
0
41
1
10
63.6247554827054
20
11.3326824491044
30
0
41
1
10
63.6383667782471
20
11.3124296081911
30
0
41
1
10
63.6537
20
11.2915896128526
30
0
0
SPLINE
5
177
100
AcDbEntity
8
1
62
256
6
ByLayer
370
18
48
1
60
0
100
AcDbSpline
70
4
71
3
72
12
73
8
40
0
40
0
40
0
40
0
40
0.500000000000015
40
0.500000000000015
40
0.750000000000008
40
0.750000000000008
40
1
40
1
40
1
40
1
41
1
10
64.2388
20
-11.0377903544688
30
0
41
1
10
64.2547468063223
20
-11.0172242515586
30
0
41
1
10
64.2688221625301
20
-10.9972748658503
30
0
41
1
10
64.2853956300171
20
-10.9695088861573
30
0
41
1
10
64.2900374659175
20
-10.9607902803766
30
0
41
1
10
64.2967468978667
20
-10.9451766033931
30
0
41
1
10
64.298800000001
20
-10.9382541591761
30
0
41
1
10
64.2988000000011
20
-10.9332237261376
30
0
0
SPLINE
5
178
100
AcDbEntity
8
1
62
256
6
ByLayer
370
18
48
1
60
0
100
AcDbSpline
70
4
71
3
72
22
73
18
40
0
40
0
40
0
40
0
40
0.0625000000000013
40
0.0625000000000013
40
0.125000000000003
40
0.125000000000003
40
0.187500000000004
40
0.187500000000004
40
0.250000000000005
40
0.250000000000005
40
0.375000000000008
40
0.375000000000008
40
0.50000000000001
40
0.50000000000001
40
0.750000000000005
40
0.750000000000005
40
1
40
1
40
1
40
1
41
1
10
63.6537000000008
20
7.47512508657226
30
0
41
1
10
63.6470691694934
20
7.48105645131997
30
0
41
1
10
63.6401526473897
20
7.48621769138049
30
0
41
1
10
63.6264190917187
20
7.49315882415661
30
0
41
1
10
63.61966984968
20
7.49477337648486
30
0
41
1
10
63.6081982144927
20
7.49313241574305
30
0
41
1
10
63.6035139558182
20
7.48993317096406
30
0
41
1
10
63.5964909026296
20
7.48071891788197
30
0
41
1
10
63.5940796417877
20
7.47481904724989
30
0
41
1
10
63.5889608767354
20
7.45522639906889
30
0
41
1
10
63.5883007725305
20
7.43989033705577
30
0
41
1
10
63.5894450835785
20
7.40809618417381
30
0
41
1
10
63.5913370627681
20
7.39144799186133
30
0
41
1
10
63.5993937463124
20
7.34070923171782
30
0
41
1
10
63.6077396372513
20
7.30645813714253
30
0
41
1
10
63.6279606293764
20
7.23742559925267
30
0
41
1
10
63.639919550512
20
7.2026332942512
30
0
41
1
10
63.6536999999999
20
7.16757720294379
30
0
0
SPLINE
5
179
100
AcDbEntity
8
1
62
256
6
ByLayer
370
18
48
1
60
0
100
AcDbSpline
70
4
71
3
72
8
73
4
40
0
40
0
40
0
40
0
40
1
40
1
40
1
40
1
41
1
10
64.2388
20
10.287887771992
30
0
41
1
10
64.0437879316507
20
10.4482815295319
30
0
41
1
10
63.8487536484151
20
10.608639278877
30
0
41
1
10
63.6537
20
10.7689656091543
30
0
0
SPLINE
5
17A
100
AcDbEntity
8
1
62
256
6
ByLayer
370
18
48
1
60
0
100
AcDbSpline
70
4
71
3
72
12
73
8
40
0
40
0
40
0
40
0
40
0.249999999999998
40
0.249999999999998
40
0.499999999999996
40
0.499999999999996
40
1
40
1
40
1
40
1
41
1
10
64.2988
20
7.17580943945063
30
0
41
1
10
64.2988
20
7.19318794206649
30
0
41
1
10
64.2966898316876
20
7.21159487295265
30
0
41
1
10
64.2900886872067
20
7.24954310536762
30
0
41
1
10
64.2855805822076
20
7.26883828988318
30
0
41
1
10
64.2696155533638
20
7.32666687292064
30
0
41
1
10
64.2557269313864
20
7.36551408408658
30
0
41
1
10
64.2388000000001
20
7.40465437810946
30
0
0
SPLINE
5
17B
100
AcDbEntity
8
1
62
256
6
ByLayer
370
18
48
1
60
0
100
AcDbSpline
70
4
71
3
72
16
73
12
40
0
40
0
40
0
40
0
40
0.250000000000083
40
0.250000000000083
40
0.500000000000165
40
0.500000000000165
40
0.625000000000169
40
0.625000000000169
40
0.750000000000174
40
0.750000000000174
40
1
40
1
40
1
40
1
41
1
10
64.2988000000003
20
-6.9886705363497
30
0
41
1
10
64.2988000000003
20
-6.97850469709996
30
0
41
1
10
64.2981167375131
20
-6.96870258235504
30
0
41
1
10
64.2944927922385
20
-6.95102097341965
30
0
41
1
10
64.2915171388177
20
-6.94290677438568
30
0
41
1
10
64.2839640500524
20
-6.934685264313
30
0
41
1
10
64.2808985199786
20
-6.93263620232369
30
0
41
1
10
64.2737310983837
20
-6.93066349225344
30
0
41
1
10
64.2696579821358
20
-6.93075910669268
30
0
41
1
10
64.2566296566245
20
-6.9342734303959
30
0
41
1
10
64.247424463849
20
-6.94064259081938
30
0
41
1
10
64.2387999999998
20
-6.94845787902261
30
0
0
SPLINE
5
17C
100
AcDbEntity
8
1
62
256
6
ByLayer
370
18
48
1
60
0
100
AcDbSpline
70
4
71
3
72
14
73
10
40
0
40
0
40
0
40
0
40
0.25
40
0.25
40
0.5
40
0.5
40
0.75
40
0.75
40
1
40
1
40
1
40
1
41
1
10
64.2388
20
11.3396948849661
30
0
41
1
10
64.2465818622885
20
11.33289760233
30
0
41
1
10
64.2542353011311
20
11.3265535507854
30
0
41
1
10
64.2684571003328
20
11.3156542794063
30
0
41
1
10
64.2751322932187
20
11.311020454647
30
0
41
1
10
64.2864777903178
20
11.3044901182145
30
0
41
1
10
64.2911359600653
20
11.3026294295713
30
0
41
1
10
64.2972711388372
20
11.3023972957381
30
0
41
1
10
64.2988
20
11.3040295642253
30
0
41
1
10
64.2988
20
11.3070814513531
30
0
0
SPLINE
5
17D
100
AcDbEntity
8
1
62
256
6
ByLayer
370
18
48
1
60
0
100
AcDbSpline
70
4
71
3
72
18
73
14
40
0
40
0
40
0
40
0
40
0.125
40
0.125
40
0.25
40
0.25
40
0.5
40
0.5
40
0.75
40
0.75
40
0.875
40
0.875
40
1
40
1
40
1
40
1
41
1
10
64.2388
20
-1.60528867630751
30
0
41
1
10
64.2503359515558
20
-1.4718749630905
30
0
41
1
10
64.2589059836595
20
-1.33838604044709
30
0
41
1
10
64.2722827990767
20
-1.07124932416571
30
0
41
1
10
64.2770571414611
20
-0.937601668762284
30
0
41
1
10
64.2876092147696
20
-0.536413880201025
30
0
41
1
10
64.2898786192961
20
-0.268611438591051
30
0
41
1
10
64.2898853299708
20
0.26759690659577
30
0
41
1
10
64.2876219219738
20
0.535683285660781
30
0
41
1
10
64.2770708996548
20
0.937201966124974
30
0
41
1
10
64.2722958058083
20
1.07094973339946
30
0
41
1
10
64.2589135842791
20
1.33827403846888
30
0
41
1
10
64.2503347705256
20
1.47188862175116
30
0
41
1
10
64.2388000000002
20
1.60528867630751
30
0
0
SPLINE
5
17E
100
AcDbEntity
8
1
62
256
6
ByLayer
370
18
48
1
60
0
100
AcDbSpline
70
4
71
3
72
14
73
10
40
0
40
0
40
0
40
0
40
0.25
40
0.25
40
0.5
40
0.5
40
0.75
40
0.75
40
1
40
1
40
1
40
1
41
1
10
64.2988
20
-11.5877869312441
30
0
41
1
10
64.2988
20
-11.5858743999177
30
0
41
1
10
64.2971635153556
20
-11.5855999024637
30
0
41
1
10
64.2907554985414
20
-11.5883642424484
30
0
41
1
10
64.2860552177951
20
-11.5913785800199
30
0
41
1
10
64.2747407417965
20
-11.599742030718
30
0
41
1
10
64.268147589712
20
-11.6050673095639
30
0
41
1
10
64.2539974498706
20
-11.6170993062226
30
0
41
1
10
64.2465450108629
20
-11.6237104935735
30
0
41
1
10
64.2388
20
-11.6307868487751
30
0
0
SPLINE
5
17F
100
AcDbEntity
8
1
62
256
6
ByLayer
370
18
48
1
60
0
100
AcDbSpline
70
4
71
3
72
12
73
8
40
0
40
0
40
0
40
0
40
0.50000000000002
40
0.50000000000002
40
0.75000000000001
40
0.75000000000001
40
1
40
1
40
1
40
1
41
1
10
64.2388
20
-7.40465437810948
30
0
41
1
10
64.2557451275144
20
-7.36547200901771
30
0
41
1
10
64.2697195966144
20
-7.32635121710831
30
0
41
1
10
64.2856497503328
20
-7.268556793627
30
0
41
1
10
64.2901303017255
20
-7.24934052603879
30
0
41
1
10
64.2967021195949
20
-7.21148728001222
30
0
41
1
10
64.2988
20
-7.1931322463227
30
0
41
1
10
64.2988
20
-7.17580943945063
30
0
0
SPLINE
5
180
100
AcDbEntity
8
1
62
256
6
ByLayer
370
18
48
1
60
0
100
AcDbSpline
70
4
71
3
72
12
73
8
40
0
40
0
40
0
40
0
40
0.249999999999978
40
0.249999999999978
40
0.499999999999957
40
0.499999999999957
40
1
40
1
40
1
40
1
41
1
10
64.2988000000062
20
8.55514617612454
30
0
41
1
10
64.2988000000057
20
8.56766552762986
30
0
41
1
10
64.2966554700725
20
8.58172482226502
30
0
41
1
10
64.2900375556126
20
8.61054669987269
30
0
41
1
10
64.2855271390932
20
8.62544626726447
30
0
41
1
10
64.269279477866
20
8.67124324601775
30
0
41
1
10
64.2553326094627
20
8.70207290520054
30
0
41
1
10
64.2388
20
8.73311993629673
30
0
0
SPLINE
5
181
100
AcDbEntity
8
1
62
256
6
ByLayer
370
18
48
1
60
0
100
AcDbSpline
70
4
71
3
72
8
73
4
40
0
40
0
40
0
40
0
40
1
40
1
40
1
40
1
41
1
10
64.2388
20
10.8984933567267
30
0
41
1
10
64.0438561496156
20
11.0627568279414
30
0
41
1
10
63.8488189529212
20
11.2268726689251
30
0
41
1
10
63.6537
20
11.3908587048967
30
0
0
SPLINE
5
182
100
AcDbEntity
8
1
62
256
6
ByLayer
370
18
48
1
60
0
100
AcDbSpline
70
4
71
3
72
12
73
8
40
0
40
0
40
0
40
0
40
0.49999999999995
40
0.49999999999995
40
0.749999999999975
40
0.749999999999975
40
1
40
1
40
1
40
1
41
1
10
64.2388
20
-11.4355276778858
30
0
41
1
10
64.2545612486786
20
-11.4169025469917
30
0
41
1
10
64.268867034707
20
-11.3987682600543
30
0
41
1
10
64.2853830279246
20
-11.3749130907441
30
0
41
1
10
64.2901158396944
20
-11.3674207649531
30
0
41
1
10
64.2968098767218
20
-11.354731181019
30
0
41
1
10
64.2988000000002
20
-11.3494552136459
30
0
41
1
10
64.2988000000002
20
-11.3460859343396
30
0
0
SPLINE
5
183
100
AcDbEntity
8
1
62
256
6
ByLayer
370
18
48
1
60
0
100
AcDbSpline
70
4
71
3
72
8
73
4
40
0
40
0
40
0
40
0
40
1
40
1
40
1
40
1
41
1
10
63.6537
20
-10.7689656091543
30
0
41
1
10
63.8487536484151
20
-10.608639278877
30
0
41
1
10
64.0437879316507
20
-10.4482815295319
30
0
41
1
10
64.2388
20
-10.287887771992
30
0
0
SPLINE
5
184
100
AcDbEntity
8
1
62
256
6
ByLayer
370
18
48
1
60
0
100
AcDbSpline
70
4
71
3
72
8
73
4
40
0
40
0
40
0
40
0
40
1
40
1
40
1
40
1
41
1
10
64.2388
20
-11.0377903544688
30
0
41
1
10
64.0458252852634
20
-11.2866638757324
30
0
41
1
10
63.8507028617765
20
-11.5332735486462
30
0
41
1
10
63.6537
20
-11.7779010966008
30
0
0
SPLINE
5
185
100
AcDbEntity
8
1
62
256
6
ByLayer
370
18
48
1
60
0
100
AcDbSpline
70
4
71
3
72
8
73
4
40
0
40
0
40
0
40
0
40
1
40
1
40
1
40
1
41
1
10
63.5488
20
-12.4213525833542
30
0
41
1
10
63.6053716958134
20
-12.364422696458
30
0
41
1
10
63.6619409374437
20
-12.3074903707058
30
0
41
1
10
63.7185076211353
20
-12.2505555036615
30
0
0
SPLINE
5
186
100
AcDbEntity
8
1
62
256
6
ByLayer
370
18
48
1
60
0
100
AcDbSpline
70
4
71
3
72
8
73
4
40
0
40
0
40
0
40
0
40
1
40
1
40
1
40
1
41
1
10
64.2388
20
-1.60528867630751
30
0
41
1
10
64.140370197992
20
-2.74363303512149
30
0
41
1
10
63.9397161885443
20
-3.85815978145394
30
0
41
1
10
63.6537
20
-4.95279766434373
30
0
0
SPLINE
5
187
100
AcDbEntity
8
1
62
256
6
ByLayer
370
18
48
1
60
0
100
AcDbSpline
70
4
71
3
72
14
73
10
40
0
40
0
40
0
40
0
40
0.25
40
0.25
40
0.5
40
0.5
40
0.75
40
0.75
40
1
40
1
40
1
40
1
41
1
10
64.2388
20
10.8984933567266
30
0
41
1
10
64.246606379407
20
10.8919155499557
30
0
41
1
10
64.2542519454447
20
10.8859532075743
30
0
41
1
10
64.2688260138079
20
10.8759445205119
30
0
41
1
10
64.2756161184556
20
10.8720203346173
30
0
41
1
10
64.2869753215339
20
10.867460328626
30
0
41
1
10
64.2915421968502
20
10.8668723631574
30
0
41
1
10
64.2974108047762
20
10.8692870814778
30
0
41
1
10
64.2988
20
10.8722887625215
30
0
41
1
10
64.2988
20
10.8765056857042
30
0
0
SPLINE
5
188
100
AcDbEntity
8
1
62
256
6
ByLayer
370
18
48
1
60
0
100
AcDbSpline
70
4
71
3
72
8
73
4
40
0
40
0
40
0
40
0
40
1
40
1
40
1
40
1
41
1
10
63.6537
20
-11.8493756704178
30
0
41
1
10
63.8489182565972
20
-11.6797651245808
30
0
41
1
10
64.0439595276573
20
-11.5098836791623
30
0
41
1
10
64.2388
20
-11.3396948849662
30
0
0
SPLINE
5
189
100
AcDbEntity
8
1
62
256
6
ByLayer
370
18
48
1
60
0
100
AcDbSpline
70
4
71
3
72
18
73
14
40
0
40
0
40
0
40
0
40
0.124999999999998
40
0.124999999999998
40
0.249999999999995
40
0.249999999999995
40
0.374999999999993
40
0.374999999999993
40
0.499999999999991
40
0.499999999999991
40
0.749999999999995
40
0.749999999999995
40
1
40
1
40
1
40
1
41
1
10
63.6537
20
10.7689656091544
30
0
41
1
10
63.6435244700389
20
10.777329489505
30
0
41
1
10
63.6334650512692
20
10.784560075421
30
0
41
1
10
63.614961861845
20
10.7946868728839
30
0
41
1
10
63.6065997727175
20
10.7973808212831
30
0
41
1
10
63.5946550363413
20
10.7962742569839
30
0
41
1
10
63.5909827877759
20
10.7925316229642
30
0
41
1
10
63.5880505264568
20
10.7808675697475
30
0
41
1
10
63.5886497118947
20
10.7730451654188
30
0
41
1
10
63.5943933803189
20
10.7468498986486
30
0
41
1
10
63.6033342491585
20
10.7256562982395
30
0
41
1
10
63.6254602258456
20
10.6823718852947
30
0
41
1
10
63.638689878977
20
10.6601563431083
30
0
41
1
10
63.6537
20
10.6374826781927
30
0
0
SPLINE
5
18A
100
AcDbEntity
8
1
62
256
6
ByLayer
370
18
48
1
60
0
100
AcDbSpline
70
4
71
3
72
57
73
53
40
0
40
0
40
0
40
0
40
0.0624999999997691
40
0.0624999999997691
40
0.0781249999997106
40
0.0781249999997106
40
0.0937499999996522
40
0.0937499999996522
40
0.101562499999626
40
0.101562499999626
40
0.105468749999619
40
0.105468749999619
40
0.109374999999612
40
0.109374999999612
40
0.11718749999961
40
0.11718749999961
40
0.124999999999608
40
0.124999999999608
40
0.156249999999612
40
0.156249999999612
40
0.187499999999617
40
0.187499999999617
40
0.249999999999626
40
0.249999999999626
40
0.374999999999645
40
0.374999999999645
40
0.499999999999664
40
0.624999999999683
40
0.624999999999683
40
0.749999999999702
40
0.749999999999702
40
0.812499999999711
40
0.812499999999711
40
0.843749999999717
40
0.843749999999717
40
0.874999999999722
40
0.874999999999722
40
0.882812499999728
40
0.882812499999728
40
0.890624999999733
40
0.890624999999733
40
0.894531249999736
40
0.894531249999736
40
0.898437499999738
40
0.898437499999738
40
0.906249999999758
40
0.906249999999758
40
0.921874999999797
40
0.921874999999797
40
0.937499999999837
40
0.937499999999837
40
1
40
1
40
1
40
1
41
1
10
63.6537
20
0.43636174476859
30
0
41
1
10
63.6511115951384
20
0.467463417940735
30
0
41
1
10
63.6481177851095
20
0.49858820262358
30
0
41
1
10
63.6425325710899
20
0.537019366010412
30
0
41
1
10
63.641313867807
20
0.544678868489285
30
0
41
1
10
63.6384757227149
20
0.559890869001777
30
0
41
1
10
63.6368968850389
20
0.567520124364336
30
0
41
1
10
63.633628619107
20
0.578432037994389
30
0
41
1
10
63.6324278740405
20
0.582089205128369
30
0
41
1
10
63.6296892359898
20
0.586707722923705
30
0
41
1
10
63.6285341018416
20
0.588196430146354
30
0
41
1
10
63.6257257067156
20
0.58871618185222
30
0
41
1
10
63.6244336380347
20
0.587472966868546
30
0
41
1
10
63.6216707452527
20
0.583145192042565
30
0
41
1
10
63.6205963537299
20
0.579435994691181
30
0
41
1
10
63.6186670707914
20
0.57212007623599
30
0
41
1
10
63.6178977005376
20
0.56838486712428
30
0
41
1
10
63.6144490627941
20
0.549550079653898
30
0
41
1
10
63.6128482609435
20
0.534009385511069
30
0
41
1
10
63.6100293072693
20
0.502968816173109
30
0
41
1
10
63.6089330230916
20
0.487377045970703
30
0
41
1
10
63.6060842917742
20
0.440507782449515
30
0
41
1
10
63.6047804297177
20
0.409184903059611
30
0
41
1
10
63.601588794574
20
0.315107792252888
30
0
41
1
10
63.6004559947459
20
0.252274798948037
30
0
41
1
10
63.5989542056123
20
0.126670592122736
30
0
41
1
10
63.5983109356424
20
0.0010479598214772
30
0
41
1
10
63.5989393919112
20
-0.124606063606592
30
0
41
1
10
63.600422569042
20
-0.250278478667951
30
0
41
1
10
63.6015451435973
20
-0.313107006546886
30
0
41
1
10
63.604698839979
20
-0.407119789324213
30
0
41
1
10
63.6059874218939
20
-0.438426041512997
30
0
41
1
10
63.6087926009882
20
-0.485286950946772
30
0
41
1
10
63.6098734450385
20
-0.500908385953409
30
0
41
1
10
63.6126365825093
20
-0.531979900240117
30
0
41
1
10
63.6142047780366
20
-0.547460035199265
30
0
41
1
10
63.6175169834513
20
-0.56643570998412
30
0
41
1
10
63.6182575529513
20
-0.570217956967241
30
0
41
1
10
63.6200531741901
20
-0.577579577810013
30
0
41
1
10
63.6210609000232
20
-0.581258298991571
30
0
41
1
10
63.6234299117722
20
-0.586065701145031
30
0
41
1
10
63.6243988974639
20
-0.587643362264458
30
0
41
1
10
63.6270547327431
20
-0.588881869425279
30
0
41
1
10
63.6285560945603
20
-0.587978088721883
30
0
41
1
10
63.6317384051764
20
-0.58392517335696
30
0
41
1
10
63.6330157904177
20
-0.580176915375745
30
0
41
1
10
63.6365194907568
20
-0.569214421909663
30
0
41
1
10
63.6381349600757
20
-0.561531654676685
30
0
41
1
10
63.6410706293929
20
-0.546134632330705
30
0
41
1
10
63.6423228841293
20
-0.538368552955149
30
0
41
1
10
63.6480515312981
20
-0.49938436050391
30
0
41
1
10
63.651076581378
20
-0.467884135175268
30
0
41
1
10
63.6537000000001
20
-0.436361744766742
30
0
0
SPLINE
5
18B
100
AcDbEntity
8
1
62
256
6
ByLayer
370
18
48
1
60
0
100
AcDbSpline
70
4
71
3
72
12
73
8
40
0
40
0
40
0
40
0
40
0.500000000000034
40
0.500000000000034
40
0.750000000000017
40
0.750000000000017
40
1
40
1
40
1
40
1
41
1
10
64.2388
20
-8.73311993629673
30
0
41
1
10
64.2553536023339
20
-8.70203348212405
30
0
41
1
10
64.2694964015387
20
-8.67067816216289
30
0
41
1
10
64.2855458333589
20
-8.62537012042924
30
0
41
1
10
64.2900465982378
20
-8.6105271529147
30
0
41
1
10
64.2966866831807
20
-8.58156892978326
30
0
41
1
10
64.2988
20
-8.56764546510448
30
0
41
1
10
64.2988
20
-8.5551461761288
30
0
0
SPLINE
5
18C
100
AcDbEntity
8
1
62
256
6
ByLayer
370
18
48
1
60
0
100
AcDbSpline
70
4
71
3
72
20
73
16
40
0
40
0
40
0
40
0
40
0.249999999999953
40
0.249999999999953
40
0.374999999999961
40
0.374999999999961
40
0.499999999999969
40
0.499999999999969
40
0.624999999999976
40
0.624999999999976
40
0.749999999999984
40
0.749999999999984
40
0.874999999999992
40
0.874999999999992
40
1
40
1
40
1
40
1
41
1
10
63.6537
20
12.1630072565324
30
0
41
1
10
63.6358697569054
20
12.17915711723
30
0
41
1
10
63.6187922967885
20
12.1935197191723
30
0
41
1
10
63.6000853252067
20
12.2061769490496
30
0
41
1
10
63.5951342532648
20
12.2087793099999
30
0
41
1
10
63.5891809920097
20
12.2097355720121
30
0
41
1
10
63.5881487010527
20
12.2080773315357
30
0
41
1
10
63.5898370575183
20
12.2011922533917
30
0
41
1
10
63.5924977188027
20
12.1959966929615
30
0
41
1
10
63.6002632484948
20
12.1835606375018
30
0
41
1
10
63.6053982300369
20
12.176258441157
30
0
41
1
10
63.6171008223303
20
12.1606631975222
30
0
41
1
10
63.6238017707475
20
12.1521924531375
30
0
41
1
10
63.6380852488653
20
12.1347924712547
30
0
41
1
10
63.6456900005998
20
12.1258290702076
30
0
41
1
10
63.6537
20
12.1166378380118
30
0
0
SPLINE
5
18D
100
AcDbEntity
8
1
62
256
6
ByLayer
370
18
48
1
60
0
100
AcDbSpline
70
4
71
3
72
8
73
4
40
0
40
0
40
0
40
0
40
1
40
1
40
1
40
1
41
1
10
64.2388
20
4.7795966628
30
0
41
1
10
64.0468604680266
20
5.00347177074275
30
0
41
1
10
63.8515349088649
20
5.22334856376904
30
0
41
1
10
63.6537
20
5.44026224699397
30
0
0
SPLINE
5
18E
100
AcDbEntity
8
1
62
256
6
ByLayer
370
18
48
1
60
0
100
AcDbSpline
70
4
71
3
72
14
73
10
40
0
40
0
40
0
40
0
40
0.25
40
0.25
40
0.5
40
0.5
40
0.75
40
0.75
40
1
40
1
40
1
40
1
41
1
10
64.2388
20
9.47518401782193
30
0
41
1
10
64.2468513893278
20
9.46860715356468
30
0
41
1
10
64.2549018571016
20
9.46295259743584
30
0
41
1
10
64.2701313356039
20
9.45500012401769
30
0
41
1
10
64.2772700132158
20
9.45282543406339
30
0
41
1
10
64.2885629711361
20
9.45337358433321
30
0
41
1
10
64.2926840314373
20
9.4560696144365
30
0
41
1
10
64.2977484091153
20
9.46471082510723
30
0
41
1
10
64.2988000000009
20
9.47065387157178
30
0
41
1
10
64.2988000000009
20
9.4773385450973
30
0
0
SPLINE
5
18F
100
AcDbEntity
8
1
62
256
6
ByLayer
370
18
48
1
60
0
100
AcDbSpline
70
4
71
3
72
14
73
10
40
0
40
0
40
0
40
0
40
0.25
40
0.25
40
0.5
40
0.5
40
0.75
40
0.75
40
1
40
1
40
1
40
1
41
1
10
64.2988
20
11.610639560896
30
0
41
1
10
64.2988
20
11.6125499083771
30
0
41
1
10
64.2968543067033
20
11.616368512913
30
0
41
1
10
64.2902004702803
20
11.6264023011568
30
0
41
1
10
64.2854460593372
20
11.6327072924835
30
0
41
1
10
64.2743567667307
20
11.6465120284509
30
0
41
1
10
64.2678871870796
20
11.6541839368236
30
0
41
1
10
64.2540210722191
20
11.6701167848913
30
0
41
1
10
64.2466125600391
20
11.6783976459078
30
0
41
1
10
64.2388
20
11.6869487307072
30
0
0
SPLINE
5
190
100
AcDbEntity
8
1
62
256
6
ByLayer
370
18
48
1
60
0
100
AcDbSpline
70
4
71
3
72
16
73
12
40
0
40
0
40
0
40
0
40
0.125000000000003
40
0.125000000000003
40
0.250000000000006
40
0.250000000000006
40
0.500000000000004
40
0.500000000000004
40
0.750000000000002
40
0.750000000000002
40
1
40
1
40
1
40
1
41
1
10
6.92320508075687
20
-19.1222825906926
30
0
41
1
10
6.90441904704289
20
-19.1222825906926
30
0
41
1
10
6.88615093812098
20
-19.1211757542148
30
0
41
1
10
6.85140047601269
20
-19.1171586755843
30
0
41
1
10
6.83557582658116
20
-19.1143521510704
30
0
41
1
10
6.79136513419885
20
-19.1042242696216
30
0
41
1
10
6.7678647176848
20
-19.0956673725615
30
0
41
1
10
6.72774154010145
20
-19.0770274497583
30
0
41
1
10
6.71161954962213
20
-19.06709867989
30
0
41
1
10
6.68411546052437
20
-19.0464153092313
30
0
41
1
10
6.67279157843183
20
-19.0356185274184
30
0
41
1
10
6.66339745962154
20
-19.0245744101322
30
0
0
SPLINE
5
191
100
AcDbEntity
8
1
62
256
6
ByLayer
370
18
48
1
60
0
100
AcDbSpline
70
4
71
3
72
8
73
4
40
0
40
0
40
0
40
0
40
1
40
1
40
1
40
1
41
1
10
64.2388
20
-7.40465437810948
30
0
41
1
10
64.054224776759
20
-7.83144930875173
30
0
41
1
10
63.8586564023084
20
-8.25144307599831
30
0
41
1
10
63.6537
20
-8.66562872597191
30
0
0
SPLINE
5
192
100
AcDbEntity
8
1
62
256
6
ByLayer
370
18
48
1
60
0
100
AcDbSpline
70
4
71
3
72
8
73
4
40
0
40
0
40
0
40
0
40
1
40
1
40
1
40
1
41
1
10
63.6537
20
-5.44026224699397
30
0
41
1
10
63.8515349088649
20
-5.22334856376904
30
0
41
1
10
64.0468604680266
20
-5.00347177074278
30
0
41
1
10
64.2388
20
-4.7795966628
30
0
0
LINE
5
75
100
AcDbEntity
8
1
62
256
6
ByLayer
370
18
48
1
60
0
100
AcDbLine
10
67.7012
20
2.156854
30
0
11
71.2112
21
2.156854
31
0
39
0
210
0
220
0
230
1
0
LINE
5
77
100
AcDbEntity
8
1
62
256
6
ByLayer
370
18
48
1
60
0
100
AcDbLine
10
64.298734
20
3.656854
30
0
11
67.5012
21
3.656854
31
0
39
0
210
0
220
0
230
1
0
LINE
5
78
100
AcDbEntity
8
1
62
256
6
ByLayer
370
18
48
1
60
0
100
AcDbLine
10
20
20
-20
30
0
11
21.400634
21
-14.729495
31
0
39
0
210
0
220
0
230
1
0
LINE
5
79
100
AcDbEntity
8
1
62
256
6
ByLayer
370
18
48
1
60
0
100
AcDbLine
10
67.7012
20
2.156854
30
0
11
71.2112
21
2.156854
31
0
39
0
210
0
220
0
230
1
0
LINE
5
7A
100
AcDbEntity
8
1
62
256
6
ByLayer
370
18
48
1
60
0
100
AcDbLine
10
71.2112
20
9.156854
30
0
11
67.7012
21
9.156854
31
0
39
0
210
0
220
0
230
1
0
LINE
5
7B
100
AcDbEntity
8
1
62
256
6
ByLayer
370
18
48
1
60
0
100
AcDbLine
10
67.5012
20
7.656854
30
0
11
64.298734
21
7.656854
31
0
39
0
210
0
220
0
230
1
0
LINE
5
7C
100
AcDbEntity
8
1
62
256
6
ByLayer
370
18
48
1
60
0
100
AcDbLine
10
21.400634
20
14.729495
30
0
11
20
21
20
31
0
39
0
210
0
220
0
230
1
0
LINE
5
7D
100
AcDbEntity
8
1
62
256
6
ByLayer
370
18
48
1
60
0
100
AcDbLine
10
71.2112
20
9.156854
30
0
11
67.7012
21
9.156854
31
0
39
0
210
0
220
0
230
1
0
LINE
5
7E
100
AcDbEntity
8
1
62
256
6
ByLayer
370
18
48
1
60
0
100
AcDbLine
10
64.298734
20
-7.656854
30
0
11
67.5012
21
-7.656854
31
0
39
0
210
0
220
0
230
1
0
LINE
5
7F
100
AcDbEntity
8
1
62
256
6
ByLayer
370
18
48
1
60
0
100
AcDbLine
10
67.5012
20
-3.656854
30
0
11
64.298734
21
-3.656854
31
0
39
0
210
0
220
0
230
1
0
LINE
5
80
100
AcDbEntity
8
1
62
256
6
ByLayer
370
18
48
1
60
0
100
AcDbLine
10
67.7012
20
-9.156854
30
0
11
71.2112
21
-9.156854
31
0
39
0
210
0
220
0
230
1
0
LINE
5
81
100
AcDbEntity
8
1
62
256
6
ByLayer
370
18
48
1
60
0
100
AcDbLine
10
71.2112
20
-2.156854
30
0
11
67.7012
21
-2.156854
31
0
39
0
210
0
220
0
230
1
0
LINE
5
82
100
AcDbEntity
8
1
62
256
6
ByLayer
370
18
48
1
60
0
100
AcDbLine
10
62.302166
20
12.5
30
0
11
24.3
21
12.5
31
0
39
0
210
0
220
0
230
1
0
LINE
5
83
100
AcDbEntity
8
1
62
256
6
ByLayer
370
18
48
1
60
0
100
AcDbLine
10
24.3
20
-12.5
30
0
11
62.302166
21
-12.5
31
0
39
0
210
0
220
0
230
1
0
LINE
5
84
100
AcDbEntity
8
1
62
256
6
ByLayer
370
18
48
1
60
0
100
AcDbLine
10
0
20
-19.7
30
0
11
0.3
21
-20
31
0
39
0
210
0
220
0
230
1
0
LINE
5
85
100
AcDbEntity
8
1
62
256
6
ByLayer
370
18
48
1
60
0
100
AcDbLine
10
0.3
20
20
30
0
11
0
21
19.7
31
0
39
0
210
0
220
0
230
1
0
LINE
5
86
100
AcDbEntity
8
1
62
256
6
ByLayer
370
18
48
1
60
0
100
AcDbLine
10
20
20
20
30
0
11
0.3
21
20
31
0
39
0
210
0
220
0
230
1
0
LINE
5
87
100
AcDbEntity
8
1
62
256
6
ByLayer
370
18
48
1
60
0
100
AcDbLine
10
0.3
20
-20
30
0
11
20
21
-20
31
0
39
0
210
0
220
0
230
1
0
LINE
5
88
100
AcDbEntity
8
1
62
256
6
ByLayer
370
18
48
1
60
0
100
AcDbLine
10
67.5012
20
7.656854
30
0
11
64.298734
21
7.656854
31
0
39
0
210
0
220
0
230
1
0
LINE
5
89
100
AcDbEntity
8
1
62
256
6
ByLayer
370
18
48
1
60
0
100
AcDbLine
10
64.298734
20
3.656854
30
0
11
67.5012
21
3.656854
31
0
39
0
210
0
220
0
230
1
0
LINE
5
8A
100
AcDbEntity
8
1
62
256
6
ByLayer
370
13
48
1
60
0
100
AcDbLine
10
64.298712
20
7.266854
30
0
11
67.4512
21
7.266854
31
0
39
0
210
0
220
0
230
1
0
LINE
5
8B
100
AcDbEntity
8
1
62
256
6
ByLayer
370
13
48
1
60
0
100
AcDbLine
10
67.4512
20
7.266854
30
0
11
67.501208
21
7.28129
31
0
39
0
210
0
220
0
230
1
0
LINE
5
8C
100
AcDbEntity
8
1
62
256
6
ByLayer
370
13
48
1
60
0
100
AcDbLine
10
64.298712
20
4.046854
30
0
11
67.4512
21
4.046854
31
0
39
0
210
0
220
0
230
1
0
LINE
5
8D
100
AcDbEntity
8
1
62
256
6
ByLayer
370
13
48
1
60
0
100
AcDbLine
10
67.4512
20
4.046854
30
0
11
67.501208
21
4.032418
31
0
39
0
210
0
220
0
230
1
0
LINE
5
8E
100
AcDbEntity
8
1
62
256
6
ByLayer
370
18
48
1
60
0
100
AcDbLine
10
67.4512
20
7.656854
30
0
11
67.4512
21
3.656854
31
0
39
0
210
0
220
0
230
1
0
LINE
5
8F
100
AcDbEntity
8
80
62
256
6
ByLayer
370
18
48
1
60
0
100
AcDbLine
10
0
20
0
30
0
11
-5
21
0
31
0
39
0
210
0
220
0
230
1
0
LINE
5
90
100
AcDbEntity
8
81
62
256
6
ByLayer
370
18
48
1
60
0
100
AcDbLine
10
64
20
0
30
0
11
69
21
0
31
0
39
0
210
0
220
0
230
1
0
LINE
5
91
100
AcDbEntity
8
4
62
256
6
ByLayer
370
18
48
0.05
60
0
100
AcDbLine
10
0
20
0
30
0
11
64
21
0
31
0
39
0
210
0
220
0
230
1
0
LINE
5
93
100
AcDbEntity
8
SK4
62
256
6
ByLayer
370
18
48
0.05
60
0
100
AcDbLine
10
-29
20
0
30
0
11
69
21
0
31
0
39
0
210
0
220
0
230
1
0
LINE
5
95
100
AcDbEntity
8
SK1
62
256
6
ByLayer
370
18
48
1
60
0
100
AcDbLine
10
-0.2
20
-5.678452
30
0
11
-0.2
21
-5.727781
31
0
39
0
210
0
220
0
230
1
0
LINE
5
97
100
AcDbEntity
8
SK1
62
256
6
ByLayer
370
13
48
1
60
0
100
AcDbLine
10
-1.307107
20
3.628534
30
0
11
-1.307107
21
-3.628532
31
0
39
0
210
0
220
0
230
1
0
LINE
5
98
100
AcDbEntity
8
SK1
62
256
6
ByLayer
370
18
48
1
60
0
100
AcDbLine
10
-0.2
20
5.727782
30
0
11
-0.2
21
5.678452
31
0
39
0
210
0
220
0
230
1
0
LINE
5
99
100
AcDbEntity
8
1
62
256
6
ByLayer
370
18
48
1
60
0
100
AcDbLine
10
64.2988
20
-8.555152
30
0
11
64.2988
21
-9.477339
31
0
39
0
210
0
220
0
230
1
0
LINE
5
9A
100
AcDbEntity
8
1
62
256
6
ByLayer
370
18
48
1
60
0
100
AcDbLine
10
64.2988
20
11.587787
30
0
11
64.2988
21
11.346038
31
0
39
0
210
0
220
0
230
1
0
LINE
5
9B
100
AcDbEntity
8
1
62
256
6
ByLayer
370
18
48
1
60
0
100
AcDbLine
10
9.076795
20
5.85989
30
0
11
6.923205
21
5.85989
31
0
39
0
210
0
220
0
230
1
0
LINE
5
9C
100
AcDbEntity
8
1
62
256
6
ByLayer
370
18
48
1
60
0
100
AcDbLine
10
63.5488
20
12.421353
30
0
11
63.5488
21
-12.421353
31
0
39
0
210
0
220
0
230
1
0
LINE
5
9D
100
AcDbEntity
8
1
62
256
6
ByLayer
370
18
48
1
60
0
100
AcDbLine
10
64.2988
20
10.27724
30
0
11
64.2988
21
9.579318
31
0
39
0
210
0
220
0
230
1
0
LINE
5
9E
100
AcDbEntity
8
1
62
256
6
ByLayer
370
18
48
1
60
0
100
AcDbLine
10
9.076795
20
-19.122283
30
0
11
6.923205
21
-19.122283
31
0
39
0
210
0
220
0
230
1
0
LINE
5
9F
100
AcDbEntity
8
1
62
256
6
ByLayer
370
18
48
1
60
0
100
AcDbLine
10
20
20
20
30
0
11
20
21
-20
31
0
39
0
210
0
220
0
230
1
0
LINE
5
A0
100
AcDbEntity
8
1
62
256
6
ByLayer
370
13
48
1
60
0
100
AcDbLine
10
63.6537
20
-11.291554
30
0
11
63.6537
21
-11.390859
31
0
39
0
210
0
220
0
230
1
0
LINE
5
A1
100
AcDbEntity
8
1
62
256
6
ByLayer
370
13
48
1
60
0
100
AcDbLine
10
63.6537
20
10.768966
30
0
11
63.6537
21
10.63744
31
0
39
0
210
0
220
0
230
1
0
LINE
5
A2
100
AcDbEntity
8
1
62
256
6
ByLayer
370
18
48
1
60
0
100
AcDbLine
10
62.330791
20
12.421353
30
0
11
62.302166
21
12.5
31
0
39
0
210
0
220
0
230
1
0
LINE
5
A3
100
AcDbEntity
8
1
62
256
6
ByLayer
370
13
48
1
60
0
100
AcDbLine
10
6.923205
20
-5.85989
30
0
11
6.923205
21
-19.122283
31
0
39
0
210
0
220
0
230
1
0
LINE
5
A4
100
AcDbEntity
8
1
62
256
6
ByLayer
370
18
48
1
60
0
100
AcDbLine
10
64.2988
20
11.61064
30
0
11
64.2988
21
11.587787
31
0
39
0
210
0
220
0
230
1
0
LINE
5
A5
100
AcDbEntity
8
1
62
256
6
ByLayer
370
18
48
1
60
0
100
AcDbLine
10
64.2988
20
-10.27724
30
0
11
64.2988
21
-10.354327
31
0
39
0
210
0
220
0
230
1
0
LINE
5
A6
100
AcDbEntity
8
1
62
256
6
ByLayer
370
18
48
1
60
0
100
AcDbLine
10
64.2988
20
7.175809
30
0
11
64.2988
21
6.988671
31
0
39
0
210
0
220
0
230
1
0
LINE
5
A7
100
AcDbEntity
8
1
62
256
6
ByLayer
370
13
48
1
60
0
100
AcDbLine
10
6.923205
20
19.122283
30
0
11
6.923205
21
5.85989
31
0
39
0
210
0
220
0
230
1
0
LINE
5
A8
100
AcDbEntity
8
1
62
256
6
ByLayer
370
13
48
1
60
0
100
AcDbLine
10
63.6537
20
7.475125
30
0
11
63.6537
21
7.167477
31
0
39
0
210
0
220
0
230
1
0
LINE
5
A9
100
AcDbEntity
8
1
62
256
6
ByLayer
370
13
48
1
60
0
100
AcDbLine
10
63.6537
20
-7.167477
30
0
11
63.6537
21
-7.475125
31
0
39
0
210
0
220
0
230
1
0
LINE
5
AA
100
AcDbEntity
8
1
62
256
6
ByLayer
370
13
48
1
60
0
100
AcDbLine
10
64.2388
20
-10.287888
30
0
11
64.2388
21
-9.725265
31
0
39
0
210
0
220
0
230
1
0
LINE
5
AB
100
AcDbEntity
8
1
62
256
6
ByLayer
370
18
48
1
60
0
100
AcDbLine
10
64.2988
20
-9.579318
30
0
11
64.2988
21
-10.27724
31
0
39
0
210
0
220
0
230
1
0
LINE
5
AC
100
AcDbEntity
8
1
62
256
6
ByLayer
370
18
48
1
60
0
100
AcDbLine
10
63.5488
20
-12.421353
30
0
11
62.330791
21
-12.421353
31
0
39
0
210
0
220
0
230
1
0
LINE
5
AD
100
AcDbEntity
8
1
62
256
6
ByLayer
370
18
48
1
60
0
100
AcDbLine
10
64.2988
20
9.477339
30
0
11
64.2988
21
8.555152
31
0
39
0
210
0
220
0
230
1
0
LINE
5
AE
100
AcDbEntity
8
1
62
256
6
ByLayer
370
18
48
1
60
0
100
AcDbLine
10
64.2988
20
-8.419812
30
0
11
64.2988
21
-8.555146
31
0
39
0
210
0
220
0
230
1
0
LINE
5
AF
100
AcDbEntity
8
1
62
256
6
ByLayer
370
13
48
1
60
0
100
AcDbLine
10
64.2388
20
11.037744
30
0
11
64.2388
21
11.339695
31
0
39
0
210
0
220
0
230
1
0
LINE
5
B0
100
AcDbEntity
8
1
62
256
6
ByLayer
370
13
48
1
60
0
100
AcDbLine
10
64.2388
20
-4.779597
30
0
11
64.2388
21
-1.605198
31
0
39
0
210
0
220
0
230
1
0
LINE
5
B1
100
AcDbEntity
8
1
62
256
6
ByLayer
370
13
48
1
60
0
100
AcDbLine
10
64.2388
20
1.605198
30
0
11
64.2388
21
4.779597
31
0
39
0
210
0
220
0
230
1
0
LINE
5
B2
100
AcDbEntity
8
1
62
256
6
ByLayer
370
13
48
1
60
0
100
AcDbLine
10
21.400634
20
14.729495
30
0
11
21.400634
21
-14.729495
31
0
39
0
210
0
220
0
230
1
0
LINE
5
B3
100
AcDbEntity
8
1
62
256
6
ByLayer
370
13
48
1
60
0
100
AcDbLine
10
63.6537
20
-10.63744
30
0
11
63.6537
21
-10.768966
31
0
39
0
210
0
220
0
230
1
0
LINE
5
B4
100
AcDbEntity
8
1
62
256
6
ByLayer
370
13
48
1
60
0
100
AcDbLine
10
9.076795
20
-5.85989
30
0
11
9.076795
21
-19.122283
31
0
39
0
210
0
220
0
230
1
0
LINE
5
B5
100
AcDbEntity
8
1
62
256
6
ByLayer
370
13
48
1
60
0
100
AcDbLine
10
64.2388
20
10.477069
30
0
11
64.2388
21
10.898493
31
0
39
0
210
0
220
0
230
1
0
LINE
5
B6
100
AcDbEntity
8
1
62
256
6
ByLayer
370
13
48
1
60
0
100
AcDbLine
10
63.6537
20
0.436362
30
0
11
63.6537
21
-0.436362
31
0
39
0
210
0
220
0
230
1
0
LINE
5
B7
100
AcDbEntity
8
1
62
256
6
ByLayer
370
18
48
1
60
0
100
AcDbLine
10
64.2988
20
5.164199
30
0
11
64.2988
21
4.864648
31
0
39
0
210
0
220
0
230
1
0
LINE
5
B8
100
AcDbEntity
8
1
62
256
6
ByLayer
370
13
48
1
60
0
100
AcDbLine
10
63.6537
20
5.440262
30
0
11
63.6537
21
4.952679
31
0
39
0
210
0
220
0
230
1
0
LINE
5
B9
100
AcDbEntity
8
1
62
256
6
ByLayer
370
13
48
1
60
0
100
AcDbLine
10
63.6537
20
-4.952679
30
0
11
63.6537
21
-5.440262
31
0
39
0
210
0
220
0
230
1
0
LINE
5
BA
100
AcDbEntity
8
1
62
256
6
ByLayer
370
13
48
1
60
0
100
AcDbLine
10
64.2388
20
-11.630787
30
0
11
64.2388
21
-11.435448
31
0
39
0
210
0
220
0
230
1
0
LINE
5
BB
100
AcDbEntity
8
1
62
256
6
ByLayer
370
13
48
1
60
0
100
AcDbLine
10
63.6537
20
11.390859
30
0
11
63.6537
21
11.291554
31
0
39
0
210
0
220
0
230
1
0
LINE
5
BC
100
AcDbEntity
8
1
62
256
6
ByLayer
370
18
48
1
60
0
100
AcDbLine
10
64.2988
20
-4.864648
30
0
11
64.2988
21
-5.164199
31
0
39
0
210
0
220
0
230
1
0
LINE
5
BD
100
AcDbEntity
8
1
62
256
6
ByLayer
370
13
48
1
60
0
100
AcDbLine
10
64.2388
20
11.435448
30
0
11
64.2388
21
11.630787
31
0
39
0
210
0
220
0
230
1
0
LINE
5
BE
100
AcDbEntity
8
1
62
256
6
ByLayer
370
18
48
1
60
0
100
AcDbLine
10
64.2988
20
11.307081
30
0
11
64.2988
21
10.933172
31
0
39
0
210
0
220
0
230
1
0
LINE
5
BF
100
AcDbEntity
8
1
62
256
6
ByLayer
370
18
48
1
60
0
100
AcDbLine
10
64.2988
20
10.354327
30
0
11
64.2988
21
10.27724
31
0
39
0
210
0
220
0
230
1
0
LINE
5
C0
100
AcDbEntity
8
1
62
256
6
ByLayer
370
13
48
1
60
0
100
AcDbLine
10
6.663397
20
-6.16973
30
0
11
6.663397
21
-19.024574
31
0
39
0
210
0
220
0
230
1
0
LINE
5
C1
100
AcDbEntity
8
1
62
256
6
ByLayer
370
13
48
1
60
0
100
AcDbLine
10
64.2388
20
-10.898493
30
0
11
64.2388
21
-10.477069
31
0
39
0
210
0
220
0
230
1
0
LINE
5
C2
100
AcDbEntity
8
1
62
256
6
ByLayer
370
18
48
1
60
0
100
AcDbLine
10
64.2988
20
-10.354312
30
0
11
64.2988
21
-10.876506
31
0
39
0
210
0
220
0
230
1
0
LINE
5
C3
100
AcDbEntity
8
1
62
256
6
ByLayer
370
18
48
1
60
0
100
AcDbLine
10
64.2988
20
10.876506
30
0
11
64.2988
21
10.354312
31
0
39
0
210
0
220
0
230
1
0
LINE
5
C4
100
AcDbEntity
8
1
62
256
6
ByLayer
370
13
48
1
60
0
100
AcDbLine
10
24.3
20
12.5
30
0
11
24.3
21
-12.5
31
0
39
0
210
0
220
0
230
1
0
LINE
5
C5
100
AcDbEntity
8
1
62
256
6
ByLayer
370
18
48
1
60
0
100
AcDbLine
10
6.923205
20
19.122283
30
0
11
9.076795
21
19.122283
31
0
39
0
210
0
220
0
230
1
0
LINE
5
C6
100
AcDbEntity
8
1
62
256
6
ByLayer
370
13
48
1
60
0
100
AcDbLine
10
63.6537
20
9.953119
30
0
11
63.6537
21
9.781952
31
0
39
0
210
0
220
0
230
1
0
LINE
5
C7
100
AcDbEntity
8
1
62
256
6
ByLayer
370
13
48
1
60
0
100
AcDbLine
10
63.6537
20
-11.77781
30
0
11
63.6537
21
-11.849376
31
0
39
0
210
0
220
0
230
1
0
LINE
5
C8
100
AcDbEntity
8
1
62
256
6
ByLayer
370
13
48
1
60
0
100
AcDbLine
10
63.6537
20
11.849376
30
0
11
63.6537
21
11.77781
31
0
39
0
210
0
220
0
230
1
0
LINE
5
C9
100
AcDbEntity
8
1
62
256
6
ByLayer
370
18
48
1
60
0
100
AcDbLine
10
63.5488
20
12.421353
30
0
11
62.330791
21
12.421353
31
0
39
0
210
0
220
0
230
1
0
LINE
5
CA
100
AcDbEntity
8
1
62
256
6
ByLayer
370
13
48
1
60
0
100
AcDbLine
10
63.6537
20
-12.116603
30
0
11
63.6537
21
-12.163007
31
0
39
0
210
0
220
0
230
1
0
LINE
5
CB
100
AcDbEntity
8
1
62
256
6
ByLayer
370
18
48
1
60
0
100
AcDbLine
10
64.2988
20
10.933224
30
0
11
64.2988
21
10.876506
31
0
39
0
210
0
220
0
230
1
0
LINE
5
CC
100
AcDbEntity
8
1
62
256
6
ByLayer
370
18
48
1
60
0
100
AcDbLine
10
64.2988
20
11.346086
30
0
11
64.2988
21
11.307081
31
0
39
0
210
0
220
0
230
1
0
LINE
5
CD
100
AcDbEntity
8
1
62
256
6
ByLayer
370
18
48
1
60
0
100
AcDbLine
10
64.2988
20
-6.988671
30
0
11
64.2988
21
-7.175809
31
0
39
0
210
0
220
0
230
1
0
LINE
5
CE
100
AcDbEntity
8
1
62
256
6
ByLayer
370
13
48
1
60
0
100
AcDbLine
10
64.2388
20
-11.339695
30
0
11
64.2388
21
-11.037744
31
0
39
0
210
0
220
0
230
1
0
LINE
5
CF
100
AcDbEntity
8
1
62
256
6
ByLayer
370
13
48
1
60
0
100
AcDbLine
10
9.336603
20
-6.16973
30
0
11
9.336603
21
-19.024574
31
0
39
0
210
0
220
0
230
1
0
LINE
5
D0
100
AcDbEntity
8
1
62
256
6
ByLayer
370
18
48
1
60
0
100
AcDbLine
10
64.2988
20
-7.175835
30
0
11
64.2988
21
-8.419812
31
0
39
0
210
0
220
0
230
1
0
LINE
5
D1
100
AcDbEntity
8
1
62
256
6
ByLayer
370
18
48
1
60
0
100
AcDbLine
10
64.2988
20
-11.346038
30
0
11
64.2988
21
-11.587787
31
0
39
0
210
0
220
0
230
1
0
LINE
5
D2
100
AcDbEntity
8
1
62
256
6
ByLayer
370
18
48
1
60
0
100
AcDbLine
10
64.2988
20
6.988671
30
0
11
64.2988
21
5.164191
31
0
39
0
210
0
220
0
230
1
0
LINE
5
D3
100
AcDbEntity
8
1
62
256
6
ByLayer
370
18
48
1
60
0
100
AcDbLine
10
64.2988
20
-5.164191
30
0
11
64.2988
21
-6.988671
31
0
39
0
210
0
220
0
230
1
0
LINE
5
D4
100
AcDbEntity
8
1
62
256
6
ByLayer
370
18
48
1
60
0
100
AcDbLine
10
6.923205
20
-5.85989
30
0
11
9.076795
21
-5.85989
31
0
39
0
210
0
220
0
230
1
0
LINE
5
D5
100
AcDbEntity
8
1
62
256
6
ByLayer
370
18
48
1
60
0
100
AcDbLine
10
64.2988
20
-9.477339
30
0
11
64.2988
21
-9.579343
31
0
39
0
210
0
220
0
230
1
0
LINE
5
D6
100
AcDbEntity
8
1
62
256
6
ByLayer
370
18
48
1
60
0
100
AcDbLine
10
64.2988
20
-10.933172
30
0
11
64.2988
21
-11.307081
31
0
39
0
210
0
220
0
230
1
0
LINE
5
D7
100
AcDbEntity
8
1
62
256
6
ByLayer
370
18
48
1
60
0
100
AcDbLine
10
0.3
20
-20
30
0
11
0.3
21
20
31
0
39
0
210
0
220
0
230
1
0
LINE
5
D8
100
AcDbEntity
8
1
62
256
6
ByLayer
370
18
48
1
60
0
100
AcDbLine
10
64.2988
20
9.579343
30
0
11
64.2988
21
9.477339
31
0
39
0
210
0
220
0
230
1
0
LINE
5
D9
100
AcDbEntity
8
1
62
256
6
ByLayer
370
13
48
1
60
0
100
AcDbLine
10
64.2388
20
-8.40194
30
0
11
64.2388
21
-7.404472
31
0
39
0
210
0
220
0
230
1
0
LINE
5
DA
100
AcDbEntity
8
1
62
256
6
ByLayer
370
13
48
1
60
0
100
AcDbLine
10
64.2388
20
7.404472
30
0
11
64.2388
21
8.40194
31
0
39
0
210
0
220
0
230
1
0
LINE
5
DB
100
AcDbEntity
8
1
62
256
6
ByLayer
370
13
48
1
60
0
100
AcDbLine
10
64.2388
20
-6.948458
30
0
11
64.2388
21
-5.501224
31
0
39
0
210
0
220
0
230
1
0
LINE
5
DC
100
AcDbEntity
8
1
62
256
6
ByLayer
370
13
48
1
60
0
100
AcDbLine
10
64.2388
20
5.501224
30
0
11
64.2388
21
6.948458
31
0
39
0
210
0
220
0
230
1
0
LINE
5
DD
100
AcDbEntity
8
1
62
256
6
ByLayer
370
13
48
1
60
0
100
AcDbLine
10
63.6537
20
8.890081
30
0
11
63.6537
21
8.665606
31
0
39
0
210
0
220
0
230
1
0
LINE
5
DE
100
AcDbEntity
8
1
62
256
6
ByLayer
370
13
48
1
60
0
100
AcDbLine
10
63.6537
20
-8.665606
30
0
11
63.6537
21
-8.890081
31
0
39
0
210
0
220
0
230
1
0
LINE
5
DF
100
AcDbEntity
8
1
62
256
6
ByLayer
370
18
48
1
60
0
100
AcDbLine
10
64.2988
20
8.419812
30
0
11
64.2988
21
7.175835
31
0
39
0
210
0
220
0
230
1
0
LINE
5
E0
100
AcDbEntity
8
1
62
256
6
ByLayer
370
18
48
1
60
0
100
AcDbLine
10
64.2988
20
4.864648
30
0
11
64.2988
21
-4.864648
31
0
39
0
210
0
220
0
230
1
0
LINE
5
E1
100
AcDbEntity
8
1
62
256
6
ByLayer
370
13
48
1
60
0
100
AcDbLine
10
9.336603
20
19.024574
30
0
11
9.336603
21
6.16973
31
0
39
0
210
0
220
0
230
1
0
LINE
5
E2
100
AcDbEntity
8
1
62
256
6
ByLayer
370
18
48
1
60
0
100
AcDbLine
10
64.2988
20
-11.307081
30
0
11
64.2988
21
-11.346086
31
0
39
0
210
0
220
0
230
1
0
LINE
5
E3
100
AcDbEntity
8
1
62
256
6
ByLayer
370
13
48
1
60
0
100
AcDbLine
10
64.2388
20
9.725265
30
0
11
64.2388
21
10.287888
31
0
39
0
210
0
220
0
230
1
0
LINE
5
E4
100
AcDbEntity
8
1
62
256
6
ByLayer
370
13
48
1
60
0
100
AcDbLine
10
9.076795
20
19.122283
30
0
11
9.076795
21
5.85989
31
0
39
0
210
0
220
0
230
1
0
LINE
5
E5
100
AcDbEntity
8
1
62
256
6
ByLayer
370
18
48
1
60
0
100
AcDbLine
10
0
20
-19.7
30
0
11
0
21
19.7
31
0
39
0
210
0
220
0
230
1
0
LINE
5
E6
100
AcDbEntity
8
1
62
256
6
ByLayer
370
13
48
1
60
0
100
AcDbLine
10
63.6537
20
12.163007
30
0
11
63.6537
21
12.116603
31
0
39
0
210
0
220
0
230
1
0
LINE
5
E7
100
AcDbEntity
8
1
62
256
6
ByLayer
370
18
48
1
60
0
100
AcDbLine
10
62.330791
20
-12.421353
30
0
11
62.302166
21
-12.5
31
0
39
0
210
0
220
0
230
1
0
LINE
5
E8
100
AcDbEntity
8
1
62
256
6
ByLayer
370
18
48
1
60
0
100
AcDbLine
10
64.2988
20
-11.587787
30
0
11
64.2988
21
-11.61064
31
0
39
0
210
0
220
0
230
1
0
LINE
5
E9
100
AcDbEntity
8
1
62
256
6
ByLayer
370
13
48
1
60
0
100
AcDbLine
10
6.663397
20
19.024574
30
0
11
6.663397
21
6.16973
31
0
39
0
210
0
220
0
230
1
0
LINE
5
EA
100
AcDbEntity
8
1
62
256
6
ByLayer
370
13
48
1
60
0
100
AcDbLine
10
63.6537
20
-9.781952
30
0
11
63.6537
21
-9.953119
31
0
39
0
210
0
220
0
230
1
0
LINE
5
EB
100
AcDbEntity
8
1
62
256
6
ByLayer
370
13
48
1
60
0
100
AcDbLine
10
64.2388
20
8.733101
30
0
11
64.2388
21
9.475184
31
0
39
0
210
0
220
0
230
1
0
LINE
5
EC
100
AcDbEntity
8
1
62
256
6
ByLayer
370
18
48
1
60
0
100
AcDbLine
10
64.2988
20
8.555146
30
0
11
64.2988
21
8.419812
31
0
39
0
210
0
220
0
230
1
0
LINE
5
ED
100
AcDbEntity
8
1
62
256
6
ByLayer
370
18
48
1
60
0
100
AcDbLine
10
64.2988
20
-10.876506
30
0
11
64.2988
21
-10.933224
31
0
39
0
210
0
220
0
230
1
0
LINE
5
EE
100
AcDbEntity
8
1
62
256
6
ByLayer
370
13
48
1
60
0
100
AcDbLine
10
64.2388
20
-9.475184
30
0
11
64.2388
21
-8.733101
31
0
39
0
210
0
220
0
230
1
0
LINE
5
EF
100
AcDbEntity
8
1
62
256
6
ByLayer
370
18
48
1
60
0
100
AcDbLine
10
71.6112
20
8.756854
30
0
11
71.6112
21
2.556854
31
0
39
0
210
0
220
0
230
1
0
LINE
5
F0
100
AcDbEntity
8
1
62
256
6
ByLayer
370
13
48
1
60
0
100
AcDbLine
10
71.2112
20
9.156854
30
0
11
71.2112
21
2.156854
31
0
39
0
210
0
220
0
230
1
0
LINE
5
F1
100
AcDbEntity
8
1
62
256
6
ByLayer
370
18
48
1
60
0
100
AcDbLine
10
71.6112
20
8.756854
30
0
11
71.6112
21
2.556854
31
0
39
0
210
0
220
0
230
1
0
LINE
5
F2
100
AcDbEntity
8
1
62
256
6
ByLayer
370
13
48
1
60
0
100
AcDbLine
10
67.5012
20
7.656854
30
0
11
67.5012
21
3.656854
31
0
39
0
210
0
220
0
230
1
0
LINE
5
F3
100
AcDbEntity
8
1
62
256
6
ByLayer
370
18
48
1
60
0
100
AcDbLine
10
67.7012
20
9.156854
30
0
11
67.7012
21
2.156854
31
0
39
0
210
0
220
0
230
1
0
LINE
5
F4
100
AcDbEntity
8
1
62
256
6
ByLayer
370
18
48
1
60
0
100
AcDbLine
10
67.7012
20
-9.156854
30
0
11
67.7012
21
-2.156854
31
0
39
0
210
0
220
0
230
1
0
LINE
5
F5
100
AcDbEntity
8
1
62
256
6
ByLayer
370
13
48
1
60
0
100
AcDbLine
10
71.2112
20
-2.156854
30
0
11
71.2112
21
-9.156854
31
0
39
0
210
0
220
0
230
1
0
LINE
5
F6
100
AcDbEntity
8
1
62
256
6
ByLayer
370
18
48
1
60
0
100
AcDbLine
10
67.7012
20
9.156854
30
0
11
67.7012
21
2.156854
31
0
39
0
210
0
220
0
230
1
0
LINE
5
F7
100
AcDbEntity
8
1
62
256
6
ByLayer
370
18
48
1
60
0
100
AcDbLine
10
71.6112
20
-8.756854
30
0
11
71.6112
21
-2.556854
31
0
39
0
210
0
220
0
230
1
0
LINE
5
F8
100
AcDbEntity
8
1
62
256
6
ByLayer
370
13
48
1
60
0
100
AcDbLine
10
67.5012
20
-3.656854
30
0
11
67.5012
21
-7.656854
31
0
39
0
210
0
220
0
230
1
0
LINE
5
F9
100
AcDbEntity
8
1
62
256
6
ByLayer
370
13
48
1
60
0
100
AcDbLine
10
71.2112
20
9.156854
30
0
11
71.2112
21
2.156854
31
0
39
0
210
0
220
0
230
1
0
LINE
5
FA
100
AcDbEntity
8
1
62
256
6
ByLayer
370
13
48
1
60
0
100
AcDbLine
10
67.5012
20
7.656854
30
0
11
67.5012
21
3.656854
31
0
39
0
210
0
220
0
230
1
0
MTEXT
5
193
100
AcDbEntity
8
SK6
62
256
6
ByLayer
370
18
48
1
60
0
100
AcDbMText
10
0.875
20
29.125134
30
0
210
0
220
0
230
1
1
\W0.7270;C4-570-2C 25 064
40
3.5
41
0
44
1.084337
50
0
71
7
72
5
7
iso_b_vert
0
DIMENSION
5
1A0
100
AcDbEntity
8
SK2
62
256
6
ByLayer
370
13
48
1
60
0
100
AcDbDimension
2
DimnDraft3D1
10
64
20
-30.1
30
0
11
40.042801
21
-30.1
31
0
70
32
71
5
72
1
41
1
210
0
220
0
230
1
3
Standard
100
AcDbAlignedDimension
13
24.3
23
-14.0875
33
0
14
64
24
-14.0875
34
0
50
0
100
AcDbRotatedDimension
1001
ACAD
1000
DSTYLE
1002
{
1070
   279
1070
     0
1070
   172
1070
     1
1070
   173
1070
     1
1070
   340
1005
194
1070
   271
1070
     2
1070
   272
1070
     2
1070
    77
1070
     1
1070
    73
1070
     0
1070
   171
1070
     3
1070
   274
1070
     4
1070
   177
1070
     2
1070
   176
1070
     2
1070
   178
1070
     2
1070
    78
1070
     8
1070
    48
1040
-0.005
1070
    41
1041
3.5
1070
   147
1041
1.75
1070
    42
1041
1.5875
1070
    44
1041
2.0
1070
   140
1041
3.5
1070
   343
1005
0
1070
   344
1005
0
1002
}
0
DIMENSION
5
1AB
100
AcDbEntity
8
2
62
256
6
ByLayer
370
13
48
1
60
0
100
AcDbDimension
2
DimnDraft3D2
10
64
20
-40.1
30
0
11
27.708534
21
-40.1
31
0
70
32
71
5
72
1
41
1
210
0
220
0
230
1
3
Standard
100
AcDbAlignedDimension
13
0
23
-21.5875
33
0
14
64
24
-14.0875
34
0
50
0
100
AcDbRotatedDimension
1001
ACAD
1000
DSTYLE
1002
{
1070
   279
1070
     0
1070
   172
1070
     1
1070
   173
1070
     1
1070
   340
1005
194
1070
   271
1070
     2
1070
   272
1070
     2
1070
    77
1070
     1
1070
    73
1070
     0
1070
   171
1070
     3
1070
   274
1070
     4
1070
   177
1070
     2
1070
   176
1070
     2
1070
   178
1070
     2
1070
    78
1070
     8
1070
    48
1040
-0.005
1070
    41
1041
3.5
1070
   147
1041
1.75
1070
    42
1041
1.5875
1070
    44
1041
2.0
1070
   140
1041
3.5
1070
   343
1005
0
1070
   344
1005
0
1002
}
0
DIMENSION
5
1B6
100
AcDbEntity
8
SK2
62
256
6
ByLayer
370
13
48
1
60
0
100
AcDbDimension
2
DimnDraft3D3
10
-47.6
20
-20
30
0
11
-48.225
21
2.100267
31
0
70
33
71
5
72
1
41
1
210
0
220
0
230
1
3
Standard
100
AcDbAlignedDimension
13
-1.5875
23
20
33
0
14
-1.5875
24
-20
34
0
1001
ACAD
1000
DSTYLE
1002
{
1070
   279
1070
     0
1070
    74
1070
     0
1070
   173
1070
     1
1070
   340
1005
194
1070
   271
1070
     2
1070
   272
1070
     2
1070
    77
1070
     1
1070
    73
1070
     0
1070
   171
1070
     3
1070
   274
1070
     4
1070
   177
1070
     2
1070
   176
1070
     2
1070
   178
1070
     2
1070
    78
1070
     8
1070
    48
1040
-0.005
1070
    41
1041
3.5
1070
   147
1041
1.75
1070
    42
1041
1.5875
1070
    44
1041
2.0
1070
   140
1041
3.5
1070
   343
1005
0
1070
   344
1005
0
1002
}
0
DIMENSION
5
1C1
100
AcDbEntity
8
SK2
62
256
6
ByLayer
370
13
48
1
60
0
100
AcDbDimension
2
DimnDraft3D4
10
83.868904
20
-12.5
30
0
11
79.243904
21
2.284534
31
0
70
33
71
5
72
1
41
1
210
0
220
0
230
1
3
Standard
100
AcDbAlignedDimension
13
65.5875
23
12.5
33
0
14
65.5875
24
-12.5
34
0
1001
ACAD
1000
DSTYLE
1002
{
1070
   279
1070
     0
1070
    74
1070
     0
1070
   173
1070
     1
1070
   340
1005
194
1070
   271
1070
     2
1070
   272
1070
     2
1070
    77
1070
     1
1070
    73
1070
     0
1070
   171
1070
     3
1070
   274
1070
     4
1070
   177
1070
     2
1070
   176
1070
     2
1070
   178
1070
     2
1070
    78
1070
     8
1070
    48
1040
-0.005
1070
    41
1041
3.5
1070
   147
1041
1.75
1070
    42
1041
1.5875
1070
    44
1041
2.0
1070
   140
1041
3.5
1070
   343
1005
0
1070
   344
1005
0
1002
}
0
ENDSEC
0
SECTION
2
OBJECTS
0
DICTIONARY
5
22c
330
0
100
AcDbDictionary
280
0
281
1
3
ACAD_GROUP
350
22d
3
ACAD_MLINESTYLE
350
22e
0
DICTIONARY
5
22d
330
0
100
AcDbDictionary
280
0
281
1
0
DICTIONARY
5
22e
330
0
100
AcDbDictionary
280
0
281
1
3
Standard
350
18
0
MLINESTYLE
5
18
330
22e
100
AcDbMlineStyle
2
Standard
70
0
3

62
256
51
90
52
90
71
2
49
-0.5
62
256
6
ByLayer
49
0.5
62
256
6
ByLayer
0
RASTERVARIABLES
5
21a
330

100
AcDbRasterVariables
90
0
70
1
71
1
72
1
0
ENDSEC
0
EOF
