0
SECTION
2
HEADER
9
$ACADVER
1
AC1015
9
$DWGCODEPAGE
3
ANSI_1252
9
$HANDSEED
5
193
9
$ANGBASE
50
0
9
$ANGDIR
70
0
9
$ATTMODE
70
1
9
$AUNITS
70
0
9
$AUPREC
70
0
9
$CECOLOR
62
256
9
$CELTSCALE
40
1
9
$CELTYPE
6
ByLayer
9
$CELWEIGHT
370
18
9
$CLAYER
8
0
9
$CMLJUST
70
0
9
$CMLSCALE
40
1
9
$CMLSTYLE
2
Standard
9
$DIMSTYLE
2
Standard
9
$TEXTSIZE
40
0.2
9
$TEXTSTYLE
7
Standard
9
$LUNITS
70
2
9
$LUPREC
70
4
9
$EXTNAMES
290
1
9
$INSUNITS
70
4
9
$LTSCALE
40
1
9
$LWDISPLAY
290
1
9
$PDMODE
70
0
9
$PDSIZE
40
0
9
$PLINEGEN
70
0
0
ENDSEC
0
SECTION
2
CLASSES
0
CLASS
1
RASTERVARIABLES
2
AcDbRasterVariables
3
ISM
90
0
280
0
281
0
0
ENDSEC
0
SECTION
2
TABLES
0
TABLE
2
VPORT
5
189
100
AcDbSymbolTable
0
VPORT
5
1
100
AcDbSymbolTableRecord
100
AcDbViewportTableRecord
2
*Active
70
0
10
0
20
0
11
1
21
1
12
-1
22
1
13
0
23
0
14
0.5
24
0.5
15
10
25
10
16
0
26
0
36
1
17
0
27
0
37
0
0
ENDTAB
0
TABLE
2
LTYPE
5
18a
100
AcDbSymbolTable
0
LTYPE
5
14
100
AcDbSymbolTableRecord
100
AcDbLinetypeTableRecord
70
0
2
ByBlock
3

72
65
73
0
40
0
0
LTYPE
5
15
100
AcDbSymbolTableRecord
100
AcDbLinetypeTableRecord
70
0
2
ByLayer
3

72
65
73
0
40
0
0
LTYPE
5
16
100
AcDbSymbolTableRecord
100
AcDbLinetypeTableRecord
70
0
2
CONTINUOUS
3
Solid line
72
65
73
0
40
0
0
LTYPE
5
6A
100
AcDbSymbolTableRecord
100
AcDbLinetypeTableRecord
70
0
2
CENTER
3
____ _ ____ _ ____ _ ____
72
65
73
4
40
47.5
49
22
74
0
49
-8.5
74
0
49
8.5
74
0
49
-8.5
74
0
0
LTYPE
5
6B
100
AcDbSymbolTableRecord
100
AcDbLinetypeTableRecord
70
0
2
DASHED
3
__ __ __ __ __ __ __ __ __
72
65
73
2
40
25.72
49
12.86
74
0
49
-12.86
74
0
0
ENDTAB
0
TABLE
2
LAYER
5
18b
100
AcDbSymbolTable
0
LAYER
5
10
100
AcDbSymbolTableRecord
100
AcDbLayerTableRecord
2
0
70
0
62
7
6
CONTINUOUS
290
1
370
-3
390
0
0
LAYER
5
6D
100
AcDbSymbolTableRecord
100
AcDbLayerTableRecord
2
81
70
0
62
-3
6
CONTINUOUS
290
1
370
-3
390
0
0
LAYER
5
6F
100
AcDbSymbolTableRecord
100
AcDbLayerTableRecord
2
80
70
0
62
-6
6
CONTINUOUS
290
1
370
-3
390
0
0
LAYER
5
71
100
AcDbSymbolTableRecord
100
AcDbLayerTableRecord
2
1
70
0
62
4
6
CONTINUOUS
290
1
370
-3
390
0
0
LAYER
5
76
100
AcDbSymbolTableRecord
100
AcDbLayerTableRecord
2
4
70
0
62
-2
6
CENTER
290
1
370
-3
390
0
0
LAYER
5
F3
100
AcDbSymbolTableRecord
100
AcDbLayerTableRecord
2
2
70
0
62
7
6
CONTINUOUS
290
1
370
-3
390
0
0
LAYER
5
175
100
AcDbSymbolTableRecord
100
AcDbLayerTableRecord
2
SK1
70
0
62
4
6
CONTINUOUS
290
1
370
-3
390
0
0
LAYER
5
176
100
AcDbSymbolTableRecord
100
AcDbLayerTableRecord
2
SK4
70
0
62
2
6
CENTER
290
1
370
-3
390
0
0
LAYER
5
177
100
AcDbSymbolTableRecord
100
AcDbLayerTableRecord
2
SK6
70
0
62
5
6
CONTINUOUS
290
1
370
-3
390
0
0
LAYER
5
178
100
AcDbSymbolTableRecord
100
AcDbLayerTableRecord
2
SK2
70
0
62
7
6
CONTINUOUS
290
1
370
-3
390
0
0
ENDTAB
0
TABLE
2
STYLE
5
18c
100
AcDbSymbolTable
0
STYLE
5
11
100
AcDbSymbolTableRecord
100
AcDbTextStyleTableRecord
2
Standard
3
txt
70
0
71
0
40
0
41
1
42
0
50
0
0
STYLE
5
D9
100
AcDbSymbolTableRecord
100
AcDbTextStyleTableRecord
2
iso_b_vert
3
simplex.shx
70
0
71
0
40
0
41
1
42
0
50
0
0
STYLE
5
DA
100
AcDbSymbolTableRecord
100
AcDbTextStyleTableRecord
2
DWGDirectTextStyle
3
simplex
70
0
71
0
40
0
41
1
42
0
50
0
0
ENDTAB
0
TABLE
2
DIMSTYLE
5
18d
100
AcDbSymbolTable
100
AcDbDimStyleTable
0
DIMSTYLE
105
27
100
AcDbSymbolTableRecord
100
AcDbDimStyleTableRecord
2
Standard
70
0
3
<>
41
0.18
42
0.0625
44
0.18
140
0.18
147
0.09
73
0
74
0
77
1
271
2
275
0
278
52
280
0
340
11
0
ENDTAB
0
TABLE
2
VIEW
5
18e
100
AcDbSymbolTable
0
ENDTAB
0
TABLE
2
UCS
5
18f
100
AcDbSymbolTable
0
ENDTAB
0
TABLE
2
APPID
5
190
100
AcDbSymbolTable
0
APPID
5
12
100
AcDbSymbolTableRecord
100
AcDbRegAppTableRecord
2
ACAD
70
0
0
ENDTAB
0
TABLE
2
BLOCK_RECORD
5
191
100
AcDbSymbolTable
0
BLOCK_RECORD
5
1F
100
AcDbSymbolTableRecord
100
AcDbBlockTableRecord
2
*Model_Space
340
0
70
0
0
BLOCK_RECORD
5
1B
100
AcDbSymbolTableRecord
100
AcDbBlockTableRecord
2
*Paper_Space
340
0
70
0
0
BLOCK_RECORD
5
23
100
AcDbSymbolTableRecord
100
AcDbBlockTableRecord
2
*Paper_Space0
340
0
70
0
0
BLOCK_RECORD
5
DC
100
AcDbSymbolTableRecord
100
AcDbBlockTableRecord
2
DimnDraft3D1
340
0
70
0
0
BLOCK_RECORD
5
E7
100
AcDbSymbolTableRecord
100
AcDbBlockTableRecord
2
DimnDraft3D2
340
0
70
0
0
BLOCK_RECORD
5
F1
100
AcDbSymbolTableRecord
100
AcDbBlockTableRecord
2
DimnDraft3D3
340
0
70
0
0
BLOCK_RECORD
5
FC
100
AcDbSymbolTableRecord
100
AcDbBlockTableRecord
2
DimnDraft3D4
340
0
70
0
0
BLOCK_RECORD
5
106
100
AcDbSymbolTableRecord
100
AcDbBlockTableRecord
2
DimnDraft3D5
340
0
70
0
0
BLOCK_RECORD
5
111
100
AcDbSymbolTableRecord
100
AcDbBlockTableRecord
2
DimnDraft3D6
340
0
70
0
0
ENDTAB
0
ENDSEC
0
SECTION
2
BLOCKS
0
BLOCK
5
20
100
AcDbEntity
8
0
100
AcDbBlockBegin
2
*Model_Space
70
0
10
0
20
0
30
0
3
*Model_Space
0
ENDBLK
5
21
100
AcDbEntity
8
0
100
AcDbBlockEnd
0
BLOCK
5
1C
100
AcDbEntity
8
0
100
AcDbBlockBegin
2
*Paper_Space
70
0
10
0
20
0
30
0
3
*Paper_Space
0
ENDBLK
5
1D
100
AcDbEntity
8
0
100
AcDbBlockEnd
0
BLOCK
5
24
100
AcDbEntity
8
0
100
AcDbBlockBegin
2
*Paper_Space0
70
0
10
0
20
0
30
0
3
*Paper_Space0
0
ENDBLK
5
25
100
AcDbEntity
8
0
100
AcDbBlockEnd
0
BLOCK
5
E4
100
AcDbEntity
8
0
100
AcDbBlockBegin
2
DimnDraft3D1
70
0
10
0
20
0
30
0
3
DimnDraft3D1
0
MTEXT
5
DD
100
AcDbEntity
8
SK2
62
256
6
ByLayer
370
18
48
1
60
0
100
AcDbMText
10
8.830263
20
27.475
30
0
210
0
220
0
230
1
1
\W0.6740;20
40
3.5
41
0
44
1.084337
50
0
71
7
72
5
7
iso_b_vert
0
LINE
5
DF
100
AcDbEntity
8
SK2
62
256
6
ByLayer
370
13
48
1
60
0
100
AcDbLine
10
0
20
21.5875
30
0
11
0
21
28.6
31
0
39
0
210
0
220
0
230
1
0
LINE
5
E0
100
AcDbEntity
8
SK2
62
256
6
ByLayer
370
13
48
1
60
0
100
AcDbLine
10
20
20
21.5875
30
0
11
20
21
28.6
31
0
39
0
210
0
220
0
230
1
0
LINE
5
E1
100
AcDbEntity
8
SK2
62
256
6
ByLayer
370
13
48
1
60
0
100
AcDbLine
10
0
20
26.6
30
0
11
20
21
26.6
31
0
39
0
210
0
220
0
230
1
0
SOLID
5
E2
100
AcDbEntity
8
SK2
62
256
6
ByLayer
370
13
48
1
60
0
100
AcDbTrace
10
0
20
26.6
30
0
11
3.499998
21
27.060784
31
0
12
3.500002
22
26.139216
32
0
13
0
23
26.6
33
0
39
0
210
0
220
0
230
1
0
SOLID
5
E3
100
AcDbEntity
8
SK2
62
256
6
ByLayer
370
13
48
1
60
0
100
AcDbTrace
10
20
20
26.6
30
0
11
16.500002
21
26.139216
31
0
12
16.499998
22
27.060784
32
0
13
20
23
26.6
33
0
39
0
210
0
220
0
230
1
0
ENDBLK
5
E5
100
AcDbEntity
8
0
100
AcDbBlockEnd
0
BLOCK
5
EE
100
AcDbEntity
8
0
100
AcDbBlockBegin
2
DimnDraft3D2
70
0
10
0
20
0
30
0
3
DimnDraft3D2
0
MTEXT
5
E8
100
AcDbEntity
8
SK2
62
256
6
ByLayer
370
18
48
1
60
0
100
AcDbMText
10
69.101316
20
37.475
30
0
210
0
220
0
230
1
1
\W0.7150;95,7
40
3.5
41
0
44
1.084337
50
0
71
7
72
5
7
iso_b_vert
0
LINE
5
E9
100
AcDbEntity
8
SK2
62
256
6
ByLayer
370
13
48
1
60
0
100
AcDbLine
10
120
20
17.5875
30
0
11
120
21
38.6
31
0
39
0
210
0
220
0
230
1
0
LINE
5
EA
100
AcDbEntity
8
SK2
62
256
6
ByLayer
370
13
48
1
60
0
100
AcDbLine
10
24.3
20
17.5875
30
0
11
24.3
21
38.6
31
0
39
0
210
0
220
0
230
1
0
LINE
5
EB
100
AcDbEntity
8
SK2
62
256
6
ByLayer
370
13
48
1
60
0
100
AcDbLine
10
120
20
36.6
30
0
11
24.3
21
36.6
31
0
39
0
210
0
220
0
230
1
0
SOLID
5
EC
100
AcDbEntity
8
SK2
62
256
6
ByLayer
370
13
48
1
60
0
100
AcDbTrace
10
120
20
36.6
30
0
11
116.500002
21
36.139216
31
0
12
116.499998
22
37.060784
32
0
13
120
23
36.6
33
0
39
0
210
0
220
0
230
1
0
SOLID
5
ED
100
AcDbEntity
8
SK2
62
256
6
ByLayer
370
13
48
1
60
0
100
AcDbTrace
10
24.3
20
36.6
30
0
11
27.799998
21
37.060784
31
0
12
27.800002
22
36.139216
32
0
13
24.3
23
36.6
33
0
39
0
210
0
220
0
230
1
0
ENDBLK
5
EF
100
AcDbEntity
8
0
100
AcDbBlockEnd
0
BLOCK
5
F9
100
AcDbEntity
8
0
100
AcDbBlockBegin
2
DimnDraft3D3
70
0
10
0
20
0
30
0
3
DimnDraft3D3
0
MTEXT
5
F2
100
AcDbEntity
8
2
62
256
6
ByLayer
370
18
48
1
60
0
100
AcDbMText
10
57.982895
20
47.475
30
0
210
0
220
0
230
1
1
\W0.6217;120
40
3.5
41
0
44
1.084337
50
0
71
7
72
5
7
iso_b_vert
0
LINE
5
F4
100
AcDbEntity
8
2
62
256
6
ByLayer
370
13
48
1
60
0
100
AcDbLine
10
120
20
17.5875
30
0
11
120
21
48.6
31
0
39
0
210
0
220
0
230
1
0
LINE
5
F5
100
AcDbEntity
8
2
62
256
6
ByLayer
370
13
48
1
60
0
100
AcDbLine
10
0
20
21.5875
30
0
11
0
21
48.6
31
0
39
0
210
0
220
0
230
1
0
LINE
5
F6
100
AcDbEntity
8
2
62
256
6
ByLayer
370
13
48
1
60
0
100
AcDbLine
10
120
20
46.6
30
0
11
0
21
46.6
31
0
39
0
210
0
220
0
230
1
0
SOLID
5
F7
100
AcDbEntity
8
2
62
256
6
ByLayer
370
13
48
1
60
0
100
AcDbTrace
10
120
20
46.6
30
0
11
116.500002
21
46.139216
31
0
12
116.499998
22
47.060784
32
0
13
120
23
46.6
33
0
39
0
210
0
220
0
230
1
0
SOLID
5
F8
100
AcDbEntity
8
2
62
256
6
ByLayer
370
13
48
1
60
0
100
AcDbTrace
10
0
20
46.6
30
0
11
3.499998
21
47.060784
31
0
12
3.500002
22
46.139216
32
0
13
0
23
46.6
33
0
39
0
210
0
220
0
230
1
0
ENDBLK
5
FA
100
AcDbEntity
8
0
100
AcDbBlockEnd
0
BLOCK
5
103
100
AcDbEntity
8
0
100
AcDbBlockBegin
2
DimnDraft3D4
70
0
10
0
20
0
30
0
3
DimnDraft3D4
0
MTEXT
5
FD
100
AcDbEntity
8
SK2
62
256
6
ByLayer
370
18
48
1
60
0
100
AcDbMText
10
-13.4
20
47.475
30
0
210
0
220
0
230
1
1
\W0.7167;24
40
3.5
41
0
44
1.084337
50
0
71
7
72
5
7
iso_b_vert
0
LINE
5
FE
100
AcDbEntity
8
SK2
62
256
6
ByLayer
370
13
48
1
60
0
100
AcDbLine
10
-24
20
15.5875
30
0
11
-24
21
48.6
31
0
39
0
210
0
220
0
230
1
0
LINE
5
FF
100
AcDbEntity
8
SK2
62
256
6
ByLayer
370
13
48
1
60
0
100
AcDbLine
10
0
20
21.5875
30
0
11
0
21
48.6
31
0
39
0
210
0
220
0
230
1
0
LINE
5
100
100
AcDbEntity
8
SK2
62
256
6
ByLayer
370
13
48
1
60
0
100
AcDbLine
10
-24
20
46.6
30
0
11
0
21
46.6
31
0
39
0
210
0
220
0
230
1
0
SOLID
5
101
100
AcDbEntity
8
SK2
62
256
6
ByLayer
370
13
48
1
60
0
100
AcDbTrace
10
-24
20
46.6
30
0
11
-20.500002
21
47.060784
31
0
12
-20.499998
22
46.139216
32
0
13
-24
23
46.6
33
0
39
0
210
0
220
0
230
1
0
SOLID
5
102
100
AcDbEntity
8
SK2
62
256
6
ByLayer
370
13
48
1
60
0
100
AcDbTrace
10
0
20
46.6
30
0
11
-3.499998
21
46.139216
31
0
12
-3.500002
22
47.060784
32
0
13
0
23
46.6
33
0
39
0
210
0
220
0
230
1
0
ENDBLK
5
104
100
AcDbEntity
8
0
100
AcDbBlockEnd
0
BLOCK
5
10E
100
AcDbEntity
8
0
100
AcDbBlockBegin
2
DimnDraft3D5
70
0
10
0
20
0
30
0
3
DimnDraft3D5
0
MTEXT
5
107
100
AcDbEntity
8
SK2
62
256
6
ByLayer
370
18
48
1
60
0
100
AcDbMText
10
-47.35
20
2.146053
30
0
210
0
220
0
230
1
1
\W0.7361;40
40
3.5
41
0
44
1.084337
50
90
71
7
72
5
7
iso_b_vert
0
MTEXT
5
108
100
AcDbEntity
8
SK2
62
256
6
ByLayer
370
18
48
1
60
0
100
AcDbMText
10
-47.35
20
-3.076604
30
0
210
0
220
0
230
1
1
%%c
40
3.5
41
0
44
1.084337
50
90
71
7
72
5
7
iso_b_vert
0
LINE
5
109
100
AcDbEntity
8
SK2
62
256
6
ByLayer
370
13
48
1
60
0
100
AcDbLine
10
-1.5875
20
20
30
0
11
-47.6
21
20
31
0
39
0
210
0
220
0
230
1
0
LINE
5
10A
100
AcDbEntity
8
SK2
62
256
6
ByLayer
370
13
48
1
60
0
100
AcDbLine
10
-1.5875
20
-20
30
0
11
-47.6
21
-20
31
0
39
0
210
0
220
0
230
1
0
LINE
5
10B
100
AcDbEntity
8
SK2
62
256
6
ByLayer
370
13
48
1
60
0
100
AcDbLine
10
-45.6
20
20
30
0
11
-45.6
21
-20
31
0
39
0
210
0
220
0
230
1
0
SOLID
5
10C
100
AcDbEntity
8
SK2
62
256
6
ByLayer
370
13
48
1
60
0
100
AcDbTrace
10
-45.6
20
20
30
0
11
-45.139216
21
16.500002
31
0
12
-46.060784
22
16.499998
32
0
13
-45.6
23
20
33
0
39
0
210
0
220
0
230
1
0
SOLID
5
10D
100
AcDbEntity
8
SK2
62
256
6
ByLayer
370
13
48
1
60
0
100
AcDbTrace
10
-45.6
20
-20
30
0
11
-46.060784
21
-16.500002
31
0
12
-45.139216
22
-16.499998
32
0
13
-45.6
23
-20
33
0
39
0
210
0
220
0
230
1
0
ENDBLK
5
10F
100
AcDbEntity
8
0
100
AcDbBlockEnd
0
BLOCK
5
119
100
AcDbEntity
8
0
100
AcDbBlockBegin
2
DimnDraft3D6
70
0
10
0
20
0
30
0
3
DimnDraft3D6
0
MTEXT
5
112
100
AcDbEntity
8
SK2
62
256
6
ByLayer
370
18
48
1
60
0
100
AcDbMText
10
143.35
20
2.330263
30
0
210
0
220
0
230
1
1
\W0.6740;32
40
3.5
41
0
44
1.084337
50
90
71
7
72
5
7
iso_b_vert
0
MTEXT
5
113
100
AcDbEntity
8
SK2
62
256
6
ByLayer
370
18
48
1
60
0
100
AcDbMText
10
143.35
20
-2.892393
30
0
210
0
220
0
230
1
1
%%c
40
3.5
41
0
44
1.084337
50
90
71
7
72
5
7
iso_b_vert
0
LINE
5
114
100
AcDbEntity
8
SK2
62
256
6
ByLayer
370
13
48
1
60
0
100
AcDbLine
10
121.5875
20
16
30
0
11
147.1
21
16
31
0
39
0
210
0
220
0
230
1
0
LINE
5
115
100
AcDbEntity
8
SK2
62
256
6
ByLayer
370
13
48
1
60
0
100
AcDbLine
10
121.5875
20
-16
30
0
11
147.1
21
-16
31
0
39
0
210
0
220
0
230
1
0
LINE
5
116
100
AcDbEntity
8
SK2
62
256
6
ByLayer
370
13
48
1
60
0
100
AcDbLine
10
145.1
20
16
30
0
11
145.1
21
-16
31
0
39
0
210
0
220
0
230
1
0
SOLID
5
117
100
AcDbEntity
8
SK2
62
256
6
ByLayer
370
13
48
1
60
0
100
AcDbTrace
10
145.1
20
16
30
0
11
145.560784
21
12.500002
31
0
12
144.639216
22
12.499998
32
0
13
145.1
23
16
33
0
39
0
210
0
220
0
230
1
0
SOLID
5
118
100
AcDbEntity
8
SK2
62
256
6
ByLayer
370
13
48
1
60
0
100
AcDbTrace
10
145.1
20
-16
30
0
11
144.639216
21
-12.500002
31
0
12
145.560784
22
-12.499998
32
0
13
145.1
23
-16
33
0
39
0
210
0
220
0
230
1
0
ENDBLK
5
11A
100
AcDbEntity
8
0
100
AcDbBlockEnd
0
ENDSEC
0
SECTION
2
ENTITIES
0
ARC
5
A7
100
AcDbEntity
8
1
62
256
6
ByLayer
370
18
48
1
60
0
100
AcDbCircle
39
0
10
20.197464
20
-19.2
30
0
40
0.8
210
0
220
0
230
1
100
AcDbArc
50
270
51
343.971938
0
ARC
5
A8
100
AcDbEntity
8
1
62
256
6
ByLayer
370
18
48
1
60
0
100
AcDbCircle
39
0
10
20.197464
20
19.2
30
0
40
0.8
210
0
220
0
230
1
100
AcDbArc
50
16.028062
51
90
0
ARC
5
A9
100
AcDbEntity
8
1
62
256
6
ByLayer
370
18
48
1
60
0
100
AcDbCircle
39
0
10
-24.3
20
-19.121337
30
0
40
3.12133704684664
210
6.12303176911189E-17
220
0
230
-1
100
AcDbArc
50
16.028062
51
90
0
ARC
5
AA
100
AcDbEntity
8
1
62
256
6
ByLayer
370
18
48
1
60
0
100
AcDbCircle
39
0
10
-24.3
20
19.121337
30
0
40
3.12133704684664
210
6.12303176911189E-17
220
0
230
-1
100
AcDbArc
50
270
51
343.971938
0
ARC
5
AB
100
AcDbEntity
8
SK1
62
256
6
ByLayer
370
18
48
1
60
0
100
AcDbCircle
39
0
10
0.6
20
-15
30
0
40
0.999999999999989
210
6.12303176911189E-17
220
0
230
-1
100
AcDbArc
50
113.578178
51
126.869898
0
ARC
5
AC
100
AcDbEntity
8
SK1
62
256
6
ByLayer
370
18
48
1
60
0
100
AcDbCircle
39
0
10
0.6
20
15
30
0
40
0.999999999999989
210
6.12303176911189E-17
220
0
230
-1
100
AcDbArc
50
233.130102
51
246.421822
0
ELLIPSE
5
AD
100
AcDbEntity
8
1
62
256
6
ByLayer
370
18
48
1
60
0
100
AcDbEllipse
10
-0.948929
20
0
30
0
11
9.36741787978276
21
19.7417491527511
31
0
210
0
220
0
230
-1
40
0.341999
41
0.152726244898341
42
1.09631952749986
0
ELLIPSE
5
AE
100
AcDbEntity
8
1
62
256
6
ByLayer
370
18
48
1
60
0
100
AcDbEllipse
10
16.948929
20
0
30
0
11
9.36741787978279
21
-19.7417491527511
31
0
210
0
220
0
230
-1
40
0.341999
41
2.04527312608993
42
2.98886640869145
0
ELLIPSE
5
AF
100
AcDbEntity
8
1
62
256
6
ByLayer
370
18
48
1
60
0
100
AcDbEllipse
10
-0.948929
20
0
30
0
11
9.36741787978275
21
-19.7417491527511
31
0
210
0
220
0
230
-1
40
0.341999
41
-1.09631952749986
42
-0.152726244898338
0
ELLIPSE
5
B0
100
AcDbEntity
8
1
62
256
6
ByLayer
370
18
48
1
60
0
100
AcDbEllipse
10
16.948929
20
0
30
0
11
9.36741787978237
21
19.7417491527507
31
0
210
0
220
0
230
-1
40
0.341999
41
-2.98886640869145
42
-2.04527312608991
0
POINT
5
6C
100
AcDbEntity
8
81
62
256
6
ByLayer
370
18
48
1
60
0
100
AcDbPoint
10
120
20
0
30
0
39
0
210
0
220
0
230
1
50
360
0
POINT
5
6E
100
AcDbEntity
8
80
62
256
6
ByLayer
370
18
48
1
60
0
100
AcDbPoint
10
0
20
0
30
0
39
0
210
0
220
0
230
1
50
360
0
POINT
5
70
100
AcDbEntity
8
1
62
256
6
ByLayer
370
18
48
1
60
0
100
AcDbPoint
10
0
20
0
30
0
39
0
210
0
220
0
230
1
50
360
0
SPLINE
5
B1
100
AcDbEntity
8
SK1
62
256
6
ByLayer
370
18
48
1
60
0
100
AcDbSpline
70
4
71
2
72
6
73
3
40
0
40
0
40
0
40
1
40
1
40
1
41
1
10
-22.5
20
-13.4933966698402
30
0
41
1
10
-12.0999999999449
20
-13.7545973909208
30
1E-16
41
1
10
-1.69999999999999
20
-14.0157977997179
30
-1E-16
0
SPLINE
5
B2
100
AcDbEntity
8
SK1
62
256
6
ByLayer
370
18
48
1
60
0
100
AcDbSpline
70
4
71
2
72
6
73
3
40
0
40
0
40
0
40
1
40
1
40
1
41
1
10
-1.69999999999999
20
14.0157970602974
30
-1E-16
41
1
10
-12.099999999963
20
13.7545958471854
30
1E-16
41
1
10
-22.5
20
13.493394380475
30
0
0
SPLINE
5
B3
100
AcDbEntity
8
SK1
62
256
6
ByLayer
370
18
48
1
60
0
100
AcDbSpline
70
4
71
2
72
6
73
3
40
0
40
0
40
0
40
1
40
1
40
1
41
1
10
-0.394976888875277
20
13.740379899128
30
0
41
1
10
-0.945008433407281
20
13.7266611372792
30
1E-16
41
1
10
-1.49503997793931
20
13.7129423752897
30
0
0
SPLINE
5
B4
100
AcDbEntity
8
SK1
62
256
6
ByLayer
370
18
48
1
60
0
100
AcDbSpline
70
4
71
3
72
13
73
9
40
0
40
0
40
0
40
0
40
0.239456136997433
40
0.368359723417169
40
0.499998985516722
40
0.631638416576575
40
0.760542468702432
40
1
40
1
40
1
40
1
41
1
10
-1.69999999999999
20
-14.0200984156386
30
-1E-16
41
1
10
-1.6990919864528
20
-13.9940409390257
30
-1E-16
41
1
10
-1.69103284110332
20
-13.9566683539303
30
-1E-16
41
1
10
-1.66563592205637
20
-13.9104491790265
30
-1E-16
41
1
10
-1.63886378681673
20
-13.8791676243503
30
-1E-16
41
1
10
-1.60627712752265
20
-13.8540002532836
30
-1E-16
41
1
10
-1.5588406423667
20
-13.830956449625
30
-1E-16
41
1
10
-1.52111030874428
20
-13.8247841935567
30
-1E-16
41
1
10
-1.49503997793928
20
-13.8251858327438
30
-1E-16
0
SPLINE
5
B5
100
AcDbEntity
8
SK1
62
256
6
ByLayer
370
18
48
1
60
0
100
AcDbSpline
70
4
71
3
72
13
73
9
40
0
40
0
40
0
40
0
40
0.239457531275251
40
0.368361583394583
40
0.500001014452591
40
0.631640276555281
40
0.760543862982291
40
1
40
1
40
1
40
1
41
1
10
-1.49503997793931
20
13.8251858293361
30
-1E-16
41
1
10
-1.52111030874494
20
13.8247841901529
30
-1E-16
41
1
10
-1.55884064236801
20
13.8309564462263
30
-1E-16
41
1
10
-1.60627712752338
20
13.8540002498916
30
-1E-16
41
1
10
-1.63886378681733
20
13.8791676209636
30
-1E-16
41
1
10
-1.66563592205679
20
13.9104491756452
30
-1E-16
41
1
10
-1.69103284110358
20
13.9566683505561
30
-1E-16
41
1
10
-1.69909198645308
20
13.9940409356568
30
-1E-16
41
1
10
-1.69999999999999
20
14.0200984122732
30
-1E-16
0
SPLINE
5
B6
100
AcDbEntity
8
SK1
62
256
6
ByLayer
370
18
48
1
60
0
100
AcDbSpline
70
4
71
2
72
6
73
3
40
0
40
0
40
0
40
1
40
1
40
1
41
1
10
-1.49503997793931
20
-13.7129410868414
30
0
41
1
10
-0.945008433407281
20
-13.7266599565278
30
1E-16
41
1
10
-0.394976888875277
20
-13.7403788260776
30
0
0
SPLINE
5
B7
100
AcDbEntity
8
SK1
62
256
6
ByLayer
370
18
48
1
60
0
100
AcDbSpline
70
4
71
2
72
6
73
3
40
0
40
0
40
0
40
1
40
1
40
1
41
1
10
-22.5
20
13.4970852847173
30
0
41
1
10
-23.2499999989318
20
13.0640908004416
30
-1E-16
41
1
10
-24
20
12.6310961283886
30
-1E-16
0
SPLINE
5
B8
100
AcDbEntity
8
SK1
62
256
6
ByLayer
370
18
48
1
60
0
100
AcDbSpline
70
4
71
2
72
6
73
3
40
0
40
0
40
0
40
1
40
1
40
1
41
1
10
-24
20
-12.6310964932104
30
-1E-16
41
1
10
-23.2499999989322
20
-13.0640911753538
30
-1E-16
41
1
10
-22.5
20
-13.4970856697526
30
0
0
SPLINE
5
B9
100
AcDbEntity
8
SK1
62
256
6
ByLayer
370
18
48
1
60
0
100
AcDbSpline
70
4
71
3
72
24
73
20
40
0
40
0
40
0
40
0
40
0.0312499999999984
40
0.0312499999999984
40
0.0624999999999968
40
0.0624999999999968
40
0.0937499999999953
40
0.0937499999999953
40
0.124999999999994
40
0.124999999999994
40
0.187499999999993
40
0.187499999999993
40
0.249999999999992
40
0.249999999999992
40
0.499999999999995
40
0.499999999999995
40
0.749999999999997
40
0.749999999999997
40
1
40
1
40
1
40
1
41
1
10
-0.394976888875306
20
5.0009244140283
30
0
41
1
10
-0.388468642918042
20
4.99568280562602
30
0
41
1
10
-0.381324616905118
20
4.99114019130744
30
0
41
1
10
-0.365549432031344
20
4.98518739058179
30
0
41
1
10
-0.356796835456947
20
4.98390560483418
30
0
41
1
10
-0.339435615628759
20
4.98662575165025
30
0
41
1
10
-0.330979825277922
20
4.99064303829886
30
0
41
1
10
-0.3164581544562
20
5.00137749301302
30
0
41
1
10
-0.310232936208706
20
5.00796421336076
30
0
41
1
10
-0.293637908337416
20
5.02913452505234
30
0
41
1
10
-0.285356392442338
20
5.04485242604298
30
0
41
1
10
-0.271048262620525
20
5.07695293962871
30
0
41
1
10
-0.265213301889332
20
5.09323765336515
30
0
41
1
10
-0.239456434884602
20
5.1752242143364
30
0
41
1
10
-0.22870667716569
20
5.24267174957393
30
0
41
1
10
-0.212355887615757
20
5.37559968949614
30
0
41
1
10
-0.207496565642373
20
5.4416159420669
30
0
41
1
10
-0.201274525264836
20
5.57292339447542
30
0
41
1
10
-0.200000000000017
20
5.6382112900726
30
0
41
1
10
-0.200000000000017
20
5.70317614351302
30
0
0
SPLINE
5
BA
100
AcDbEntity
8
SK1
62
256
6
ByLayer
370
18
48
1
60
0
100
AcDbSpline
70
4
71
3
72
118
73
114
40
0
40
0
40
0
40
0
40
0.0053555820682075
40
0.0131272218666497
40
0.0208988616650919
40
0.0286705014635341
40
0.0364421412619764
40
0.0442137810604186
40
0.0519854208588608
40
0.059757060657303
40
0.0675287004557452
40
0.0753003402541874
40
0.0830719800526296
40
0.0908436198510718
40
0.098615259649514
40
0.106386899447956
40
0.114158539246398
40
0.121930179044841
40
0.129701818843283
40
0.137473458641725
40
0.145245098440167
40
0.153016738238609
40
0.160788378037052
40
0.176331657633936
40
0.19187493723082
40
0.207418216827705
40
0.222961496424589
40
0.230733136223031
40
0.238504776021474
40
0.246276415819916
40
0.254048055618358
40
0.269591335215242
40
0.285134614812127
40
0.292906254610569
40
0.300677894409011
40
0.308449534207454
40
0.316221174005896
40
0.323992813804338
40
0.33176445360278
40
0.347307733199665
40
0.355079372998107
40
0.362851012796549
40
0.378394292393433
40
0.393937571990318
40
0.40170921178876
40
0.409480851587202
40
0.425024131184087
40
0.432795770982529
40
0.43668159088175
40
0.440567410780971
40
0.448339050579413
40
0.456110690377855
40
0.47165396997474
40
0.479425609773182
40
0.487197249571624
40
0.494968889370066
40
0.502740529168509
40
0.510512168966951
40
0.518283808765393
40
0.526055448563835
40
0.533827088362277
40
0.54159872816072
40
0.549370367959162
40
0.564913647556046
40
0.572685287354489
40
0.580456927152931
40
0.588228566951373
40
0.592114386850594
40
0.596000206749815
40
0.603771846548257
40
0.6115434863467
40
0.619315126145142
40
0.627086765943584
40
0.634858405742026
40
0.642630045540468
40
0.658173325137353
40
0.673716604734237
40
0.681488244532679
40
0.689259884331122
40
0.704803163928006
40
0.712574803726448
40
0.72034644352489
40
0.728118083323333
40
0.735889723121775
40
0.743661362920217
40
0.751433002718659
40
0.759204642517101
40
0.766976282315544
40
0.782519561912428
40
0.79029120171087
40
0.798062841509312
40
0.805834481307755
40
0.813606121106197
40
0.821377760904639
40
0.829149400703081
40
0.844692680299966
40
0.852464320098408
40
0.86023595989685
40
0.868007599695292
40
0.875779239493734
40
0.891322519090619
40
0.906865798687503
40
0.922409078284388
40
0.93018071808283
40
0.937952357881272
40
0.945723997679714
40
0.953495637478156
40
0.961267277276599
40
0.969038917075041
40
0.976810556873483
40
0.984582196671925
40
0.992353836470368
40
1
40
1
40
1
40
1
41
1
10
-1.69999999999999
20
2.58372509632824
30
-1E-16
41
1
10
-1.69999999999999
20
2.62111404232408
30
-1E-16
41
1
10
-1.69999999999999
20
2.71257747642741
30
-1E-16
41
1
10
-1.69999999999999
20
2.85743846779499
30
-1E-16
41
1
10
-1.69999999999999
20
3.01805527431182
30
-1E-16
41
1
10
-1.69999999999999
20
3.17766893265431
30
-1E-16
41
1
10
-1.69999999999999
20
3.33626943234705
30
-1E-16
41
1
10
-1.69999999999999
20
3.49384789900154
30
-1E-16
41
1
10
-1.69999999999999
20
3.65039714326571
30
-1E-16
41
1
10
-1.69999999999999
20
3.80591077742719
30
-1E-16
41
1
10
-1.69999999999999
20
3.96038358832212
30
-1E-16
41
1
10
-1.69999999999999
20
4.11381092681606
30
-1E-16
41
1
10
-1.69999999999999
20
4.26618872973953
30
-1E-16
41
1
10
-1.69999999999999
20
4.41751381174834
30
-1E-16
41
1
10
-1.69999999999999
20
4.56778337246482
30
-1E-16
41
1
10
-1.69999999999999
20
4.71699468615466
30
-1E-16
41
1
10
-1.69999999999999
20
4.86514556778678
30
-1E-16
41
1
10
-1.69999999999999
20
5.01223405348068
30
-1E-16
41
1
10
-1.69999999999999
20
5.15825857839869
30
-1E-16
41
1
10
-1.69999999999999
20
5.30321729486519
30
-1E-16
41
1
10
-1.69999999999999
20
5.44710899667646
30
-1E-16
41
1
10
-1.69999999999999
20
5.58993216915877
30
-1E-16
41
1
10
-1.69999999999999
20
5.77892152059965
30
-1E-16
41
1
10
-1.69999999999999
20
6.01251447744062
30
-1E-16
41
1
10
-1.69999999999999
20
6.28851700104784
30
-1E-16
41
1
10
-1.69999999999999
20
6.56021848903171
30
-1E-16
41
1
10
-1.69999999999999
20
6.7830583657493
30
-1E-16
41
1
10
-1.69999999999999
20
6.95914717066265
30
-1E-16
41
1
10
-1.69999999999999
20
7.09014226669851
30
-1E-16
41
1
10
-1.69999999999999
20
7.22005470774221
30
-1E-16
41
1
10
-1.69999999999999
20
7.39181445781463
30
-1E-16
41
1
10
-1.69999999999999
20
7.60382755625838
30
-1E-16
41
1
10
-1.69999999999999
20
7.81221411547432
30
-1E-16
41
1
10
-1.69999999999999
20
7.9767200242907
30
-1E-16
41
1
10
-1.69999999999999
20
8.09901464495698
30
-1E-16
41
1
10
-1.69999999999999
20
8.22021379775831
30
-1E-16
41
1
10
-1.69999999999999
20
8.34031606829598
30
-1E-16
41
1
10
-1.69999999999999
20
8.45931945344486
30
-1E-16
41
1
10
-1.69999999999999
20
8.61651162008161
30
-1E-16
41
1
10
-1.69999999999999
20
8.77152766795061
30
-1E-16
41
1
10
-1.69999999999999
20
8.92429760284432
30
-1E-16
41
1
10
-1.69999999999999
20
9.07558727703642
30
-1E-16
41
1
10
-1.69999999999999
20
9.26193698423123
30
-1E-16
41
1
10
-1.69999999999999
20
9.44455854729449
30
-1E-16
41
1
10
-1.69999999999999
20
9.58839008121353
30
-1E-16
41
1
10
-1.69999999999999
20
9.73071862052217
30
-1E-16
41
1
10
-1.69999999999999
20
9.87081043657869
30
-1E-16
41
1
10
-1.69999999999999
20
9.9913814320609
30
-1E-16
41
1
10
-1.69999999999999
20
10.0597065749413
30
-1E-16
41
1
10
-1.69999999999999
20
10.1276505623382
30
-1E-16
41
1
10
-1.69999999999999
20
10.2118742799613
30
-1E-16
41
1
10
-1.69999999999999
20
10.3450861470912
30
-1E-16
41
1
10
-1.69999999999999
20
10.4760157679139
30
-1E-16
41
1
10
-1.69999999999999
20
10.6046008465563
30
-1E-16
41
1
10
-1.69999999999999
20
10.6998796425436
30
-1E-16
41
1
10
-1.69999999999999
20
10.7939888359847
30
-1E-16
41
1
10
-1.69999999999999
20
10.8869237783616
30
-1E-16
41
1
10
-1.69999999999999
20
10.9786794422307
30
-1E-16
41
1
10
-1.69999999999999
20
11.0692509372408
30
-1E-16
41
1
10
-1.69999999999999
20
11.1586337603462
30
-1E-16
41
1
10
-1.69999999999999
20
11.2468221792499
30
-1E-16
41
1
10
-1.69999999999999
20
11.3338110499831
30
-1E-16
41
1
10
-1.69999999999999
20
11.448182891669
30
-1E-16
41
1
10
-1.69999999999999
20
11.5601529159528
30
-1E-16
41
1
10
-1.69999999999999
20
11.6696587742526
30
-1E-16
41
1
10
-1.69999999999999
20
11.7505641289662
30
-1E-16
41
1
10
-1.69999999999999
20
11.8169591426362
30
-1E-16
41
1
10
-1.69999999999999
20
11.8694488081267
30
-1E-16
41
1
10
-1.69999999999999
20
11.9215236068653
30
-1E-16
41
1
10
-1.69999999999999
20
11.9858436758677
30
-1E-16
41
1
10
-1.69999999999999
20
12.0617686582407
30
-1E-16
41
1
10
-1.69999999999999
20
12.1364316894724
30
-1E-16
41
1
10
-1.69999999999999
20
12.209824815618
30
-1E-16
41
1
10
-1.69999999999999
20
12.2819406900945
30
-1E-16
41
1
10
-1.69999999999999
20
12.3763763558488
30
-1E-16
41
1
10
-1.69999999999999
20
12.4912006491746
30
-1E-16
41
1
10
-1.69999999999999
20
12.6016598943421
30
-1E-16
41
1
10
-1.69999999999999
20
12.6873624197502
30
-1E-16
41
1
10
-1.69999999999999
20
12.7712834714132
30
-1E-16
41
1
10
-1.69999999999999
20
12.8525264142953
30
-1E-16
41
1
10
-1.69999999999999
20
12.9310230723471
30
-1E-16
41
1
10
-1.69999999999999
20
12.9885220902628
30
-1E-16
41
1
10
-1.69999999999999
20
13.0446338149516
30
-1E-16
41
1
10
-1.69999999999999
20
13.099347414251
30
-1E-16
41
1
10
-1.69999999999999
20
13.1526505121852
30
-1E-16
41
1
10
-1.69999999999999
20
13.2045321061977
30
-1E-16
41
1
10
-1.69999999999999
20
13.254979960848
30
-1E-16
41
1
10
-1.69999999999999
20
13.3203101073726
30
-1E-16
41
1
10
-1.69999999999999
20
13.3827344162836
30
-1E-16
41
1
10
-1.69999999999999
20
13.4421723218484
30
-1E-16
41
1
10
-1.69999999999999
20
13.485252935173
30
-1E-16
41
1
10
-1.69999999999999
20
13.5268172028035
30
-1E-16
41
1
10
-1.69999999999999
20
13.5668499361124
30
-1E-16
41
1
10
-1.69999999999999
20
13.6053355893185
30
0
41
1
10
-1.69999999999999
20
13.6545611373555
30
0
41
1
10
-1.69999999999999
20
13.7006353174901
30
0
41
1
10
-1.69999999999999
20
13.7434660879001
30
0
41
1
10
-1.69999999999999
20
13.773955994413
30
0
41
1
10
-1.69999999999999
20
13.8027899045868
30
0
41
1
10
-1.69999999999999
20
13.838998019961
30
0
41
1
10
-1.69999999999999
20
13.8800204120324
30
0
41
1
10
-1.69999999999999
20
13.9222750232465
30
0
41
1
10
-1.69999999999999
20
13.9515178138587
30
-1E-16
41
1
10
-1.69999999999999
20
13.9712195253815
30
-1E-16
41
1
10
-1.69999999999999
20
13.9841239086368
30
-1E-16
41
1
10
-1.69999999999999
20
13.9951252442004
30
-1E-16
41
1
10
-1.69999999999999
20
14.0041925984504
30
-1E-16
41
1
10
-1.69999999999999
20
14.0112928179987
30
-1E-16
41
1
10
-1.69999999999999
20
14.0163929237538
30
-1E-16
41
1
10
-1.69999999999999
20
14.0194577493028
30
-1E-16
41
1
10
-1.69999999999999
20
14.0204498319149
30
-1E-16
41
1
10
-1.69999999999999
20
14.0193350222524
30
-1E-16
41
1
10
-1.69999999999999
20
14.0171808698773
30
-1E-16
41
1
10
-1.69999999999999
20
14.0157582214348
30
-1E-16
0
SPLINE
5
BB
100
AcDbEntity
8
SK1
62
256
6
ByLayer
370
18
48
1
60
0
100
AcDbSpline
70
4
71
3
72
20
73
16
40
0
40
0
40
0
40
0
40
0.25
40
0.25
40
0.375
40
0.375
40
0.4375
40
0.4375
40
0.5
40
0.5
40
0.75
40
0.75
40
0.875
40
0.875
40
1
40
1
40
1
40
1
41
1
10
-1.69999999999999
20
2.58372509632827
30
-1E-16
41
1
10
-1.76611131230573
20
2.1677900704272
30
-1E-16
41
1
10
-1.82315204782353
20
1.7456396640369
30
-1E-16
41
1
10
-1.88431819816691
20
1.09996691447762
30
-1E-16
41
1
10
-1.90058047077932
20
0.882646870115963
30
-1E-16
41
1
10
-1.91721350759224
20
0.553023201537258
30
-1E-16
41
1
10
-1.92146378406954
20
0.44254080202569
30
-1E-16
41
1
10
-1.92715977707795
20
0.22028513564868
30
-1E-16
41
1
10
-1.9285879277983
20
0.108677548680873
30
-1E-16
41
1
10
-1.92849632274923
20
-0.445359331572661
30
-1E-16
41
1
10
-1.9049294433963
20
-0.881328490160797
30
-1E-16
41
1
10
-1.84396151081336
20
-1.52649956093117
30
-1E-16
41
1
10
-1.81946627012519
20
-1.74010817855643
30
-1E-16
41
1
10
-1.76401082902217
20
-2.16479512178211
30
-1E-16
41
1
10
-1.73306081558337
20
-2.37572486620761
30
-1E-16
41
1
10
-1.69999999999999
20
-2.5837250319525
30
-1E-16
0
SPLINE
5
BC
100
AcDbEntity
8
SK1
62
256
6
ByLayer
370
18
48
1
60
0
100
AcDbSpline
70
4
71
3
72
24
73
20
40
0
40
0
40
0
40
0
40
0.0566107962156231
40
0.0566107962156231
40
0.292458097161718
40
0.292458097161718
40
0.528305398107813
40
0.528305398107813
40
0.646229048580859
40
0.646229048580859
40
0.764152699053905
40
0.764152699053905
40
0.823114524290429
40
0.823114524290429
40
0.882076349526953
40
0.882076349526953
40
0.941038174763476
40
0.941038174763476
40
1
40
1
40
1
40
1
41
1
10
-0.21776976682898
20
13.9477750956987
30
0
41
1
10
-0.218661054588523
20
13.9462698749466
30
0
41
1
10
-0.219597534884059
20
13.9447405263238
30
0
41
1
10
-0.224682934304894
20
13.9367111271039
30
0
41
1
10
-0.229617567212529
20
13.9298132257639
30
0
41
1
10
-0.242229439580512
20
13.9149025794458
30
0
41
1
10
-0.249833588846371
20
13.9068988482932
30
0
41
1
10
-0.265207264314398
20
13.8938007843296
30
0
41
1
10
-0.270999147250819
20
13.889246900443
30
0
41
1
10
-0.285075726022143
20
13.879554172366
30
0
41
1
10
-0.293382262191415
20
13.8743360124918
30
0
41
1
10
-0.309973208906342
20
13.8659795391831
30
0
41
1
10
-0.316214208385787
20
13.8631087549699
30
0
41
1
10
-0.330656403377077
20
13.8574219230767
30
0
41
1
10
-0.339105376305639
20
13.8545577585332
30
0
41
1
10
-0.356551358104809
20
13.849859688057
30
0
41
1
10
-0.365376234673562
20
13.848068489605
30
0
41
1
10
-0.381257584369365
20
13.8456585749161
30
0
41
1
10
-0.38843740666357
20
13.844979298583
30
0
41
1
10
-0.394976888882184
20
13.8446015176357
30
0
0
SPLINE
5
BD
100
AcDbEntity
8
SK1
62
256
6
ByLayer
370
18
48
1
60
0
100
AcDbSpline
70
4
71
3
72
16
73
12
40
0
40
0
40
0
40
0
40
0.0175403062111701
40
0.144813520361889
40
0.272086734512609
40
0.399359948663328
40
0.526633162814048
40
0.653906376964767
40
0.781179591115487
40
0.908452805266206
40
1
40
1
40
1
40
1
41
1
10
-0.394976888875277
20
-13.8446019297682
30
0
41
1
10
-0.394976888875277
20
-13.8443373794894
30
0
41
1
10
-0.394976888875277
20
-13.8421014019358
30
0
41
1
10
-0.394976888875277
20
-13.8370980881852
30
0
41
1
10
-0.394976888875277
20
-13.8281307581185
30
0
41
1
10
-0.394976888875277
20
-13.8172491473121
30
0
41
1
10
-0.394976888875277
20
-13.8044829828858
30
0
41
1
10
-0.394976888875277
20
-13.7898613788954
30
0
41
1
10
-0.394976888875277
20
-13.7734119916164
30
0
41
1
10
-0.394976888875249
20
-13.7568686967947
30
0
41
1
10
-0.394976888875306
20
-13.7455342775634
30
0
41
1
10
-0.394976888875277
20
-13.7406399297681
30
0
0
SPLINE
5
BE
100
AcDbEntity
8
SK1
62
256
6
ByLayer
370
13
48
1
60
0
100
AcDbSpline
70
4
71
3
72
92
73
88
40
0
40
0
40
0
40
0
40
0.002813601519327
40
0.0128384823886573
40
0.0328882441273178
40
0.0429131249966481
40
0.0529380058659784
40
0.0629628867353087
40
0.072987767604639
40
0.0930375293432995
40
0.10306241021263
40
0.11308729108196
40
0.12311217195129
40
0.133137052820621
40
0.143161933689951
40
0.153186814559281
40
0.173236576297942
40
0.183261457167272
40
0.193286338036602
40
0.203311218905933
40
0.213336099775263
40
0.223360980644593
40
0.233385861513923
40
0.243410742383254
40
0.253435623252584
40
0.273485384991245
40
0.283510265860575
40
0.293535146729905
40
0.313584908468566
40
0.333634670207226
40
0.343659551076557
40
0.353684431945887
40
0.363709312815217
40
0.373734193684547
40
0.383759074553878
40
0.393783955423208
40
0.398796395857873
40
0.403808836292538
40
0.413833717161869
40
0.423858598031199
40
0.433883478900529
40
0.45393324063919
40
0.46395812150852
40
0.47398300237785
40
0.484007883247181
40
0.494032764116511
40
0.504057644985841
40
0.514082525855171
40
0.524107406724502
40
0.534132287593832
40
0.544157168463162
40
0.554182049332492
40
0.574231811071153
40
0.584256691940483
40
0.594281572809814
40
0.599294013244479
40
0.604306453679144
40
0.614331334548474
40
0.634381096287135
40
0.644405977156465
40
0.654430858025795
40
0.674480619764456
40
0.694530381503116
40
0.704555262372447
40
0.714580143241777
40
0.734629904980438
40
0.744654785849768
40
0.754679666719098
40
0.764704547588428
40
0.774729428457759
40
0.784754309327089
40
0.794779190196419
40
0.81482895193508
40
0.83487871367374
40
0.844903594543071
40
0.854928475412401
40
0.864953356281731
40
0.874978237151062
40
0.895027998889722
40
0.915077760628383
40
0.935127522367043
40
0.955177284105704
40
0.965202164975034
40
0.975227045844364
40
0.985251926713695
40
0.995276807583025
40
1
40
1
40
1
40
1
41
1
10
-0.394976888875277
20
-13.7406390821433
30
0
41
1
10
-0.394976888875277
20
-13.7387293532044
30
0
41
1
10
-0.394976888875277
20
-13.7299093719192
30
0
41
1
10
-0.394976888875277
20
-13.706079968468
30
0
41
1
10
-0.394976888875277
20
-13.6736219491958
30
0
41
1
10
-0.394976888875277
20
-13.6377421279937
30
0
41
1
10
-0.394976888875277
20
-13.6091837809887
30
0
41
1
10
-0.394976888875277
20
-13.5789822078612
30
0
41
1
10
-0.394976888875277
20
-13.5365270011545
30
0
41
1
10
-0.394976888875306
20
-13.490931201485
30
0
41
1
10
-0.394976888875306
20
-13.4421262291561
30
0
41
1
10
-0.394976888875306
20
-13.4039879870964
30
0
41
1
10
-0.394976888875306
20
-13.3643136307331
30
0
41
1
10
-0.394976888875306
20
-13.3231185723383
30
0
41
1
10
-0.394976888875306
20
-13.2804176772461
30
0
41
1
10
-0.394976888875306
20
-13.221467049789
30
0
41
1
10
-0.394976888875306
20
-13.1596507828291
30
0
41
1
10
-0.394976888875306
20
-13.0948461430692
30
0
41
1
10
-0.394976888875306
20
-13.0448282543027
30
0
41
1
10
-0.394976888875306
20
-12.9933861205259
30
0
41
1
10
-0.394976888875306
20
-12.940532100831
30
0
41
1
10
-0.394976888875306
20
-12.8862769625636
30
0
41
1
10
-0.394976888875306
20
-12.8306328883531
30
0
41
1
10
-0.394976888875306
20
-12.773610902979
30
0
41
1
10
-0.394976888875306
20
-12.6957215996061
30
0
41
1
10
-0.394976888875306
20
-12.6152283642396
30
0
41
1
10
-0.394976888875306
20
-12.5319491682166
30
0
41
1
10
-0.394976888875306
20
-12.446899173783
30
0
41
1
10
-0.394976888875306
20
-12.3373769247913
30
0
41
1
10
-0.394976888875306
20
-12.2235215963167
30
0
41
1
10
-0.394976888875306
20
-12.1297946270485
30
0
41
1
10
-0.394976888875306
20
-12.0582544232072
30
0
41
1
10
-0.394976888875306
20
-11.9854459723214
30
0
41
1
10
-0.394976888875306
20
-11.9113764724791
30
0
41
1
10
-0.394976888875306
20
-11.836053984022
30
0
41
1
10
-0.394976888875306
20
-11.7722691819395
30
0
41
1
10
-0.394976888875306
20
-11.7205808983271
30
0
41
1
10
-0.394976888875306
20
-11.6684804460587
30
0
41
1
10
-0.394976888875306
20
-11.6026363770329
30
0
41
1
10
-0.394976888875306
20
-11.5223699808134
30
0
41
1
10
-0.394976888875306
20
-11.413674138825
30
0
41
1
10
-0.394976888875306
20
-11.3026972665534
30
0
41
1
10
-0.394976888875306
20
-11.1891707748317
30
0
41
1
10
-0.394976888875306
20
-11.1028676417001
30
0
41
1
10
-0.394976888875306
20
-11.0153746961414
30
0
41
1
10
-0.394976888875306
20
-10.9266969919675
30
0
41
1
10
-0.394976888875306
20
-10.8368404586376
30
0
41
1
10
-0.394976888875306
20
-10.7458098983122
30
0
41
1
10
-0.394976888875306
20
-10.6536100894112
30
0
41
1
10
-0.394976888875306
20
-10.5602461538978
30
0
41
1
10
-0.394976888875306
20
-10.4657231753345
30
0
41
1
10
-0.394976888875306
20
-10.338096057249
30
0
41
1
10
-0.394976888875306
20
-10.2083399899529
30
0
41
1
10
-0.394976888875306
20
-10.0761265678462
30
0
41
1
10
-0.394976888875306
20
-9.99261145812801
30
0
41
1
10
-0.394976888875306
20
-9.92517902838179
30
0
41
1
10
-0.394976888875306
20
-9.85736937045593
30
0
41
1
10
-0.394976888875306
20
-9.73773602301958
30
0
41
1
10
-0.394976888875306
20
-9.59892077296985
30
0
41
1
10
-0.394976888875306
20
-9.45767863215664
30
0
41
1
10
-0.394976888875306
20
-9.31494999082747
30
0
41
1
10
-0.394976888875306
20
-9.13390680482667
30
0
41
1
10
-0.394976888875306
20
-8.94918034619519
30
0
41
1
10
-0.394976888875306
20
-8.79907644696402
30
0
41
1
10
-0.394976888875306
20
-8.64751156797169
30
0
41
1
10
-0.394976888875306
20
-8.49397420958985
30
0
41
1
10
-0.394976888875306
20
-8.3380422654499
30
0
41
1
10
-0.394976888875306
20
-8.22006380191277
30
0
41
1
10
-0.394976888875306
20
-8.10100253994159
30
0
41
1
10
-0.394976888875306
20
-7.98086146605701
30
0
41
1
10
-0.394976888875306
20
-7.85964216476054
30
0
41
1
10
-0.394976888875306
20
-7.69650359935568
30
0
41
1
10
-0.394976888875306
20
-7.49008091096033
30
0
41
1
10
-0.394976888875306
20
-7.28009512097313
30
0
41
1
10
-0.394976888875306
20
-7.10982246715957
30
0
41
1
10
-0.394976888875306
20
-6.98112245032084
30
0
41
1
10
-0.394976888875306
20
-6.85136201549099
30
0
41
1
10
-0.394976888875306
20
-6.6768468885183
30
0
41
1
10
-0.394976888875306
20
-6.45627504712579
30
0
41
1
10
-0.394976888875306
20
-6.18726435105106
30
0
41
1
10
-0.394976888875306
20
-5.91406388300979
30
0
41
1
10
-0.394976888875306
20
-5.68302324398948
30
0
41
1
10
-0.394976888875306
20
-5.49591839522026
30
0
41
1
10
-0.394976888875306
20
-5.35463943777347
30
0
41
1
10
-0.394976888875306
20
-5.21232773830431
30
0
41
1
10
-0.394976888875306
20
-5.09425535366776
30
0
41
1
10
-0.394976888875306
20
-5.02359314607173
30
0
41
1
10
-0.394976888875306
20
-5.00092508225413
30
0
0
SPLINE
5
BF
100
AcDbEntity
8
SK1
62
256
6
ByLayer
370
18
48
1
60
0
100
AcDbSpline
70
4
71
3
72
287
73
283
40
0
40
0
40
0
40
0
40
0.0005770563942579
40
0.0040695216200502
40
0.0075619868458425
40
0.0110544520716349
40
0.0145469172974272
40
0.0180393825232195
40
0.0215318477490118
40
0.0250243129748041
40
0.0285167782005964
40
0.0320092434263887
40
0.0389941738779734
40
0.045979104329558
40
0.0529640347811426
40
0.0564565000069349
40
0.0599489652327272
40
0.0634414304585196
40
0.0669338956843119
40
0.0739188261358965
40
0.0774112913616888
40
0.0809037565874811
40
0.0843962218132734
40
0.0878886870390657
40
0.0913811522648581
40
0.0948736174906504
40
0.101858547942235
40
0.105351013168027
40
0.10884347839382
40
0.112335943619612
40
0.115828408845404
40
0.119320874071197
40
0.122813339296989
40
0.126305804522781
40
0.129798269748573
40
0.136783200200158
40
0.14027566542595
40
0.143768130651743
40
0.150753061103327
40
0.157737991554912
40
0.161230456780704
40
0.164722922006497
40
0.168215387232289
40
0.171707852458081
40
0.175200317683874
40
0.178692782909666
40
0.180439015522562
40
0.182185248135458
40
0.18567771336125
40
0.189170178587043
40
0.192662643812835
40
0.19964757426442
40
0.203140039490212
40
0.206632504716004
40
0.210124969941797
40
0.213617435167589
40
0.217109900393381
40
0.220602365619174
40
0.224094830844966
40
0.227587296070758
40
0.231079761296551
40
0.234572226522343
40
0.241557156973927
40
0.24504962219972
40
0.248542087425512
40
0.250288320038408
40
0.252034552651304
40
0.255527017877097
40
0.262511948328681
40
0.266004413554474
40
0.269496878780266
40
0.276481809231851
40
0.283466739683435
40
0.286959204909227
40
0.29045167013502
40
0.297436600586604
40
0.300929065812397
40
0.304421531038189
40
0.307913996263981
40
0.311406461489774
40
0.314898926715566
40
0.318391391941358
40
0.325376322392943
40
0.332361252844528
40
0.33585371807032
40
0.339346183296112
40
0.342838648521904
40
0.346331113747697
40
0.353316044199281
40
0.360300974650866
40
0.367285905102451
40
0.374270835554035
40
0.377763300779828
40
0.38125576600562
40
0.384748231231412
40
0.388240696457204
40
0.391733161682997
40
0.395225626908789
40
0.398718092134581
40
0.402210557360374
40
0.405703022586166
40
0.409195487811959
40
0.412687953037751
40
0.416180418263543
40
0.419672883489335
40
0.423165348715128
40
0.42665781394092
40
0.430150279166712
40
0.433642744392505
40
0.437135209618297
40
0.440627674844089
40
0.444120140069882
40
0.447612605295674
40
0.44935883790857
40
0.451105070521466
40
0.454597535747258
40
0.456343768360155
40
0.458090000973051
40
0.459836233585947
40
0.461582466198843
40
0.463328698811739
40
0.465074931424636
40
0.466821164037532
40
0.468567396650428
40
0.47205986187622
40
0.473806094489116
40
0.475552327102013
40
0.477298559714909
40
0.479044792327805
40
0.480791024940701
40
0.482537257553597
40
0.484283490166493
40
0.486029722779389
40
0.487775955392286
40
0.489522188005182
40
0.491268420618078
40
0.493014653230974
40
0.49476088584387
40
0.496507118456766
40
0.498253351069662
40
0.499999583682558
40
0.501745816295455
40
0.503492048908351
40
0.505238281521247
40
0.506984514134143
40
0.508730746747039
40
0.510476979359936
40
0.512223211972831
40
0.513969444585728
40
0.515715677198624
40
0.51746190981152
40
0.519208142424416
40
0.520954375037312
40
0.522700607650209
40
0.524446840263105
40
0.526193072876001
40
0.527939305488897
40
0.531431770714689
40
0.533178003327586
40
0.534924235940482
40
0.536670468553378
40
0.538416701166274
40
0.54016293377917
40
0.541909166392066
40
0.543655399004962
40
0.545401631617859
40
0.548894096843651
40
0.550640329456547
40
0.552386562069443
40
0.555879027295236
40
0.559371492521028
40
0.56286395774682
40
0.566356422972613
40
0.569848888198405
40
0.573341353424197
40
0.57683381864999
40
0.580326283875782
40
0.583818749101574
40
0.587311214327366
40
0.590803679553159
40
0.594296144778951
40
0.597788610004743
40
0.601281075230536
40
0.604773540456328
40
0.60826600568212
40
0.611758470907913
40
0.615250936133705
40
0.618743401359497
40
0.62223586658529
40
0.625728331811082
40
0.632713262262666
40
0.639698192714251
40
0.646683123165836
40
0.65366805361742
40
0.657160518843213
40
0.660652984069005
40
0.664145449294797
40
0.667637914520589
40
0.674622844972174
40
0.681607775423759
40
0.685100240649551
40
0.688592705875343
40
0.692085171101136
40
0.695577636326928
40
0.69907010155272
40
0.702562566778513
40
0.709547497230097
40
0.71303996245589
40
0.716532427681682
40
0.723517358133266
40
0.730502288584851
40
0.733994753810644
40
0.737487219036436
40
0.74447214948802
40
0.747964614713813
40
0.749710847326709
40
0.751457079939605
40
0.754949545165397
40
0.75844201039119
40
0.765426940842774
40
0.768919406068567
40
0.772411871294359
40
0.775904336520151
40
0.779396801745943
40
0.782889266971736
40
0.786381732197528
40
0.789874197423321
40
0.793366662649113
40
0.796859127874905
40
0.800351593100697
40
0.807336523552282
40
0.810828988778075
40
0.814321454003867
40
0.817813919229659
40
0.819560151842555
40
0.821306384455451
40
0.824798849681244
40
0.828291314907036
40
0.831783780132828
40
0.83527624535862
40
0.838768710584413
40
0.842261175810205
40
0.84924610626179
40
0.856231036713374
40
0.859723501939167
40
0.863215967164959
40
0.870200897616544
40
0.873693362842336
40
0.877185828068128
40
0.880678293293921
40
0.884170758519713
40
0.887663223745505
40
0.891155688971298
40
0.89464815419709
40
0.898140619422882
40
0.905125549874467
40
0.908618015100259
40
0.912110480326051
40
0.915602945551844
40
0.919095410777636
40
0.922587876003428
40
0.926080341229221
40
0.933065271680805
40
0.936557736906598
40
0.94005020213239
40
0.943542667358182
40
0.947035132583975
40
0.954020063035559
40
0.957512528261351
40
0.961004993487144
40
0.964497458712936
40
0.967989923938728
40
0.971482389164521
40
0.974974854390313
40
0.978467319616105
40
0.981959784841898
40
0.98545225006769
40
0.988944715293482
40
0.992437180519275
40
0.995929645745067
40
0.999422110970859
40
1
40
1
40
1
40
1
41
1
10
-24
20
12.6301466078059
30
-1E-16
41
1
10
-24
20
12.6302729695314
30
-1E-16
41
1
10
-24
20
12.6311019479633
30
-1E-16
41
1
10
-24
20
12.6318299492432
30
-1E-16
41
1
10
-24
20
12.6309352666138
30
-1E-16
41
1
10
-24
20
12.6281658201647
30
-1E-16
41
1
10
-24
20
12.623548726994
30
-1E-16
41
1
10
-24
20
12.6171099043118
30
-1E-16
41
1
10
-24
20
12.6088736083307
30
1E-16
41
1
10
-24
20
12.5988647342338
30
1E-16
41
1
10
-24
20
12.5871069661154
30
1E-16
41
1
10
-24
20
12.569020437469
30
1E-16
41
1
10
-24
20
12.5424060911485
30
1E-16
41
1
10
-24
20
12.5036823998811
30
0
41
1
10
-24
20
12.466179119183
30
0
41
1
10
-24
20
12.4326960489613
30
0
41
1
10
-24
20
12.4061495447384
30
0
41
1
10
-24
20
12.3780532328159
30
0
41
1
10
-24
20
12.3383402816863
30
0
41
1
10
-24
20
12.2962370819873
30
0
41
1
10
-24
20
12.2505027270978
30
0
41
1
10
-24
20
12.2149010201899
30
0
41
1
10
-24
20
12.1778433481664
30
0
41
1
10
-24
20
12.139344023803
30
1E-16
41
1
10
-24
20
12.0994154546281
30
1E-16
41
1
10
-24
20
12.0440223921018
30
1E-16
41
1
10
-24
20
11.9866456328948
30
1E-16
41
1
10
-24
20
11.9256779328097
30
1E-16
41
1
10
-24
20
11.8787993022056
30
1E-16
41
1
10
-24
20
11.8305656793587
30
-1E-16
41
1
10
-24
20
11.78099039585
30
-1E-16
41
1
10
-24
20
11.7300825884547
30
-1E-16
41
1
10
-24
20
11.6778529900837
30
-1E-16
41
1
10
-24
20
11.6243139686469
30
-1E-16
41
1
10
-24
20
11.5508590476175
30
-1E-16
41
1
10
-24
20
11.4758394707542
30
-1E-16
41
1
10
-24
20
11.3972466128896
30
-1E-16
41
1
10
-24
20
11.3169609533628
30
-1E-16
41
1
10
-24
20
11.2142799019792
30
-1E-16
41
1
10
-24
20
11.1074990885262
30
3E-16
41
1
10
-24
20
11.0189464603389
30
3E-16
41
1
10
-24
20
10.9516093773873
30
3E-16
41
1
10
-24
20
10.8830697782116
30
3E-16
41
1
10
-24
20
10.8133337656712
30
3E-16
41
1
10
-24
20
10.7424101789121
30
3E-16
41
1
10
-24
20
10.6825334430363
30
3E-16
41
1
10
-24
20
10.6336671760819
30
3E-16
41
1
10
-24
20
10.5844084477176
30
3E-16
41
1
10
-24
20
10.5225869468266
30
3E-16
41
1
10
-24
20
10.4469857296791
30
3E-16
41
1
10
-24
20
10.3442039867662
30
3E-16
41
1
10
-24
20
10.2404782892815
30
3E-16
41
1
10
-24
20
10.133123847137
30
3E-16
41
1
10
-24
20
10.0518274139735
30
3E-16
41
1
10
-24
20
9.96941226524035
30
3E-16
41
1
10
-24
20
9.8858827890852
30
3E-16
41
1
10
-24
20
9.80124634105394
30
3E-16
41
1
10
-24
20
9.71550990056983
30
3E-16
41
1
10
-24
20
9.62867742465991
30
3E-16
41
1
10
-24
20
9.54075474090101
30
3E-16
41
1
10
-24
20
9.45175012870757
30
3E-16
41
1
10
-24
20
9.33111730296773
30
3E-16
41
1
10
-24
20
9.20992961158598
30
3E-16
41
1
10
-24
20
9.08500600225796
30
3E-16
41
1
10
-24
20
9.00666454438806
30
3E-16
41
1
10
-24
20
8.94296708063843
30
3E-16
41
1
10
-24
20
8.87892107357061
30
3E-16
41
1
10
-24
20
8.76613371827506
30
3E-16
41
1
10
-24
20
8.63663898523424
30
3E-16
41
1
10
-24
20
8.50332881313912
30
3E-16
41
1
10
-24
20
8.36865251940401
30
3E-16
41
1
10
-24
20
8.19913342470036
30
3E-16
41
1
10
-24
20
8.02625870426021
30
3E-16
41
1
10
-24
20
7.88481232676438
30
3E-16
41
1
10
-24
20
7.74204568631339
30
3E-16
41
1
10
-24
20
7.59930458489882
30
3E-16
41
1
10
-24
20
7.45257386795717
30
3E-16
41
1
10
-24
20
7.34207855908448
30
3E-16
41
1
10
-24
20
7.23061782890775
30
3E-16
41
1
10
-24
20
7.11820191301103
30
3E-16
41
1
10
-24
20
7.00483374343872
30
3E-16
41
1
10
-24
20
6.8516785758469
30
3E-16
41
1
10
-24
20
6.65959441745028
30
3E-16
41
1
10
-24
20
6.46441027855923
30
3E-16
41
1
10
-24
20
6.30499529459033
30
3E-16
41
1
10
-24
20
6.18514753468796
30
3E-16
41
1
10
-24
20
6.06440158167572
30
3E-16
41
1
10
-24
20
5.90137597131746
30
3E-16
41
1
10
-24
20
5.69736367955667
30
3E-16
41
1
10
-24
20
5.44799894794272
30
3E-16
41
1
10
-24
20
5.19525670130326
30
3E-16
41
1
10
-24
20
4.98285125019774
30
3E-16
41
1
10
-24
20
4.80950544532163
30
3E-16
41
1
10
-24
20
4.67950096380329
30
3E-16
41
1
10
-24
20
4.54872537799758
30
3E-16
41
1
10
-24
20
4.41719445888799
30
3E-16
41
1
10
-24
20
4.28492388892991
30
3E-16
41
1
10
-24
20
4.15193103870837
30
3E-16
41
1
10
-24
20
4.01823650200188
30
3E-16
41
1
10
-24
20
3.88386015063668
30
3E-16
41
1
10
-24
20
3.74882265025218
30
3E-16
41
1
10
-24
20
3.61314816606938
30
3E-16
41
1
10
-24
20
3.47686551917991
30
3E-16
41
1
10
-24
20
3.34000139230267
30
3E-16
41
1
10
-24
20
3.20258393847712
30
3E-16
41
1
10
-24
20
3.06464837689458
30
3E-16
41
1
10
-24
20
2.9262304523017
30
3E-16
41
1
10
-24
20
2.78737006373561
30
3E-16
41
1
10
-24
20
2.64810891556724
30
3E-16
41
1
10
-24
20
2.50849315364215
30
3E-16
41
1
10
-24
20
2.36857603859875
30
3E-16
41
1
10
-24
20
2.22840727338092
30
3E-16
41
1
10
-24
20
2.11231267734073
30
3E-16
41
1
10
-24
20
2.01771125590744
30
3E-16
41
1
10
-24
20
1.92310511773127
30
3E-16
41
1
10
-24
20
1.8313714962141
30
3E-16
41
1
10
-24
20
1.73663368976398
30
3E-16
41
1
10
-24
20
1.66636839269287
30
3E-16
41
1
10
-24
20
1.59612143913762
30
3E-16
41
1
10
-24
20
1.52590617425699
30
3E-16
41
1
10
-24
20
1.45572440081648
30
3E-16
41
1
10
-24
20
1.38559146347788
30
3E-16
41
1
10
-24
20
1.31551245865842
30
3E-16
41
1
10
-24
20
1.22103102890804
30
3E-16
41
1
10
-24
20
1.13019491172781
30
3E-16
41
1
10
-24
20
1.03590357373665
30
3E-16
41
1
10
-24
20
0.966211278320685
30
3E-16
41
1
10
-24
20
0.896616942008535
30
3E-16
41
1
10
-24
20
0.827119549474418
30
3E-16
41
1
10
-24
20
0.757724503129253
30
3E-16
41
1
10
-24
20
0.688430802184314
30
3E-16
41
1
10
-24
20
0.619238394305086
30
3E-16
41
1
10
-24
20
0.550143822342449
30
3E-16
41
1
10
-24
20
0.481142957404018
30
3E-16
41
1
10
-24
20
0.412229055265982
30
3E-16
41
1
10
-24
20
0.343394373554958
30
3E-16
41
1
10
-24
20
0.274627961865065
30
3E-16
41
1
10
-24
20
0.205919183520024
30
3E-16
41
1
10
-24
20
0.137254128872428
30
3E-16
41
1
10
-24
20
0.068619580615092
30
3E-16
41
1
10
-24
20
1.20069785E-08
30
3E-16
41
1
10
-24
20
-0.0686195837654395
30
3E-16
41
1
10
-24
20
-0.1372541822264
30
3E-16
41
1
10
-24
20
-0.205919229600312
30
3E-16
41
1
10
-24
20
-0.274627932715674
30
3E-16
41
1
10
-24
20
-0.343394334295567
30
3E-16
41
1
10
-24
20
-0.412229116407673
30
3E-16
41
1
10
-24
20
-0.48114304712405
30
3E-16
41
1
10
-24
20
-0.55014378989776
30
3E-16
41
1
10
-24
20
-0.619238310392802
30
3E-16
41
1
10
-24
20
-0.688430856535206
30
3E-16
41
1
10
-24
20
-0.757724640342815
30
3E-16
41
1
10
-24
20
-0.827119544713668
30
3E-16
41
1
10
-24
20
-0.896616816711344
30
3E-16
41
1
10
-24
20
-0.966211277672699
30
3E-16
41
1
10
-24
20
-1.03590373801057
30
3E-16
41
1
10
-24
20
-1.13019491751669
30
3E-16
41
1
10
-24
20
-1.22103090337816
30
3E-16
41
1
10
-24
20
-1.31551253110209
30
3E-16
41
1
10
-24
20
-1.38559165365194
30
3E-16
41
1
10
-24
20
-1.45572444737027
30
3E-16
41
1
10
-24
20
-1.52590604398472
30
3E-16
41
1
10
-24
20
-1.59612132289769
30
3E-16
41
1
10
-24
20
-1.66636846888792
30
3E-16
41
1
10
-24
20
-1.73663389391052
30
3E-16
41
1
10
-24
20
-1.83137150908334
30
3E-16
41
1
10
-24
20
-1.923104963833
30
3E-16
41
1
10
-24
20
-2.01771124909399
30
3E-16
41
1
10
-24
20
-2.11231287096447
30
3E-16
41
1
10
-24
20
-2.22840729138045
30
3E-16
41
1
10
-24
20
-2.36857592379664
30
3E-16
41
1
10
-24
20
-2.50849329023109
30
3E-16
41
1
10
-24
20
-2.64810899336408
30
3E-16
41
1
10
-24
20
-2.7873694745272
30
3E-16
41
1
10
-24
20
-2.92622914514115
30
3E-16
41
1
10
-24
20
-3.06464867495961
30
3E-16
41
1
10
-24
20
-3.20258694679336
30
3E-16
41
1
10
-24
20
-3.34000339886188
30
3E-16
41
1
10
-24
20
-3.47686412773234
30
3E-16
41
1
10
-24
20
-3.61314539193521
30
3E-16
41
1
10
-24
20
-3.74882070125756
30
3E-16
41
1
10
-24
20
-3.88386081960974
30
3E-16
41
1
10
-24
20
-4.01823910176785
30
3E-16
41
1
10
-24
20
-4.15193237523465
30
3E-16
41
1
10
-24
20
-4.28492323331267
30
3E-16
41
1
10
-24
20
-4.41719365917405
30
3E-16
41
1
10
-24
20
-4.54872525063161
30
3E-16
41
1
10
-24
20
-4.67950102029136
30
3E-16
41
1
10
-24
20
-4.8095053694127
30
3E-16
41
1
10
-24
20
-4.98285124277228
30
3E-16
41
1
10
-24
20
-5.19525677656026
30
3E-16
41
1
10
-24
20
-5.44799891971269
30
3E-16
41
1
10
-24
20
-5.69736372546623
30
3E-16
41
1
10
-24
20
-5.90137602298265
30
3E-16
41
1
10
-24
20
-6.0644015068855
30
3E-16
41
1
10
-24
20
-6.1851475156806
30
3E-16
41
1
10
-24
20
-6.30499537148728
30
3E-16
41
1
10
-24
20
-6.46441033734266
30
3E-16
41
1
10
-24
20
-6.65959438580623
30
3E-16
41
1
10
-24
20
-6.85167858307042
30
3E-16
41
1
10
-24
20
-7.00483382763792
30
3E-16
41
1
10
-24
20
-7.11820195418233
30
3E-16
41
1
10
-24
20
-7.2306178054078
30
3E-16
41
1
10
-24
20
-7.34207852113332
30
3E-16
41
1
10
-24
20
-7.45257387547733
30
3E-16
41
1
10
-24
20
-7.59930464836137
30
3E-16
41
1
10
-24
20
-7.74204572237986
30
3E-16
41
1
10
-24
20
-7.88481230085068
30
3E-16
41
1
10
-24
20
-8.02625870014725
30
3E-16
41
1
10
-24
20
-8.19913346952643
30
3E-16
41
1
10
-24
20
-8.36865254580422
30
3E-16
41
1
10
-24
20
-8.50332879773273
30
3E-16
41
1
10
-24
20
-8.63663898786112
30
3E-16
41
1
10
-24
20
-8.76613375581505
30
3E-16
41
1
10
-24
20
-8.87892111197036
30
3E-16
41
1
10
-24
20
-8.94296710462893
30
3E-16
41
1
10
-24
20
-9.00666455327519
30
3E-16
41
1
10
-24
20
-9.08500599911847
30
3E-16
41
1
10
-24
20
-9.20992961783276
30
3E-16
41
1
10
-24
20
-9.33111733072479
30
3E-16
41
1
10
-24
20
-9.45175015939358
30
3E-16
41
1
10
-24
20
-9.54075475929304
30
3E-16
41
1
10
-24
20
-9.62867743247332
30
3E-16
41
1
10
-24
20
-9.71550990736878
30
3E-16
41
1
10
-24
20
-9.80124635456619
30
3E-16
41
1
10
-24
20
-9.88588281033205
30
3E-16
41
1
10
-24
20
-9.9694122909747
30
3E-16
41
1
10
-24
20
-10.0518274374696
30
3E-16
41
1
10
-24
20
-10.1331238647016
30
3E-16
41
1
10
-24
20
-10.240478300249
30
3E-16
41
1
10
-24
20
-10.3442039980406
30
3E-16
41
1
10
-24
20
-10.4469857502475
30
3E-16
41
1
10
-24
20
-10.5225869730086
30
3E-16
41
1
10
-24
20
-10.5844084741421
30
3E-16
41
1
10
-24
20
-10.6336671988976
30
3E-16
41
1
10
-24
20
-10.6825334589273
30
3E-16
41
1
10
-24
20
-10.7424101865055
30
3E-16
41
1
10
-24
20
-10.8133337727233
30
3E-16
41
1
10
-24
20
-10.8830697936353
30
3E-16
41
1
10
-24
20
-10.951609404873
30
3E-16
41
1
10
-24
20
-11.0189464931514
30
3E-16
41
1
10
-24
20
-11.1074991058536
30
3E-16
41
1
10
-24
20
-11.2142799044294
30
-1E-16
41
1
10
-24
20
-11.3169609751522
30
-1E-16
41
1
10
-24
20
-11.3972466509688
30
-1E-16
41
1
10
-24
20
-11.4758394909226
30
-1E-16
41
1
10
-24
20
-11.5508590446085
30
-1E-16
41
1
10
-24
20
-11.6243139791192
30
-1E-16
41
1
10
-24
20
-11.6778530233414
30
-1E-16
41
1
10
-24
20
-11.7300826287653
30
-1E-16
41
1
10
-24
20
-11.7809904199399
30
-1E-16
41
1
10
-24
20
-11.8305656793297
30
-1E-16
41
1
10
-24
20
-11.8787992978642
30
1E-16
41
1
10
-24
20
-11.9256779481161
30
1E-16
41
1
10
-24
20
-11.9866456736684
30
1E-16
41
1
10
-24
20
-12.0440224201629
30
1E-16
41
1
10
-24
20
-12.099415447517
30
1E-16
41
1
10
-24
20
-12.1393440246738
30
1E-16
41
1
10
-24
20
-12.1778433772408
30
0
41
1
10
-24
20
-12.2149010599454
30
0
41
1
10
-24
20
-12.250502752964
30
0
41
1
10
-24
20
-12.2962370828382
30
0
41
1
10
-24
20
-12.3383402824608
30
0
41
1
10
-24
20
-12.3780532736994
30
0
41
1
10
-24
20
-12.4061495785297
30
0
41
1
10
-24
20
-12.4326960530149
30
0
41
1
10
-24
20
-12.4661791203578
30
0
41
1
10
-24
20
-12.4959885477691
30
0
41
1
10
-24
20
-12.523037071398
30
0
41
1
10
-24
20
-12.5415673540695
30
1E-16
41
1
10
-24
20
-12.55843663992
30
1E-16
41
1
10
-24
20
-12.5736235086905
30
1E-16
41
1
10
-24
20
-12.5871069547276
30
1E-16
41
1
10
-24
20
-12.5988645879939
30
1E-16
41
1
10
-24
20
-12.6088733436887
30
1E-16
41
1
10
-24
20
-12.617109869821
30
-1E-16
41
1
10
-24
20
-12.6235493215145
30
-1E-16
41
1
10
-24
20
-12.6281667848456
30
-1E-16
41
1
10
-24
20
-12.630935840933
30
-1E-16
41
1
10
-24
20
-12.6318298800803
30
-1E-16
41
1
10
-24
20
-12.6311015704373
30
-1E-16
41
1
10
-24
20
-12.6302722769034
30
-1E-16
41
1
10
-24
20
-12.6301457006594
30
-1E-16
0
SPLINE
5
C0
100
AcDbEntity
8
SK1
62
256
6
ByLayer
370
18
48
1
60
0
100
AcDbSpline
70
4
71
3
72
30
73
26
40
0
40
0
40
0
40
0
40
0.249999999999991
40
0.249999999999991
40
0.374999999999987
40
0.374999999999987
40
0.406249999999986
40
0.406249999999986
40
0.437499999999985
40
0.437499999999985
40
0.453124999999984
40
0.453124999999984
40
0.468749999999984
40
0.468749999999984
40
0.484374999999983
40
0.484374999999983
40
0.499999999999983
40
0.499999999999983
40
0.562499999999984
40
0.562499999999984
40
0.624999999999986
40
0.624999999999986
40
0.74999999999999
40
0.74999999999999
40
1
40
1
40
1
40
1
41
1
10
-1.69999999999999
20
-2.5837250319525
30
-1E-16
41
1
10
-1.69960577308387
20
-2.4859779946988
30
-1E-16
41
1
10
-1.69767355238139
20
-2.38798982619412
30
-1E-16
41
1
10
-1.68844262802753
20
-2.24033510330895
30
-1E-16
41
1
10
-1.68450745634189
20
-2.19070814793074
30
-1E-16
41
1
10
-1.67522587915039
20
-2.12935469951262
30
-1E-16
41
1
10
-1.6731282844176
20
-2.11712975816405
30
-1E-16
41
1
10
-1.66799661066111
20
-2.09285679382032
30
-1E-16
41
1
10
-1.66501908824947
20
-2.08070007716327
30
-1E-16
41
1
10
-1.65873245222278
20
-2.0634205162618
30
-1E-16
41
1
10
-1.65636984489004
20
-2.05788078874883
30
-1E-16
41
1
10
-1.65023143896667
20
-2.04803772588122
30
-1E-16
41
1
10
-1.64627248369027
20
-2.04380832656173
30
-1E-16
41
1
10
-1.63739722307218
20
-2.04164679415459
30
-1E-16
41
1
10
-1.63308445532829
20
-2.04380258017736
30
-1E-16
41
1
10
-1.62595582686359
20
-2.05010802241876
30
-1E-16
41
1
10
-1.62290108511286
20
-2.05425244178829
30
-1E-16
41
1
10
-1.60906040434023
20
-2.07622701887246
30
-1E-16
41
1
10
-1.60160514053027
20
-2.09765684445307
30
-1E-16
41
1
10
-1.58759099419689
20
-2.14045324452036
30
-1E-16
41
1
10
-1.58147400140217
20
-2.16239311410592
30
-1E-16
41
1
10
-1.5642520490068
20
-2.22885918379811
30
-1E-16
41
1
10
-1.55431624484015
20
-2.27405720195944
30
-1E-16
41
1
10
-1.52629464539996
20
-2.41049928034565
30
-1E-16
41
1
10
-1.5101601902287
20
-2.50249360080588
30
-1E-16
41
1
10
-1.49503997793928
20
-2.59465115086948
30
-1E-16
0
SPLINE
5
C1
100
AcDbEntity
8
SK1
62
256
6
ByLayer
370
18
48
1
60
0
100
AcDbSpline
70
4
71
3
72
24
73
20
40
0
40
0
40
0
40
0
40
0.25
40
0.25
40
0.5
40
0.5
40
0.625
40
0.625
40
0.75
40
0.75
40
0.8125
40
0.8125
40
0.875
40
0.875
40
0.90625
40
0.90625
40
0.9375
40
0.9375
40
1
40
1
40
1
40
1
41
1
10
-1.30710678118655
20
3.62781725664613
30
-1E-16
41
1
10
-1.27668453291463
20
3.78212308479132
30
-1E-16
41
1
10
-1.24216894361868
20
3.93398824770151
30
-1E-16
41
1
10
-1.16077398327334
20
4.23236365169214
30
-1E-16
41
1
10
-1.11410703752745
20
4.37933268310843
30
-1E-16
41
1
10
-1.02709553867308
20
4.59256928859344
30
-1E-16
41
1
10
-0.995116720198951
20
4.66266858366529
30
-1E-16
41
1
10
-0.921756293939922
20
4.7979686800274
30
-1E-16
41
1
10
-0.88093559785176
20
4.86334184876199
30
-1E-16
41
1
10
-0.803759710398054
20
4.95360164898065
30
0
41
1
10
-0.775353909590535
20
4.98222160107781
30
0
41
1
10
-0.710417102430739
20
5.0316543750771
30
0
41
1
10
-0.672905235706793
20
5.05301456959728
30
0
41
1
10
-0.609903088653198
20
5.06932192720456
30
0
41
1
10
-0.588493507310886
20
5.07194672129916
30
0
41
1
10
-0.544749997564537
20
5.07084577117556
30
0
41
1
10
-0.523311125415034
20
5.06708508199603
30
0
41
1
10
-0.461957218190207
20
5.0481351773571
30
0
41
1
10
-0.426487186903671
20
5.02630216465263
30
0
41
1
10
-0.394976888875277
20
5.00092441402836
30
0
0
SPLINE
5
C2
100
AcDbEntity
8
SK1
62
256
6
ByLayer
370
18
48
1
60
0
100
AcDbSpline
70
4
71
3
72
30
73
26
40
0
40
0
40
0
40
0
40
0.250000000000007
40
0.250000000000007
40
0.37500000000001
40
0.37500000000001
40
0.43750000000001
40
0.43750000000001
40
0.46875000000001
40
0.46875000000001
40
0.50000000000001
40
0.50000000000001
40
0.51562500000001
40
0.51562500000001
40
0.53125000000001
40
0.53125000000001
40
0.54687500000001
40
0.54687500000001
40
0.56250000000001
40
0.56250000000001
40
0.625000000000009
40
0.625000000000009
40
0.750000000000006
40
0.750000000000006
40
1
40
1
40
1
40
1
41
1
10
-1.49503997793931
20
2.59465115838304
30
-1E-16
41
1
10
-1.51026746272265
20
2.50183982455951
30
-1E-16
41
1
10
-1.52651400478422
20
2.40922455962411
30
-1E-16
41
1
10
-1.55478813482398
20
2.27186617316033
30
-1E-16
41
1
10
-1.56483850627194
20
2.22626541767534
30
-1E-16
41
1
10
-1.58232732166974
20
2.15928180695391
30
-1E-16
41
1
10
-1.58855430949947
20
2.13715881603304
30
-1E-16
41
1
10
-1.59928375148635
20
2.10496662261366
30
-1E-16
41
1
10
-1.60308610086508
20
2.09441763009704
30
-1E-16
41
1
10
-1.61160304975005
20
2.07406881511597
30
-1E-16
41
1
10
-1.61627802336244
20
2.06410999368956
30
-1E-16
41
1
10
-1.62496893049982
20
2.0514954162966
30
-1E-16
41
1
10
-1.62816482150964
20
2.04762113463232
30
-1E-16
41
1
10
-1.63581311778771
20
2.04242474357429
30
-1E-16
41
1
10
-1.64047550516938
20
2.04153346480726
30
-1E-16
41
1
10
-1.648939866832
20
2.04619400336972
30
-1E-16
41
1
10
-1.65243193129879
20
2.05108113187353
30
-1E-16
41
1
10
-1.65796633561399
20
2.0614261976593
30
-1E-16
41
1
10
-1.66019890815167
20
2.06715816278896
30
-1E-16
41
1
10
-1.66988903742799
20
2.09599783238267
30
-1E-16
41
1
10
-1.67400497309842
20
2.12069181839016
30
-1E-16
41
1
10
-1.68477614120369
20
2.19380514302543
30
-1E-16
41
1
10
-1.68861651052393
20
2.24263416926118
30
-1E-16
41
1
10
-1.69768397047525
20
2.38915025298923
30
-1E-16
41
1
10
-1.69960876100487
20
2.48671898766875
30
-1E-16
41
1
10
-1.69999999999999
20
2.58372509632824
30
-1E-16
0
SPLINE
5
C3
100
AcDbEntity
8
SK1
62
256
6
ByLayer
370
18
48
1
60
0
100
AcDbSpline
70
4
71
3
72
120
73
116
40
0
40
0
40
0
40
0
40
0.0076436246294282
40
0.0154152842784671
40
0.0231869439275059
40
0.0309586035765448
40
0.0387302632255836
40
0.0465019228746225
40
0.0542735825236614
40
0.0620452421727002
40
0.0698169018217391
40
0.0775885614707779
40
0.0853602211198168
40
0.0931318807688557
40
0.100903540417894
40
0.108675200066933
40
0.124218519365011
40
0.13199017901405
40
0.139761838663089
40
0.147533498312128
40
0.155305157961167
40
0.170848477259244
40
0.178620136908283
40
0.186391796557322
40
0.194163456206361
40
0.2019351158554
40
0.209706775504439
40
0.217478435153478
40
0.233021754451555
40
0.240793414100594
40
0.248565073749633
40
0.256336733398672
40
0.264108393047711
40
0.271880052696749
40
0.279651712345788
40
0.287423371994827
40
0.295195031643866
40
0.310738350941944
40
0.318510010590983
40
0.326281670240022
40
0.341824989538099
40
0.357368308836177
40
0.365139968485216
40
0.372911628134255
40
0.380683287783294
40
0.388454947432332
40
0.396226607081371
40
0.40399826673041
40
0.40788409655493
40
0.411769926379449
40
0.419541586028488
40
0.427313245677527
40
0.435084905326566
40
0.450628224624643
40
0.458399884273682
40
0.466171543922721
40
0.47394320357176
40
0.481714863220799
40
0.489486522869838
40
0.497258182518876
40
0.505029842167915
40
0.512801501816954
40
0.520573161465993
40
0.528344821115032
40
0.54388814041311
40
0.551659800062149
40
0.559431459711187
40
0.563317289535707
40
0.567203119360226
40
0.574974779009265
40
0.590518098307343
40
0.598289757956382
40
0.606061417605421
40
0.621604736903498
40
0.637148056201576
40
0.644919715850615
40
0.652691375499654
40
0.668234694797731
40
0.67600635444677
40
0.683778014095809
40
0.691549673744848
40
0.699321333393887
40
0.707092993042926
40
0.714864652691965
40
0.730407971990042
40
0.74595129128812
40
0.753722950937159
40
0.761494610586198
40
0.769266270235237
40
0.777037929884276
40
0.792581249182353
40
0.808124568480431
40
0.823667887778509
40
0.839211207076586
40
0.846982866725625
40
0.854754526374664
40
0.862526186023703
40
0.870297845672742
40
0.878069505321781
40
0.88584116497082
40
0.893612824619859
40
0.901384484268897
40
0.909156143917936
40
0.916927803566975
40
0.924699463216014
40
0.932471122865053
40
0.940242782514092
40
0.948014442163131
40
0.955786101812169
40
0.963557761461208
40
0.971329421110247
40
0.979101080759286
40
0.986872740408325
40
0.994644400057364
40
1
40
1
40
1
40
1
41
1
10
-1.69999999999996
20
-14.0157592855837
30
-1E-16
41
1
10
-1.69999999999996
20
-14.0171811880817
30
-1E-16
41
1
10
-1.69999999999999
20
-14.0193347369076
30
-1E-16
41
1
10
-1.69999999999999
20
-14.0204497516689
30
-1E-16
41
1
10
-1.69999999999999
20
-14.019458382701
30
-1E-16
41
1
10
-1.69999999999999
20
-14.0163938901866
30
-1E-16
41
1
10
-1.69999999999999
20
-14.0112932507837
30
-1E-16
41
1
10
-1.69999999999999
20
-14.0041924220526
30
-1E-16
41
1
10
-1.69999999999999
20
-13.9951249982352
30
-1E-16
41
1
10
-1.69999999999999
20
-13.9841238377961
30
-1E-16
41
1
10
-1.69999999999999
20
-13.9712195410175
30
-1E-16
41
1
10
-1.69999999999999
20
-13.9564420504847
30
-1E-16
41
1
10
-1.69999999999999
20
-13.9398197437578
30
-1E-16
41
1
10
-1.69999999999999
20
-13.9213794981548
30
0
41
1
10
-1.69999999999999
20
-13.9011479145568
30
0
41
1
10
-1.69999999999999
20
-13.8718187984145
30
0
41
1
10
-1.69999999999999
20
-13.8389980176944
30
0
41
1
10
-1.69999999999999
20
-13.8027899277569
30
0
41
1
10
-1.69999999999999
20
-13.7739560268625
30
0
41
1
10
-1.69999999999999
20
-13.7434661079967
30
0
41
1
10
-1.69999999999999
20
-13.7006353167884
30
0
41
1
10
-1.69999999999999
20
-13.6545611570253
30
0
41
1
10
-1.69999999999999
20
-13.6053356175566
30
0
41
1
10
-1.69999999999999
20
-13.5668499598694
30
-1E-16
41
1
10
-1.69999999999999
20
-13.5268172136993
30
-1E-16
41
1
10
-1.69999999999999
20
-13.4852529409442
30
-1E-16
41
1
10
-1.69999999999999
20
-13.4421723383994
30
-1E-16
41
1
10
-1.69999999999999
20
-13.3827344481881
30
-1E-16
41
1
10
-1.69999999999999
20
-13.3203101272292
30
-1E-16
41
1
10
-1.69999999999999
20
-13.2549799687684
30
-1E-16
41
1
10
-1.69999999999999
20
-13.2045321176789
30
-1E-16
41
1
10
-1.69999999999999
20
-13.1526505331688
30
-1E-16
41
1
10
-1.69999999999999
20
-13.0993474417035
30
-1E-16
41
1
10
-1.69999999999999
20
-13.0446338377524
30
-1E-16
41
1
10
-1.69999999999999
20
-12.9885221046098
30
-1E-16
41
1
10
-1.69999999999999
20
-12.9310230820619
30
-1E-16
41
1
10
-1.69999999999999
20
-12.8525264302737
30
-1E-16
41
1
10
-1.69999999999999
20
-12.7712834981639
30
-1E-16
41
1
10
-1.69999999999999
20
-12.687362440577
30
-1E-16
41
1
10
-1.69999999999999
20
-12.6016599065257
30
-1E-16
41
1
10
-1.69999999999999
20
-12.4912006631364
30
-1E-16
41
1
10
-1.69999999999999
20
-12.3763763795169
30
-1E-16
41
1
10
-1.69999999999999
20
-12.2819407102379
30
-1E-16
41
1
10
-1.69999999999999
20
-12.2098248313331
30
-1E-16
41
1
10
-1.69999999999999
20
-12.1364317035572
30
-1E-16
41
1
10
-1.69999999999999
20
-12.0617686735772
30
-1E-16
41
1
10
-1.69999999999999
20
-11.9858436943514
30
-1E-16
41
1
10
-1.69999999999999
20
-11.9215236271769
30
-1E-16
41
1
10
-1.69999999999999
20
-11.869448828233
30
-1E-16
41
1
10
-1.69999999999999
20
-11.8169591619061
30
-1E-16
41
1
10
-1.69999999999999
20
-11.7505641463283
30
-1E-16
41
1
10
-1.69999999999999
20
-11.6696587897978
30
-1E-16
41
1
10
-1.69999999999999
20
-11.5601529310588
30
-1E-16
41
1
10
-1.69999999999999
20
-11.4481829097131
30
-1E-16
41
1
10
-1.69999999999999
20
-11.3338110691597
30
-1E-16
41
1
10
-1.69999999999999
20
-11.2468221981049
30
-1E-16
41
1
10
-1.69999999999999
20
-11.1586337774266
30
-1E-16
41
1
10
-1.69999999999999
20
-11.069250952524
30
-1E-16
41
1
10
-1.69999999999999
20
-10.9786794570574
30
-1E-16
41
1
10
-1.69999999999999
20
-10.8869237943964
30
-1E-16
41
1
10
-1.69999999999999
20
-10.7939888545435
30
-1E-16
41
1
10
-1.69999999999999
20
-10.6998796625668
30
-1E-16
41
1
10
-1.69999999999999
20
-10.6046008653873
30
-1E-16
41
1
10
-1.69999999999999
20
-10.4760157822056
30
-1E-16
41
1
10
-1.69999999999999
20
-10.3450861597474
30
-1E-16
41
1
10
-1.69999999999999
20
-10.2118742978003
30
-1E-16
41
1
10
-1.69999999999999
20
-10.127650582945
30
-1E-16
41
1
10
-1.69999999999999
20
-10.059706595653
30
-1E-16
41
1
10
-1.69999999999999
20
-9.99138145148612
30
-1E-16
41
1
10
-1.69999999999999
20
-9.87081045044334
30
-1E-16
41
1
10
-1.69999999999999
20
-9.73071863089592
30
-1E-16
41
1
10
-1.69999999999999
20
-9.58839009925038
30
-1E-16
41
1
10
-1.69999999999999
20
-9.44455857133374
30
-1E-16
41
1
10
-1.69999999999999
20
-9.26193699842017
30
-1E-16
41
1
10
-1.69999999999999
20
-9.07558728630886
30
-1E-16
41
1
10
-1.69999999999999
20
-8.92429762219672
30
-1E-16
41
1
10
-1.69999999999999
20
-8.77152769372714
30
-1E-16
41
1
10
-1.69999999999999
20
-8.61651163422607
30
-1E-16
41
1
10
-1.69999999999999
20
-8.45931946186533
30
-1E-16
41
1
10
-1.69999999999999
20
-8.34031608257325
30
-1E-16
41
1
10
-1.69999999999999
20
-8.22021382021134
30
-1E-16
41
1
10
-1.69999999999999
20
-8.09901466976936
30
-1E-16
41
1
10
-1.69999999999999
20
-7.97672004102665
30
-1E-16
41
1
10
-1.69999999999999
20
-7.81221412115067
30
-1E-16
41
1
10
-1.69999999999999
20
-7.60382757721297
30
-1E-16
41
1
10
-1.69999999999999
20
-7.391814483107
30
-1E-16
41
1
10
-1.69999999999999
20
-7.22005471809891
30
-1E-16
41
1
10
-1.69999999999999
20
-7.0901422748378
30
-1E-16
41
1
10
-1.69999999999999
20
-6.95914718913937
30
-1E-16
41
1
10
-1.69999999999999
20
-6.78305839594086
30
-1E-16
41
1
10
-1.69999999999999
20
-6.56021849497904
30
-1E-16
41
1
10
-1.69999999999999
20
-6.28851702131561
30
-1E-16
41
1
10
-1.69999999999999
20
-6.01251450148573
30
-1E-16
41
1
10
-1.69999999999999
20
-5.77892152593586
30
-1E-16
41
1
10
-1.69999999999999
20
-5.58993219435266
30
-1E-16
41
1
10
-1.69999999999999
20
-5.44710902267545
30
-1E-16
41
1
10
-1.69999999999999
20
-5.30321731736851
30
-1E-16
41
1
10
-1.69999999999999
20
-5.15825863689906
30
-1E-16
41
1
10
-1.69999999999999
20
-5.01223421717728
30
-1E-16
41
1
10
-1.69999999999999
20
-4.86514572624662
30
-1E-16
41
1
10
-1.69999999999999
20
-4.7169946256985
30
-1E-16
41
1
10
-1.69999999999999
20
-4.56778315161375
30
-1E-16
41
1
10
-1.69999999999999
20
-4.41751369191317
30
-1E-16
41
1
10
-1.69999999999999
20
-4.26618881241484
30
-1E-16
41
1
10
-1.69999999999999
20
-4.11381118090259
30
-1E-16
41
1
10
-1.69999999999999
20
-3.9603838288908
30
-1E-16
41
1
10
-1.69999999999999
20
-3.80591068333541
30
-1E-16
41
1
10
-1.69999999999999
20
-3.65039703338328
30
-1E-16
41
1
10
-1.69999999999999
20
-3.49384788295134
30
-1E-16
41
1
10
-1.69999999999999
20
-3.33626946559076
30
-1E-16
41
1
10
-1.69999999999999
20
-3.17766896347746
30
-1E-16
41
1
10
-1.69999999999999
20
-3.01805529196176
30
-1E-16
41
1
10
-1.69999999999999
20
-2.85743848960826
30
-1E-16
41
1
10
-1.69999999999999
20
-2.71257747842986
30
-1E-16
41
1
10
-1.69999999999999
20
-2.62111400924692
30
-1E-16
41
1
10
-1.69999999999999
20
-2.5837250319525
30
-1E-16
0
SPLINE
5
C4
100
AcDbEntity
8
SK1
62
256
6
ByLayer
370
18
48
1
60
0
100
AcDbSpline
70
4
71
3
72
287
73
283
40
0
40
0
40
0
40
0
40
0.0011512952327508
40
0.00463973901771
40
0.0081281828026691
40
0.0116166265876283
40
0.0151050703725874
40
0.0185935141575465
40
0.0220819579425057
40
0.0255704017274648
40
0.029058845512424
40
0.0325472892973831
40
0.0360357330823422
40
0.0395241768673013
40
0.0430126206522605
40
0.0465010644372196
40
0.0534779520071379
40
0.0569663957920971
40
0.0604548395770562
40
0.0639432833620153
40
0.0674317271469744
40
0.0744086147168927
40
0.0778970585018519
40
0.081385502286811
40
0.0848739460717702
40
0.0883623898567293
40
0.0918508336416884
40
0.0953392774266476
40
0.102316164996566
40
0.105804608781525
40
0.109293052566484
40
0.112781496351443
40
0.116269940136402
40
0.119758383921361
40
0.123246827706321
40
0.12673527149128
40
0.130223715276239
40
0.137200602846157
40
0.140689046631116
40
0.144177490416075
40
0.151154377985994
40
0.158131265555912
40
0.161619709340871
40
0.16510815312583
40
0.168596596910789
40
0.172085040695749
40
0.175573484480708
40
0.179061928265667
40
0.180806150158146
40
0.182550372050626
40
0.186038815835585
40
0.189527259620544
40
0.193015703405504
40
0.199992590975422
40
0.203481034760381
40
0.20696947854534
40
0.210457922330299
40
0.213946366115258
40
0.217434809900217
40
0.220923253685177
40
0.224411697470136
40
0.227900141255095
40
0.231388585040054
40
0.234877028825013
40
0.241853916394931
40
0.245342360179891
40
0.24883080396485
40
0.250575025857329
40
0.252319247749809
40
0.255807691534768
40
0.262784579104686
40
0.266273022889645
40
0.269761466674604
40
0.276738354244523
40
0.283715241814441
40
0.2872036855994
40
0.290692129384359
40
0.297669016954278
40
0.301157460739237
40
0.304645904524196
40
0.308134348309155
40
0.311622792094114
40
0.315111235879073
40
0.318599679664033
40
0.325576567233951
40
0.332553454803869
40
0.336041898588828
40
0.339530342373787
40
0.343018786158746
40
0.346507229943705
40
0.353484117513624
40
0.360461005083542
40
0.36743789265346
40
0.374414780223379
40
0.377903224008338
40
0.381391667793297
40
0.384880111578256
40
0.388368555363215
40
0.391856999148174
40
0.395345442933133
40
0.398833886718093
40
0.402322330503052
40
0.405810774288011
40
0.40929921807297
40
0.412787661857929
40
0.416276105642888
40
0.419764549427848
40
0.423252993212807
40
0.426741436997766
40
0.430229880782725
40
0.433718324567684
40
0.437206768352643
40
0.440695212137602
40
0.444183655922561
40
0.447672099707521
40
0.4494163216
40
0.45116054349248
40
0.454648987277439
40
0.456393209169918
40
0.458137431062398
40
0.459881652954878
40
0.461625874847357
40
0.463370096739837
40
0.465114318632316
40
0.466858540524796
40
0.468602762417275
40
0.472091206202234
40
0.473835428094714
40
0.475579649987194
40
0.477323871879673
40
0.479068093772153
40
0.480812315664633
40
0.482556537557112
40
0.484300759449592
40
0.486044981342071
40
0.487789203234551
40
0.48953342512703
40
0.49127764701951
40
0.493021868911989
40
0.494766090804469
40
0.496510312696949
40
0.498254534589428
40
0.499998756481908
40
0.501742978374387
40
0.503487200266867
40
0.505231422159346
40
0.506975644051826
40
0.508719865944305
40
0.510464087836785
40
0.512208309729265
40
0.513952531621744
40
0.515696753514224
40
0.517440975406703
40
0.519185197299183
40
0.520929419191662
40
0.522673641084142
40
0.524417862976622
40
0.526162084869101
40
0.527906306761581
40
0.53139475054654
40
0.533138972439019
40
0.534883194331499
40
0.536627416223979
40
0.538371638116458
40
0.540115860008938
40
0.541860081901417
40
0.543604303793897
40
0.545348525686376
40
0.548836969471336
40
0.550581191363815
40
0.552325413256295
40
0.555813857041254
40
0.559302300826213
40
0.562790744611172
40
0.566279188396131
40
0.56976763218109
40
0.573256075966049
40
0.576744519751009
40
0.580232963535968
40
0.583721407320927
40
0.587209851105886
40
0.590698294890845
40
0.594186738675804
40
0.597675182460764
40
0.601163626245723
40
0.604652070030682
40
0.608140513815641
40
0.6116289576006
40
0.615117401385559
40
0.618605845170519
40
0.622094288955477
40
0.625582732740437
40
0.632559620310355
40
0.639536507880273
40
0.646513395450191
40
0.65349028302011
40
0.656978726805069
40
0.660467170590028
40
0.663955614374987
40
0.667444058159946
40
0.674420945729864
40
0.681397833299783
40
0.684886277084742
40
0.688374720869701
40
0.69186316465466
40
0.695351608439619
40
0.698840052224579
40
0.702328496009538
40
0.709305383579456
40
0.712793827364415
40
0.716282271149374
40
0.723259158719292
40
0.730236046289211
40
0.73372449007417
40
0.737212933859129
40
0.744189821429047
40
0.747678265214006
40
0.749422487106486
40
0.751166708998966
40
0.754655152783925
40
0.758143596568884
40
0.765120484138802
40
0.768608927923761
40
0.77209737170872
40
0.775585815493679
40
0.779074259278639
40
0.782562703063598
40
0.786051146848557
40
0.789539590633516
40
0.793028034418475
40
0.796516478203434
40
0.800004921988394
40
0.806981809558312
40
0.810470253343271
40
0.81395869712823
40
0.817447140913189
40
0.819191362805669
40
0.820935584698149
40
0.824424028483107
40
0.827912472268067
40
0.831400916053026
40
0.834889359837985
40
0.838377803622944
40
0.841866247407903
40
0.848843134977821
40
0.85582002254774
40
0.859308466332699
40
0.862796910117658
40
0.869773797687576
40
0.873262241472536
40
0.876750685257494
40
0.880239129042454
40
0.883727572827413
40
0.887216016612372
40
0.890704460397331
40
0.89419290418229
40
0.897681347967249
40
0.904658235537168
40
0.908146679322127
40
0.911635123107086
40
0.915123566892045
40
0.918612010677004
40
0.922100454461963
40
0.925588898246923
40
0.932565785816841
40
0.9360542296018
40
0.939542673386759
40
0.943031117171718
40
0.946519560956677
40
0.953496448526596
40
0.960473336096514
40
0.967450223666432
40
0.970938667451391
40
0.974427111236351
40
0.97791555502131
40
0.981403998806269
40
0.984892442591228
40
0.988380886376187
40
0.991869330161146
40
0.995357773946105
40
0.998846217731064
40
1
40
1
40
1
40
1
41
1
10
-22.5
20
-13.4956368900114
30
0
41
1
10
-22.5
20
-13.4959448460276
30
0
41
1
10
-22.5
20
-13.4970335440177
30
0
41
1
10
-22.5
20
-13.497871542388
30
0
41
1
10
-22.5
20
-13.4969168014739
30
0
41
1
10
-22.5
20
-13.4939634903146
30
0
41
1
10
-22.5
20
-13.4890446841776
30
0
41
1
10
-22.5
20
-13.4821927509398
30
0
41
1
10
-22.5
20
-13.4734380181859
30
0
41
1
10
-22.5
20
-13.4628103286331
30
0
41
1
10
-22.5
20
-13.4503375548199
30
0
41
1
10
-22.5
20
-13.4360470510206
30
0
41
1
10
-22.5
20
-13.4199649415155
30
0
41
1
10
-22.5
20
-13.4021158939438
30
0
41
1
10
-22.5
20
-13.3825245595672
30
0
41
1
10
-22.5
20
-13.3540536969874
30
0
41
1
10
-22.5
20
-13.3223661764574
30
0
41
1
10
-22.5
20
-13.2871835921006
30
0
41
1
10
-22.5
20
-13.2592105165633
30
0
41
1
10
-22.5
20
-13.2296213845592
30
0
41
1
10
-22.5
20
-13.187963912528
30
0
41
1
10
-22.5
20
-13.143384141029
30
0
41
1
10
-22.5
20
-13.0954724456838
30
0
41
1
10
-22.5
20
-13.0580721081213
30
0
41
1
10
-22.5
20
-13.0191589652135
30
0
41
1
10
-22.5
20
-12.9787481114295
30
0
41
1
10
-22.5
20
-12.9368537080862
30
0
41
1
10
-22.5
20
-12.8789380178894
30
0
41
1
10
-22.5
20
-12.8184132466048
30
0
41
1
10
-22.5
20
-12.7547247990428
30
0
41
1
10
-22.5
20
-12.7056201424592
30
0
41
1
10
-22.5
20
-12.6551113940766
30
0
41
1
10
-22.5
20
-12.6032111946844
30
0
41
1
10
-22.5
20
-12.5499298292215
30
0
41
1
10
-22.5
20
-12.4952790541085
30
0
41
1
10
-22.5
20
-12.4392702870471
30
0
41
1
10
-22.5
20
-12.3626709807027
30
0
41
1
10
-22.5
20
-12.2837700876339
30
0
41
1
10
-22.5
20
-12.2018541939414
30
0
41
1
10
-22.5
20
-12.1181901818312
30
0
41
1
10
-22.5
20
-12.0106580919609
30
4E-16
41
1
10
-22.5
20
-11.8988608066556
30
4E-16
41
1
10
-22.5
20
-11.8066391033683
30
4E-16
41
1
10
-22.5
20
-11.7363216229303
30
4E-16
41
1
10
-22.5
20
-11.664755015164
30
4E-16
41
1
10
-22.5
20
-11.5919461625789
30
4E-16
41
1
10
-22.5
20
-11.5179033535968
30
4E-16
41
1
10
-22.5
20
-11.4552554448703
30
4E-16
41
1
10
-22.5
20
-11.4043881128182
30
4E-16
41
1
10
-22.5
20
-11.3531143441571
30
4E-16
41
1
10
-22.5
20
-11.2884404756242
30
4E-16
41
1
10
-22.5
20
-11.2095312195267
30
4E-16
41
1
10
-22.5
20
-11.1025558384385
30
4E-16
41
1
10
-22.5
20
-10.9936883968037
30
4E-16
41
1
10
-22.5
20
-10.881957410682
30
4E-16
41
1
10
-22.5
20
-10.7971107724731
30
4E-16
41
1
10
-22.5
20
-10.7110950034658
30
4E-16
41
1
10
-22.5
20
-10.6239149629423
30
4E-16
41
1
10
-22.5
20
-10.5355769962349
30
4E-16
41
1
10
-22.5
20
-10.4460865401309
30
4E-16
41
1
10
-22.5
20
-10.3554481360506
30
4E-16
41
1
10
-22.5
20
-10.2636671117607
30
4E-16
41
1
10
-22.5
20
-10.1707494782419
30
4E-16
41
1
10
-22.5
20
-10.0451570606616
30
4E-16
41
1
10
-22.5
20
-9.91789360326428
30
4E-16
41
1
10
-22.5
20
-9.7878008492857
30
4E-16
41
1
10
-22.5
20
-9.70579080403837
30
4E-16
41
1
10
-22.5
20
-9.63944491324963
30
4E-16
41
1
10
-22.5
20
-9.57273013875857
30
4E-16
41
1
10
-22.5
20
-9.45508835059124
30
4E-16
41
1
10
-22.5
20
-9.31898451102214
30
4E-16
41
1
10
-22.5
20
-9.18004984465043
30
4E-16
41
1
10
-22.5
20
-9.0396637144479
30
4E-16
41
1
10
-22.5
20
-8.86197299364807
30
4E-16
41
1
10
-22.5
20
-8.68069429599308
30
4E-16
41
1
10
-22.5
20
-8.53310893988203
30
4E-16
41
1
10
-22.5
20
-8.38410356414289
30
4E-16
41
1
10
-22.5
20
-8.23370694014301
30
4E-16
41
1
10
-22.5
20
-8.08045169790759
30
4E-16
41
1
10
-22.5
20
-7.96465013686171
30
4E-16
41
1
10
-22.5
20
-7.84779994085653
30
4E-16
41
1
10
-22.5
20
-7.72990620240671
30
4E-16
41
1
10
-22.5
20
-7.6109708771202
30
4E-16
41
1
10
-22.5
20
-7.4507365478344
30
4E-16
41
1
10
-22.5
20
-7.24848505302427
30
4E-16
41
1
10
-22.5
20
-7.04280522024894
30
4E-16
41
1
10
-22.5
20
-6.87569116366484
30
4E-16
41
1
10
-22.5
20
-6.74956631857705
30
4E-16
41
1
10
-22.5
20
-6.6224282598192
30
4E-16
41
1
10
-22.5
20
-6.451255571394
30
4E-16
41
1
10
-22.5
20
-6.23550104742759
30
4E-16
41
1
10
-22.5
20
-5.97220551419213
30
4E-16
41
1
10
-22.5
20
-5.70495655337433
30
4E-16
41
1
10
-22.5
20
-5.47933703089231
30
4E-16
41
1
10
-22.5
20
-5.29623478947158
30
4E-16
41
1
10
-22.5
20
-5.15823571506778
30
4E-16
41
1
10
-22.5
20
-5.01927991936705
30
4E-16
41
1
10
-22.5
20
-4.87937424460151
30
4E-16
41
1
10
-22.5
20
-4.73852585442467
30
4E-16
41
1
10
-22.5
20
-4.59674271442694
30
4E-16
41
1
10
-22.5
20
-4.45403251641869
30
4E-16
41
1
10
-22.5
20
-4.31040320562681
30
4E-16
41
1
10
-22.5
20
-4.1658649918152
30
4E-16
41
1
10
-22.5
20
-4.02042950258553
30
4E-16
41
1
10
-22.5
20
-3.87410940415094
30
4E-16
41
1
10
-22.5
20
-3.72691655621918
30
4E-16
41
1
10
-22.5
20
-3.57886234252629
30
4E-16
41
1
10
-22.5
20
-3.42996282061054
30
4E-16
41
1
10
-22.5
20
-3.2802363758513
30
4E-16
41
1
10
-22.5
20
-3.12970236953149
30
4E-16
41
1
10
-22.5
20
-2.9783800820847
30
4E-16
41
1
10
-22.5
20
-2.82629223006825
30
4E-16
41
1
10
-22.5
20
-2.67346522993279
30
4E-16
41
1
10
-22.5
20
-2.51992552331163
30
4E-16
41
1
10
-22.5
20
-2.39172837491469
30
4E-16
41
1
10
-22.5
20
-2.28823685042076
30
4E-16
41
1
10
-22.5
20
-2.18454583019769
30
4E-16
41
1
10
-22.5
20
-2.08161605220536
30
4E-16
41
1
10
-22.5
20
-1.97729736527978
30
4E-16
41
1
10
-22.5
20
-1.89920687090043
30
4E-16
41
1
10
-22.5
20
-1.82098461234611
30
4E-16
41
1
10
-22.5
20
-1.74263820265685
30
4E-16
41
1
10
-22.5
20
-1.66417088377818
30
4E-16
41
1
10
-22.5
20
-1.58559131690836
30
4E-16
41
1
10
-22.5
20
-1.50690430877853
30
4E-16
41
1
10
-22.5
20
-1.40144071039387
30
4E-16
41
1
10
-22.5
20
-1.29707565327635
30
4E-16
41
1
10
-22.5
20
-1.19121866112906
30
4E-16
41
1
10
-22.5
20
-1.11209555133374
30
4E-16
41
1
10
-22.5
20
-1.03290641330761
30
4E-16
41
1
10
-22.5
20
-0.953656082911976
30
4E-16
41
1
10
-22.5
20
-0.874352236673616
30
4E-16
41
1
10
-22.5
20
-0.795000235128668
30
4E-16
41
1
10
-22.5
20
-0.715606595157226
30
4E-16
41
1
10
-22.5
20
-0.63617667254502
30
4E-16
41
1
10
-22.5
20
-0.556716044364009
30
4E-16
41
1
10
-22.5
20
-0.477229377934975
30
4E-16
41
1
10
-22.5
20
-0.397721596430074
30
4E-16
41
1
10
-22.5
20
-0.318196574925025
30
4E-16
41
1
10
-22.5
20
-0.238658616598514
30
4E-16
41
1
10
-22.5
20
-0.159110863620981
30
4E-16
41
1
10
-22.5
20
-0.0795570195282949
30
4E-16
41
1
10
-22.5
20
-4.3520458E-09
30
4E-16
41
1
10
-22.5
20
0.0795570008675952
30
4E-16
41
1
10
-22.5
20
0.159110826532412
30
4E-16
41
1
10
-22.5
20
0.238658582119825
30
4E-16
41
1
10
-22.5
20
0.318196568076161
30
4E-16
41
1
10
-22.5
20
0.397721593521055
30
4E-16
41
1
10
-22.5
20
0.477229338262958
30
4E-16
41
1
10
-22.5
20
0.556715993884097
30
4E-16
41
1
10
-22.5
20
0.63617666680787
30
4E-16
41
1
10
-22.5
20
0.71560660892132
30
4E-16
41
1
10
-22.5
20
0.795000198505278
30
4E-16
41
1
10
-22.5
20
0.874352168955852
30
4E-16
41
1
10
-22.5
20
0.95365606681014
30
4E-16
41
1
10
-22.5
20
1.03290644237791
30
4E-16
41
1
10
-22.5
20
1.11209553564783
30
4E-16
41
1
10
-22.5
20
1.1912185842138
30
4E-16
41
1
10
-22.5
20
1.29707563275716
30
4E-16
41
1
10
-22.5
20
1.40144074045128
30
4E-16
41
1
10
-22.5
20
1.50690426712365
30
4E-16
41
1
10
-22.5
20
1.58559123041411
30
4E-16
41
1
10
-22.5
20
1.66417084854152
30
4E-16
41
1
10
-22.5
20
1.74263823347056
30
4E-16
41
1
10
-22.5
20
1.82098464012651
30
4E-16
41
1
10
-22.5
20
1.89920682890118
30
4E-16
41
1
10
-22.5
20
1.97729727415896
30
4E-16
41
1
10
-22.5
20
2.08161602870015
30
4E-16
41
1
10
-22.5
20
2.18454587114542
30
4E-16
41
1
10
-22.5
20
2.2882368400623
30
4E-16
41
1
10
-22.5
20
2.39172828921559
30
4E-16
41
1
10
-22.5
20
2.51992549648591
30
4E-16
41
1
10
-22.5
20
2.67346525953189
30
4E-16
41
1
10
-22.5
20
2.8262921676581
30
4E-16
41
1
10
-22.5
20
2.97838003358396
30
4E-16
41
1
10
-22.5
20
3.12970257053468
30
4E-16
41
1
10
-22.5
20
3.28023687778401
30
4E-16
41
1
10
-22.5
20
3.4299627769704
30
4E-16
41
1
10
-22.5
20
3.57886126909131
30
4E-16
41
1
10
-22.5
20
3.72691565105669
30
4E-16
41
1
10
-22.5
20
3.87410976932693
30
4E-16
41
1
10
-22.5
20
4.02043049501106
30
4E-16
41
1
10
-22.5
20
4.16586580001649
30
4E-16
41
1
10
-22.5
20
4.31040309161108
30
4E-16
41
1
10
-22.5
20
4.45403157575558
30
4E-16
41
1
10
-22.5
20
4.59674211262629
30
4E-16
41
1
10
-22.5
20
4.73852599905979
30
4E-16
41
1
10
-22.5
20
4.87937450907222
30
4E-16
41
1
10
-22.5
20
5.01927995326392
30
4E-16
41
1
10
-22.5
20
5.15823567759486
30
4E-16
41
1
10
-22.5
20
5.29623480232564
30
4E-16
41
1
10
-22.5
20
5.47933703035866
30
4E-16
41
1
10
-22.5
20
5.70495651005669
30
4E-16
41
1
10
-22.5
20
5.97220551217549
30
4E-16
41
1
10
-22.5
20
6.23550102644131
30
4E-16
41
1
10
-22.5
20
6.45125553312127
30
4E-16
41
1
10
-22.5
20
6.62242827644155
30
4E-16
41
1
10
-22.5
20
6.74956632065386
30
4E-16
41
1
10
-22.5
20
6.87569112826711
30
4E-16
41
1
10
-22.5
20
7.04280518235291
30
4E-16
41
1
10
-22.5
20
7.24848505186407
30
4E-16
41
1
10
-22.5
20
7.45073654157579
30
4E-16
41
1
10
-22.5
20
7.61097083499584
30
4E-16
41
1
10
-22.5
20
7.72990617143802
30
4E-16
41
1
10
-22.5
20
7.84779993569691
30
4E-16
41
1
10
-22.5
20
7.96465014223952
30
4E-16
41
1
10
-22.5
20
8.08045168982594
30
4E-16
41
1
10
-22.5
20
8.23370690743869
30
4E-16
41
1
10
-22.5
20
8.38410353449396
30
4E-16
41
1
10
-22.5
20
8.53310893756458
30
4E-16
41
1
10
-22.5
20
8.68069429175793
30
4E-16
41
1
10
-22.5
20
8.86197296792949
30
4E-16
41
1
10
-22.5
20
9.03966368952013
30
4E-16
41
1
10
-22.5
20
9.18004983919923
30
4E-16
41
1
10
-22.5
20
9.31898450356377
30
4E-16
41
1
10
-22.5
20
9.45508832781687
30
4E-16
41
1
10
-22.5
20
9.57273011219269
30
4E-16
41
1
10
-22.5
20
9.63944489130401
30
4E-16
41
1
10
-22.5
20
9.70579078784201
30
4E-16
41
1
10
-22.5
20
9.78780083934149
30
4E-16
41
1
10
-22.5
20
9.9178935930201
30
4E-16
41
1
10
-22.5
20
10.0451570413025
30
4E-16
41
1
10
-22.5
20
10.1707494549495
30
4E-16
41
1
10
-22.5
20
10.2636670923514
30
4E-16
41
1
10
-22.5
20
10.3554481215356
30
4E-16
41
1
10
-22.5
20
10.4460865275718
30
4E-16
41
1
10
-22.5
20
10.5355769819029
30
4E-16
41
1
10
-22.5
20
10.6239149454148
30
4E-16
41
1
10
-22.5
20
10.7110949831286
30
4E-16
41
1
10
-22.5
20
10.7971107518715
30
4E-16
41
1
10
-22.5
20
10.881957392112
30
4E-16
41
1
10
-22.5
20
10.9936883814227
30
4E-16
41
1
10
-22.5
20
11.1025558247745
30
4E-16
41
1
10
-22.5
20
11.2095312020912
30
4E-16
41
1
10
-22.5
20
11.2884404549429
30
4E-16
41
1
10
-22.5
20
11.3531143221947
30
4E-16
41
1
10
-22.5
20
11.4043880916922
30
4E-16
41
1
10
-22.5
20
11.4552554262223
30
4E-16
41
1
10
-22.5
20
11.5179033392113
30
4E-16
41
1
10
-22.5
20
11.59194615036
30
4E-16
41
1
10
-22.5
20
11.6647550005754
30
4E-16
41
1
10
-22.5
20
11.7363216027856
30
4E-16
41
1
10
-22.5
20
11.8066390784571
30
4E-16
41
1
10
-22.5
20
11.8988607853737
30
4E-16
41
1
10
-22.5
20
12.0106580823312
30
4E-16
41
1
10
-22.5
20
12.1181901660327
30
0
41
1
10
-22.5
20
12.2018541666219
30
0
41
1
10
-22.5
20
12.2837700633604
30
0
41
1
10
-22.5
20
12.3626709718699
30
0
41
1
10
-22.5
20
12.4392702770472
30
0
41
1
10
-22.5
20
12.4952790326449
30
0
41
1
10
-22.5
20
12.5499297998313
30
0
41
1
10
-22.5
20
12.6032111684974
30
0
41
1
10
-22.5
20
12.6551113810006
30
0
41
1
10
-22.5
20
12.7056201369325
30
0
41
1
10
-22.5
20
12.7547247883428
30
0
41
1
10
-22.5
20
12.8184132188765
30
0
41
1
10
-22.5
20
12.8789379874313
30
0
41
1
10
-22.5
20
12.9368537004399
30
0
41
1
10
-22.5
20
12.9787481075024
30
0
41
1
10
-22.5
20
13.0191589474766
30
0
41
1
10
-22.5
20
13.0580720783436
30
0
41
1
10
-22.5
20
13.0954724183383
30
0
41
1
10
-22.5
20
13.1433841284413
30
0
41
1
10
-22.5
20
13.1879639126742
30
0
41
1
10
-22.5
20
13.2296213566399
30
0
41
1
10
-22.5
20
13.2592104836088
30
0
41
1
10
-22.5
20
13.2871835761246
30
0
41
1
10
-22.5
20
13.3223661774289
30
0
41
1
10
-22.5
20
13.3620642251226
30
0
41
1
10
-22.5
20
13.402990048048
30
0
41
1
10
-22.5
20
13.4312436783152
30
0
41
1
10
-22.5
20
13.4503375493538
30
0
41
1
10
-22.5
20
13.4628104278487
30
0
41
1
10
-22.5
20
13.4734382711797
30
0
41
1
10
-22.5
20
13.4821928739338
30
0
41
1
10
-22.5
20
13.4890441905268
30
0
41
1
10
-22.5
20
13.4939625245411
30
0
41
1
10
-22.5
20
13.4969161903089
30
0
41
1
10
-22.5
20
13.4978716184631
30
0
41
1
10
-22.5
20
13.4970336159708
30
0
41
1
10
-22.5
20
13.4959440538286
30
0
41
1
10
-22.5
20
13.4956352755166
30
0
0
SPLINE
5
C5
100
AcDbEntity
8
SK1
62
256
6
ByLayer
370
18
48
1
60
0
100
AcDbSpline
70
4
71
3
72
8
73
4
40
0
40
0
40
0
40
0
40
1
40
1
40
1
40
1
41
1
10
-1.49503997794182
20
-2.59465115080909
30
-1E-16
41
1
10
-1.43721506486065
20
-2.94709344595549
30
-1E-16
41
1
10
-1.37353709473354
20
-3.29086972469324
30
-1E-16
41
1
10
-1.30710678118766
20
-3.62781610099941
30
-1E-16
0
SPLINE
5
C6
100
AcDbEntity
8
SK1
62
256
6
ByLayer
370
18
48
1
60
0
100
AcDbSpline
70
4
71
3
72
19
73
15
40
0
40
0
40
0
40
0
40
0.0013015643427477
40
0.0949361904956585
40
0.18857081664857
40
0.282205442801481
40
0.375840068954392
40
0.469474695107303
40
0.563109321260214
40
0.656743947413125
40
0.750378573566036
40
0.844013199718947
40
0.937647825871858
40
1
40
1
40
1
40
1
41
1
10
-1.49503997793924
20
-13.8251837300437
30
-1E-16
41
1
10
-1.49503997793928
20
-13.8251847301437
30
-1E-16
41
1
10
-1.49503997793928
20
-13.8252109204586
30
-1E-16
41
1
10
-1.49503997793928
20
-13.8245545856003
30
-1E-16
41
1
10
-1.49503997793928
20
-13.821531562835
30
-1E-16
41
1
10
-1.49503997793928
20
-13.8164987457743
30
-1E-16
41
1
10
-1.49503997793928
20
-13.8094907530557
30
-1E-16
41
1
10
-1.49503997793928
20
-13.800539960484
30
-1E-16
41
1
10
-1.49503997793931
20
-13.7896781016746
30
-1E-16
41
1
10
-1.49503997793931
20
-13.7769347594832
30
-1E-16
41
1
10
-1.49503997793931
20
-13.7623389110759
30
-1E-16
41
1
10
-1.49503997793931
20
-13.7459180935577
30
-1E-16
41
1
10
-1.49503997793934
20
-13.7297273741866
30
-1E-16
41
1
10
-1.49503997793937
20
-13.7187897921953
30
0
41
1
10
-1.49503997793934
20
-13.7142871509012
30
0
0
SPLINE
5
C7
100
AcDbEntity
8
SK1
62
256
6
ByLayer
370
13
48
1
60
0
100
AcDbSpline
70
4
71
3
72
108
73
104
40
0
40
0
40
0
40
0
40
0.0028907087056802
40
0.0115444540811744
40
0.028851944832163
40
0.0375056902076573
40
0.0461594355831516
40
0.0548131809586459
40
0.0634669263341402
40
0.0807744170851287
40
0.089428162460623
40
0.0980819078361173
40
0.106735653211612
40
0.115389398587106
40
0.1240431439626
40
0.132696889338094
40
0.150004380089083
40
0.158658125464577
40
0.167311870840072
40
0.175965616215566
40
0.18461936159106
40
0.193273106966554
40
0.201926852342049
40
0.210580597717543
40
0.219234343093037
40
0.236541833844026
40
0.24519557921952
40
0.253849324595014
40
0.271156815346003
40
0.288464306096991
40
0.297118051472486
40
0.30577179684798
40
0.314425542223474
40
0.323079287598969
40
0.331733032974463
40
0.340386778349957
40
0.344713651037704
40
0.349040523725452
40
0.357694269100946
40
0.36634801447644
40
0.375001759851934
40
0.392309250602923
40
0.400962995978417
40
0.409616741353911
40
0.418270486729406
40
0.4269242321049
40
0.435577977480394
40
0.444231722855889
40
0.452885468231383
40
0.461539213606877
40
0.470192958982372
40
0.478846704357866
40
0.496154195108854
40
0.504807940484349
40
0.513461685859843
40
0.51778855854759
40
0.522115431235337
40
0.530769176610831
40
0.54807666736182
40
0.556730412737314
40
0.565384158112809
40
0.582691648863797
40
0.599999139614786
40
0.60865288499028
40
0.617306630365774
40
0.634614121116763
40
0.643267866492257
40
0.651921611867751
40
0.660575357243246
40
0.66922910261874
40
0.677882847994234
40
0.686536593369729
40
0.703844084120717
40
0.721151574871706
40
0.7298053202472
40
0.738459065622694
40
0.747112810998188
40
0.755766556373683
40
0.773074047124671
40
0.79038153787566
40
0.807689028626648
40
0.824996519377637
40
0.833650264753131
40
0.842304010128625
40
0.85095775550412
40
0.859611500879614
40
0.868265246255108
40
0.876918991630603
40
0.885572737006097
40
0.894226482381591
40
0.902880227757085
40
0.91153397313258
40
0.920187718508074
40
0.928841463883568
40
0.937495209259063
40
0.946148954634557
40
0.954802700010051
40
0.963456445385545
40
0.97211019076104
40
0.980763936136534
40
0.989417681512028
40
0.998071426887522
40
1
40
1
40
1
40
1
41
1
10
-1.49503997793934
20
-13.7142861508956
30
0
41
1
10
-1.49503997793934
20
-13.7120274729444
30
0
41
1
10
-1.49503997793931
20
-13.7028758864845
30
0
41
1
10
-1.49503997793931
20
-13.6786965897716
30
0
41
1
10
-1.49503997793931
20
-13.646298505966
30
0
41
1
10
-1.49503997793931
20
-13.6104729213425
30
0
41
1
10
-1.49503997793931
20
-13.5819601013665
30
0
41
1
10
-1.49503997793931
20
-13.551806168738
30
0
41
1
10
-1.49503997793931
20
-13.5094130161235
30
0
41
1
10
-1.49503997793931
20
-13.4638962511352
30
0
41
1
10
-1.49503997793931
20
-13.4151607649325
30
0
41
1
10
-1.49503997793931
20
-13.3770799229021
30
0
41
1
10
-1.49503997793931
20
-13.3374647797226
30
-1E-16
41
1
10
-1.49503997793931
20
-13.2963307229449
30
-1E-16
41
1
10
-1.49503997793931
20
-13.2536925631392
30
-1E-16
41
1
10
-1.49503997793931
20
-13.1948224412614
30
-1E-16
41
1
10
-1.49503997793931
20
-13.133106637017
30
-1E-16
41
1
10
-1.49503997793931
20
-13.0683888234861
30
-1E-16
41
1
10
-1.49503997793931
20
-13.0184419731185
30
-1E-16
41
1
10
-1.49503997793931
20
-12.9670724454163
30
-1E-16
41
1
10
-1.49503997793931
20
-12.9142926213842
30
-1E-16
41
1
10
-1.49503997793931
20
-12.8601132308426
30
-1E-16
41
1
10
-1.49503997793931
20
-12.8045464232669
30
-1E-16
41
1
10
-1.49503997793931
20
-12.7476032540011
30
-1E-16
41
1
10
-1.49503997793931
20
-12.6698142967672
30
-1E-16
41
1
10
-1.49503997793931
20
-12.5894449263383
30
-1E-16
41
1
10
-1.49503997793931
20
-12.5062717787185
30
-1E-16
41
1
10
-1.49503997793931
20
-12.4213295969168
30
-1E-16
41
1
10
-1.49503997793931
20
-12.3119621581916
30
-1E-16
41
1
10
-1.49503997793931
20
-12.1982669205398
30
-1E-16
41
1
10
-1.49503997793931
20
-12.1046570427268
30
-1E-16
41
1
10
-1.49503997793931
20
-12.0332119519516
30
-1E-16
41
1
10
-1.49503997793931
20
-11.960500101414
30
-1E-16
41
1
10
-1.49503997793931
20
-11.886528664654
30
-1E-16
41
1
10
-1.49503997793931
20
-11.8113057197552
30
-1E-16
41
1
10
-1.49503997793931
20
-11.747609354201
30
-1E-16
41
1
10
-1.49503997793931
20
-11.6959849306732
30
-1E-16
41
1
10
-1.49503997793931
20
-11.6439487843731
30
-1E-16
41
1
10
-1.49503997793931
20
-11.5781957427673
30
-1E-16
41
1
10
-1.49503997793931
20
-11.4980349156058
30
-1E-16
41
1
10
-1.49503997793931
20
-11.3894729046301
30
-1E-16
41
1
10
-1.49503997793931
20
-11.2786601205037
30
-1E-16
41
1
10
-1.49503997793931
20
-11.165273297363
30
-1E-16
41
1
10
-1.49503997793931
20
-11.0790834618892
30
-1E-16
41
1
10
-1.49503997793931
20
-10.9917054227683
30
-1E-16
41
1
10
-1.49503997793931
20
-10.9031442186804
30
-1E-16
41
1
10
-1.49503997793931
20
-10.8134058114344
30
-1E-16
41
1
10
-1.49503997793931
20
-10.7224950525572
30
-1E-16
41
1
10
-1.49503997793931
20
-10.630416702033
30
-1E-16
41
1
10
-1.49503997793931
20
-10.537175897834
30
-1E-16
41
1
10
-1.49503997793931
20
-10.4427777956644
30
-1E-16
41
1
10
-1.49503997793931
20
-10.3153089526253
30
-1E-16
41
1
10
-1.49503997793931
20
-10.1857467801784
30
-1E-16
41
1
10
-1.49503997793931
20
-10.0536983203575
30
-1E-16
41
1
10
-1.49503997793931
20
-9.97030028641953
30
-1E-16
41
1
10
-1.49503997793931
20
-9.90295237623948
30
-1E-16
41
1
10
-1.49503997793931
20
-9.835227886979
30
-1E-16
41
1
10
-1.49503997793931
20
-9.71574945872362
30
-1E-16
41
1
10
-1.49503997793931
20
-9.57714512355727
30
-1E-16
41
1
10
-1.49503997793931
20
-9.43608247629774
30
-1E-16
41
1
10
-1.49503997793931
20
-9.2935360539519
30
-1E-16
41
1
10
-1.49503997793931
20
-9.11275364912453
30
-1E-16
41
1
10
-1.49503997793931
20
-8.92829538452324
30
-1E-16
41
1
10
-1.49503997793931
20
-8.7783873974316
30
-1E-16
41
1
10
-1.49503997793931
20
-8.62702161678089
30
-1E-16
41
1
10
-1.49503997793931
20
-8.47372856948019
30
-1E-16
41
1
10
-1.49503997793931
20
-8.31800484031689
30
-1E-16
41
1
10
-1.49503997793931
20
-8.2001957134178
30
-1E-16
41
1
10
-1.49503997793931
20
-8.08130644558901
30
-1E-16
41
1
10
-1.49503997793931
20
-7.96134018717205
30
-1E-16
41
1
10
-1.49503997793931
20
-7.84029855153605
30
-1E-16
41
1
10
-1.49503997793931
20
-7.67738590051292
30
-1E-16
41
1
10
-1.49503997793931
20
-7.47128768043942
30
-1E-16
41
1
10
-1.49503997793931
20
-7.2616368417514
30
-1E-16
41
1
10
-1.49503997793931
20
-7.09160988853208
30
-1E-16
41
1
10
-1.49503997793931
20
-6.96311018885422
30
-1E-16
41
1
10
-1.49503997793931
20
-6.83355374310952
30
-1E-16
41
1
10
-1.49503997793931
20
-6.65929861735813
30
-1E-16
41
1
10
-1.49503997793931
20
-6.43910150489376
30
-1E-16
41
1
10
-1.49503997793931
20
-6.17053537924178
30
-1E-16
41
1
10
-1.49503997793931
20
-5.89779786635279
30
-1E-16
41
1
10
-1.49503997793931
20
-5.66717892451575
30
-1E-16
41
1
10
-1.49503997793931
20
-5.48038543010179
30
-1E-16
41
1
10
-1.49503997793931
20
-5.33936160781602
30
-1E-16
41
1
10
-1.49503997793931
20
-5.19731095699919
30
-1E-16
41
1
10
-1.49503997793931
20
-5.05423700692029
30
-1E-16
41
1
10
-1.49503997793931
20
-4.91014320448997
30
-1E-16
41
1
10
-1.49503997793931
20
-4.76503356668587
30
-1E-16
41
1
10
-1.49503997793931
20
-4.61891187892093
30
-1E-16
41
1
10
-1.49503997793931
20
-4.47178250674139
30
-1E-16
41
1
10
-1.49503997793931
20
-4.32365075555242
30
-1E-16
41
1
10
-1.49503997793931
20
-4.17452257114442
30
-1E-16
41
1
10
-1.49503997793931
20
-4.02440435063468
30
-1E-16
41
1
10
-1.49503997793931
20
-3.87330241838256
30
-1E-16
41
1
10
-1.49503997793931
20
-3.72122348266291
30
-1E-16
41
1
10
-1.49503997793931
20
-3.56817684914566
30
-1E-16
41
1
10
-1.49503997793931
20
-3.4141725129254
30
-1E-16
41
1
10
-1.49503997793931
20
-3.25922160409144
30
-1E-16
41
1
10
-1.49503997793931
20
-3.10333581737226
30
-1E-16
41
1
10
-1.49503997793931
20
-2.94652921585708
30
-1E-16
41
1
10
-1.49503997793931
20
-2.78881794693001
30
-1E-16
41
1
10
-1.49503997793931
20
-2.67130382014665
30
-1E-16
41
1
10
-1.49503997793931
20
-2.60647324340224
30
-1E-16
41
1
10
-1.49503997793931
20
-2.59465115080991
30
-1E-16
0
SPLINE
5
C8
100
AcDbEntity
8
SK1
62
256
6
ByLayer
370
13
48
1
60
0
100
AcDbSpline
70
4
71
3
72
91
73
87
40
0
40
0
40
0
40
0
40
0.0047232369720189
40
0.0147481158179706
40
0.0247729946639224
40
0.0347978735098741
40
0.0448227523558258
40
0.0648725100477292
40
0.0849222677396326
40
0.104972025431536
40
0.125021783123439
40
0.135046661969391
40
0.145071540815343
40
0.155096419661295
40
0.165121298507246
40
0.18517105619915
40
0.205220813891053
40
0.215245692737005
40
0.225270571582956
40
0.235295450428908
40
0.24532032927486
40
0.255345208120812
40
0.265370086966763
40
0.285419844658667
40
0.295444723504618
40
0.30546960235057
40
0.325519360042474
40
0.345569117734377
40
0.355593996580329
40
0.36561887542628
40
0.385668633118184
40
0.395693511964135
40
0.400705951387111
40
0.405718390810087
40
0.415743269656039
40
0.425768148501991
40
0.445817906193894
40
0.455842785039846
40
0.465867663885797
40
0.475892542731749
40
0.485917421577701
40
0.495942300423653
40
0.505967179269604
40
0.515992058115556
40
0.526016936961508
40
0.536041815807459
40
0.546066694653411
40
0.566116452345314
40
0.576141331191266
40
0.586166210037218
40
0.59619108888317
40
0.601203528306145
40
0.606215967729121
40
0.616240846575073
40
0.626265725421025
40
0.636290604266976
40
0.646315483112928
40
0.65634036195888
40
0.666365240804832
40
0.686414998496735
40
0.706464756188638
40
0.71648963503459
40
0.726514513880542
40
0.746564271572445
40
0.756589150418397
40
0.766614029264349
40
0.7766389081103
40
0.786663786956252
40
0.796688665802204
40
0.806713544648155
40
0.816738423494107
40
0.826763302340059
40
0.846813060031962
40
0.856837938877914
40
0.866862817723866
40
0.876887696569817
40
0.886912575415769
40
0.896937454261721
40
0.906962333107672
40
0.927012090799576
40
0.937036969645528
40
0.947061848491479
40
0.957086727337431
40
0.967111606183383
40
0.987161363875286
40
1
40
1
40
1
40
1
41
1
10
-0.394976888875306
20
5.0009244140283
30
0
41
1
10
-0.394976888875306
20
5.02359271293304
30
0
41
1
10
-0.394976888875306
20
5.09425517295406
30
0
41
1
10
-0.394976888875306
20
5.21232773385495
30
0
41
1
10
-0.394976888875306
20
5.35463940810163
30
0
41
1
10
-0.394976888875306
20
5.49591838220567
30
0
41
1
10
-0.394976888875306
20
5.68302324019061
30
0
41
1
10
-0.394976888875306
20
5.91406385279547
30
0
41
1
10
-0.394976888875306
20
6.18726433662556
30
0
41
1
10
-0.394976888875306
20
6.45627503636445
30
0
41
1
10
-0.394976888875306
20
6.67684685573994
30
0
41
1
10
-0.394976888875306
20
6.85136200824962
30
0
41
1
10
-0.394976888875306
20
6.98112244545175
30
0
41
1
10
-0.394976888875306
20
7.10982244878713
30
0
41
1
10
-0.394976888875306
20
7.28009509164627
30
0
41
1
10
-0.394976888875306
20
7.49008089634199
30
0
41
1
10
-0.394976888875306
20
7.69650359349293
30
0
41
1
10
-0.394976888875306
20
7.85964213989763
30
0
41
1
10
-0.394976888875306
20
7.98086143927398
30
0
41
1
10
-0.394976888875306
20
8.10100252302422
30
0
41
1
10
-0.394976888875306
20
8.22006379392718
30
0
41
1
10
-0.394976888875306
20
8.33804225713789
30
0
41
1
10
-0.394976888875306
20
8.49397418950429
30
0
41
1
10
-0.394976888875306
20
8.64751154095558
30
0
41
1
10
-0.394976888875306
20
8.79907643306458
30
0
41
1
10
-0.394976888875306
20
8.94918033853523
30
0
41
1
10
-0.394976888875306
20
9.13390678694702
30
0
41
1
10
-0.394976888875306
20
9.3149499665038
30
0
41
1
10
-0.394976888875306
20
9.45767861814849
30
0
41
1
10
-0.394976888875306
20
9.59892076352932
30
0
41
1
10
-0.394976888875306
20
9.73773600630287
30
0
41
1
10
-0.394976888875306
20
9.85736934874495
30
0
41
1
10
-0.394976888875306
20
9.92517900727512
30
0
41
1
10
-0.394976888875306
20
9.99261143893298
30
0
41
1
10
-0.394976888875306
20
10.0761265525343
30
0
41
1
10
-0.394976888875306
20
10.2083399780688
30
0
41
1
10
-0.394976888875306
20
10.3380960413352
30
0
41
1
10
-0.394976888875306
20
10.4657231550753
30
0
41
1
10
-0.394976888875306
20
10.5602461340712
30
0
41
1
10
-0.394976888875306
20
10.6536100721469
30
0
41
1
10
-0.394976888875306
20
10.74580988339
30
0
41
1
10
-0.394976888875306
20
10.8368404439692
30
0
41
1
10
-0.394976888875306
20
10.9266969759659
30
0
41
1
10
-0.394976888875306
20
11.0153746780185
30
0
41
1
10
-0.394976888875306
20
11.102867622286
30
0
41
1
10
-0.394976888875306
20
11.1891707558493
30
0
41
1
10
-0.394976888875306
20
11.3026972493618
30
0
41
1
10
-0.394976888875306
20
11.4136741241806
30
0
41
1
10
-0.394976888875306
20
11.5223699646631
30
0
41
1
10
-0.394976888875306
20
11.6026363586083
30
0
41
1
10
-0.394976888875306
20
11.6684804259269
30
0
41
1
10
-0.394976888875306
20
11.7205808778945
30
0
41
1
10
-0.394976888875306
20
11.7722691621604
30
0
41
1
10
-0.394976888875306
20
11.8360539668501
30
0
41
1
10
-0.394976888875306
20
11.9113764581405
30
0
41
1
10
-0.394976888875306
20
11.9854459580753
30
0
41
1
10
-0.394976888875306
20
12.0582544060742
30
0
41
1
10
-0.394976888875306
20
12.1297946053789
30
0
41
1
10
-0.394976888875306
20
12.2235215734124
30
0
41
1
10
-0.394976888875306
20
12.3373769122162
30
0
41
1
10
-0.394976888875306
20
12.4468991604423
30
0
41
1
10
-0.394976888875306
20
12.5319491453114
30
0
41
1
10
-0.394976888875306
20
12.6152283382819
30
0
41
1
10
-0.394976888875306
20
12.6957215859151
30
0
41
1
10
-0.394976888875306
20
12.7736108931729
30
0
41
1
10
-0.394976888875306
20
12.8306328717281
30
0
41
1
10
-0.394976888875306
20
12.8862769376535
30
0
41
1
10
-0.394976888875306
20
12.9405320737836
30
0
41
1
10
-0.394976888875306
20
12.9933861020735
30
0
41
1
10
-0.394976888875306
20
13.0448282447276
30
0
41
1
10
-0.394976888875306
20
13.094846134259
30
0
41
1
10
-0.394976888875306
20
13.1596507604527
30
0
41
1
10
-0.394976888875306
20
13.2214670183476
30
0
41
1
10
-0.394976888875306
20
13.2804176635455
30
0
41
1
10
-0.394976888875306
20
13.3231185671574
30
0
41
1
10
-0.394976888875306
20
13.3643136176474
30
0
41
1
10
-0.394976888875306
20
13.4039879614121
30
0
41
1
10
-0.394976888875306
20
13.4421262012037
30
0
41
1
10
-0.394976888875306
20
13.4909311840823
30
0
41
1
10
-0.394976888875277
20
13.5365270016785
30
0
41
1
10
-0.394976888875277
20
13.5789821852606
30
0
41
1
10
-0.394976888875277
20
13.6091837483775
30
0
41
1
10
-0.394976888875277
20
13.6377421071264
30
0
41
1
10
-0.394976888875277
20
13.6736219510479
30
0
41
1
10
-0.394976888875277
20
13.7083797365849
30
0
41
1
10
-0.394976888875249
20
13.731928491151
30
0
41
1
10
-0.394976888875277
20
13.7406404141114
30
0
0
SPLINE
5
C9
100
AcDbEntity
8
SK1
62
256
6
ByLayer
370
18
48
1
60
0
100
AcDbSpline
70
4
71
3
72
15
73
11
40
0
40
0
40
0
40
0
40
0.0915494039716482
40
0.346094592920553
40
0.473367187395005
40
0.600639781869456
40
0.727912376343908
40
0.85518497081836
40
0.982457565292812
40
1
40
1
40
1
40
1
41
1
10
-0.394976888875249
20
13.7406405175615
30
0
41
1
10
-0.394976888875249
20
13.7455337371196
30
0
41
1
10
-0.394976888875277
20
13.7634587196019
30
0
41
1
10
-0.394976888875277
20
13.7849758313288
30
0
41
1
10
-0.394976888875277
20
13.8044829705053
30
0
41
1
10
-0.394976888875277
20
13.8172492272358
30
0
41
1
10
-0.394976888875277
20
13.8281310063336
30
0
41
1
10
-0.394976888875277
20
13.8370982474882
30
0
41
1
10
-0.394976888875277
20
13.842101166137
30
0
41
1
10
-0.394976888875277
20
13.8443369604552
30
0
41
1
10
-0.394976888875277
20
13.8446015176322
30
0
0
SPLINE
5
CA
100
AcDbEntity
8
SK1
62
256
6
ByLayer
370
13
48
1
60
0
100
AcDbSpline
70
4
71
3
72
107
73
103
40
0
40
0
40
0
40
0
40
0.0019285708052686
40
0.0105823157709481
40
0.0192360607366275
40
0.027889805702307
40
0.0365435506679865
40
0.0451972956336659
40
0.0538510405993454
40
0.0625047855650249
40
0.0711585305307043
40
0.0798122754963838
40
0.0884660204620632
40
0.0971197654277427
40
0.105773510393422
40
0.114427255359102
40
0.123081000324781
40
0.131734745290461
40
0.14038849025614
40
0.149042235221819
40
0.157695980187499
40
0.166349725153178
40
0.175003470118858
40
0.192310960050217
40
0.209618449981576
40
0.226925939912935
40
0.244233429844293
40
0.252887174809973
40
0.261540919775653
40
0.270194664741332
40
0.278848409707011
40
0.29615589963837
40
0.313463389569729
40
0.322117134535409
40
0.330770879501088
40
0.339424624466768
40
0.348078369432447
40
0.356732114398127
40
0.365385859363806
40
0.382693349295165
40
0.391347094260845
40
0.400000839226524
40
0.417308329157883
40
0.434615819089242
40
0.443269564054921
40
0.451923309020601
40
0.46923079895196
40
0.477884543917639
40
0.482211416400479
40
0.486538288883319
40
0.495192033848998
40
0.503845778814677
40
0.521153268746036
40
0.529807013711716
40
0.538460758677395
40
0.547114503643075
40
0.555768248608754
40
0.564421993574434
40
0.573075738540113
40
0.581729483505793
40
0.590383228471472
40
0.599036973437152
40
0.607690718402831
40
0.62499820833419
40
0.633651953299869
40
0.642305698265549
40
0.650959443231228
40
0.655286315714068
40
0.659613188196908
40
0.668266933162587
40
0.676920678128267
40
0.685574423093946
40
0.694228168059626
40
0.702881913025305
40
0.711535657990985
40
0.728843147922343
40
0.746150637853702
40
0.754804382819382
40
0.763458127785061
40
0.78076561771642
40
0.7894193626821
40
0.798073107647779
40
0.806726852613459
40
0.815380597579138
40
0.824034342544817
40
0.832688087510497
40
0.841341832476177
40
0.849995577441856
40
0.867303067373215
40
0.875956812338894
40
0.884610557304574
40
0.893264302270253
40
0.901918047235933
40
0.910571792201612
40
0.919225537167292
40
0.93653302709865
40
0.94518677206433
40
0.953840517030009
40
0.962494261995689
40
0.971148006961368
40
0.988455496892727
40
1
40
1
40
1
40
1
41
1
10
-1.49503997793931
20
2.59465115838307
30
-1E-16
41
1
10
-1.49503997793931
20
2.60647323876151
30
-1E-16
41
1
10
-1.49503997793931
20
2.67130381064959
30
-1E-16
41
1
10
-1.49503997793931
20
2.78881794429316
30
-1E-16
41
1
10
-1.49503997793931
20
2.94652918151195
30
-1E-16
41
1
10
-1.49503997793931
20
3.1033357799555
30
-1E-16
41
1
10
-1.49503997793931
20
3.25922165821993
30
-1E-16
41
1
10
-1.49503997793931
20
3.41417271020586
30
-1E-16
41
1
10
-1.49503997793931
20
3.56817690176541
30
-1E-16
41
1
10
-1.49503997793931
20
3.7212231412766
30
-1E-16
41
1
10
-1.49503997793931
20
3.87330192992579
30
-1E-16
41
1
10
-1.49503997793931
20
4.02440432752809
30
-1E-16
41
1
10
-1.49503997793931
20
4.17452288947305
30
-1E-16
41
1
10
-1.49503997793931
20
4.32365113214263
30
-1E-16
41
1
10
-1.49503997793931
20
4.47178260268984
30
-1E-16
41
1
10
-1.49503997793931
20
4.61891156596767
30
-1E-16
41
1
10
-1.49503997793931
20
4.7650332428635
30
-1E-16
41
1
10
-1.49503997793931
20
4.91014315579861
30
-1E-16
41
1
10
-1.49503997793931
20
5.05423706888553
30
-1E-16
41
1
10
-1.49503997793931
20
5.19731095553269
30
-1E-16
41
1
10
-1.49503997793931
20
5.33936157753735
30
-1E-16
41
1
10
-1.49503997793931
20
5.48038541909952
30
-1E-16
41
1
10
-1.49503997793931
20
5.66717892097088
30
-1E-16
41
1
10
-1.49503997793931
20
5.89779783511918
30
-1E-16
41
1
10
-1.49503997793931
20
6.17053536578155
30
-1E-16
41
1
10
-1.49503997793931
20
6.43910149333703
30
-1E-16
41
1
10
-1.49503997793931
20
6.65929858415237
30
-1E-16
41
1
10
-1.49503997793931
20
6.83355373772449
30
-1E-16
41
1
10
-1.49503997793931
20
6.96311018452545
30
-1E-16
41
1
10
-1.49503997793931
20
7.09160986883526
30
-1E-16
41
1
10
-1.49503997793931
20
7.261636811758
30
-1E-16
41
1
10
-1.49503997793931
20
7.47128766686797
30
-1E-16
41
1
10
-1.49503997793931
20
7.67738589461936
30
-1E-16
41
1
10
-1.49503997793931
20
7.84029852533041
30
-1E-16
41
1
10
-1.49503997793931
20
7.96134016006346
30
-1E-16
41
1
10
-1.49503997793931
20
8.08130642958628
30
-1E-16
41
1
10
-1.49503997793931
20
8.20019570647173
30
-1E-16
41
1
10
-1.49503997793931
20
8.31800483202281
30
-1E-16
41
1
10
-1.49503997793931
20
8.47372854841302
30
-1E-16
41
1
10
-1.49503997793931
20
8.62702158956
30
-1E-16
41
1
10
-1.49503997793931
20
8.77838738443313
30
-1E-16
41
1
10
-1.49503997793931
20
8.92829537712967
30
-1E-16
41
1
10
-1.49503997793931
20
9.11275363063515
30
-1E-16
41
1
10
-1.49503997793931
20
9.29353602958125
30
-1E-16
41
1
10
-1.49503997793931
20
9.43608246295526
30
-1E-16
41
1
10
-1.49503997793931
20
9.57714511427093
30
-1E-16
41
1
10
-1.49503997793931
20
9.71574944153573
30
-1E-16
41
1
10
-1.49503997793931
20
9.83522786489038
30
-1E-16
41
1
10
-1.49503997793931
20
9.90295235506755
30
-1E-16
41
1
10
-1.49503997793931
20
9.97030026745779
30
-1E-16
41
1
10
-1.49503997793931
20
10.0536983054632
30
-1E-16
41
1
10
-1.49503997793931
20
10.1857467684219
30
-1E-16
41
1
10
-1.49503997793931
20
10.3153089364435
30
-1E-16
41
1
10
-1.49503997793931
20
10.4427777751693
30
-1E-16
41
1
10
-1.49503997793931
20
10.5371758780398
30
-1E-16
41
1
10
-1.49503997793931
20
10.6304166849825
30
-1E-16
41
1
10
-1.49503997793931
20
10.7224950378189
30
-1E-16
41
1
10
-1.49503997793931
20
10.8134057967923
30
-1E-16
41
1
10
-1.49503997793931
20
10.9031442025602
30
-1E-16
41
1
10
-1.49503997793931
20
10.9917054044732
30
-1E-16
41
1
10
-1.49503997793931
20
11.0790834423827
30
-1E-16
41
1
10
-1.49503997793931
20
11.1652732784127
30
-1E-16
41
1
10
-1.49503997793931
20
11.278660103453
30
-1E-16
41
1
10
-1.49503997793931
20
11.3894728900619
30
-1E-16
41
1
10
-1.49503997793931
20
11.4980348993556
30
-1E-16
41
1
10
-1.49503997793931
20
11.5781957241672
30
-1E-16
41
1
10
-1.49503997793931
20
11.643948764099
30
-1E-16
41
1
10
-1.49503997793931
20
11.6959849101866
30
-1E-16
41
1
10
-1.49503997793931
20
11.7476093345099
30
-1E-16
41
1
10
-1.49503997793931
20
11.8113057028001
30
-1E-16
41
1
10
-1.49503997793931
20
11.8865286504803
30
-1E-16
41
1
10
-1.49503997793931
20
11.9605000871413
30
-1E-16
41
1
10
-1.49503997793931
20
12.0332119345842
30
-1E-16
41
1
10
-1.49503997793931
20
12.1046570208051
30
-1E-16
41
1
10
-1.49503997793931
20
12.1982668977617
30
-1E-16
41
1
10
-1.49503997793931
20
12.3119621458456
30
-1E-16
41
1
10
-1.49503997793931
20
12.4213295833849
30
-1E-16
41
1
10
-1.49503997793931
20
12.50627175547
30
-1E-16
41
1
10
-1.49503997793931
20
12.5894449005116
30
-1E-16
41
1
10
-1.49503997793931
20
12.6698142834541
30
-1E-16
41
1
10
-1.49503997793931
20
12.74760324418
30
-1E-16
41
1
10
-1.49503997793931
20
12.8045464062654
30
-1E-16
41
1
10
-1.49503997793931
20
12.860113205584
30
-1E-16
41
1
10
-1.49503997793931
20
12.9142925944038
30
-1E-16
41
1
10
-1.49503997793931
20
12.9670724273821
30
-1E-16
41
1
10
-1.49503997793931
20
13.0184419638584
30
-1E-16
41
1
10
-1.49503997793931
20
13.0683888145289
30
-1E-16
41
1
10
-1.49503997793931
20
13.1331066142243
30
-1E-16
41
1
10
-1.49503997793931
20
13.1948224098965
30
-1E-16
41
1
10
-1.49503997793931
20
13.2536925499096
30
-1E-16
41
1
10
-1.49503997793931
20
13.2963307178616
30
-1E-16
41
1
10
-1.49503997793931
20
13.3374647662751
30
-1E-16
41
1
10
-1.49503997793931
20
13.3770798968994
30
0
41
1
10
-1.49503997793931
20
13.4151607370273
30
0
41
1
10
-1.49503997793931
20
13.4638962341071
30
0
41
1
10
-1.49503997793931
20
13.509413016618
30
0
41
1
10
-1.49503997793931
20
13.5518061457236
30
0
41
1
10
-1.49503997793931
20
13.5819600687286
30
0
41
1
10
-1.49503997793931
20
13.6104729008558
30
0
41
1
10
-1.49503997793931
20
13.6462985077496
30
0
41
1
10
-1.49503997793931
20
13.6814289257215
30
0
41
1
10
-1.49503997793931
20
13.7052693687776
30
0
41
1
10
-1.49503997793931
20
13.7142871584586
30
0
0
SPLINE
5
CB
100
AcDbEntity
8
SK1
62
256
6
ByLayer
370
18
48
1
60
0
100
AcDbSpline
70
4
71
3
72
18
73
14
40
0
40
0
40
0
40
0
40
0.0624088263061397
40
0.249838863802178
40
0.343553882550196
40
0.437268901298212
40
0.530983920046232
40
0.624698938794253
40
0.71841395754227
40
0.81212897629029
40
0.905843995038306
40
0.999559013786326
40
1
40
1
40
1
40
1
41
1
10
-1.49503997793931
20
13.7142873673002
30
0
41
1
10
-1.49503997793931
20
13.7187889515241
30
-1E-16
41
1
10
-1.49503997793931
20
13.7362897862093
30
-1E-16
41
1
10
-1.49503997793931
20
13.7574597557179
30
-1E-16
41
1
10
-1.49503997793931
20
13.7769347476405
30
-1E-16
41
1
10
-1.49503997793931
20
13.7896781830989
30
-1E-16
41
1
10
-1.49503997793928
20
13.8005402090708
30
-1E-16
41
1
10
-1.49503997793928
20
13.8094909095343
30
-1E-16
41
1
10
-1.49503997793928
20
13.8164982902869
30
-1E-16
41
1
10
-1.49503997793928
20
13.8215305966481
30
-1E-16
41
1
10
-1.49503997793928
20
13.8245539604948
30
-1E-16
41
1
10
-1.49503997793928
20
13.8252077690309
30
-1E-16
41
1
10
-1.49503997793928
20
13.82518535633
30
-1E-16
41
1
10
-1.49503997793928
20
13.82518435623
30
-1E-16
0
SPLINE
5
CC
100
AcDbEntity
8
1
62
256
6
ByLayer
370
18
48
1
60
0
100
AcDbSpline
70
4
71
3
72
14
73
10
40
0
40
0
40
0
40
0
40
0.25
40
0.25
40
0.5
40
0.5
40
0.75
40
0.75
40
1
40
1
40
1
40
1
41
1
10
6.66339745962156
20
6.16973001948568
30
4E-16
41
1
10
6.6727881395652
20
6.13568757087464
30
4E-16
41
1
10
6.68402554771035
20
6.10231901184946
30
4E-16
41
1
10
6.71147628110015
20
6.0374267260743
30
4E-16
41
1
10
6.72773775344393
20
6.00567161829605
30
4E-16
41
1
10
6.76785100487527
20
5.94614793734942
30
4E-16
41
1
10
6.79175708052529
20
5.918261819316
30
4E-16
41
1
10
6.84983063386522
20
5.87512340989326
30
4E-16
41
1
10
6.88568264759598
20
5.85988980456935
30
4E-16
41
1
10
6.92320508075687
20
5.85988980456935
30
4E-16
0
SPLINE
5
CD
100
AcDbEntity
8
1
62
256
6
ByLayer
370
18
48
1
60
0
100
AcDbSpline
70
4
71
3
72
14
73
10
40
0
40
0
40
0
40
0
40
0.25
40
0.25
40
0.5
40
0.5
40
0.75
40
0.75
40
1
40
1
40
1
40
1
41
1
10
9.0767949192431
20
5.85988980456938
30
6E-16
41
1
10
9.11436698667106
20
5.85988980456938
30
6E-16
41
1
10
9.14968727595803
20
5.87477627667437
30
6E-16
41
1
10
9.20863486580112
20
5.91854200832063
30
6E-16
41
1
10
9.2321352823152
20
5.94612987812172
30
6E-16
41
1
10
9.27225845989852
20
6.00566371121204
30
6E-16
41
1
10
9.28838045037784
20
6.03712755983025
30
6E-16
41
1
10
9.3158845394756
20
6.10206728171735
30
6E-16
41
1
10
9.32720842156817
20
6.13567510453115
30
6E-16
41
1
10
9.33660254037846
20
6.16973001948568
30
6E-16
0
SPLINE
5
CE
100
AcDbEntity
8
1
62
256
6
ByLayer
370
18
48
1
60
0
100
AcDbSpline
70
4
71
3
72
14
73
10
40
0
40
0
40
0
40
0
40
0.25
40
0.25
40
0.5
40
0.5
40
0.75
40
0.75
40
1
40
1
40
1
40
1
41
1
10
9.33660254037844
20
19.0245744101322
30
-3E-16
41
1
10
9.3272118604348
20
19.0356144845436
30
-3E-16
41
1
10
9.31597445228965
20
19.0463346141653
30
-3E-16
41
1
10
9.28852371889985
20
19.0670039094876
30
-3E-16
41
1
10
9.27226224655607
20
19.0770249518318
30
-3E-16
41
1
10
9.23214899512473
20
19.0956617404786
30
-3E-16
41
1
10
9.20824291947471
20
19.1043106800553
30
-3E-16
41
1
10
9.15016936613478
20
19.1176210455321
30
-3E-16
41
1
10
9.11431735240402
20
19.1222825906926
30
-3E-16
41
1
10
9.07679491924313
20
19.1222825906926
30
-3E-16
0
SPLINE
5
CF
100
AcDbEntity
8
1
62
256
6
ByLayer
370
18
48
1
60
0
100
AcDbSpline
70
4
71
3
72
14
73
10
40
0
40
0
40
0
40
0
40
0.25
40
0.25
40
0.5
40
0.5
40
0.75
40
0.75
40
1
40
1
40
1
40
1
41
1
10
6.9232050807569
20
19.1222825906926
30
4E-16
41
1
10
6.88563301332894
20
19.1222825906926
30
4E-16
41
1
10
6.85031272404197
20
19.1177281115534
30
4E-16
41
1
10
6.79136513419888
20
19.1042242696216
30
4E-16
41
1
10
6.7678647176848
20
19.0956673725615
30
4E-16
41
1
10
6.72774154010148
20
19.0770274497583
30
4E-16
41
1
10
6.71161954962216
20
19.06709867989
30
4E-16
41
1
10
6.6841154605244
20
19.0464153092313
30
4E-16
41
1
10
6.67279157843183
20
19.0356185274184
30
4E-16
41
1
10
6.66339745962154
20
19.0245744101322
30
4E-16
0
SPLINE
5
D0
100
AcDbEntity
8
1
62
256
6
ByLayer
370
18
48
1
60
0
100
AcDbSpline
70
4
71
3
72
14
73
10
40
0
40
0
40
0
40
0
40
0.25
40
0.25
40
0.5
40
0.5
40
0.75
40
0.75
40
1
40
1
40
1
40
1
41
1
10
6.66339745962156
20
-19.0245744101322
30
4E-16
41
1
10
6.6727881395652
20
-19.0356144845436
30
4E-16
41
1
10
6.68402554771035
20
-19.0463346141653
30
4E-16
41
1
10
6.71147628110015
20
-19.0670039094876
30
4E-16
41
1
10
6.72773775344393
20
-19.0770249518318
30
4E-16
41
1
10
6.76785100487527
20
-19.0956617404786
30
4E-16
41
1
10
6.79175708052529
20
-19.1043106800553
30
4E-16
41
1
10
6.84983063386522
20
-19.1176210455322
30
4E-16
41
1
10
6.88568264759598
20
-19.1222825906926
30
4E-16
41
1
10
6.92320508075687
20
-19.1222825906926
30
4E-16
0
SPLINE
5
D1
100
AcDbEntity
8
1
62
256
6
ByLayer
370
18
48
1
60
0
100
AcDbSpline
70
4
71
3
72
14
73
10
40
0
40
0
40
0
40
0
40
0.25
40
0.25
40
0.5
40
0.5
40
0.75
40
0.75
40
1
40
1
40
1
40
1
41
1
10
9.07679491924313
20
-19.1222825906926
30
-3E-16
41
1
10
9.11436698667106
20
-19.1222825906926
30
-3E-16
41
1
10
9.14968727595803
20
-19.1177281115534
30
-3E-16
41
1
10
9.20863486580112
20
-19.1042242696216
30
-3E-16
41
1
10
9.2321352823152
20
-19.0956673725615
30
-3E-16
41
1
10
9.27225845989852
20
-19.0770274497583
30
-3E-16
41
1
10
9.28838045037787
20
-19.06709867989
30
-3E-16
41
1
10
9.31588453947563
20
-19.0464153092313
30
-3E-16
41
1
10
9.32720842156817
20
-19.0356185274185
30
-3E-16
41
1
10
9.33660254037846
20
-19.0245744101322
30
-3E-16
0
SPLINE
5
D2
100
AcDbEntity
8
1
62
256
6
ByLayer
370
18
48
1
60
0
100
AcDbSpline
70
4
71
3
72
14
73
10
40
0
40
0
40
0
40
0
40
0.25
40
0.25
40
0.5
40
0.5
40
0.75
40
0.75
40
1
40
1
40
1
40
1
41
1
10
9.33660254037844
20
-6.16973001948568
30
6E-16
41
1
10
9.3272118604348
20
-6.13568757087464
30
6E-16
41
1
10
9.31597445228965
20
-6.10231901184946
30
6E-16
41
1
10
9.28852371889985
20
-6.0374267260743
30
6E-16
41
1
10
9.27226224655607
20
-6.00567161829605
30
6E-16
41
1
10
9.2321489951247
20
-5.94614793734939
30
6E-16
41
1
10
9.20824291947471
20
-5.91826181931597
30
6E-16
41
1
10
9.15016936613478
20
-5.87512340989326
30
6E-16
41
1
10
9.11431735240402
20
-5.85988980456935
30
6E-16
41
1
10
9.07679491924313
20
-5.85988980456935
30
6E-16
0
SPLINE
5
D3
100
AcDbEntity
8
1
62
256
6
ByLayer
370
18
48
1
60
0
100
AcDbSpline
70
4
71
3
72
14
73
10
40
0
40
0
40
0
40
0
40
0.25
40
0.25
40
0.5
40
0.5
40
0.75
40
0.75
40
1
40
1
40
1
40
1
41
1
10
6.92320508075687
20
-5.85988980456938
30
4E-16
41
1
10
6.88563301332894
20
-5.85988980456938
30
4E-16
41
1
10
6.85031272404197
20
-5.87477627667437
30
4E-16
41
1
10
6.79136513419888
20
-5.9185420083206
30
4E-16
41
1
10
6.7678647176848
20
-5.94612987812172
30
4E-16
41
1
10
6.72774154010148
20
-6.00566371121204
30
4E-16
41
1
10
6.71161954962216
20
-6.03712755983025
30
4E-16
41
1
10
6.6841154605244
20
-6.10206728171735
30
4E-16
41
1
10
6.67279157843183
20
-6.13567510453115
30
4E-16
41
1
10
6.66339745962154
20
-6.16973001948568
30
4E-16
0
SPLINE
5
D4
100
AcDbEntity
8
SK1
62
256
6
ByLayer
370
18
48
1
60
0
100
AcDbSpline
70
4
71
3
72
20
73
16
40
0
40
0
40
0
40
0
40
0.0662815169972204
40
0.0662815169972204
40
0.132563033994441
40
0.132563033994441
40
0.198844550991661
40
0.198844550991661
40
0.265126067988882
40
0.265126067988882
40
0.397689101983322
40
0.397689101983322
40
0.530252135977763
40
0.530252135977763
40
1
40
1
40
1
40
1
41
1
10
-0.394976888875306
20
-13.8446019297682
30
0
41
1
10
-0.388468629926223
20
-13.8449779249513
30
0
41
1
10
-0.381324590932508
20
-13.8456530881875
30
0
41
1
10
-0.365549387179669
20
-13.8480385128452
30
0
41
1
10
-0.356796789473179
20
-13.8498063080825
30
0
41
1
10
-0.339435575062112
20
-13.8544574766954
30
0
41
1
10
-0.330979789430131
20
-13.8573064570468
30
0
41
1
10
-0.316458103440084
20
-13.8630021925908
30
0
41
1
10
-0.310232882497189
20
-13.8658582165516
30
0
41
1
10
-0.293637826177616
20
-13.8741901944621
30
0
41
1
10
-0.28535631043701
20
-13.8793708582821
30
0
41
1
10
-0.271048178733793
20
-13.8892040331652
30
0
41
1
10
-0.265213225486377
20
-13.8937947816306
30
0
41
1
10
-0.241807576576889
20
-13.9137408186659
30
0
41
1
10
-0.23128817436347
20
-13.9269724969943
30
0
41
1
10
-0.22344117957644
20
-13.9387748926131
30
0
0
SPLINE
5
D5
100
AcDbEntity
8
SK1
62
256
6
ByLayer
370
18
48
1
60
0
100
AcDbSpline
70
4
71
3
72
26
73
22
40
0
40
0
40
0
40
0
40
0.250000000000002
40
0.250000000000002
40
0.500000000000004
40
0.500000000000004
40
0.625000000000004
40
0.625000000000004
40
0.750000000000004
40
0.750000000000004
40
0.812500000000003
40
0.812500000000003
40
0.875000000000003
40
0.875000000000003
40
0.906250000000002
40
0.906250000000002
40
0.937500000000001
40
0.937500000000001
40
0.968750000000001
40
0.968750000000001
40
1
40
1
40
1
40
1
41
1
10
-0.199999999999989
20
-5.70317605472957
30
0
41
1
10
-0.199999999999989
20
-5.63823579019936
30
0
41
1
10
-0.201272969697669
20
-5.57293605649781
30
0
41
1
10
-0.207502897007231
20
-5.44150249678594
30
0
41
1
10
-0.212379710104358
20
-5.37529109300482
30
0
41
1
10
-0.224682606237138
20
-5.27544442994127
30
0
41
1
10
-0.229617185866118
20
-5.24213518580075
30
0
41
1
10
-0.242229041643526
20
-5.17551725566022
30
0
41
1
10
-0.249833221611794
20
-5.1421811328886
30
0
41
1
10
-0.265207031268602
20
-5.09326445830453
30
0
41
1
10
-0.270998974325863
20
-5.07711544581881
30
0
41
1
10
-0.285075712605874
20
-5.04543234149881
30
0
41
1
10
-0.293382354784512
20
-5.02955049623256
30
0
41
1
10
-0.30997340689305
20
-5.00825285180761
30
0
41
1
10
-0.316214408917744
20
-5.00161256354832
30
0
41
1
10
-0.330656646938507
20
-4.99083059730333
30
0
41
1
10
-0.339105605325329
20
-4.98673490231508
30
0
41
1
10
-0.356551440191851
20
-4.9838899879212
30
0
41
1
10
-0.365376268604251
20
-4.98514225758567
30
0
41
1
10
-0.381257580405588
20
-4.99109645865988
30
0
41
1
10
-0.388437394911733
20
-4.99565833585206
30
0
41
1
10
-0.394976888882155
20
-5.00092508225595
30
0
0
SPLINE
5
D6
100
AcDbEntity
8
SK1
62
256
6
ByLayer
370
18
48
1
60
0
100
AcDbSpline
70
4
71
3
72
8
73
4
40
0
40
0
40
0
40
0
40
1
40
1
40
1
40
1
41
1
10
-1.30710678118655
20
3.62781725664618
30
-1E-16
41
1
10
-1.37353763980977
20
3.2908708034243
30
-1E-16
41
1
10
-1.43721498263977
20
2.94709379867732
30
-1E-16
41
1
10
-1.49503997793931
20
2.59465115838307
30
-1E-16
0
SPLINE
5
D7
100
AcDbEntity
8
SK1
62
256
6
ByLayer
370
18
48
1
60
0
100
AcDbSpline
70
4
71
3
72
28
73
24
40
0
40
0
40
0
40
0
40
0.0312499999999996
40
0.0312499999999996
40
0.0624999999999991
40
0.0624999999999991
40
0.0937499999999988
40
0.0937499999999988
40
0.124999999999998
40
0.124999999999998
40
0.156249999999998
40
0.156249999999998
40
0.187499999999998
40
0.187499999999998
40
0.249999999999998
40
0.249999999999998
40
0.374999999999997
40
0.374999999999997
40
0.499999999999997
40
0.499999999999997
40
0.749999999999999
40
0.749999999999999
40
1
40
1
40
1
40
1
41
1
10
-0.394976888875306
20
-5.00092508226666
30
0
41
1
10
-0.410801723401732
20
-5.01367001187649
30
0
41
1
10
-0.427535664068472
20
-5.02539849227227
30
0
41
1
10
-0.463639445662722
20
-5.04593511745526
30
0
41
1
10
-0.483045340971188
20
-5.05469251156407
30
0
41
1
10
-0.523643941254335
20
-5.06714353053121
30
0
41
1
10
-0.545504646180405
20
-5.07093169487288
30
0
41
1
10
-0.589142052071651
20
-5.07189455751231
30
0
41
1
10
-0.611301179626707
20
-5.06908452808304
30
0
41
1
10
-0.653272178018824
20
-5.05796409301067
30
0
41
1
10
-0.673415768762993
20
-5.04965465210222
30
0
41
1
10
-0.710707027308246
20
-5.0298546065529
30
0
41
1
10
-0.72798048516205
20
-5.01838752947953
30
0
41
1
10
-0.776992972545486
20
-4.98075525164194
30
0
41
1
10
-0.805333125323756
20
-4.95193028425501
30
0
41
1
10
-0.881947101638843
20
-4.8618103067848
30
-1E-16
41
1
10
-0.923425703606682
20
-4.7952167904408
30
-1E-16
41
1
10
-0.99664073006133
20
-4.65951765116256
30
-1E-16
41
1
10
-1.02822753812518
20
-4.58996776098428
30
-1E-16
41
1
10
-1.11453443489486
20
-4.37792667248573
30
-1E-16
41
1
10
-1.16086176131512
20
-4.23206106343818
30
-1E-16
41
1
10
-1.2421727576718
20
-3.93395789518038
30
-1E-16
41
1
10
-1.27672450018156
20
-3.78192043895174
30
-1E-16
41
1
10
-1.30710678118763
20
-3.62781610099955
30
-1E-16
0
LINE
5
72
100
AcDbEntity
8
81
62
256
6
ByLayer
370
18
48
1
60
0
100
AcDbLine
10
120
20
0
30
0
11
122.367097
21
0
31
0
39
0
210
0
220
0
230
1
0
LINE
5
73
100
AcDbEntity
8
1
62
256
6
ByLayer
370
18
48
1
60
0
100
AcDbLine
10
0.3
20
20
30
0
11
0
21
19.7
31
0
39
0
210
0
220
0
230
1
0
LINE
5
74
100
AcDbEntity
8
80
62
256
6
ByLayer
370
18
48
1
60
0
100
AcDbLine
10
0
20
0
30
0
11
-6.08897
21
0
31
0
39
0
210
0
220
0
230
1
0
LINE
5
75
100
AcDbEntity
8
4
62
256
6
ByLayer
370
18
48
0.05
60
0
100
AcDbLine
10
0
20
0
30
0
11
120
21
0
31
0
39
0
210
0
220
0
230
1
0
LINE
5
77
100
AcDbEntity
8
1
62
256
6
ByLayer
370
18
48
1
60
0
100
AcDbLine
10
0
20
-19.7
30
0
11
0.3
21
-20
31
0
39
0
210
0
220
0
230
1
0
LINE
5
78
100
AcDbEntity
8
1
62
256
6
ByLayer
370
18
48
1
60
0
100
AcDbLine
10
0.3
20
-20
30
0
11
20.197464
21
-20
31
0
39
0
210
0
220
0
230
1
0
LINE
5
79
100
AcDbEntity
8
1
62
256
6
ByLayer
370
18
48
1
60
0
100
AcDbLine
10
20.197464
20
20
30
0
11
0.3
21
20
31
0
39
0
210
0
220
0
230
1
0
LINE
5
7A
100
AcDbEntity
8
1
62
256
6
ByLayer
370
18
48
1
60
0
100
AcDbLine
10
20.966365
20
-19.420887
30
0
11
21.3
21
-18.259511
31
0
39
0
210
0
220
0
230
1
0
LINE
5
7B
100
AcDbEntity
8
1
62
256
6
ByLayer
370
18
48
1
60
0
100
AcDbLine
10
21.3
20
18.259511
30
0
11
20.966365
21
19.420887
31
0
39
0
210
0
220
0
230
1
0
LINE
5
7C
100
AcDbEntity
8
1
62
256
6
ByLayer
370
18
48
1
60
0
100
AcDbLine
10
24.3
20
-16
30
0
11
119.7
21
-16
31
0
39
0
210
0
220
0
230
1
0
LINE
5
7D
100
AcDbEntity
8
1
62
256
6
ByLayer
370
18
48
1
60
0
100
AcDbLine
10
119.7
20
16
30
0
11
24.3
21
16
31
0
39
0
210
0
220
0
230
1
0
LINE
5
7E
100
AcDbEntity
8
1
62
256
6
ByLayer
370
18
48
1
60
0
100
AcDbLine
10
119.7
20
-16
30
0
11
120
21
-15.7
31
0
39
0
210
0
220
0
230
1
0
LINE
5
7F
100
AcDbEntity
8
1
62
256
6
ByLayer
370
18
48
1
60
0
100
AcDbLine
10
120
20
15.7
30
0
11
119.7
21
16
31
0
39
0
210
0
220
0
230
1
0
LINE
5
80
100
AcDbEntity
8
SK1
62
256
6
ByLayer
370
18
48
1
60
0
100
AcDbLine
10
122.85
20
6
30
0
11
120
21
6
31
0
39
0
210
0
220
0
230
1
0
LINE
5
82
100
AcDbEntity
8
SK1
62
256
6
ByLayer
370
18
48
1
60
0
100
AcDbLine
10
120
20
-6
30
0
11
122.85
21
-6
31
0
39
0
210
0
220
0
230
1
0
LINE
5
83
100
AcDbEntity
8
SK1
62
256
6
ByLayer
370
18
48
1
60
0
100
AcDbLine
10
122.85
20
-6
30
0
11
124.05
21
-4.8
31
0
39
0
210
0
220
0
230
1
0
LINE
5
84
100
AcDbEntity
8
SK1
62
256
6
ByLayer
370
18
48
1
60
0
100
AcDbLine
10
124.05
20
4.8
30
0
11
122.85
21
6
31
0
39
0
210
0
220
0
230
1
0
LINE
5
85
100
AcDbEntity
8
SK4
62
256
6
ByLayer
370
18
48
0.05
60
0
100
AcDbLine
10
-29
20
0
30
0
11
125
21
0
31
0
39
0
210
0
220
0
230
1
0
LINE
5
87
100
AcDbEntity
8
SK1
62
256
6
ByLayer
370
18
48
1
60
0
100
AcDbLine
10
-0.2
20
-14.083485
30
0
11
-0.2
21
-5.703176
31
0
39
0
210
0
220
0
230
1
0
LINE
5
88
100
AcDbEntity
8
1
62
256
6
ByLayer
370
13
48
1
60
0
100
AcDbLine
10
20.197464
20
0
30
0
11
20.197464
21
20
31
0
39
0
210
0
220
0
230
1
0
LINE
5
89
100
AcDbEntity
8
1
62
256
6
ByLayer
370
13
48
1
60
0
100
AcDbLine
10
20.197464
20
-20
30
0
11
20.197464
21
0
31
0
39
0
210
0
220
0
230
1
0
LINE
5
8A
100
AcDbEntity
8
1
62
256
6
ByLayer
370
18
48
1
60
0
100
AcDbLine
10
0.3
20
0
30
0
11
0.3
21
20
31
0
39
0
210
0
220
0
230
1
0
LINE
5
8B
100
AcDbEntity
8
1
62
256
6
ByLayer
370
18
48
1
60
0
100
AcDbLine
10
0.3
20
-20
30
0
11
0.3
21
0
31
0
39
0
210
0
220
0
230
1
0
LINE
5
8C
100
AcDbEntity
8
1
62
256
6
ByLayer
370
18
48
1
60
0
100
AcDbLine
10
0
20
0
30
0
11
0
21
19.7
31
0
39
0
210
0
220
0
230
1
0
LINE
5
8D
100
AcDbEntity
8
1
62
256
6
ByLayer
370
18
48
1
60
0
100
AcDbLine
10
0
20
-19.7
30
0
11
0
21
0
31
0
39
0
210
0
220
0
230
1
0
LINE
5
8E
100
AcDbEntity
8
1
62
256
6
ByLayer
370
18
48
1
60
0
100
AcDbLine
10
6.923205
20
5.85989
30
0
11
9.076795
21
5.85989
31
0
39
0
210
0
220
0
230
1
0
LINE
5
8F
100
AcDbEntity
8
1
62
256
6
ByLayer
370
18
48
1
60
0
100
AcDbLine
10
9.076795
20
19.122283
30
0
11
6.923205
21
19.122283
31
0
39
0
210
0
220
0
230
1
0
LINE
5
90
100
AcDbEntity
8
1
62
256
6
ByLayer
370
18
48
1
60
0
100
AcDbLine
10
6.923205
20
-19.122283
30
0
11
9.076795
21
-19.122283
31
0
39
0
210
0
220
0
230
1
0
LINE
5
91
100
AcDbEntity
8
1
62
256
6
ByLayer
370
13
48
1
60
0
100
AcDbLine
10
20.966365
20
19.420887
30
0
11
20.966365
21
-19.420887
31
0
39
0
210
0
220
0
230
1
0
LINE
5
92
100
AcDbEntity
8
1
62
256
6
ByLayer
370
13
48
1
60
0
100
AcDbLine
10
21.3
20
0
30
0
11
21.3
21
18.259511
31
0
39
0
210
0
220
0
230
1
0
LINE
5
93
100
AcDbEntity
8
1
62
256
6
ByLayer
370
13
48
1
60
0
100
AcDbLine
10
21.3
20
-18.259511
30
0
11
21.3
21
0
31
0
39
0
210
0
220
0
230
1
0
LINE
5
94
100
AcDbEntity
8
1
62
256
6
ByLayer
370
13
48
1
60
0
100
AcDbLine
10
9.076795
20
-5.85989
30
0
11
9.076795
21
-19.122283
31
0
39
0
210
0
220
0
230
1
0
LINE
5
95
100
AcDbEntity
8
1
62
256
6
ByLayer
370
13
48
1
60
0
100
AcDbLine
10
9.336603
20
-6.16973
30
0
11
9.336603
21
-19.024574
31
0
39
0
210
0
220
0
230
1
0
LINE
5
96
100
AcDbEntity
8
1
62
256
6
ByLayer
370
13
48
1
60
0
100
AcDbLine
10
6.663397
20
19.024574
30
0
11
6.663397
21
6.16973
31
0
39
0
210
0
220
0
230
1
0
LINE
5
97
100
AcDbEntity
8
1
62
256
6
ByLayer
370
13
48
1
60
0
100
AcDbLine
10
6.923205
20
19.122283
30
0
11
6.923205
21
5.85989
31
0
39
0
210
0
220
0
230
1
0
LINE
5
98
100
AcDbEntity
8
1
62
256
6
ByLayer
370
13
48
1
60
0
100
AcDbLine
10
9.076795
20
19.122283
30
0
11
9.076795
21
5.85989
31
0
39
0
210
0
220
0
230
1
0
LINE
5
99
100
AcDbEntity
8
1
62
256
6
ByLayer
370
13
48
1
60
0
100
AcDbLine
10
9.336603
20
19.024574
30
0
11
9.336603
21
6.16973
31
0
39
0
210
0
220
0
230
1
0
LINE
5
9A
100
AcDbEntity
8
1
62
256
6
ByLayer
370
13
48
1
60
0
100
AcDbLine
10
6.663397
20
-6.16973
30
0
11
6.663397
21
-19.024574
31
0
39
0
210
0
220
0
230
1
0
LINE
5
9B
100
AcDbEntity
8
1
62
256
6
ByLayer
370
13
48
1
60
0
100
AcDbLine
10
6.923205
20
-5.85989
30
0
11
6.923205
21
-19.122283
31
0
39
0
210
0
220
0
230
1
0
LINE
5
9C
100
AcDbEntity
8
1
62
256
6
ByLayer
370
18
48
1
60
0
100
AcDbLine
10
9.076795
20
-5.85989
30
0
11
6.923205
21
-5.85989
31
0
39
0
210
0
220
0
230
1
0
LINE
5
9D
100
AcDbEntity
8
1
62
256
6
ByLayer
370
13
48
1
60
0
100
AcDbLine
10
24.3
20
0
30
0
11
24.3
21
16
31
0
39
0
210
0
220
0
230
1
0
LINE
5
9E
100
AcDbEntity
8
1
62
256
6
ByLayer
370
13
48
1
60
0
100
AcDbLine
10
24.3
20
-16
30
0
11
24.3
21
0
31
0
39
0
210
0
220
0
230
1
0
LINE
5
9F
100
AcDbEntity
8
1
62
256
6
ByLayer
370
18
48
1
60
0
100
AcDbLine
10
120
20
0
30
0
11
120
21
15.7
31
0
39
0
210
0
220
0
230
1
0
LINE
5
A0
100
AcDbEntity
8
1
62
256
6
ByLayer
370
18
48
1
60
0
100
AcDbLine
10
120
20
-15.7
30
0
11
120
21
0
31
0
39
0
210
0
220
0
230
1
0
LINE
5
A1
100
AcDbEntity
8
SK1
62
256
6
ByLayer
370
13
48
1
60
0
100
AcDbLine
10
-1.307107
20
-3.627816
30
0
11
-1.307107
21
3.627817
31
0
39
0
210
0
220
0
230
1
0
LINE
5
A2
100
AcDbEntity
8
1
62
256
6
ByLayer
370
18
48
1
60
0
100
AcDbLine
10
119.7
20
0
30
0
11
119.7
21
16
31
0
39
0
210
0
220
0
230
1
0
LINE
5
A3
100
AcDbEntity
8
1
62
256
6
ByLayer
370
18
48
1
60
0
100
AcDbLine
10
119.7
20
-16
30
0
11
119.7
21
0
31
0
39
0
210
0
220
0
230
1
0
LINE
5
A4
100
AcDbEntity
8
SK1
62
256
6
ByLayer
370
18
48
1
60
0
100
AcDbLine
10
-0.2
20
5.703176
30
0
11
-0.2
21
14.083485
31
0
39
0
210
0
220
0
230
1
0
LINE
5
A5
100
AcDbEntity
8
SK1
62
256
6
ByLayer
370
18
48
1
60
0
100
AcDbLine
10
124.05
20
4.8
30
0
11
124.05
21
-4.8
31
0
39
0
210
0
220
0
230
1
0
LINE
5
A6
100
AcDbEntity
8
SK1
62
256
6
ByLayer
370
18
48
1
60
0
100
AcDbLine
10
122.85
20
6
30
0
11
122.85
21
-6
31
0
39
0
210
0
220
0
230
1
0
MTEXT
5
D8
100
AcDbEntity
8
SK6
62
256
6
ByLayer
370
18
48
1
60
0
100
AcDbMText
10
0.875
20
-35.875
30
0
210
0
220
0
230
1
1
\W0.7120;C4-391.02-32120
40
3.5
41
0
44
1.084337
50
0
71
7
72
5
7
iso_b_vert
0
DIMENSION
5
E6
100
AcDbEntity
8
SK2
62
256
6
ByLayer
370
13
48
1
60
0
100
AcDbDimension
2
DimnDraft3D1
10
20
20
26.6
30
0
11
7.955263
21
26.6
31
0
70
32
71
5
72
1
41
1
210
0
220
0
230
1
3
Standard
100
AcDbAlignedDimension
13
0
23
21.5875
33
0
14
20
24
21.5875
34
0
50
0
100
AcDbRotatedDimension
1001
ACAD
1000
DSTYLE
1002
{
1070
   279
1070
     0
1070
   172
1070
     1
1070
   173
1070
     1
1070
   340
1005
D9
1070
   271
1070
     1
1070
   272
1070
     2
1070
    77
1070
     1
1070
    73
1070
     0
1070
   171
1070
     3
1070
   274
1070
     4
1070
   177
1070
     2
1070
   176
1070
     2
1070
   178
1070
     2
1070
    78
1070
     8
1070
    48
1040
-0.005
1070
    41
1041
3.5
1070
   147
1041
1.75
1070
    42
1041
1.5875
1070
    44
1041
2.0
1070
   140
1041
3.5
1070
   343
1005
0
1070
   344
1005
0
1002
}
0
DIMENSION
5
F0
100
AcDbEntity
8
SK2
62
256
6
ByLayer
370
13
48
1
60
0
100
AcDbDimension
2
DimnDraft3D2
10
24.3
20
36.6
30
0
11
68.226316
21
36.6
31
0
70
32
71
5
72
1
41
1
210
0
220
0
230
1
3
Standard
100
AcDbAlignedDimension
13
120
23
17.5875
33
0
14
24.3
24
17.5875
34
0
50
0
100
AcDbRotatedDimension
1001
ACAD
1000
DSTYLE
1002
{
1070
   279
1070
     0
1070
   172
1070
     1
1070
   173
1070
     1
1070
   340
1005
D9
1070
   271
1070
     1
1070
   272
1070
     2
1070
    77
1070
     1
1070
    73
1070
     0
1070
   171
1070
     3
1070
   274
1070
     4
1070
   177
1070
     2
1070
   176
1070
     2
1070
   178
1070
     2
1070
    78
1070
     8
1070
    48
1040
-0.005
1070
    41
1041
3.5
1070
   147
1041
1.75
1070
    42
1041
1.5875
1070
    44
1041
2.0
1070
   140
1041
3.5
1070
   343
1005
0
1070
   344
1005
0
1002
}
0
DIMENSION
5
FB
100
AcDbEntity
8
2
62
256
6
ByLayer
370
13
48
1
60
0
100
AcDbDimension
2
DimnDraft3D3
10
0
20
46.6
30
0
11
57.107895
21
46.6
31
0
70
32
71
5
72
1
41
1
210
0
220
0
230
1
3
Standard
100
AcDbAlignedDimension
13
120
23
17.5875
33
0
14
0
24
21.5875
34
0
50
0
100
AcDbRotatedDimension
1001
ACAD
1000
DSTYLE
1002
{
1070
   279
1070
     0
1070
   172
1070
     1
1070
   173
1070
     1
1070
   340
1005
D9
1070
   271
1070
     1
1070
   272
1070
     2
1070
    77
1070
     1
1070
    73
1070
     0
1070
   171
1070
     3
1070
   274
1070
     4
1070
   177
1070
     2
1070
   176
1070
     2
1070
   178
1070
     2
1070
    78
1070
     8
1070
    48
1040
-0.005
1070
    41
1041
3.5
1070
   147
1041
1.75
1070
    42
1041
1.5875
1070
    44
1041
2.0
1070
   140
1041
3.5
1070
   343
1005
0
1070
   344
1005
0
1002
}
0
DIMENSION
5
105
100
AcDbEntity
8
SK2
62
256
6
ByLayer
370
13
48
1
60
0
100
AcDbDimension
2
DimnDraft3D4
10
0
20
46.6
30
0
11
-14.275
21
46.6
31
0
70
32
71
5
72
1
41
1
210
0
220
0
230
1
3
Standard
100
AcDbAlignedDimension
13
-24
23
15.5875
33
0
14
0
24
21.5875
34
0
50
0
100
AcDbRotatedDimension
1001
ACAD
1000
DSTYLE
1002
{
1070
   279
1070
     0
1070
   172
1070
     1
1070
   173
1070
     1
1070
   340
1005
D9
1070
   271
1070
     1
1070
   272
1070
     2
1070
    77
1070
     1
1070
    73
1070
     0
1070
   171
1070
     3
1070
   274
1070
     4
1070
   177
1070
     2
1070
   176
1070
     2
1070
   178
1070
     2
1070
    78
1070
     8
1070
    48
1040
-0.005
1070
    41
1041
3.5
1070
   147
1041
1.75
1070
    42
1041
1.5875
1070
    44
1041
2.0
1070
   140
1041
3.5
1070
   343
1005
0
1070
   344
1005
0
1002
}
0
DIMENSION
5
110
100
AcDbEntity
8
SK2
62
256
6
ByLayer
370
13
48
1
60
0
100
AcDbDimension
2
DimnDraft3D5
10
-47.6
20
-20
30
0
11
-48.225
21
1.271053
31
0
70
33
71
5
72
1
41
1
210
0
220
0
230
1
3
Standard
100
AcDbAlignedDimension
13
-1.5875
23
20
33
0
14
-1.5875
24
-20
34
0
1001
ACAD
1000
DSTYLE
1002
{
1070
   279
1070
     0
1070
    74
1070
     0
1070
   173
1070
     1
1070
   340
1005
D9
1070
   271
1070
     1
1070
   272
1070
     2
1070
    77
1070
     1
1070
    73
1070
     0
1070
   171
1070
     3
1070
   274
1070
     4
1070
   177
1070
     2
1070
   176
1070
     2
1070
   178
1070
     2
1070
    78
1070
     8
1070
    48
1040
-0.005
1070
    41
1041
3.5
1070
   147
1041
1.75
1070
    42
1041
1.5875
1070
    44
1041
2.0
1070
   140
1041
3.5
1070
   343
1005
0
1070
   344
1005
0
1002
}
0
DIMENSION
5
11B
100
AcDbEntity
8
SK2
62
256
6
ByLayer
370
13
48
1
60
0
100
AcDbDimension
2
DimnDraft3D6
10
147.1
20
-16
30
0
11
142.475
21
1.455263
31
0
70
33
71
5
72
1
41
1
210
0
220
0
230
1
3
Standard
100
AcDbAlignedDimension
13
121.5875
23
16
33
0
14
121.5875
24
-16
34
0
1001
ACAD
1000
DSTYLE
1002
{
1070
   279
1070
     0
1070
    74
1070
     0
1070
   173
1070
     1
1070
   340
1005
D9
1070
   271
1070
     1
1070
   272
1070
     2
1070
    77
1070
     1
1070
    73
1070
     0
1070
   171
1070
     3
1070
   274
1070
     4
1070
   177
1070
     2
1070
   176
1070
     2
1070
   178
1070
     2
1070
    78
1070
     8
1070
    48
1040
-0.005
1070
    41
1041
3.5
1070
   147
1041
1.75
1070
    42
1041
1.5875
1070
    44
1041
2.0
1070
   140
1041
3.5
1070
   343
1005
0
1070
   344
1005
0
1002
}
0
ENDSEC
0
SECTION
2
OBJECTS
0
DICTIONARY
5
186
330
0
100
AcDbDictionary
280
0
281
1
3
ACAD_GROUP
350
187
3
ACAD_MLINESTYLE
350
188
0
DICTIONARY
5
187
330
0
100
AcDbDictionary
280
0
281
1
0
DICTIONARY
5
188
330
0
100
AcDbDictionary
280
0
281
1
3
Standard
350
18
0
MLINESTYLE
5
18
330
188
100
AcDbMlineStyle
2
Standard
70
0
3

62
256
51
90
52
90
71
2
49
-0.5
62
256
6
ByLayer
49
0.5
62
256
6
ByLayer
0
RASTERVARIABLES
5
174
330

100
AcDbRasterVariables
90
0
70
1
71
1
72
1
0
ENDSEC
0
EOF
