0
SECTION
2
HEADER
9
$ACADVER
1
AC1015
9
$DWGCODEPAGE
3
ANSI_1252
9
$HANDSEED
5
296
9
$ANGBASE
50
0
9
$ANGDIR
70
0
9
$ATTMODE
70
1
9
$AUNITS
70
0
9
$AUPREC
70
0
9
$CECOLOR
62
256
9
$CELTSCALE
40
1
9
$CELTYPE
6
ByLayer
9
$CELWEIGHT
370
18
9
$CLAYER
8
0
9
$CMLJUST
70
0
9
$CMLSCALE
40
1
9
$CMLSTYLE
2
Standard
9
$DIMSTYLE
2
Standard
9
$TEXTSIZE
40
0.2
9
$TEXTSTYLE
7
Standard
9
$LUNITS
70
2
9
$LUPREC
70
4
9
$EXTNAMES
290
1
9
$INSUNITS
70
4
9
$LTSCALE
40
1
9
$LWDISPLAY
290
1
9
$PDMODE
70
0
9
$PDSIZE
40
0
9
$PLINEGEN
70
0
0
ENDSEC
0
SECTION
2
CLASSES
0
CLASS
1
RASTERVARIABLES
2
AcDbRasterVariables
3
ISM
90
0
280
0
281
0
0
ENDSEC
0
SECTION
2
TABLES
0
TABLE
2
VPORT
5
28c
100
AcDbSymbolTable
0
VPORT
5
1
100
AcDbSymbolTableRecord
100
AcDbViewportTableRecord
2
*Active
70
0
10
0
20
0
11
1
21
1
12
-1
22
1
13
0
23
0
14
0.5
24
0.5
15
10
25
10
16
0
26
0
36
1
17
0
27
0
37
0
0
ENDTAB
0
TABLE
2
LTYPE
5
28d
100
AcDbSymbolTable
0
LTYPE
5
14
100
AcDbSymbolTableRecord
100
AcDbLinetypeTableRecord
70
0
2
ByBlock
3

72
65
73
0
40
0
0
LTYPE
5
15
100
AcDbSymbolTableRecord
100
AcDbLinetypeTableRecord
70
0
2
ByLayer
3

72
65
73
0
40
0
0
LTYPE
5
16
100
AcDbSymbolTableRecord
100
AcDbLinetypeTableRecord
70
0
2
CONTINUOUS
3
Solid line
72
65
73
0
40
0
0
LTYPE
5
6A
100
AcDbSymbolTableRecord
100
AcDbLinetypeTableRecord
70
0
2
CENTER
3
____ _ ____ _ ____ _ ____
72
65
73
4
40
47.5
49
22
74
0
49
-8.5
74
0
49
8.5
74
0
49
-8.5
74
0
0
LTYPE
5
6B
100
AcDbSymbolTableRecord
100
AcDbLinetypeTableRecord
70
0
2
DASHED
3
__ __ __ __ __ __ __ __ __
72
65
73
2
40
25.72
49
12.86
74
0
49
-12.86
74
0
0
ENDTAB
0
TABLE
2
LAYER
5
28e
100
AcDbSymbolTable
0
LAYER
5
10
100
AcDbSymbolTableRecord
100
AcDbLayerTableRecord
2
0
70
0
62
7
6
CONTINUOUS
290
1
370
-3
390
0
0
LAYER
5
6D
100
AcDbSymbolTableRecord
100
AcDbLayerTableRecord
2
80
70
0
62
-6
6
CONTINUOUS
290
1
370
-3
390
0
0
LAYER
5
6F
100
AcDbSymbolTableRecord
100
AcDbLayerTableRecord
2
1
70
0
62
4
6
CONTINUOUS
290
1
370
-3
390
0
0
LAYER
5
71
100
AcDbSymbolTableRecord
100
AcDbLayerTableRecord
2
81
70
0
62
-3
6
CONTINUOUS
290
1
370
-3
390
0
0
LAYER
5
82
100
AcDbSymbolTableRecord
100
AcDbLayerTableRecord
2
4
70
0
62
-2
6
CENTER
290
1
370
-3
390
0
0
LAYER
5
F5
100
AcDbSymbolTableRecord
100
AcDbLayerTableRecord
2
2
70
0
62
7
6
CONTINUOUS
290
1
370
-3
390
0
0
LAYER
5
279
100
AcDbSymbolTableRecord
100
AcDbLayerTableRecord
2
SK1
70
0
62
4
6
CONTINUOUS
290
1
370
-3
390
0
0
LAYER
5
27a
100
AcDbSymbolTableRecord
100
AcDbLayerTableRecord
2
SK6
70
0
62
5
6
CONTINUOUS
290
1
370
-3
390
0
0
LAYER
5
27b
100
AcDbSymbolTableRecord
100
AcDbLayerTableRecord
2
SK2
70
0
62
7
6
CONTINUOUS
290
1
370
-3
390
0
0
ENDTAB
0
TABLE
2
STYLE
5
28f
100
AcDbSymbolTable
0
STYLE
5
11
100
AcDbSymbolTableRecord
100
AcDbTextStyleTableRecord
2
Standard
3
txt
70
0
71
0
40
0
41
1
42
0
50
0
0
STYLE
5
1CF
100
AcDbSymbolTableRecord
100
AcDbTextStyleTableRecord
2
iso_b_vert
3
simplex.shx
70
0
71
0
40
0
41
1
42
0
50
0
0
STYLE
5
1D0
100
AcDbSymbolTableRecord
100
AcDbTextStyleTableRecord
2
DWGDirectTextStyle
3
simplex
70
0
71
0
40
0
41
1
42
0
50
0
0
ENDTAB
0
TABLE
2
DIMSTYLE
5
290
100
AcDbSymbolTable
100
AcDbDimStyleTable
0
DIMSTYLE
105
27
100
AcDbSymbolTableRecord
100
AcDbDimStyleTableRecord
2
Standard
70
0
3
<>
41
0.18
42
0.0625
44
0.18
140
0.18
147
0.09
73
0
74
0
77
1
271
2
275
0
278
52
280
0
340
11
0
ENDTAB
0
TABLE
2
VIEW
5
291
100
AcDbSymbolTable
0
ENDTAB
0
TABLE
2
UCS
5
292
100
AcDbSymbolTable
0
ENDTAB
0
TABLE
2
APPID
5
293
100
AcDbSymbolTable
0
APPID
5
12
100
AcDbSymbolTableRecord
100
AcDbRegAppTableRecord
2
ACAD
70
0
0
ENDTAB
0
TABLE
2
BLOCK_RECORD
5
294
100
AcDbSymbolTable
0
BLOCK_RECORD
5
1F
100
AcDbSymbolTableRecord
100
AcDbBlockTableRecord
2
*Model_Space
340
0
70
0
0
BLOCK_RECORD
5
1B
100
AcDbSymbolTableRecord
100
AcDbBlockTableRecord
2
*Paper_Space
340
0
70
0
0
BLOCK_RECORD
5
23
100
AcDbSymbolTableRecord
100
AcDbBlockTableRecord
2
*Paper_Space0
340
0
70
0
0
BLOCK_RECORD
5
1D2
100
AcDbSymbolTableRecord
100
AcDbBlockTableRecord
2
DimnDraft3D1
340
0
70
0
0
BLOCK_RECORD
5
1E1
100
AcDbSymbolTableRecord
100
AcDbBlockTableRecord
2
_CLOSED
340
0
70
0
0
BLOCK_RECORD
5
1E8
100
AcDbSymbolTableRecord
100
AcDbBlockTableRecord
2
DimnDraft3D2
340
0
70
0
0
BLOCK_RECORD
5
1F6
100
AcDbSymbolTableRecord
100
AcDbBlockTableRecord
2
DimnDraft3D3
340
0
70
0
0
BLOCK_RECORD
5
204
100
AcDbSymbolTableRecord
100
AcDbBlockTableRecord
2
DimnDraft3D4
340
0
70
0
0
BLOCK_RECORD
5
212
100
AcDbSymbolTableRecord
100
AcDbBlockTableRecord
2
DimnDraft3D5
340
0
70
0
0
ENDTAB
0
ENDSEC
0
SECTION
2
BLOCKS
0
BLOCK
5
20
100
AcDbEntity
8
0
100
AcDbBlockBegin
2
*Model_Space
70
0
10
0
20
0
30
0
3
*Model_Space
0
ENDBLK
5
21
100
AcDbEntity
8
0
100
AcDbBlockEnd
0
BLOCK
5
1C
100
AcDbEntity
8
0
100
AcDbBlockBegin
2
*Paper_Space
70
0
10
0
20
0
30
0
3
*Paper_Space
0
ENDBLK
5
1D
100
AcDbEntity
8
0
100
AcDbBlockEnd
0
BLOCK
5
24
100
AcDbEntity
8
0
100
AcDbBlockBegin
2
*Paper_Space0
70
0
10
0
20
0
30
0
3
*Paper_Space0
0
ENDBLK
5
25
100
AcDbEntity
8
0
100
AcDbBlockEnd
0
BLOCK
5
1DE
100
AcDbEntity
8
0
100
AcDbBlockBegin
2
DimnDraft3D1
70
0
10
0
20
0
30
0
3
DimnDraft3D1
0
MTEXT
5
1D3
100
AcDbEntity
8
SK2
62
256
6
ByLayer
370
13
48
1
60
0
100
AcDbMText
10
-13.04606
20
-55.162089
30
0
210
0
220
0
230
1
1
\W0.6927;79
40
4.5
41
0
44
1.084337
50
0
71
7
72
5
7
iso_b_vert
0
LINE
5
1D5
100
AcDbEntity
8
SK2
62
256
6
ByLayer
370
13
48
1
60
0
100
AcDbLine
10
-24
20
-1.5875
30
0
11
-24
21
-59.462089
31
0
39
0
210
0
220
0
230
1
0
LINE
5
1D6
100
AcDbEntity
8
SK2
62
256
6
ByLayer
370
13
48
1
60
0
100
AcDbLine
10
55
20
-1.5875
30
0
11
55
21
-59.462089
31
0
39
0
210
0
220
0
230
1
0
LINE
5
1D7
100
AcDbEntity
8
SK2
62
256
6
ByLayer
370
13
48
1
60
0
100
AcDbLine
10
-24
20
-56.287089
30
0
11
55
21
-56.287089
31
0
39
0
210
0
220
0
230
1
0
LINE
5
1D8
100
AcDbEntity
8
SK2
62
256
6
ByLayer
370
13
48
1
60
0
100
AcDbLine
10
-24
20
-56.287089
30
0
11
-20.825003
21
-55.43635
31
0
39
0
210
0
220
0
230
1
0
LINE
5
1D9
100
AcDbEntity
8
SK2
62
256
6
ByLayer
370
13
48
1
60
0
100
AcDbLine
10
-24
20
-56.287089
30
0
11
-20.824997
21
-57.137827
31
0
39
0
210
0
220
0
230
1
0
LINE
5
1DA
100
AcDbEntity
8
SK2
62
256
6
ByLayer
370
13
48
1
60
0
100
AcDbLine
10
-20.825003
20
-55.43635
30
0
11
-20.824997
21
-57.137827
31
0
39
0
210
0
220
0
230
1
0
LINE
5
1DB
100
AcDbEntity
8
SK2
62
256
6
ByLayer
370
13
48
1
60
0
100
AcDbLine
10
55
20
-56.287089
30
0
11
51.825003
21
-57.137827
31
0
39
0
210
0
220
0
230
1
0
LINE
5
1DC
100
AcDbEntity
8
SK2
62
256
6
ByLayer
370
13
48
1
60
0
100
AcDbLine
10
55
20
-56.287089
30
0
11
51.824997
21
-55.43635
31
0
39
0
210
0
220
0
230
1
0
LINE
5
1DD
100
AcDbEntity
8
SK2
62
256
6
ByLayer
370
13
48
1
60
0
100
AcDbLine
10
51.825003
20
-57.137827
30
0
11
51.824997
21
-55.43635
31
0
39
0
210
0
220
0
230
1
0
ENDBLK
5
1DF
100
AcDbEntity
8
0
100
AcDbBlockEnd
0
BLOCK
5
1E2
100
AcDbEntity
8
0
100
AcDbBlockBegin
2
_CLOSED
70
0
10
0
20
0
30
0
3
_CLOSED
0
LINE
5
1E4
100
AcDbEntity
8
0
62
256
6
ByLayer
370
-2
48
1
60
0
100
AcDbLine
10
-1
20
0.166667
30
0
11
0
21
0
31
0
39
0
210
0
220
0
230
1
0
LINE
5
1E5
100
AcDbEntity
8
0
62
256
6
ByLayer
370
-2
48
1
60
0
100
AcDbLine
10
0
20
0
30
0
11
-1
21
-0.166667
31
0
39
0
210
0
220
0
230
1
0
LINE
5
1E6
100
AcDbEntity
8
0
62
256
6
ByLayer
370
-2
48
1
60
0
100
AcDbLine
10
-1
20
0.166667
30
0
11
-1
21
-0.166667
31
0
39
0
210
0
220
0
230
1
0
LINE
5
1E7
100
AcDbEntity
8
0
62
256
6
ByLayer
370
-2
48
1
60
0
100
AcDbLine
10
0
20
0
30
0
11
-1
21
0
31
0
39
0
210
0
220
0
230
1
0
ENDBLK
5
1E3
100
AcDbEntity
8
0
100
AcDbBlockEnd
0
BLOCK
5
1F3
100
AcDbEntity
8
0
100
AcDbBlockBegin
2
DimnDraft3D2
70
0
10
0
20
0
30
0
3
DimnDraft3D2
0
MTEXT
5
1E9
100
AcDbEntity
8
2
62
256
6
ByLayer
370
13
48
1
60
0
100
AcDbMText
10
12.42511
20
-44.533831
30
0
210
0
220
0
230
1
1
\W0.6740;55
40
4.5
41
0
44
1.084337
50
0
71
7
72
5
7
iso_b_vert
0
LINE
5
1EA
100
AcDbEntity
8
2
62
256
6
ByLayer
370
13
48
1
60
0
100
AcDbLine
10
55
20
25.4125
30
0
11
55
21
-48.833831
31
0
39
0
210
0
220
0
230
1
0
LINE
5
1EB
100
AcDbEntity
8
2
62
256
6
ByLayer
370
13
48
1
60
0
100
AcDbLine
10
0
20
-21.5875
30
0
11
0
21
-48.833831
31
0
39
0
210
0
220
0
230
1
0
LINE
5
1EC
100
AcDbEntity
8
2
62
256
6
ByLayer
370
13
48
1
60
0
100
AcDbLine
10
55
20
-45.658831
30
0
11
0
21
-45.658831
31
0
39
0
210
0
220
0
230
1
0
LINE
5
1ED
100
AcDbEntity
8
2
62
256
6
ByLayer
370
13
48
1
60
0
100
AcDbLine
10
55
20
-45.658831
30
0
11
51.825003
21
-46.509569
31
0
39
0
210
0
220
0
230
1
0
LINE
5
1EE
100
AcDbEntity
8
2
62
256
6
ByLayer
370
13
48
1
60
0
100
AcDbLine
10
55
20
-45.658831
30
0
11
51.824997
21
-44.808092
31
0
39
0
210
0
220
0
230
1
0
LINE
5
1EF
100
AcDbEntity
8
2
62
256
6
ByLayer
370
13
48
1
60
0
100
AcDbLine
10
51.825003
20
-46.509569
30
0
11
51.824997
21
-44.808092
31
0
39
0
210
0
220
0
230
1
0
LINE
5
1F0
100
AcDbEntity
8
2
62
256
6
ByLayer
370
13
48
1
60
0
100
AcDbLine
10
0
20
-45.658831
30
0
11
3.174997
21
-44.808092
31
0
39
0
210
0
220
0
230
1
0
LINE
5
1F1
100
AcDbEntity
8
2
62
256
6
ByLayer
370
13
48
1
60
0
100
AcDbLine
10
0
20
-45.658831
30
0
11
3.175003
21
-46.509569
31
0
39
0
210
0
220
0
230
1
0
LINE
5
1F2
100
AcDbEntity
8
2
62
256
6
ByLayer
370
13
48
1
60
0
100
AcDbLine
10
3.174997
20
-44.808092
30
0
11
3.175003
21
-46.509569
31
0
39
0
210
0
220
0
230
1
0
ENDBLK
5
1F4
100
AcDbEntity
8
0
100
AcDbBlockEnd
0
BLOCK
5
201
100
AcDbEntity
8
0
100
AcDbBlockBegin
2
DimnDraft3D3
70
0
10
0
20
0
30
0
3
DimnDraft3D3
0
MTEXT
5
1F7
100
AcDbEntity
8
2
62
256
6
ByLayer
370
13
48
1
60
0
100
AcDbMText
10
81.761122
20
14.186319
30
0
210
0
220
0
230
1
1
\W0.6740;27
40
4.5
41
0
44
1.084337
50
90
71
7
72
5
7
iso_b_vert
0
LINE
5
1F8
100
AcDbEntity
8
2
62
256
6
ByLayer
370
13
48
1
60
0
100
AcDbLine
10
56.5875
20
0
30
0
11
86.061122
21
0
31
0
39
0
210
0
220
0
230
1
0
LINE
5
1F9
100
AcDbEntity
8
2
62
256
6
ByLayer
370
13
48
1
60
0
100
AcDbLine
10
66.5875
20
27
30
0
11
86.061122
21
27
31
0
39
0
210
0
220
0
230
1
0
LINE
5
1FA
100
AcDbEntity
8
2
62
256
6
ByLayer
370
13
48
1
60
0
100
AcDbLine
10
82.886122
20
0
30
0
11
82.886122
21
27
31
0
39
0
210
0
220
0
230
1
0
LINE
5
1FB
100
AcDbEntity
8
2
62
256
6
ByLayer
370
13
48
1
60
0
100
AcDbLine
10
82.886122
20
0
30
0
11
82.035383
21
3.174997
31
0
39
0
210
0
220
0
230
1
0
LINE
5
1FC
100
AcDbEntity
8
2
62
256
6
ByLayer
370
13
48
1
60
0
100
AcDbLine
10
82.886122
20
0
30
0
11
83.73686
21
3.175003
31
0
39
0
210
0
220
0
230
1
0
LINE
5
1FD
100
AcDbEntity
8
2
62
256
6
ByLayer
370
13
48
1
60
0
100
AcDbLine
10
82.035383
20
3.174997
30
0
11
83.73686
21
3.175003
31
0
39
0
210
0
220
0
230
1
0
LINE
5
1FE
100
AcDbEntity
8
2
62
256
6
ByLayer
370
13
48
1
60
0
100
AcDbLine
10
82.886122
20
27
30
0
11
83.73686
21
23.825003
31
0
39
0
210
0
220
0
230
1
0
LINE
5
1FF
100
AcDbEntity
8
2
62
256
6
ByLayer
370
13
48
1
60
0
100
AcDbLine
10
82.886122
20
27
30
0
11
82.035383
21
23.824997
31
0
39
0
210
0
220
0
230
1
0
LINE
5
200
100
AcDbEntity
8
2
62
256
6
ByLayer
370
13
48
1
60
0
100
AcDbLine
10
83.73686
20
23.825003
30
0
11
82.035383
21
23.824997
31
0
39
0
210
0
220
0
230
1
0
ENDBLK
5
202
100
AcDbEntity
8
0
100
AcDbBlockEnd
0
BLOCK
5
20F
100
AcDbEntity
8
0
100
AcDbBlockBegin
2
DimnDraft3D4
70
0
10
0
20
0
30
0
3
DimnDraft3D4
0
MTEXT
5
205
100
AcDbEntity
8
SK2
62
256
6
ByLayer
370
13
48
1
60
0
100
AcDbMText
10
-33.694548
20
-1.969491
30
0
210
0
220
0
230
1
1
\W0.7361;40
40
4.5
41
0
44
1.084337
50
90
71
7
72
5
7
iso_b_vert
0
LINE
5
206
100
AcDbEntity
8
SK2
62
256
6
ByLayer
370
13
48
1
60
0
100
AcDbLine
10
-1.5875
20
20
30
0
11
-35.744548
21
20
31
0
39
0
210
0
220
0
230
1
0
LINE
5
207
100
AcDbEntity
8
SK2
62
256
6
ByLayer
370
13
48
1
60
0
100
AcDbLine
10
-1.5875
20
-20
30
0
11
-35.744548
21
-20
31
0
39
0
210
0
220
0
230
1
0
LINE
5
208
100
AcDbEntity
8
SK2
62
256
6
ByLayer
370
13
48
1
60
0
100
AcDbLine
10
-32.569548
20
20
30
0
11
-32.569548
21
-20
31
0
39
0
210
0
220
0
230
1
0
LINE
5
209
100
AcDbEntity
8
SK2
62
256
6
ByLayer
370
13
48
1
60
0
100
AcDbLine
10
-32.569548
20
20
30
0
11
-31.71881
21
16.825003
31
0
39
0
210
0
220
0
230
1
0
LINE
5
20A
100
AcDbEntity
8
SK2
62
256
6
ByLayer
370
13
48
1
60
0
100
AcDbLine
10
-32.569548
20
20
30
0
11
-33.420287
21
16.824997
31
0
39
0
210
0
220
0
230
1
0
LINE
5
20B
100
AcDbEntity
8
SK2
62
256
6
ByLayer
370
13
48
1
60
0
100
AcDbLine
10
-31.71881
20
16.825003
30
0
11
-33.420287
21
16.824997
31
0
39
0
210
0
220
0
230
1
0
LINE
5
20C
100
AcDbEntity
8
SK2
62
256
6
ByLayer
370
13
48
1
60
0
100
AcDbLine
10
-32.569548
20
-20
30
0
11
-33.420287
21
-16.825003
31
0
39
0
210
0
220
0
230
1
0
LINE
5
20D
100
AcDbEntity
8
SK2
62
256
6
ByLayer
370
13
48
1
60
0
100
AcDbLine
10
-32.569548
20
-20
30
0
11
-31.71881
21
-16.824997
31
0
39
0
210
0
220
0
230
1
0
LINE
5
20E
100
AcDbEntity
8
SK2
62
256
6
ByLayer
370
13
48
1
60
0
100
AcDbLine
10
-33.420287
20
-16.825003
30
0
11
-31.71881
21
-16.824997
31
0
39
0
210
0
220
0
230
1
0
ENDBLK
5
210
100
AcDbEntity
8
0
100
AcDbBlockEnd
0
BLOCK
5
21D
100
AcDbEntity
8
0
100
AcDbBlockBegin
2
DimnDraft3D5
70
0
10
0
20
0
30
0
3
DimnDraft3D5
0
MTEXT
5
213
100
AcDbEntity
8
2
62
256
6
ByLayer
370
13
48
1
60
0
100
AcDbMText
10
65.720198
20
14.483343
30
0
210
0
220
0
230
1
1
\W0.8531;95%%d
40
4.5
41
0
44
1.084337
50
51.0433481337535
71
7
72
5
7
iso_b_vert
0
LINE
5
214
100
AcDbEntity
8
2
62
256
6
ByLayer
370
13
48
1
60
0
100
AcDbLine
10
64.933723
20
27
30
0
11
75.505887
21
27
31
0
39
0
210
0
220
0
230
1
0
LINE
5
215
100
AcDbEntity
8
2
62
256
6
ByLayer
370
13
48
1
60
0
100
AcDbLine
10
54.52188
20
21.184519
30
0
11
53.319778
21
6.563067
31
0
39
0
210
0
220
0
230
1
0
ARC
5
216
100
AcDbEntity
8
2
62
256
6
ByLayer
370
13
48
1
60
0
100
AcDbCircle
39
0
10
55
20
27
30
0
40
17.3308867047441
210
0
220
0
230
1
100
AcDbArc
50
265.3
51
0
0
LINE
5
217
100
AcDbEntity
8
2
62
256
6
ByLayer
370
13
48
1
60
0
100
AcDbLine
10
72.330887
20
27
30
0
11
73.035779
21
23.789472
31
0
39
0
210
0
220
0
230
1
0
LINE
5
218
100
AcDbEntity
8
2
62
256
6
ByLayer
370
13
48
1
60
0
100
AcDbLine
10
72.330887
20
27
30
0
11
71.336076
21
23.867149
31
0
39
0
210
0
220
0
230
1
0
LINE
5
219
100
AcDbEntity
8
2
62
256
6
ByLayer
370
13
48
1
60
0
100
AcDbLine
10
73.035779
20
23.789472
30
0
11
71.336076
21
23.867149
31
0
39
0
210
0
220
0
230
1
0
LINE
5
21A
100
AcDbEntity
8
2
62
256
6
ByLayer
370
13
48
1
60
0
100
AcDbLine
10
53.579933
20
9.72739
30
0
11
56.783756
21
10.462155
31
0
39
0
210
0
220
0
230
1
0
LINE
5
21B
100
AcDbEntity
8
2
62
256
6
ByLayer
370
13
48
1
60
0
100
AcDbLine
10
53.579933
20
9.72739
30
0
11
56.721913
21
8.761802
31
0
39
0
210
0
220
0
230
1
0
LINE
5
21C
100
AcDbEntity
8
2
62
256
6
ByLayer
370
13
48
1
60
0
100
AcDbLine
10
56.783756
20
10.462155
30
0
11
56.721913
21
8.761802
31
0
39
0
210
0
220
0
230
1
0
ENDBLK
5
21E
100
AcDbEntity
8
0
100
AcDbBlockEnd
0
ENDSEC
0
SECTION
2
ENTITIES
0
ARC
5
F7
100
AcDbEntity
8
1
62
256
6
ByLayer
370
13
48
1
60
0
100
AcDbCircle
39
0
10
-22.708482
20
25.1
30
0
40
5
210
0
220
0
230
-1
100
AcDbArc
50
220.755682
51
270
0
ARC
5
F8
100
AcDbEntity
8
1
62
256
6
ByLayer
370
13
48
1
60
0
100
AcDbCircle
39
0
10
-20.279208
20
21.2
30
0
40
1.2
210
0
220
0
230
-1
100
AcDbArc
50
246.443536
51
270
0
ELLIPSE
5
F9
100
AcDbEntity
8
1
62
256
6
ByLayer
370
13
48
1
60
0
100
AcDbEllipse
10
37.124914
20
19.63285
30
0
11
-0.0506530583512665
21
-1.59919800765248
31
0
210
0
220
0
230
1
40
0.06623
41
-1.46118581289741
42
-0.424476688051829
0
ELLIPSE
5
FA
100
AcDbEntity
8
1
62
256
6
ByLayer
370
13
48
1
60
0
100
AcDbEllipse
10
44.662896
20
18.073659
30
0
11
-2.17047646581611
21
1.30587537193769
31
0
210
0
220
0
230
-1
40
0.991433
41
-0.629303007435542
42
0.52704215274434
0
ELLIPSE
5
FB
100
AcDbEntity
8
1
62
256
6
ByLayer
370
13
48
1
60
0
100
AcDbEllipse
10
42.230728
20
22.464445
30
0
11
-2.13979989198682
21
1.28741869532246
31
0
210
0
220
0
230
-1
40
0.991433
41
2.68509225656732
42
-2.61455050085016
0
ELLIPSE
5
FC
100
AcDbEntity
8
1
62
256
6
ByLayer
370
13
48
1
60
0
100
AcDbEllipse
10
-90.118448
20
81.846136
30
0
11
-125.900974605994
21
81.3057588971944
31
0
210
0
220
0
230
1
40
0.991816
41
3.03365672209569
42
-3.06025307095862
0
ELLIPSE
5
FD
100
AcDbEntity
8
1
62
256
6
ByLayer
370
13
48
1
60
0
100
AcDbEllipse
10
-90.219609
20
81.689489
30
0
11
127.23994867079
21
-82.1704567505869
31
0
210
0
220
0
230
1
40
0.991816
41
-0.0899564499655361
42
0.0813395826311722
0
ELLIPSE
5
FE
100
AcDbEntity
8
1
62
256
6
ByLayer
370
13
48
1
60
0
100
AcDbEllipse
10
46.681488
20
9.130868
30
0
11
-1.38609150095357
21
0.895125885551451
31
0
210
0
220
0
230
1
40
0.991816
41
0
42
6.28318530717959
0
ELLIPSE
5
FF
100
AcDbEntity
8
1
62
256
6
ByLayer
370
13
48
1
60
0
100
AcDbEllipse
10
43.643423
20
19.62007
30
0
11
-0.203186744050111
21
-2.19059698416717
31
0
210
0
220
0
230
1
40
0.094469
41
-1.29019954358115
42
-0.210178664468547
0
ELLIPSE
5
100
100
AcDbEntity
8
1
62
256
6
ByLayer
370
13
48
1
60
0
100
AcDbEllipse
10
39.387881
20
12.313514
30
0
11
-2.41282270286771
21
1.55818000261691
31
0
210
0
220
0
230
1
40
0.991816
41
-3.0602530709586
42
-2.41666745290591
0
ELLIPSE
5
101
100
AcDbEntity
8
1
62
256
6
ByLayer
370
13
48
1
60
0
100
AcDbEllipse
10
39.387881
20
12.313514
30
0
11
-2.41282270286771
21
1.55818000261691
31
0
210
0
220
0
230
1
40
0.991816
41
-2.41666744964761
42
-2.39431922950369
0
ELLIPSE
5
102
100
AcDbEntity
8
1
62
256
6
ByLayer
370
13
48
1
60
0
100
AcDbEllipse
10
43.165497
20
23.170502
30
0
11
-3.08324741927251
21
-0.443121050638508
31
0
210
0
220
0
230
-1
40
0.96233
41
1.65403099456451
42
1.83674189913697
0
ELLIPSE
5
103
100
AcDbEntity
8
1
62
256
6
ByLayer
370
13
48
1
60
0
100
AcDbEllipse
10
45.241354
20
23.32286
30
0
11
-0.205294257976964
21
0.804857499626339
31
0
210
0
220
0
230
-1
40
0.245318
41
-0.619263118401939
42
-0.0837364640878945
0
ELLIPSE
5
104
100
AcDbEntity
8
1
62
256
6
ByLayer
370
13
48
1
60
0
100
AcDbEllipse
10
-599.255237
20
-15.499984
30
0
11
-655.824484187552
21
-42.499186178841
31
0
210
0
220
0
230
-1
40
0.000397
41
2.90856039706304
42
2.93680783253467
0
ELLIPSE
5
105
100
AcDbEntity
8
1
62
256
6
ByLayer
370
13
48
1
60
0
100
AcDbEllipse
10
45.548131
20
26.273594
30
0
11
-0.544558910817052
21
-0.031707129092909
31
0
210
0
220
0
230
-1
40
0.016048
41
-0.805455605224727
42
-0.269928950771556
0
ELLIPSE
5
106
100
AcDbEntity
8
1
62
256
6
ByLayer
370
13
48
1
60
0
100
AcDbEllipse
10
9.771466
20
-9.71229
30
0
11
34.8338486072278
21
-22.4953977138299
31
0
210
0
220
0
230
1
40
0.991816
41
1.21379008470319
42
1.31461274401063
0
ELLIPSE
5
107
100
AcDbEntity
8
1
62
256
6
ByLayer
370
13
48
1
60
0
100
AcDbEllipse
10
46.234745
20
8.439091
30
0
11
-1.38609150095357
21
0.89512588555145
31
0
210
0
220
0
230
1
40
0.991816
41
-2.56443062120847
42
-0.254280127260578
0
ELLIPSE
5
108
100
AcDbEntity
8
1
62
256
6
ByLayer
370
13
48
1
60
0
100
AcDbEllipse
10
46.234745
20
8.439091
30
0
11
-1.38609150095357
21
0.89512588555145
31
0
210
0
220
0
230
1
40
0.991816
41
-2.88732769680727
42
-2.56443062120847
0
ELLIPSE
5
109
100
AcDbEntity
8
1
62
256
6
ByLayer
370
13
48
1
60
0
100
AcDbEllipse
10
37.225963
20
25.783757
30
0
11
-3.03814491724464
21
-0.196432452770434
31
0
210
0
220
0
230
-1
40
0.006113
41
-0.0945973586243202
42
1.30348671432553
0
ELLIPSE
5
10A
100
AcDbEntity
8
1
62
256
6
ByLayer
370
13
48
1
60
0
100
AcDbEllipse
10
43.139824
20
16.300253
30
0
11
-0.593442362485542
21
2.50442961325309
31
0
210
0
220
0
230
-1
40
0.240405
41
-1.10251630088142
42
-0.875532970814117
0
ELLIPSE
5
10B
100
AcDbEntity
8
1
62
256
6
ByLayer
370
13
48
1
60
0
100
AcDbEllipse
10
16.948929
20
0
30
0
11
-9.36741787978109
21
19.7417491527501
31
0
210
0
220
0
230
-1
40
0.341999
41
-1.09631952749992
42
-0.152726244898379
0
ELLIPSE
5
10C
100
AcDbEntity
8
1
62
256
6
ByLayer
370
13
48
1
60
0
100
AcDbEllipse
10
52.58832
20
15.441339
30
0
11
-0.760241886673662
21
0.457402403856817
31
0
210
0
220
0
230
-1
40
0.991433
41
1.00206785050457
42
1.38575514088172
0
ELLIPSE
5
10D
100
AcDbEntity
8
1
62
256
6
ByLayer
370
13
48
1
60
0
100
AcDbEllipse
10
44.709347
20
17.57836
30
0
11
-2.17122185464859
21
1.30632383795824
31
0
210
0
220
0
230
-1
40
0.991433
41
-2.19195965673063
42
-0.629303007439352
0
ELLIPSE
5
10E
100
AcDbEntity
8
1
62
256
6
ByLayer
370
13
48
1
60
0
100
AcDbEllipse
10
37.668559
20
25.783856
30
0
11
-3.03814491724113
21
-0.196432452770104
31
0
210
0
220
0
230
-1
40
0.006113
41
-1.66539368542326
42
-0.0945973586234726
0
ELLIPSE
5
10F
100
AcDbEntity
8
1
62
256
6
ByLayer
370
13
48
1
60
0
100
AcDbEllipse
10
46.719582
20
9.189856
30
0
11
-1.84812200127143
21
1.19350118073527
31
0
210
0
220
0
230
1
40
0.991816
41
-2.56443062120847
42
-0.0291654299811527
0
ELLIPSE
5
110
100
AcDbEntity
8
1
62
256
6
ByLayer
370
13
48
1
60
0
100
AcDbEllipse
10
46.719582
20
9.189856
30
0
11
-1.84812200127143
21
1.19350118073527
31
0
210
0
220
0
230
1
40
0.991816
41
-3.11234417451713
42
-2.56443062120847
0
ELLIPSE
5
111
100
AcDbEntity
8
1
62
256
6
ByLayer
370
13
48
1
60
0
100
AcDbEllipse
10
-0.948929
20
0
30
0
11
-9.36741787978211
21
-19.7417491527494
31
0
210
0
220
0
230
-1
40
0.341999
41
-2.98886640869144
42
-2.04527312608991
0
ELLIPSE
5
112
100
AcDbEntity
8
1
62
256
6
ByLayer
370
13
48
1
60
0
100
AcDbEllipse
10
40.292007
20
18.180441
30
0
11
-1.17808167262083
21
-1.08264655942506
31
0
210
0
220
0
230
1
40
0.032351
41
0.509804865400151
42
1.44690894677037
0
ELLIPSE
5
113
100
AcDbEntity
8
1
62
256
6
ByLayer
370
13
48
1
60
0
100
AcDbEllipse
10
36.905893
20
15.02312
30
0
11
3.75179676766285
21
-2.42287785600942
31
0
210
0
220
0
230
1
40
0.991816
41
1.31461274401063
42
2.11618113882692
0
ELLIPSE
5
114
100
AcDbEntity
8
1
62
256
6
ByLayer
370
13
48
1
60
0
100
AcDbEllipse
10
43.346041
20
19.647654
30
0
11
-0.203186744050111
21
-2.19059698416717
31
0
210
0
220
0
230
1
40
0.094469
41
-1.170696375361
42
-0.106972687587367
0
ELLIPSE
5
115
100
AcDbEntity
8
1
62
256
6
ByLayer
370
13
48
1
60
0
100
AcDbEllipse
10
45.845452
20
16.11397
30
0
11
-2.75234509895758
21
0.272204338809862
31
0
210
0
220
0
230
-1
40
0.24586
41
-2.46539280617584
42
-1.6087092673007
0
ELLIPSE
5
116
100
AcDbEntity
8
1
62
256
6
ByLayer
370
13
48
1
60
0
100
AcDbEllipse
10
36.95808
20
25.772433
30
0
11
-2.02542994527389
21
-0.130954968542224
31
0
210
0
220
0
230
-1
40
0.006113
41
1.30348671437567
42
1.87762469605356
0
ELLIPSE
5
117
100
AcDbEntity
8
1
62
256
6
ByLayer
370
13
48
1
60
0
100
AcDbEllipse
10
50.291034
20
15.36527
30
0
11
-0.779866847572616
21
0.469209837420805
31
0
210
0
220
0
230
-1
40
0.991433
41
0.256739700784522
42
1.00206784892779
0
ELLIPSE
5
118
100
AcDbEntity
8
1
62
256
6
ByLayer
370
13
48
1
60
0
100
AcDbEllipse
10
47.861795
20
17.847908
30
0
11
-2.19803629914115
21
1.32245684993874
31
0
210
0
220
0
230
-1
40
0.991433
41
-2.88485295282547
42
-2.19195965675394
0
ELLIPSE
5
119
100
AcDbEntity
8
1
62
256
6
ByLayer
370
13
48
1
60
0
100
AcDbEllipse
10
43.072667
20
16.231548
30
0
11
-1.33486947113451
21
-2.21813413009143
31
0
210
0
220
0
230
-1
40
0.840613
41
2.22055158448583
42
2.28870056329199
0
ELLIPSE
5
11A
100
AcDbEntity
8
1
62
256
6
ByLayer
370
13
48
1
60
0
100
AcDbEllipse
10
39.401258
20
117.3773
30
0
11
-82.7739151100483
21
53.4546774238711
31
0
210
0
220
0
230
1
40
0.991816
41
2.00257278486297
42
2.11618113882692
0
ELLIPSE
5
11B
100
AcDbEntity
8
1
62
256
6
ByLayer
370
13
48
1
60
0
100
AcDbEllipse
10
-0.948929
20
0
30
0
11
-9.36741787978313
21
19.7417491527507
31
0
210
0
220
0
230
-1
40
0.341999
41
2.04527312608996
42
2.98886640869144
0
ELLIPSE
5
11C
100
AcDbEntity
8
1
62
256
6
ByLayer
370
13
48
1
60
0
100
AcDbEllipse
10
94.042601
20
1.241492
30
0
11
-43.9005000821074
21
15.7045771121366
31
0
210
0
220
0
230
-1
40
0.036559
41
0.342144482335667
42
0.394780661040798
0
ELLIPSE
5
11D
100
AcDbEntity
8
1
62
256
6
ByLayer
370
13
48
1
60
0
100
AcDbEllipse
10
41.828692
20
21.677985
30
0
11
-1.82027655154047
21
-3.02472835922643
31
0
210
0
220
0
230
-1
40
0.840613
41
-1.29650453221955
42
-0.85289209029503
0
ELLIPSE
5
11E
100
AcDbEntity
8
1
62
256
6
ByLayer
370
13
48
1
60
0
100
AcDbEllipse
10
43.33218
20
10.215942
30
0
11
1.41067460736083
21
-0.754981557488239
31
0
210
0
220
0
230
1
40
0.127251
41
-3.06478480367056
42
-1.58125493947533
0
ELLIPSE
5
11F
100
AcDbEntity
8
1
62
256
6
ByLayer
370
13
48
1
60
0
100
AcDbEllipse
10
43.174932
20
16.818545
30
0
11
-0.0905607788975782
21
1.27679077975658
31
0
210
0
220
0
230
-1
40
0.369973
41
-2.03797501637212
42
-1.11952794521835
0
ELLIPSE
5
120
100
AcDbEntity
8
1
62
256
6
ByLayer
370
13
48
1
60
0
100
AcDbEllipse
10
39.28672
20
12.156867
30
0
11
3.75179676766285
21
-2.42287785600942
31
0
210
0
220
0
230
1
40
0.991816
41
0.0813395826311932
42
1.21379008470318
0
ELLIPSE
5
121
100
AcDbEntity
8
1
62
256
6
ByLayer
370
13
48
1
60
0
100
AcDbEllipse
10
48.413395
20
17.358111
30
0
11
-2.66767000913635
21
0.367673564481974
31
0
210
0
220
0
230
-1
40
0.245023
41
-2.55619695374271
42
-2.25958134800882
0
ELLIPSE
5
122
100
AcDbEntity
8
1
62
256
6
ByLayer
370
13
48
1
60
0
100
AcDbEllipse
10
16.948929
20
0
30
0
11
-9.36741787978063
21
-19.7417491527496
31
0
210
0
220
0
230
-1
40
0.341999
41
0.152726244898381
42
1.09631952749994
0
ELLIPSE
5
123
100
AcDbEntity
8
1
62
256
6
ByLayer
370
13
48
1
60
0
100
AcDbEllipse
10
-40.531541
20
13.723789
30
0
11
-99.5733375345894
21
-2.33217627122297
31
0
210
0
220
0
230
-1
40
0.020746
41
2.72701499175929
42
2.77355860028896
0
ELLIPSE
5
124
100
AcDbEntity
8
1
62
256
6
ByLayer
370
13
48
1
60
0
100
AcDbEllipse
10
42.960214
20
14.968214
30
0
11
-1.28042191221094
21
-0.959437192696881
31
0
210
0
220
0
230
1
40
0.044618
41
0.456174890568307
42
1.45076643296616
0
ELLIPSE
5
125
100
AcDbEntity
8
1
62
256
6
ByLayer
370
13
48
1
60
0
100
AcDbEllipse
10
46.788845
20
9.297109
30
0
11
-1.84812200127143
21
1.19350118073527
31
0
210
0
220
0
230
1
40
0.991816
41
0
42
6.28318530717959
0
ELLIPSE
5
126
100
AcDbEntity
8
1
62
256
6
ByLayer
370
13
48
1
60
0
100
AcDbEllipse
10
-259.962639
20
-228.172113
30
0
11
288.98261898388
21
231.360949676446
31
3.80166464869992E-13
210
1.29903730450931E-15
220
2.06053029337858E-17
230
-1
40
0.4052
41
-0.0328373823504952
42
-0.0169167112632096
0
ELLIPSE
5
127
100
AcDbEntity
8
1
62
256
6
ByLayer
370
18
48
1
60
0
100
AcDbEllipse
10
104.030525
20
22.844845
30
0
11
-65.8470505564558
21
4.78115745668244
31
0
210
0
220
0
230
-1
40
0.173071
41
-0.71463491248909
42
-0.659920372513626
0
ELLIPSE
5
128
100
AcDbEntity
8
1
62
256
6
ByLayer
370
13
48
1
60
0
100
AcDbEllipse
10
49.690426
20
21.233705
30
0
11
0.127893516915429
21
0.789710863753946
31
0
210
0
220
0
230
1
40
0.050952
41
-1.66350397746829
42
-0.997242373230036
0
ELLIPSE
5
129
100
AcDbEntity
8
1
62
256
6
ByLayer
370
13
48
1
60
0
100
AcDbEllipse
10
44.704085
20
20.70759
30
0
11
0.252862944353776
21
2.72616604935806
31
0
210
0
220
0
230
1
40
0.094469
41
1.83910779872359
42
2.06186621771054
0
ELLIPSE
5
12A
100
AcDbEntity
8
1
62
256
6
ByLayer
370
18
48
1
60
0
100
AcDbEllipse
10
44.196422
20
20.754678
30
0
11
-0.300162235528571
21
-3.23610918115605
31
0
210
0
220
0
230
1
40
0.094469
41
0
42
1.36099689295999
0
ELLIPSE
5
12B
100
AcDbEntity
8
1
62
256
6
ByLayer
370
18
48
1
60
0
100
AcDbEllipse
10
44.196422
20
20.754678
30
0
11
-0.300162235528571
21
-3.23610918115605
31
0
210
0
220
0
230
1
40
0.094469
41
-1.12822442246004
42
0
0
ELLIPSE
5
12C
100
AcDbEntity
8
1
62
256
6
ByLayer
370
13
48
1
60
0
100
AcDbEllipse
10
37.66009
20
6.655486
30
0
11
-12.6530132637545
21
-10.3628582551526
31
0
210
0
220
0
230
-1
40
0.046651
41
-3.03076357727167
42
-2.9160787496776
0
ELLIPSE
5
12D
100
AcDbEntity
8
1
62
256
6
ByLayer
370
13
48
1
60
0
100
AcDbEllipse
10
37.063158
20
20.997846
30
0
11
-10.3058304032122
21
8.31996821273429
31
0
210
0
220
0
230
-1
40
0.803166
41
2.12906961911399
42
2.27378895078477
0
ELLIPSE
5
12E
100
AcDbEntity
8
1
62
256
6
ByLayer
370
18
48
1
60
0
100
AcDbEllipse
10
53.925599
20
14.287945
30
0
11
0.184715221863735
21
1.99145180378834
31
0
210
0
220
0
230
1
40
0.094469
41
0.113503259695577
42
0.221931056377415
0
ELLIPSE
5
12F
100
AcDbEntity
8
1
62
256
6
ByLayer
370
13
48
1
60
0
100
AcDbEllipse
10
48.762806
20
22.080453
30
0
11
0.770985958331764
21
0.213496257707837
31
0
210
0
220
0
230
1
40
0.197129
41
-1.54609191316085
42
-0.74297662031076
0
ELLIPSE
5
130
100
AcDbEntity
8
1
62
256
6
ByLayer
370
18
48
1
60
0
100
AcDbEllipse
10
45.117943
20
16.34034
30
0
11
0.74476701428685
21
-0.274519866185037
31
0
210
0
220
0
230
1
40
0.938407
41
-2.86466400963702
42
-1.11933475764268
0
ELLIPSE
5
131
100
AcDbEntity
8
1
62
256
6
ByLayer
370
18
48
1
60
0
100
AcDbEllipse
10
43.528838
20
14.279471
30
0
11
-0.184715221863736
21
-1.99145180378834
31
0
210
0
220
0
230
1
40
0.094469
41
2.81876360028677
42
-2.80119659113498
0
ELLIPSE
5
132
100
AcDbEntity
8
1
62
256
6
ByLayer
370
13
48
1
60
0
100
AcDbEllipse
10
50.591987
20
20.520874
30
0
11
0.733138971621423
21
0.32016753159851
31
0
210
0
220
0
230
1
40
0.511841
41
1.21154307277249
42
2.01465836562261
0
ELLIPSE
5
133
100
AcDbEntity
8
1
62
256
6
ByLayer
370
18
48
1
60
0
100
AcDbEllipse
10
46.182151
20
17.376877
30
0
11
0.281486745557235
21
-0.103755539975447
31
0
210
0
220
0
230
1
40
0.938407
41
-2.86466400963707
42
-1.1193347576427
0
ELLIPSE
5
134
100
AcDbEntity
8
1
62
256
6
ByLayer
370
18
48
1
60
0
100
AcDbEllipse
10
42.76863
20
20.468637
30
0
11
-65.3044301182694
21
-4.92316242027503
31
0
210
0
220
0
230
-1
40
0.05521
41
-1.63761116954155
42
-1.61954410378041
0
ELLIPSE
5
135
100
AcDbEntity
8
1
62
256
6
ByLayer
370
13
48
1
60
0
100
AcDbEllipse
10
61.98473
20
18.527799
30
0
11
-12.4846709450075
21
-4.95892701412144
31
0
210
0
220
0
230
-1
40
0.734741
41
0.266069377614778
42
0.707631562532685
0
ELLIPSE
5
136
100
AcDbEntity
8
1
62
256
6
ByLayer
370
13
48
1
60
0
100
AcDbEllipse
10
37.172469
20
7.287029
30
0
11
-12.5863407089536
21
-9.56274981127359
31
0
210
0
220
0
230
-1
40
0.049704
41
-3.08133619837597
42
-2.93036343957608
0
ELLIPSE
5
137
100
AcDbEntity
8
1
62
256
6
ByLayer
370
18
48
1
60
0
100
AcDbEllipse
10
52.502659
20
16.633547
30
0
11
-0.298998810004542
21
0.0244890101038833
31
0
210
0
220
0
230
1
40
0.112753
41
-3.14157977548621
42
-1.49148293488226
0
ELLIPSE
5
138
100
AcDbEntity
8
1
62
256
6
ByLayer
370
18
48
1
60
0
100
AcDbEllipse
10
56.189115
20
27.28233
30
0
11
1.06211252571648
21
11.450847871783
31
0
210
0
220
0
230
1
40
0.094469
41
2.20217390253233
42
2.28973054996876
0
ELLIPSE
5
139
100
AcDbEntity
8
1
62
256
6
ByLayer
370
18
48
1
60
0
100
AcDbEllipse
10
54.952524
20
23.260603
30
0
11
0.184715221863735
21
1.99145180378834
31
0
210
0
220
0
230
1
40
0.094469
41
1.72661703582201
42
2.3475247022483
0
ELLIPSE
5
13A
100
AcDbEntity
8
1
62
256
6
ByLayer
370
18
48
1
60
0
100
AcDbEllipse
10
42.683238
20
21.313504
30
0
11
-1.06211252571648
21
-11.4508478717829
31
0
210
0
220
0
230
1
40
0.094469
41
1.30576142577141
42
1.39149446397571
0
ELLIPSE
5
13B
100
AcDbEntity
8
1
62
256
6
ByLayer
370
18
48
1
60
0
100
AcDbEllipse
10
47.196516
20
20.057936
30
0
11
1.06211252571648
21
11.450847871783
31
0
210
0
220
0
230
1
40
0.094469
41
1.39331807320784
42
1.81144825771927
0
ELLIPSE
5
13C
100
AcDbEntity
8
1
62
256
6
ByLayer
370
18
48
1
60
0
100
AcDbEllipse
10
-2.131803
20
24.633337
30
0
11
-63.257478932811
21
9.89989077550714
31
0
210
0
220
0
230
-1
40
0.168639
41
2.40908705015189
42
2.46380159080772
0
ELLIPSE
5
13D
100
AcDbEntity
8
1
62
256
6
ByLayer
370
18
48
1
60
0
100
AcDbEllipse
10
53.624749
20
16.665873
30
0
11
-0.791101018137016
21
0.0647938392331916
31
0
210
0
220
0
230
1
40
0.112753
41
3.04637312030296
42
-1.49148293488225
0
ELLIPSE
5
13E
100
AcDbEntity
8
1
62
256
6
ByLayer
370
13
48
1
60
0
100
AcDbEllipse
10
40.376819
20
28.748984
30
0
11
-6.18992445710041
21
10.5754262604883
31
0
210
0
220
0
230
-1
40
0.805483
41
2.25259902353789
42
2.66312657049361
0
ELLIPSE
5
13F
100
AcDbEntity
8
1
62
256
6
ByLayer
370
18
48
1
60
0
100
AcDbEllipse
10
45.91182
20
26.283929
30
0
11
0.792366890033291
21
-0.0468377420353612
31
0
210
0
220
0
230
1
40
0.332367
41
1.29593143330118
42
3.04126068529548
0
ELLIPSE
5
140
100
AcDbEntity
8
1
62
256
6
ByLayer
370
18
48
1
60
0
100
AcDbEllipse
10
51.226404
20
16.873996
30
0
11
0.996662700015138
21
-0.0816300336796115
31
0
210
0
220
0
230
1
40
0.112753
41
-3.14158568810592
42
-1.49148293488228
0
ELLIPSE
5
141
100
AcDbEntity
8
1
62
256
6
ByLayer
370
18
48
1
60
0
100
AcDbEllipse
10
46.230417
20
19.856983
30
0
11
0.184715221863735
21
1.99145180378834
31
0
210
0
220
0
230
1
40
0.094469
41
1.24796727349186
42
1.91119238924974
0
ELLIPSE
5
142
100
AcDbEntity
8
1
62
256
6
ByLayer
370
13
48
1
60
0
100
AcDbEllipse
10
49.602265
20
21.248569
30
0
11
0.1377791923815
21
0.788046251273808
31
0
210
0
220
0
230
1
40
0.103346
41
-1.67752137543758
42
-1.01125977119938
0
ELLIPSE
5
143
100
AcDbEntity
8
1
62
256
6
ByLayer
370
13
48
1
60
0
100
AcDbEllipse
10
39.78055
20
28.694568
30
0
11
-7.76477385239029
21
8.87020732796523
31
0
210
0
220
0
230
-1
40
0.815574
41
2.39509459025164
42
2.83665677516801
0
ELLIPSE
5
144
100
AcDbEntity
8
1
62
256
6
ByLayer
370
18
48
1
60
0
100
AcDbEllipse
10
56.413361
20
4.916058
30
0
11
-65.8470108485638
21
4.78115348991612
31
0
210
0
220
0
230
-1
40
0.173071
41
1.48037262510576
42
1.4984396916183
0
ELLIPSE
5
145
100
AcDbEntity
8
1
62
256
6
ByLayer
370
18
48
1
60
0
100
AcDbEllipse
10
59.130107
20
27.009544
30
0
11
-65.594192213994
21
-5.41435615333359
31
0
210
0
220
0
230
-1
40
0.016638
41
-1.47724686238639
42
-1.45917982108156
0
ELLIPSE
5
146
100
AcDbEntity
8
1
62
256
6
ByLayer
370
13
48
1
60
0
100
AcDbEllipse
10
37.659428
20
21.052262
30
0
11
-8.92586153112406
21
10.1965934705169
31
0
210
0
220
0
230
-1
40
0.815574
41
1.96744122262443
42
2.10429392677309
0
ELLIPSE
5
147
100
AcDbEntity
8
1
62
256
6
ByLayer
370
13
48
1
60
0
100
AcDbEllipse
10
64.372736
20
26.681736
30
0
11
-14.3515376194538
21
-5.70044880538509
31
0
210
0
220
0
230
-1
40
0.734741
41
-0.161583990129411
42
-0.0247312859349122
0
ELLIPSE
5
148
100
AcDbEntity
8
1
62
256
6
ByLayer
370
18
48
1
60
0
100
AcDbEllipse
10
54.952524
20
23.260603
30
0
11
0.184715221863735
21
1.99145180378834
31
0
210
0
220
0
230
1
40
0.094469
41
1.68429958649045
42
1.72661703582201
0
ELLIPSE
5
149
100
AcDbEntity
8
1
62
256
6
ByLayer
370
18
48
1
60
0
100
AcDbEllipse
10
54.210548
20
26.210563
30
0
11
0.561767697904011
21
-0.56076386838992
31
0
210
0
220
0
230
1
40
0.989122
41
2.14980330764366
42
2.44272281421136
0
ELLIPSE
5
14A
100
AcDbEntity
8
1
62
256
6
ByLayer
370
18
48
1
60
0
100
AcDbEllipse
10
54.210548
20
26.210563
30
0
11
0.561767697904011
21
-0.56076386838992
31
0
210
0
220
0
230
1
40
0.989122
41
0.990313068784745
42
2.14980330764366
0
ELLIPSE
5
14B
100
AcDbEntity
8
1
62
256
6
ByLayer
370
13
48
1
60
0
100
AcDbEllipse
10
61.521902
20
18.729198
30
0
11
-12.1863843099255
21
-6.31784124809835
31
0
210
0
220
0
230
-1
40
0.760906
41
0.405065363866964
42
0.815592910823916
0
ELLIPSE
5
14C
100
AcDbEntity
8
1
62
256
6
ByLayer
370
18
48
1
60
0
100
AcDbEllipse
10
45.709606
20
20.195852
30
0
11
-1.06211252571648
21
-11.4508478717829
31
0
210
0
220
0
230
1
40
0.094469
41
-1.83583122781838
42
-1.74827458038195
0
ELLIPSE
5
14D
100
AcDbEntity
8
1
62
256
6
ByLayer
370
18
48
1
60
0
100
AcDbEllipse
10
54.702206
20
27.420246
30
0
11
-1.06211252571648
21
-11.4508478717829
31
0
210
0
220
0
230
1
40
0.094469
41
-1.35754893556889
42
-0.939418751057462
0
ELLIPSE
5
14E
100
AcDbEntity
8
1
62
256
6
ByLayer
370
18
48
1
60
0
100
AcDbEllipse
10
47.510205
20
16.237733
30
0
11
-0.938289151857449
21
0.345851799918157
31
0
210
0
220
0
230
1
40
0.938407
41
-2.86466400963702
42
-1.1193347576427
0
ELLIPSE
5
14F
100
AcDbEntity
8
1
62
256
6
ByLayer
370
18
48
1
60
0
100
AcDbEllipse
10
42.633733
20
4.333228
30
0
11
-1.06211252571648
21
-11.4508478717829
31
0
210
0
220
0
230
1
40
0.094469
41
2.89184736577124
42
2.96411440000274
0
ELLIPSE
5
150
100
AcDbEntity
8
1
62
256
6
ByLayer
370
18
48
1
60
0
100
AcDbEllipse
10
44.743508
20
19.9949
30
0
11
-0.184715221863736
21
-1.99145180378834
31
0
210
0
220
0
230
1
40
0.094469
41
-1.89362538009794
42
-1.23040026434007
0
ELLIPSE
5
151
100
AcDbEntity
8
1
62
256
6
ByLayer
370
13
48
1
60
0
100
AcDbEllipse
10
64.835563
20
26.480337
30
0
11
-14.5038339828702
21
-4.55827006398482
31
0
210
0
220
0
230
-1
40
0.704957
41
-0.238489944046601
42
-0.0937706123954841
0
ELLIPSE
5
152
100
AcDbEntity
8
1
62
256
6
ByLayer
370
18
48
1
60
0
100
AcDbEllipse
10
54.210548
20
26.210563
30
0
11
0.561767697904011
21
-0.56076386838992
31
0
210
0
220
0
230
1
40
0.989122
41
0.69739356221704
42
0.990313068784745
0
POINT
5
6C
100
AcDbEntity
8
80
62
256
6
ByLayer
370
18
48
1
60
0
100
AcDbPoint
10
0
20
0
30
0
39
0
210
0
220
0
230
1
50
360
0
POINT
5
6E
100
AcDbEntity
8
1
62
256
6
ByLayer
370
18
48
1
60
0
100
AcDbPoint
10
0
20
0
30
0
39
0
210
0
220
0
230
1
50
360
0
POINT
5
70
100
AcDbEntity
8
81
62
256
6
ByLayer
370
18
48
1
60
0
100
AcDbPoint
10
55
20
27
30
0
39
0
210
0
220
0
230
1
50
360
0
SPLINE
5
153
100
AcDbEntity
8
SK1
62
256
6
ByLayer
370
13
48
1
60
0
100
AcDbSpline
70
4
71
2
72
6
73
3
40
0
40
0
40
0
40
1
40
1
40
1
41
1
10
-22.5
20
-13.493617102966
30
0
41
1
10
-11.9999999937702
20
-13.7572106057466
30
0
41
1
10
-1.49999999999997
20
-14.0208013164368
30
0
0
SPLINE
5
154
100
AcDbEntity
8
SK1
62
256
6
ByLayer
370
13
48
1
60
0
100
AcDbSpline
70
4
71
3
72
10
73
6
40
0
40
0
40
0
40
0
40
0.610187530009329
40
0.916877276058989
40
1
40
1
40
1
40
1
41
1
10
-0.194976888875288
20
-13.8101782617655
30
0
41
1
10
-0.15352439613963
20
-13.8278608376398
30
0
41
1
10
-0.10108416171991
20
-13.863944953402
30
0
41
1
10
-0.04615435773934
20
-13.9224415952773
30
0
41
1
10
-0.0342900566040782
20
-13.9460698290258
30
0
41
1
10
-0.0320106367444453
20
-13.9511927825264
30
0
0
SPLINE
5
155
100
AcDbEntity
8
SK1
62
256
6
ByLayer
370
13
48
1
60
0
100
AcDbSpline
70
4
71
2
72
6
73
3
40
0
40
0
40
0
40
1
40
1
40
1
41
1
10
-1.2950399779393
20
-13.8108269416025
30
0
41
1
10
-0.745008433404536
20
-13.8246221219964
30
0
41
1
10
-0.194976888875288
20
-13.8384172967315
30
0
0
SPLINE
5
156
100
AcDbEntity
8
SK1
62
256
6
ByLayer
370
13
48
1
60
0
100
AcDbSpline
70
4
71
2
72
6
73
3
40
0
40
0
40
0
40
1
40
1
40
1
41
1
10
-0.194976888875288
20
13.8384169625541
30
0
41
1
10
-0.745008433404536
20
13.8246217879161
30
0
41
1
10
-1.29503997793927
20
13.8108266076194
30
0
0
SPLINE
5
157
100
AcDbEntity
8
SK1
62
256
6
ByLayer
370
13
48
1
60
0
100
AcDbSpline
70
4
71
2
72
6
73
3
40
0
40
0
40
0
40
1
40
1
40
1
41
1
10
-22.5
20
13.497686621304
30
0
41
1
10
-23.2499998168933
20
13.0648589361279
30
0
41
1
10
-24
20
12.632030823528
30
0
0
SPLINE
5
158
100
AcDbEntity
8
SK1
62
256
6
ByLayer
370
13
48
1
60
0
100
AcDbSpline
70
4
71
2
72
6
73
3
40
0
40
0
40
0
40
1
40
1
40
1
41
1
10
-1.49999999999997
20
14.0208011084547
30
0
41
1
10
-11.9999999937704
20
13.757210398744
30
0
41
1
10
-22.5
20
13.4936168969067
30
0
0
SPLINE
5
159
100
AcDbEntity
8
SK1
62
256
6
ByLayer
370
13
48
1
60
0
100
AcDbSpline
70
4
71
2
72
6
73
3
40
0
40
0
40
0
40
1
40
1
40
1
41
1
10
-24
20
-12.6320309398721
30
0
41
1
10
-23.2499998168889
20
-13.0648590511813
30
0
41
1
10
-22.5
20
-13.4976867350597
30
0
0
SPLINE
5
15A
100
AcDbEntity
8
SK1
62
256
6
ByLayer
370
13
48
1
60
0
100
AcDbSpline
70
4
71
3
72
13
73
9
40
0
40
0
40
0
40
0
40
0.239503433739406
40
0.368423147403705
40
0.500068568288211
40
0.631702599544492
40
0.760590896706865
40
1
40
1
40
1
40
1
41
1
10
-1.2950399779393
20
13.8302939701714
30
0
41
1
10
-1.32110931868439
20
13.8298918808819
30
0
41
1
10
-1.35883875168579
20
13.8360616243457
30
0
41
1
10
-1.4062757524425
20
13.8590955459818
30
0
41
1
10
-1.43886250823709
20
13.8842521059509
30
0
41
1
10
-1.46563495916581
20
13.9155205133755
30
0
41
1
10
-1.49103211526608
20
13.9617198002383
30
0
41
1
10
-1.49909125765834
20
13.9990778949975
30
0
41
1
10
-1.5
20
14.0251256210924
30
0
0
SPLINE
5
15B
100
AcDbEntity
8
SK1
62
256
6
ByLayer
370
13
48
1
60
0
100
AcDbSpline
70
4
71
3
72
10
73
6
40
0
40
0
40
0
40
0
40
0.0797705319902585
40
0.387581597321565
40
1
40
1
40
1
40
1
41
1
10
-0.0323474155597125
20
13.9505356323686
30
0
41
1
10
-0.0345371759916873
20
13.9456394352678
30
0
41
1
10
-0.0462967143971582
20
13.9222283396163
30
0
41
1
10
-0.10112563437653
20
13.8639560383986
30
0
41
1
10
-0.153522448145622
20
13.8278655019389
30
0
41
1
10
-0.194976888875288
20
13.8101828913628
30
0
0
SPLINE
5
15C
100
AcDbEntity
8
SK1
62
256
6
ByLayer
370
13
48
1
60
0
100
AcDbSpline
70
4
71
3
72
13
73
9
40
0
40
0
40
0
40
0
40
0.239409102954472
40
0.36829740000762
40
0.499931431229595
40
0.631576852162295
40
0.760496565943094
40
1
40
1
40
1
40
1
41
1
10
-1.49999999999997
20
-14.0251257319826
30
0
41
1
10
-1.49909125765302
20
-13.9990780059591
30
0
41
1
10
-1.49103211526082
20
-13.9617199113056
30
0
41
1
10
-1.46563495915862
20
-13.9155206245877
30
0
41
1
10
-1.43886250822769
20
-13.8842522172588
30
0
41
1
10
-1.40627575243269
20
-13.859095657368
30
0
41
1
10
-1.35883875167477
20
-13.8360617358029
30
0
41
1
10
-1.32110931867848
20
-13.8298919923551
30
0
41
1
10
-1.2950399779393
20
-13.8302940816453
30
0
0
SPLINE
5
15D
100
AcDbEntity
8
1
62
256
6
ByLayer
370
13
48
1
60
0
100
AcDbSpline
70
4
71
3
72
12
73
8
40
0
40
0
40
0
40
0
40
0.210919941760251
40
0.416229414055544
40
0.61607273307763
40
0.810606380661008
40
1
40
1
40
1
40
1
41
1
10
23.1385977307599
20
2.18069332099921
30
0
41
1
10
23.1302495723348
20
2.17413792853023
30
0
41
1
10
23.1137753164595
20
2.16120151700127
30
0
41
1
10
23.0887863782465
20
2.14284348233591
30
0
41
1
10
23.0640060901797
20
2.12561766219884
30
0
41
1
10
23.0394383094187
20
2.10949915134606
30
0
41
1
10
23.0228837473597
20
2.09953616133632
30
0
41
1
10
23.0147172827841
20
2.09462135871627
30
0
0
SPLINE
5
15E
100
AcDbEntity
8
1
62
256
6
ByLayer
370
13
48
1
60
0
100
AcDbSpline
70
4
71
3
72
8
73
4
40
0
40
0
40
0
40
0
40
1
40
1
40
1
40
1
41
1
10
30.9697877186496
20
25.3968198930425
30
0
41
1
10
30.937954083404
20
25.3947419489532
30
0
41
1
10
30.9066209847396
20
25.3924408693103
30
0
41
1
10
30.8757663841654
20
25.3899099536421
30
0
0
SPLINE
5
15F
100
AcDbEntity
8
1
62
256
6
ByLayer
370
13
48
1
60
0
100
AcDbSpline
70
4
71
3
72
8
73
4
40
0
40
0
40
0
40
0
40
1
40
1
40
1
40
1
41
1
10
29.8460676968938
20
25.238419851557
30
0
41
1
10
28.7208939704936
20
23.8630291026135
30
0
41
1
10
27.6026202809069
20
22.4820675354269
30
0
41
1
10
26.4959830134377
20
21.0917111788546
30
0
0
SPLINE
5
160
100
AcDbEntity
8
1
62
256
6
ByLayer
370
13
48
1
60
0
100
AcDbSpline
70
4
71
3
72
8
73
4
40
0
40
0
40
0
40
0
40
1
40
1
40
1
40
1
41
1
10
38.1752265444836
20
25.8680017265305
30
0
41
1
10
38.3962816895143
20
25.882450286821
30
0
41
1
10
38.6174830680886
20
25.8966563424378
30
0
41
1
10
38.8388287598298
20
25.9106282137107
30
0
0
SPLINE
5
161
100
AcDbEntity
8
1
62
256
6
ByLayer
370
13
48
1
60
0
100
AcDbSpline
70
4
71
3
72
10
73
6
40
0
40
0
40
0
40
0
40
0.5
40
0.5
40
1
40
1
40
1
40
1
41
1
10
28.5864591690212
20
18.8866682104291
30
0
41
1
10
28.1430387378051
20
17.8237998823651
30
0
41
1
10
27.7403405349434
20
16.739770953678
30
0
41
1
10
27.0363314761175
20
14.5181183483665
30
0
41
1
10
26.7350536525857
20
13.3804891947036
30
0
41
1
10
26.4959830134386
20
12.2092596030321
30
0
0
SPLINE
5
162
100
AcDbEntity
8
1
62
256
6
ByLayer
370
13
48
1
60
0
100
AcDbSpline
70
4
71
3
72
14
73
10
40
0
40
0
40
0
40
0
40
0.25
40
0.25
40
0.375
40
0.375
40
0.5
40
0.5
40
1
40
1
40
1
40
1
41
1
10
53.4756244918176
20
4.06153539129119
30
0
41
1
10
53.4170141444687
20
3.88991879689303
30
0
41
1
10
53.3592935868231
20
3.73414048848045
30
0
41
1
10
53.2740850103882
20
3.5248992995929
30
0
41
1
10
53.2458795914312
20
3.45916007777996
30
0
41
1
10
53.190111669072
20
3.33637291420135
30
0
41
1
10
53.1625564793042
20
3.27933083765552
30
0
41
1
10
53.0264291995528
20
3.01594167150159
30
0
41
1
10
52.9227759579877
20
2.87469876649513
30
0
41
1
10
52.8246426562805
20
2.80651588548969
30
0
0
SPLINE
5
163
100
AcDbEntity
8
1
62
256
6
ByLayer
370
13
48
1
60
0
100
AcDbSpline
70
4
71
3
72
10
73
6
40
0
40
0
40
0
40
0
40
0.5
40
0.5
40
1
40
1
40
1
40
1
41
1
10
44.4672719119706
20
15.3192739866067
30
0
41
1
10
44.5095520035655
20
15.319366652016
30
0
41
1
10
44.5532235215216
20
15.3203391514419
30
0
41
1
10
44.641000161146
20
15.3241376236596
30
0
41
1
10
44.6850766500541
20
15.3269461895741
30
0
41
1
10
44.7293404682843
20
15.3306600270752
30
0
0
SPLINE
5
164
100
AcDbEntity
8
1
62
256
6
ByLayer
370
13
48
1
60
0
100
AcDbSpline
70
4
71
3
72
12
73
8
40
0
40
0
40
0
40
0
40
0.500000000000001
40
0.500000000000001
40
0.75
40
0.75
40
1
40
1
40
1
40
1
41
1
10
26.4959830134377
20
19.0283960875546
30
0
41
1
10
26.2676148373039
20
19.0435880771651
30
0
41
1
10
26.0143957202519
20
19.0631448143149
30
0
41
1
10
25.5985846597228
20
19.0995982277777
30
0
41
1
10
25.4539253657231
20
19.1129457861308
30
0
41
1
10
25.1515609124681
20
19.1423409582785
30
0
41
1
10
24.9938901318409
20
19.1583815882374
30
0
41
1
10
24.8284903054841
20
19.1760688402481
30
0
0
SPLINE
5
165
100
AcDbEntity
8
1
62
256
6
ByLayer
370
13
48
1
60
0
100
AcDbSpline
70
4
71
3
72
8
73
4
40
0
40
0
40
0
40
0
40
1
40
1
40
1
40
1
41
1
10
41.8710297772889
20
11.8538685226336
30
0
41
1
10
39.9758333212723
20
8.48732840643464
30
0
41
1
10
37.942169158693
20
5.20799362343493
30
0
41
1
10
35.7720381332746
20
2.02008830913172
30
0
0
SPLINE
5
166
100
AcDbEntity
8
1
62
256
6
ByLayer
370
13
48
1
60
0
100
AcDbSpline
70
4
71
3
72
20
73
16
40
0
40
0
40
0
40
0
40
0.17788923675212
40
0.17788923675212
40
0.266833855128198
40
0.266833855128198
40
0.355778473504276
40
0.355778473504276
40
0.444723091880355
40
0.444723091880355
40
0.533667710256433
40
0.533667710256433
40
0.711556947008581
40
0.711556947008581
40
1
40
1
40
1
40
1
41
1
10
43.1676006163302
20
17.4689781308091
30
0
41
1
10
43.1282090818595
20
17.4726318552002
30
0
41
1
10
43.0907008728134
20
17.4812060944613
30
0
41
1
10
43.0370544935196
20
17.5009443735249
30
0
41
1
10
43.0196027526094
20
17.5087174851471
30
0
41
1
10
42.9866351351706
20
17.5260136986673
30
0
41
1
10
42.9709667423604
20
17.5355858438422
30
0
41
1
10
42.9411437097345
20
17.556464220766
30
0
41
1
10
42.926906635673
20
17.5678510296248
30
0
41
1
10
42.900352090595
20
17.5918864283229
30
0
41
1
10
42.888045813944
20
17.6044994815193
30
0
41
1
10
42.8537247802696
20
17.6439627858363
30
0
41
1
10
42.8342042047214
20
17.6725766590303
30
0
41
1
10
42.7914170234232
20
17.751890430828
30
0
41
1
10
42.7738529662824
20
17.803692105457
30
0
41
1
10
42.7633312454471
20
17.8577507868559
30
0
0
SPLINE
5
167
100
AcDbEntity
8
1
62
256
6
ByLayer
370
13
48
1
60
0
100
AcDbSpline
70
4
71
3
72
30
73
26
40
0
40
0
40
0
40
0
40
0.124999999999993
40
0.124999999999993
40
0.187499999999991
40
0.187499999999991
40
0.24999999999999
40
0.24999999999999
40
0.374999999999988
40
0.374999999999988
40
0.43749999999999
40
0.43749999999999
40
0.499999999999992
40
0.499999999999992
40
0.624999999999992
40
0.624999999999992
40
0.687499999999994
40
0.687499999999994
40
0.749999999999996
40
0.749999999999996
40
0.874999999999996
40
0.874999999999996
40
0.937499999999998
40
0.937499999999998
40
1
40
1
40
1
40
1
41
1
10
42.2973458807703
20
17.7950086086209
30
0
41
1
10
42.2937437816297
20
17.8986539370764
30
0
41
1
10
42.2982427112558
20
18.000587801927
30
0
41
1
10
42.3167283037512
20
18.1504991584384
30
0
41
1
10
42.3248538428366
20
18.1999685282838
30
0
41
1
10
42.3450487021939
20
18.2977909906264
30
0
41
1
10
42.3571224737069
20
18.3460607704801
30
0
41
1
10
42.3984924544233
20
18.4865873544701
30
0
41
1
10
42.433077176084
20
18.5754221094789
30
0
41
1
10
42.4944967925442
20
18.7007395496053
30
0
41
1
10
42.5165649476816
20
18.7411827337985
30
0
41
1
10
42.5637656785522
20
18.8192038739309
30
0
41
1
10
42.5888040416758
20
18.856595122034
30
0
41
1
10
42.6669069810887
20
18.9624575884366
30
0
41
1
10
42.7232935706315
20
19.0251961048334
30
0
41
1
10
42.8122524204621
20
19.1066337038823
30
0
41
1
10
42.8427943344437
20
19.1317718137561
30
0
41
1
10
42.904055352116
20
19.1769336694549
30
0
41
1
10
42.9347014104816
20
19.1969375168469
30
0
41
1
10
43.0259208035775
20
19.249422821375
30
0
41
1
10
43.0857674148843
20
19.2743732836138
30
0
41
1
10
43.1711287775273
20
19.297467862875
30
0
41
1
10
43.1989495935901
20
19.3027876098527
30
0
41
1
10
43.2522197158966
20
19.3087533910478
30
0
41
1
10
43.2774266913833
20
19.3093947368445
30
0
41
1
10
43.3011626758249
20
19.3080078035239
30
0
0
SPLINE
5
168
100
AcDbEntity
8
1
62
256
6
ByLayer
370
13
48
1
60
0
100
AcDbSpline
70
4
71
3
72
8
73
4
40
0
40
0
40
0
40
0
40
1
40
1
40
1
40
1
41
1
10
39.1429883535984
20
17.3824216664786
30
0
41
1
10
40.0385412755727
20
16.4059554785846
30
0
41
1
10
40.882886433004
20
15.3875463334861
30
0
41
1
10
41.6760722755596
20
14.3272329933986
30
0
0
SPLINE
5
169
100
AcDbEntity
8
1
62
256
6
ByLayer
370
13
48
1
60
0
100
AcDbSpline
70
4
71
3
72
28
73
24
40
0
40
0
40
0
40
0
40
0.125000000000004
40
0.125000000000004
40
0.187500000000004
40
0.187500000000004
40
0.250000000000004
40
0.250000000000004
40
0.375000000000003
40
0.375000000000003
40
0.500000000000001
40
0.500000000000001
40
0.562500000000002
40
0.562500000000002
40
0.625000000000002
40
0.625000000000002
40
0.750000000000003
40
0.750000000000003
40
0.812500000000002
40
0.812500000000002
40
0.875000000000002
40
0.875000000000002
40
1
40
1
40
1
40
1
41
1
10
41.871029777289
20
11.8538685226336
30
0
41
1
10
41.9222475703295
20
11.944849462571
30
0
41
1
10
41.9667830757437
20
12.0395717265563
30
0
41
1
10
42.0233685712118
20
12.1873633436127
30
0
41
1
10
42.0405212588051
20
12.2375820113207
30
0
41
1
10
42.0712948303053
20
12.3399898449465
30
0
41
1
10
42.0849000772127
20
12.3922050229834
30
0
41
1
10
42.1196889058288
20
12.5492654933353
30
0
41
1
10
42.1351526668127
20
12.6553630878416
30
0
41
1
10
42.1506963549694
20
12.8703102006213
30
0
41
1
10
42.1507805481059
20
12.9791590138038
30
0
41
1
10
42.138689137205
20
13.1446052131072
30
0
41
1
10
42.1326256499846
20
13.1997698323028
30
0
41
1
10
42.1166088534361
20
13.3090433246384
30
0
41
1
10
42.1066442277986
20
13.3633204395799
30
0
41
1
10
42.0709385386481
20
13.5250816195517
30
0
41
1
10
42.0394171400775
20
13.6315012748216
30
0
41
1
10
41.9802282879196
20
13.7889322174921
30
0
41
1
10
41.9584107691422
20
13.8412435571646
30
0
41
1
10
41.9111073952148
20
13.9440959982574
30
0
41
1
10
41.8857255411126
20
13.9944547636211
30
0
41
1
10
41.8045168205146
20
14.1424069667205
30
0
41
1
10
41.7436530617541
20
14.2368924889531
30
0
41
1
10
41.6760722755592
20
14.3272329933992
30
0
0
SPLINE
5
16A
100
AcDbEntity
8
1
62
256
6
ByLayer
370
13
48
1
60
0
100
AcDbSpline
70
4
71
3
72
18
73
14
40
0
40
0
40
0
40
0
40
0.25
40
0.25
40
0.5
40
0.5
40
0.625
40
0.625
40
0.75
40
0.75
40
0.875
40
0.875
40
1
40
1
40
1
40
1
41
1
10
9.33660254037846
20
-19.024574410132
30
0
41
1
10
9.32721186043483
20
-19.0356144845433
30
0
41
1
10
9.31597445228968
20
-19.0463346141651
30
0
41
1
10
9.28852371889985
20
-19.0670039094873
30
0
41
1
10
9.2722622465561
20
-19.0770249518316
30
0
41
1
10
9.24217730798259
20
-19.0910025433167
30
0
41
1
10
9.23126332140674
20
-19.0954500347064
30
0
41
1
10
9.20699632571427
20
-19.1037856168329
30
0
41
1
10
9.19372453113976
20
-19.1076382714243
30
0
41
1
10
9.16468775446981
20
-19.1142934541627
30
0
41
1
10
9.14852956001855
20
-19.1171636549361
30
0
41
1
10
9.11408210674719
20
-19.1211519083814
30
0
41
1
10
9.09555613582361
20
-19.1222825906924
30
0
41
1
10
9.07679491924316
20
-19.1222825906924
30
0
0
SPLINE
5
16B
100
AcDbEntity
8
1
62
256
6
ByLayer
370
13
48
1
60
0
100
AcDbSpline
70
4
71
3
72
17
73
13
40
0
40
0
40
0
40
0
40
0.25
40
0.25
40
0.5
40
0.5
40
0.75
40
0.75
40
0.8125
40
0.8125
40
0.875
40
1
40
1
40
1
40
1
41
1
10
29.8460676968938
20
25.238419851557
30
0
41
1
10
29.6748176516112
20
25.2334986497238
30
0
41
1
10
29.5551788429957
20
25.2319228442019
30
0
41
1
10
29.4246473495765
20
25.2358200640907
30
0
41
1
10
29.4137788062636
20
25.241294654332
30
0
41
1
10
29.5014434032293
20
25.2593351585726
30
0
41
1
10
29.599961237299
20
25.2719000804363
30
0
41
1
10
29.7886863877757
20
25.2918569335447
30
0
41
1
10
29.8297444128473
20
25.2960645363289
30
0
41
1
10
29.9179789214424
20
25.3048661292283
30
0
41
1
10
30.0595242293882
20
25.3186506844651
30
0
41
1
10
30.227635641237
20
25.3341174938676
30
0
41
1
10
30.3506072025778
20
25.345118752623
30
0
0
SPLINE
5
16C
100
AcDbEntity
8
1
62
256
6
ByLayer
370
13
48
1
60
0
100
AcDbSpline
70
4
71
3
72
24
73
20
40
0
40
0
40
0
40
0
40
0.125
40
0.125
40
0.25
40
0.25
40
0.3125
40
0.3125
40
0.375
40
0.375
40
0.5
40
0.5
40
0.625
40
0.625
40
0.6875
40
0.6875
40
0.75
40
0.75
40
1
40
1
40
1
40
1
41
1
10
26.3627508249587
20
-12.4383441687042
30
0
41
1
10
26.7299359205638
20
-11.9030414042854
30
0
41
1
10
27.1060838096311
20
-11.3553476255553
30
0
41
1
10
27.8696107930631
20
-10.2395966435315
30
0
41
1
10
28.2570463018665
20
-9.67149676116313
30
0
41
1
10
28.8436224201412
20
-8.80586656035418
30
0
41
1
10
29.040066435121
20
-8.51506527562931
30
0
41
1
10
29.4344191582173
20
-7.9291493951642
30
0
41
1
10
29.6324251615908
20
-7.63388915880368
30
0
41
1
10
30.2273112946382
20
-6.74317134818421
30
0
41
1
10
30.625049701278
20
-6.14278297308323
30
0
41
1
10
31.4211641448668
20
-4.92948790104978
30
0
41
1
10
31.8195473108285
20
-4.31657694241611
30
0
41
1
10
32.4167287700413
20
-3.38804270765948
30
0
41
1
10
32.6157267882129
20
-3.07700114745416
30
0
41
1
10
33.0134821674638
20
-2.4518726132128
30
0
41
1
10
33.2122318342979
20
-2.1377964905198
30
0
41
1
10
34.2039752688111
20
-0.561657729424127
30
0
41
1
10
34.9918037697423
20
0.71908191142137
30
0
41
1
10
35.7720381332746
20
2.02008830913172
30
0
0
SPLINE
5
16D
100
AcDbEntity
8
1
62
256
6
ByLayer
370
13
48
1
60
0
100
AcDbSpline
70
4
71
3
72
27
73
23
40
0
40
0
40
0
40
0
40
0.0312499999999987
40
0.0312499999999987
40
0.0624999999999972
40
0.0937499999999959
40
0.0937499999999959
40
0.124999999999995
40
0.124999999999995
40
0.187499999999996
40
0.187499999999996
40
0.249999999999997
40
0.249999999999997
40
0.374999999999997
40
0.374999999999997
40
0.499999999999998
40
0.499999999999998
40
0.624999999999998
40
0.624999999999998
40
0.749999999999998
40
0.749999999999998
40
1
40
1
40
1
40
1
41
1
10
44.8140081680012
20
22.171702446518
30
0
41
1
10
44.8114560866205
20
22.1405427837707
30
0
41
1
10
44.8086692752623
20
22.1088401944024
30
0
41
1
10
44.8027269179138
20
22.045522082907
30
0
41
1
10
44.7964755948683
20
21.9828721961257
30
0
41
1
10
44.789667593247
20
21.9214262824253
30
0
41
1
10
44.7826080195892
20
21.8605244635993
30
0
41
1
10
44.7789377357412
20
21.8302302243634
30
0
41
1
10
44.7676913066259
20
21.7409267501434
30
0
41
1
10
44.759951832481
20
21.683977902336
30
0
41
1
10
44.744124438114
20
21.5738070756457
30
0
41
1
10
44.7360059473436
20
21.5204122313621
30
0
41
1
10
44.7114529157339
20
21.3657477414343
30
0
41
1
10
44.6950686474842
20
21.2712386092744
30
0
41
1
10
44.6622830203763
20
21.0916544555951
30
0
41
1
10
44.6458813792107
20
21.0067352691988
30
0
41
1
10
44.6130667615173
20
20.8431540792998
30
0
41
1
10
44.5966537046071
20
20.7645364472222
30
0
41
1
10
44.5638195260542
20
20.6117529600281
30
0
41
1
10
44.5474740364908
20
20.5379544143194
30
0
41
1
10
44.4987016863692
20
20.3226620155132
30
0
41
1
10
44.4664768227503
20
20.1868867172951
30
0
41
1
10
44.4344226184579
20
20.0556733152954
30
0
0
SPLINE
5
16E
100
AcDbEntity
8
1
62
256
6
ByLayer
370
13
48
1
60
0
100
AcDbSpline
70
4
71
3
72
8
73
4
40
0
40
0
40
0
40
0
40
1
40
1
40
1
40
1
41
1
10
20.3364510031036
20
0.233765687179471
30
0
41
1
10
20.4805443248056
20
0.822557186887167
30
0
41
1
10
20.6237550806611
20
1.41155807004634
30
0
41
1
10
20.7587907667569
20
2.0024984394536
30
0
0
SPLINE
5
16F
100
AcDbEntity
8
1
62
256
6
ByLayer
370
13
48
1
60
0
100
AcDbSpline
70
4
71
3
72
10
73
6
40
0
40
0
40
0
40
0
40
0.5
40
0.5
40
1
40
1
40
1
40
1
41
1
10
26.4959830134377
20
21.0917111788545
30
0
41
1
10
26.4037761051665
20
20.9758643112283
30
0
41
1
10
26.3060519291348
20
20.8628043302674
30
0
41
1
10
26.1035117264157
20
20.6470205054866
30
0
41
1
10
25.9983730290003
20
20.5438301809194
30
0
41
1
10
25.8893885791374
20
20.4453136818477
30
0
0
SPLINE
5
170
100
AcDbEntity
8
1
62
256
6
ByLayer
370
13
48
1
60
0
100
AcDbSpline
70
4
71
3
72
10
73
6
40
0
40
0
40
0
40
0
40
0.5
40
0.5
40
1
40
1
40
1
40
1
41
1
10
29.1844758100233
20
-11.4858026822621
30
0
41
1
10
33.2596642183821
20
-8.93618713631588
30
0
41
1
10
37.3206423774424
20
-6.36425959118534
30
0
41
1
10
45.4171240792272
20
-1.18040593320262
30
0
41
1
10
49.4524323300953
20
1.43142381720418
30
0
41
1
10
53.4756244918084
20
4.06153539128653
30
0
0
SPLINE
5
171
100
AcDbEntity
8
1
62
256
6
ByLayer
370
13
48
1
60
0
100
AcDbSpline
70
4
71
3
72
28
73
24
40
0
40
0
40
0
40
0
40
0.125000000000003
40
0.125000000000003
40
0.250000000000006
40
0.250000000000006
40
0.281250000000007
40
0.281250000000007
40
0.312500000000007
40
0.312500000000007
40
0.375000000000006
40
0.375000000000006
40
0.500000000000005
40
0.500000000000005
40
0.562500000000004
40
0.562500000000004
40
0.625000000000004
40
0.625000000000004
40
0.750000000000002
40
0.750000000000002
40
0.875000000000001
40
0.875000000000001
40
1
40
1
40
1
40
1
41
1
10
27.3928081027101
20
5.13651274739991
30
0
41
1
10
27.6562313294578
20
4.83424510135865
30
0
41
1
10
27.9416293756791
20
4.56108414353068
30
0
41
1
10
28.5499181783673
20
4.06443607485997
30
0
41
1
10
28.8728377746249
20
3.84098702164027
30
0
41
1
10
29.2971155716467
20
3.58900921163249
30
0
41
1
10
29.3826809866281
20
3.54018234053666
30
0
41
1
10
29.5545142363295
20
3.44583881093519
30
0
41
1
10
29.6408844419942
20
3.40026119676446
30
0
41
1
10
29.9012732645953
20
3.26802075249546
30
0
41
1
10
30.0765676212691
20
3.18584169610986
30
0
41
1
10
30.606999349515
20
2.95528982669808
30
0
41
1
10
30.9666609629133
20
2.82281684697588
30
0
41
1
10
31.5135782477498
20
2.65018453502063
30
0
41
1
10
31.697128394849
20
2.59701079896294
30
0
41
1
10
32.0665119385577
20
2.49867814496912
30
0
41
1
10
32.252708059152
20
2.45344933703029
30
0
41
1
10
32.8102236076492
20
2.32975058790535
30
0
41
1
10
33.1813748458895
20
2.26288768928646
30
0
41
1
10
33.9228386705194
20
2.15449310214581
30
0
41
1
10
34.2931502327858
20
2.11299152530395
30
0
41
1
10
35.0330839274214
20
2.05128755887245
30
0
41
1
10
35.4027055025981
20
2.03110145147895
30
0
41
1
10
35.7720381332746
20
2.02008830913169
30
0
0
SPLINE
5
172
100
AcDbEntity
8
1
62
256
6
ByLayer
370
13
48
1
60
0
100
AcDbSpline
70
4
71
3
72
32
73
28
40
0
40
0
40
0
40
0
40
0.0625000000000058
40
0.0625000000000058
40
0.125000000000011
40
0.125000000000011
40
0.250000000000017
40
0.250000000000017
40
0.312500000000017
40
0.312500000000017
40
0.343750000000017
40
0.343750000000017
40
0.375000000000017
40
0.375000000000017
40
0.500000000000019
40
0.500000000000019
40
0.562500000000017
40
0.562500000000017
40
0.625000000000014
40
0.625000000000014
40
0.75000000000001
40
0.75000000000001
40
0.812500000000007
40
0.812500000000007
40
0.875000000000005
40
0.875000000000005
40
1
40
1
40
1
40
1
41
1
10
44.4672719119706
20
15.3192739866067
30
0
41
1
10
44.4040135938847
20
15.3191353431527
30
0
41
1
10
44.3404596287963
20
15.3220420091509
30
0
41
1
10
44.2127829584084
20
15.3340903136433
30
0
41
1
10
44.1483329533836
20
15.3433105053538
30
0
41
1
10
43.9575945521508
20
15.3800368889532
30
0
41
1
10
43.8333819914916
20
15.4164402625694
30
0
41
1
10
43.6516129987046
20
15.4886831258005
30
0
41
1
10
43.5917862539849
20
15.5157220968708
30
0
41
1
10
43.5032525931917
20
15.5608589805916
30
0
41
1
10
43.4739028238321
20
15.5766962961963
30
0
41
1
10
43.4162272504663
20
15.6095751352847
30
0
41
1
10
43.3878280578522
20
15.6266513819603
30
0
41
1
10
43.2479984482499
20
15.7151651776082
30
0
41
1
10
43.14301302202
20
15.7959237444738
30
0
41
1
10
42.9960047336483
20
15.9319447163852
30
0
41
1
10
42.9486354363541
20
15.979917253057
30
0
41
1
10
42.8580989576758
20
16.0804419599705
30
0
41
1
10
42.8153928716961
20
16.1324560485955
30
0
41
1
10
42.6947311834494
20
16.2935691380086
30
0
41
1
10
42.6241749921678
20
16.4077012240057
30
0
41
1
10
42.5333520360223
20
16.5889896413773
30
0
41
1
10
42.5054717752892
20
16.6514440518421
30
0
41
1
10
42.4556575018105
20
16.7779875722477
30
0
41
1
10
42.433715260434
20
16.841988568085
30
0
41
1
10
42.3765233413696
20
17.036104784835
30
0
41
1
10
42.3498492035396
20
17.1683193099304
30
0
41
1
10
42.3347112042729
20
17.3033251053405
30
0
0
SPLINE
5
173
100
AcDbEntity
8
1
62
256
6
ByLayer
370
13
48
1
60
0
100
AcDbSpline
70
4
71
3
72
14
73
10
40
0
40
0
40
0
40
0
40
0.25
40
0.25
40
0.5
40
0.5
40
0.75
40
0.75
40
1
40
1
40
1
40
1
41
1
10
22.7084817901483
20
2.00249843945412
30
0
41
1
10
22.7354275467159
20
2.002498439454
30
0
41
1
10
22.7627446373817
20
2.00474604663845
30
0
41
1
10
22.8159772937262
20
2.01336233480379
30
0
41
1
10
22.8420955922741
20
2.01970131601772
30
0
41
1
10
22.8934608391824
20
2.03593242112825
30
0
41
1
10
22.9188556002417
20
2.04590108826631
30
0
41
1
10
22.9679126919048
20
2.06845089678799
30
0
41
1
10
22.9916342444027
20
2.08102295627452
30
0
41
1
10
23.0147172827841
20
2.09462135871624
30
0
0
SPLINE
5
174
100
AcDbEntity
8
1
62
256
6
ByLayer
370
13
48
1
60
0
100
AcDbSpline
70
4
71
3
72
19
73
15
40
0
40
0
40
0
40
0
40
0.249999999999979
40
0.249999999999979
40
0.31249999999998
40
0.31249999999998
40
0.374999999999981
40
0.374999999999981
40
0.499999999999985
40
0.624999999999989
40
0.624999999999989
40
0.749999999999993
40
0.749999999999993
40
1
40
1
40
1
40
1
41
1
10
39.1429883535984
20
17.3824216664786
30
0
41
1
10
39.0354813804832
20
17.4996419017478
30
0
41
1
10
38.9174128315198
20
17.6053451273836
30
0
41
1
10
38.7565400078192
20
17.7229837033012
30
0
41
1
10
38.7235926531601
20
17.74584413993
30
0
41
1
10
38.6569431202886
20
17.789673486038
30
0
41
1
10
38.6232410475945
20
17.8106519930955
30
0
41
1
10
38.5210299540347
20
17.8708451047785
30
0
41
1
10
38.3818078704287
20
17.9438037279054
30
0
41
1
10
38.2368447654934
20
18.0025002971558
30
0
41
1
10
38.0889903477895
20
18.0540068963399
30
0
41
1
10
38.0133267392311
20
18.0761971135132
30
0
41
1
10
37.7868855649405
20
18.1305662699357
30
0
41
1
10
37.6352539187326
20
18.1512724669581
30
0
41
1
10
37.4829916910636
20
18.1569064178858
30
0
0
SPLINE
5
175
100
AcDbEntity
8
1
62
256
6
ByLayer
370
13
48
1
60
0
100
AcDbSpline
70
4
71
3
72
16
73
12
40
0
40
0
40
0
40
0
40
0.125000000000002
40
0.125000000000002
40
0.250000000000003
40
0.250000000000003
40
0.500000000000002
40
0.500000000000002
40
0.750000000000001
40
0.750000000000001
40
1
40
1
40
1
40
1
41
1
10
6.92320508075701
20
-19.1222825906925
30
0
41
1
10
6.90441904704306
20
-19.1222825906925
30
0
41
1
10
6.88615093812103
20
-19.1211757542147
30
0
41
1
10
6.85140047601277
20
-19.1171586755842
30
0
41
1
10
6.83557582658128
20
-19.1143521510703
30
0
41
1
10
6.79136513419897
20
-19.1042242696214
30
0
41
1
10
6.76786471768492
20
-19.0956673725614
30
0
41
1
10
6.72774154010156
20
-19.0770274497582
30
0
41
1
10
6.71161954962224
20
-19.0670986798899
30
0
41
1
10
6.68411546052448
20
-19.0464153092311
30
0
41
1
10
6.67279157843197
20
-19.0356185274183
30
0
41
1
10
6.66339745962165
20
-19.0245744101321
30
0
0
SPLINE
5
176
100
AcDbEntity
8
1
62
256
6
ByLayer
370
13
48
1
60
0
100
AcDbSpline
70
4
71
3
72
14
73
10
40
0
40
0
40
0
40
0
40
0.25
40
0.25
40
0.5
40
0.5
40
0.75
40
0.75
40
1
40
1
40
1
40
1
41
1
10
50.0093632285446
20
16.6178067792034
30
0
41
1
10
49.9545335161088
20
16.6139614746691
30
0
41
1
10
49.8999020646279
20
16.6066019569375
30
0
41
1
10
49.7941806929717
20
16.58537958976
30
0
41
1
10
49.7428065232466
20
16.5715260504741
30
0
41
1
10
49.6432349354116
20
16.5374831967942
30
0
41
1
10
49.5947448816976
20
16.5171105310497
30
0
41
1
10
49.5038924598175
20
16.4712492185748
30
0
41
1
10
49.4612847855363
20
16.4457228942101
30
0
41
1
10
49.421772290451
20
16.4178735816563
30
0
0
SPLINE
5
177
100
AcDbEntity
8
1
62
256
6
ByLayer
370
13
48
1
60
0
100
AcDbSpline
70
4
71
3
72
14
73
10
40
0
40
0
40
0
40
0
40
0.25
40
0.25
40
0.5
40
0.5
40
0.75
40
0.75
40
1
40
1
40
1
40
1
41
1
10
26.4959830134391
20
12.2092596030319
30
0
41
1
10
26.4070789938461
20
11.7737104325549
30
0
41
1
10
26.3215021809237
20
11.3370574087523
30
0
41
1
10
26.1634906098632
20
10.4599200179106
30
0
41
1
10
26.0911939849832
20
10.0200443121717
30
0
41
1
10
25.9659607216573
20
9.13726199730456
30
0
41
1
10
25.9130344587076
20
8.6942820950978
30
0
41
1
10
25.8310883070608
20
7.8044407443999
30
0
41
1
10
25.8020886281903
20
7.35757617681452
30
0
41
1
10
25.786322080854
20
6.90853695555012
30
0
0
SPLINE
5
178
100
AcDbEntity
8
1
62
256
6
ByLayer
370
13
48
1
60
0
100
AcDbSpline
70
4
71
3
72
18
73
14
40
0
40
0
40
0
40
0
40
0.250000000000004
40
0.250000000000004
40
0.500000000000008
40
0.500000000000008
40
0.625000000000006
40
0.625000000000006
40
0.750000000000004
40
0.750000000000004
40
0.875000000000002
40
0.875000000000002
40
1
40
1
40
1
40
1
41
1
10
6.66339745962165
20
-6.1697300194858
30
0
41
1
10
6.67278813956528
20
-6.13568757087475
30
0
41
1
10
6.68402554771046
20
-6.10231901184957
30
0
41
1
10
6.71147628110026
20
-6.03742672607439
30
0
41
1
10
6.72773775344405
20
-6.00567161829616
30
0
41
1
10
6.75782269201756
20
-5.96102885758617
30
0
41
1
10
6.7687366785934
20
-5.94676259304859
30
0
41
1
10
6.79300367428587
20
-5.91993010703166
30
0
41
1
10
6.80627546886038
20
-5.90747721696042
30
0
41
1
10
6.83531224553033
20
-5.88590801224905
30
0
41
1
10
6.8514704399816
20
-5.87657212596488
30
0
41
1
10
6.88591789325295
20
-5.86358216944873
30
0
41
1
10
6.90444386417656
20
-5.85988980456943
30
0
41
1
10
6.92320508075701
20
-5.85988980456943
30
0
0
SPLINE
5
179
100
AcDbEntity
8
1
62
256
6
ByLayer
370
13
48
1
60
0
100
AcDbSpline
70
4
71
3
72
17
73
13
40
0
40
0
40
0
40
0
40
0.125000000000004
40
0.125000000000004
40
0.250000000000009
40
0.250000000000009
40
0.500000000000009
40
0.62500000000001
40
0.62500000000001
40
0.75000000000001
40
0.75000000000001
40
1
40
1
40
1
40
1
41
1
10
48.6559406920758
20
15.8424037296514
30
0
41
1
10
48.6733346012907
20
15.8545700321246
30
0
41
1
10
48.6911496740433
20
15.8671364990527
30
0
41
1
10
48.7277427349606
20
15.8931843376592
30
0
41
1
10
48.7466158008317
20
15.9067355283485
30
0
41
1
10
48.8036387579691
20
15.9480518212046
30
0
41
1
10
48.8618626077129
20
15.9909671788231
30
0
41
1
10
48.9220330322689
20
16.0364745244127
30
0
41
1
10
48.9625950826433
20
16.0674098731576
30
0
41
1
10
48.9829201180985
20
16.0830401422136
30
0
41
1
10
49.0429448448789
20
16.1295593647656
30
0
41
1
10
49.0821517031502
20
16.1604238681678
30
0
41
1
10
49.1206836755077
20
16.1911647423871
30
0
0
SPLINE
5
17A
100
AcDbEntity
8
1
62
256
6
ByLayer
370
13
48
1
60
0
100
AcDbSpline
70
4
71
3
72
16
73
12
40
0
40
0
40
0
40
0
40
0.125
40
0.125
40
0.25
40
0.25
40
0.5
40
0.5
40
0.75
40
0.75
40
1
40
1
40
1
40
1
41
1
10
9.07679491924313
20
-5.85988980456986
30
0
41
1
10
9.09558095295711
20
-5.85988980456986
30
0
41
1
10
9.11384906187905
20
-5.86350446472775
30
0
41
1
10
9.14859952398731
20
-5.87658838136414
30
0
41
1
10
9.16442417341884
20
-5.8857177095864
30
0
41
1
10
9.20863486580114
20
-5.91854200832108
30
0
41
1
10
9.2321352823152
20
-5.94612987812221
30
0
41
1
10
9.27225845989852
20
-6.00566371121252
30
0
41
1
10
9.28838045037784
20
-6.03712755983074
30
0
41
1
10
9.3158845394756
20
-6.10206728171784
30
0
41
1
10
9.32720842156817
20
-6.13567510453163
30
0
41
1
10
9.33660254037846
20
-6.16973001948617
30
0
0
SPLINE
5
17B
100
AcDbEntity
8
1
62
256
6
ByLayer
370
13
48
1
60
0
100
AcDbSpline
70
4
71
3
72
12
73
8
40
0
40
0
40
0
40
0
40
0.249999999999999
40
0.249999999999999
40
0.499999999999997
40
0.499999999999997
40
1
40
1
40
1
40
1
41
1
10
43.5212296139016
20
19.3633517298939
30
0
41
1
10
43.6078612029263
20
19.4057332298306
30
0
41
1
10
43.6927205621542
20
19.4527307934178
30
0
41
1
10
43.856333671409
20
19.5540071192841
30
0
41
1
10
43.9352746015254
20
19.6083492039303
30
0
41
1
10
44.1636853620712
20
19.7819635377412
30
0
41
1
10
44.3048143640445
20
19.9117184984651
30
0
41
1
10
44.4344226184579
20
20.0556733152954
30
0
0
SPLINE
5
17C
100
AcDbEntity
8
1
62
256
6
ByLayer
370
13
48
1
60
0
100
AcDbSpline
70
4
71
3
72
42
73
38
40
0
40
0
40
0
40
0
40
0.25
40
0.25
40
0.375000000000001
40
0.375000000000001
40
0.500000000000002
40
0.500000000000002
40
0.562500000000001
40
0.562500000000001
40
0.625000000000001
40
0.625000000000001
40
0.687500000000001
40
0.687500000000001
40
0.718750000000001
40
0.718750000000001
40
0.750000000000001
40
0.750000000000001
40
0.781250000000001
40
0.781250000000001
40
0.812500000000001
40
0.812500000000001
40
0.828125000000001
40
0.828125000000001
40
0.843750000000001
40
0.843750000000001
40
0.859375000000001
40
0.859375000000001
40
0.875000000000001
40
0.875000000000001
40
0.906250000000001
40
0.906250000000001
40
0.937500000000001
40
0.937500000000001
40
0.96875
40
0.96875
40
1
40
1
40
1
40
1
41
1
10
29.1844758100233
20
-11.4858026822621
30
0
41
1
10
28.8824586503329
20
-11.6747577852727
30
0
41
1
10
28.5796361089799
20
-11.8576341186132
30
0
41
1
10
28.1234768547101
20
-12.1192995436335
30
0
41
1
10
27.9710977955801
20
-12.2043860228204
30
0
41
1
10
27.6654033652146
20
-12.3688209732022
30
0
41
1
10
27.5127730505985
20
-12.4478453065542
30
0
41
1
10
27.2846959108241
20
-12.5589404081603
30
0
41
1
10
27.2087967880742
20
-12.5947272874963
30
0
41
1
10
27.0573160344839
20
-12.6629890447663
30
0
41
1
10
26.9819232046953
20
-12.695382649857
30
0
41
1
10
26.8332217727862
20
-12.7548178214889
30
0
41
1
10
26.7597618053253
20
-12.7819706738414
30
0
41
1
10
26.6516550657067
20
-12.8166097787777
30
0
41
1
10
26.615837042194
20
-12.8271599907938
30
0
41
1
10
26.5459016284738
20
-12.8452801091892
30
0
41
1
10
26.5118168291753
20
-12.8528566559519
30
0
41
1
10
26.4460305353449
20
-12.8639912370404
30
0
41
1
10
26.41417936874
20
-12.8675359130716
30
0
41
1
10
26.3557686728799
20
-12.8688507748919
30
0
41
1
10
26.3289850243069
20
-12.8666935504554
30
0
41
1
10
26.2938153039426
20
-12.8576303475515
30
0
41
1
10
26.2828891541306
20
-12.8535832343384
30
0
41
1
10
26.2636669915597
20
-12.8435037688027
30
0
41
1
10
26.2552833096951
20
-12.8374629511351
30
0
41
1
10
26.2410979283624
20
-12.8232746886574
30
0
41
1
10
26.2352665779914
20
-12.8150569063259
30
0
41
1
10
26.2264847688107
20
-12.7967354467192
30
0
41
1
10
26.2235426362516
20
-12.7867184712165
30
0
41
1
10
26.2186918903296
20
-12.7543178608144
30
0
41
1
10
26.2208828298159
20
-12.7292648908211
30
0
41
1
10
26.2334708617685
20
-12.6764107803769
30
0
41
1
10
26.2437407082672
20
-12.6484462406121
30
0
41
1
10
26.2701073228996
20
-12.5902677298608
30
0
41
1
10
26.2861257858864
20
-12.5602838147699
30
0
41
1
10
26.3218101703173
20
-12.4998462606184
30
0
41
1
10
26.3415574992123
20
-12.4692409725099
30
0
41
1
10
26.3627508249596
20
-12.438344168703
30
0
0
SPLINE
5
17D
100
AcDbEntity
8
1
62
256
6
ByLayer
370
13
48
1
60
0
100
AcDbSpline
70
4
71
3
72
14
73
10
40
0
40
0
40
0
40
0
40
0.25
40
0.25
40
0.5
40
0.5
40
0.75
40
0.75
40
1
40
1
40
1
40
1
41
1
10
47.9502780261259
20
15.4781657688763
30
0
41
1
10
48.0274828124799
20
15.4937152518005
30
0
41
1
10
48.1017264836553
20
15.5142967386737
30
0
41
1
10
48.2403215379659
20
15.5633539224042
30
0
41
1
10
48.3048788526847
20
15.5918169490782
30
0
41
1
10
48.424016468257
20
15.6550753780016
30
0
41
1
10
48.4785957009112
20
15.689877614096
30
0
41
1
10
48.5769200462685
20
15.7642914890742
30
0
41
1
10
48.6196473767469
20
15.8031466321613
30
0
41
1
10
48.6559406920759
20
15.8424037296516
30
0
0
SPLINE
5
17E
100
AcDbEntity
8
1
62
256
6
ByLayer
370
13
48
1
60
0
100
AcDbSpline
70
4
71
3
72
16
73
12
40
0
40
0
40
0
40
0
40
0.125000000000017
40
0.125000000000017
40
0.250000000000033
40
0.250000000000033
40
0.500000000000022
40
0.500000000000022
40
0.750000000000011
40
0.750000000000011
40
1
40
1
40
1
40
1
41
1
10
43.5212296139016
20
19.3633517298939
30
0
41
1
10
43.5084702992658
20
19.3571096777913
30
0
41
1
10
43.4957468963177
20
19.351298978327
30
0
41
1
10
43.471604750028
20
19.3410746690459
30
0
41
1
10
43.4600372523232
20
19.3365828317594
30
0
41
1
10
43.4266152317806
20
19.3247366927027
30
0
41
1
10
43.4070557414919
20
19.3193406404956
30
0
41
1
10
43.3714400718935
20
19.3117141951659
30
0
41
1
10
43.3555401774181
20
19.3095360587657
30
0
41
1
10
43.3265718155533
20
19.3073273149029
30
0
41
1
10
43.3133744523135
20
19.3072942489731
30
0
41
1
10
43.3011626758249
20
19.3080078035239
30
0
0
SPLINE
5
17F
100
AcDbEntity
8
1
62
256
6
ByLayer
370
13
48
1
60
0
100
AcDbSpline
70
4
71
3
72
10
73
6
40
0
40
0
40
0
40
0
40
0.5
40
0.5
40
1
40
1
40
1
40
1
41
1
10
28.5864591690212
20
18.8866682104291
30
0
41
1
10
30.0749354417896
20
18.6975145172345
30
0
41
1
10
31.5602224319899
20
18.5424858558211
30
0
41
1
10
34.5254164068078
20
18.2995191064139
30
0
41
1
10
36.0053226122121
20
18.2115825854754
30
0
41
1
10
37.4829916910636
20
18.1569064178858
30
0
0
SPLINE
5
180
100
AcDbEntity
8
1
62
256
6
ByLayer
370
13
48
1
60
0
100
AcDbSpline
70
4
71
3
72
8
73
4
40
0
40
0
40
0
40
0
40
1
40
1
40
1
40
1
41
1
10
50.0093632285446
20
16.6178067792034
30
0
41
1
10
50.0194312927459
20
16.6185128703209
30
0
41
1
10
50.0295143877947
20
16.619178863876
30
0
41
1
10
50.039414781169
20
16.6197943921475
30
0
0
SPLINE
5
181
100
AcDbEntity
8
1
62
256
6
ByLayer
370
13
48
1
60
0
100
AcDbSpline
70
4
71
3
72
26
73
22
40
0
40
0
40
0
40
0
40
0.031249999999999
40
0.031249999999999
40
0.0624999999999979
40
0.0624999999999979
40
0.124999999999997
40
0.124999999999997
40
0.187499999999997
40
0.187499999999997
40
0.249999999999996
40
0.249999999999996
40
0.374999999999996
40
0.374999999999996
40
0.499999999999996
40
0.499999999999996
40
0.749999999999998
40
0.749999999999998
40
0.874999999999999
40
0.874999999999999
40
1
40
1
40
1
40
1
41
1
10
23.1385977307599
20
2.18069332099921
30
0
41
1
10
23.1836313185372
20
2.21656623770463
30
0
41
1
10
23.2261925650101
20
2.25519648148224
30
0
41
1
10
23.3073753254267
20
2.33520531885969
30
0
41
1
10
23.3461500632529
20
2.37675079176975
30
0
41
1
10
23.458754615574
20
2.50454259187009
30
0
41
1
10
23.5289493901618
20
2.59387251638736
30
0
41
1
10
23.6640204184895
20
2.77704405637698
30
0
41
1
10
23.7289111836157
20
2.87110898970391
30
0
41
1
10
23.8545628577203
20
3.06118620414333
30
0
41
1
10
23.9153545508618
20
3.15728079698061
30
0
41
1
10
24.0935369839741
20
3.44774110498076
30
0
41
1
10
24.2068288691396
20
3.64423465962443
30
0
41
1
10
24.4269372030943
20
4.04058336375496
30
0
41
1
10
24.5336558089057
20
4.24048930649045
30
0
41
1
10
24.8464692518068
20
4.8440187833539
30
0
41
1
10
25.045351421156
20
5.2513866314205
30
0
41
1
10
25.3321767739477
20
5.86840731175209
30
0
41
1
10
25.4258082453635
20
6.07510718171349
30
0
41
1
10
25.6091494215457
20
6.49054282930021
30
0
41
1
10
25.6988736899892
20
6.69932980582593
30
0
41
1
10
25.7863220808541
20
6.90853695555012
30
0
0
SPLINE
5
182
100
AcDbEntity
8
1
62
256
6
ByLayer
370
13
48
1
60
0
100
AcDbSpline
70
4
71
3
72
64
73
60
40
0
40
0
40
0
40
0
40
0.0078134127479392
40
0.0078134127479392
40
0.0156268254958785
40
0.0312536509917569
40
0.0312536509917569
40
0.0625073019835139
40
0.0625073019835139
40
0.125014603967028
40
0.125014603967028
40
0.140641429462906
40
0.140641429462906
40
0.156268254958785
40
0.156268254958785
40
0.187521905950542
40
0.187521905950542
40
0.250029207934056
40
0.250029207934056
40
0.265656033429934
40
0.265656033429934
40
0.281282858925813
40
0.281282858925813
40
0.31253650991757
40
0.343790160909327
40
0.343790160909327
40
0.375043811901084
40
0.375043811901084
40
0.437551113884598
40
0.437551113884598
40
0.468804764876355
40
0.468804764876355
40
0.500058415868112
40
0.500058415868112
40
0.562565717851626
40
0.562565717851626
40
0.593819368843383
40
0.593819368843383
40
0.62507301983514
40
0.656326670826897
40
0.671953496322776
40
0.671953496322776
40
0.687580321818654
40
0.687580321818654
40
0.750087623802167
40
0.750087623802167
40
0.781341274793923
40
0.781341274793923
40
0.796968100289802
40
0.796968100289802
40
0.81259492578568
40
0.81259492578568
40
0.875102227769192
40
0.875102227769192
40
0.906355878760949
40
0.906355878760949
40
0.937609529752705
40
0.937609529752705
40
1
40
1
40
1
40
1
41
1
10
20.0000000000001
20
2.84E-14
30
0
41
1
10
19.9999999993451
20
-0.0817368030393482
30
0
41
1
10
19.9999999999292
20
-0.163890920774918
30
0
41
1
10
19.9999999999647
20
-0.327749710376253
30
0
41
1
10
19.9999999999811
20
-0.573356374130896
30
0
41
1
10
19.9999999999844
20
-0.81842060995362
30
0
41
1
10
19.9999999999911
20
-1.30783026279636
30
0
41
1
10
19.9999999999923
20
-1.63314537037633
30
0
41
1
10
19.9999999999956
20
-2.60623615182394
30
0
41
1
10
19.9999999999962
20
-3.25116411933146
30
0
41
1
10
19.9999999999968
20
-4.0525369661905
30
0
41
1
10
19.999999999997
20
-4.21257164171763
30
0
41
1
10
19.9999999999972
20
-4.53215806568568
30
0
41
1
10
19.9999999999973
20
-4.69184028329781
30
0
41
1
10
19.9999999999976
20
-5.16904480940295
30
0
41
1
10
19.9999999999977
20
-5.48463346153483
30
0
41
1
10
19.9999999999981
20
-6.42381370955741
30
0
41
1
10
19.9999999999982
20
-7.03983783618607
30
0
41
1
10
19.9999999999984
20
-7.79716379111048
30
0
41
1
10
19.9999999999984
20
-7.9480574666197
30
0
41
1
10
19.9999999999985
20
-8.24778017353117
30
0
41
1
10
19.9999999999985
20
-8.3966967009996
30
0
41
1
10
19.9999999999986
20
-8.84062385951567
30
0
41
1
10
19.9999999999987
20
-9.42500365851562
30
0
41
1
10
19.9999999999988
20
-9.99438363525482
30
0
41
1
10
19.9999999999989
20
-10.5562325818776
30
0
41
1
10
19.9999999999989
20
-10.8337522951682
30
0
41
1
10
19.9999999999989
20
-11.6512651363763
30
0
41
1
10
19.999999999999
20
-12.1767056409389
30
0
41
1
10
19.9999999999991
20
-12.9356469024968
30
0
41
1
10
19.9999999999991
20
-13.1837486426296
30
0
41
1
10
19.9999999999992
20
-13.670110461328
30
0
41
1
10
19.9999999999992
20
-13.9073963340673
30
0
41
1
10
19.9999999999992
20
-14.6016188395858
30
0
41
1
10
19.9999999999992
20
-15.0410084046466
30
0
41
1
10
19.9999999999993
20
-15.6648010784372
30
0
41
1
10
19.9999999999993
20
-15.866906037688
30
0
41
1
10
19.9999999999993
20
-16.2571286100304
30
0
41
1
10
19.9999999999994
20
-16.6339316760983
30
0
41
1
10
19.9999999999994
20
-17.071528167994
30
0
41
1
10
19.9999999999994
20
-17.319006831401
30
0
41
1
10
19.9999999999994
20
-17.4806251471032
30
0
41
1
10
19.9999999999994
20
-17.5597966456912
30
0
41
1
10
19.9999999999994
20
-17.9462610185613
30
0
41
1
10
19.9999999999994
20
-18.2259691453968
30
0
41
1
10
19.9999999999994
20
-18.6016364170851
30
0
41
1
10
19.9999999999994
20
-18.7195298004252
30
0
41
1
10
19.9999999999994
20
-18.8852940814949
30
0
41
1
10
19.9999999999994
20
-18.9386972370419
30
0
41
1
10
19.9999999999994
20
-19.0415185754347
30
0
41
1
10
19.9999999999994
20
-19.0909753738551
30
0
41
1
10
19.9999999999994
20
-19.3285290692487
30
0
41
1
10
19.9999999999994
20
-19.4875052521026
30
0
41
1
10
19.9999999999994
20
-19.6792726087311
30
0
41
1
10
19.9999999999995
20
-19.735443254061
30
0
41
1
10
19.9999999999995
20
-19.8315814505694
30
0
41
1
10
19.9999999999995
20
-19.8716200240567
30
0
41
1
10
19.9999999999995
20
-19.967658936256
30
0
41
1
10
19.9999999999995
20
-19.9998903998529
30
0
41
1
10
19.9999999999995
20
-19.999994999876
30
0
0
SPLINE
5
183
100
AcDbEntity
8
1
62
256
6
ByLayer
370
13
48
1
60
0
100
AcDbSpline
70
4
71
3
72
8
73
4
40
0
40
0
40
0
40
0
40
1
40
1
40
1
40
1
41
1
10
30.8757663841654
20
25.3899099536421
30
0
41
1
10
30.6696945778414
20
25.3730064658739
30
0
41
1
10
30.4974165924192
20
25.3582525867206
30
0
41
1
10
30.3506072025778
20
25.345118752623
30
0
0
SPLINE
5
184
100
AcDbEntity
8
1
62
256
6
ByLayer
370
13
48
1
60
0
100
AcDbSpline
70
4
71
3
72
10
73
6
40
0
40
0
40
0
40
0
40
0.5
40
0.5
40
1
40
1
40
1
40
1
41
1
10
28.5864591690212
20
18.8866682104291
30
0
41
1
10
28.2047548069462
20
18.9119349309729
30
0
41
1
10
27.837578203733
20
18.9369926794858
30
0
41
1
10
27.1384560345607
20
18.9848941770322
30
0
41
1
10
26.8065005543968
20
19.0077391845832
30
0
41
1
10
26.4959830134375
20
19.0283960875546
30
0
0
SPLINE
5
185
100
AcDbEntity
8
1
62
256
6
ByLayer
370
13
48
1
60
0
100
AcDbSpline
70
4
71
3
72
19
73
15
40
0
40
0
40
0
40
0
40
0.125000000000001
40
0.125000000000001
40
0.250000000000001
40
0.375000000000002
40
0.375000000000002
40
0.500000000000002
40
0.500000000000002
40
0.750000000000002
40
0.750000000000002
40
0.875000000000001
40
0.875000000000001
40
1
40
1
40
1
40
1
41
1
10
52.3566059597884
20
16.6430242867008
30
0
41
1
10
52.3800531396688
20
16.6423128454343
30
0
41
1
10
52.403774521445
20
16.6413048550132
30
0
41
1
10
52.4509586379025
20
16.6386961664168
30
0
41
1
10
52.498108079033
20
16.6354890701915
30
0
41
1
10
52.5451856444748
20
16.6310371583257
30
0
41
1
10
52.5922256935248
20
16.6259356545377
30
0
41
1
10
52.6154129871491
20
16.6230896277728
30
0
41
1
10
52.682575190589
20
16.6139319344523
30
0
41
1
10
52.7248413266692
20
16.6069339010083
30
0
41
1
10
52.785379885538
20
16.5953298528629
30
0
41
1
10
52.8051172339864
20
16.5912655212846
30
0
41
1
10
52.8431257441579
20
16.5829360013612
30
0
41
1
10
52.8614876868815
20
16.5786546056659
30
0
41
1
10
52.8793201233223
20
16.5742670085251
30
0
0
SPLINE
5
186
100
AcDbEntity
8
1
62
256
6
ByLayer
370
13
48
1
60
0
100
AcDbSpline
70
4
71
3
72
14
73
10
40
0
40
0
40
0
40
0
40
0.25
40
0.25
40
0.5
40
0.5
40
0.75
40
0.75
40
1
40
1
40
1
40
1
41
1
10
49.421772290451
20
16.4178735816562
30
0
41
1
10
49.3988635019545
20
16.4017269422276
30
0
41
1
10
49.3747497008278
20
16.3844575295623
30
0
41
1
10
49.3256415930262
20
16.3486741447001
30
0
41
1
10
49.3004420028048
20
16.3300172117971
30
0
41
1
10
49.2485974317883
20
16.2909899313778
30
0
41
1
10
49.2226605238953
20
16.2711499342623
30
0
41
1
10
49.1713579413488
20
16.2313309318768
30
0
41
1
10
49.1456838574399
20
16.2111099307909
30
0
41
1
10
49.1206836755077
20
16.1911647423871
30
0
0
SPLINE
5
187
100
AcDbEntity
8
1
62
256
6
ByLayer
370
13
48
1
60
0
100
AcDbSpline
70
4
71
3
72
16
73
12
40
0
40
0
40
0
40
0
40
0.125000000000003
40
0.125000000000003
40
0.250000000000007
40
0.250000000000007
40
0.500000000000005
40
0.500000000000005
40
0.750000000000002
40
0.750000000000002
40
1
40
1
40
1
40
1
41
1
10
9.07679491924318
20
19.1222825906925
30
0
41
1
10
9.09558095295716
20
19.1222825906925
30
0
41
1
10
9.11384906187908
20
19.1211757542147
30
0
41
1
10
9.14859952398734
20
19.1171586755843
30
0
41
1
10
9.16442417341887
20
19.1143521510703
30
0
41
1
10
9.20863486580117
20
19.1042242696215
30
0
41
1
10
9.23213528231523
20
19.0956673725614
30
0
41
1
10
9.27225845989855
20
19.0770274497583
30
0
41
1
10
9.2883804503779
20
19.0670986798899
30
0
41
1
10
9.31588453947563
20
19.0464153092312
30
0
41
1
10
9.3272084215682
20
19.0356185274183
30
0
41
1
10
9.33660254037849
20
19.0245744101321
30
0
0
SPLINE
5
188
100
AcDbEntity
8
1
62
256
6
ByLayer
370
13
48
1
60
0
100
AcDbSpline
70
4
71
3
72
16
73
12
40
0
40
0
40
0
40
0
40
0.0624999999999945
40
0.0624999999999945
40
0.124999999999989
40
0.124999999999989
40
0.249999999999978
40
0.249999999999978
40
0.499999999999985
40
0.499999999999985
40
1
40
1
40
1
40
1
41
1
10
20.2792076144251
20
0.0969965303874574
30
0
41
1
10
20.2822613300217
20
0.0980573890531389
30
0
41
1
10
20.2848067767488
20
0.100060603213876
30
0
41
1
10
20.2893025281623
20
0.104530235401228
30
0
41
1
10
20.2912387337065
20
0.107017196802588
30
0
41
1
10
20.2966159792884
20
0.114827066937579
30
0
41
1
10
20.2995810798805
20
0.120446104308229
30
0
41
1
10
20.3076504453133
20
0.137457874502616
30
0
41
1
10
20.3119923774376
20
0.149232850804225
30
0
41
1
10
20.3239951664475
20
0.184985499236092
30
0
41
1
10
20.3304700646746
20
0.209326485795515
30
0
41
1
10
20.3364510031035
20
0.233765687179528
30
0
0
SPLINE
5
189
100
AcDbEntity
8
1
62
256
6
ByLayer
370
13
48
1
60
0
100
AcDbSpline
70
4
71
3
72
18
73
14
40
0
40
0
40
0
40
0
40
0.249999999999997
40
0.249999999999997
40
0.499999999999994
40
0.499999999999994
40
0.624999999999996
40
0.624999999999996
40
0.749999999999997
40
0.749999999999997
40
0.874999999999999
40
0.874999999999999
40
1
40
1
40
1
40
1
41
1
10
9.33660254037846
20
6.16973001948625
30
0
41
1
10
9.32721186043483
20
6.13568757087521
30
0
41
1
10
9.31597445228968
20
6.10231901185003
30
0
41
1
10
9.28852371889985
20
6.03742672607487
30
0
41
1
10
9.2722622465561
20
6.00567161829662
30
0
41
1
10
9.24217730798259
20
5.96102885758663
30
0
41
1
10
9.23126332140671
20
5.94676259304904
30
0
41
1
10
9.20699632571427
20
5.91993010703212
30
0
41
1
10
9.19372453113976
20
5.90747721696087
30
0
41
1
10
9.16468775446978
20
5.8859080122495
30
0
41
1
10
9.14852956001855
20
5.87657212596534
30
0
41
1
10
9.11408210674716
20
5.86358216944919
30
0
41
1
10
9.09555613582359
20
5.85988980456989
30
0
41
1
10
9.07679491924316
20
5.85988980456989
30
0
0
SPLINE
5
18A
100
AcDbEntity
8
1
62
256
6
ByLayer
370
13
48
1
60
0
100
AcDbSpline
70
4
71
3
72
36
73
32
40
0
40
0
40
0
40
0
40
0.0625000000000015
40
0.0625000000000015
40
0.125000000000003
40
0.125000000000003
40
0.187500000000005
40
0.187500000000005
40
0.218750000000004
40
0.218750000000004
40
0.250000000000005
40
0.250000000000005
40
0.312500000000005
40
0.312500000000005
40
0.343750000000005
40
0.343750000000005
40
0.375000000000005
40
0.375000000000005
40
0.437500000000006
40
0.437500000000006
40
0.500000000000007
40
0.500000000000007
40
0.625000000000007
40
0.625000000000007
40
0.687500000000007
40
0.687500000000007
40
0.750000000000006
40
0.750000000000006
40
0.875000000000003
40
0.875000000000003
40
1
40
1
40
1
40
1
41
1
10
24.8284903054835
20
19.1760688402482
30
0
41
1
10
24.7972174786238
20
19.1794130418835
30
0
41
1
10
24.7685130046657
20
19.1847679355713
30
0
41
1
10
24.7180846913129
20
19.1998428131936
30
0
41
1
10
24.6962825412326
20
19.2095626044165
30
0
41
1
10
24.6616282727806
20
19.2341502678543
30
0
41
1
10
24.6492622487598
20
19.2487451061613
30
0
41
1
10
24.6392436456346
20
19.2740623827218
30
0
41
1
10
24.6373137285509
20
19.2830831933157
30
0
41
1
10
24.636422364729
20
19.3023374788895
30
0
41
1
10
24.6374861398887
20
19.3125812113755
30
0
41
1
10
24.6450180447116
20
19.3443737280982
30
0
41
1
10
24.6557840251525
20
19.367211600213
30
0
41
1
10
24.6795197062434
20
19.4038138680947
30
0
41
1
10
24.6887498582413
20
19.4164675211246
30
0
41
1
10
24.7092091016836
20
19.4421131358724
30
0
41
1
10
24.7204474285556
20
19.4551346559951
30
0
41
1
10
24.7567811396205
20
19.4947929935731
30
0
41
1
10
24.7844765821715
20
19.5220209294581
30
0
41
1
10
24.8452282794824
20
19.5781338897434
30
0
41
1
10
24.8784535390172
20
19.6071492034281
30
0
41
1
10
24.9823907210695
20
19.6950952662612
30
0
41
1
10
25.0577313228123
20
19.7554304779592
30
0
41
1
10
25.1759795829454
20
19.8496592794674
30
0
41
1
10
25.2163040336106
20
19.8816872044299
30
0
41
1
10
25.2984292889348
20
19.9471616032467
30
0
41
1
10
25.3402137303452
20
19.9805961839624
30
0
41
1
10
25.4657435930145
20
20.0819202533269
30
0
41
1
10
25.5502059474035
20
20.1512801757179
30
0
41
1
10
25.7195760939541
20
20.2946113738579
30
0
41
1
10
25.8044947793148
20
20.3685739271217
30
0
41
1
10
25.8893885791374
20
20.4453136818477
30
0
0
SPLINE
5
18B
100
AcDbEntity
8
1
62
256
6
ByLayer
370
13
48
1
60
0
100
AcDbSpline
70
4
71
3
72
8
73
4
40
0
40
0
40
0
40
0
40
1
40
1
40
1
40
1
41
1
10
53.739704515008
20
16.355364642428
30
0
41
1
10
53.9019520871895
20
16.2942514348161
30
0
41
1
10
54.0641996291261
20
16.2331381179537
30
0
41
1
10
54.2264471395818
20
16.172024687418
30
0
0
SPLINE
5
18C
100
AcDbEntity
8
1
62
256
6
ByLayer
370
13
48
1
60
0
100
AcDbSpline
70
4
71
3
72
10
73
6
40
0
40
0
40
0
40
0
40
0.395768530975609
40
0.395768530975609
40
1
40
1
40
1
40
1
41
1
10
43.0605773191284
20
26.170477835318
30
0
41
1
10
43.0339254420527
20
26.1704735781941
30
0
41
1
10
43.0073755998978
20
26.1701186040151
30
0
41
1
10
42.9410230073807
20
26.1683995430875
30
0
41
1
10
42.9012063392675
20
26.1665940588809
30
0
41
1
10
42.8622079438881
20
26.1641417393128
30
0
0
SPLINE
5
18D
100
AcDbEntity
8
1
62
256
6
ByLayer
370
13
48
1
60
0
100
AcDbSpline
70
4
71
3
72
10
73
6
40
0
40
0
40
0
40
0
40
0.86387356909091
40
0.86387356909091
40
1
40
1
40
1
40
1
41
1
10
20.2792076144251
20
0.096996530374696
30
0
41
1
10
20.1988076616628
20
0.0690656429290186
30
0
41
1
10
20.118407602079
20
0.0411347179136783
30
0
41
1
10
20.0253383662554
20
0.0088025312065838
30
0
41
1
10
20.0126691831262
20
0.0044012654880135
30
0
41
1
10
20.0000000000001
20
5.68E-14
30
0
0
SPLINE
5
18E
100
AcDbEntity
8
1
62
256
6
ByLayer
370
13
48
1
60
0
100
AcDbSpline
70
4
71
3
72
16
73
12
40
0
40
0
40
0
40
0
40
0.125
40
0.125
40
0.25
40
0.25
40
0.5
40
0.5
40
0.75
40
0.75
40
1
40
1
40
1
40
1
41
1
10
6.92320508075699
20
5.85988980456955
30
0
41
1
10
6.90441904704301
20
5.85988980456955
30
0
41
1
10
6.88615093812106
20
5.86350446472747
30
0
41
1
10
6.85140047601277
20
5.87658838136386
30
0
41
1
10
6.83557582658128
20
5.88571770958612
30
0
41
1
10
6.79136513419897
20
5.91854200832083
30
0
41
1
10
6.76786471768492
20
5.94612987812195
30
0
41
1
10
6.72774154010156
20
6.00566371121224
30
0
41
1
10
6.71161954962224
20
6.03712755983045
30
0
41
1
10
6.68411546052448
20
6.10206728171755
30
0
41
1
10
6.67279157843197
20
6.13567510453134
30
0
41
1
10
6.66339745962165
20
6.16973001948588
30
0
0
SPLINE
5
18F
100
AcDbEntity
8
1
62
256
6
ByLayer
370
13
48
1
60
0
100
AcDbSpline
70
4
71
3
72
8
73
4
40
0
40
0
40
0
40
0
40
1
40
1
40
1
40
1
41
1
10
42.7939584221348
20
16.2136031849955
30
0
41
1
10
42.7981844395182
20
16.1974119034348
30
0
41
1
10
42.8020037598386
20
16.1812108033079
30
0
41
1
10
42.8053198784756
20
16.1649830146401
30
0
0
SPLINE
5
190
100
AcDbEntity
8
1
62
256
6
ByLayer
370
13
48
1
60
0
100
AcDbSpline
70
4
71
3
72
18
73
14
40
0
40
0
40
0
40
0
40
0.249999999999995
40
0.249999999999995
40
0.499999999999989
40
0.499999999999989
40
0.624999999999992
40
0.624999999999992
40
0.749999999999995
40
0.749999999999995
40
0.874999999999997
40
0.874999999999997
40
1
40
1
40
1
40
1
41
1
10
6.66339745962168
20
19.0245744101322
30
0
41
1
10
6.67278813956531
20
19.0356144845436
30
0
41
1
10
6.68402554771049
20
19.0463346141653
30
0
41
1
10
6.71147628110029
20
19.0670039094876
30
0
41
1
10
6.72773775344408
20
19.0770249518319
30
0
41
1
10
6.75782269201758
20
19.0910025433169
30
0
41
1
10
6.76873667859343
20
19.0954500347067
30
0
41
1
10
6.79300367428587
20
19.1037856168332
30
0
41
1
10
6.80627546886041
20
19.1076382714245
30
0
41
1
10
6.83531224553036
20
19.114293454163
30
0
41
1
10
6.85147043998163
20
19.1171636549363
30
0
41
1
10
6.88591789325298
20
19.1211519083817
30
0
41
1
10
6.90444386417659
20
19.1222825906926
30
0
41
1
10
6.92320508075701
20
19.1222825906926
30
0
0
SPLINE
5
191
100
AcDbEntity
8
SK1
62
256
6
ByLayer
370
13
48
1
60
0
100
AcDbSpline
70
4
71
3
72
8
73
4
40
0
40
0
40
0
40
0
40
1
40
1
40
1
40
1
41
1
10
-1.31543506509502
20
3.62586927327735
30
0
41
1
10
-1.30850489189848
20
3.65726626185159
30
0
41
1
10
-1.30170669836545
20
3.68878446662467
30
0
41
1
10
-1.2950399779393
20
3.72040136697791
30
0
0
SPLINE
5
192
100
AcDbEntity
8
SK1
62
256
6
ByLayer
370
13
48
1
60
0
100
AcDbSpline
70
4
71
3
72
38
73
34
40
0
40
0
40
0
40
0
40
0.250000000000002
40
0.250000000000002
40
0.375000000000003
40
0.375000000000003
40
0.500000000000004
40
0.500000000000004
40
0.562500000000004
40
0.562500000000004
40
0.625000000000003
40
0.625000000000003
40
0.687500000000003
40
0.687500000000003
40
0.718750000000004
40
0.718750000000004
40
0.750000000000004
40
0.750000000000004
40
0.765625000000004
40
0.765625000000004
40
0.781250000000004
40
0.781250000000004
40
0.796875000000004
40
0.796875000000004
40
0.812500000000004
40
0.812500000000004
40
0.843750000000004
40
0.843750000000004
40
0.875000000000003
40
0.875000000000003
40
0.937500000000002
40
0.937500000000002
40
1
40
1
40
1
40
1
41
1
10
-1.2950399779393
20
3.72040136697805
30
0
41
1
10
-1.25851769783316
20
3.89360816386991
30
0
41
1
10
-1.21660420962053
20
4.06324182424041
30
0
41
1
10
-1.14019760930614
20
4.31131135425241
30
0
41
1
10
-1.1124431897812
20
4.39292915745057
30
0
41
1
10
-1.0501115766175
20
4.55351168985726
30
0
41
1
10
-1.01567625050731
20
4.63251185882856
30
0
41
1
10
-0.954906322750219
20
4.74806453945652
30
0
41
1
10
-0.933110143877173
20
4.78608587328691
30
0
41
1
10
-0.8846088779041
20
4.86068549225391
30
0
41
1
10
-0.858124251569365
20
4.89699298983049
30
0
41
1
10
-0.798207796670937
20
4.96492418558611
30
0
41
1
10
-0.764549925786582
20
4.99705560543688
30
0
41
1
10
-0.705160744607667
20
5.03592142593286
30
0
41
1
10
-0.68366653094165
20
5.04731829496342
30
0
41
1
10
-0.638001912927621
20
5.0641475360699
30
0
41
1
10
-0.613311005030226
20
5.06961717078991
30
0
41
1
10
-0.576165066801281
20
5.07149193672319
30
0
41
1
10
-0.563538801949846
20
5.07108810696403
30
0
41
1
10
-0.538925162440137
20
5.06828696943356
30
0
41
1
10
-0.526897751667718
20
5.06591791573516
30
0
41
1
10
-0.503336668140349
20
5.05946603240986
30
0
41
1
10
-0.491780537174748
20
5.0553582611619
30
0
41
1
10
-0.469788291432622
20
5.04595412641885
30
0
41
1
10
-0.459247468788419
20
5.04063431395784
30
0
41
1
10
-0.428720600842297
20
5.02318308218284
30
0
41
1
10
-0.409727348488047
20
5.00947594842552
30
0
41
1
10
-0.37478352882053
20
4.98024543974105
30
0
41
1
10
-0.358663217229321
20
4.96462449834041
30
0
41
1
10
-0.31305887710792
20
4.91567679507722
30
0
41
1
10
-0.286230000377401
20
4.88019396412099
30
0
41
1
10
-0.23748024882812
20
4.807199974284
30
0
41
1
10
-0.215465258733531
20
4.7694805230384
30
0
41
1
10
-0.19497688887634
20
4.73091779436069
30
0
0
SPLINE
5
193
100
AcDbEntity
8
SK1
62
256
6
ByLayer
370
13
48
1
60
0
100
AcDbSpline
70
4
71
3
72
8
73
4
40
0
40
0
40
0
40
0
40
1
40
1
40
1
40
1
41
1
10
-1.29503997793927
20
-13.8302940479285
30
0
41
1
10
-1.29503997793927
20
-13.8302638306999
30
0
41
1
10
-1.29503997793927
20
-13.8237028881086
30
0
41
1
10
-1.29503997793927
20
-13.8110830479285
30
0
0
SPLINE
5
194
100
AcDbEntity
8
SK1
62
256
6
ByLayer
370
13
48
1
60
0
100
AcDbSpline
70
4
71
3
72
19
73
15
40
0
40
0
40
0
40
0
40
0.0141473054383358
40
0.0839283209412436
40
0.153709336444151
40
0.223490351947059
40
0.363052382952875
40
0.50261441395869
40
0.642176444964506
40
0.781738475970322
40
0.851519491473229
40
0.921300506976137
40
0.991081522479045
40
1
40
1
40
1
40
1
41
1
10
-1.29503997793927
20
-13.8110830479286
30
0
41
1
10
-1.29503997793927
20
-13.8063652221453
30
0
41
1
10
-1.2950399779393
20
-13.7733534322801
30
0
41
1
10
-1.2950399779393
20
-13.6599037171108
30
0
41
1
10
-1.2950399779393
20
-13.3979947415187
30
0
41
1
10
-1.2950399779393
20
-12.9178759353221
30
0
41
1
10
-1.2950399779393
20
-12.0913768621482
30
0
41
1
10
-1.2950399779393
20
-10.7763306191778
30
0
41
1
10
-1.2950399779393
20
-9.16312231847047
30
0
41
1
10
-1.2950399779393
20
-7.58444837414548
30
0
41
1
10
-1.29503997793932
20
-6.18418927877332
30
0
41
1
10
-1.29503997793932
20
-5.06796043045176
30
0
41
1
10
-1.2950399779393
20
-4.22989754380646
30
0
41
1
10
-1.2950399779393
20
-3.77241114920653
30
0
41
1
10
-1.2950399779393
20
-3.72039904787707
30
0
0
SPLINE
5
195
100
AcDbEntity
8
SK1
62
256
6
ByLayer
370
13
48
1
60
0
100
AcDbSpline
70
4
71
3
72
30
73
26
40
0
40
0
40
0
40
0
40
0.228691830072148
40
0.228691830072148
40
0.485794553381432
40
0.485794553381432
40
0.614345915036074
40
0.614345915036074
40
0.678621595863395
40
0.678621595863395
40
0.710759436277056
40
0.710759436277056
40
0.742897276690716
40
0.742897276690716
40
0.775035117104376
40
0.775035117104376
40
0.807172957518037
40
0.807172957518037
40
0.839310797931697
40
0.839310797931697
40
0.871448638345358
40
0.871448638345358
40
0.935724319172679
40
0.935724319172679
40
1
40
1
40
1
40
1
41
1
10
-3.85934445148E-05
20
-5.17940063584524
30
0
41
1
10
-0.0002483324020943
20
-5.12666565303394
30
0
41
1
10
-0.0013340295734849
20
-5.07366125625711
30
0
41
1
10
-0.0065891270069756
20
-4.96031235327962
30
0
41
1
10
-0.010881779635298
20
-4.89990724368676
30
0
41
1
10
-0.0237620514060382
20
-4.80805784488894
30
0
41
1
10
-0.0290907213673961
20
-4.77727429401668
30
0
41
1
10
-0.0409398492330126
20
-4.73154031330466
30
0
41
1
10
-0.0455700272008528
20
-4.71625292098042
30
0
41
1
10
-0.0544341560853354
20
-4.69410229291989
30
0
41
1
10
-0.0577134952938252
20
-4.68683899819081
30
0
41
1
10
-0.0654016172370007
20
-4.67273255588492
30
0
41
1
10
-0.0697786680179036
20
-4.66593494073933
30
0
41
1
10
-0.080199490474314
20
-4.65394546278463
30
0
41
1
10
-0.0862619725800187
20
-4.64884979459708
30
0
41
1
10
-0.0996962255722167
20
-4.64277718642509
30
0
41
1
10
-0.106908299943228
20
-4.64200850997943
30
0
41
1
10
-0.120320590680336
20
-4.64426862079904
30
0
41
1
10
-0.126437311435609
20
-4.6470475706908
30
0
41
1
10
-0.137775602820398
20
-4.65415578564156
30
0
41
1
10
-0.142913624927331
20
-4.65844215443914
30
0
41
1
10
-0.157438505414177
20
-4.67252807805531
30
0
41
1
10
-0.165892378694082
20
-4.68350449747797
30
0
41
1
10
-0.181337728270876
20
-4.70640775215537
30
0
41
1
10
-0.188367958685234
20
-4.71847769476446
30
0
41
1
10
-0.194976888875317
20
-4.73091688957581
30
0
0
SPLINE
5
196
100
AcDbEntity
8
SK1
62
256
6
ByLayer
370
13
48
1
60
0
100
AcDbSpline
70
4
71
3
72
42
73
38
40
0
40
0
40
0
40
0
40
0.0625000000000004
40
0.0625000000000004
40
0.125000000000001
40
0.125000000000001
40
0.156250000000001
40
0.156250000000001
40
0.187500000000001
40
0.187500000000001
40
0.203125000000001
40
0.203125000000001
40
0.218750000000001
40
0.218750000000001
40
0.250000000000001
40
0.250000000000001
40
0.265625000000001
40
0.265625000000001
40
0.281250000000001
40
0.281250000000001
40
0.3125
40
0.3125
40
0.34375
40
0.34375
40
0.375
40
0.375
40
0.406249999999999
40
0.406249999999999
40
0.437499999999999
40
0.437499999999999
40
0.5
40
0.5
40
0.624999999999999
40
0.624999999999999
40
0.749999999999999
40
0.749999999999999
40
1
40
1
40
1
40
1
41
1
10
-0.194976888875317
20
-4.73091688957581
30
0
41
1
10
-0.215341623339697
20
-4.76924698113567
30
0
41
1
10
-0.237218316180844
20
-4.80674995850598
30
0
41
1
10
-0.285637627819995
20
-4.87936236943105
30
0
41
1
10
-0.312256841613362
20
-4.91463801970468
30
0
41
1
10
-0.357314872189704
20
-4.96326033895107
30
0
41
1
10
-0.373222216218323
20
-4.97878077240608
30
0
41
1
10
-0.407620214482392
20
-5.00785490213445
30
0
41
1
10
-0.426278333479019
20
-5.0215402586629
30
0
41
1
10
-0.456728973232345
20
-5.03929581041626
30
0
41
1
10
-0.46722146248112
20
-5.04470971733878
30
0
41
1
10
-0.489046579628962
20
-5.05430336020376
30
0
41
1
10
-0.500481090897154
20
-5.05851097121629
30
0
41
1
10
-0.535557037706781
20
-5.06857604589356
30
0
41
1
10
-0.559985369554852
20
-5.07188206831199
30
0
41
1
10
-0.597392769915615
20
-5.07058983818629
30
0
41
1
10
-0.60965028801084
20
-5.0691430094044
30
0
41
1
10
-0.633782022172596
20
-5.06440806930368
30
0
41
1
10
-0.645755186035046
20
-5.06108135175651
30
0
41
1
10
-0.680359739746251
20
-5.04886992829591
30
0
41
1
10
-0.70156461870917
20
-5.03794098162786
30
0
41
1
10
-0.741527280043528
20
-5.01240263270338
30
0
41
1
10
-0.759884387516905
20
-4.99801673779979
30
0
41
1
10
-0.794046350406461
20
-4.96754313754653
30
0
41
1
10
-0.809941062305342
20
-4.95136754594472
30
0
41
1
10
-0.840062162216981
20
-4.91767567327216
30
0
41
1
10
-0.854269712065701
20
-4.90015466380942
30
0
41
1
10
-0.881036873904748
20
-4.86462395354354
30
0
41
1
10
-0.893662560981056
20
-4.84653541178756
30
0
41
1
10
-0.92982112745301
20
-4.79151423164106
30
0
41
1
10
-0.951663085997552
20
-4.75383674896335
30
0
41
1
10
-1.01277889125277
20
-4.63872353663032
30
0
41
1
10
-1.04776623358578
20
-4.55912497276026
30
0
41
1
10
-1.11108036995952
20
-4.39684201238171
30
0
41
1
10
-1.13915549199021
20
-4.31450710122559
30
0
41
1
10
-1.21629932824635
20
-4.0645931491575
30
0
41
1
10
-1.25840637569814
20
-3.89413380906464
30
0
41
1
10
-1.2950399779393
20
-3.72039904785893
30
0
0
SPLINE
5
197
100
AcDbEntity
8
SK1
62
256
6
ByLayer
370
13
48
1
60
0
100
AcDbSpline
70
4
71
3
72
28
73
24
40
0
40
0
40
0
40
0
40
0.0624999999999979
40
0.0624999999999979
40
0.124999999999996
40
0.124999999999996
40
0.156249999999995
40
0.156249999999995
40
0.187499999999994
40
0.187499999999994
40
0.218749999999993
40
0.218749999999993
40
0.249999999999992
40
0.249999999999992
40
0.312499999999992
40
0.312499999999992
40
0.374999999999992
40
0.374999999999992
40
0.499999999999993
40
0.499999999999993
40
0.749999999999997
40
0.749999999999997
40
1
40
1
40
1
40
1
41
1
10
-0.194976888875175
20
-13.8569758473157
30
0
41
1
10
-0.188351307952359
20
-13.8573117323789
30
0
41
1
10
-0.181309175350947
20
-13.8579484870214
30
0
41
1
10
-0.16586779684647
20
-13.8602426287932
30
0
41
1
10
-0.157527236762149
20
-13.8618553235834
30
0
41
1
10
-0.142850290878727
20
-13.8659339723793
30
0
41
1
10
-0.137601672143461
20
-13.8675768397125
30
0
41
1
10
-0.12616642089057
20
-13.8717647351611
30
0
41
1
10
-0.119978510861387
20
-13.8743068871857
30
0
41
1
10
-0.106494357335521
20
-13.8808184874112
30
0
41
1
10
-0.0992004653267315
20
-13.8848499971243
30
0
41
1
10
-0.0857628116788192
20
-13.8934061076404
30
0
41
1
10
-0.0796728217332543
20
-13.8978567346473
30
0
41
1
10
-0.0640798416254711
20
-13.9103676557613
30
0
41
1
10
-0.0569747888238794
20
-13.9175501330992
30
0
41
1
10
-0.0452421040683646
20
-13.9304538084542
30
0
41
1
10
-0.0407051360541288
20
-13.9362088486259
30
0
41
1
10
-0.0289365850621834
20
-13.9524111179771
30
0
41
1
10
-0.0236207641356998
20
-13.9617299511273
30
0
41
1
10
-0.0108663076175333
20
-13.9871269814753
30
0
41
1
10
-0.0065773233496316
20
-14.0009064119354
30
0
41
1
10
-0.0010278129471715
20
-14.0254304342075
30
0
41
1
10
0
20
-14.0360501755465
30
0
41
1
10
0
20
-14.0454720888129
30
0
0
SPLINE
5
198
100
AcDbEntity
8
SK1
62
256
6
ByLayer
370
13
48
1
60
0
100
AcDbSpline
70
4
71
3
72
18
73
14
40
0
40
0
40
0
40
0
40
0.0450403682495473
40
0.116876138148479
40
0.18871190804741
40
0.260547677946341
40
0.404219217744204
40
0.547890757542067
40
0.691562297339929
40
0.835233837137792
40
0.907069607036723
40
0.978905376935655
40
1
40
1
40
1
40
1
41
1
10
-0.194976888875288
20
-13.8569758473159
30
0
41
1
10
-0.194976888875288
20
-13.8536749771327
30
0
41
1
10
-0.194976888875288
20
-13.8227688123762
30
0
41
1
10
-0.194976888875288
20
-13.6872374766449
30
0
41
1
10
-0.194976888875317
20
-13.4249207366667
30
0
41
1
10
-0.194976888875317
20
-12.944151395321
30
0
41
1
10
-0.194976888875288
20
-12.1164719810225
30
0
41
1
10
-0.194976888875288
20
-10.7996944875049
30
0
41
1
10
-0.194976888875317
20
-9.18432410849503
30
0
41
1
10
-0.194976888875288
20
-7.6032699117529
30
0
41
1
10
-0.194976888875345
20
-6.20093243629225
30
0
41
1
10
-0.194976888875317
20
-5.34600749760219
30
0
41
1
10
-0.194976888875317
20
-4.84547062718619
30
0
41
1
10
-0.194976888875317
20
-4.73091688957578
30
0
0
SPLINE
5
199
100
AcDbEntity
8
SK1
62
256
6
ByLayer
370
13
48
1
60
0
100
AcDbSpline
70
4
71
3
72
19
73
15
40
0
40
0
40
0
40
0
40
0.0117798903380451
40
0.0776706952637287
40
0.143561500189412
40
0.209452305115096
40
0.341233914966463
40
0.47301552481783
40
0.604797134669197
40
0.736578744520565
40
0.802469549446248
40
0.868360354371932
40
0.934251159297616
40
1
40
1
40
1
40
1
41
1
10
-1.5
20
3.74104084360127
30
0
41
1
10
-1.5
20
3.81517906515171
30
0
41
1
10
-1.5
20
4.30166905260077
30
0
41
1
10
-1.5
20
5.17209546861977
30
0
41
1
10
-1.50000000000003
20
6.30227108969973
30
0
41
1
10
-1.5
20
7.71718805595961
30
0
41
1
10
-1.50000000000003
20
9.31264880772022
30
0
41
1
10
-1.5
20
10.9411047485551
30
0
41
1
10
-1.5
20
12.2683613692996
30
0
41
1
10
-1.5
20
13.1031838925468
30
0
41
1
10
-1.49999999999997
20
13.5878913365204
30
0
41
1
10
-1.49999999999997
20
13.8526757395093
30
0
41
1
10
-1.49999999999997
20
14.0089351371343
30
0
41
1
10
-1.5
20
14.032312073056
30
0
41
1
10
-1.49999999999994
20
14.0207795516499
30
0
0
SPLINE
5
19A
100
AcDbEntity
8
SK1
62
256
6
ByLayer
370
13
48
1
60
0
100
AcDbSpline
70
4
71
3
72
34
73
30
40
0
40
0
40
0
40
0
40
0.125000000000003
40
0.125000000000003
40
0.250000000000006
40
0.250000000000006
40
0.312500000000007
40
0.312500000000007
40
0.375000000000008
40
0.375000000000008
40
0.406250000000009
40
0.406250000000009
40
0.437500000000011
40
0.437500000000011
40
0.468750000000012
40
0.468750000000012
40
0.484375000000012
40
0.484375000000012
40
0.500000000000013
40
0.500000000000013
40
0.531250000000012
40
0.531250000000012
40
0.562500000000011
40
0.562500000000011
40
0.625000000000009
40
0.625000000000009
40
0.750000000000005
40
0.750000000000005
40
1
40
1
40
1
40
1
41
1
10
-1.31543506509499
20
-3.62586695867577
30
0
41
1
10
-1.32263676021458
20
-3.59323985300597
30
0
41
1
10
-1.33019534426805
20
-3.56079722534301
30
0
41
1
10
-1.34640449527578
20
-3.49654739810507
30
0
41
1
10
-1.35503407085307
20
-3.46469756458438
30
0
41
1
10
-1.36948862898421
20
-3.41797828457396
30
0
41
1
10
-1.37455695889349
20
-3.40259876036382
30
0
41
1
10
-1.38552672703275
20
-3.37250932806771
30
0
41
1
10
-1.39141265594273
20
-3.35774150373476
30
0
41
1
10
-1.40147524655021
20
-3.33684390921007
30
0
41
1
10
-1.40504419882512
20
-3.33007837807259
30
0
41
1
10
-1.4128735017689
20
-3.31746147234952
30
0
41
1
10
-1.41715094800375
20
-3.31149841282991
30
0
41
1
10
-1.42709086562525
20
-3.30203700524746
30
0
41
1
10
-1.43303261010067
20
-3.29830471378185
30
0
41
1
10
-1.44288776528623
20
-3.29995654998407
30
0
41
1
10
-1.44620001899955
20
-3.30184440237807
30
0
41
1
10
-1.45198664061846
20
-3.30740158071362
30
0
41
1
10
-1.45451671418908
20
-3.31099866255525
30
0
41
1
10
-1.46109088365182
20
-3.32248631354
30
0
41
1
10
-1.46434665647183
20
-3.33121736968403
30
0
41
1
10
-1.46983176423535
20
-3.34861987333684
30
0
41
1
10
-1.47206917708959
20
-3.35748802859248
30
0
41
1
10
-1.47801081226814
20
-3.38434778204973
30
0
41
1
10
-1.48091665333698
20
-3.40246996731739
30
0
41
1
10
-1.48821399872429
20
-3.45636655777463
30
0
41
1
10
-1.49121809397039
20
-3.49215025079852
30
0
41
1
10
-1.4980983220818
20
-3.59929217377788
30
0
41
1
10
-1.49965908970862
20
-3.67044323146368
30
0
41
1
10
-1.5
20
-3.74103849235212
30
0
0
SPLINE
5
19B
100
AcDbEntity
8
SK1
62
256
6
ByLayer
370
13
48
1
60
0
100
AcDbSpline
70
4
71
3
72
8
73
4
40
0
40
0
40
0
40
0
40
1
40
1
40
1
40
1
41
1
10
-1.29503997793932
20
-3.72039904785879
30
0
41
1
10
-1.30170669742
20
-3.68878214845111
30
0
41
1
10
-1.30850489094857
20
-3.65726394513973
30
0
41
1
10
-1.31543506509502
20
-3.62586695867591
30
0
0
SPLINE
5
19C
100
AcDbEntity
8
SK1
62
256
6
ByLayer
370
13
48
1
60
0
100
AcDbSpline
70
4
71
3
72
19
73
15
40
0
40
0
40
0
40
0
40
0.008918359144532
40
0.0786994100098681
40
0.148480460875204
40
0.21826151174054
40
0.357823613471213
40
0.497385715201885
40
0.636947816932557
40
0.776509918663229
40
0.846290969528565
40
0.916072020393901
40
0.985853071259237
40
1
40
1
40
1
40
1
41
1
10
-1.2950399779393
20
3.72040136699616
30
0
41
1
10
-1.2950399779393
20
3.77241274608173
30
0
41
1
10
-1.2950399779393
20
4.22989838674084
30
0
41
1
10
-1.2950399779393
20
5.06796032972642
30
0
41
1
10
-1.2950399779393
20
6.18418942476777
30
0
41
1
10
-1.2950399779393
20
7.58444852154133
30
0
41
1
10
-1.2950399779393
20
9.16312244767204
30
0
41
1
10
-1.2950399779393
20
10.776330279443
30
0
41
1
10
-1.2950399779393
20
12.0913771799458
30
0
41
1
10
-1.2950399779393
20
12.9178753212492
30
0
41
1
10
-1.29503997793927
20
13.3979948418576
30
0
41
1
10
-1.29503997793927
20
13.6599034654088
30
0
41
1
10
-1.29503997793924
20
13.7733527191806
30
0
41
1
10
-1.29503997793927
20
13.8063646014579
30
0
41
1
10
-1.29503997793927
20
13.8110823669493
30
0
0
SPLINE
5
19D
100
AcDbEntity
8
SK1
62
256
6
ByLayer
370
13
48
1
60
0
100
AcDbSpline
70
4
71
3
72
8
73
4
40
0
40
0
40
0
40
0
40
1
40
1
40
1
40
1
41
1
10
-1.2950399779393
20
13.8110826935361
30
0
41
1
10
-1.2950399779393
20
13.8236786979772
30
0
41
1
10
-1.2950399779393
20
13.8302387664478
30
0
41
1
10
-1.2950399779393
20
13.8302936935361
30
0
0
SPLINE
5
19E
100
AcDbEntity
8
SK1
62
256
6
ByLayer
370
13
48
1
60
0
100
AcDbSpline
70
4
71
3
72
28
73
24
40
0
40
0
40
0
40
0
40
0.0624999999999957
40
0.0624999999999957
40
0.124999999999991
40
0.124999999999991
40
0.156249999999991
40
0.156249999999991
40
0.187499999999991
40
0.187499999999991
40
0.21874999999999
40
0.21874999999999
40
0.24999999999999
40
0.24999999999999
40
0.31249999999999
40
0.31249999999999
40
0.374999999999991
40
0.374999999999991
40
0.499999999999993
40
0.499999999999993
40
0.749999999999996
40
0.749999999999996
40
1
40
1
40
1
40
1
41
1
10
-0.194976888875317
20
4.73091779437243
30
0
41
1
10
-0.188350845705912
20
4.71844641149866
30
0
41
1
10
-0.181308268436339
20
4.70636093832354
30
0
41
1
10
-0.165866205724797
20
4.68347076939529
30
0
41
1
10
-0.157525370573268
20
4.67261038955084
30
0
41
1
10
-0.142848645667215
20
4.65838165403719
30
0
41
1
10
-0.137599920470649
20
4.6540177930689
30
0
41
1
10
-0.126165447459272
20
4.64690826032015
30
0
41
1
10
-0.119977699718987
20
4.64414539797926
30
0
41
1
10
-0.106496325219069
20
4.64201052202728
30
0
41
1
10
-0.0992037219267559
20
4.64289220420841
30
0
41
1
10
-0.0857681371183219
20
4.64919107473892
30
0
41
1
10
-0.079678237625842
20
4.65443343636514
30
0
41
1
10
-0.0640862050485396
20
4.67272837367133
30
0
41
1
10
-0.0569788741545096
20
4.68758735525699
30
0
41
1
10
-0.0452441619208344
20
4.71723533437239
30
0
41
1
10
-0.0407066717525026
20
4.7323467707883
30
0
41
1
10
-0.0289368824632561
20
4.77806566230632
30
0
41
1
10
-0.0236200741269954
20
4.80894339253953
30
0
41
1
10
-0.010864326724942
20
4.90029254217666
30
0
41
1
10
-0.0065757548343299
20
4.96054151539795
30
0
41
1
10
-0.0010271982272627
20
5.08034000512336
30
0
41
1
10
-2.84E-14
20
5.13991849012521
30
0
41
1
10
-2.84E-14
20
5.1990429253938
30
0
0
SPLINE
5
19F
100
AcDbEntity
8
SK1
62
256
6
ByLayer
370
13
48
1
60
0
100
AcDbSpline
70
4
71
3
72
19
73
15
40
0
40
0
40
0
40
0
40
0.0657479441965904
40
0.131638804186141
40
0.197529664175692
40
0.263420524165243
40
0.395202244144344
40
0.526983964123446
40
0.658765684102547
40
0.790547404081649
40
0.8564382640712
40
0.922329124060751
40
0.988219984050301
40
1
40
1
40
1
40
1
41
1
10
-1.49999999999997
20
-14.0207801247294
30
0
41
1
10
-1.49999999999997
20
-14.0323118145426
30
0
41
1
10
-1.49999999999997
20
-14.0089348831379
30
0
41
1
10
-1.49999999999997
20
-13.8526759849258
30
0
41
1
10
-1.5
20
-13.5878912371466
30
0
41
1
10
-1.49999999999997
20
-13.1031845097078
30
0
41
1
10
-1.5
20
-12.2683610406491
30
0
41
1
10
-1.5
20
-10.9411050943729
30
0
41
1
10
-1.50000000000003
20
-9.31264866297754
30
0
41
1
10
-1.5
20
-7.71718790760852
30
0
41
1
10
-1.50000000000003
20
-6.30227096604659
30
0
41
1
10
-1.50000000000003
20
-5.17209555078495
30
0
41
1
10
-1.5
20
-4.3016681780208
30
0
41
1
10
-1.5
20
-3.81517744639822
30
0
41
1
10
-1.5
20
-3.74103849234626
30
0
0
SPLINE
5
1A0
100
AcDbEntity
8
SK1
62
256
6
ByLayer
370
13
48
1
60
0
100
AcDbSpline
70
4
71
3
72
37
73
33
40
0
40
0
40
0
40
0
40
0.016315464124257
40
0.0447674549180168
40
0.0732194457117765
40
0.101671436505536
40
0.158575418093056
40
0.215479399680575
40
0.272383381268094
40
0.329287362855614
40
0.357739353649374
40
0.386191344443133
40
0.414643335236893
40
0.443095326030653
40
0.471547316824412
40
0.485773312221292
40
0.499999307618172
40
0.514225303015052
40
0.528451298411932
40
0.556903289205692
40
0.585355279999451
40
0.613807270793211
40
0.642259261586971
40
0.67071125238073
40
0.72761523396825
40
0.784519215555769
40
0.841423197143289
40
0.898327178730808
40
0.926779169524568
40
0.955231160318327
40
0.983683151112087
40
1
40
1
40
1
40
1
41
1
10
-22.5000000000001
20
-13.4958045385627
30
0
41
1
10
-22.5
20
-13.4915323207585
30
0
41
1
10
-22.5
20
-13.4606983523287
30
0
41
1
10
-22.5
20
-13.3308795934982
30
0
41
1
10
-22.5
20
-13.0738789920945
30
0
41
1
10
-22.5
20
-12.6015908597962
30
0
41
1
10
-22.5
20
-11.7892998835215
30
0
41
1
10
-22.5
20
-10.4950931885592
30
0
41
1
10
-22.5
20
-8.90791043028712
30
0
41
1
10
-22.5
20
-7.35788825135678
30
0
41
1
10
-22.5
20
-5.98264719956157
30
0
41
1
10
-22.5
20
-4.89022238185532
30
0
41
1
10
-22.5
20
-3.7375130500435
30
0
41
1
10
-22.5
20
-2.52988134516514
30
0
41
1
10
-22.5
20
-1.48826022368644
30
0
41
1
10
-22.5
20
-0.637225639727291
30
0
41
1
10
-22.5
20
1.013002873E-07
30
0
41
1
10
-22.5
20
0.637225663005154
30
0
41
1
10
-22.5
20
1.48826017841199
30
0
41
1
10
-22.5
20
2.52988151772922
30
0
41
1
10
-22.5
20
3.73751327283389
30
0
41
1
10
-22.5
20
4.89022224945148
30
0
41
1
10
-22.5
20
5.98264738368823
30
0
41
1
10
-22.5
20
7.35788839712222
30
0
41
1
10
-22.5
20
8.90791053296303
30
0
41
1
10
-22.5
20
10.4950928592069
30
0
41
1
10
-22.5
20
11.7893001827952
30
0
41
1
10
-22.5
20
12.6015902509941
30
0
41
1
10
-22.5
20
13.0738790940806
30
0
41
1
10
-22.5
20
13.3308793310681
30
0
41
1
10
-22.5
20
13.4607003530151
30
0
41
1
10
-22.5
20
13.49153399872
30
0
41
1
10
-22.5
20
13.4958054614186
30
0
0
SPLINE
5
1A1
100
AcDbEntity
8
SK1
62
256
6
ByLayer
370
13
48
1
60
0
100
AcDbSpline
70
4
71
3
72
28
73
24
40
0
40
0
40
0
40
0
40
0.125
40
0.125
40
0.25
40
0.25
40
0.375
40
0.375
40
0.40625
40
0.40625
40
0.4375
40
0.4375
40
0.5
40
0.5
40
0.625
40
0.625
40
0.6875
40
0.6875
40
0.75
40
0.75
40
0.875
40
0.875
40
1
40
1
40
1
40
1
41
1
10
-1.50000000000003
20
-3.741038492352
30
0
41
1
10
-1.55705665122133
20
-3.44902737793737
30
0
41
1
10
-1.61183227397029
20
-3.15316802788379
30
0
41
1
10
-1.71334364539356
20
-2.55239927064798
30
0
41
1
10
-1.76021803723421
20
-2.24754964501938
30
0
41
1
10
-1.84079971603688
20
-1.62657309953093
30
0
41
1
10
-1.8745215602913
20
-1.31045683466442
30
0
41
1
10
-1.90418891433231
20
-0.906244230956787
30
0
41
1
10
-1.90949218736287
20
-0.824944898973882
30
0
41
1
10
-1.91870170090184
20
-0.66136497463765
30
0
41
1
10
-1.92259318535338
20
-0.579178054842885
30
0
41
1
10
-1.93196301225211
20
-0.333578349339774
30
0
41
1
10
-1.93519459436703
20
-0.170339620394714
30
0
41
1
10
-1.93548821772265
20
0.317869702203183
30
0
41
1
10
-1.92308572509458
20
0.64132898953099
30
0
41
1
10
-1.88846455145887
20
1.12380915181174
30
0
41
1
10
-1.87431320042376
20
1.28418991116817
30
0
41
1
10
-1.84152563733517
20
1.60413216506723
30
0
41
1
10
-1.82284954358485
20
1.76387975456598
30
0
41
1
10
-1.76189713752149
20
2.23650557622497
30
0
41
1
10
-1.71458359922829
20
2.54473243081711
30
0
41
1
10
-1.6123307492237
20
3.15054348245258
30
0
41
1
10
-1.55724747857244
20
3.44805305826651
30
0
41
1
10
-1.5
20
3.74104084360704
30
0
0
SPLINE
5
1A2
100
AcDbEntity
8
SK1
62
256
6
ByLayer
370
13
48
1
60
0
100
AcDbSpline
70
4
71
3
72
36
73
32
40
0
40
0
40
0
40
0
40
0.250000000000007
40
0.250000000000007
40
0.37500000000001
40
0.37500000000001
40
0.437500000000012
40
0.437500000000012
40
0.468750000000012
40
0.468750000000012
40
0.500000000000013
40
0.500000000000013
40
0.515625000000013
40
0.515625000000013
40
0.531250000000013
40
0.531250000000013
40
0.546875000000013
40
0.546875000000013
40
0.562500000000013
40
0.562500000000013
40
0.593750000000013
40
0.593750000000013
40
0.625000000000013
40
0.625000000000013
40
0.68750000000001
40
0.68750000000001
40
0.750000000000007
40
0.750000000000007
40
0.875000000000003
40
0.875000000000003
40
1
40
1
40
1
40
1
41
1
10
-1.5
20
3.74104084360707
30
0
41
1
10
-1.49965682502594
20
3.66997660564792
30
0
41
1
10
-1.49809116297263
20
3.59862258306299
30
0
41
1
10
-1.49110958441472
20
3.49074976384836
30
0
41
1
10
-1.48806463950555
20
3.45465981264286
30
0
41
1
10
-1.48054425092306
20
3.40005252225208
30
0
41
1
10
-1.47757548195307
20
3.38191226747171
30
0
41
1
10
-1.47146220125043
20
3.35503233329669
30
0
41
1
10
-1.46915042188735
20
3.34612395963734
30
0
41
1
10
-1.46335637122488
20
3.32852809768716
30
0
41
1
10
-1.4599021226455
20
3.31976878151701
30
0
41
1
10
-1.4529240990438
20
3.30871960615104
30
0
41
1
10
-1.45020581571359
20
3.30532606961495
30
0
41
1
10
-1.44409287567359
20
3.30053689488128
30
0
41
1
10
-1.44068428130478
20
3.29923986190016
30
0
41
1
10
-1.43413523647561
20
3.29919679659972
30
0
41
1
10
-1.43104956173843
20
3.30032677120718
30
0
41
1
10
-1.42541547888951
20
3.30370041603317
30
0
41
1
10
-1.42284057103765
20
3.30593974544809
30
0
41
1
10
-1.41557128415096
20
3.31353159166395
30
0
41
1
10
-1.41146845881664
20
3.31954050757685
30
0
41
1
10
-1.40383962153064
20
3.33228650842332
30
0
41
1
10
-1.40034253825814
20
3.33907898772364
30
0
41
1
10
-1.39043979400577
20
3.36007307041757
30
0
41
1
10
-1.38467398441051
20
3.37472195070651
30
0
41
1
10
-1.37388821231434
20
3.40458338792641
30
0
41
1
10
-1.36889799294391
20
3.41981973710446
30
0
41
1
10
-1.3546590781871
20
3.4660635035228
30
0
41
1
10
-1.34613026372892
20
3.49759609439278
30
0
41
1
10
-1.33007380337838
20
3.56132286451009
30
0
41
1
10
-1.3225763416778
20
3.59351588570431
30
0
41
1
10
-1.31543506509203
20
3.62586927327683
30
0
0
SPLINE
5
1A3
100
AcDbEntity
8
SK1
62
256
6
ByLayer
370
13
48
1
60
0
100
AcDbSpline
70
4
71
3
72
18
73
14
40
0
40
0
40
0
40
0
40
0.0210945701144865
40
0.092930340907775
40
0.164766111701064
40
0.308437653287641
40
0.452109194874218
40
0.595780736460795
40
0.739452278047372
40
0.81128804884066
40
0.883123819633949
40
0.954959590427237
40
1
40
1
40
1
40
1
41
1
10
-0.194976888875317
20
4.73091779435953
30
0
41
1
10
-0.194976888875317
20
4.84547122059843
30
0
41
1
10
-0.194976888875317
20
5.34600773233774
30
0
41
1
10
-0.194976888875317
20
6.20093257911887
30
0
41
1
10
-0.194976888875317
20
7.6032700592842
30
0
41
1
10
-0.194976888875317
20
9.18432423990021
30
0
41
1
10
-0.194976888875317
20
10.7996941469075
30
0
41
1
10
-0.194976888875317
20
12.1164723003589
30
0
41
1
10
-0.194976888875317
20
12.9441507808103
30
0
41
1
10
-0.194976888875288
20
13.4249208368688
30
0
41
1
10
-0.194976888875288
20
13.6872372258342
30
0
41
1
10
-0.194976888875288
20
13.8227683771156
30
0
41
1
10
-0.194976888875288
20
13.8536747842007
30
0
41
1
10
-0.194976888875317
20
13.8569757097873
30
0
0
SPLINE
5
1A4
100
AcDbEntity
8
SK1
62
256
6
ByLayer
370
13
48
1
60
0
100
AcDbSpline
70
4
71
3
72
30
73
26
40
0
40
0
40
0
40
0
40
0.10618608069169
40
0.10618608069169
40
0.404124053794455
40
0.404124053794455
40
0.553093040345837
40
0.553093040345837
40
0.627577533621528
40
0.627577533621528
40
0.664819780259375
40
0.664819780259375
40
0.702062026897223
40
0.702062026897223
40
0.73930427353507
40
0.73930427353507
40
0.776546520172917
40
0.776546520172917
40
0.813788766810764
40
0.813788766810764
40
0.851031013448611
40
0.851031013448611
40
0.925515506724305
40
0.925515506724305
40
1
40
1
40
1
40
1
41
1
10
-0.0014704185117296
20
14.0256587795143
30
0
41
1
10
-0.0020490448295618
20
14.0216830059414
30
0
41
1
10
-0.0028176035117156
20
14.0175174421211
30
0
41
1
10
-0.0065907101869129
20
14.0008569200327
30
0
41
1
10
-0.0108837243337803
20
13.9870452296752
30
0
41
1
10
-0.0237634687058232
20
13.9614695252628
30
0
41
1
10
-0.02909160364689
20
13.9521591433915
30
0
41
1
10
-0.0409399229533847
20
13.9359054567893
30
0
41
1
10
-0.0455695709165127
20
13.9300599405605
30
0
41
1
10
-0.0544332016758062
20
13.9203636885906
30
0
41
1
10
-0.0577124690515234
20
13.9169723244119
30
0
41
1
10
-0.065401265160375
20
13.9096614777248
30
0
41
1
10
-0.0697787622017643
20
13.9057688273066
30
0
41
1
10
-0.0801979203903613
20
13.8974642447388
30
0
41
1
10
-0.0862618006026992
20
13.8930618461961
30
0
41
1
10
-0.0996979906043123
20
13.8845615523473
30
0
41
1
10
-0.106913252025436
20
13.8805993478293
30
0
41
1
10
-0.120325117002068
20
13.8741571067576
30
0
41
1
10
-0.126443610596993
20
13.871655698032
30
0
41
1
10
-0.137780665138962
20
13.8675188728153
30
0
41
1
10
-0.142918591831432
20
13.865914414731
30
0
41
1
10
-0.157443675710596
20
13.8618793304947
30
0
41
1
10
-0.16589607211742
20
13.8602372333928
30
0
41
1
10
-0.181339339602658
20
13.8579449434456
30
0
41
1
10
-0.188368716115832
20
13.8573107148221
30
0
41
1
10
-0.194976888875317
20
13.8569757097873
30
0
0
SPLINE
5
1A5
100
AcDbEntity
8
SK1
62
256
6
ByLayer
370
13
48
1
60
0
100
AcDbSpline
70
4
71
3
72
37
73
33
40
0
40
0
40
0
40
0
40
0.0157239512724734
40
0.0442099547510096
40
0.0726959582295458
40
0.101181961708082
40
0.158153968665154
40
0.215125975622227
40
0.272097982579299
40
0.329069989536372
40
0.357555993014908
40
0.386041996493444
40
0.41452799997198
40
0.443014003450516
40
0.471500006929053
40
0.485743008668321
40
0.499986010407589
40
0.514229012146857
40
0.528472013886125
40
0.556958017364661
40
0.585444020843198
40
0.613930024321734
40
0.64241602780027
40
0.670902031278806
40
0.727874038235879
40
0.784846045192951
40
0.841818052150023
40
0.898790059107096
40
0.927276062585632
40
0.955762066064168
40
0.984248069542704
40
1
40
1
40
1
40
1
41
1
10
-24
20
12.6297262502153
30
0
41
1
10
-24
20
12.6253456322375
30
0
41
1
10
-24
20
12.5960749818803
30
0
41
1
10
-24
20
12.4743689830171
30
0
41
1
10
-24
20
12.230146179188
30
0
41
1
10
-24
20
11.7782420302007
30
0
41
1
10
-24
20
11.0029381899705
30
0
41
1
10
-24
20
9.76298011868084
30
0
41
1
10
-24
20
8.24354697090365
30
0
41
1
10
-24
20
6.76811071589071
30
0
41
1
10
-24
20
5.4579963756465
30
0
41
1
10
-24
20
4.42753733029448
30
0
41
1
10
-24
20
3.35000222974921
30
0
41
1
10
-24
20
2.23771741989404
30
0
41
1
10
-24
20
1.30515932004792
30
0
41
1
10
-24
20
0.551100854738621
30
0
41
1
10
-24
20
2.454148103E-07
30
0
41
1
10
-24
20
-0.551100895559472
30
0
41
1
10
-24
20
-1.30515943417146
30
0
41
1
10
-24
20
-2.2377169746068
30
0
41
1
10
-24
20
-3.35000208235883
30
0
41
1
10
-24
20
-4.42753754516349
30
0
41
1
10
-24
20
-5.45799609225463
30
0
41
1
10
-24
20
-6.76811057436947
30
0
41
1
10
-24
20
-8.24354693727889
30
0
41
1
10
-24
20
-9.76298042100559
30
0
41
1
10
-24
20
-11.0029379389179
30
0
41
1
10
-24
20
-11.7782426252819
30
0
41
1
10
-24
20
-12.2301460729139
30
0
41
1
10
-24
20
-12.4743692733745
30
0
41
1
10
-24
20
-12.5961222637088
30
0
41
1
10
-24
20
-12.6253828960493
30
0
41
1
10
-24
20
-12.6297497498019
30
0
0
SPLINE
5
1A6
100
AcDbEntity
8
1
62
256
6
ByLayer
370
18
48
1
60
0
100
AcDbSpline
70
4
71
3
72
8
73
4
40
0
40
0
40
0
40
0
40
1
40
1
40
1
40
1
41
1
10
50.1600537689354
20
16.9795976997511
30
0
41
1
10
50.1959177742001
20
16.9841024128966
30
0
41
1
10
50.2320229637037
20
16.9862004612749
30
0
41
1
10
50.268374116112
20
16.9858441608112
30
0
0
SPLINE
5
1A7
100
AcDbEntity
8
1
62
256
6
ByLayer
370
18
48
1
60
0
100
AcDbSpline
70
4
71
3
72
8
73
4
40
0
40
0
40
0
40
0
40
1
40
1
40
1
40
1
41
1
10
49.3137066345796
20
26.051206299152
30
0
41
1
10
49.3120714856412
20
26.0465980204117
30
0
41
1
10
49.3104377597853
20
26.0420138681097
30
0
41
1
10
49.30880543968
20
26.0374535484025
30
0
0
SPLINE
5
1A8
100
AcDbEntity
8
1
62
256
6
ByLayer
370
18
48
1
60
0
100
AcDbSpline
70
4
71
3
72
22
73
18
40
0
40
0
40
0
40
0
40
0.125
40
0.125
40
0.25
40
0.25
40
0.375
40
0.375
40
0.5
40
0.5
40
0.625
40
0.625
40
0.75
40
0.75
40
0.875
40
0.875
40
1
40
1
40
1
40
1
41
1
10
53.4201738236573
20
25.0949124695813
30
0
41
1
10
53.4217257632145
20
25.1164191686839
30
0
41
1
10
53.4208971983901
20
25.1377628743895
30
0
41
1
10
53.4146512113698
20
25.1801344168484
30
0
41
1
10
53.4091153908618
20
25.2013834488824
30
0
41
1
10
53.393775897084
20
25.2417267714201
30
0
41
1
10
53.3839992944714
20
25.2609870664871
30
0
41
1
10
53.3601144806419
20
25.297628743724
30
0
41
1
10
53.3462425435917
20
25.3145860412248
30
0
41
1
10
53.3153352839578
20
25.3451183779418
30
0
41
1
10
53.2979719740938
20
25.3589559619659
30
0
41
1
10
53.2610844337462
20
25.3823593024146
30
0
41
1
10
53.2415928718379
20
25.391995811797
30
0
41
1
10
53.2004886755394
20
25.4070893101745
30
0
41
1
10
53.1790915168111
20
25.4124072128794
30
0
41
1
10
53.1361621455904
20
25.4183039239776
30
0
41
1
10
53.1142571328296
20
25.4189526222055
30
0
41
1
10
53.0924421089844
20
25.4171862214267
30
0
0
SPLINE
5
1A9
100
AcDbEntity
8
1
62
256
6
ByLayer
370
18
48
1
60
0
100
AcDbSpline
70
4
71
3
72
34
73
30
40
0
40
0
40
0
40
0
40
0.0625000000000059
40
0.0625000000000059
40
0.0937500000000089
40
0.0937500000000089
40
0.125000000000012
40
0.125000000000012
40
0.187500000000029
40
0.187500000000029
40
0.218750000000032
40
0.218750000000032
40
0.250000000000035
40
0.250000000000035
40
0.312500000000032
40
0.312500000000032
40
0.375000000000029
40
0.375000000000029
40
0.437500000000026
40
0.437500000000026
40
0.500000000000024
40
0.500000000000024
40
0.625000000000015
40
0.625000000000015
40
0.687500000000011
40
0.687500000000011
40
0.750000000000007
40
0.750000000000007
40
1
40
1
40
1
40
1
41
1
10
53.7518240835539
20
18.987810573281
30
0
41
1
10
53.7884575813924
20
18.9776965656547
30
0
41
1
10
53.8254145673444
20
18.9702703901404
30
0
41
1
10
53.8813353050604
20
18.9631732824067
30
0
41
1
10
53.9000568066897
20
18.9614842891596
30
0
41
1
10
53.9376672019916
20
18.9595003196023
30
0
41
1
10
53.9565108716862
20
18.9592183574084
30
0
41
1
10
54.0118951607084
20
18.9604521387027
30
0
41
1
10
54.0477665664584
20
18.9640019765869
30
0
41
1
10
54.1001225855705
20
18.973137554218
30
0
41
1
10
54.1174012620556
20
18.9768429695681
30
0
41
1
10
54.1509035599132
20
18.9853559935267
30
0
41
1
10
54.1671823888501
20
18.9901673541521
30
0
41
1
10
54.2147191481501
20
19.0061436672016
30
0
41
1
10
54.2447857378165
20
19.0188959327041
30
0
41
1
10
54.3014328034404
20
19.0478750335178
30
0
41
1
10
54.3276101060667
20
19.0638704396734
30
0
41
1
10
54.376443775538
20
19.0984087140969
30
0
41
1
10
54.3990939978557
20
19.1169555949504
30
0
41
1
10
54.4413330950756
20
19.1563370242496
30
0
41
1
10
54.4609878321974
20
19.1772743273079
30
0
41
1
10
54.514839838051
20
19.2420222628185
30
0
41
1
10
54.5443666707625
20
19.2880051694223
30
0
41
1
10
54.5814039124825
20
19.3604699611036
30
0
41
1
10
54.5925215414324
20
19.3852134885564
30
0
41
1
10
54.6125189381626
20
19.4358144520546
30
0
41
1
10
54.6214133868844
20
19.4617378039247
30
0
41
1
10
54.6603122648762
20
19.5927091116409
30
0
41
1
10
54.6744555740763
20
19.702418903928
30
0
41
1
10
54.6755962983737
20
19.8164999375667
30
0
0
SPLINE
5
1AA
100
AcDbEntity
8
1
62
256
6
ByLayer
370
13
48
1
60
0
100
AcDbSpline
70
4
71
3
72
8
73
4
40
0
40
0
40
0
40
0
40
1
40
1
40
1
40
1
41
1
10
49.7186505552066
20
21.154109010751
30
0
41
1
10
49.7019496917528
20
21.1526933080994
30
0
41
1
10
49.68525415055
20
21.1514882962008
30
0
41
1
10
49.668566869237
20
21.150466004227
30
0
0
SPLINE
5
1AB
100
AcDbEntity
8
1
62
256
6
ByLayer
370
18
48
1
60
0
100
AcDbSpline
70
4
71
3
72
8
73
4
40
0
40
0
40
0
40
0
40
1
40
1
40
1
40
1
41
1
10
43.4372215801405
20
18.0865048899357
30
0
41
1
10
43.4398622862523
20
18.1299990923699
30
0
41
1
10
43.4438297400572
20
18.1735639843663
30
0
41
1
10
43.4490085042856
20
18.2172013856996
30
0
0
SPLINE
5
1AC
100
AcDbEntity
8
1
62
256
6
ByLayer
370
13
48
1
60
0
100
AcDbSpline
70
4
71
3
72
8
73
4
40
0
40
0
40
0
40
0
40
1
40
1
40
1
40
1
41
1
10
49.7444193698718
20
21.6547909370495
30
0
41
1
10
49.7607277152655
20
21.655454160286
30
0
41
1
10
49.7771286817047
20
21.6560944556319
30
0
41
1
10
49.7936218814211
20
21.6567446821618
30
0
0
SPLINE
5
1AD
100
AcDbEntity
8
1
62
256
6
ByLayer
370
13
48
1
60
0
100
AcDbSpline
70
4
71
3
72
8
73
4
40
0
40
0
40
0
40
0
40
1
40
1
40
1
40
1
41
1
10
54.0441152500344
20
23.0331473105196
30
0
41
1
10
54.2754122322873
20
23.0116935784674
30
0
41
1
10
54.5067092145402
20
22.9902398464153
30
0
41
1
10
54.7380061967931
20
22.9687861143631
30
0
0
SPLINE
5
1AE
100
AcDbEntity
8
1
62
256
6
ByLayer
370
18
48
1
60
0
100
AcDbSpline
70
4
71
3
72
8
73
4
40
0
40
0
40
0
40
0
40
1
40
1
40
1
40
1
41
1
10
50.7469480538041
20
26.7213761634559
30
0
41
1
10
50.7813492971997
20
26.7235215871473
30
0
41
1
10
50.8164337198246
20
26.7259523529637
30
0
41
1
10
50.8522148577431
20
26.7286741144866
30
0
0
SPLINE
5
1AF
100
AcDbEntity
8
1
62
256
6
ByLayer
370
18
48
1
60
0
100
AcDbSpline
70
4
71
3
72
8
73
4
40
0
40
0
40
0
40
0
40
1
40
1
40
1
40
1
41
1
10
48.5927585639623
20
15.8510293175571
30
0
41
1
10
48.5569176512454
20
15.8461239660079
30
0
41
1
10
48.5209313005756
20
15.8419641529025
30
0
41
1
10
48.484796630341
20
15.83856464985
30
0
0
SPLINE
5
1B0
100
AcDbEntity
8
1
62
256
6
ByLayer
370
13
48
1
60
0
100
AcDbSpline
70
4
71
1
72
4
73
2
40
0
40
0
40
1
40
1
41
1
10
54.3125416305315
20
26.3125872674314
30
0
41
1
10
54.3674095373279
20
26.9824975157409
30
0
0
SPLINE
5
1B1
100
AcDbEntity
8
1
62
256
6
ByLayer
370
18
48
1
60
0
100
AcDbSpline
70
4
71
3
72
8
73
4
40
0
40
0
40
0
40
0
40
1
40
1
40
1
40
1
41
1
10
49.4174837682707
20
26.0487431619193
30
0
41
1
10
49.3831785041732
20
26.0472266441233
30
0
41
1
10
49.3485880100628
20
26.048032352844
30
0
41
1
10
49.3137066345796
20
26.051206299152
30
0
0
SPLINE
5
1B2
100
AcDbEntity
8
1
62
256
6
ByLayer
370
18
48
1
60
0
100
AcDbSpline
70
4
71
3
72
28
73
24
40
0
40
0
40
0
40
0
40
0.0624999999999999
40
0.0624999999999999
40
0.125
40
0.125
40
0.1875
40
0.1875
40
0.249999999999999
40
0.249999999999999
40
0.312499999999999
40
0.312499999999999
40
0.374999999999999
40
0.374999999999999
40
0.437499999999999
40
0.437499999999999
40
0.499999999999999
40
0.499999999999999
40
0.624999999999999
40
0.624999999999999
40
0.749999999999999
40
0.749999999999999
40
1
40
1
40
1
40
1
41
1
10
46.0166611636277
20
24.4065878936767
30
0
41
1
10
45.9815776245174
20
24.4190212681662
30
0
41
1
10
45.9455249811387
20
24.4279069680336
30
0
41
1
10
45.8714130534836
20
24.4383538308667
30
0
41
1
10
45.8329049664329
20
24.4398275099893
30
0
41
1
10
45.7574158060901
20
24.4351416449625
30
0
41
1
10
45.720126200663
20
24.4291114109426
30
0
41
1
10
45.6464038472899
20
24.410110269388
30
0
41
1
10
45.6105934736063
20
24.3972616031149
30
0
41
1
10
45.5420632097136
20
24.3662299089893
30
0
41
1
10
45.5088893234779
20
24.3478221318158
30
0
41
1
10
45.4461338275699
20
24.3068979795639
30
0
41
1
10
45.4166245388802
20
24.2844920438557
30
0
41
1
10
45.3607202090359
20
24.236411717853
30
0
41
1
10
45.3343300300648
20
24.2107323713897
30
0
41
1
10
45.2842955508629
20
24.1564647998812
30
0
41
1
10
45.2607178422137
20
24.1279113903034
30
0
41
1
10
45.1950102741511
20
24.0401851651814
30
0
41
1
10
45.1572643714537
20
23.9783669279212
30
0
41
1
10
45.0911750843773
20
23.8494053242215
30
0
41
1
10
45.0627539819877
20
23.7818105728844
30
0
41
1
10
44.9912662169573
20
23.5767197201108
30
0
41
1
10
44.9609137581275
20
23.4360581971256
30
0
41
1
10
44.9438357377503
20
23.2921550580127
30
0
0
SPLINE
5
1B3
100
AcDbEntity
8
1
62
256
6
ByLayer
370
18
48
1
60
0
100
AcDbSpline
70
4
71
3
72
24
73
20
40
0
40
0
40
0
40
0
40
0.125
40
0.125
40
0.1875
40
0.1875
40
0.25
40
0.25
40
0.375
40
0.375
40
0.5
40
0.5
40
0.625
40
0.625
40
0.75
40
0.75
40
0.875
40
0.875
40
1
40
1
40
1
40
1
41
1
10
48.4272315321089
20
16.5767914598875
30
0
41
1
10
48.4068004063722
20
16.6248824259229
30
0
41
1
10
48.3825764308449
20
16.6714314677377
30
0
41
1
10
48.3404523711949
20
16.7388743806981
30
0
41
1
10
48.3253668438434
20
16.7610536085711
30
0
41
1
10
48.2936007293493
20
16.8040276861983
30
0
41
1
10
48.2769447181891
20
16.8248095467396
30
0
41
1
10
48.2247105451971
20
16.8850825767517
30
0
41
1
10
48.1868806753636
20
16.9225144152328
30
0
41
1
10
48.1051285658488
20
16.9917789922588
30
0
41
1
10
48.0609248223761
20
17.0237036819823
30
0
41
1
10
47.9693816439528
20
17.0795708343375
30
0
41
1
10
47.9217260928034
20
17.1038367982118
30
0
41
1
10
47.8226217045115
20
17.1449815746854
30
0
41
1
10
47.7707360899055
20
17.1619180417536
30
0
41
1
10
47.6664660665193
20
17.1870916028926
30
0
41
1
10
47.6138109642276
20
17.1955118668955
30
0
41
1
10
47.5074642036213
20
17.2040649644678
30
0
41
1
10
47.4534772505888
20
17.2041582646638
30
0
41
1
10
47.3998903979612
20
17.1999193165425
30
0
0
SPLINE
5
1B4
100
AcDbEntity
8
1
62
256
6
ByLayer
370
18
48
1
60
0
100
AcDbSpline
70
4
71
3
72
24
73
20
40
0
40
0
40
0
40
0
40
0.124999999999994
40
0.124999999999994
40
0.187499999999995
40
0.187499999999995
40
0.249999999999996
40
0.249999999999996
40
0.374999999999997
40
0.374999999999997
40
0.499999999999997
40
0.499999999999997
40
0.624999999999998
40
0.624999999999998
40
0.749999999999999
40
0.749999999999999
40
0.874999999999999
40
0.874999999999999
40
1
40
1
40
1
40
1
41
1
10
50.2889426634442
20
16.8894797895023
30
0
41
1
10
50.3071373144533
20
16.8801899843276
30
0
41
1
10
50.3292329639455
20
16.8705658045905
30
0
41
1
10
50.3683243327856
20
16.8557378049616
30
0
41
1
10
50.3824214543443
20
16.8507066770391
30
0
41
1
10
50.4122895807515
20
16.8406612706662
30
0
41
1
10
50.4280364758969
20
16.8356518918334
30
0
41
1
10
50.4776586128979
20
16.8206957292162
30
0
41
1
10
50.5139001473351
20
16.8108203198121
30
0
41
1
10
50.5927770846825
20
16.7914378256894
30
0
41
1
10
50.6356910530942
20
16.7818897669202
30
0
41
1
10
50.7250453839213
20
16.7639974803808
30
0
41
1
10
50.7717881171854
20
16.7555682228967
30
0
41
1
10
50.8694257108881
20
16.7398712335596
30
0
41
1
10
50.9207565818378
20
16.7325591532899
30
0
41
1
10
51.0243177274576
20
16.719684090278
30
0
41
1
10
51.0768114369215
20
16.7140638709151
30
0
41
1
10
51.1832180775805
20
16.7044718992938
30
0
41
1
10
51.2374293551761
20
16.7004867360017
30
0
41
1
10
51.2914375206685
20
16.697416221582
30
0
0
SPLINE
5
1B5
100
AcDbEntity
8
1
62
256
6
ByLayer
370
18
48
1
60
0
100
AcDbSpline
70
4
71
3
72
12
73
8
40
0
40
0
40
0
40
0
40
0.499999999999984
40
0.499999999999984
40
0.749999999999992
40
0.749999999999992
40
1
40
1
40
1
40
1
41
1
10
49.7645897981474
20
16.7947503780922
30
0
41
1
10
49.8257598513165
20
16.844687711879
30
0
41
1
10
49.8900214846375
20
16.8841673567889
30
0
41
1
10
49.9902679468042
20
16.9303501055881
30
0
41
1
10
50.0243481275799
20
16.9434903002978
30
0
41
1
10
50.0921551063836
20
16.964950148273
30
0
41
1
10
50.1260896515823
20
16.9733725608358
30
0
41
1
10
50.1600537689354
20
16.9795976997511
30
0
0
SPLINE
5
1B6
100
AcDbEntity
8
1
62
256
6
ByLayer
370
13
48
1
60
0
100
AcDbSpline
70
4
71
1
72
4
73
2
40
0
40
0
40
1
40
1
41
1
10
54.3125416305315
20
26.3125872674314
30
0
41
1
10
54.982445536841
20
26.3676633941495
30
0
0
SPLINE
5
1B7
100
AcDbEntity
8
1
62
256
6
ByLayer
370
18
48
1
60
0
100
AcDbSpline
70
4
71
3
72
12
73
8
40
0
40
0
40
0
40
0
40
0.499999999999995
40
0.499999999999995
40
0.749999999999998
40
0.749999999999998
40
1
40
1
40
1
40
1
41
1
10
50.3930658098448
20
26.483593470042
30
0
41
1
10
50.4438538780977
20
26.5136279490785
30
0
41
1
10
50.4996111779833
20
26.5492828366945
30
0
41
1
10
50.5894418497096
20
26.6097716573855
30
0
41
1
10
50.6204548412563
20
26.6311447742782
30
0
41
1
10
50.6830261193119
20
26.6751497198541
30
0
41
1
10
50.7147692626718
20
26.6979046748742
30
0
41
1
10
50.7469480538041
20
26.7213761634558
30
0
0
SPLINE
5
1B8
100
AcDbEntity
8
1
62
256
6
ByLayer
370
18
48
1
60
0
100
AcDbSpline
70
4
71
3
72
8
73
4
40
0
40
0
40
0
40
0
40
1
40
1
40
1
40
1
41
1
10
50.2339681664169
20
16.9517349423511
30
0
41
1
10
50.2306089991755
20
16.9479873381689
30
0
41
1
10
50.2287801918123
20
16.9441807772491
30
0
41
1
10
50.228465416934
20
16.9402871211266
30
0
0
SPLINE
5
1B9
100
AcDbEntity
8
1
62
256
6
ByLayer
370
18
48
1
60
0
100
AcDbSpline
70
4
71
3
72
12
73
8
40
0
40
0
40
0
40
0
40
0.267597175316304
40
0.267597175316304
40
0.633798587658152
40
0.633798587658152
40
1
40
1
40
1
40
1
41
1
10
50.2291849862848
20
16.9341871947824
30
0
41
1
10
50.2302699288093
20
16.9307040504156
30
0
41
1
10
50.2325016729361
20
16.9271435091488
30
0
41
1
10
50.2404779843352
20
16.9184828218266
30
0
41
1
10
50.2472785456156
20
16.9132450038427
30
0
41
1
10
50.2650217722191
20
16.9020631031766
30
0
41
1
10
50.2759571049602
20
16.8961099418662
30
0
41
1
10
50.2889426634442
20
16.8894797895023
30
0
0
SPLINE
5
1BA
100
AcDbEntity
8
1
62
256
6
ByLayer
370
18
48
1
60
0
100
AcDbSpline
70
4
71
3
72
12
73
8
40
0
40
0
40
0
40
0
40
0.500000000000007
40
0.500000000000007
40
0.750000000000004
40
0.750000000000004
40
1
40
1
40
1
40
1
41
1
10
48.5031923560516
20
16.1504392589026
30
0
41
1
10
48.5075659260706
20
16.2227224073923
30
0
41
1
10
48.5032562029581
20
16.294499371962
30
0
41
1
10
48.484121948247
20
16.4016082030287
30
0
41
1
10
48.4755621368108
20
16.4373676931098
30
0
41
1
10
48.4544062607038
20
16.5077565057594
30
0
41
1
10
48.4418132670382
20
16.5424688421198
30
0
41
1
10
48.4272315321089
20
16.5767914598875
30
0
0
SPLINE
5
1BB
100
AcDbEntity
8
1
62
256
6
ByLayer
370
13
48
1
60
0
100
AcDbSpline
70
4
71
3
72
22
73
18
40
0
40
0
40
0
40
0
40
0.249999999999995
40
0.249999999999995
40
0.49999999999999
40
0.49999999999999
40
0.562499999999984
40
0.562499999999984
40
0.624999999999979
40
0.624999999999979
40
0.687499999999973
40
0.687499999999973
40
0.749999999999967
40
0.749999999999967
40
0.874999999999984
40
0.874999999999984
40
1
40
1
40
1
40
1
41
1
10
50.1291595556896
20
20.7222736525681
30
0
41
1
10
50.1243661705086
20
20.7765866740519
30
0
41
1
10
50.1155780559658
20
20.8301682950324
30
0
41
1
10
50.0842759224358
20
20.9346288334365
30
0
41
1
10
50.061360297378
20
20.9862529849615
30
0
41
1
10
50.0185054968333
20
21.0420030043532
30
0
41
1
10
50.0091368587264
20
21.0527911326541
30
0
41
1
10
49.9891603231296
20
21.0729051785499
30
0
41
1
10
49.9785199567411
20
21.082286930456
30
0
41
1
10
49.9558329188449
20
21.0995911213386
30
0
41
1
10
49.9436812427481
20
21.1075680576622
30
0
41
1
10
49.9184023362794
20
21.1216336116299
30
0
41
1
10
49.9053336515942
20
21.1277128574523
30
0
41
1
10
49.8649054871557
20
21.1432332938968
30
0
41
1
10
49.8359931481205
20
21.1499575905575
30
0
41
1
10
49.7777049368488
20
21.1565788888234
30
0
41
1
10
49.7480520973604
20
21.156601327469
30
0
41
1
10
49.7186505552066
20
21.1541090107511
30
0
0
SPLINE
5
1BC
100
AcDbEntity
8
1
62
256
6
ByLayer
370
18
48
1
60
0
100
AcDbSpline
70
4
71
3
72
8
73
4
40
0
40
0
40
0
40
0
40
1
40
1
40
1
40
1
41
1
10
50.8522148577431
20
26.7286741144866
30
0
41
1
10
50.843071431795
20
26.6191002565011
30
0
41
1
10
50.8341040666205
20
26.5097009408677
30
0
41
1
10
50.8252953223286
20
26.4004588781046
30
0
0
SPLINE
5
1BD
100
AcDbEntity
8
1
62
256
6
ByLayer
370
13
48
1
60
0
100
AcDbSpline
70
4
71
3
72
22
73
18
40
0
40
0
40
0
40
0
40
0.124999999999989
40
0.124999999999989
40
0.249999999999977
40
0.249999999999977
40
0.312499999999972
40
0.312499999999972
40
0.374999999999966
40
0.374999999999966
40
0.499999999999973
40
0.499999999999973
40
0.624999999999979
40
0.624999999999979
40
0.749999999999986
40
0.749999999999986
40
1
40
1
40
1
40
1
41
1
10
49.668566869237
20
21.150466004227
30
0
41
1
10
49.6176898332067
20
21.1590874060217
30
0
41
1
10
49.5673452319689
20
21.1711452830712
30
0
41
1
10
49.4700146180813
20
21.2020195790814
30
0
41
1
10
49.4228660913579
20
21.2208335331742
30
0
41
1
10
49.3545223659238
20
21.2543319687135
30
0
41
1
10
49.3321383791288
20
21.2663792494777
30
0
41
1
10
49.2881920548179
20
21.2922919062785
30
0
41
1
10
49.2665294950894
20
21.3062303963837
30
0
41
1
10
49.203656490458
20
21.3502807377589
30
0
41
1
10
49.1646516151954
20
21.3824938826593
30
0
41
1
10
49.0920567998371
20
21.4521830906951
30
0
41
1
10
49.0584685290646
20
21.4896608094095
30
0
41
1
10
48.9964724266538
20
21.5696147179046
30
0
41
1
10
48.9679731093638
20
21.6123369016675
30
0
41
1
10
48.8921075666297
20
21.7437782930382
30
0
41
1
10
48.8533153477472
20
21.8367230617617
30
0
41
1
10
48.8239243413481
20
21.9337891715388
30
0
0
SPLINE
5
1BE
100
AcDbEntity
8
1
62
256
6
ByLayer
370
18
48
1
60
0
100
AcDbSpline
70
4
71
3
72
24
73
20
40
0
40
0
40
0
40
0
40
0.125000000000011
40
0.125000000000011
40
0.187500000000012
40
0.187500000000012
40
0.250000000000014
40
0.250000000000014
40
0.375000000000012
40
0.375000000000012
40
0.50000000000001
40
0.50000000000001
40
0.625000000000007
40
0.625000000000007
40
0.750000000000005
40
0.750000000000005
40
0.875000000000002
40
0.875000000000002
40
1
40
1
40
1
40
1
41
1
10
50.8916255406707
20
25.9556442591934
30
0
41
1
10
50.9113124676232
20
25.9061266218205
30
0
41
1
10
50.9348917351747
20
25.8583416381984
30
0
41
1
10
50.9761734498357
20
25.7892839020516
30
0
41
1
10
50.9909979964334
20
25.7666043592505
30
0
41
1
10
51.0222862680669
20
25.7227142297195
30
0
41
1
10
51.0387253709559
20
25.7015165437024
30
0
41
1
10
51.0903656913
20
25.6401050644354
30
0
41
1
10
51.1278751596211
20
25.6020589980571
30
0
41
1
10
51.2090986397542
20
25.531781008482
30
0
41
1
10
51.2530941387388
20
25.499457102247
30
0
41
1
10
51.3443129665337
20
25.442968151315
30
0
41
1
10
51.3918497532634
20
25.4184745093026
30
0
41
1
10
51.4907749928078
20
25.3769862945052
30
0
41
1
10
51.5426002105122
20
25.3599340431461
30
0
41
1
10
51.6467948560522
20
25.3346159783946
30
0
41
1
10
51.699434079487
20
25.3261652737211
30
0
41
1
10
51.8057869258023
20
25.3176238427987
30
0
41
1
10
51.8597961329074
20
25.3175732049238
30
0
41
1
10
51.9134285573988
20
25.3218995168964
30
0
0
SPLINE
5
1BF
100
AcDbEntity
8
1
62
256
6
ByLayer
370
13
48
1
60
0
100
AcDbSpline
70
4
71
3
72
22
73
18
40
0
40
0
40
0
40
0
40
0.124999999999996
40
0.124999999999996
40
0.249999999999992
40
0.249999999999992
40
0.312499999999983
40
0.312499999999983
40
0.374999999999975
40
0.374999999999975
40
0.499999999999977
40
0.499999999999977
40
0.624999999999979
40
0.624999999999979
40
0.749999999999981
40
0.749999999999981
40
1
40
1
40
1
40
1
41
1
10
49.7936218814211
20
21.6567446821618
30
0
41
1
10
49.844793603646
20
21.6486882105394
30
0
41
1
10
49.8956962041176
20
21.6377000497139
30
0
41
1
10
49.994685909963
20
21.6100063272181
30
0
41
1
10
50.0429341517233
20
21.593300589312
30
0
41
1
10
50.1133632173533
20
21.5637998693693
30
0
41
1
10
50.1365151446414
20
21.553224774147
30
0
41
1
10
50.182150742225
20
21.5305505501556
30
0
41
1
10
50.2047396228701
20
21.5183878698597
30
0
41
1
10
50.2705955270082
20
21.4800559162588
30
0
41
1
10
50.3118509103693
20
21.4521571232054
30
0
41
1
10
50.389463673741
20
21.3920876065159
30
0
41
1
10
50.4258195136233
20
21.3599154749749
30
0
41
1
10
50.4938785756769
20
21.2915846044728
30
0
41
1
10
50.5256938677053
20
21.2552193326211
30
0
41
1
10
50.6120123054324
20
21.1438167346453
30
0
41
1
10
50.6585148562087
20
21.0656531100863
30
0
41
1
10
50.6963276308382
20
20.9847320083384
30
0
0
SPLINE
5
1C0
100
AcDbEntity
8
1
62
256
6
ByLayer
370
13
48
1
60
0
100
AcDbSpline
70
4
71
3
72
8
73
4
40
0
40
0
40
0
40
0
40
1
40
1
40
1
40
1
41
1
10
54.0507918240351
20
23.1167504275851
30
0
41
1
10
54.0485035931288
20
23.088812249803
30
0
41
1
10
54.0462774042096
20
23.0609362264405
30
0
41
1
10
54.0441152500344
20
23.0331473105196
30
0
0
SPLINE
5
1C1
100
AcDbEntity
8
1
62
256
6
ByLayer
370
13
48
1
60
0
100
AcDbSpline
70
4
71
1
72
4
73
2
40
0
40
0
40
1
40
1
41
1
10
50.9683674922208
20
26.7368150697608
30
0
41
1
10
51.0329463185007
20
26.0429554511538
30
0
0
SPLINE
5
1C2
100
AcDbEntity
8
1
62
256
6
ByLayer
370
18
48
1
60
0
100
AcDbSpline
70
4
71
3
72
24
73
20
40
0
40
0
40
0
40
0
40
0.249999999999987
40
0.249999999999987
40
0.374999999999981
40
0.374999999999981
40
0.499999999999974
40
0.499999999999974
40
0.562499999999971
40
0.562499999999971
40
0.624999999999968
40
0.624999999999968
40
0.749999999999983
40
0.749999999999983
40
0.812499999999987
40
0.812499999999987
40
0.874999999999991
40
0.874999999999991
40
1
40
1
40
1
40
1
41
1
10
51.5013638217886
20
19.6356766423197
30
0
41
1
10
51.4397627857597
20
19.6541885173947
30
0
41
1
10
51.3768947276324
20
19.6670691946502
30
0
41
1
10
51.2801875330764
20
19.6715196883826
30
0
41
1
10
51.2481767276604
20
19.6704296181642
30
0
41
1
10
51.1847283368924
20
19.6616907863605
30
0
41
1
10
51.1528863890592
20
19.6538460137131
30
0
41
1
10
51.1079314937096
20
19.6364266043621
30
0
41
1
10
51.0933681954595
20
19.6296930527429
30
0
41
1
10
51.0651292148426
20
19.6142744265655
30
0
41
1
10
51.0513563335171
20
19.6055134818573
30
0
41
1
10
51.0122385137318
20
19.5767201385918
30
0
41
1
10
50.9892086013754
20
19.5543844643898
30
0
41
1
10
50.9587272774479
20
19.5166954770389
30
0
41
1
10
50.9492763533889
20
19.5034447412045
30
0
41
1
10
50.9320865220051
20
19.4763669369086
30
0
41
1
10
50.9242735341494
20
19.4624524382988
30
0
41
1
10
50.9028810544287
20
19.4197259206916
30
0
41
1
10
50.8913323708084
20
19.3899384096398
30
0
41
1
10
50.8819756322025
20
19.359098005017
30
0
0
SPLINE
5
1C3
100
AcDbEntity
8
1
62
256
6
ByLayer
370
18
48
1
60
0
100
AcDbSpline
70
4
71
3
72
22
73
18
40
0
40
0
40
0
40
0
40
0.125
40
0.125
40
0.25
40
0.25
40
0.375
40
0.375
40
0.5
40
0.5
40
0.625
40
0.625
40
0.75
40
0.75
40
0.875
40
0.875
40
1
40
1
40
1
40
1
41
1
10
45.8927944567484
20
17.4262341000529
30
0
41
1
10
45.8913104797968
20
17.4048576891253
30
0
41
1
10
45.8922200185058
20
17.3836692149556
30
0
41
1
10
45.8986510577886
20
17.3416524281941
30
0
41
1
10
45.9042923454597
20
17.3206055827021
30
0
41
1
10
45.9198520319964
20
17.2806843821897
30
0
41
1
10
45.9297438560465
20
17.2616449731624
30
0
41
1
10
45.9538614436862
20
17.2254495365409
30
0
41
1
10
45.9678482508828
20
17.2087124516347
30
0
41
1
10
45.9989684324571
20
17.1785882983708
30
0
41
1
10
46.016431632478
20
17.1649422094507
30
0
41
1
10
46.0534873419095
20
17.1418612586876
30
0
41
1
10
46.07304763902
20
17.1323565185916
30
0
41
1
10
46.1142520525362
20
17.1174551423127
30
0
41
1
10
46.1356796159239
20
17.1121955270666
30
0
41
1
10
46.1786263769433
20
17.1063321532003
30
0
41
1
10
46.2005186878865
20
17.1056591048666
30
0
41
1
10
46.2222996121617
20
17.107360134833
30
0
0
SPLINE
5
1C4
100
AcDbEntity
8
1
62
256
6
ByLayer
370
18
48
1
60
0
100
AcDbSpline
70
4
71
3
72
12
73
8
40
0
40
0
40
0
40
0
40
0.499999999999986
40
0.499999999999986
40
0.749999999999993
40
0.749999999999993
40
1
40
1
40
1
40
1
41
1
10
49.7427496668996
20
26.0990167922068
30
0
41
1
10
49.6919615986468
20
26.0689823131703
30
0
41
1
10
49.6388962721216
20
26.0509666243051
30
0
41
1
10
49.5564594165437
20
26.0389259028696
30
0
41
1
10
49.5284909772754
20
26.0375022637584
30
0
41
1
10
49.4729486107621
20
26.0395543741375
30
0
41
1
10
49.4452036870152
20
26.04299781745
30
0
41
1
10
49.4174837682707
20
26.0487431619191
30
0
0
SPLINE
5
1C5
100
AcDbEntity
8
1
62
256
6
ByLayer
370
18
48
1
60
0
100
AcDbSpline
70
4
71
3
72
8
73
4
40
0
40
0
40
0
40
0
40
1
40
1
40
1
40
1
41
1
10
48.484796630341
20
15.83856464985
30
0
41
1
10
48.4907324735664
20
15.9419893895749
30
0
41
1
10
48.4968710770145
20
16.0459658083134
30
0
41
1
10
48.5031923560516
20
16.1504392589026
30
0
0
SPLINE
5
1C6
100
AcDbEntity
8
1
62
256
6
ByLayer
370
13
48
1
60
0
100
AcDbSpline
70
4
71
1
72
4
73
2
40
0
40
0
40
1
40
1
41
1
10
54.0507918240351
20
23.1167504275851
30
0
41
1
10
54.3125416305315
20
26.3125872674314
30
0
0
SPLINE
5
1C7
100
AcDbEntity
8
1
62
256
6
ByLayer
370
18
48
1
60
0
100
AcDbSpline
70
4
71
3
72
12
73
8
40
0
40
0
40
0
40
0
40
0.500000000000011
40
0.500000000000011
40
0.750000000000006
40
0.750000000000006
40
1
40
1
40
1
40
1
41
1
10
50.8252953223286
20
26.4004588781046
30
0
41
1
10
50.8192007234802
20
26.3248764195996
30
0
41
1
10
50.8217479959527
20
26.249720737051
30
0
41
1
10
50.838310390965
20
26.1376815048676
30
0
41
1
10
50.8460284845907
20
26.1003083939368
30
0
41
1
10
50.8656634458357
20
26.0270039011134
30
0
41
1
10
50.8775749418885
20
25.9909850951221
30
0
41
1
10
50.8916255406707
20
25.9556442591934
30
0
0
SPLINE
5
1C8
100
AcDbEntity
8
1
62
256
6
ByLayer
370
13
48
1
60
0
100
AcDbSpline
70
4
71
1
72
4
73
2
40
0
40
0
40
1
40
1
41
1
10
51.0329463185007
20
26.0429554511538
30
0
41
1
10
54.3125416305315
20
26.3125872674314
30
0
0
SPLINE
5
1C9
100
AcDbEntity
8
1
62
256
6
ByLayer
370
18
48
1
60
0
100
AcDbSpline
70
4
71
3
72
12
73
8
40
0
40
0
40
0
40
0
40
0.499999999999984
40
0.499999999999984
40
0.749999999999992
40
0.749999999999992
40
1
40
1
40
1
40
1
41
1
10
48.9813374633152
20
16.1553274700275
30
0
41
1
10
48.9201674101461
20
16.1053901362407
30
0
41
1
10
48.8565534636165
20
16.0546736107743
30
0
41
1
10
48.7580859481241
20
15.9776274700365
30
0
41
1
10
48.7247382843656
20
15.9517786539112
30
0
41
1
10
48.6586224564591
20
15.9009786049513
30
0
41
1
10
48.6256498799301
20
15.8758667567176
30
0
41
1
10
48.5927585639623
20
15.8510293175571
30
0
0
SPLINE
5
1CA
100
AcDbEntity
8
1
62
256
6
ByLayer
370
18
48
1
60
0
100
AcDbSpline
70
4
71
3
72
28
73
24
40
0
40
0
40
0
40
0
40
0.0704602742231842
40
0.0704602742231842
40
0.140920548446368
40
0.140920548446368
40
0.211380822669553
40
0.211380822669553
40
0.281841096892737
40
0.281841096892737
40
0.352301371115921
40
0.352301371115921
40
0.422761645339105
40
0.422761645339105
40
0.493221919562289
40
0.493221919562289
40
0.563682193785474
40
0.563682193785474
40
0.704602742231838
40
0.704602742231838
40
0.845523290678203
40
0.845523290678203
40
1
40
1
40
1
40
1
41
1
10
45.2975262747673
20
26.4757195226089
30
0
41
1
10
45.2607326667204
20
26.4827543535549
30
0
41
1
10
45.2236476039755
20
26.4883923464013
30
0
41
1
10
45.1488700836998
20
26.4967443745564
30
0
41
1
10
45.1107528773872
20
26.4994464371757
30
0
41
1
10
45.0374411460561
20
26.5016214374351
30
0
41
1
10
45.0019193291537
20
26.501165040094
30
0
41
1
10
44.9330106690512
20
26.4974103067301
30
0
41
1
10
44.9002126702586
20
26.4941295849268
30
0
41
1
10
44.8386472805458
20
26.4853501061039
30
0
41
1
10
44.8094756038541
20
26.4797864753065
30
0
41
1
10
44.7554274859736
20
26.4669996808865
30
0
41
1
10
44.7306015458976
20
26.4598154648191
30
0
41
1
10
44.684618512205
20
26.4442205553249
30
0
41
1
10
44.6634671202116
20
26.435807475771
30
0
41
1
10
44.6244040828339
20
26.417986711812
30
0
41
1
10
44.6065513910048
20
26.40859049697
30
0
41
1
10
44.5583160276683
20
26.37980305268
30
0
41
1
10
44.5327334665605
20
26.3596287097774
30
0
41
1
10
44.4917976182624
20
26.3182373957342
30
0
41
1
10
44.4764519790026
20
26.2968792808319
30
0
41
1
10
44.4540410281482
20
26.2525730115872
30
0
41
1
10
44.4476489951037
20
26.2295855353447
30
0
41
1
10
44.4459109955119
20
26.2068864106032
30
0
0
SPLINE
5
1CB
100
AcDbEntity
8
1
62
256
6
ByLayer
370
13
48
1
60
0
100
AcDbSpline
70
4
71
3
72
22
73
18
40
0
40
0
40
0
40
0
40
0.249999999999965
40
0.249999999999965
40
0.499999999999929
40
0.499999999999929
40
0.562499999999931
40
0.562499999999931
40
0.624999999999934
40
0.624999999999934
40
0.687499999999936
40
0.687499999999936
40
0.749999999999938
40
0.749999999999938
40
0.874999999999969
40
0.874999999999969
40
1
40
1
40
1
40
1
41
1
10
49.3590756238892
20
22.1348695174217
30
0
41
1
10
49.3617564781559
20
22.0765066541895
30
0
41
1
10
49.3684244284139
20
22.0188605578559
30
0
41
1
10
49.3953427838196
20
21.9059960678021
30
0
41
1
10
49.4159628331115
20
21.8499711671519
30
0
41
1
10
49.455911579122
20
21.7886500761628
30
0
41
1
10
49.464692218793
20
21.7767347214639
30
0
41
1
10
49.4835103506292
20
21.7543999497649
30
0
41
1
10
49.4935776499231
20
21.74391959569
30
0
41
1
10
49.5151298530448
20
21.7244398620896
30
0
41
1
10
49.5267153226448
20
21.7153774757526
30
0
41
1
10
49.5508962390459
20
21.6992070124629
30
0
41
1
10
49.5634349349264
20
21.6921117480001
30
0
41
1
10
49.6023257317924
20
21.673644090601
30
0
41
1
10
49.6302743705737
20
21.6650723258184
30
0
41
1
10
49.6868329195759
20
21.6551351667421
30
0
41
1
10
49.715708848055
20
21.6536233455654
30
0
41
1
10
49.7444193698717
20
21.6547909370495
30
0
0
SPLINE
5
1CC
100
AcDbEntity
8
1
62
256
6
ByLayer
370
18
48
1
60
0
100
AcDbSpline
70
4
71
3
72
24
73
20
40
0
40
0
40
0
40
0
40
0.250000000000019
40
0.250000000000019
40
0.375000000000016
40
0.375000000000016
40
0.500000000000013
40
0.500000000000013
40
0.56250000000001
40
0.56250000000001
40
0.625000000000006
40
0.625000000000006
40
0.750000000000007
40
0.750000000000007
40
0.812500000000002
40
0.812500000000002
40
0.874999999999998
40
0.874999999999998
40
1
40
1
40
1
40
1
41
1
10
48.1901319227115
20
23.6111285752219
30
0
41
1
10
48.2496429626446
20
23.5886100589257
30
0
41
1
10
48.3102435165518
20
23.5713824472927
30
0
41
1
10
48.4031189463174
20
23.5595862428241
30
0
41
1
10
48.4338040555504
20
23.5581348781641
30
0
41
1
10
48.4944776023045
20
23.5615541763902
30
0
41
1
10
48.5248495782853
20
23.5665809295066
30
0
41
1
10
48.5675871957981
20
23.5797496913097
30
0
41
1
10
48.5814077991122
20
23.5850594545536
30
0
41
1
10
48.6081538069047
20
23.5976159670304
30
0
41
1
10
48.6211707613685
20
23.6049277570102
30
0
41
1
10
48.6580540946279
20
23.6294374626933
30
0
41
1
10
48.6796480208832
20
23.6490202699796
30
0
41
1
10
48.7080469048658
20
23.68271710168
30
0
41
1
10
48.7168171370652
20
23.6946629125581
30
0
41
1
10
48.7327022859912
20
23.7192395664803
30
0
41
1
10
48.739886315426
20
23.7319483160742
30
0
41
1
10
48.7594531180365
20
23.7711749069679
30
0
41
1
10
48.7698658123557
20
23.798784662009
30
0
41
1
10
48.7781521096909
20
23.8275729699179
30
0
0
SPLINE
5
1CD
100
AcDbEntity
8
1
62
256
6
ByLayer
370
18
48
1
60
0
100
AcDbSpline
70
4
71
3
72
8
73
4
40
0
40
0
40
0
40
0
40
1
40
1
40
1
40
1
41
1
10
50.268374116112
20
16.9858441608112
30
0
41
1
10
50.2570386694247
20
16.9760984955405
30
0
41
1
10
50.2455654711486
20
16.9646733001616
30
0
41
1
10
50.2339681664169
20
16.9517349423511
30
0
0
LINE
5
72
100
AcDbEntity
8
81
62
256
6
ByLayer
370
18
48
1
60
0
100
AcDbLine
10
55
20
27
30
0
11
65
21
27
31
0
39
0
210
0
220
0
230
1
0
LINE
5
73
100
AcDbEntity
8
1
62
256
6
ByLayer
370
13
48
1
60
0
100
AcDbLine
10
0.3
20
-20
30
0
11
20
21
-20
31
0
39
0
210
0
220
0
230
1
0
LINE
5
74
100
AcDbEntity
8
1
62
256
6
ByLayer
370
13
48
1
60
0
100
AcDbLine
10
20.279208
20
20
30
0
11
0.3
21
20
31
0
39
0
210
0
220
0
230
1
0
LINE
5
75
100
AcDbEntity
8
1
62
256
6
ByLayer
370
18
48
1
60
0
100
AcDbLine
10
44.456926
20
26.255653
30
0
11
44.438916
21
26.206791
31
0
39
0
210
0
220
0
230
1
0
LINE
5
76
100
AcDbEntity
8
1
62
256
6
ByLayer
370
18
48
1
60
0
100
AcDbLine
10
43.437263
20
18.086152
30
0
11
43.295931
21
15.695196
31
0
39
0
210
0
220
0
230
1
0
LINE
5
77
100
AcDbEntity
8
1
62
256
6
ByLayer
370
13
48
1
60
0
100
AcDbLine
10
0.3
20
20
30
0
11
0
21
19.7
31
0
39
0
210
0
220
0
230
1
0
LINE
5
78
100
AcDbEntity
8
1
62
256
6
ByLayer
370
13
48
1
60
0
100
AcDbLine
10
0
20
-19.7
30
0
11
0.3
21
-20
31
0
39
0
210
0
220
0
230
1
0
LINE
5
79
100
AcDbEntity
8
1
62
256
6
ByLayer
370
13
48
1
60
0
100
AcDbLine
10
38.176018
20
25.868049
30
0
11
30.972311
21
25.396986
31
0
39
0
210
0
220
0
230
1
0
LINE
5
7A
100
AcDbEntity
8
1
62
256
6
ByLayer
370
13
48
1
60
0
100
AcDbLine
10
22.708482
20
20.1
30
0
11
20.758791
21
20.1
31
0
39
0
210
0
220
0
230
1
0
LINE
5
7B
100
AcDbEntity
8
1
62
256
6
ByLayer
370
13
48
1
60
0
100
AcDbLine
10
42.208126
20
12.796984
30
0
11
42.112575
21
13.328192
31
0
39
0
210
0
220
0
230
1
0
LINE
5
7C
100
AcDbEntity
8
1
62
256
6
ByLayer
370
13
48
1
60
0
100
AcDbLine
10
29.4339
20
25.244762
30
0
11
26.495983
21
21.835826
31
0
39
0
210
0
220
0
230
1
0
LINE
5
7D
100
AcDbEntity
8
1
62
256
6
ByLayer
370
13
48
1
60
0
100
AcDbLine
10
43.783237
20
19.385764
30
0
11
44.347997
21
19.963548
31
0
39
0
210
0
220
0
230
1
0
LINE
5
7E
100
AcDbEntity
8
1
62
256
6
ByLayer
370
13
48
1
60
0
100
AcDbLine
10
43.19844
20
26.17051
30
0
11
43.060133
21
26.170479
31
0
39
0
210
0
220
0
230
1
0
LINE
5
7F
100
AcDbEntity
8
1
62
256
6
ByLayer
370
18
48
1
60
0
100
AcDbLine
10
52.800263
20
16.592033
30
0
11
52.801658
21
16.609058
31
0
39
0
210
0
220
0
230
1
0
LINE
5
80
100
AcDbEntity
8
1
62
256
6
ByLayer
370
18
48
1
60
0
100
AcDbLine
10
54.41585
20
16.601079
30
0
11
54.671271
21
19.71964
31
0
39
0
210
0
220
0
230
1
0
LINE
5
81
100
AcDbEntity
8
4
62
256
6
ByLayer
370
18
48
0.05
60
0
100
AcDbLine
10
-24
20
0
30
0
11
76
21
0
31
0
39
0
210
0
220
0
230
1
0
LINE
5
83
100
AcDbEntity
8
80
62
256
6
ByLayer
370
18
48
1
60
0
100
AcDbLine
10
0
20
0
30
0
11
-6.6
21
0
31
0
39
0
210
0
220
0
230
1
0
LINE
5
84
100
AcDbEntity
8
1
62
256
6
ByLayer
370
13
48
1
60
0
100
AcDbLine
10
52.560983
20
16.32276
30
0
11
52.356606
21
16.643024
31
0
39
0
210
0
220
0
230
1
0
LINE
5
85
100
AcDbEntity
8
1
62
256
6
ByLayer
370
13
48
1
60
0
100
AcDbLine
10
36.415467
20
25.685777
30
0
11
36.422316
21
25.749786
31
0
39
0
210
0
220
0
230
1
0
LINE
5
86
100
AcDbEntity
8
1
62
256
6
ByLayer
370
13
48
1
60
0
100
AcDbLine
10
6.923205
20
-19.122283
30
0
11
6.923205
21
-5.85989
31
0
39
0
210
0
220
0
230
1
0
LINE
5
87
100
AcDbEntity
8
1
62
256
6
ByLayer
370
13
48
1
60
0
100
AcDbLine
10
52.87932
20
16.574267
30
0
11
52.894188
21
16.266357
31
0
39
0
210
0
220
0
230
1
0
LINE
5
88
100
AcDbEntity
8
1
62
256
6
ByLayer
370
13
48
1
60
0
100
AcDbLine
10
45.8829
20
15.427446
30
0
11
44.72934
21
15.33066
31
0
39
0
210
0
220
0
230
1
0
LINE
5
89
100
AcDbEntity
8
1
62
256
6
ByLayer
370
13
48
1
60
0
100
AcDbLine
10
45.023427
20
26.240705
30
0
11
44.958324
21
26.24069
31
0
39
0
210
0
220
0
230
1
0
LINE
5
8A
100
AcDbEntity
8
1
62
256
6
ByLayer
370
13
48
1
60
0
100
AcDbLine
10
29.846068
20
25.23842
30
0
11
45.040548
21
26.230291
31
0
39
0
210
0
220
0
230
1
0
LINE
5
8B
100
AcDbEntity
8
1
62
256
6
ByLayer
370
13
48
1
60
0
100
AcDbLine
10
44.714059
20
22.244021
30
0
11
44.814008
21
22.171702
31
0
39
0
210
0
220
0
230
1
0
LINE
5
8C
100
AcDbEntity
8
1
62
256
6
ByLayer
370
13
48
1
60
0
100
AcDbLine
10
48.0748
20
15.306128
30
0
11
47.950278
21
15.478166
31
0
39
0
210
0
220
0
230
1
0
LINE
5
8D
100
AcDbEntity
8
1
62
256
6
ByLayer
370
13
48
1
60
0
100
AcDbLine
10
20.336451
20
0.233766
30
0
11
23.014717
21
2.094621
31
0
39
0
210
0
220
0
230
1
0
LINE
5
8E
100
AcDbEntity
8
1
62
256
6
ByLayer
370
13
48
1
60
0
100
AcDbLine
10
54.226447
20
16.172025
30
0
11
54.428215
21
15.692194
31
0
39
0
210
0
220
0
230
1
0
LINE
5
8F
100
AcDbEntity
8
1
62
256
6
ByLayer
370
13
48
1
60
0
100
AcDbLine
10
34.201515
20
25.586449
30
0
11
34.644111
21
25.586548
31
0
39
0
210
0
220
0
230
1
0
LINE
5
90
100
AcDbEntity
8
1
62
256
6
ByLayer
370
13
48
1
60
0
100
AcDbLine
10
45.020265
20
24.120685
30
0
11
45.194281
21
26.245331
31
0
39
0
210
0
220
0
230
1
0
LINE
5
91
100
AcDbEntity
8
1
62
256
6
ByLayer
370
13
48
1
60
0
100
AcDbLine
10
50.039415
20
16.619794
30
0
11
50.262991
21
16.269444
31
0
39
0
210
0
220
0
230
1
0
LINE
5
92
100
AcDbEntity
8
1
62
256
6
ByLayer
370
13
48
1
60
0
100
AcDbLine
10
22.708482
20
20.1
30
0
11
22.708482
21
2.002498
31
0
39
0
210
0
220
0
230
1
0
LINE
5
93
100
AcDbEntity
8
1
62
256
6
ByLayer
370
13
48
1
60
0
100
AcDbLine
10
9.076795
20
-19.122283
30
0
11
9.076795
21
-5.85989
31
0
39
0
210
0
220
0
230
1
0
LINE
5
94
100
AcDbEntity
8
1
62
256
6
ByLayer
370
13
48
1
60
0
100
AcDbLine
10
9.076795
20
5.85989
30
0
11
6.923205
21
5.85989
31
0
39
0
210
0
220
0
230
1
0
LINE
5
95
100
AcDbEntity
8
1
62
256
6
ByLayer
370
13
48
1
60
0
100
AcDbLine
10
43.167601
20
17.468978
30
0
11
43.064891
21
15.878982
31
0
39
0
210
0
220
0
230
1
0
LINE
5
96
100
AcDbEntity
8
1
62
256
6
ByLayer
370
13
48
1
60
0
100
AcDbLine
10
6.923205
20
-5.85989
30
0
11
9.076795
21
-5.85989
31
0
39
0
210
0
220
0
230
1
0
LINE
5
97
100
AcDbEntity
8
1
62
256
6
ByLayer
370
13
48
1
60
0
100
AcDbLine
10
48.0748
20
15.306128
30
0
11
44.919754
21
15.067588
31
0
39
0
210
0
220
0
230
1
0
LINE
5
98
100
AcDbEntity
8
1
62
256
6
ByLayer
370
13
48
1
60
0
100
AcDbLine
10
9.336603
20
6.16973
30
0
11
9.336603
21
19.024574
31
0
39
0
210
0
220
0
230
1
0
LINE
5
99
100
AcDbEntity
8
1
62
256
6
ByLayer
370
13
48
1
60
0
100
AcDbLine
10
9.336603
20
-19.024574
30
0
11
9.336603
21
-6.16973
31
0
39
0
210
0
220
0
230
1
0
LINE
5
9A
100
AcDbEntity
8
1
62
256
6
ByLayer
370
13
48
1
60
0
100
AcDbLine
10
42.54637
20
18.53581
30
0
11
43.301163
21
19.308008
31
0
39
0
210
0
220
0
230
1
0
LINE
5
9B
100
AcDbEntity
8
1
62
256
6
ByLayer
370
13
48
1
60
0
100
AcDbLine
10
0
20
-19.7
30
0
11
0
21
19.7
31
0
39
0
210
0
220
0
230
1
0
LINE
5
9C
100
AcDbEntity
8
1
62
256
6
ByLayer
370
13
48
1
60
0
100
AcDbLine
10
42.297346
20
17.795009
30
0
11
42.146171
21
17.86282
31
0
39
0
210
0
220
0
230
1
0
LINE
5
9D
100
AcDbEntity
8
1
62
256
6
ByLayer
370
13
48
1
60
0
100
AcDbLine
10
20.758791
20
2.002498
30
0
11
22.708482
21
2.002498
31
0
39
0
210
0
220
0
230
1
0
LINE
5
9E
100
AcDbEntity
8
1
62
256
6
ByLayer
370
13
48
1
60
0
100
AcDbLine
10
42.191758
20
17.367449
30
0
11
42.334711
21
17.303325
31
0
39
0
210
0
220
0
230
1
0
LINE
5
9F
100
AcDbEntity
8
1
62
256
6
ByLayer
370
13
48
1
60
0
100
AcDbLine
10
37.956726
20
25.783921
30
0
11
44.958324
21
26.24069
31
0
39
0
210
0
220
0
230
1
0
LINE
5
A0
100
AcDbEntity
8
1
62
256
6
ByLayer
370
13
48
1
60
0
100
AcDbLine
10
20.279208
20
20
30
0
11
20.279208
21
0.096997
31
0
39
0
210
0
220
0
230
1
0
LINE
5
A1
100
AcDbEntity
8
1
62
256
6
ByLayer
370
13
48
1
60
0
100
AcDbLine
10
6.663397
20
6.16973
30
0
11
6.663397
21
19.024574
31
0
39
0
210
0
220
0
230
1
0
LINE
5
A2
100
AcDbEntity
8
1
62
256
6
ByLayer
370
13
48
1
60
0
100
AcDbLine
10
23.138598
20
2.180693
30
0
11
27.392808
21
5.136513
31
0
39
0
210
0
220
0
230
1
0
LINE
5
A3
100
AcDbEntity
8
1
62
256
6
ByLayer
370
13
48
1
60
0
100
AcDbLine
10
43.52123
20
19.363352
30
0
11
43.438157
21
20.284677
31
0
39
0
210
0
220
0
230
1
0
LINE
5
A4
100
AcDbEntity
8
1
62
256
6
ByLayer
370
13
48
1
60
0
100
AcDbLine
10
44.72934
20
15.33066
30
0
11
44.919754
21
15.067588
31
0
39
0
210
0
220
0
230
1
0
LINE
5
A5
100
AcDbEntity
8
1
62
256
6
ByLayer
370
13
48
1
60
0
100
AcDbLine
10
44.960388
20
23.958239
30
0
11
45.020265
21
24.120685
31
0
39
0
210
0
220
0
230
1
0
LINE
5
A6
100
AcDbEntity
8
1
62
256
6
ByLayer
370
13
48
1
60
0
100
AcDbLine
10
52.560983
20
16.32276
30
0
11
50.262991
21
16.269444
31
0
39
0
210
0
220
0
230
1
0
LINE
5
A7
100
AcDbEntity
8
1
62
256
6
ByLayer
370
13
48
1
60
0
100
AcDbLine
10
49.654854
20
16.015435
30
0
11
49.120684
21
16.191165
31
0
39
0
210
0
220
0
230
1
0
LINE
5
A8
100
AcDbEntity
8
1
62
256
6
ByLayer
370
13
48
1
60
0
100
AcDbLine
10
38.838829
20
25.910628
30
0
11
30.875766
21
25.38991
31
0
39
0
210
0
220
0
230
1
0
LINE
5
A9
100
AcDbEntity
8
1
62
256
6
ByLayer
370
13
48
1
60
0
100
AcDbLine
10
44.959577
20
23.949028
30
0
11
44.814008
21
22.171702
31
0
39
0
210
0
220
0
230
1
0
LINE
5
AA
100
AcDbEntity
8
1
62
256
6
ByLayer
370
13
48
1
60
0
100
AcDbLine
10
45.171237
20
26.245326
30
0
11
45.194281
21
26.245331
31
0
39
0
210
0
220
0
230
1
0
LINE
5
AB
100
AcDbEntity
8
1
62
256
6
ByLayer
370
13
48
1
60
0
100
AcDbLine
10
43.399507
20
17.447468
30
0
11
43.167601
21
17.468978
31
0
39
0
210
0
220
0
230
1
0
LINE
5
AC
100
AcDbEntity
8
1
62
256
6
ByLayer
370
13
48
1
60
0
100
AcDbLine
10
44.714059
20
22.244021
30
0
11
45.040548
21
26.230291
31
0
39
0
210
0
220
0
230
1
0
LINE
5
AD
100
AcDbEntity
8
1
62
256
6
ByLayer
370
13
48
1
60
0
100
AcDbLine
10
42.996882
20
26.164172
30
0
11
37.569071
21
25.82379
31
0
39
0
210
0
220
0
230
1
0
LINE
5
AE
100
AcDbEntity
8
1
62
256
6
ByLayer
370
13
48
1
60
0
100
AcDbLine
10
37.569071
20
25.82379
30
0
11
37.562062
21
25.758287
31
0
39
0
210
0
220
0
230
1
0
LINE
5
AF
100
AcDbEntity
8
1
62
256
6
ByLayer
370
13
48
1
60
0
100
AcDbLine
10
42.853402
20
18.682087
30
0
11
42.710347
21
17.345212
31
0
39
0
210
0
220
0
230
1
0
LINE
5
B0
100
AcDbEntity
8
1
62
256
6
ByLayer
370
13
48
1
60
0
100
AcDbLine
10
42.862208
20
26.164142
30
0
11
42.996882
21
26.164172
31
0
39
0
210
0
220
0
230
1
0
LINE
5
B1
100
AcDbEntity
8
1
62
256
6
ByLayer
370
13
48
1
60
0
100
AcDbLine
10
0.3
20
-20
30
0
11
0.3
21
20
31
0
39
0
210
0
220
0
230
1
0
LINE
5
B2
100
AcDbEntity
8
1
62
256
6
ByLayer
370
13
48
1
60
0
100
AcDbLine
10
20
20
-20
30
0
11
52.824643
21
2.806516
31
0
39
0
210
0
220
0
230
1
0
LINE
5
B3
100
AcDbEntity
8
1
62
256
6
ByLayer
370
13
48
1
60
0
100
AcDbLine
10
53.475624
20
4.061535
30
0
11
54.428215
21
15.692194
31
0
39
0
210
0
220
0
230
1
0
LINE
5
B4
100
AcDbEntity
8
1
62
256
6
ByLayer
370
13
48
1
60
0
100
AcDbLine
10
20.758791
20
2.002498
30
0
11
20.758791
21
20.1
31
0
39
0
210
0
220
0
230
1
0
LINE
5
B5
100
AcDbEntity
8
1
62
256
6
ByLayer
370
13
48
1
60
0
100
AcDbLine
10
26.495983
20
21.091711
30
0
11
26.495983
21
21.835826
31
0
39
0
210
0
220
0
230
1
0
LINE
5
B6
100
AcDbEntity
8
1
62
256
6
ByLayer
370
13
48
1
60
0
100
AcDbLine
10
54.428215
20
15.692194
30
0
11
52.894188
21
16.266357
31
0
39
0
210
0
220
0
230
1
0
LINE
5
B7
100
AcDbEntity
8
1
62
256
6
ByLayer
370
13
48
1
60
0
100
AcDbLine
10
45.194281
20
26.245331
30
0
11
45.040548
21
26.230291
31
0
39
0
210
0
220
0
230
1
0
LINE
5
B8
100
AcDbEntity
8
1
62
256
6
ByLayer
370
13
48
1
60
0
100
AcDbLine
10
42.191758
20
17.367449
30
0
11
42.146171
21
17.86282
31
0
39
0
210
0
220
0
230
1
0
LINE
5
B9
100
AcDbEntity
8
1
62
256
6
ByLayer
370
13
48
1
60
0
100
AcDbLine
10
26.495983
20
19.028396
30
0
11
26.495983
21
12.20926
31
0
39
0
210
0
220
0
230
1
0
LINE
5
BA
100
AcDbEntity
8
1
62
256
6
ByLayer
370
13
48
1
60
0
100
AcDbLine
10
6.923205
20
5.85989
30
0
11
6.923205
21
19.122283
31
0
39
0
210
0
220
0
230
1
0
LINE
5
BB
100
AcDbEntity
8
1
62
256
6
ByLayer
370
13
48
1
60
0
100
AcDbLine
10
41.918292
20
10.954923
30
0
11
41.87103
21
11.853869
31
0
39
0
210
0
220
0
230
1
0
LINE
5
BC
100
AcDbEntity
8
1
62
256
6
ByLayer
370
13
48
1
60
0
100
AcDbLine
10
42.760316
20
16.218791
30
0
11
42.793958
21
16.213603
31
0
39
0
210
0
220
0
230
1
0
LINE
5
BD
100
AcDbEntity
8
1
62
256
6
ByLayer
370
13
48
1
60
0
100
AcDbLine
10
9.076795
20
-19.122283
30
0
11
6.923205
21
-19.122283
31
0
39
0
210
0
220
0
230
1
0
LINE
5
BE
100
AcDbEntity
8
1
62
256
6
ByLayer
370
13
48
1
60
0
100
AcDbLine
10
9.076795
20
5.85989
30
0
11
9.076795
21
19.122283
31
0
39
0
210
0
220
0
230
1
0
LINE
5
BF
100
AcDbEntity
8
1
62
256
6
ByLayer
370
13
48
1
60
0
100
AcDbLine
10
6.663397
20
-19.024574
30
0
11
6.663397
21
-6.16973
31
0
39
0
210
0
220
0
230
1
0
LINE
5
C0
100
AcDbEntity
8
1
62
256
6
ByLayer
370
13
48
1
60
0
100
AcDbLine
10
6.923205
20
19.122283
30
0
11
9.076795
21
19.122283
31
0
39
0
210
0
220
0
230
1
0
LINE
5
C1
100
AcDbEntity
8
SK1
62
256
6
ByLayer
370
13
48
1
60
0
100
AcDbLine
10
-1.315435
20
-3.625867
30
0
11
-1.315435
21
3.625869
31
0
39
0
210
0
220
0
230
1
0
LINE
5
C3
100
AcDbEntity
8
1
62
256
6
ByLayer
370
18
48
1
60
0
100
AcDbLine
10
54.688871
20
21.877141
30
0
11
54.688986
21
20.604377
31
0
39
0
210
0
220
0
230
1
0
LINE
5
C4
100
AcDbEntity
8
1
62
256
6
ByLayer
370
13
48
1
60
0
100
AcDbLine
10
45.211069
20
15.591699
30
0
11
45.127152
21
15.364033
31
0
39
0
210
0
220
0
230
1
0
LINE
5
C5
100
AcDbEntity
8
1
62
256
6
ByLayer
370
18
48
1
60
0
100
AcDbLine
10
48.778152
20
23.827573
30
0
11
49.417484
21
26.048743
31
0
39
0
210
0
220
0
230
1
0
LINE
5
C6
100
AcDbEntity
8
1
62
256
6
ByLayer
370
18
48
1
60
0
100
AcDbLine
10
49.74275
20
26.099017
30
0
11
50.393066
21
26.483593
31
0
39
0
210
0
220
0
230
1
0
LINE
5
C7
100
AcDbEntity
8
1
62
256
6
ByLayer
370
18
48
1
60
0
100
AcDbLine
10
54.99737
20
26.137582
30
0
11
54.744683
21
23.052389
31
0
39
0
210
0
220
0
230
1
0
LINE
5
C8
100
AcDbEntity
8
1
62
256
6
ByLayer
370
18
48
1
60
0
100
AcDbLine
10
48.484797
20
15.838565
30
0
11
48.483035
21
15.833786
31
0
39
0
210
0
220
0
230
1
0
LINE
5
C9
100
AcDbEntity
8
1
62
256
6
ByLayer
370
13
48
1
60
0
100
AcDbLine
10
54.050792
20
23.11675
30
0
11
53.299333
21
23.186451
31
0
39
0
210
0
220
0
230
1
0
LINE
5
CA
100
AcDbEntity
8
1
62
256
6
ByLayer
370
18
48
1
60
0
100
AcDbLine
10
49.313707
20
26.051206
30
0
11
49.312886
21
26.037329
31
0
39
0
210
0
220
0
230
1
0
LINE
5
CB
100
AcDbEntity
8
1
62
256
6
ByLayer
370
18
48
1
60
0
100
AcDbLine
10
51.296195
20
16.755505
30
0
11
52.481722
21
16.669094
31
0
39
0
210
0
220
0
230
1
0
LINE
5
CC
100
AcDbEntity
8
1
62
256
6
ByLayer
370
18
48
1
60
0
100
AcDbLine
10
44.832358
20
22.316238
30
0
11
46.319267
21
22.178321
31
0
39
0
210
0
220
0
230
1
0
LINE
5
CD
100
AcDbEntity
8
1
62
256
6
ByLayer
370
13
48
1
60
0
100
AcDbLine
10
51.296195
20
16.755505
30
0
11
51.291438
21
16.697416
31
0
39
0
210
0
220
0
230
1
0
LINE
5
CE
100
AcDbEntity
8
1
62
256
6
ByLayer
370
13
48
1
60
0
100
AcDbLine
10
46.110606
20
20.505321
30
0
11
44.623697
21
20.643238
31
0
39
0
210
0
220
0
230
1
0
LINE
5
CF
100
AcDbEntity
8
1
62
256
6
ByLayer
370
18
48
1
60
0
100
AcDbLine
10
45.991412
20
19.208565
30
0
11
45.884769
21
17.404461
31
0
39
0
210
0
220
0
230
1
0
LINE
5
D0
100
AcDbEntity
8
1
62
256
6
ByLayer
370
13
48
1
60
0
100
AcDbLine
10
43.449009
20
18.217201
30
0
11
43.299783
21
15.692705
31
0
39
0
210
0
220
0
230
1
0
LINE
5
D1
100
AcDbEntity
8
1
62
256
6
ByLayer
370
18
48
1
60
0
100
AcDbLine
10
47.392881
20
17.180902
30
0
11
46.217348
21
17.093927
31
0
39
0
210
0
220
0
230
1
0
LINE
5
D2
100
AcDbEntity
8
1
62
256
6
ByLayer
370
13
48
1
60
0
100
AcDbLine
10
46.141865
20
26.524687
30
0
11
46.016661
21
24.406588
31
0
39
0
210
0
220
0
230
1
0
LINE
5
D3
100
AcDbEntity
8
1
62
256
6
ByLayer
370
13
48
1
60
0
100
AcDbLine
10
53.931716
20
16.283038
30
0
11
54.087818
21
16.268559
31
0
39
0
210
0
220
0
230
1
0
LINE
5
D4
100
AcDbEntity
8
1
62
256
6
ByLayer
370
18
48
1
60
0
100
AcDbLine
10
43.763696
20
16.162512
30
0
11
43.870144
21
15.586492
31
0
39
0
210
0
220
0
230
1
0
LINE
5
D5
100
AcDbEntity
8
1
62
256
6
ByLayer
370
18
48
1
60
0
100
AcDbLine
10
49.312886
20
26.037329
30
0
11
46.141865
21
26.524687
31
0
39
0
210
0
220
0
230
1
0
LINE
5
D6
100
AcDbEntity
8
1
62
256
6
ByLayer
370
18
48
1
60
0
100
AcDbLine
10
48.483035
20
15.833786
30
0
11
45.211069
21
15.591699
31
0
39
0
210
0
220
0
230
1
0
LINE
5
D7
100
AcDbEntity
8
1
62
256
6
ByLayer
370
18
48
1
60
0
100
AcDbLine
10
45.124997
20
26.35691
30
0
11
45.082619
21
26.241939
31
0
39
0
210
0
220
0
230
1
0
LINE
5
D8
100
AcDbEntity
8
1
62
256
6
ByLayer
370
18
48
1
60
0
100
AcDbLine
10
48.981337
20
16.155327
30
0
11
49.76459
21
16.79475
31
0
39
0
210
0
220
0
230
1
0
LINE
5
D9
100
AcDbEntity
8
1
62
256
6
ByLayer
370
18
48
1
60
0
100
AcDbLine
10
44.33112
20
16.413321
30
0
11
44.504502
21
19.346481
31
0
39
0
210
0
220
0
230
1
0
LINE
5
DA
100
AcDbEntity
8
1
62
256
6
ByLayer
370
13
48
1
60
0
100
AcDbLine
10
53.243386
20
22.011215
30
0
11
54.688871
21
21.877141
31
0
39
0
210
0
220
0
230
1
0
LINE
5
DB
100
AcDbEntity
8
1
62
256
6
ByLayer
370
13
48
1
60
0
100
AcDbLine
10
43.765859
20
16.150824
30
0
11
43.640146
21
16.162485
31
0
39
0
210
0
220
0
230
1
0
LINE
5
DC
100
AcDbEntity
8
1
62
256
6
ByLayer
370
18
48
1
60
0
100
AcDbLine
10
44.623697
20
20.643238
30
0
11
44.723736
21
21.445337
31
0
39
0
210
0
220
0
230
1
0
LINE
5
DD
100
AcDbEntity
8
1
62
256
6
ByLayer
370
18
48
1
60
0
100
AcDbLine
10
44.813265
20
22.163158
30
0
11
44.832358
21
22.316238
31
0
39
0
210
0
220
0
230
1
0
LINE
5
DE
100
AcDbEntity
8
1
62
256
6
ByLayer
370
13
48
1
60
0
100
AcDbLine
10
54.744683
20
23.052389
30
0
11
54.050792
21
23.11675
31
0
39
0
210
0
220
0
230
1
0
LINE
5
DF
100
AcDbEntity
8
1
62
256
6
ByLayer
370
18
48
1
60
0
100
AcDbLine
10
54.411572
20
16.592892
30
0
11
54.087818
21
16.268559
31
0
39
0
210
0
220
0
230
1
0
LINE
5
E0
100
AcDbEntity
8
1
62
256
6
ByLayer
370
18
48
1
60
0
100
AcDbLine
10
50.268374
20
16.985844
30
0
11
50.26957
21
17.000441
31
0
39
0
210
0
220
0
230
1
0
LINE
5
E1
100
AcDbEntity
8
1
62
256
6
ByLayer
370
18
48
1
60
0
100
AcDbLine
10
43.43459
20
15.604817
30
0
11
43.640146
21
16.162485
31
0
39
0
210
0
220
0
230
1
0
LINE
5
E2
100
AcDbEntity
8
1
62
256
6
ByLayer
370
13
48
1
60
0
100
AcDbLine
10
52.478361
20
16.628061
30
0
11
52.481722
21
16.669094
31
0
39
0
210
0
220
0
230
1
0
LINE
5
E3
100
AcDbEntity
8
1
62
256
6
ByLayer
370
13
48
1
60
0
100
AcDbLine
10
43.954864
20
15.392547
30
0
11
44.33112
21
16.413321
31
0
39
0
210
0
220
0
230
1
0
LINE
5
E4
100
AcDbEntity
8
1
62
256
6
ByLayer
370
13
48
1
60
0
100
AcDbLine
10
45.892794
20
17.426234
30
0
11
45.884769
21
17.404461
31
0
39
0
210
0
220
0
230
1
0
LINE
5
E5
100
AcDbEntity
8
1
62
256
6
ByLayer
370
18
48
1
60
0
100
AcDbLine
10
50.968367
20
26.736815
30
0
11
54.13732
21
26.99735
31
0
39
0
210
0
220
0
230
1
0
LINE
5
E6
100
AcDbEntity
8
1
62
256
6
ByLayer
370
13
48
1
60
0
100
AcDbLine
10
48.503192
20
16.150439
30
0
11
48.501478
21
16.145788
31
0
39
0
210
0
220
0
230
1
0
LINE
5
E7
100
AcDbEntity
8
1
62
256
6
ByLayer
370
13
48
1
60
0
100
AcDbLine
10
46.2223
20
17.10736
30
0
11
46.217348
21
17.093927
31
0
39
0
210
0
220
0
230
1
0
LINE
5
E8
100
AcDbEntity
8
1
62
256
6
ByLayer
370
18
48
1
60
0
100
AcDbLine
10
48.388568
20
15.64213
30
0
11
48.592759
21
15.851029
31
0
39
0
210
0
220
0
230
1
0
LINE
5
E9
100
AcDbEntity
8
1
62
256
6
ByLayer
370
13
48
1
60
0
100
AcDbLine
10
53.569353
20
16.759925
30
0
11
53.751824
21
18.987811
31
0
39
0
210
0
220
0
230
1
0
LINE
5
EA
100
AcDbEntity
8
1
62
256
6
ByLayer
370
18
48
1
60
0
100
AcDbLine
10
54.688986
20
20.604377
30
0
11
53.202077
21
20.742293
31
0
39
0
210
0
220
0
230
1
0
LINE
5
EB
100
AcDbEntity
8
1
62
256
6
ByLayer
370
13
48
1
60
0
100
AcDbLine
10
45.991412
20
19.208565
30
0
11
44.504502
21
19.346481
31
0
39
0
210
0
220
0
230
1
0
LINE
5
EC
100
AcDbEntity
8
1
62
256
6
ByLayer
370
18
48
1
60
0
100
AcDbLine
10
50.881976
20
19.359098
30
0
11
50.160054
21
16.979598
31
0
39
0
210
0
220
0
230
1
0
LINE
5
ED
100
AcDbEntity
8
1
62
256
6
ByLayer
370
18
48
1
60
0
100
AcDbLine
10
50.850683
20
26.72714
30
0
11
50.968367
21
26.736815
31
0
39
0
210
0
220
0
230
1
0
LINE
5
EE
100
AcDbEntity
8
1
62
256
6
ByLayer
370
13
48
1
60
0
100
AcDbLine
10
44.943836
20
23.292155
30
0
11
44.987569
21
24.032006
31
0
39
0
210
0
220
0
230
1
0
LINE
5
EF
100
AcDbEntity
8
1
62
256
6
ByLayer
370
13
48
1
60
0
100
AcDbLine
10
45.118274
20
26.243179
30
0
11
45.124997
21
26.35691
31
0
39
0
210
0
220
0
230
1
0
LINE
5
F0
100
AcDbEntity
8
1
62
256
6
ByLayer
370
13
48
1
60
0
100
AcDbLine
10
47.392881
20
17.180902
30
0
11
47.39989
21
17.199919
31
0
39
0
210
0
220
0
230
1
0
LINE
5
F1
100
AcDbEntity
8
1
62
256
6
ByLayer
370
18
48
1
60
0
100
AcDbLine
10
48.483035
20
15.833786
30
0
11
48.501478
21
16.145788
31
0
39
0
210
0
220
0
230
1
0
LINE
5
F2
100
AcDbEntity
8
1
62
256
6
ByLayer
370
18
48
1
60
0
100
AcDbLine
10
50.26957
20
17.000441
30
0
11
53.569353
21
16.759925
31
0
39
0
210
0
220
0
230
1
0
LINE
5
F3
100
AcDbEntity
8
1
62
256
6
ByLayer
370
18
48
1
60
0
100
AcDbLine
10
46.110606
20
20.505321
30
0
11
46.319267
21
22.178321
31
0
39
0
210
0
220
0
230
1
0
LINE
5
F4
100
AcDbEntity
8
2
62
256
6
ByLayer
370
18
48
1
60
1
100
AcDbLine
10
63.345223
20
27
30
0
11
63.346223
21
27
31
0
39
0
210
0
220
0
230
1
0
LINE
5
F6
100
AcDbEntity
8
2
62
256
6
ByLayer
370
18
48
1
60
1
100
AcDbLine
10
54.65204
20
22.767677
30
0
11
54.651958
21
22.766681
31
0
39
0
210
0
220
0
230
1
0
MTEXT
5
1CE
100
AcDbEntity
8
SK6
62
256
6
ByLayer
370
18
48
1
60
0
100
AcDbMText
10
-14.422135
20
-27.677824
30
0
210
0
220
0
230
1
1
\W0.7258;C4-3-80-LR27055-10C
40
3.5
41
0
44
1.084337
50
0
71
7
72
5
7
iso_b_vert
0
DIMENSION
5
1E0
100
AcDbEntity
8
SK2
62
256
6
ByLayer
370
13
48
1
60
0
100
AcDbDimension
2
DimnDraft3D1
10
55
20
-56.287089
30
0
11
-11.482902
21
-56.287089
31
0
70
32
71
5
72
1
41
1
210
0
220
0
230
1
3
Standard
100
AcDbAlignedDimension
13
-24
23
-1.5875
33
0
14
55
24
-1.5875
34
0
50
0
100
AcDbRotatedDimension
1001
ACAD
1000
DSTYLE
1002
{
1070
   279
1070
     0
1070
   172
1070
     1
1070
   173
1070
     1
1070
   340
1005
1CF
1070
   271
1070
     1
1070
   272
1070
     2
1070
    77
1070
     1
1070
    73
1070
     0
1070
   171
1070
     3
1070
   274
1070
     4
1070
   177
1070
   150
1070
   176
1070
     9
1070
   178
1070
    43
1070
    78
1070
     8
1070
    48
1040
-0.005
1070
    41
1041
3.175
1070
   147
1041
2.25
1070
    42
1041
1.5875
1070
    44
1041
3.175
1070
   140
1041
4.5
1070
   343
1005
1E1
1070
   344
1005
1E1
1002
}
0
DIMENSION
5
1F5
100
AcDbEntity
8
2
62
256
6
ByLayer
370
13
48
1
60
0
100
AcDbDimension
2
DimnDraft3D2
10
0
20
-45.658831
30
0
11
13.988268
21
-45.658831
31
0
70
32
71
5
72
1
41
1
210
0
220
0
230
1
3
Standard
100
AcDbAlignedDimension
13
55
23
25.4125
33
0
14
0
24
-21.5875
34
0
50
0
100
AcDbRotatedDimension
1001
ACAD
1000
DSTYLE
1002
{
1070
   279
1070
     0
1070
   172
1070
     1
1070
   173
1070
     1
1070
   340
1005
1CF
1070
   271
1070
     1
1070
   272
1070
     2
1070
    77
1070
     1
1070
    73
1070
     0
1070
   171
1070
     3
1070
   274
1070
     4
1070
   177
1070
   150
1070
   176
1070
     9
1070
   178
1070
    43
1070
    78
1070
     8
1070
    48
1040
-0.005
1070
    41
1041
3.175
1070
   147
1041
2.25
1070
    42
1041
1.5875
1070
    44
1041
3.175
1070
   140
1041
4.5
1070
   343
1005
1E1
1070
   344
1005
1E1
1002
}
0
DIMENSION
5
203
100
AcDbEntity
8
2
62
256
6
ByLayer
370
13
48
1
60
0
100
AcDbDimension
2
DimnDraft3D3
10
82.886122
20
27
30
0
11
82.886122
21
15.749477
31
0
70
32
71
5
72
1
41
1
210
0
220
0
230
1
3
Standard
100
AcDbAlignedDimension
13
56.5875
23
0
33
0
14
66.5875
24
27
34
0
50
90
100
AcDbRotatedDimension
1001
ACAD
1000
DSTYLE
1002
{
1070
    74
1070
     0
1070
   279
1070
     0
1070
   172
1070
     1
1070
   173
1070
     1
1070
   340
1005
1CF
1070
   271
1070
     1
1070
   272
1070
     2
1070
    77
1070
     1
1070
    73
1070
     0
1070
   171
1070
     3
1070
   274
1070
     4
1070
   177
1070
   150
1070
   176
1070
     9
1070
   178
1070
    43
1070
    78
1070
     8
1070
    48
1040
-0.005
1070
    41
1041
3.175
1070
   147
1041
2.25
1070
    42
1041
1.5875
1070
    44
1041
3.175
1070
   140
1041
4.5
1070
   343
1005
1E1
1070
   344
1005
1E1
1002
}
0
DIMENSION
5
211
100
AcDbEntity
8
SK2
62
256
6
ByLayer
370
13
48
1
60
0
100
AcDbDimension
2
DimnDraft3D4
10
-32.569548
20
-20
30
0
11
-32.569548
21
-0.169491
31
0
70
32
71
5
72
1
41
1
210
0
220
0
230
1
3
Standard
100
AcDbAlignedDimension
13
-1.5875
23
20
33
0
14
-1.5875
24
-20
34
0
50
90
100
AcDbRotatedDimension
1001
ACAD
1000
DSTYLE
1002
{
1070
    74
1070
     0
1070
   279
1070
     0
1070
   172
1070
     1
1070
   173
1070
     1
1070
   340
1005
1CF
1070
   271
1070
     1
1070
   272
1070
     2
1070
    77
1070
     1
1070
    73
1070
     0
1070
   171
1070
     3
1070
   274
1070
     4
1070
   177
1070
   150
1070
   176
1070
     9
1070
   178
1070
    43
1070
    78
1070
     8
1070
    48
1040
-0.005
1070
    41
1041
3.175
1070
   147
1041
2.25
1070
    42
1041
1.5875
1070
    44
1041
3.175
1070
   140
1041
4.5
1070
   343
1005
1E1
1070
   344
1005
1E1
1002
}
0
DIMENSION
5
21F
100
AcDbEntity
8
2
62
256
6
ByLayer
370
13
48
1
60
0
100
AcDbDimension
2
DimnDraft3D5
10
54.651958
20
22.766681
30
0
11
64.977578
21
18.932808
31
0
70
34
71
5
72
1
41
1
210
0
220
0
230
1
3
Standard
100
AcDb2LineAngularDimension
13
63.345223
23
27
33
0
14
63.346223
24
27
34
0
15
54.65204
25
22.767677
35
0
16
66.741989
26
14.253027
36
0
40
0
0
ENDSEC
0
SECTION
2
OBJECTS
0
DICTIONARY
5
289
330
0
100
AcDbDictionary
280
0
281
1
3
ACAD_GROUP
350
28a
3
ACAD_MLINESTYLE
350
28b
0
DICTIONARY
5
28a
330
0
100
AcDbDictionary
280
0
281
1
0
DICTIONARY
5
28b
330
0
100
AcDbDictionary
280
0
281
1
3
Standard
350
18
0
MLINESTYLE
5
18
330
28b
100
AcDbMlineStyle
2
Standard
70
0
3

62
256
51
90
52
90
71
2
49
-0.5
62
256
6
ByLayer
49
0.5
62
256
6
ByLayer
0
RASTERVARIABLES
5
278
330

100
AcDbRasterVariables
90
0
70
1
71
1
72
1
0
ENDSEC
0
EOF
