0
SECTION
2
HEADER
9
$ACADVER
1
AC1015
9
$DWGCODEPAGE
3
ANSI_1252
9
$HANDSEED
5
34f
9
$ANGBASE
50
0
9
$ANGDIR
70
0
9
$ATTMODE
70
1
9
$AUNITS
70
0
9
$AUPREC
70
0
9
$CECOLOR
62
256
9
$CELTSCALE
40
1
9
$CELTYPE
6
ByLayer
9
$CELWEIGHT
370
-1
9
$CLAYER
8
0
9
$CMLJUST
70
0
9
$CMLSCALE
40
1
9
$CMLSTYLE
2
Standard
9
$DIMSTYLE
2
Standard
9
$TEXTSIZE
40
0.2
9
$TEXTSTYLE
7
Standard
9
$LUNITS
70
2
9
$LUPREC
70
4
9
$EXTNAMES
290
1
9
$INSUNITS
70
4
9
$LTSCALE
40
1
9
$LWDISPLAY
290
0
9
$PDMODE
70
0
9
$PDSIZE
40
0
9
$PLINEGEN
70
0
0
ENDSEC
0
SECTION
2
CLASSES
0
CLASS
1
RASTERVARIABLES
2
AcDbRasterVariables
3
ISM
90
0
280
0
281
0
0
ENDSEC
0
SECTION
2
TABLES
0
TABLE
2
VPORT
5
345
100
AcDbSymbolTable
0
VPORT
5
1
100
AcDbSymbolTableRecord
100
AcDbViewportTableRecord
2
*Active
70
0
10
0
20
0
11
1
21
1
12
-1
22
1
13
0
23
0
14
0.5
24
0.5
15
10
25
10
16
0
26
0
36
1
17
0
27
0
37
0
0
ENDTAB
0
TABLE
2
LTYPE
5
346
100
AcDbSymbolTable
0
LTYPE
5
14
100
AcDbSymbolTableRecord
100
AcDbLinetypeTableRecord
70
0
2
ByBlock
3

72
65
73
0
40
0
0
LTYPE
5
15
100
AcDbSymbolTableRecord
100
AcDbLinetypeTableRecord
70
0
2
ByLayer
3

72
65
73
0
40
0
0
LTYPE
5
16
100
AcDbSymbolTableRecord
100
AcDbLinetypeTableRecord
70
0
2
CONTINUOUS
3
Solid line
72
65
73
0
40
0
0
LTYPE
5
3B
100
AcDbSymbolTableRecord
100
AcDbLinetypeTableRecord
70
0
2
DASHED
3
__ __ __ __ __ __ __ __ __
72
65
73
2
40
25.72
49
12.86
74
0
49
-12.86
74
0
0
LTYPE
5
3C
100
AcDbSymbolTableRecord
100
AcDbLinetypeTableRecord
70
0
2
HIDDEN
3
_ _ _ _ _ _ _ _ _ _ _ _ _ _ _
72
65
73
2
40
0.5
49
0.25
74
0
49
-0.25
74
0
0
LTYPE
5
3D
100
AcDbSymbolTableRecord
100
AcDbLinetypeTableRecord
70
0
2
PHANTOM
3
____ _ _ ____ _ _ _____ _ _ ____
72
65
73
6
40
50.5
49
18
74
0
49
-6.5
74
0
49
6.5
74
0
49
-6.5
74
0
49
6.5
74
0
49
-6.5
74
0
0
LTYPE
5
3E
100
AcDbSymbolTableRecord
100
AcDbLinetypeTableRecord
70
0
2
CENTER
3
____ _ ____ _ ____ _ ____
72
65
73
4
40
47.5
49
22
74
0
49
-8.5
74
0
49
8.5
74
0
49
-8.5
74
0
0
LTYPE
5
3F
100
AcDbSymbolTableRecord
100
AcDbLinetypeTableRecord
70
0
2
DOT
3
.........................
72
65
73
2
40
10
49
0
74
0
49
-10
74
0
0
LTYPE
5
40
100
AcDbSymbolTableRecord
100
AcDbLinetypeTableRecord
70
0
2
DASHDOT
3
_._._._._._._._._._._._._._._._.
72
65
73
4
40
70
49
31
74
0
49
-13
74
0
49
13
74
0
49
-13
74
0
0
ENDTAB
0
TABLE
2
LAYER
5
347
100
AcDbSymbolTable
0
LAYER
5
10
100
AcDbSymbolTableRecord
100
AcDbLayerTableRecord
2
0
70
0
62
7
6
CONTINUOUS
290
1
370
-3
390
0
0
LAYER
5
42
100
AcDbSymbolTableRecord
100
AcDbLayerTableRecord
2
1
70
0
62
4
6
CONTINUOUS
290
1
370
-3
390
0
0
LAYER
5
44
100
AcDbSymbolTableRecord
100
AcDbLayerTableRecord
2
80
70
0
62
-6
6
CONTINUOUS
290
1
370
-3
390
0
0
LAYER
5
46
100
AcDbSymbolTableRecord
100
AcDbLayerTableRecord
2
81
70
0
62
-3
6
CONTINUOUS
290
1
370
-3
390
0
0
LAYER
5
48
100
AcDbSymbolTableRecord
100
AcDbLayerTableRecord
2
2
70
0
62
7
6
CONTINUOUS
290
1
370
-3
390
0
0
LAYER
5
4B
100
AcDbSymbolTableRecord
100
AcDbLayerTableRecord
2
4
70
0
62
-2
6
CENTER
290
1
370
-3
390
0
0
LAYER
5
331
100
AcDbSymbolTableRecord
100
AcDbLayerTableRecord
2
SK4
70
0
62
2
6
CENTER
290
1
370
-3
390
0
0
LAYER
5
332
100
AcDbSymbolTableRecord
100
AcDbLayerTableRecord
2
SK1
70
0
62
4
6
CONTINUOUS
290
1
370
-3
390
0
0
LAYER
5
333
100
AcDbSymbolTableRecord
100
AcDbLayerTableRecord
2
SK6
70
0
62
5
6
CONTINUOUS
290
1
370
-3
390
0
0
LAYER
5
334
100
AcDbSymbolTableRecord
100
AcDbLayerTableRecord
2
SK2
70
0
62
7
6
CONTINUOUS
290
1
370
-3
390
0
0
ENDTAB
0
TABLE
2
STYLE
5
348
100
AcDbSymbolTable
0
STYLE
5
11
100
AcDbSymbolTableRecord
100
AcDbTextStyleTableRecord
2
Standard
3
txt
70
0
71
0
40
0
41
1
42
0
50
0
0
STYLE
5
2AD
100
AcDbSymbolTableRecord
100
AcDbTextStyleTableRecord
2
DEFAULT
3
simplex.shx
70
0
71
0
40
0
41
1
42
0
50
0
0
STYLE
5
2D0
100
AcDbSymbolTableRecord
100
AcDbTextStyleTableRecord
2
DWGDirectTextStyle
3
SIMPLEX
70
0
71
0
40
0
41
1
42
0
50
0
0
ENDTAB
0
TABLE
2
DIMSTYLE
5
349
100
AcDbSymbolTable
100
AcDbDimStyleTable
0
DIMSTYLE
105
27
100
AcDbSymbolTableRecord
100
AcDbDimStyleTableRecord
2
Standard
70
0
3
<>
41
0.18
42
0.0625
44
0.18
140
0.18
147
0.09
73
0
74
0
77
1
271
2
275
0
278
52
280
0
340
11
0
ENDTAB
0
TABLE
2
VIEW
5
34a
100
AcDbSymbolTable
0
ENDTAB
0
TABLE
2
UCS
5
34b
100
AcDbSymbolTable
0
ENDTAB
0
TABLE
2
APPID
5
34c
100
AcDbSymbolTable
0
APPID
5
12
100
AcDbSymbolTableRecord
100
AcDbRegAppTableRecord
2
ACAD
70
0
0
ENDTAB
0
TABLE
2
BLOCK_RECORD
5
34d
100
AcDbSymbolTable
0
BLOCK_RECORD
5
1F
100
AcDbSymbolTableRecord
100
AcDbBlockTableRecord
2
*Model_Space
340
0
70
0
0
BLOCK_RECORD
5
1B
100
AcDbSymbolTableRecord
100
AcDbBlockTableRecord
2
*Paper_Space
340
0
70
0
0
BLOCK_RECORD
5
23
100
AcDbSymbolTableRecord
100
AcDbBlockTableRecord
2
*Paper_Space0
340
0
70
0
0
BLOCK_RECORD
5
2D2
100
AcDbSymbolTableRecord
100
AcDbBlockTableRecord
2
DimnDraft3D1
340
0
70
0
0
BLOCK_RECORD
5
2E0
100
AcDbSymbolTableRecord
100
AcDbBlockTableRecord
2
_CLOSED
340
0
70
0
0
BLOCK_RECORD
5
2E7
100
AcDbSymbolTableRecord
100
AcDbBlockTableRecord
2
DimnDraft3D2
340
0
70
0
0
BLOCK_RECORD
5
2F5
100
AcDbSymbolTableRecord
100
AcDbBlockTableRecord
2
DimnDraft3D3
340
0
70
0
0
BLOCK_RECORD
5
304
100
AcDbSymbolTableRecord
100
AcDbBlockTableRecord
2
DimnDraft3D4
340
0
70
0
0
ENDTAB
0
ENDSEC
0
SECTION
2
BLOCKS
0
BLOCK
5
20
100
AcDbEntity
8
0
100
AcDbBlockBegin
2
*Model_Space
70
0
10
0
20
0
30
0
3
*Model_Space
0
ENDBLK
5
21
100
AcDbEntity
8
0
100
AcDbBlockEnd
0
BLOCK
5
1C
100
AcDbEntity
8
0
100
AcDbBlockBegin
2
*Paper_Space
70
0
10
0
20
0
30
0
3
*Paper_Space
0
ENDBLK
5
1D
100
AcDbEntity
8
0
100
AcDbBlockEnd
0
BLOCK
5
24
100
AcDbEntity
8
0
100
AcDbBlockBegin
2
*Paper_Space0
70
0
10
0
20
0
30
0
3
*Paper_Space0
0
ENDBLK
5
25
100
AcDbEntity
8
0
100
AcDbBlockEnd
0
BLOCK
5
2DD
100
AcDbEntity
8
0
100
AcDbBlockBegin
2
DimnDraft3D1
70
0
10
0
20
0
30
0
3
DimnDraft3D1
0
MTEXT
5
2D3
100
AcDbEntity
8
2
62
256
6
ByLayer
370
-1
48
1
60
0
100
AcDbMText
10
39.585799
20
-27
30
0
210
0
220
0
230
1
1
\W01.000;\fsimplex.shx,bigfont.shx;38 
40
4.5
41
0
44
1.084337
50
0
71
7
72
5
7
DEFAULT
0
LINE
5
2D4
100
AcDbEntity
8
2
62
256
6
ByLayer
370
-1
48
1
60
0
100
AcDbLine
10
60
20
-15.375
30
0
11
60
21
-31.125
31
0
39
0
210
0
220
0
230
1
0
LINE
5
2D5
100
AcDbEntity
8
2
62
256
6
ByLayer
370
-1
48
1
60
0
100
AcDbLine
10
22.179492
20
-15.375
30
0
11
22.179492
21
-31.125
31
0
39
0
210
0
220
0
230
1
0
LINE
5
2D6
100
AcDbEntity
8
2
62
256
6
ByLayer
370
-1
48
1
60
0
100
AcDbLine
10
60
20
-28.125
30
0
11
22.179492
21
-28.125
31
0
39
0
210
0
220
0
230
1
0
LINE
5
2D7
100
AcDbEntity
8
2
62
256
6
ByLayer
370
-1
48
1
60
0
100
AcDbLine
10
60
20
-28.125
30
0
11
57.000001
21
-28.519957
31
0
39
0
210
0
220
0
230
1
0
LINE
5
2D8
100
AcDbEntity
8
2
62
256
6
ByLayer
370
-1
48
1
60
0
100
AcDbLine
10
60
20
-28.125
30
0
11
56.999999
21
-27.730043
31
0
39
0
210
0
220
0
230
1
0
LINE
5
2D9
100
AcDbEntity
8
2
62
256
6
ByLayer
370
-1
48
1
60
0
100
AcDbLine
10
57.000001
20
-28.519957
30
0
11
56.999999
21
-27.730043
31
0
39
0
210
0
220
0
230
1
0
LINE
5
2DA
100
AcDbEntity
8
2
62
256
6
ByLayer
370
-1
48
1
60
0
100
AcDbLine
10
22.179492
20
-28.125
30
0
11
25.17949
21
-27.730043
31
0
39
0
210
0
220
0
230
1
0
LINE
5
2DB
100
AcDbEntity
8
2
62
256
6
ByLayer
370
-1
48
1
60
0
100
AcDbLine
10
22.179492
20
-28.125
30
0
11
25.179493
21
-28.519957
31
0
39
0
210
0
220
0
230
1
0
LINE
5
2DC
100
AcDbEntity
8
2
62
256
6
ByLayer
370
-1
48
1
60
0
100
AcDbLine
10
25.17949
20
-27.730043
30
0
11
25.179493
21
-28.519957
31
0
39
0
210
0
220
0
230
1
0
ENDBLK
5
2DE
100
AcDbEntity
8
0
100
AcDbBlockEnd
0
BLOCK
5
2E1
100
AcDbEntity
8
0
100
AcDbBlockBegin
2
_CLOSED
70
0
10
0
20
0
30
0
3
_CLOSED
0
LINE
5
2E3
100
AcDbEntity
8
0
62
256
6
ByLayer
370
-2
48
1
60
0
100
AcDbLine
10
-1
20
0.166667
30
0
11
0
21
0
31
0
39
0
210
0
220
0
230
1
0
LINE
5
2E4
100
AcDbEntity
8
0
62
256
6
ByLayer
370
-2
48
1
60
0
100
AcDbLine
10
0
20
0
30
0
11
-1
21
-0.166667
31
0
39
0
210
0
220
0
230
1
0
LINE
5
2E5
100
AcDbEntity
8
0
62
256
6
ByLayer
370
-2
48
1
60
0
100
AcDbLine
10
-1
20
0.166667
30
0
11
-1
21
-0.166667
31
0
39
0
210
0
220
0
230
1
0
LINE
5
2E6
100
AcDbEntity
8
0
62
256
6
ByLayer
370
-2
48
1
60
0
100
AcDbLine
10
0
20
0
30
0
11
-1
21
0
31
0
39
0
210
0
220
0
230
1
0
ENDBLK
5
2E2
100
AcDbEntity
8
0
100
AcDbBlockEnd
0
BLOCK
5
2F2
100
AcDbEntity
8
0
100
AcDbBlockBegin
2
DimnDraft3D2
70
0
10
0
20
0
30
0
3
DimnDraft3D2
0
MTEXT
5
2E8
100
AcDbEntity
8
2
62
256
6
ByLayer
370
-1
48
1
60
0
100
AcDbMText
10
28.496053
20
-37
30
0
210
0
220
0
230
1
1
\W01.000;\fsimplex.shx,bigfont.shx;60 
40
4.5
41
0
44
1.084337
50
0
71
7
72
5
7
DEFAULT
0
LINE
5
2E9
100
AcDbEntity
8
2
62
256
6
ByLayer
370
-1
48
1
60
0
100
AcDbLine
10
60
20
-15.375
30
0
11
60
21
-41.125
31
0
39
0
210
0
220
0
230
1
0
LINE
5
2EA
100
AcDbEntity
8
2
62
256
6
ByLayer
370
-1
48
1
60
0
100
AcDbLine
10
0
20
-1.501
30
0
11
0
21
-41.125
31
0
39
0
210
0
220
0
230
1
0
LINE
5
2EB
100
AcDbEntity
8
2
62
256
6
ByLayer
370
-1
48
1
60
0
100
AcDbLine
10
60
20
-38.125
30
0
11
0
21
-38.125
31
0
39
0
210
0
220
0
230
1
0
LINE
5
2EC
100
AcDbEntity
8
2
62
256
6
ByLayer
370
-1
48
1
60
0
100
AcDbLine
10
60
20
-38.125
30
0
11
57.000001
21
-38.519957
31
0
39
0
210
0
220
0
230
1
0
LINE
5
2ED
100
AcDbEntity
8
2
62
256
6
ByLayer
370
-1
48
1
60
0
100
AcDbLine
10
60
20
-38.125
30
0
11
56.999999
21
-37.730043
31
0
39
0
210
0
220
0
230
1
0
LINE
5
2EE
100
AcDbEntity
8
2
62
256
6
ByLayer
370
-1
48
1
60
0
100
AcDbLine
10
57.000001
20
-38.519957
30
0
11
56.999999
21
-37.730043
31
0
39
0
210
0
220
0
230
1
0
LINE
5
2EF
100
AcDbEntity
8
2
62
256
6
ByLayer
370
-1
48
1
60
0
100
AcDbLine
10
0
20
-38.125
30
0
11
2.999999
21
-37.730043
31
0
39
0
210
0
220
0
230
1
0
LINE
5
2F0
100
AcDbEntity
8
2
62
256
6
ByLayer
370
-1
48
1
60
0
100
AcDbLine
10
0
20
-38.125
30
0
11
3.000001
21
-38.519957
31
0
39
0
210
0
220
0
230
1
0
LINE
5
2F1
100
AcDbEntity
8
2
62
256
6
ByLayer
370
-1
48
1
60
0
100
AcDbLine
10
2.999999
20
-37.730043
30
0
11
3.000001
21
-38.519957
31
0
39
0
210
0
220
0
230
1
0
ENDBLK
5
2F3
100
AcDbEntity
8
0
100
AcDbBlockEnd
0
BLOCK
5
301
100
AcDbEntity
8
0
100
AcDbBlockBegin
2
DimnDraft3D3
70
0
10
0
20
0
30
0
3
DimnDraft3D3
0
MTEXT
5
2F6
100
AcDbEntity
8
SK2
62
256
6
ByLayer
370
-1
48
1
60
0
100
AcDbMText
10
-34.875
20
-3.896053
30
0
210
0
220
0
230
1
1
\W01.000;\fsimplex.shx,bigfont.shx;%%c40 
40
4.5
41
0
44
1.084337
50
90
71
7
72
5
7
DEFAULT
0
LINE
5
2F8
100
AcDbEntity
8
SK2
62
256
6
ByLayer
370
-1
48
1
60
0
100
AcDbLine
10
-1.5
20
20
30
0
11
-36.75
21
20
31
0
39
0
210
0
220
0
230
1
0
LINE
5
2F9
100
AcDbEntity
8
SK2
62
256
6
ByLayer
370
-1
48
1
60
0
100
AcDbLine
10
-1.5
20
-20
30
0
11
-36.75
21
-20
31
0
39
0
210
0
220
0
230
1
0
LINE
5
2FA
100
AcDbEntity
8
SK2
62
256
6
ByLayer
370
-1
48
1
60
0
100
AcDbLine
10
-33.75
20
20
30
0
11
-33.75
21
-20
31
0
39
0
210
0
220
0
230
1
0
LINE
5
2FB
100
AcDbEntity
8
SK2
62
256
6
ByLayer
370
-1
48
1
60
0
100
AcDbLine
10
-33.75
20
20
30
0
11
-33.355043
21
17.000001
31
0
39
0
210
0
220
0
230
1
0
LINE
5
2FC
100
AcDbEntity
8
SK2
62
256
6
ByLayer
370
-1
48
1
60
0
100
AcDbLine
10
-33.75
20
20
30
0
11
-34.144957
21
16.999999
31
0
39
0
210
0
220
0
230
1
0
LINE
5
2FD
100
AcDbEntity
8
SK2
62
256
6
ByLayer
370
-1
48
1
60
0
100
AcDbLine
10
-33.355043
20
17.000001
30
0
11
-34.144957
21
16.999999
31
0
39
0
210
0
220
0
230
1
0
LINE
5
2FE
100
AcDbEntity
8
SK2
62
256
6
ByLayer
370
-1
48
1
60
0
100
AcDbLine
10
-33.75
20
-20
30
0
11
-34.144957
21
-17.000001
31
0
39
0
210
0
220
0
230
1
0
LINE
5
2FF
100
AcDbEntity
8
SK2
62
256
6
ByLayer
370
-1
48
1
60
0
100
AcDbLine
10
-33.75
20
-20
30
0
11
-33.355043
21
-16.999999
31
0
39
0
210
0
220
0
230
1
0
LINE
5
300
100
AcDbEntity
8
SK2
62
256
6
ByLayer
370
-1
48
1
60
0
100
AcDbLine
10
-34.144957
20
-17.000001
30
0
11
-33.355043
21
-16.999999
31
0
39
0
210
0
220
0
230
1
0
ENDBLK
5
302
100
AcDbEntity
8
0
100
AcDbBlockEnd
0
BLOCK
5
30F
100
AcDbEntity
8
0
100
AcDbBlockBegin
2
DimnDraft3D4
70
0
10
0
20
0
30
0
3
DimnDraft3D4
0
MTEXT
5
305
100
AcDbEntity
8
2
62
256
6
ByLayer
370
-1
48
1
60
0
100
AcDbMText
10
73.125
20
-8.115789
30
0
210
0
220
0
230
1
1
\W01.000;\fsimplex.shx,bigfont.shx;14 
40
4.5
41
0
44
1.084337
50
90
71
7
72
5
7
DEFAULT
0
LINE
5
306
100
AcDbEntity
8
2
62
256
6
ByLayer
370
-1
48
1
60
0
100
AcDbLine
10
66.5
20
0
30
0
11
77.25
21
0
31
0
39
0
210
0
220
0
230
1
0
LINE
5
307
100
AcDbEntity
8
2
62
256
6
ByLayer
370
-1
48
1
60
0
100
AcDbLine
10
61.5
20
-13.875
30
0
11
77.25
21
-13.875
31
0
39
0
210
0
220
0
230
1
0
LINE
5
308
100
AcDbEntity
8
2
62
256
6
ByLayer
370
-1
48
1
60
0
100
AcDbLine
10
74.25
20
0
30
0
11
74.25
21
-13.875
31
0
39
0
210
0
220
0
230
1
0
LINE
5
309
100
AcDbEntity
8
2
62
256
6
ByLayer
370
-1
48
1
60
0
100
AcDbLine
10
74.25
20
0
30
0
11
74.644957
21
-2.999999
31
0
39
0
210
0
220
0
230
1
0
LINE
5
30A
100
AcDbEntity
8
2
62
256
6
ByLayer
370
-1
48
1
60
0
100
AcDbLine
10
74.25
20
0
30
0
11
73.855043
21
-3.000001
31
0
39
0
210
0
220
0
230
1
0
LINE
5
30B
100
AcDbEntity
8
2
62
256
6
ByLayer
370
-1
48
1
60
0
100
AcDbLine
10
74.644957
20
-2.999999
30
0
11
73.855043
21
-3.000001
31
0
39
0
210
0
220
0
230
1
0
LINE
5
30C
100
AcDbEntity
8
2
62
256
6
ByLayer
370
-1
48
1
60
0
100
AcDbLine
10
74.25
20
-13.875
30
0
11
73.855043
21
-10.875001
31
0
39
0
210
0
220
0
230
1
0
LINE
5
30D
100
AcDbEntity
8
2
62
256
6
ByLayer
370
-1
48
1
60
0
100
AcDbLine
10
74.25
20
-13.875
30
0
11
74.644957
21
-10.874999
31
0
39
0
210
0
220
0
230
1
0
LINE
5
30E
100
AcDbEntity
8
2
62
256
6
ByLayer
370
-1
48
1
60
0
100
AcDbLine
10
73.855043
20
-10.875001
30
0
11
74.644957
21
-10.874999
31
0
39
0
210
0
220
0
230
1
0
ENDBLK
5
310
100
AcDbEntity
8
0
100
AcDbBlockEnd
0
ENDSEC
0
SECTION
2
ENTITIES
0
ARC
5
16A
100
AcDbEntity
8
1
62
256
6
ByLayer
370
-1
48
1
60
0
100
AcDbCircle
39
0
10
-23.100284
20
-11.2
30
0
40
1.2
210
0
220
0
230
-1
100
AcDbArc
50
15
51
90
0
ARC
5
16B
100
AcDbEntity
8
1
62
256
6
ByLayer
370
-1
48
1
60
0
100
AcDbCircle
39
0
10
-23.100284
20
11.2
30
0
40
1.2
210
0
220
0
230
-1
100
AcDbArc
50
270
51
345
0
ARC
5
16C
100
AcDbEntity
8
1
62
256
6
ByLayer
370
-1
48
1
60
0
100
AcDbCircle
39
0
10
-43.128099
20
10.8
30
0
40
0.8
210
0
220
0
230
-1
100
AcDbArc
50
260.931278
51
270
0
ARC
5
16D
100
AcDbEntity
8
1
62
256
6
ByLayer
370
-1
48
1
60
0
100
AcDbCircle
39
0
10
-43.128099
20
-10.8
30
0
40
0.8
210
0
220
0
230
-1
100
AcDbArc
50
90
51
135.288168
0
ARC
5
16E
100
AcDbEntity
8
SK1
62
256
6
ByLayer
370
-1
48
1
60
0
100
AcDbCircle
39
0
10
0.6
20
-15
30
0
40
1
210
0
220
0
230
-1
100
AcDbArc
50
113.578178
51
126.869898
0
ARC
5
16F
100
AcDbEntity
8
SK1
62
256
6
ByLayer
370
-1
48
1
60
0
100
AcDbCircle
39
0
10
0.6
20
15
30
0
40
1
210
0
220
0
230
-1
100
AcDbArc
50
233.130102
51
246.421822
0
ELLIPSE
5
170
100
AcDbEntity
8
1
62
256
6
ByLayer
370
-1
48
1
60
0
100
AcDbEllipse
10
52.033669
20
-2.583049
30
0
11
-2.65443259093929
21
-1.29855551933818
31
0
210
0
220
0
230
1
40
0.133258
41
-1.44615652874411
42
-1.16354352650201
0
ELLIPSE
5
171
100
AcDbEntity
8
1
62
256
6
ByLayer
370
-1
48
1
60
0
100
AcDbEllipse
10
48.208384
20
-4.545324
30
0
11
-1.99502603335156
21
-0.140964982352201
31
0
210
0
220
0
230
1
40
0.965764
41
0.699701739960671
42
1.26020625214143
0
ELLIPSE
5
172
100
AcDbEntity
8
1
62
256
6
ByLayer
370
-1
48
1
60
0
100
AcDbEllipse
10
253.568757
20
-0.028877
30
0
11
-592.1381004692
21
-2.5752914422394
31
0
210
0
220
0
230
1
40
0.016268
41
1.20465784515256
42
1.20739304275198
0
ELLIPSE
5
173
100
AcDbEntity
8
1
62
256
6
ByLayer
370
-1
48
1
60
0
100
AcDbEllipse
10
47.591913
20
-13.272908
30
0
11
-1.63784993070282
21
7.5419509845387
31
0
210
0
220
0
230
1
40
0.160744
41
-0.653463957982984
42
-0.242557715250097
0
ELLIPSE
5
174
100
AcDbEntity
8
1
62
256
6
ByLayer
370
-1
48
1
60
0
100
AcDbEllipse
10
46.912332
20
-3.655055
30
0
11
-1.64589647751504
21
-0.116296110440566
31
0
210
0
220
0
230
1
40
0.965764
41
0.630870826953466
42
1.50266288298152
0
ELLIPSE
5
175
100
AcDbEntity
8
1
62
256
6
ByLayer
370
-1
48
1
60
0
100
AcDbEllipse
10
46.912332
20
-3.655055
30
0
11
-1.64589647751504
21
-0.116296110440566
31
0
210
0
220
0
230
1
40
0.965764
41
1.50266288298152
42
1.75781931569006
0
ELLIPSE
5
176
100
AcDbEntity
8
1
62
256
6
ByLayer
370
-1
48
1
60
0
100
AcDbEllipse
10
47.223647
20
-8.061809
30
0
11
-2.24599395895132
21
9.02243402847144
31
0
210
0
220
0
230
1
40
0.041989
41
1.30214364268405
42
1.31708678562296
0
ELLIPSE
5
177
100
AcDbEntity
8
1
62
256
6
ByLayer
370
-1
48
1
60
0
100
AcDbEllipse
10
50.902901
20
0
30
0
11
-11.9603471400389
21
-8.57567726063949
31
0
210
0
220
0
230
1
40
0.430064
41
-1.19964977306986
42
0.301228267968461
0
ELLIPSE
5
178
100
AcDbEntity
8
1
62
256
6
ByLayer
370
-1
48
1
60
0
100
AcDbEllipse
10
47.744664
20
-5.286369
30
0
11
-1.65306217752385
21
-0.107682693209978
31
0
210
0
220
0
230
1
40
0.965788
41
-2.19115544793794
42
-1.05525226572062
0
ELLIPSE
5
179
100
AcDbEntity
8
1
62
256
6
ByLayer
370
-1
48
1
60
0
100
AcDbEllipse
10
50.902901
20
0
30
0
11
-11.9723074871657
21
-8.58425293789128
31
0
210
0
220
0
230
1
40
0.430064
41
-1.85867337372238
42
-1.21321218488548
0
ELLIPSE
5
17A
100
AcDbEntity
8
1
62
256
6
ByLayer
370
-1
48
1
60
0
100
AcDbEllipse
10
46.958593
20
-4.309758
30
0
11
1.64589647751504
21
0.116296110440567
31
0
210
0
220
0
230
1
40
0.965764
41
-2.07470006325478
42
-1.75362471590292
0
ELLIPSE
5
17B
100
AcDbEntity
8
1
62
256
6
ByLayer
370
-1
48
1
60
0
100
AcDbEllipse
10
46.914161
20
-3.680933
30
0
11
1.64589647751504
21
0.116296110440567
31
0
210
0
220
0
230
1
40
0.965764
41
-1.867949140545
42
-1.38386088998124
0
ELLIPSE
5
17C
100
AcDbEntity
8
1
62
256
6
ByLayer
370
-1
48
1
60
0
100
AcDbEllipse
10
48.163952
20
-3.916499
30
0
11
-2.11145701959824
21
-0.149191788242018
31
0
210
0
220
0
230
1
40
0.965764
41
0.627728021228731
42
1.11762307732669
0
ELLIPSE
5
17D
100
AcDbEntity
8
1
62
256
6
ByLayer
370
-1
48
1
60
0
100
AcDbEllipse
10
43.092214
20
-4.408341
30
0
11
-1.4866421542009
21
-1.39329924140376
31
0
210
0
220
0
230
1
40
0.680857
41
-3.13550977846695
42
0.793873753424622
0
ELLIPSE
5
17E
100
AcDbEntity
8
1
62
256
6
ByLayer
370
-1
48
1
60
0
100
AcDbEllipse
10
47.044877
20
-5.530904
30
0
11
-1.64651197074775
21
-0.107256010922532
31
0
210
0
220
0
230
1
40
0.965788
41
-1.50863681175308
42
1.49804507945716
0
ELLIPSE
5
17F
100
AcDbEntity
8
1
62
256
6
ByLayer
370
-1
48
1
60
0
100
AcDbEllipse
10
-0.948929
20
0
30
0
11
-9.36741787978086
21
19.7417491527488
31
0
210
0
220
0
230
1
40
0.341999
41
-2.98886640869144
42
-2.04527312608983
0
ELLIPSE
5
180
100
AcDbEntity
8
1
62
256
6
ByLayer
370
-1
48
1
60
0
100
AcDbEllipse
10
16.948929
20
0
30
0
11
-9.3674178797817
21
-19.7417491527498
31
0
210
0
220
0
230
1
40
0.341999
41
-1.09631952749992
42
-0.152726244898351
0
ELLIPSE
5
181
100
AcDbEntity
8
1
62
256
6
ByLayer
370
-1
48
1
60
0
100
AcDbEllipse
10
-0.948929
20
0
30
0
11
-9.36741787978168
21
-19.7417491527498
31
0
210
0
220
0
230
1
40
0.341999
41
2.04527312608988
42
2.98886640869145
0
ELLIPSE
5
182
100
AcDbEntity
8
1
62
256
6
ByLayer
370
-1
48
1
60
0
100
AcDbEllipse
10
58.094833
20
0.82638
30
0
11
-2.65443259218103
21
-1.29855551983058
31
0
210
0
220
0
230
1
40
0.133258
41
-1.16354352638625
42
-0.880930524257002
0
ELLIPSE
5
183
100
AcDbEntity
8
1
62
256
6
ByLayer
370
-1
48
1
60
0
100
AcDbEllipse
10
16.948929
20
0
30
0
11
-9.36741787978175
21
19.7417491527498
31
0
210
0
220
0
230
1
40
0.341999
41
0.152726244898342
42
1.09631952749991
0
ELLIPSE
5
184
100
AcDbEntity
8
1
62
256
6
ByLayer
370
-1
48
1
60
0
100
AcDbEllipse
10
58.369017
20
-11.843767
30
0
11
-0.000586137705950587
21
0.134584627012834
31
0
210
0
220
0
230
1
40
0.965798
41
-1.03204889671309
42
8.31084806558737E-06
0
ELLIPSE
5
185
100
AcDbEntity
8
1
62
256
6
ByLayer
370
-1
48
1
60
0
100
AcDbEllipse
10
58.542053
20
0.132947
30
0
11
0.126989212138564
21
-0.304587819849098
31
0
210
0
220
0
230
1
40
0.517188
41
1.54493633139593
42
2.14635572770681
0
ELLIPSE
5
186
100
AcDbEntity
8
1
62
256
6
ByLayer
370
-1
48
1
60
0
100
AcDbEllipse
10
50.049373
20
-8.365898
30
0
11
-0.152300321246183
21
0.0888973533459707
31
0
210
0
220
0
230
1
40
0.184283
41
0.751981040695718
42
1.69445883677954
0
ELLIPSE
5
187
100
AcDbEntity
8
1
62
256
6
ByLayer
370
-1
48
1
60
0
100
AcDbEllipse
10
48.171429
20
-6.207093
30
0
11
0.126714333577781
21
0.304702277093459
31
0
210
0
220
0
230
1
40
0.542683
41
1.00999969353908
42
1.61141908984989
0
ELLIPSE
5
188
100
AcDbEntity
8
1
62
256
6
ByLayer
370
-1
48
1
60
0
100
AcDbEllipse
10
59.764296
20
-10.030832
30
0
11
-0.17567740821477
21
0.267464854220028
31
0
210
0
220
0
230
1
40
0.203761
41
-1.3926853202012
42
-0.402079994214023
0
ELLIPSE
5
189
100
AcDbEntity
8
1
62
256
6
ByLayer
370
-1
48
1
60
0
100
AcDbEllipse
10
60.036153
20
-2.5999
30
0
11
-0.140714193059587
21
0.239169976844665
31
0
210
0
220
0
230
1
40
0.063581
41
0.753835096787619
42
1.18041021222932
0
ELLIPSE
5
18A
100
AcDbEntity
8
1
62
256
6
ByLayer
370
-1
48
1
60
0
100
AcDbEllipse
10
58.999689
20
-11.688877
30
0
11
-0.329991143274648
21
-0.00241771799247272
31
0
210
0
220
0
230
1
40
0.178986
41
1.25353512295926
42
1.85495451927008
0
ELLIPSE
5
18B
100
AcDbEntity
8
1
62
256
6
ByLayer
370
-1
48
1
60
0
100
AcDbEllipse
10
59.764296
20
-10.030832
30
0
11
-0.101161855390477
21
-0.303588996859169
31
0
210
0
220
0
230
1
40
0.015437
41
-1.84125864988287
42
-1.56561488893601
0
ELLIPSE
5
18C
100
AcDbEntity
8
1
62
256
6
ByLayer
370
-1
48
1
60
0
100
AcDbEllipse
10
55.219312
20
-5.638373
30
0
11
-2.91486949082832
21
-0.189883894622179
31
0
210
0
220
0
230
1
40
0.965789
41
-0.440509960029923
42
-3.14832315605616E-16
0
ELLIPSE
5
18D
100
AcDbEntity
8
1
62
256
6
ByLayer
370
-1
48
1
60
0
100
AcDbEllipse
10
55.219312
20
-5.638373
30
0
11
-2.91486949082832
21
-0.189883894622179
31
0
210
0
220
0
230
1
40
0.965789
41
0
42
0.591306881925019
0
ELLIPSE
5
18E
100
AcDbEntity
8
1
62
256
6
ByLayer
370
-1
48
1
60
0
100
AcDbEllipse
10
55.219312
20
-5.638373
30
0
11
-2.91486949082832
21
-0.189883894622179
31
0
210
0
220
0
230
1
40
0.965789
41
2.57777504098302
42
-2.7010821935385
0
ELLIPSE
5
18F
100
AcDbEntity
8
1
62
256
6
ByLayer
370
-1
48
1
60
0
100
AcDbEllipse
10
53.96874
20
-9.963365
30
0
11
0.125722164389597
21
-0.0818164859988196
31
0
210
0
220
0
230
1
40
0.210253
41
-2.12740956439766
42
-1.41488498587117
0
ELLIPSE
5
190
100
AcDbEntity
8
1
62
256
6
ByLayer
370
-1
48
1
60
0
100
AcDbEllipse
10
59.999831
20
-6.465493
30
0
11
-0.000592402743440755
21
0.165729210714654
31
0
210
0
220
0
230
1
40
0.014833
41
-1.80726703645787
42
-1.10168084670213
0
ELLIPSE
5
191
100
AcDbEntity
8
1
62
256
6
ByLayer
370
-1
48
1
60
0
100
AcDbEllipse
10
49.189619
20
-7.549209
30
0
11
0.3187160302586
21
0.0286372494524014
31
0
210
0
220
0
230
1
40
0.189541
41
0.623798962615122
42
1.61440428860229
0
ELLIPSE
5
192
100
AcDbEntity
8
1
62
256
6
ByLayer
370
-1
48
1
60
0
100
AcDbEllipse
10
59.256343
20
0.531307
30
0
11
-0.0842609164766307
21
0.0290942334844663
31
0
210
0
220
0
230
1
40
0.911082
41
2.93566766428862
42
-2.31546043533501
0
ELLIPSE
5
193
100
AcDbEntity
8
1
62
256
6
ByLayer
370
-1
48
1
60
0
100
AcDbEllipse
10
59.742559
20
-10.859672
30
0
11
-0.00112718794824361
21
0.258816590417354
31
0
210
0
220
0
230
1
40
0.965798
41
-2.1095271353725
42
-1.57078801615616
0
ELLIPSE
5
194
100
AcDbEntity
8
1
62
256
6
ByLayer
370
-1
48
1
60
0
100
AcDbEllipse
10
56.810296
20
-11.601735
30
0
11
-0.704940313664184
21
-0.022535479091576
31
0
210
0
220
0
230
1
40
0.11846
41
-1.49267477965955
42
-0.6297411337101
0
ELLIPSE
5
195
100
AcDbEntity
8
1
62
256
6
ByLayer
370
-1
48
1
60
0
100
AcDbEllipse
10
48.721586
20
-6.414338
30
0
11
0.21413543481211
21
0.13764452607288
31
0
210
0
220
0
230
1
40
0.895737
41
-1.61758975637608
42
-0.509329721976609
0
ELLIPSE
5
196
100
AcDbEntity
8
1
62
256
6
ByLayer
370
-1
48
1
60
0
100
AcDbEllipse
10
49.214334
20
-7.824273
30
0
11
-0.336670865985399
21
0.199900719031215
31
0
210
0
220
0
230
1
40
0.176549
41
-2.39098586531933
42
-1.4003805393285
0
ELLIPSE
5
197
100
AcDbEntity
8
1
62
256
6
ByLayer
370
-1
48
1
60
0
100
AcDbEllipse
10
52.701173
20
-3.343613
30
0
11
0.035725991807145
21
-0.145683401626252
31
0
210
0
220
0
230
1
40
0.046814
41
-1.487119247918
42
-1.31258632271843
0
ELLIPSE
5
198
100
AcDbEntity
8
1
62
256
6
ByLayer
370
-1
48
1
60
0
100
AcDbEllipse
10
59.764296
20
-10.030832
30
0
11
0.150248298124003
21
-0.282533978329759
31
0
210
0
220
0
230
1
40
0.014394
41
-2.74837435944359
42
-1.57841055121133
0
ELLIPSE
5
199
100
AcDbEntity
8
1
62
256
6
ByLayer
370
-1
48
1
60
0
100
AcDbEllipse
10
48.767483
20
-6.160105
30
0
11
-0.329968661514939
21
-0.00454779265573831
31
0
210
0
220
0
230
1
40
0.388155
41
-2.21437408675448
42
-1.33335276074513
0
ELLIPSE
5
19A
100
AcDbEntity
8
1
62
256
6
ByLayer
370
-1
48
1
60
0
100
AcDbEllipse
10
49.373711
20
-4.448863
30
0
11
-0.352030382745728
21
-0.578101923555536
31
0
210
0
220
0
230
1
40
0.071322
41
-2.60919099825694
42
-1.7462573523391
0
ELLIPSE
5
19B
100
AcDbEntity
8
1
62
256
6
ByLayer
370
-1
48
1
60
0
100
AcDbEllipse
10
58.248392
20
-0.337698
30
0
11
-0.206260449892315
21
-0.257597800476285
31
0
210
0
220
0
230
1
40
0.301789
41
1.21123745370848
42
2.0276870397459
0
ELLIPSE
5
19C
100
AcDbEntity
8
1
62
256
6
ByLayer
370
-1
48
1
60
0
100
AcDbEllipse
10
57.978758
20
-0.079157
30
0
11
0.222782340523564
21
-0.123158551269662
31
0
210
0
220
0
230
1
40
0.903036
41
-2.69625135559558
42
-1.58799132119608
0
ELLIPSE
5
19D
100
AcDbEntity
8
1
62
256
6
ByLayer
370
-1
48
1
60
0
100
AcDbEllipse
10
56.489111
20
0.17529
30
0
11
-0.335804858935908
21
-0.201414936974862
31
0
210
0
220
0
230
1
40
0.189826
41
-1.71815547221026
42
-0.727550146214635
0
ELLIPSE
5
19E
100
AcDbEntity
8
1
62
256
6
ByLayer
370
-1
48
1
60
0
100
AcDbEllipse
10
59.189814
20
1.55257
30
0
11
-0.0878138722405286
21
-0.00572047569037049
31
0
210
0
220
0
230
1
40
0.965789
41
3.14157919444843
42
-2.68082561138855
0
ELLIPSE
5
19F
100
AcDbEntity
8
1
62
256
6
ByLayer
370
-1
48
1
60
0
100
AcDbEllipse
10
58.542053
20
0.132947
30
0
11
0.0228891020462361
21
0.329205238426604
31
0
210
0
220
0
230
1
40
0.196789
41
-1.17075955002685
42
-0.821693699627965
0
ELLIPSE
5
1A0
100
AcDbEntity
8
1
62
256
6
ByLayer
370
-1
48
1
60
0
100
AcDbEllipse
10
58.991235
20
-10.534955
30
0
11
-0.0080417580965964
21
1.84310051255283
31
0
210
0
220
0
230
1
40
0.179021
41
2.84088306244119
42
-2.84088284843208
0
ELLIPSE
5
1A1
100
AcDbEntity
8
1
62
256
6
ByLayer
370
-1
48
1
60
0
100
AcDbEllipse
10
58.996539
20
-10.966991
30
0
11
-0.174886668864493
21
0.279847553238332
31
0
210
0
220
0
230
1
40
0.013828
41
0.681175433581791
42
1.56219675959257
0
ELLIPSE
5
1A2
100
AcDbEntity
8
1
62
256
6
ByLayer
370
-1
48
1
60
0
100
AcDbEllipse
10
54.182088
20
-9.348803
30
0
11
0.105854520827013
21
0.106277092642222
31
0
210
0
220
0
230
1
40
0.19749
41
-1.91763486850124
42
-1.74310194330168
0
ELLIPSE
5
1A3
100
AcDbEntity
8
1
62
256
6
ByLayer
370
-1
48
1
60
0
100
AcDbEllipse
10
56.742971
20
0.067014
30
0
11
0.176329317764093
21
0.267035525158825
31
0
210
0
220
0
230
1
40
0.03732
41
1.12825396992071
42
2.29821777815336
0
ELLIPSE
5
1A4
100
AcDbEntity
8
1
62
256
6
ByLayer
370
-1
48
1
60
0
100
AcDbEllipse
10
58.690335
20
-11.158349
30
0
11
-0.175765810909962
21
0.279296222164145
31
0
210
0
220
0
230
1
40
0.354829
41
0.734708662349439
42
1.55115824838676
0
ELLIPSE
5
1A5
100
AcDbEntity
8
1
62
256
6
ByLayer
370
-1
48
1
60
0
100
AcDbEllipse
10
59.999831
20
-9.036648
30
0
11
-0.000560354040785566
21
0.175204025599044
31
0
210
0
220
0
230
1
40
0.014074
41
-2.73672801781775
42
-1.79425022181056
0
ELLIPSE
5
1A6
100
AcDbEntity
8
1
62
256
6
ByLayer
370
-1
48
1
60
0
100
AcDbEllipse
10
59.254304
20
0.534709
30
0
11
-0.0842609164766893
21
0.0290942334843056
31
0
210
0
220
0
230
1
40
0.911082
41
-2.31546043532804
42
-1.28340322777739
0
ELLIPSE
5
1A7
100
AcDbEntity
8
1
62
256
6
ByLayer
370
-1
48
1
60
0
100
AcDbEllipse
10
59.752396
20
-2.643896
30
0
11
0.249471227956047
21
0.0162513513930982
31
0
210
0
220
0
230
1
40
0.965789
41
-0.0628317333971038
42
0.0333040443271813
0
ELLIPSE
5
1A8
100
AcDbEntity
8
1
62
256
6
ByLayer
370
-1
48
1
60
0
100
AcDbEllipse
10
55.94343
20
-11.386207
30
0
11
0.249471227956047
21
0.0162513513930982
31
0
210
0
220
0
230
1
40
0.965789
41
-2.1572268357903
42
-2.06109105806602
0
ELLIPSE
5
1A9
100
AcDbEntity
8
1
62
256
6
ByLayer
370
-1
48
1
60
0
100
AcDbEllipse
10
59.994457
20
-10.107527
30
0
11
-0.00147399345829387
21
0.337784705768849
31
0
210
0
220
0
230
1
40
0.015426
41
1.29511890620689
42
1.57076266568867
0
ELLIPSE
5
1AA
100
AcDbEntity
8
1
62
256
6
ByLayer
370
-1
48
1
60
0
100
AcDbEllipse
10
48.767483
20
-6.160105
30
0
11
-0.0259338634078629
21
0.328979383440273
31
0
210
0
220
0
230
1
40
0.228524
41
0.819228148582205
42
1.16829399898107
0
ELLIPSE
5
1AB
100
AcDbEntity
8
1
62
256
6
ByLayer
370
-1
48
1
60
0
100
AcDbEllipse
10
56.742971
20
0.067014
30
0
11
0.312377620717914
21
0.0694278191693723
31
0
210
0
220
0
230
1
40
0.335766
41
1.28237066486826
42
1.55801442581498
0
ELLIPSE
5
1AC
100
AcDbEntity
8
1
62
256
6
ByLayer
370
-1
48
1
60
0
100
AcDbEllipse
10
48.621691
20
-4.175216
30
0
11
-0.179619284128354
21
-0.0117009730030305
31
0
210
0
220
0
230
1
40
0.965789
41
-0.586430508995381
42
-9.08050322591035E-07
0
ELLIPSE
5
1AD
100
AcDbEntity
8
1
62
256
6
ByLayer
370
-1
48
1
60
0
100
AcDbEllipse
10
58.292036
20
-0.25875
30
0
11
0.222782340523564
21
-0.123158551269662
31
0
210
0
220
0
230
1
40
0.903036
41
-1.58799132119611
42
-1.28317267091923
0
ELLIPSE
5
1AE
100
AcDbEntity
8
1
62
256
6
ByLayer
370
-1
48
1
60
0
100
AcDbEllipse
10
57.97502
20
-0.278345
30
0
11
-0.0059581194250786
21
-0.890176669385628
31
0
210
0
220
0
230
1
40
0.362985
41
3.1187990034149
42
-2.34793671772178
0
ELLIPSE
5
1AF
100
AcDbEntity
8
1
62
256
6
ByLayer
370
-1
48
1
60
0
100
AcDbEllipse
10
55.240537
20
-5.964191
30
0
11
3.07390048262852
21
0.200243680603566
31
0
210
0
220
0
230
1
40
0.965789
41
0
42
6.28318530717959
0
ELLIPSE
5
1B0
100
AcDbEntity
8
1
62
256
6
ByLayer
370
-1
48
1
60
0
100
AcDbEllipse
10
58.999689
20
-11.688877
30
0
11
0.286515006649986
21
-0.16373500225779
31
0
210
0
220
0
230
1
40
0.008111
41
-1.58491693353029
42
-1.23585108313155
0
ELLIPSE
5
1B1
100
AcDbEntity
8
1
62
256
6
ByLayer
370
-1
48
1
60
0
100
AcDbEllipse
10
49.081064
20
-6.585376
30
0
11
-1.53630689170805
21
0.724448865239522
31
0
210
0
220
0
230
1
40
0.188839
41
-0.31906341221718
42
0.282355984095327
0
ELLIPSE
5
1B2
100
AcDbEntity
8
1
62
256
6
ByLayer
370
-1
48
1
60
0
100
AcDbEllipse
10
57.184428
20
-11.717999
30
0
11
-0.000811575274784767
21
0.1863479450958
31
0
210
0
220
0
230
1
40
0.965798
41
2.19805264588452
42
-3.14158434268838
0
ELLIPSE
5
1B3
100
AcDbEntity
8
1
62
256
6
ByLayer
370
-1
48
1
60
0
100
AcDbEllipse
10
56.693385
20
0.290117
30
0
11
-0.289207306155445
21
-0.169862172728667
31
0
210
0
220
0
230
1
40
0.223196
41
-1.93117354625544
42
-1.65552978486468
0
ELLIPSE
5
1B4
100
AcDbEntity
8
1
62
256
6
ByLayer
370
-1
48
1
60
0
100
AcDbEllipse
10
47.459289
20
-5.811547
30
0
11
-0.0813309789040333
21
-0.0359658912307576
31
0
210
0
220
0
230
1
40
0.908072
41
-1.93977784765805
42
-0.907720640095038
0
ELLIPSE
5
1B5
100
AcDbEntity
8
1
62
256
6
ByLayer
370
-1
48
1
60
0
100
AcDbEllipse
10
47.392761
20
-4.790283
30
0
11
-0.0878138722405286
21
-0.00572047569037049
31
0
210
0
220
0
230
1
40
0.965789
41
-1.61848771655683
42
-0.586430508995445
0
ELLIPSE
5
1B6
100
AcDbEntity
8
1
62
256
6
ByLayer
370
-1
48
1
60
0
100
AcDbEllipse
10
58.686922
20
-11.158392
30
0
11
1.55866942272947E-17
21
0.254558441227155
31
0
210
0
220
0
230
1
40
0.999867
41
0.558493593836917
42
0.863312072454472
0
ELLIPSE
5
1B7
100
AcDbEntity
8
1
62
256
6
ByLayer
370
-1
48
1
60
0
100
AcDbEllipse
10
59.487527
20
-4.952518
30
0
11
0.00498680642490488
21
0.149917082954814
31
0
210
0
220
0
230
1
40
0.026344
41
-2.54435398120243
42
-1.83182940267597
0
ELLIPSE
5
1B8
100
AcDbEntity
8
1
62
256
6
ByLayer
370
-1
48
1
60
0
100
AcDbEllipse
10
48.430314
20
-5.336951
30
0
11
-0.120148037014922
21
-0.053131430230222
31
0
210
0
220
0
230
1
40
0.908072
41
2.23387201346401
42
-3.10576497510034
0
ELLIPSE
5
1B9
100
AcDbEntity
8
1
62
256
6
ByLayer
370
-1
48
1
60
0
100
AcDbEllipse
10
48.433217
20
-7.084554
30
0
11
-0.23105391734226
21
-0.102175827404507
31
0
210
0
220
0
230
1
40
0.908072
41
0.124336567317969
42
0.663075686529596
0
ELLIPSE
5
1BA
100
AcDbEntity
8
1
62
256
6
ByLayer
370
-1
48
1
60
0
100
AcDbEllipse
10
58.248392
20
-0.337698
30
0
11
0.164123276904414
21
0.28629276969242
31
0
210
0
220
0
230
1
40
0.007386
41
1.12684352002935
42
2.00786484604021
0
ELLIPSE
5
1BB
100
AcDbEntity
8
1
62
256
6
ByLayer
370
-1
48
1
60
0
100
AcDbEllipse
10
48.772069
20
-6.492875
30
0
11
0.329968661514939
21
0.00454779265573824
31
0
210
0
220
0
230
1
40
0.388155
41
0.927218566835285
42
1.80823989284468
0
ELLIPSE
5
1BC
100
AcDbEntity
8
1
62
256
6
ByLayer
370
-1
48
1
60
0
100
AcDbEllipse
10
58.542053
20
0.132947
30
0
11
0.279970847001598
21
-0.17468922356347
31
0
210
0
220
0
230
1
40
0.429075
41
1.24442079787159
42
1.59348664827045
0
ELLIPSE
5
1BD
100
AcDbEntity
8
1
62
256
6
ByLayer
370
-1
48
1
60
0
100
AcDbEllipse
10
57.941358
20
0.174713
30
0
11
0.329092877421673
21
0.0244515445386047
31
0
210
0
220
0
230
1
40
0.673036
41
1.32836245256556
42
2.14481203860296
0
ELLIPSE
5
1BE
100
AcDbEntity
8
1
62
256
6
ByLayer
370
-1
48
1
60
0
100
AcDbEllipse
10
59.304402
20
-11.155669
30
0
11
-0.171567193481957
21
-0.281894835214703
31
0
210
0
220
0
230
1
40
0.328804
41
1.57219616046271
42
2.38864574650007
0
ELLIPSE
5
1BF
100
AcDbEntity
8
1
62
256
6
ByLayer
370
-1
48
1
60
0
100
AcDbEllipse
10
48.171429
20
-6.207093
30
0
11
-0.0259338634078629
21
0.328979383440273
31
0
210
0
220
0
230
1
40
0.228524
41
0.819228148582324
42
1.16829399898119
0
ELLIPSE
5
1C0
100
AcDbEntity
8
1
62
256
6
ByLayer
370
-1
48
1
60
0
100
AcDbEllipse
10
57.941358
20
0.174713
30
0
11
0.0228891020462361
21
0.329205238426604
31
0
210
0
220
0
230
1
40
0.196789
41
-1.1707595500269
42
-0.821693699627932
0
ELLIPSE
5
1C1
100
AcDbEntity
8
1
62
256
6
ByLayer
370
-1
48
1
60
0
100
AcDbEllipse
10
47.45725
20
-5.814967
30
0
11
-0.0813309789066883
21
-0.0359658912285509
31
0
210
0
220
0
230
1
40
0.908072
41
-0.907720640056526
42
0.124336567495854
0
ELLIPSE
5
1C2
100
AcDbEntity
8
1
62
256
6
ByLayer
370
-1
48
1
60
0
100
AcDbEllipse
10
59.509494
20
-1.291528
30
0
11
-0.172351874611767
21
0.0595109321264604
31
0
210
0
220
0
230
1
40
0.911082
41
3.02417655323451
42
-2.31546043534021
0
ELLIPSE
5
1C3
100
AcDbEntity
8
1
62
256
6
ByLayer
370
-1
48
1
60
0
100
AcDbEllipse
10
53.745755
20
-8.914205
30
0
11
0.105854520827013
21
0.106277092642222
31
0
210
0
220
0
230
1
40
0.19749
41
-1.91763486850108
42
-1.74310194330159
0
ELLIPSE
5
1C4
100
AcDbEntity
8
1
62
256
6
ByLayer
370
-1
48
1
60
0
100
AcDbEllipse
10
59.999831
20
-4.969559
30
0
11
-0.000654095719410222
21
0.150104692615929
31
0
210
0
220
0
230
1
40
0.016273
41
-2.54496627483022
42
-1.83244169684881
0
ELLIPSE
5
1C5
100
AcDbEntity
8
1
62
256
6
ByLayer
370
-1
48
1
60
0
100
AcDbEllipse
10
48.244599
20
-4.56351
30
0
11
0.129725038537144
21
0.00845070272441104
31
0
210
0
220
0
230
1
40
0.965789
41
-1.61848771655673
42
-0.586430508995364
0
ELLIPSE
5
1C6
100
AcDbEntity
8
1
62
256
6
ByLayer
370
-1
48
1
60
0
100
AcDbEllipse
10
58.808867
20
-10.854076
30
0
11
-0.822902478275194
21
0.504346294683893
31
0
210
0
220
0
230
1
40
0.3419
41
-3.13110594625812
42
-2.31465636021937
0
ELLIPSE
5
1C7
100
AcDbEntity
8
1
62
256
6
ByLayer
370
-1
48
1
60
0
100
AcDbEllipse
10
48.171429
20
-6.207093
30
0
11
-0.280790684040501
21
-0.173368370114238
31
0
210
0
220
0
230
1
40
0.444526
41
-1.56272537110594
42
-1.2136595207071
0
ELLIPSE
5
1C8
100
AcDbEntity
8
1
62
256
6
ByLayer
370
-1
48
1
60
0
100
AcDbEllipse
10
58.997706
20
-12.485339
30
0
11
-0.000396770132952378
21
0.0911034398249352
31
0
210
0
220
0
230
1
40
0.965798
41
2.10954375695043
42
-3.14158434267355
0
ELLIPSE
5
1C9
100
AcDbEntity
8
1
62
256
6
ByLayer
370
-1
48
1
60
0
100
AcDbEllipse
10
57.935114
20
-0.158105
30
0
11
0.329941928492634
21
-0.00619062376193299
31
0
210
0
220
0
230
1
40
0.387666
41
1.36868361796239
42
2.24970494397176
0
ELLIPSE
5
1CA
100
AcDbEntity
8
1
62
256
6
ByLayer
370
-1
48
1
60
0
100
AcDbEllipse
10
56.742971
20
0.067014
30
0
11
-0.125543597399465
21
-0.294344704644064
31
0
210
0
220
0
230
1
40
0.19293
41
-1.85493786330971
42
-0.864332537322551
0
ELLIPSE
5
1CB
100
AcDbEntity
8
1
62
256
6
ByLayer
370
-1
48
1
60
0
100
AcDbEllipse
10
53.129793
20
-9.131521
30
0
11
0.0824075344049228
21
-0.125335542737491
31
0
210
0
220
0
230
1
40
0.131471
41
-1.34334808187604
42
-0.637761892177725
0
ELLIPSE
5
1CC
100
AcDbEntity
8
1
62
256
6
ByLayer
370
-1
48
1
60
0
100
AcDbEllipse
10
58.690335
20
-11.158349
30
0
11
-0.285075263893938
21
-0.166229040530834
31
0
210
0
220
0
230
1
40
0.008173
41
-1.55671124383619
42
-1.20764539343681
0
ELLIPSE
5
1CD
100
AcDbEntity
8
1
62
256
6
ByLayer
370
-1
48
1
60
0
100
AcDbEllipse
10
58.993126
20
-10.967034
30
0
11
1.55866942272947E-17
21
0.254558441227155
31
0
210
0
220
0
230
1
40
0.999867
41
-0.549766437173573
42
0.558493593836917
0
ELLIPSE
5
1CE
100
AcDbEntity
8
1
62
256
6
ByLayer
370
-1
48
1
60
0
100
AcDbEllipse
10
59.446349
20
-0.322189
30
0
11
-0.179619284128354
21
-0.0117009730030305
31
0
210
0
220
0
230
1
40
0.965789
41
3.14158154768317
42
-2.68082561138861
0
ELLIPSE
5
1CF
100
AcDbEntity
8
1
62
256
6
ByLayer
370
-1
48
1
60
0
100
AcDbEllipse
10
49.189619
20
-7.549209
30
0
11
-0.214373568568197
21
0.237579403777635
31
0
210
0
220
0
230
1
40
0.080191
41
-1.39228185157714
42
-1.11663809063039
0
ELLIPSE
5
1D0
100
AcDbEntity
8
1
62
256
6
ByLayer
370
-1
48
1
60
0
100
AcDbEllipse
10
57.985002
20
0.253661
30
0
11
0.222782340523564
21
-0.123158551269662
31
0
210
0
220
0
230
1
40
0.903036
41
-3.00107000587249
42
-2.69625135559557
0
ELLIPSE
5
1D1
100
AcDbEntity
8
1
62
256
6
ByLayer
370
-1
48
1
60
0
100
AcDbEllipse
10
49.189619
20
-7.549209
30
0
11
-0.319437373112233
21
0.0189674631713374
31
0
210
0
220
0
230
1
40
0.372092
41
-2.47552078441327
42
-1.30555697618072
0
ELLIPSE
5
1D2
100
AcDbEntity
8
1
62
256
6
ByLayer
370
-1
48
1
60
0
100
AcDbEllipse
10
59.187776
20
1.555973
30
0
11
-0.0878138722405257
21
-0.0057204756903703
31
0
210
0
220
0
230
1
40
0.965789
41
-2.68082561138859
42
-1.64876840382723
0
ELLIPSE
5
1D3
100
AcDbEntity
8
1
62
256
6
ByLayer
370
-1
48
1
60
0
100
AcDbEllipse
10
57.935114
20
-0.158105
30
0
11
-0.164123276904414
21
-0.28629276969242
31
0
210
0
220
0
230
1
40
0.007386
41
-2.01474913355793
42
-1.13372780755079
0
ELLIPSE
5
1D4
100
AcDbEntity
8
1
62
256
6
ByLayer
370
-1
48
1
60
0
100
AcDbEllipse
10
50.025785
20
-3.862471
30
0
11
0.249471227956047
21
0.0162513513930982
31
0
210
0
220
0
230
1
40
0.965789
41
2.03156336899611
42
2.12769914672041
0
ELLIPSE
5
1D5
100
AcDbEntity
8
1
62
256
6
ByLayer
370
-1
48
1
60
0
100
AcDbEllipse
10
59.68311
20
-1.580301
30
0
11
0.249471227956047
21
0.0162513513930982
31
0
210
0
220
0
230
1
40
0.965789
41
1.31917323095159E-06
42
0.460767042201203
0
ELLIPSE
5
1D6
100
AcDbEntity
8
1
62
256
6
ByLayer
370
-1
48
1
60
0
100
AcDbEllipse
10
59.994457
20
-9.879656
30
0
11
-0.000910734195386321
21
0.382239909271849
31
0
210
0
220
0
230
1
40
0.013965
41
0.411204772704633
42
1.40181009871103
0
ELLIPSE
5
1D7
100
AcDbEntity
8
1
62
256
6
ByLayer
370
-1
48
1
60
0
100
AcDbEllipse
10
48.460449
20
-6.675195
30
0
11
0.166646788342777
21
-0.284831262215083
31
0
210
0
220
0
230
1
40
0.020796
41
-2.03107132206088
42
-1.1500499960518
0
ELLIPSE
5
1D8
100
AcDbEntity
8
1
62
256
6
ByLayer
370
-1
48
1
60
0
100
AcDbEllipse
10
57.941358
20
0.174713
30
0
11
-0.329941928492634
21
0.0061906237619328
31
0
210
0
220
0
230
1
40
0.387666
41
-1.77290903562738
42
-0.89188770961801
0
ELLIPSE
5
1D9
100
AcDbEntity
8
1
62
256
6
ByLayer
370
-1
48
1
60
0
100
AcDbEllipse
10
58.125021
20
-11.844831
30
0
11
-0.000586137715918482
21
0.13458462701424
31
0
210
0
220
0
230
1
40
0.965798
41
8.3107766601677E-06
42
0.94355662938075
0
ELLIPSE
5
1DA
100
AcDbEntity
8
1
62
256
6
ByLayer
370
-1
48
1
60
0
100
AcDbEllipse
10
59.027571
20
-0.250731
30
0
11
-0.124476353883914
21
0.0429801176494703
31
0
210
0
220
0
230
1
40
0.911082
41
-0.205924989285137
42
0.826132218276421
0
ELLIPSE
5
1DB
100
AcDbEntity
8
1
62
256
6
ByLayer
370
-1
48
1
60
0
100
AcDbEllipse
10
53.310641
20
-3.194153
30
0
11
0.035725991807145
21
-0.145683401626252
31
0
210
0
220
0
230
1
40
0.046814
41
-1.48711924791791
42
-1.31258632271819
0
ELLIPSE
5
1DC
100
AcDbEntity
8
1
62
256
6
ByLayer
370
-1
48
1
60
0
100
AcDbEllipse
10
53.426218
20
-2.570999
30
0
11
-0.149596176921153
21
-0.0109992659107356
31
0
210
0
220
0
230
1
40
0.259322
41
0.863046553738765
42
1.5686327434371
0
ELLIPSE
5
1DD
100
AcDbEntity
8
1
62
256
6
ByLayer
370
-1
48
1
60
0
100
AcDbEllipse
10
48.717
20
-6.081568
30
0
11
0.21413543481211
21
0.13764452607288
31
0
210
0
220
0
230
1
40
0.895737
41
-0.509329721976609
42
-0.204511071699715
0
ELLIPSE
5
1DE
100
AcDbEntity
8
1
62
256
6
ByLayer
370
-1
48
1
60
0
100
AcDbEllipse
10
59.121918
20
0.219256
30
0
11
-0.179619284128354
21
-0.0117009730030305
31
0
210
0
220
0
230
1
40
0.965789
41
-2.68082561138853
42
-2.3903458776874
0
ELLIPSE
5
1DF
100
AcDbEntity
8
1
62
256
6
ByLayer
370
-1
48
1
60
0
100
AcDbEllipse
10
48.460449
20
-6.675195
30
0
11
-0.210233595088772
21
0.254365554853739
31
0
210
0
220
0
230
1
40
0.325777
41
1.09225975093539
42
1.9087093369728
0
ELLIPSE
5
1E0
100
AcDbEntity
8
1
62
256
6
ByLayer
370
-1
48
1
60
0
100
AcDbEllipse
10
55.66482
20
-0.373575
30
0
11
-0.15215247573388
21
-0.0895179785077102
31
0
210
0
220
0
230
1
40
0.197758
41
1.47147641478767
42
2.41395421089275
0
ELLIPSE
5
1E1
100
AcDbEntity
8
1
62
256
6
ByLayer
370
-1
48
1
60
0
100
AcDbEllipse
10
59.176381
20
-10.852472
30
0
11
-0.818470076643268
21
-0.511508916884831
31
0
210
0
220
0
230
1
40
0.341899
41
-0.826936493216897
42
-0.0104869071741228
0
ELLIPSE
5
1E2
100
AcDbEntity
8
1
62
256
6
ByLayer
370
-1
48
1
60
0
100
AcDbEllipse
10
52.018886
20
-2.42303
30
0
11
-0.128769199361009
21
-0.0771501606279714
31
0
210
0
220
0
230
1
40
0.232115
41
1.45206597494995
42
2.16459055345152
0
ELLIPSE
5
1E3
100
AcDbEntity
8
1
62
256
6
ByLayer
370
-1
48
1
60
0
100
AcDbEllipse
10
49.009267
20
-4.600279
30
0
11
-0.16635882048642
21
-0.0735665956986888
31
0
210
0
220
0
230
1
40
0.908072
41
-1.85126895870034
42
-0.907720640091825
0
ELLIPSE
5
1E4
100
AcDbEntity
8
1
62
256
6
ByLayer
370
-1
48
1
60
0
100
AcDbEllipse
10
49.876591
20
-3.586741
30
0
11
-0.140264069963414
21
-0.240302574975201
31
0
210
0
220
0
230
1
40
0.078706
41
0.512153286213455
42
0.938728401107855
0
ELLIPSE
5
1E5
100
AcDbEntity
8
1
62
256
6
ByLayer
370
-1
48
1
60
0
100
AcDbEllipse
10
48.460449
20
-6.675195
30
0
11
-0.280790684040501
21
-0.173368370114238
31
0
210
0
220
0
230
1
40
0.444526
41
-1.56272537110592
42
-1.21365952070703
0
ELLIPSE
5
1E6
100
AcDbEntity
8
1
62
256
6
ByLayer
370
-1
48
1
60
0
100
AcDbEllipse
10
58.830764
20
-5.083706
30
0
11
-0.143814300897886
21
0.0426315242192003
31
0
210
0
220
0
230
1
40
0.244304
41
1.66062836463026
42
1.83516128982967
0
ELLIPSE
5
1E7
100
AcDbEntity
8
1
62
256
6
ByLayer
370
-1
48
1
60
0
100
AcDbEllipse
10
59.185064
20
-0.750084
30
0
11
-0.172351874608722
21
0.0595109321292297
31
0
210
0
220
0
230
1
40
0.911082
41
-2.31546043531802
42
-1.37191211670756
0
ELLIPSE
5
1E8
100
AcDbEntity
8
1
62
256
6
ByLayer
370
-1
48
1
60
0
100
AcDbEllipse
10
58.248392
20
-0.337698
30
0
11
0.279970847001598
21
-0.17468922356347
31
0
210
0
220
0
230
1
40
0.429075
41
1.24442079787155
42
1.59348664827043
0
ELLIPSE
5
1E9
100
AcDbEntity
8
1
62
256
6
ByLayer
370
-1
48
1
60
0
100
AcDbEllipse
10
52.257758
20
-2.860238
30
0
11
-0.131634364356025
21
-0.0719193584550443
31
0
210
0
220
0
230
1
40
0.236597
41
1.46129512665359
42
2.17381970518019
0
ELLIPSE
5
1EA
100
AcDbEntity
8
1
62
256
6
ByLayer
370
-1
48
1
60
0
100
AcDbEllipse
10
57.83329
20
-11.715167
30
0
11
-0.000811575277751018
21
0.186347945093815
31
0
210
0
220
0
230
1
40
0.965798
41
-3.14158434270369
42
-2.19803602409118
0
ELLIPSE
5
1EB
100
AcDbEntity
8
1
62
256
6
ByLayer
370
-1
48
1
60
0
100
AcDbEllipse
10
57.615509
20
-0.253349
30
0
11
-1.55232594749062
21
-0.738057643129126
31
0
210
0
220
0
230
1
40
0.185907
41
2.85878495008822
42
-2.82298096078352
0
ELLIPSE
5
1EC
100
AcDbEntity
8
1
62
256
6
ByLayer
370
-1
48
1
60
0
100
AcDbEllipse
10
59.304402
20
-11.155669
30
0
11
0.286515006649986
21
-0.16373500225779
31
0
210
0
220
0
230
1
40
0.008111
41
-1.58491693353027
42
-1.23585108313189
0
ELLIPSE
5
1ED
100
AcDbEntity
8
1
62
256
6
ByLayer
370
-1
48
1
60
0
100
AcDbEllipse
10
59.158013
20
-6.073601
30
0
11
0.0633059060388732
21
0.135986625300422
31
0
210
0
220
0
230
1
40
0.127852
41
-1.8002971686097
42
-1.09471097891147
0
ELLIPSE
5
1EE
100
AcDbEntity
8
1
62
256
6
ByLayer
370
-1
48
1
60
0
100
AcDbEllipse
10
59.300989
20
-11.155712
30
0
11
1.55866942272947E-17
21
0.254558441227155
31
0
210
0
220
0
230
1
40
0.999867
41
-0.85458525875288
42
-0.549766437173573
0
ELLIPSE
5
1EF
100
AcDbEntity
8
1
62
256
6
ByLayer
370
-1
48
1
60
0
100
AcDbEllipse
10
52.35428
20
-9.641417
30
0
11
-0.143517613696654
21
0.0843322544345563
31
0
210
0
220
0
230
1
40
0.195042
41
1.70241255338896
42
2.40799874310966
0
ELLIPSE
5
1F0
100
AcDbEntity
8
1
62
256
6
ByLayer
370
-1
48
1
60
0
100
AcDbEllipse
10
58.657629
20
-5.667764
30
0
11
-0.143814300897886
21
0.0426315242192003
31
0
210
0
220
0
230
1
40
0.244304
41
1.66062836463021
42
1.83516128982967
0
ELLIPSE
5
1F1
100
AcDbEntity
8
1
62
256
6
ByLayer
370
-1
48
1
60
0
100
AcDbEllipse
10
53.695307
20
-10.383532
30
0
11
-0.128945792961553
21
0.0768529686787679
31
0
210
0
220
0
230
1
40
0.215846
41
1.00566648800514
42
1.71819106648242
0
ELLIPSE
5
1F2
100
AcDbEntity
8
1
62
256
6
ByLayer
370
-1
48
1
60
0
100
AcDbEllipse
10
48.724331
20
-6.613498
30
0
11
-0.000207326155807003
21
-0.890157524695877
31
0
210
0
220
0
230
1
40
0.360082
41
2.35360549926431
42
-3.11313022187918
0
ELLIPSE
5
1F3
100
AcDbEntity
8
1
62
256
6
ByLayer
370
-1
48
1
60
0
100
AcDbEllipse
10
59.304402
20
-11.155669
30
0
11
0.172437766515791
21
0.28136314022815
31
0
210
0
220
0
230
1
40
0.013865
41
0.698314144512504
42
1.57933547052237
0
ELLIPSE
5
1F4
100
AcDbEntity
8
1
62
256
6
ByLayer
370
-1
48
1
60
0
100
AcDbEllipse
10
48.308316
20
-5.541619
30
0
11
-0.120148037018844
21
-0.0531314302266287
31
0
210
0
220
0
230
1
40
0.908072
41
1.2018148059452
42
2.2338720134984
0
ELLIPSE
5
1F5
100
AcDbEntity
8
1
62
256
6
ByLayer
370
-1
48
1
60
0
100
AcDbEllipse
10
59.533273
20
-1.775482
30
0
11
-0.352978025610988
21
0.614491679992617
31
0
210
0
220
0
230
1
40
0.052277
41
-2.40183947120925
42
-1.53890582526504
0
ELLIPSE
5
1F6
100
AcDbEntity
8
1
62
256
6
ByLayer
370
-1
48
1
60
0
100
AcDbEllipse
10
48.772069
20
-6.492875
30
0
11
-0.166646788342777
21
0.284831262215083
31
0
210
0
220
0
230
1
40
0.020796
41
1.11052133152892
42
1.9915426575385
0
ELLIPSE
5
1F7
100
AcDbEntity
8
1
62
256
6
ByLayer
370
-1
48
1
60
0
100
AcDbEllipse
10
49.01006
20
-7.711229
30
0
11
-0.289259153807806
21
0.169069487767325
31
0
210
0
220
0
230
1
40
0.207991
41
-1.45829793087186
42
-1.18265416992889
0
ELLIPSE
5
1F8
100
AcDbEntity
8
1
62
256
6
ByLayer
370
-1
48
1
60
0
100
AcDbEllipse
10
48.767483
20
-6.160105
30
0
11
0.328515456278559
21
-0.0312665154133048
31
0
210
0
220
0
230
1
40
0.671
41
1.04060477834371
42
1.8570543643811
0
ELLIPSE
5
1F9
100
AcDbEntity
8
1
62
256
6
ByLayer
370
-1
48
1
60
0
100
AcDbEllipse
10
48.908088
20
-6.305221
30
0
11
-0.832437249549051
21
-0.488229794597145
31
0
210
0
220
0
230
1
40
0.306363
41
0.00695489505219952
42
0.823404481088719
0
ELLIPSE
5
1FA
100
AcDbEntity
8
1
62
256
6
ByLayer
370
-1
48
1
60
0
100
AcDbEllipse
10
57.516326
20
0.504642
30
0
11
-0.23937760362794
21
0.0826540723422436
31
0
210
0
220
0
230
1
40
0.911082
41
-1.28340322799836
42
-0.744664108739759
0
ELLIPSE
5
1FB
100
AcDbEntity
8
1
62
256
6
ByLayer
370
-1
48
1
60
0
100
AcDbEllipse
10
59.149569
20
-0.454334
30
0
11
-0.124476353881505
21
0.0429801176523707
31
0
210
0
220
0
230
1
40
0.911082
41
0.826132218299038
42
1.76968053691867
0
ELLIPSE
5
1FC
100
AcDbEntity
8
1
62
256
6
ByLayer
370
-1
48
1
60
0
100
AcDbEllipse
10
55.223552
20
-5.703454
30
0
11
-3.00359442768436
21
-0.195663719967136
31
0
210
0
220
0
230
1
40
0.965789
41
-0.220303902658778
42
-3.05532299243592E-16
0
ELLIPSE
5
1FD
100
AcDbEntity
8
1
62
256
6
ByLayer
370
-1
48
1
60
0
100
AcDbEllipse
10
55.223552
20
-5.703454
30
0
11
-3.00359442768436
21
-0.195663719967136
31
0
210
0
220
0
230
1
40
0.965789
41
0
42
0.371395246320572
0
ELLIPSE
5
1FE
100
AcDbEntity
8
1
62
256
6
ByLayer
370
-1
48
1
60
0
100
AcDbEllipse
10
55.223552
20
-5.703454
30
0
11
-3.00359442768436
21
-0.195663719967136
31
0
210
0
220
0
230
1
40
0.965789
41
2.07963614906328
42
-2.92128857577828
0
ELLIPSE
5
1FF
100
AcDbEntity
8
1
62
256
6
ByLayer
370
-1
48
1
60
0
100
AcDbEllipse
10
58.996539
20
-10.966991
30
0
11
-0.172437766515791
21
-0.28136314022815
31
0
210
0
220
0
230
1
40
0.013865
41
-2.4432785090773
42
-1.56225718306741
0
ELLIPSE
5
200
100
AcDbEntity
8
1
62
256
6
ByLayer
370
-1
48
1
60
0
100
AcDbEllipse
10
47.390722
20
-4.793703
30
0
11
-0.0878138722405257
21
-0.0057204756903703
31
0
210
0
220
0
230
1
40
0.965789
41
-0.586430508995401
42
-1.16283422417796E-05
0
ELLIPSE
5
201
100
AcDbEntity
8
1
62
256
6
ByLayer
370
-1
48
1
60
0
100
AcDbEllipse
10
55.801281
20
-11.58948
30
0
11
-0.283033031798841
21
-0.000905222934732337
31
0
210
0
220
0
230
1
40
0.13718
41
2.09519462520707
42
2.52176974035643
0
ELLIPSE
5
202
100
AcDbEntity
8
1
62
256
6
ByLayer
370
-1
48
1
60
0
100
AcDbEllipse
10
57.791263
20
0.028328
30
0
11
-0.837564038353867
21
0.479739159384224
31
0
210
0
220
0
230
1
40
0.308746
41
2.31350331954124
42
3.12995290557934
0
ELLIPSE
5
203
100
AcDbEntity
8
1
62
256
6
ByLayer
370
-1
48
1
60
0
100
AcDbEllipse
10
58.690335
20
-11.158349
30
0
11
0.174886668864493
21
-0.279847553238332
31
0
210
0
220
0
230
1
40
0.013828
41
-2.46041722000698
42
-1.5793958939972
0
ELLIPSE
5
204
100
AcDbEntity
8
1
62
256
6
ByLayer
370
-1
48
1
60
0
100
AcDbEllipse
10
53.359913
20
-1.669211
30
0
11
-0.143360189786914
21
-0.0848352941166491
31
0
210
0
220
0
230
1
40
0.209444
41
0.759403634579593
42
1.46498982422712
0
ELLIPSE
5
205
100
AcDbEntity
8
1
62
256
6
ByLayer
370
-1
48
1
60
0
100
AcDbEllipse
10
58.999689
20
-11.688877
30
0
11
-0.285075263893938
21
-0.166229040530834
31
0
210
0
220
0
230
1
40
0.008173
41
-1.55671124383617
42
-1.20764539343872
0
ELLIPSE
5
206
100
AcDbEntity
8
1
62
256
6
ByLayer
370
-1
48
1
60
0
100
AcDbEllipse
10
48.684837
20
-5.144555
30
0
11
-0.166358820497254
21
-0.0735665956888078
31
0
210
0
220
0
230
1
40
0.908072
41
-0.907720640007677
42
0.0358276785846564
0
ELLIPSE
5
207
100
AcDbEntity
8
1
62
256
6
ByLayer
370
-1
48
1
60
0
100
AcDbEllipse
10
59.001783
20
-12.485321
30
0
11
-0.000396770138953772
21
0.0911034398239819
31
0
210
0
220
0
230
1
40
0.965798
41
-3.14158434273706
42
-2.10952713517557
0
ELLIPSE
5
208
100
AcDbEntity
8
1
62
256
6
ByLayer
370
-1
48
1
60
0
100
AcDbEllipse
10
48.409966
20
-6.596658
30
0
11
0.21413543481211
21
0.13764452607288
31
0
210
0
220
0
230
1
40
0.895737
41
-1.92240840665305
42
-1.61758975637611
0
ELLIPSE
5
209
100
AcDbEntity
8
1
62
256
6
ByLayer
370
-1
48
1
60
0
100
AcDbEllipse
10
56.506764
20
-6.338412
30
0
11
-0.20051758376267
21
-0.328568772579283
31
0
210
0
220
0
230
1
40
0.495781
41
-1.54958265946387
42
-0.608513246083356
0
ELLIPSE
5
20A
100
AcDbEntity
8
1
62
256
6
ByLayer
370
-1
48
1
60
0
100
AcDbEllipse
10
55.251202
20
-6.035684
30
0
11
1.67223082115528
21
0.118156848207616
31
0
210
0
220
0
230
1
40
0.965764
41
-2.16252866342049
42
-1.11533111222389
0
ELLIPSE
5
20B
100
AcDbEntity
8
1
62
256
6
ByLayer
370
-1
48
1
60
0
100
AcDbEllipse
10
55.222404
20
-5.628113
30
0
11
-1.28709104541676
21
-0.0909435583645224
31
0
210
0
220
0
230
1
40
0.965764
41
1.50266276576763
42
2.54986031696421
0
ELLIPSE
5
20C
100
AcDbEntity
8
1
62
256
6
ByLayer
370
-1
48
1
60
0
100
AcDbEllipse
10
55.251202
20
-6.035684
30
0
11
1.67223082115528
21
0.118156848207616
31
0
210
0
220
0
230
1
40
0.965764
41
-1.11533111222389
42
-0.0681335610272883
0
ELLIPSE
5
20D
100
AcDbEntity
8
1
62
256
6
ByLayer
370
-1
48
1
60
0
100
AcDbEllipse
10
55.251202
20
-6.035684
30
0
11
1.67223082115528
21
0.118156848207616
31
0
210
0
220
0
230
1
40
0.965764
41
0.979063990169297
42
2.02626154136591
0
ELLIPSE
5
20E
100
AcDbEntity
8
1
62
256
6
ByLayer
370
-1
48
1
60
0
100
AcDbEllipse
10
56.506764
20
-6.338412
30
0
11
-0.200517583763147
21
-0.328568772579824
31
0
210
0
220
0
230
1
40
0.495781
41
-2.95985612092243
42
-1.54958265946321
0
ELLIPSE
5
20F
100
AcDbEntity
8
1
62
256
6
ByLayer
370
-1
48
1
60
0
100
AcDbEllipse
10
55.250079
20
-6.019799
30
0
11
-2.71822297044149
21
-0.192064788454873
31
0
210
0
220
0
230
1
40
0.965764
41
0
42
6.28318530717959
0
ELLIPSE
5
210
100
AcDbEntity
8
1
62
256
6
ByLayer
370
-1
48
1
60
0
100
AcDbEllipse
10
55.222404
20
-5.628113
30
0
11
-1.28709104541676
21
-0.0909435583645224
31
0
210
0
220
0
230
1
40
0.965764
41
-0.963568993454443
42
-0.732792704623298
0
ELLIPSE
5
211
100
AcDbEntity
8
1
62
256
6
ByLayer
370
-1
48
1
60
0
100
AcDbEllipse
10
55.251202
20
-6.035684
30
0
11
-1.7955234300164
21
-0.12686848411698
31
0
210
0
220
0
230
1
40
0.965764
41
0
42
6.28318530717959
0
ELLIPSE
5
212
100
AcDbEntity
8
1
62
256
6
ByLayer
370
-1
48
1
60
0
100
AcDbEllipse
10
53.938043
20
-6.350571
30
0
11
-0.20005104428038
21
0.326957883009006
31
0
210
0
220
0
230
1
40
0.499975
41
-1.58915102711552
42
-0.178877565652901
0
ELLIPSE
5
213
100
AcDbEntity
8
1
62
256
6
ByLayer
370
-1
48
1
60
0
100
AcDbEllipse
10
55.96398
20
-6.865491
30
0
11
-0.342845330156829
21
-0.189166589712726
31
0
210
0
220
0
230
1
40
0.479089
41
-0.0400244433161325
42
2.35411703748969
0
ELLIPSE
5
214
100
AcDbEntity
8
1
62
256
6
ByLayer
370
-1
48
1
60
0
100
AcDbEllipse
10
55.222404
20
-5.628113
30
0
11
-1.28709104541676
21
-0.0909435583645224
31
0
210
0
220
0
230
1
40
0.965764
41
2.54986031696424
42
-3.12691571093331
0
ELLIPSE
5
215
100
AcDbEntity
8
1
62
256
6
ByLayer
370
-1
48
1
60
0
100
AcDbEllipse
10
54.480828
20
-6.872511
30
0
11
-0.343133849056975
21
0.185391276329956
31
0
210
0
220
0
230
1
40
0.48292
41
0.96639676324687
42
-3.10477118287738
0
ELLIPSE
5
216
100
AcDbEntity
8
1
62
256
6
ByLayer
370
-1
48
1
60
0
100
AcDbEllipse
10
53.938043
20
-6.350571
30
0
11
-0.200051044280124
21
0.326957883009937
31
0
210
0
220
0
230
1
40
0.499975
41
-2.37462779238797
42
-1.58915102711115
0
ELLIPSE
5
217
100
AcDbEntity
8
1
62
256
6
ByLayer
370
-1
48
1
60
0
100
AcDbEllipse
10
55.227432
20
-5.699276
30
0
11
-2.71822297044149
21
-0.192064788454873
31
0
210
0
220
0
230
1
40
0.965764
41
-3.14149459685377
42
-3.37491389979685E-16
0
ELLIPSE
5
218
100
AcDbEntity
8
1
62
256
6
ByLayer
370
-1
48
1
60
0
100
AcDbEllipse
10
55.222404
20
-7.06087
30
0
11
-0.394032475315769
21
-0.00240287603036447
31
0
210
0
220
0
230
1
40
0.473102
41
-1.57368137364964
42
-0.163407912190559
0
ELLIPSE
5
219
100
AcDbEntity
8
1
62
256
6
ByLayer
370
-1
48
1
60
0
100
AcDbEllipse
10
56.705556
20
-5.621093
30
0
11
-0.000623103068510083
21
-0.380672332819597
31
0
210
0
220
0
230
1
40
0.50691
41
-0.0539160509660996
42
1.20422847250866
0
ELLIPSE
5
21A
100
AcDbEntity
8
1
62
256
6
ByLayer
370
-1
48
1
60
0
100
AcDbEllipse
10
55.251202
20
-6.035684
30
0
11
1.67223082115528
21
0.118156848207616
31
0
210
0
220
0
230
1
40
0.965764
41
3.0734590925625
42
-2.16252866342049
0
ELLIPSE
5
21B
100
AcDbEntity
8
1
62
256
6
ByLayer
370
-1
48
1
60
0
100
AcDbEllipse
10
55.222404
20
-5.628113
30
0
11
1.28709104541676
21
0.0909435583645231
31
0
210
0
220
0
230
1
40
0.965764
41
-2.68612743901877
42
-1.63892988782219
0
ELLIPSE
5
21C
100
AcDbEntity
8
1
62
256
6
ByLayer
370
-1
48
1
60
0
100
AcDbEllipse
10
55.222404
20
-7.06087
30
0
11
-0.394032475315527
21
-0.00240287603049826
31
0
210
0
220
0
230
1
40
0.473102
41
-2.98395483511036
42
-1.57368137365056
0
ELLIPSE
5
21D
100
AcDbEntity
8
1
62
256
6
ByLayer
370
-1
48
1
60
0
100
AcDbEllipse
10
55.222404
20
-5.628113
30
0
11
-1.28709104541676
21
-0.0909435583645224
31
0
210
0
220
0
230
1
40
0.965764
41
-2.57250658392437
42
-2.12648206047494
0
ELLIPSE
5
21E
100
AcDbEntity
8
1
62
256
6
ByLayer
370
-1
48
1
60
0
100
AcDbEllipse
10
55.251202
20
-6.035684
30
0
11
1.67223082115528
21
0.118156848207616
31
0
210
0
220
0
230
1
40
0.965764
41
2.02626154136591
42
3.0734590925625
0
ELLIPSE
5
21F
100
AcDbEntity
8
1
62
256
6
ByLayer
370
-1
48
1
60
0
100
AcDbEllipse
10
53.739252
20
-5.635133
30
0
11
-0.000623103068506028
21
-0.380672332819598
31
0
210
0
220
0
230
1
40
0.50691
41
-0.903672283967266
42
0.0603741684584809
0
ELLIPSE
5
220
100
AcDbEntity
8
1
62
256
6
ByLayer
370
-1
48
1
60
0
100
AcDbEllipse
10
55.251202
20
-6.035684
30
0
11
1.67223082115528
21
0.118156848207616
31
0
210
0
220
0
230
1
40
0.965764
41
-0.0681335610272883
42
0.979063990169297
0
ELLIPSE
5
221
100
AcDbEntity
8
1
62
256
6
ByLayer
370
-1
48
1
60
0
100
AcDbEllipse
10
55.222404
20
-5.628113
30
0
11
-1.28709104541676
21
-0.0909435583645224
31
0
210
0
220
0
230
1
40
0.965764
41
-0.124927586583852
42
0.455465214570992
0
ELLIPSE
5
222
100
AcDbEntity
8
1
62
256
6
ByLayer
370
-1
48
1
60
0
100
AcDbEllipse
10
51.724367
20
-9.58508
30
0
11
-0.25
21
3.06151588455594E-17
31
0
210
0
220
0
230
1
40
0.258819
41
0.755396374706196
42
1.58442776940352
0
ELLIPSE
5
223
100
AcDbEntity
8
1
62
256
6
ByLayer
370
-1
48
1
60
0
100
AcDbEllipse
10
50.864868
20
-9.317061
30
0
11
-1.8
21
2.20429143688028E-16
31
0
210
0
220
0
230
1
40
0.258819
41
2.41345916410083
42
2.44231040400174
0
ELLIPSE
5
224
100
AcDbEntity
8
1
62
256
6
ByLayer
370
-1
48
1
60
0
100
AcDbEllipse
10
51.082464
20
-9.577587
30
0
11
-0.25
21
3.06151588455594E-17
31
0
210
0
220
0
230
1
40
0.258819
41
-2.61308908164287
42
-2.02965358241137
0
ELLIPSE
5
225
100
AcDbEntity
8
1
62
256
6
ByLayer
370
-1
48
1
60
0
100
AcDbEllipse
10
52.021815
20
-9.58403
30
0
11
-0.25
21
3.06151588455594E-17
31
0
210
0
220
0
230
1
40
0.258819
41
1.58442776940352
42
2.4134591641008
0
ELLIPSE
5
226
100
AcDbEntity
8
1
62
256
6
ByLayer
370
-1
48
1
60
0
100
AcDbEllipse
10
52.852767
20
-9.310047
30
0
11
-1.8
21
2.20429143688028E-16
31
0
210
0
220
0
230
1
40
0.258819
41
0.528503571946954
42
0.755396374706217
0
ELLIPSE
5
227
100
AcDbEntity
8
1
62
256
6
ByLayer
370
-1
48
1
60
0
100
AcDbEllipse
10
60.12537
20
1.732294
30
0
11
0.00693407685583619
21
1.40968294611878
31
0
210
0
220
0
230
1
40
0.052006
41
2.88007718812837
42
-2.35591056785476
0
ELLIPSE
5
228
100
AcDbEntity
8
1
62
256
6
ByLayer
370
-1
48
1
60
0
100
AcDbEllipse
10
60.12537
20
1.732294
30
0
11
0.00693407685583619
21
1.40968294611878
31
0
210
0
220
0
230
1
40
0.052006
41
0.785682085735105
42
1.83287963693167
0
ELLIPSE
5
229
100
AcDbEntity
8
1
62
256
6
ByLayer
370
-1
48
1
60
0
100
AcDbEllipse
10
60.12537
20
1.732294
30
0
11
-0.00836201365887833
21
-1.69997943420723
31
0
210
0
220
0
230
1
40
0.052006
41
0
42
6.28318530717959
0
ELLIPSE
5
22A
100
AcDbEntity
8
1
62
256
6
ByLayer
370
-1
48
1
60
0
100
AcDbEllipse
10
60.12537
20
1.732294
30
0
11
0.00693407685583619
21
1.40968294611878
31
0
210
0
220
0
230
1
40
0.052006
41
-0.261515465461506
42
0.785682085735105
0
ELLIPSE
5
22B
100
AcDbEntity
8
1
62
256
6
ByLayer
370
-1
48
1
60
0
100
AcDbEllipse
10
59.026871
20
1.737697
30
0
11
-0.0152483778485429
21
-3.09996249767203
31
0
210
0
220
0
230
1
40
0.052006
41
-1.57486025232774
42
-1.54049916725784
0
ELLIPSE
5
22C
100
AcDbEntity
8
1
62
256
6
ByLayer
370
-1
48
1
60
0
100
AcDbEllipse
10
60.12537
20
1.732294
30
0
11
0.00693407685583619
21
1.40968294611878
31
0
210
0
220
0
230
1
40
0.052006
41
1.83287963693167
42
2.88007718812837
0
ELLIPSE
5
22D
100
AcDbEntity
8
1
62
256
6
ByLayer
370
-1
48
1
60
0
100
AcDbEllipse
10
60.12537
20
1.732294
30
0
11
0.00693407685583619
21
1.40968294611878
31
0
210
0
220
0
230
1
40
0.052006
41
-2.35591056785476
42
-1.30871301665812
0
ELLIPSE
5
22E
100
AcDbEntity
8
1
62
256
6
ByLayer
370
-1
48
1
60
0
100
AcDbEllipse
10
60.12537
20
1.732294
30
0
11
0.00693407685583619
21
1.40968294611878
31
0
210
0
220
0
230
1
40
0.052006
41
-1.30871301665812
42
-0.261515465461506
0
POINT
5
41
100
AcDbEntity
8
1
62
256
6
ByLayer
370
-1
48
1
60
0
100
AcDbPoint
10
59.000142
20
12.576468
30
0
39
0
210
0
220
0
230
1
50
360
0
POINT
5
43
100
AcDbEntity
8
80
62
256
6
ByLayer
370
-1
48
1
60
0
100
AcDbPoint
10
0
20
0
30
0
39
0
210
0
220
0
230
1
50
360
0
POINT
5
45
100
AcDbEntity
8
81
62
256
6
ByLayer
370
-1
48
1
60
0
100
AcDbPoint
10
60
20
-13.875
30
0
39
0
210
0
220
0
230
1
50
360
0
POINT
5
47
100
AcDbEntity
8
2
62
256
6
ByLayer
370
-1
48
1
60
0
100
AcDbPoint
10
60
20
13.875
30
0
39
0
210
0
220
0
230
1
50
360
0
SPLINE
5
22F
100
AcDbEntity
8
SK1
62
256
6
ByLayer
370
-1
48
1
60
0
100
AcDbSpline
70
4
71
2
72
6
73
3
40
0
40
0
40
0
40
1
40
1
40
1
41
1
10
-1.69501459340779
20
14.0202240353492
30
0
41
1
10
-2.0975072967039
20
14.0101120176829
30
0
41
1
10
-2.5
20
14.0000000000165
30
0
0
SPLINE
5
230
100
AcDbEntity
8
SK1
62
256
6
ByLayer
370
-1
48
1
60
0
100
AcDbSpline
70
4
71
2
72
6
73
3
40
0
40
0
40
0
40
1
40
1
40
1
41
1
10
-2.5
20
-14.0000000000425
30
0
41
1
10
-2.0975072967039
20
-14.0101120177088
30
0
41
1
10
-1.69501459340779
20
-14.0202240353752
30
0
0
SPLINE
5
231
100
AcDbEntity
8
SK1
62
256
6
ByLayer
370
-1
48
1
60
0
100
AcDbSpline
70
4
71
2
72
6
73
3
40
0
40
0
40
0
40
1
40
1
40
1
41
1
10
-2.5
20
14.0000000000165
30
0
41
1
10
-12.5002365839528
20
13.7487592491245
30
0
41
1
10
-22.5004731679057
20
13.4975184982324
30
0
0
SPLINE
5
232
100
AcDbEntity
8
SK1
62
256
6
ByLayer
370
-1
48
1
60
0
100
AcDbSpline
70
4
71
2
72
6
73
3
40
0
40
0
40
0
40
1
40
1
40
1
41
1
10
-22.5004731679057
20
-13.4975184982574
30
0
41
1
10
-12.5002365839528
20
-13.7487592491499
30
0
41
1
10
-2.5
20
-14.0000000000425
30
0
0
SPLINE
5
233
100
AcDbEntity
8
SK1
62
256
6
ByLayer
370
-1
48
1
60
0
100
AcDbSpline
70
4
71
2
72
6
73
3
40
0
40
0
40
0
40
1
40
1
40
1
41
1
10
-24
20
-12.580456895609
30
0
41
1
10
-23.250195418368
20
-13.0391711292673
30
0
41
1
10
-22.5003908339782
20
-13.4978821831766
30
0
0
SPLINE
5
234
100
AcDbEntity
8
SK1
62
256
6
ByLayer
370
-1
48
1
60
0
100
AcDbSpline
70
4
71
2
72
6
73
3
40
0
40
0
40
0
40
1
40
1
40
1
41
1
10
-22.5004044652863
20
13.4963063088843
30
0
41
1
10
-23.2502022102608
20
13.0377782396013
30
0
41
1
10
-24
20
12.579249793836
30
0
0
SPLINE
5
235
100
AcDbEntity
8
SK1
62
256
6
ByLayer
370
-1
48
1
60
0
100
AcDbSpline
70
4
71
3
72
13
73
9
40
0
40
0
40
0
40
0
40
0.124434388714101
40
0.299263108878517
40
0.488234295776656
40
0.685270697586106
40
0.883431921511576
40
1
40
1
40
1
40
1
41
1
10
-1.68362296615857
20
-5.78414174723662
30
0
41
1
10
-1.68076860813082
20
-6.17460159273713
30
0
41
1
10
-1.67344528291622
20
-7.0810805755749
30
0
41
1
10
-1.65936115436554
20
-8.42418723230375
30
0
41
1
10
-1.64147524692154
20
-9.8076126667103
30
0
41
1
10
-1.62088075640943
20
-11.0497710645704
30
0
41
1
10
-1.60141004098784
20
-11.9789554568415
30
0
41
1
10
-1.58818109259457
20
-12.4192540971724
30
0
41
1
10
-1.58313870602996
20
-12.5671633555152
30
0
0
SPLINE
5
236
100
AcDbEntity
8
SK1
62
256
6
ByLayer
370
-1
48
1
60
0
100
AcDbSpline
70
4
71
1
72
4
73
2
40
0
40
0
40
1
40
1
41
1
10
-1.5310434074633
20
13.6216036920456
30
0
41
1
10
-1.53278671148445
20
13.5997804576485
30
0
0
SPLINE
5
237
100
AcDbEntity
8
SK1
62
256
6
ByLayer
370
-1
48
1
60
0
100
AcDbSpline
70
4
71
2
72
6
73
3
40
0
40
0
40
0
40
1
40
1
40
1
41
1
10
-0.399999999999949
20
13.7870504860687
30
0
41
1
10
-0.94999999999996
20
13.7870504860687
30
0
41
1
10
-1.49999999999994
20
13.7870504860687
30
0
0
SPLINE
5
238
100
AcDbEntity
8
SK1
62
256
6
ByLayer
370
-1
48
1
60
0
100
AcDbSpline
70
4
71
2
72
6
73
3
40
0
40
0
40
0
40
1
40
1
40
1
41
1
10
-1.49999999999994
20
-13.787050293933
30
0
41
1
10
-0.94999999999996
20
-13.787050293933
30
0
41
1
10
-0.399999999999949
20
-13.787050293933
30
0
0
SPLINE
5
239
100
AcDbEntity
8
1
62
256
6
ByLayer
370
-1
48
1
60
0
100
AcDbSpline
70
4
71
3
72
12
73
8
40
0
40
0
40
0
40
0
40
0.087262808980543
40
0.400415072236957
40
0.698270663098852
40
0.97915211607461
40
1
40
1
40
1
40
1
41
1
10
59.4367983514338
20
4.48632018848636
30
0
41
1
10
59.4626736134681
20
4.45895111343796
30
0
41
1
10
59.5794257530893
20
4.3314190689286
30
0
41
1
10
59.7696823546075
20
4.09776952544451
30
0
41
1
10
59.973588270571
20
3.77177134817651
30
0
41
1
10
60.0961942194793
20
3.54315925124121
30
0
41
1
10
60.1426649874471
20
3.42182255922464
30
0
41
1
10
60.1458294784418
20
3.41341757584129
30
0
0
SPLINE
5
23A
100
AcDbEntity
8
1
62
256
6
ByLayer
370
-1
48
1
60
0
100
AcDbSpline
70
4
71
3
72
10
73
6
40
0
40
0
40
0
40
0
40
0.19231760086738
40
0.659510602096312
40
1
40
1
40
1
40
1
41
1
10
60.13290196005
20
0.0744629439515165
30
0
41
1
10
60.1117235997112
20
0.0178597620856635
30
0
41
1
10
60.0329179246982
20
-0.173047677621497
30
0
41
1
10
59.8713593275674
20
-0.443636020422019
30
0
41
1
10
59.7229657673818
20
-0.648848075028837
30
0
41
1
10
59.656902644378
20
-0.732673258058441
30
0
0
SPLINE
5
23B
100
AcDbEntity
8
1
62
256
6
ByLayer
370
-1
48
1
60
0
100
AcDbSpline
70
4
71
1
72
4
73
2
40
0
40
0
40
1
40
1
41
1
10
50.6106558379373
20
-8.71392697973715
30
0
41
1
10
50.7193348472746
20
-9.20210101484599
30
0
0
SPLINE
5
23C
100
AcDbEntity
8
1
62
256
6
ByLayer
370
-1
48
1
60
0
100
AcDbSpline
70
4
71
3
72
8
73
4
40
0
40
0
40
0
40
0
40
1
40
1
40
1
40
1
41
1
10
46.5396364608436
20
-5.23486879167598
30
0
41
1
10
46.6173725817541
20
-5.45831468339634
30
0
41
1
10
46.6941312865123
20
-5.67783386888385
30
0
41
1
10
46.7697923643456
20
-5.89395765533069
30
0
0
SPLINE
5
23D
100
AcDbEntity
8
1
62
256
6
ByLayer
370
-1
48
1
60
0
100
AcDbSpline
70
4
71
3
72
10
73
6
40
0
40
0
40
0
40
0
40
0.652417378272513
40
0.652417378272513
40
1
40
1
40
1
40
1
41
1
10
50.7621915175006
20
7.37419044745525
30
0
41
1
10
50.8119417164689
20
7.50762517966191
30
0
41
1
10
50.9012420411598
20
7.6317128381572
30
0
41
1
10
51.0791567646993
20
7.79472295716477
30
0
41
1
10
51.1495591944199
20
7.84731972263543
30
0
41
1
10
51.2264447091446
20
7.89485729846763
30
0
0
SPLINE
5
23E
100
AcDbEntity
8
1
62
256
6
ByLayer
370
-1
48
1
60
0
100
AcDbSpline
70
4
71
3
72
8
73
4
40
0
40
0
40
0
40
0
40
1
40
1
40
1
40
1
41
1
10
43.9260298656089
20
-10.4707354790957
30
0
41
1
10
43.8642745708919
20
-10.3951264502381
30
0
41
1
10
43.8025748945581
20
-10.3194748975999
30
0
41
1
10
43.7409347824111
20
-10.2437780090515
30
0
0
SPLINE
5
23F
100
AcDbEntity
8
1
62
256
6
ByLayer
370
-1
48
1
60
0
100
AcDbSpline
70
4
71
3
72
8
73
4
40
0
40
0
40
0
40
0
40
1
40
1
40
1
40
1
41
1
10
44.573058436981
20
-3.00891058592774
30
0
41
1
10
44.5594011839183
20
-3.01403413563963
30
0
41
1
10
44.5481989634363
20
-3.0249100730673
30
0
41
1
10
44.5390125314976
20
-3.0408497174119
30
0
0
SPLINE
5
240
100
AcDbEntity
8
1
62
256
6
ByLayer
370
-1
48
1
60
0
100
AcDbSpline
70
4
71
3
72
26
73
22
40
0
40
0
40
0
40
0
40
2.22304226885E-05
40
2.22304226885E-05
40
0.120214937167502
40
0.120214937167502
40
0.287413061668152
40
0.287413061668152
40
0.395659575306544
40
0.395659575306544
40
0.480591758120619
40
0.480591758120619
40
0.56497870401633
40
0.56497870401633
40
0.724895414670329
40
0.724895414670329
40
0.86038303465847
40
0.86038303465847
40
0.958887952257348
40
0.958887952257348
40
1
40
1
40
1
40
1
41
1
10
44.5144878685797
20
-3.11572577753512
30
0
41
1
10
44.5144853664476
20
-3.11573891048519
30
0
41
1
10
44.5144828646782
20
-3.11575204446203
30
0
41
1
10
44.5009594501577
20
-3.18676411938858
30
0
41
1
10
44.497267835013
20
-3.28907655986242
30
0
41
1
10
44.4921313368015
20
-3.57265609810133
30
0
41
1
10
44.4934643343155
20
-3.77409448657147
30
0
41
1
10
44.4585226450662
20
-4.12596185957435
30
0
41
1
10
44.434551500089
20
-4.27309573356501
30
0
41
1
10
44.3454106613805
20
-4.52813351924374
30
0
41
1
10
44.2877140950292
20
-4.63917397140332
30
0
41
1
10
44.1400453266713
20
-4.83776137893963
30
0
41
1
10
44.0499831115461
20
-4.92779664486918
30
0
41
1
10
43.7770716523865
20
-5.16382068389848
30
0
41
1
10
43.5791737416193
20
-5.29737898068419
30
0
41
1
10
43.2441822847819
20
-5.53856026480923
30
0
41
1
10
43.0971909281212
20
-5.64886889523262
30
0
41
1
10
42.8926587394658
20
-5.83990976524143
30
0
41
1
10
42.8201198172992
20
-5.92225635724475
30
0
41
1
10
42.7528068024635
20
-6.03812527831522
30
0
41
1
10
42.7371107946926
20
-6.0726319071087
30
0
41
1
10
42.7263961174592
20
-6.10693436222809
30
0
0
SPLINE
5
241
100
AcDbEntity
8
1
62
256
6
ByLayer
370
-1
48
1
60
0
100
AcDbSpline
70
4
71
3
72
18
73
14
40
0
40
0
40
0
40
0
40
0.0074698584964884
40
0.0074698584964884
40
0.116973966194809
40
0.116973966194809
40
0.258725811908719
40
0.258725811908719
40
0.48335766746934
40
0.48335766746934
40
0.914372095275223
40
0.914372095275223
40
1
40
1
40
1
40
1
41
1
10
9.0767949192431
20
-5.85988980456929
30
0
41
1
10
9.07791531278104
20
-5.85988980456929
30
0
41
1
10
9.07903578618212
20
-5.85990260585533
30
0
41
1
10
9.09637412624431
20
-5.86029870927979
30
0
41
1
10
9.11270417149055
20
-5.8634711769441
30
0
41
1
10
9.14758505223867
20
-5.87578180524309
30
0
41
1
10
9.16596173018905
20
-5.8864748710601
30
0
41
1
10
9.20810355067709
20
-5.91885996191004
30
0
41
1
10
9.22982072744469
20
-5.94374247779547
30
0
41
1
10
9.28328154913382
20
-6.02032056207824
30
0
41
1
10
9.30783261541364
20
-6.07738634703668
30
0
41
1
10
9.32995866734097
20
-6.14652276485666
30
0
41
1
10
9.33339464013241
20
-6.15810095961672
30
0
41
1
10
9.33660254037841
20
-6.16973001948557
30
0
0
SPLINE
5
242
100
AcDbEntity
8
1
62
256
6
ByLayer
370
-1
48
1
60
0
100
AcDbSpline
70
4
71
3
72
16
73
12
40
0
40
0
40
0
40
0
40
0.26737209152346
40
0.26737209152346
40
0.600855844067949
40
0.600855844067949
40
0.762574643716998
40
0.762574643716998
40
0.898037673161785
40
0.898037673161785
40
1
40
1
40
1
40
1
41
1
10
9.33660254037846
20
6.16973001948571
30
0
41
1
10
9.32665759364994
20
6.13367828095585
30
0
41
1
10
9.31453185229014
20
6.0980179296067
30
0
41
1
10
9.28070303055785
20
6.02025855383846
30
0
41
1
10
9.25716973041017
20
5.97794802948579
30
0
41
1
10
9.21115368872728
20
5.92367470492709
30
0
41
1
10
9.19404341926796
20
5.90709361727357
30
0
41
1
10
9.15864533843362
20
5.88208699512398
30
0
41
1
10
9.140619206389
20
5.87260601127613
30
0
41
1
10
9.10716397282849
20
5.86230971122512
30
0
41
1
10
9.09190067197864
20
5.85988980456943
30
0
41
1
10
9.07679491924313
20
5.85988980456943
30
0
0
SPLINE
5
243
100
AcDbEntity
8
1
62
256
6
ByLayer
370
-1
48
1
60
0
100
AcDbSpline
70
4
71
3
72
16
73
12
40
0
40
0
40
0
40
0
40
0.267372091523282
40
0.267372091523282
40
0.600855844067896
40
0.600855844067896
40
0.762574643716936
40
0.762574643716936
40
0.898037673161731
40
0.898037673161731
40
1
40
1
40
1
40
1
41
1
10
6.66339745962154
20
-6.1697300194856
30
0
41
1
10
6.67334240635006
20
-6.13367828095576
30
0
41
1
10
6.68546814770983
20
-6.09801792960664
30
0
41
1
10
6.71929696944213
20
-6.02025855383837
30
0
41
1
10
6.74283026958983
20
-5.9779480294857
30
0
41
1
10
6.78884631127269
20
-5.92367470492701
30
0
41
1
10
6.80595658073204
20
-5.90709361727346
30
0
41
1
10
6.84135466156636
20
-5.88208699512387
30
0
41
1
10
6.85938079361097
20
-5.87260601127599
30
0
41
1
10
6.89283602717151
20
-5.86230971122501
30
0
41
1
10
6.90809932802136
20
-5.85988980456929
30
0
41
1
10
6.92320508075687
20
-5.85988980456929
30
0
0
SPLINE
5
244
100
AcDbEntity
8
1
62
256
6
ByLayer
370
-1
48
1
60
0
100
AcDbSpline
70
4
71
3
72
18
73
14
40
0
40
0
40
0
40
0
40
0.0074698584965012
40
0.0074698584965012
40
0.116973966194808
40
0.116973966194808
40
0.25872581190871
40
0.25872581190871
40
0.483357667469334
40
0.483357667469334
40
0.914372095275209
40
0.914372095275209
40
1
40
1
40
1
40
1
41
1
10
6.9232050807569
20
-19.1222825906925
30
0
41
1
10
6.92208468721896
20
-19.1222825906925
30
0
41
1
10
6.92096421381788
20
-19.122278667842
30
0
41
1
10
6.90362587375569
20
-19.1221572838471
30
0
41
1
10
6.88729582850945
20
-19.1211855627664
30
0
41
1
10
6.85241494776133
20
-19.1174067506415
30
0
41
1
10
6.83403826981095
20
-19.1141200721533
30
0
41
1
10
6.7918964493229
20
-19.1041233146922
30
0
41
1
10
6.77017927255534
20
-19.0964050302576
30
0
41
1
10
6.71671845086618
20
-19.072454346092
30
0
41
1
10
6.69216738458638
20
-19.054370658815
30
0
41
1
10
6.67004133265903
20
-19.0320887998676
30
0
41
1
10
6.66660535986759
20
-19.0283457512526
30
0
41
1
10
6.66339745962159
20
-19.0245744101322
30
0
0
SPLINE
5
245
100
AcDbEntity
8
1
62
256
6
ByLayer
370
-1
48
1
60
0
100
AcDbSpline
70
4
71
3
72
18
73
14
40
0
40
0
40
0
40
0
40
0.0074698584964997
40
0.0074698584964997
40
0.116973966194809
40
0.116973966194809
40
0.258725811908725
40
0.258725811908725
40
0.483357667469371
40
0.483357667469371
40
0.914372095275296
40
0.914372095275296
40
1
40
1
40
1
40
1
41
1
10
6.9232050807569
20
5.85988980456943
30
0
41
1
10
6.92208468721896
20
5.85988980456943
30
0
41
1
10
6.92096421381788
20
5.85990260585547
30
0
41
1
10
6.90362587375569
20
5.86029870927993
30
0
41
1
10
6.88729582850945
20
5.86347117694424
30
0
41
1
10
6.85241494776133
20
5.87578180524324
30
0
41
1
10
6.83403826981095
20
5.88647487106027
30
0
41
1
10
6.7918964493229
20
5.91885996191019
30
0
41
1
10
6.77017927255531
20
5.94374247779564
30
0
41
1
10
6.71671845086618
20
6.02032056207844
30
0
41
1
10
6.69216738458636
20
6.07738634703685
30
0
41
1
10
6.67004133265903
20
6.14652276485683
30
0
41
1
10
6.66660535986759
20
6.15810095961689
30
0
41
1
10
6.66339745962159
20
6.16973001948574
30
0
0
SPLINE
5
246
100
AcDbEntity
8
1
62
256
6
ByLayer
370
-1
48
1
60
0
100
AcDbSpline
70
4
71
3
72
8
73
4
40
0
40
0
40
0
40
0
40
1
40
1
40
1
40
1
41
1
10
43.9260298656089
20
-10.4707354790957
30
0
41
1
10
43.85877977698
20
-10.4092587605592
30
0
41
1
10
43.7968415341463
20
-10.3471686893601
30
0
41
1
10
43.7409347824111
20
-10.2843821688914
30
0
0
SPLINE
5
247
100
AcDbEntity
8
1
62
256
6
ByLayer
370
-1
48
1
60
0
100
AcDbSpline
70
4
71
3
72
16
73
12
40
0
40
0
40
0
40
0
40
0.26737209152312
40
0.26737209152312
40
0.600855844067793
40
0.600855844067793
40
0.762574643716858
40
0.762574643716858
40
0.898037673161672
40
0.898037673161672
40
1
40
1
40
1
40
1
41
1
10
9.33660254037846
20
-19.0245744101322
30
0
41
1
10
9.32665759364994
20
-19.036266103658
30
0
41
1
10
9.3145318522902
20
-19.0477160699853
30
0
41
1
10
9.28070303055793
20
-19.0724552288876
30
0
41
1
10
9.25716973041023
20
-19.0857432838256
30
0
41
1
10
9.21115368872734
20
-19.1026287554228
30
0
41
1
10
9.19404341926801
20
-19.1077588484921
30
0
41
1
10
9.15864533843367
20
-19.1154700309996
30
0
41
1
10
9.14061920638906
20
-19.1183821582684
30
0
41
1
10
9.10716397282852
20
-19.1215414200073
30
0
41
1
10
9.09190067197866
20
-19.1222825906925
30
0
41
1
10
9.07679491924313
20
-19.1222825906925
30
0
0
SPLINE
5
248
100
AcDbEntity
8
1
62
256
6
ByLayer
370
-1
48
1
60
0
100
AcDbSpline
70
4
71
3
72
8
73
4
40
0
40
0
40
0
40
0
40
1
40
1
40
1
40
1
41
1
10
43.2541944300451
20
1.8185709318916
30
0
41
1
10
43.2134790836062
20
1.77207478693862
30
0
41
1
10
43.1713981241593
20
1.72673897952256
30
0
41
1
10
43.1280992279173
20
1.68322404631615
30
0
0
SPLINE
5
249
100
AcDbEntity
8
1
62
256
6
ByLayer
370
-1
48
1
60
0
100
AcDbSpline
70
4
71
3
72
8
73
4
40
0
40
0
40
0
40
0
40
1
40
1
40
1
40
1
41
1
10
43.7409347824112
20
-10.2843821688914
30
0
41
1
10
43.7273983920467
20
-10.2691800184478
30
0
41
1
10
43.713219706972
20
-10.254012338696
30
0
41
1
10
43.6983521731875
20
-10.2388894259504
30
0
0
SPLINE
5
24A
100
AcDbEntity
8
1
62
256
6
ByLayer
370
-1
48
1
60
0
100
AcDbSpline
70
4
71
3
72
8
73
4
40
0
40
0
40
0
40
0
40
1
40
1
40
1
40
1
41
1
10
40.5753257858071
20
-9.71564341612699
30
0
41
1
10
40.5567758970276
20
-9.73068231526582
30
0
41
1
10
40.5426349084166
20
-9.74553923159974
30
0
41
1
10
40.5338374977144
20
-9.75991052312452
30
0
0
SPLINE
5
24B
100
AcDbEntity
8
1
62
256
6
ByLayer
370
-1
48
1
60
0
100
AcDbSpline
70
4
71
3
72
18
73
14
40
0
40
0
40
0
40
0
40
0.0001813418010516
40
0.0001813418010516
40
0.236889027793268
40
0.236889027793268
40
0.440009487052583
40
0.440009487052583
40
0.629460817958213
40
0.629460817958213
40
0.837741789514264
40
0.837741789514264
40
1
40
1
40
1
40
1
41
1
10
40.5237511997002
20
-9.79731525073294
30
0
41
1
10
40.5237535295025
20
-9.79733479939398
30
0
41
1
10
40.5237558727653
20
-9.79735434640335
30
0
41
1
10
40.5268185428322
20
-9.82275440086428
30
0
41
1
10
40.553524043599
20
-9.84602805984369
30
0
41
1
10
40.6488776482321
20
-9.88137461998073
30
0
41
1
10
40.7123968766001
20
-9.89508781531393
30
0
41
1
10
40.860377746188
20
-9.91577839095811
30
0
41
1
10
40.9447707366263
20
-9.92346365199194
30
0
41
1
10
41.1341563480112
20
-9.93548540048491
30
0
41
1
10
41.2424580153291
20
-9.93959953792827
30
0
41
1
10
41.4386637573706
20
-9.94403859018502
30
0
41
1
10
41.5269831847589
20
-9.94502006114618
30
0
41
1
10
41.6150058184262
20
-9.94518627865563
30
0
0
SPLINE
5
24C
100
AcDbEntity
8
1
62
256
6
ByLayer
370
-1
48
1
60
0
100
AcDbSpline
70
4
71
3
72
12
73
8
40
0
40
0
40
0
40
0
40
0.386282933678877
40
0.386282933678877
40
0.774279199218279
40
0.774279199218279
40
1
40
1
40
1
40
1
41
1
10
43.7409347824111
20
-10.2437780090515
30
0
41
1
10
43.6848500897059
20
-10.1749034307112
30
0
41
1
10
43.6162225719872
20
-10.1139984650723
30
0
41
1
10
43.4633666755193
20
-10.0190507096194
30
0
41
1
10
43.376838729766
20
-9.98384877884004
30
0
41
1
10
43.2355597513189
20
-9.95384141660867
30
0
41
1
10
43.1816983815772
20
-9.94810341877883
30
0
41
1
10
43.1280992279163
20
-9.94800493744313
30
0
0
SPLINE
5
24D
100
AcDbEntity
8
1
62
256
6
ByLayer
370
-1
48
1
60
0
100
AcDbSpline
70
4
71
3
72
16
73
12
40
0
40
0
40
0
40
0
40
0.267372091523257
40
0.267372091523257
40
0.600855844067868
40
0.600855844067868
40
0.762574643716911
40
0.762574643716911
40
0.898037673161716
40
0.898037673161716
40
1
40
1
40
1
40
1
41
1
10
6.66339745962154
20
19.0245744101322
30
0
41
1
10
6.67334240635006
20
19.036266103658
30
0
41
1
10
6.68546814770983
20
19.0477160699853
30
0
41
1
10
6.7192969694421
20
19.0724552288877
30
0
41
1
10
6.7428302695898
20
19.0857432838256
30
0
41
1
10
6.78884631127269
20
19.1026287554228
30
0
41
1
10
6.80595658073201
20
19.1077588484921
30
0
41
1
10
6.84135466156636
20
19.1154700309997
30
0
41
1
10
6.85938079361097
20
19.1183821582684
30
0
41
1
10
6.89283602717151
20
19.1215414200073
30
0
41
1
10
6.90809932802136
20
19.1222825906926
30
0
41
1
10
6.92320508075687
20
19.1222825906926
30
0
0
SPLINE
5
24E
100
AcDbEntity
8
1
62
256
6
ByLayer
370
-1
48
1
60
0
100
AcDbSpline
70
4
71
3
72
18
73
14
40
0
40
0
40
0
40
0
40
0.0074698584964846
40
0.0074698584964846
40
0.116973966194816
40
0.116973966194816
40
0.258725811908727
40
0.258725811908727
40
0.483357667469354
40
0.483357667469354
40
0.91437209527524
40
0.91437209527524
40
1
40
1
40
1
40
1
41
1
10
9.0767949192431
20
19.1222825906926
30
0
41
1
10
9.07791531278104
20
19.1222825906926
30
0
41
1
10
9.07903578618212
20
19.122278667842
30
0
41
1
10
9.09637412624431
20
19.1221572838471
30
0
41
1
10
9.11270417149055
20
19.1211855627664
30
0
41
1
10
9.14758505223867
20
19.1174067506416
30
0
41
1
10
9.16596173018905
20
19.1141200721534
30
0
41
1
10
9.20810355067709
20
19.1041233146922
30
0
41
1
10
9.22982072744469
20
19.0964050302577
30
0
41
1
10
9.28328154913382
20
19.0724543460921
30
0
41
1
10
9.30783261541364
20
19.0543706588151
30
0
41
1
10
9.32995866734097
20
19.0320887998676
30
0
41
1
10
9.33339464013241
20
19.0283457512527
30
0
41
1
10
9.33660254037841
20
19.0245744101322
30
0
0
SPLINE
5
24F
100
AcDbEntity
8
SK1
62
256
6
ByLayer
370
-1
48
1
60
0
100
AcDbSpline
70
4
71
3
72
79
73
75
40
0
40
0
40
0
40
0
40
0.0069311072274663
40
0.0210187899999512
40
0.0351064727724361
40
0.049194155544921
40
0.0632818383174059
40
0.0773695210898908
40
0.0914572038623757
40
0.105544886634861
40
0.119632569407345
40
0.13372025217983
40
0.147807934952315
40
0.1618956177248
40
0.175983300497285
40
0.19007098326977
40
0.204158666042255
40
0.21824634881474
40
0.232334031587225
40
0.24642171435971
40
0.260509397132195
40
0.27459707990468
40
0.288684762677164
40
0.302772445449649
40
0.316860128222134
40
0.330947810994619
40
0.345035493767104
40
0.359123176539589
40
0.373210859312074
40
0.387298542084559
40
0.401386224857044
40
0.415473907629529
40
0.429561590402014
40
0.443649273174498
40
0.457736955946983
40
0.471824638719468
40
0.485912321491953
40
0.500000004264438
40
0.514087687036923
40
0.528175369809408
40
0.542263052581893
40
0.556350735354378
40
0.570438418126862
40
0.584526100899347
40
0.598613783671832
40
0.612701466444317
40
0.626789149216802
40
0.640876831989287
40
0.654964514761772
40
0.669052197534257
40
0.683139880306742
40
0.697227563079227
40
0.711315245851711
40
0.725402928624196
40
0.739490611396681
40
0.753578294169166
40
0.767665976941651
40
0.781753659714136
40
0.795841342486621
40
0.809929025259106
40
0.824016708031591
40
0.838104390804076
40
0.852192073576561
40
0.866279756349046
40
0.88036743912153
40
0.894455121894015
40
0.9085428046665
40
0.922630487438985
40
0.93671817021147
40
0.950805852983955
40
0.96489353575644
40
0.978981218528925
40
0.99306890130141
40
1
40
1
40
1
40
1
41
1
10
-2.5
20
13.8300380026554
30
0
41
1
10
-2.5
20
13.8443994558504
30
0
41
1
10
-2.5
20
13.8858550859356
30
0
41
1
10
-2.5
20
13.9432745301022
30
0
41
1
10
-2.5
20
13.9887542441536
30
0
41
1
10
-2.5
20
14.0056234056246
30
0
41
1
10
-2.5
20
13.988752133348
30
0
41
1
10
-2.5
20
13.9330904587156
30
0
41
1
10
-2.5
20
13.8339177083708
30
0
41
1
10
-2.5
20
13.6870701821128
30
0
41
1
10
-2.49999999999997
20
13.4891606659135
30
0
41
1
10
-2.49999999999997
20
13.2377634553435
30
0
41
1
10
-2.49999999999997
20
12.9315646731672
30
0
41
1
10
-2.49999999999997
20
12.5704720586786
30
0
41
1
10
-2.49999999999997
20
12.1556745862519
30
0
41
1
10
-2.49999999999997
20
11.6896573582757
30
0
41
1
10
-2.49999999999997
20
11.1761598486008
30
0
41
1
10
-2.49999999999997
20
10.6200921552756
30
0
41
1
10
-2.49999999999997
20
10.0273966309962
30
0
41
1
10
-2.49999999999994
20
9.40487698463008
30
0
41
1
10
-2.49999999999994
20
8.75998301936997
30
0
41
1
10
-2.49999999999994
20
8.10057759802723
30
0
41
1
10
-2.49999999999994
20
7.43467620819112
30
0
41
1
10
-2.49999999999994
20
6.77018655593477
30
0
41
1
10
-2.49999999999994
20
6.11464187468977
30
0
41
1
10
-2.49999999999994
20
5.47495238907831
30
0
41
1
10
-2.49999999999994
20
4.85717257311447
30
0
41
1
10
-2.49999999999994
20
4.26630223424849
30
0
41
1
10
-2.49999999999994
20
3.70612309484702
30
0
41
1
10
-2.49999999999994
20
3.17908000235968
30
0
41
1
10
-2.49999999999994
20
2.68621197756718
30
0
41
1
10
-2.49999999999994
20
2.22713214869714
30
0
41
1
10
-2.49999999999994
20
1.80006432484655
30
0
41
1
10
-2.49999999999994
20
1.40192548161284
30
0
41
1
10
-2.49999999999994
20
1.02846311010666
30
0
41
1
10
-2.49999999999994
20
0.674428687296569
30
0
41
1
10
-2.49999999999994
20
0.333795915844576
30
0
41
1
10
-2.49999999999994
20
-7.12340693E-08
30
0
41
1
10
-2.49999999999994
20
-0.333795630908241
30
0
41
1
10
-2.49999999999994
20
-0.674428818459575
30
0
41
1
10
-2.49999999999994
20
-1.02846287039082
30
0
41
1
10
-2.49999999999994
20
-1.40192558052763
30
0
41
1
10
-2.49999999999994
20
-1.80006416890296
30
0
41
1
10
-2.49999999999994
20
-2.22713219916599
30
0
41
1
10
-2.49999999999994
20
-2.68621193163514
30
0
41
1
10
-2.49999999999994
20
-3.17907999530164
30
0
41
1
10
-2.49999999999994
20
-3.70612316901105
30
0
41
1
10
-2.49999999999994
20
-4.26630216899858
30
0
41
1
10
-2.49999999999994
20
-4.85717275994992
30
0
41
1
10
-2.49999999999994
20
-5.47495227341935
30
0
41
1
10
-2.49999999999994
20
-6.11464215048997
30
0
41
1
10
-2.49999999999994
20
-6.7701864048623
30
0
41
1
10
-2.49999999999994
20
-7.43467653668063
30
0
41
1
10
-2.49999999999994
20
-8.10057743145504
30
0
41
1
10
-2.49999999999994
20
-8.75998335716918
30
0
41
1
10
-2.49999999999994
20
-9.40487682435958
30
0
41
1
10
-2.49999999999997
20
-10.027396934279
30
0
41
1
10
-2.49999999999997
20
-10.6200920217111
30
0
41
1
10
-2.49999999999997
20
-11.1761600795757
30
0
41
1
10
-2.49999999999997
20
-11.6896572673894
30
0
41
1
10
-2.49999999999997
20
-12.1556747188218
30
0
41
1
10
-2.49999999999997
20
-12.5704720196536
30
0
41
1
10
-2.49999999999997
20
-12.931564696697
30
0
41
1
10
-2.49999999999997
20
-13.2377634692878
30
0
41
1
10
-2.5
20
-13.4891605866066
30
0
41
1
10
-2.5
20
-13.6870702420279
30
0
41
1
10
-2.5
20
-13.8339175480175
30
0
41
1
10
-2.5
20
-13.9330908491367
30
0
41
1
10
-2.5
20
-13.9887513430622
30
0
41
1
10
-2.5
20
-14.0056234821498
30
0
41
1
10
-2.5
20
-13.9887547283385
30
0
41
1
10
-2.5
20
-13.9432743681012
30
0
41
1
10
-2.50000000000003
20
-13.8858549220324
30
0
41
1
10
-2.5
20
-13.8443994037498
30
0
41
1
10
-2.49999999999997
20
-13.8300379971391
30
0
0
SPLINE
5
250
100
AcDbEntity
8
SK1
62
256
6
ByLayer
370
-1
48
1
60
0
100
AcDbSpline
70
4
71
3
72
36
73
32
40
0
40
0
40
0
40
0
40
0.0332996421666683
40
0.0332996421666683
40
0.0866295922417514
40
0.0866295922417514
40
0.193745270169085
40
0.193745270169085
40
0.247042319249035
40
0.247042319249035
40
0.300332977593234
40
0.300332977593234
40
0.353619292121799
40
0.353619292121799
40
0.460448184650326
40
0.460448184650326
40
0.513730575826088
40
0.513730575826088
40
0.620535716611497
40
0.620535716611497
40
0.673818292224374
40
0.673818292224374
40
0.727102323608153
40
0.727102323608153
40
0.833958376067459
40
0.833958376067459
40
0.887248781067809
40
0.887248781067809
40
0.994263406443933
40
0.994263406443933
40
1
40
1
40
1
40
1
41
1
10
-1.69996145737016
20
-2.58069190327936
30
0
41
1
10
-1.69996429163038
20
-2.80951695785709
30
0
41
1
10
-1.69996696089558
20
-3.03562557775425
30
0
41
1
10
-1.699973337193
20
-3.6157289366447
30
0
41
1
10
-1.69997671926922
20
-3.96552379997851
30
0
41
1
10
-1.69998530650679
20
-4.99113580073313
30
0
41
1
10
-1.69998901558614
20
-5.6451156934246
30
0
41
1
10
-1.69999286236259
20
-6.57296958257461
30
0
41
1
10
-1.69999386162712
20
-6.87371338526046
30
0
41
1
10
-1.69999546843783
20
-7.4583834927808
30
0
41
1
10
-1.69999607823138
20
-7.74261790611689
30
0
41
1
10
-1.69999703744654
20
-8.29417338948343
30
0
41
1
10
-1.69999738660749
20
-8.56175046472268
30
0
41
1
10
-1.69999817831075
20
-9.33946452185438
30
0
41
1
10
-1.69999837743333
20
-9.82518649337788
30
0
41
1
10
-1.69999839575107
20
-10.4996879381028
30
0
41
1
10
-1.69999835090127
20
-10.7156644660853
30
0
41
1
10
-1.69999804475921
20
-11.336874457689
30
0
41
1
10
-1.69999762619807
20
-11.7157820313895
30
0
41
1
10
-1.69999631259481
20
-12.2254945281863
30
0
41
1
10
-1.69999575688217
20
-12.385732211918
30
0
41
1
10
-1.69999429236034
20
-12.686096780789
30
0
41
1
10
-1.69999338656007
20
-12.8263310062018
30
0
41
1
10
-1.69998989513294
20
-13.2157140959206
30
0
41
1
10
-1.69998657603577
20
-13.4338327645562
30
0
41
1
10
-1.69997869923833
20
-13.6890552895256
30
0
41
1
10
-1.69997557888936
20
-13.7622199088226
30
0
41
1
10
-1.69996421209731
20
-13.9433027119529
30
0
41
1
10
-1.69995396430045
20
-14.0130768516047
30
0
41
1
10
-1.69993838351951
20
-14.0199514281955
30
0
41
1
10
-1.69993757578195
20
-14.0201187474209
30
0
41
1
10
-1.69993675425061
20
-14.0201000442183
30
0
0
SPLINE
5
251
100
AcDbEntity
8
SK1
62
256
6
ByLayer
370
-1
48
1
60
0
100
AcDbSpline
70
4
71
3
72
32
73
28
40
0
40
0
40
0
40
0
40
0.354837962587792
40
0.354837962587792
40
0.435681934263787
40
0.435681934263787
40
0.463193700904597
40
0.463193700904597
40
0.486354482316139
40
0.486354482316139
40
0.509973974541632
40
0.509973974541632
40
0.516964208360703
40
0.516964208360703
40
0.524073291076373
40
0.524073291076373
40
0.530129314699379
40
0.530129314699379
40
0.538912548051755
40
0.538912548051755
40
0.555847543784125
40
0.555847543784125
40
0.617395553553781
40
0.617395553553781
40
0.862351410077428
40
0.862351410077428
40
1
40
1
40
1
40
1
41
1
10
-1.49999999999997
20
-13.6354046322643
30
0
41
1
10
-1.52103408040219
20
-13.6113106077528
30
0
41
1
10
-1.5431136748729
20
-13.5864010885067
30
0
41
1
10
-1.58136675286579
20
-13.5660073910366
30
0
41
1
10
-1.58900202914975
20
-13.5626923002263
30
0
41
1
10
-1.60130723593383
20
-13.5605634744677
30
0
41
1
10
-1.60462784617891
20
-13.5602351852046
30
0
41
1
10
-1.61136477270867
20
-13.5603829527657
30
0
41
1
10
-1.6146830542956
20
-13.5607248602462
30
0
41
1
10
-1.62228239094077
20
-13.5626439304685
30
0
41
1
10
-1.62665165692866
20
-13.5641658144187
30
0
41
1
10
-1.633716248285
20
-13.5686250506848
30
0
41
1
10
-1.63548301786963
20
-13.5698688039791
30
0
41
1
10
-1.639165556969
20
-13.5728313577292
30
0
41
1
10
-1.64113772385812
20
-13.5746110950765
30
0
41
1
10
-1.64462082807191
20
-13.5781471549731
30
0
41
1
10
-1.64619573481406
20
-13.5799049614575
30
0
41
1
10
-1.64972043997636
20
-13.584157849073
30
0
41
1
10
-1.65159006135414
20
-13.5866989919877
30
0
41
1
10
-1.65639599432834
20
-13.5937562155754
30
0
41
1
10
-1.65888709683196
20
-13.598117184021
30
0
41
1
10
-1.66876077054772
20
-13.6169304791085
30
0
41
1
10
-1.67291602816357
20
-13.6292362105215
30
0
41
1
10
-1.69081671913955
20
-13.6869666460463
30
0
41
1
10
-1.69435307535019
20
-13.7234530454499
30
0
41
1
10
-1.69876945362606
20
-13.7776281868664
30
0
41
1
10
-1.69958314545906
20
-13.7961831676943
30
0
41
1
10
-1.69987639962216
20
-13.8139891097792
30
0
0
SPLINE
5
252
100
AcDbEntity
8
SK1
62
256
6
ByLayer
370
-1
48
1
60
0
100
AcDbSpline
70
4
71
3
72
27
73
23
40
0
40
0
40
0
40
0
40
0.0433318476035857
40
0.0944051784814836
40
0.145478509359382
40
0.19655184023728
40
0.247625171115177
40
0.298698501993075
40
0.349771832870973
40
0.400845163748871
40
0.451918494626769
40
0.502991825504667
40
0.554065156382565
40
0.605138487260463
40
0.656211818138361
40
0.707285149016259
40
0.758358479894157
40
0.809431810772054
40
0.860505141649952
40
0.91157847252785
40
0.962651803405748
40
1
40
1
40
1
40
1
41
1
10
-0.39999999999992
20
4.85227456455002
30
0
41
1
10
-0.39999999999992
20
5.02226873502778
30
0
41
1
10
-0.39999999999992
20
5.3995711445526
30
0
41
1
10
-0.39999999999992
20
6.00058584498379
30
0
41
1
10
-0.39999999999992
20
6.64985057156352
30
0
41
1
10
-0.39999999999992
20
7.30846436616247
30
0
41
1
10
-0.39999999999992
20
7.96888181888042
30
0
41
1
10
-0.39999999999992
20
8.62318035716163
30
0
41
1
10
-0.39999999999992
20
9.26332810646636
30
0
41
1
10
-0.39999999999992
20
9.88144543350359
30
0
41
1
10
-0.39999999999992
20
10.4700665265398
30
0
41
1
10
-0.39999999999992
20
11.022373431452
30
0
41
1
10
-0.399999999999949
20
11.5324122627522
30
0
41
1
10
-0.399999999999949
20
11.9952648181666
30
0
41
1
10
-0.399999999999949
20
12.4071875603976
30
0
41
1
10
-0.399999999999949
20
12.7656956859389
30
0
41
1
10
-0.399999999999949
20
13.0696050688166
30
0
41
1
10
-0.399999999999949
20
13.3190172436223
30
0
41
1
10
-0.399999999999949
20
13.5152595263794
30
0
41
1
10
-0.399999999999949
20
13.6607746658667
30
0
41
1
10
-0.399999999999949
20
13.7501737648812
30
0
41
1
10
-0.399999999999977
20
13.7852935510177
30
0
41
1
10
-0.399999999999977
20
13.7965925646215
30
0
0
SPLINE
5
253
100
AcDbEntity
8
SK1
62
256
6
ByLayer
370
-1
48
1
60
0
100
AcDbSpline
70
4
71
3
72
8
73
4
40
0
40
0
40
0
40
0
40
1
40
1
40
1
40
1
41
1
10
-1.30710678118655
20
3.5887172715492
30
0
41
1
10
-1.37532422566159
20
3.25201925983745
30
0
41
1
10
-1.44087263133542
20
2.90701066801501
30
0
41
1
10
-1.49999999999989
20
2.55452633951475
30
0
0
SPLINE
5
254
100
AcDbEntity
8
SK1
62
256
6
ByLayer
370
-1
48
1
60
0
100
AcDbSpline
70
4
71
3
72
24
73
20
40
0
40
0
40
0
40
0
40
0.0301438054682655
40
0.0301438054682655
40
0.0534484785704977
40
0.0534484785704977
40
0.0720095400082189
40
0.0720095400082189
40
0.0905695383101202
40
0.0905695383101202
40
0.116305960787136
40
0.116305960787136
40
0.162592546214779
40
0.162592546214779
40
0.309069601694224
40
0.309069601694224
40
0.921117608952044
40
0.921117608952044
40
1
40
1
40
1
40
1
41
1
10
-0.39999999999992
20
4.85227456454996
30
0
41
1
10
-0.394020023648153
20
4.84686859936412
30
0
41
1
10
-0.387451859572622
20
4.84195482474243
30
0
41
1
10
-0.374634642632799
20
4.83535851489759
30
0
41
1
10
-0.36852859233727
20
4.8331693070069
30
0
41
1
10
-0.357122680087087
20
4.83148108534394
30
0
41
1
10
-0.351799999816166
20
4.83153855404609
30
0
41
1
10
-0.341483048247653
20
4.83346410195867
30
0
41
1
10
-0.336373704588141
20
4.83534876772512
30
0
41
1
10
-0.325154856426082
20
4.84135562492241
30
0
41
1
10
-0.319215535801988
20
4.84610423757906
30
0
41
1
10
-0.304561922415417
20
4.86072267449359
30
0
41
1
10
-0.296947393086157
20
4.87187082056749
30
0
41
1
10
-0.269928948964264
20
4.91910282403435
30
0
41
1
10
-0.258077067230175
20
4.95889086918967
30
0
41
1
10
-0.207846446885696
20
5.16015067546422
30
0
41
1
10
-0.202576938682426
20
5.32517565344045
30
0
41
1
10
-0.200133226173534
20
5.50577396851835
30
0
41
1
10
-0.199999999999903
20
5.52643078383124
30
0
41
1
10
-0.199999999999903
20
5.54704286105715
30
0
0
SPLINE
5
255
100
AcDbEntity
8
SK1
62
256
6
ByLayer
370
-1
48
1
60
0
100
AcDbSpline
70
4
71
3
72
27
73
23
40
0
40
0
40
0
40
0
40
0.0373491017223203
40
0.0884223864643933
40
0.139495671206466
40
0.19056895594854
40
0.241642240690613
40
0.292715525432686
40
0.343788810174759
40
0.394862094916832
40
0.445935379658905
40
0.497008664400978
40
0.548081949143051
40
0.599155233885124
40
0.650228518627197
40
0.70130180336927
40
0.752375088111343
40
0.803448372853416
40
0.854521657595489
40
0.905594942337563
40
0.956668227079636
40
1
40
1
40
1
40
1
41
1
10
-0.400000000000006
20
-13.7965930683015
30
0
41
1
10
-0.399999999999977
20
-13.7852940850817
30
0
41
1
10
-0.39999999999992
20
-13.7501746952068
30
0
41
1
10
-0.399999999999949
20
-13.6607745146452
30
0
41
1
10
-0.399999999999949
20
-13.5152595834079
30
0
41
1
10
-0.399999999999949
20
-13.3190171661248
30
0
41
1
10
-0.399999999999949
20
-13.0696050793313
30
0
41
1
10
-0.399999999999949
20
-12.765695711353
30
0
41
1
10
-0.399999999999949
20
-12.4071875173709
30
0
41
1
10
-0.399999999999949
20
-11.9952649527342
30
0
41
1
10
-0.399999999999949
20
-11.5324121673266
30
0
41
1
10
-0.39999999999992
20
-11.0223736645665
30
0
41
1
10
-0.39999999999992
20
-10.470066387995
30
0
41
1
10
-0.39999999999992
20
-9.88144573908428
30
0
41
1
10
-0.39999999999992
20
-9.26332794093628
30
0
41
1
10
-0.39999999999992
20
-8.62318069742537
30
0
41
1
10
-0.39999999999992
20
-7.96888164701966
30
0
41
1
10
-0.39999999999992
20
-7.30846469728445
30
0
41
1
10
-0.39999999999992
20
-6.64985041554638
30
0
41
1
10
-0.39999999999992
20
-6.00058612356241
30
0
41
1
10
-0.39999999999992
20
-5.39957119182188
30
0
41
1
10
-0.39999999999992
20
-5.02226907709914
30
0
41
1
10
-0.39999999999992
20
-4.85227506835238
30
0
0
SPLINE
5
256
100
AcDbEntity
8
SK1
62
256
6
ByLayer
370
-1
48
1
60
0
100
AcDbSpline
70
4
71
3
72
24
73
20
40
0
40
0
40
0
40
0
40
0.394875644104775
40
0.394875644104775
40
0.580237478202818
40
0.580237478202818
40
0.768024594545524
40
0.768024594545524
40
0.821318184582328
40
0.821318184582328
40
0.86063645050671
40
0.86063645050671
40
0.893544596745066
40
0.893544596745066
40
0.926376480305815
40
0.926376480305815
40
0.975583602956219
40
0.975583602956219
40
1
40
1
40
1
40
1
41
1
10
-1.30710678118703
20
3.58871727154681
30
0
41
1
10
-1.25970314050051
20
3.82268545505016
30
0
41
1
10
-1.20268951681544
20
4.0522990637061
30
0
41
1
10
-1.088442965686
20
4.37621064451773
30
0
41
1
10
-1.04721780763597
20
4.47806704652851
30
0
41
1
10
-0.946498347972181
20
4.67402400407769
30
0
41
1
10
-0.887649711538188
20
4.77181850306434
30
0
41
1
10
-0.778611976213341
20
4.87193345154523
30
0
41
1
10
-0.751538353604559
20
4.89265008986257
30
0
41
1
10
-0.699050623103489
20
4.92098681441374
30
0
41
1
10
-0.67456405913228
20
4.93073454927372
30
0
41
1
10
-0.627610440444386
20
4.94089837201273
30
0
41
1
10
-0.604990345651117
20
4.94257917258165
30
0
41
1
10
-0.561019153025597
20
4.93928086468458
30
0
41
1
10
-0.539185873337146
20
4.9343220454893
30
0
41
1
10
-0.488505513252846
20
4.91611333631423
30
0
41
1
10
-0.460609299544473
20
4.89990010346509
30
0
41
1
10
-0.423195770996898
20
4.87233551414784
30
0
41
1
10
-0.411325532072311
20
4.86251297160928
30
0
41
1
10
-0.39999999999992
20
4.85227456454996
30
0
0
SPLINE
5
257
100
AcDbEntity
8
SK1
62
256
6
ByLayer
370
-1
48
1
60
0
100
AcDbSpline
70
4
71
3
72
26
73
22
40
0
40
0
40
0
40
0
40
0.469785788569219
40
0.469785788569219
40
0.668418514928435
40
0.668418514928435
40
0.804692954578525
40
0.804692954578525
40
0.873184756231212
40
0.873184756231212
40
0.896859155065286
40
0.896859155065286
40
0.920924484951565
40
0.920924484951565
40
0.939434470473132
40
0.939434470473132
40
0.957835931594599
40
0.957835931594599
40
0.988578442147355
40
0.988578442147355
40
1
40
1
40
1
40
1
41
1
10
-0.199999999999903
20
-5.54704287025544
30
0
41
1
10
-0.199999999999903
20
-5.42431718290925
30
0
41
1
10
-0.20396457895626
20
-5.29966999710626
30
0
41
1
10
-0.224282767013307
20
-5.12103358120197
30
0
41
1
10
-0.232179309049343
20
-5.06756976720519
30
0
41
1
10
-0.252704740622079
20
-4.978190210186
30
0
41
1
10
-0.262871079026354
20
-4.94160900373799
30
0
41
1
10
-0.286311952507617
20
-4.88949466422366
30
0
41
1
10
-0.295652382926335
20
-4.87213340280371
30
0
41
1
10
-0.312747464259928
20
-4.85229180429835
30
0
41
1
10
-0.317656735592436
20
-4.84745945050676
30
0
41
1
10
-0.328573296848816
20
-4.83925806030632
30
0
41
1
10
-0.334764979883033
20
-4.83584014543155
30
0
41
1
10
-0.346232005513514
20
-4.8322957525329
30
0
41
1
10
-0.35150620542197
20
-4.83157582806544
30
0
41
1
10
-0.361702396533559
20
-4.83188756629812
30
0
41
1
10
-0.366737314583702
20
-4.83289323712492
30
0
41
1
10
-0.379301479802251
20
-4.83714877172162
30
0
41
1
10
-0.386503100688515
20
-4.84144785455825
30
0
41
1
10
-0.395398036299696
20
-4.84826453743355
30
0
41
1
10
-0.397738018100881
20
-4.85023021284434
30
0
41
1
10
-0.39999999999992
20
-4.85227506835233
30
0
0
SPLINE
5
258
100
AcDbEntity
8
SK1
62
256
6
ByLayer
370
-1
48
1
60
0
100
AcDbSpline
70
4
71
3
72
30
73
26
40
0
40
0
40
0
40
0
40
0.323683715287821
40
0.323683715287821
40
0.409735865249923
40
0.409735865249923
40
0.452928625832081
40
0.452928625832081
40
0.468145406180671
40
0.468145406180671
40
0.475617260213128
40
0.475617260213128
40
0.481869520397867
40
0.481869520397867
40
0.48817626052579
40
0.48817626052579
40
0.495259728072394
40
0.495259728072394
40
0.507216161807772
40
0.507216161807772
40
0.544450808915845
40
0.544450808915845
40
0.715771905876251
40
0.715771905876251
40
1
40
1
40
1
40
1
41
1
10
-1.69996145737014
20
-2.58069190327925
30
0
41
1
10
-1.69957279427672
20
-2.45735174741614
30
0
41
1
10
-1.69747943572614
20
-2.33275959372483
30
0
41
1
10
-1.68280786661543
20
-2.17510563663223
30
0
41
1
10
-1.67905312643578
20
-2.14178513841156
30
0
41
1
10
-1.66982584439811
20
-2.09257517130857
30
0
41
1
10
-1.66622418704014
20
-2.07599882381985
30
0
41
1
10
-1.65853526999027
20
-2.05523575475587
30
0
41
1
10
-1.65621727335139
20
-2.04990011502019
30
0
41
1
10
-1.65190392784498
20
-2.04295844851055
30
0
41
1
10
-1.65031465018177
20
-2.04081354663947
30
0
41
1
10
-1.64708474378222
20
-2.03758976610058
30
0
41
1
10
-1.64546025470034
20
-2.03637666738331
30
0
41
1
10
-1.64208683909158
20
-2.03484515225668
30
0
41
1
10
-1.64029350998899
20
-2.0345257545506
30
0
41
1
10
-1.63665124005524
20
-2.03480200364953
30
0
41
1
10
-1.63476836522864
20
-2.03549609263416
30
0
41
1
10
-1.63011332934306
20
-2.03820563111981
30
0
41
1
10
-1.62749907113707
20
-2.04079535648785
30
0
41
1
10
-1.61785331798274
20
-2.05253646839518
30
0
41
1
10
-1.61239259265159
20
-2.06415551700681
30
0
41
1
10
-1.58481103440909
20
-2.12952424336697
30
0
41
1
10
-1.57120245893441
20
-2.19071878810982
30
0
41
1
10
-1.53537272921412
20
-2.35076653698448
30
0
41
1
10
-1.51709733996256
20
-2.45260526361207
30
0
41
1
10
-1.49999999999989
20
-2.55452876952825
30
0
0
SPLINE
5
259
100
AcDbEntity
8
SK1
62
256
6
ByLayer
370
-1
48
1
60
0
100
AcDbSpline
70
4
71
3
72
22
73
18
40
0
40
0
40
0
40
0
40
0.0786850835287341
40
0.0786850835287341
40
0.13954779791919
40
0.13954779791919
40
0.188071194161002
40
0.188071194161002
40
0.236589144391117
40
0.236589144391117
40
0.303969216423165
40
0.303969216423165
40
0.425232833638021
40
0.425232833638021
40
0.809203035690162
40
0.809203035690162
40
1
40
1
40
1
40
1
41
1
10
-0.399999999999977
20
-13.8205590132786
30
0
41
1
10
-0.394013511242747
20
-13.8207198641373
30
0
41
1
10
-0.387438377041548
20
-13.8211277948213
30
0
41
1
10
-0.374607857819029
20
-13.8226095541097
30
0
41
1
10
-0.368494470268644
20
-13.8235344490986
30
0
41
1
10
-0.357073302473168
20
-13.8258132771122
30
0
41
1
10
-0.351741572367729
20
-13.8270713477329
30
0
41
1
10
-0.34140996003066
20
-13.8299215021952
30
0
41
1
10
-0.336294849042844
20
-13.831543966011
30
0
41
1
10
-0.325054468279149
20
-13.8355258548496
30
0
41
1
10
-0.319101901704443
20
-13.8379842992552
30
0
41
1
10
-0.304411347490543
20
-13.8446767815525
30
0
41
1
10
-0.296779548188397
20
-13.8489171706104
30
0
41
1
10
-0.269692663824316
20
-13.8655029311592
30
0
41
1
10
-0.257826564745358
20
-13.8765532193897
30
0
41
1
10
-0.243251356547006
20
-13.8915617245935
30
0
41
1
10
-0.238933567229054
20
-13.896330493641
30
0
41
1
10
-0.235061529863543
20
-13.9009197315959
30
0
0
SPLINE
5
25A
100
AcDbEntity
8
SK1
62
256
6
ByLayer
370
-1
48
1
60
0
100
AcDbSpline
70
4
71
3
72
33
73
29
40
0
40
0
40
0
40
0
40
0.032390617787865
40
0.0724576831862677
40
0.11252474858467
40
0.152591813983073
40
0.192658879381476
40
0.232725944779878
40
0.272793010178281
40
0.312860075576683
40
0.352927140975086
40
0.392994206373489
40
0.433061271771891
40
0.473128337170294
40
0.513195402568697
40
0.553262467967099
40
0.593329533365502
40
0.633396598763905
40
0.673463664162307
40
0.71353072956071
40
0.753597794959113
40
0.793664860357515
40
0.833731925755918
40
0.87379899115432
40
0.913866056552723
40
0.953933121951126
40
0.994000187349529
40
1
40
1
40
1
40
1
41
1
10
-1.49999999999994
20
-13.8245287697264
30
0
41
1
10
-1.49999999999994
20
-13.822780187084
30
0
41
1
10
-1.49999999999994
20
-13.8105138124635
30
0
41
1
10
-1.49999999999994
20
-13.7589702687857
30
0
41
1
10
-1.49999999999994
20
-13.6607745146452
30
0
41
1
10
-1.49999999999994
20
-13.5152595834079
30
0
41
1
10
-1.49999999999994
20
-13.3190171661248
30
0
41
1
10
-1.49999999999994
20
-13.0696050793313
30
0
41
1
10
-1.49999999999994
20
-12.765695711353
30
0
41
1
10
-1.49999999999991
20
-12.4071875173709
30
0
41
1
10
-1.49999999999991
20
-11.9952649527342
30
0
41
1
10
-1.49999999999991
20
-11.5324121673266
30
0
41
1
10
-1.49999999999991
20
-11.0223736645665
30
0
41
1
10
-1.49999999999991
20
-10.470066387995
30
0
41
1
10
-1.49999999999991
20
-9.88144573908428
30
0
41
1
10
-1.49999999999991
20
-9.26332794093628
30
0
41
1
10
-1.49999999999991
20
-8.62318069742537
30
0
41
1
10
-1.49999999999991
20
-7.96888164701966
30
0
41
1
10
-1.49999999999991
20
-7.30846469728445
30
0
41
1
10
-1.49999999999989
20
-6.64985041554638
30
0
41
1
10
-1.49999999999989
20
-6.00058612356241
30
0
41
1
10
-1.49999999999989
20
-5.36758867042255
30
0
41
1
10
-1.49999999999989
20
-4.75691763797596
30
0
41
1
10
-1.49999999999989
20
-4.17356939352865
30
0
41
1
10
-1.49999999999989
20
-3.62131845460988
30
0
41
1
10
-1.49999999999989
20
-3.10259083011954
30
0
41
1
10
-1.49999999999989
20
-2.75563447873756
30
0
41
1
10
-1.49999999999989
20
-2.57759088990096
30
0
41
1
10
-1.49999999999989
20
-2.55452876952825
30
0
0
SPLINE
5
25B
100
AcDbEntity
8
SK1
62
256
6
ByLayer
370
-1
48
1
60
0
100
AcDbSpline
70
4
71
3
72
33
73
29
40
0
40
0
40
0
40
0
40
0.0060000285348709
40
0.0460669752234705
40
0.0861339219120702
40
0.12620086860067
40
0.16626781528927
40
0.206334761977869
40
0.246401708666469
40
0.286468655355069
40
0.326535602043668
40
0.366602548732268
40
0.406669495420868
40
0.446736442109467
40
0.486803388798067
40
0.526870335486667
40
0.566937282175266
40
0.607004228863866
40
0.647071175552466
40
0.687138122241065
40
0.727205068929665
40
0.767272015618265
40
0.807338962306864
40
0.847405908995464
40
0.887472855684064
40
0.927539802372663
40
0.967606749061263
40
1
40
1
40
1
40
1
41
1
10
-1.49999999999989
20
2.55452633951475
30
0
41
1
10
-1.49999999999989
20
2.57758935777625
30
0
41
1
10
-1.49999999999989
20
2.75563386385181
30
0
41
1
10
-1.49999999999989
20
3.10259085919483
30
0
41
1
10
-1.49999999999989
20
3.62131828040256
30
0
41
1
10
-1.49999999999989
20
4.17356946094313
30
0
41
1
10
-1.49999999999989
20
4.75691744833273
30
0
41
1
10
-1.49999999999989
20
5.36758879010387
30
0
41
1
10
-1.49999999999989
20
6.00058584498379
30
0
41
1
10
-1.49999999999989
20
6.64985057156352
30
0
41
1
10
-1.49999999999991
20
7.30846436616247
30
0
41
1
10
-1.49999999999991
20
7.96888181888042
30
0
41
1
10
-1.49999999999991
20
8.62318035716163
30
0
41
1
10
-1.49999999999991
20
9.26332810646636
30
0
41
1
10
-1.49999999999991
20
9.88144543350359
30
0
41
1
10
-1.49999999999991
20
10.4700665265398
30
0
41
1
10
-1.49999999999991
20
11.022373431452
30
0
41
1
10
-1.49999999999991
20
11.5324122627522
30
0
41
1
10
-1.49999999999991
20
11.9952648181666
30
0
41
1
10
-1.49999999999991
20
12.4071875603976
30
0
41
1
10
-1.49999999999994
20
12.7656956859389
30
0
41
1
10
-1.49999999999994
20
13.0696050688166
30
0
41
1
10
-1.49999999999994
20
13.3190172436223
30
0
41
1
10
-1.49999999999994
20
13.5152595263794
30
0
41
1
10
-1.49999999999994
20
13.6607746658667
30
0
41
1
10
-1.49999999999994
20
13.7589698929487
30
0
41
1
10
-1.49999999999994
20
13.8105157759644
30
0
41
1
10
-1.49999999999994
20
13.8227814214487
30
0
41
1
10
-1.49999999999994
20
13.8245293394931
30
0
0
SPLINE
5
25C
100
AcDbEntity
8
SK1
62
256
6
ByLayer
370
-1
48
1
60
0
100
AcDbSpline
70
4
71
3
72
10
73
6
40
0
40
0
40
0
40
0
40
0.5
40
0.5
40
1
40
1
40
1
40
1
41
1
10
-1.69996145737096
20
-2.58069190327947
30
0
41
1
10
-1.83066345631863
20
-1.75993459600485
30
0
41
1
10
-1.92828862479948
20
-0.882205733470045
30
0
41
1
10
-1.92884980393794
20
0.873906280567809
30
0
41
1
10
-1.83183274904312
20
1.75257870763846
30
0
41
1
10
-1.69996145715965
20
2.5806889032381
30
0
0
SPLINE
5
25D
100
AcDbEntity
8
SK1
62
256
6
ByLayer
370
-1
48
1
60
0
100
AcDbSpline
70
4
71
3
72
22
73
18
40
0
40
0
40
0
40
0
40
0.0453538571579231
40
0.0453538571579231
40
0.0914518524267671
40
0.0914518524267671
40
0.124365048640694
40
0.124365048640694
40
0.157186848928651
40
0.157186848928651
40
0.206991933628443
40
0.206991933628443
40
0.302636793523901
40
0.302636793523901
40
0.633583445149988
40
0.633583445149988
40
1
40
1
40
1
40
1
41
1
10
-0.39999999999992
20
-4.85227506835233
30
0
41
1
10
-0.420964880828222
20
-4.87122754186862
30
0
41
1
10
-0.443888117925155
20
-4.88887456363264
30
0
41
1
10
-0.494495022291204
20
-4.91840151431526
30
0
41
1
10
-0.52299513623484
20
-4.93045451470871
30
0
41
1
10
-0.574401278620741
20
-4.94114219540694
30
0
41
1
10
-0.597076224252902
20
-4.9426164760024
30
0
41
1
10
-0.641056311684366
20
-4.93891494651641
30
0
41
1
10
-0.662845886446405
20
-4.9337627063027
30
0
41
1
10
-0.71376347581031
20
-4.91501929832424
30
0
41
1
10
-0.741856008482671
20
-4.89837342492686
30
0
41
1
10
-0.814978349041638
20
-4.84361103162897
30
0
41
1
10
-0.854317961498367
20
-4.79908644376556
30
0
41
1
10
-1.00688542665307
20
-4.59427172963152
30
0
41
1
10
-1.0791858799123
20
-4.40986442942582
30
0
41
1
10
-1.21067514066451
20
-4.01906025534171
30
0
41
1
10
-1.26311821358462
20
-3.80583052169118
30
0
41
1
10
-1.30710678118919
20
-3.58871725124908
30
0
0
SPLINE
5
25E
100
AcDbEntity
8
SK1
62
256
6
ByLayer
370
-1
48
1
60
0
100
AcDbSpline
70
4
71
3
72
28
73
24
40
0
40
0
40
0
40
0
40
0.045314505772094
40
0.045314505772094
40
0.157151374705355
40
0.157151374705355
40
0.268988243638615
40
0.268988243638615
40
0.380825112571876
40
0.380825112571876
40
0.492661981505137
40
0.492661981505137
40
0.548580415971767
40
0.548580415971767
40
0.604498850438397
40
0.604498850438397
40
0.716335719371658
40
0.716335719371658
40
0.828172588304919
40
0.828172588304919
40
0.940009457238179
40
0.940009457238179
40
1
40
1
40
1
40
1
41
1
10
-22.5003056830771
20
-13.494601535599
30
0
41
1
10
-22.5000158920805
20
-13.4777766525689
30
0
41
1
10
-22.4997685991816
20
-13.4045745180469
30
0
41
1
10
-22.4989937307487
20
-13.0176080569603
30
0
41
1
10
-22.4986249683274
20
-12.4701500968596
30
0
41
1
10
-22.4982069261353
20
-11.0286978987137
30
0
41
1
10
-22.4981455997663
20
-10.0921297310518
30
0
41
1
10
-22.4983230845615
20
-7.90886209346706
30
0
41
1
10
-22.4986082112245
20
-6.62824532897454
30
0
41
1
10
-22.4993679354385
20
-3.70042306094194
30
0
41
1
10
-22.5004322724609
20
-2.03370616903342
30
0
41
1
10
-22.5004923151495
20
0.897251413489357
30
0
41
1
10
-22.5001090878581
20
1.82206258077932
30
0
41
1
10
-22.4995136142361
20
3.53411939692123
30
0
41
1
10
-22.4992189802757
20
4.32121670078146
30
0
41
1
10
-22.4986136957847
20
6.55202595219237
30
0
41
1
10
-22.4983360854145
20
7.81771510109627
30
0
41
1
10
-22.4981435239426
20
10.0525974738792
30
0
41
1
10
-22.4981983886721
20
10.9721166914213
30
0
41
1
10
-22.4986120765797
20
12.4514986628692
30
0
41
1
10
-22.4989713160795
20
12.9965620594741
30
0
41
1
10
-22.4998145454032
20
13.4323970505025
30
0
41
1
10
-22.5001496286255
20
13.516284947233
30
0
41
1
10
-22.5005702782894
20
13.4924438982339
30
0
0
SPLINE
5
25F
100
AcDbEntity
8
SK1
62
256
6
ByLayer
370
-1
48
1
60
0
100
AcDbSpline
70
4
71
3
72
24
73
20
40
0
40
0
40
0
40
0
40
0.0008299253361681
40
0.0008299253361681
40
0.374241324444196
40
0.374241324444196
40
0.632344789479577
40
0.632344789479577
40
0.762112395220988
40
0.762112395220988
40
0.806579694985655
40
0.806579694985655
40
0.851786357615327
40
0.851786357615327
40
0.89322700015518
40
0.89322700015518
40
0.93646433168079
40
0.93646433168079
40
1
40
1
40
1
40
1
41
1
10
-0.218267038722587
20
13.9259778556267
30
0
41
1
10
-0.218280426881961
20
13.9259543424539
30
0
41
1
10
-0.218293824099845
20
13.9259308243107
30
0
41
1
10
-0.224346935588187
20
13.9153098301286
30
0
41
1
10
-0.232233669438102
20
13.9036655551733
30
0
41
1
10
-0.252765410814618
20
13.8814084969653
30
0
41
1
10
-0.262983257543368
20
13.8715421084066
30
0
41
1
10
-0.286616108803798
20
13.8549361512882
30
0
41
1
10
-0.296048597512964
20
13.8489546731
30
0
41
1
10
-0.313313649213939
20
13.8405611977702
30
0
41
1
10
-0.318242626725265
20
13.8383488525843
30
0
41
1
10
-0.329187128776852
20
13.8339930106961
30
0
41
1
10
-0.335388564995384
20
13.83179581462
30
0
41
1
10
-0.347755359286083
20
13.8280854434499
30
0
41
1
10
-0.354048035137083
20
13.8264890383489
30
0
41
1
10
-0.366250197629455
20
13.8239295609977
30
0
41
1
10
-0.372316125402563
20
13.8229457626001
30
0
41
1
10
-0.38603706697225
20
13.821215643274
30
0
41
1
10
-0.393386043187917
20
13.8207370125792
30
0
41
1
10
-0.399999999999977
20
13.8205593061294
30
0
0
SPLINE
5
260
100
AcDbEntity
8
SK1
62
256
6
ByLayer
370
-1
48
1
60
0
100
AcDbSpline
70
4
71
3
72
32
73
28
40
0
40
0
40
0
40
0
40
0.343889632240037
40
0.343889632240037
40
0.424881203786091
40
0.424881203786091
40
0.45219319517405
40
0.45219319517405
40
0.473746524143709
40
0.473746524143709
40
0.495563509153789
40
0.495563509153789
40
0.504202913264278
40
0.504202913264278
40
0.510236809227349
40
0.510236809227349
40
0.516312447398371
40
0.516312447398371
40
0.523454548652051
40
0.523454548652051
40
0.535565299712341
40
0.535565299712341
40
0.57300444614615
40
0.57300444614615
40
0.744007987780293
40
0.744007987780293
40
1
40
1
40
1
40
1
41
1
10
-1.49999999999989
20
2.55452633951475
30
0
41
1
10
-1.52085985378923
20
2.43017154880397
30
0
41
1
10
-1.54277848657128
20
2.30539150900933
30
0
41
1
10
-1.58054446546703
20
2.15690281341079
30
0
41
1
10
-1.58828317908851
20
2.12879825114811
30
0
41
1
10
-1.60072712650165
20
2.09279395763306
30
0
41
1
10
-1.60406058795391
20
2.08384105107302
30
0
41
1
10
-1.61062680538262
20
2.06838289745696
30
0
41
1
10
-1.6137338099156
20
2.06173130148738
30
0
41
1
10
-1.62074858386092
20
2.04929690476194
30
0
41
1
10
-1.6246915213566
20
2.04329967204669
30
0
41
1
10
-1.63143983836963
20
2.03738508207587
30
0
41
1
10
-1.6335507648601
20
2.03598317715259
30
0
41
1
10
-1.63737876424599
20
2.03469617825761
30
0
41
1
10
-1.63905717359933
20
2.03448731940549
30
0
41
1
10
-1.64239270814321
20
2.0349385986527
30
0
41
1
10
-1.64408889405067
20
2.03561765464858
30
0
41
1
10
-1.64749825596724
20
2.03787010124455
30
0
41
1
10
-1.64921667651578
20
2.03959185511141
30
0
41
1
10
-1.65333511326014
20
2.04482054191681
30
0
41
1
10
-1.65549701098459
20
2.04879885431208
30
0
41
1
10
-1.66311966371092
20
2.06550748630016
30
0
41
1
10
-1.66673415611749
20
2.07974527657228
30
0
41
1
10
-1.68385102741172
20
2.1575921539345
30
0
41
1
10
-1.68804814437192
20
2.22386329884722
30
0
41
1
10
-1.69782346255605
20
2.3865563041347
30
0
41
1
10
-1.69965656225776
20
2.48393126749517
30
0
41
1
10
-1.69996145716266
20
2.58068890323847
30
0
0
SPLINE
5
261
100
AcDbEntity
8
SK1
62
256
6
ByLayer
370
-1
48
1
60
0
100
AcDbSpline
70
4
71
3
72
8
73
4
40
0
40
0
40
0
40
0
40
1
40
1
40
1
40
1
41
1
10
-1.49999999999989
20
-2.55452876952822
30
0
41
1
10
-1.44087207369964
20
-2.90701199552916
30
0
41
1
10
-1.37532387973016
20
-3.25201982801605
30
0
41
1
10
-1.30710678118652
20
-3.58871725126215
30
0
0
SPLINE
5
262
100
AcDbEntity
8
SK1
62
256
6
ByLayer
370
-1
48
1
60
0
100
AcDbSpline
70
4
71
3
72
36
73
32
40
0
40
0
40
0
40
0
40
0.0609459679783903
40
0.0609459679783903
40
0.132350572982163
40
0.132350572982163
40
0.203732784321961
40
0.203732784321961
40
0.275101574808726
40
0.275101574808726
40
0.346462424968363
40
0.346462424968363
40
0.417819049791593
40
0.417819049791593
40
0.489174288113464
40
0.489174288113464
40
0.560530863046517
40
0.560530863046517
40
0.631891607751843
40
0.631891607751843
40
0.703260276788134
40
0.703260276788134
40
0.774642141230399
40
0.774642141230399
40
0.846046336363578
40
0.846046336363578
40
0.91748993923484
40
0.91748993923484
40
0.989010298502639
40
0.989010298502639
40
1
40
1
40
1
40
1
41
1
10
-1.69993712518544
20
14.0200998908195
30
0
41
1
10
-1.69994579429309
20
14.0197255439036
30
0
41
1
10
-1.69995293797186
20
13.9984598300067
30
0
41
1
10
-1.699965968995
20
13.912699878437
30
0
41
1
10
-1.69997144501835
20
13.8412461697365
30
0
41
1
10
-1.69998026772575
20
13.6540534429184
30
0
41
1
10
-1.69998362760808
20
13.5381086536818
30
0
41
1
10
-1.69998893512073
20
13.2660178923742
30
0
41
1
10
-1.69999089366294
20
13.1096457528619
30
0
41
1
10
-1.69999393023608
20
12.759718428774
30
0
41
1
10
-1.69999500206259
20
12.5659031533754
30
0
41
1
10
-1.69999661222786
20
12.1434156407086
30
0
41
1
10
-1.69999715099706
20
11.9144442673658
30
0
41
1
10
-1.69999791606469
20
11.4234052370848
30
0
41
1
10
-1.69999814136457
20
11.1610105069826
30
0
41
1
10
-1.69999839419393
20
10.6045273427662
30
0
41
1
10
-1.69999842180135
20
10.310058909404
30
0
41
1
10
-1.69999829195729
20
9.69048832766435
30
0
41
1
10
-1.69999813485148
20
9.36495240576079
30
0
41
1
10
-1.69999754826782
20
8.68408754721199
30
0
41
1
10
-1.69999711775765
20
8.3282356479576
30
0
41
1
10
-1.6999957833763
20
7.58734438932615
30
0
41
1
10
-1.69999487990981
20
7.20167717645487
30
0
41
1
10
-1.69999225979791
20
6.40163925188287
30
0
41
1
10
-1.69999054604449
20
5.98644558449715
30
0
41
1
10
-1.6999858288633
20
5.12780487492378
30
0
41
1
10
-1.69998281485047
20
4.68321714982289
30
0
41
1
10
-1.69997494930925
20
3.76648812038707
30
0
41
1
10
-1.69997003537304
20
3.29259296387656
30
0
41
1
10
-1.69996330814757
20
2.73138446680247
30
0
41
1
10
-1.6999623922878
20
2.65618850451398
30
0
41
1
10
-1.69996145716257
20
2.58068890323852
30
0
0
SPLINE
5
263
100
AcDbEntity
8
1
62
256
6
ByLayer
370
-1
48
1
60
0
100
AcDbSpline
70
4
71
3
72
20
73
16
40
0
40
0
40
0
40
0
40
0.511365204366874
40
0.511365204366874
40
0.617167309555274
40
0.617167309555274
40
0.785488434327012
40
0.785488434327012
40
0.873398812153806
40
0.873398812153806
40
0.935684402254193
40
0.935684402254193
40
0.978722765374119
40
0.978722765374119
40
1
40
1
40
1
40
1
41
1
10
53.4287469730172
20
-2.60981640855473
30
0
41
1
10
53.4369993305703
20
-2.72205309330781
30
0
41
1
10
53.4412668021278
20
-2.83513804104706
30
0
41
1
10
53.4311825890001
20
-2.97074768353724
30
0
41
1
10
53.4288432663654
20
-2.99403071702261
30
0
41
1
10
53.4205235805715
20
-3.05396031130675
30
0
41
1
10
53.413398943516
20
-3.09075068055464
30
0
41
1
10
53.3952462777009
20
-3.14448900849536
30
0
41
1
10
53.3876206007028
20
-3.16269511572509
30
0
41
1
10
53.3703514837783
20
-3.19134895528595
30
0
41
1
10
53.3617871840506
20
-3.20269407637827
30
0
41
1
10
53.3442149298857
20
-3.21857889418655
30
0
41
1
10
53.3359774583123
20
-3.22421532283258
30
0
41
1
10
53.3225919901901
20
-3.2301976865181
30
0
41
1
10
53.3179270760795
20
-3.231803989501
30
0
41
1
10
53.3131694107344
20
-3.23297071344652
30
0
0
SPLINE
5
264
100
AcDbEntity
8
1
62
256
6
ByLayer
370
-1
48
1
60
0
100
AcDbSpline
70
4
71
2
72
6
73
3
40
0
40
0
40
0
40
1
40
1
40
1
41
0.500001284135469
10
56.8578399044045
20
-11.5713690651681
30
0
41
0.499998715864531
10
56.858437331905
20
-11.5722129181399
30
0
41
0.500001284135469
10
56.8590339794569
20
-11.573057266447
30
0
0
SPLINE
5
265
100
AcDbEntity
8
1
62
256
6
ByLayer
370
-1
48
1
60
0
100
AcDbSpline
70
4
71
3
72
14
73
10
40
0
40
0
40
0
40
0
40
0.249606055014986
40
0.249606055014986
40
0.499158243446871
40
0.499158243446871
40
0.746144217743594
40
0.746144217743594
40
1
40
1
40
1
40
1
41
1
10
59.9988185797055
20
-5.34555048386045
30
0
41
1
10
59.9988334068592
20
-5.32829810190651
30
0
41
1
10
59.9988744089185
20
-5.31146006558763
30
0
41
1
10
59.9990059405457
20
-5.27930133718365
30
0
41
1
10
59.9990969086179
20
-5.26386835793892
30
0
41
1
10
59.9993237552176
20
-5.23504919126262
30
0
41
1
10
59.9994599123583
20
-5.22154781408818
30
0
41
1
10
59.9997776667996
20
-5.19639487588961
30
0
41
1
10
59.9999615286451
20
-5.18471758511015
30
0
41
1
10
60.0001645144408
20
-5.17436078870261
30
0
0
SPLINE
5
266
100
AcDbEntity
8
1
62
256
6
ByLayer
370
-1
48
1
60
0
100
AcDbSpline
70
4
71
3
72
24
73
20
40
0
40
0
40
0
40
0
40
0.0154450745970669
40
0.0154450745970669
40
0.0417985895668824
40
0.0417985895668824
40
0.048397259787727
40
0.048397259787727
40
0.102103855500584
40
0.102103855500584
40
0.185330321122069
40
0.185330321122069
40
0.354377449491646
40
0.354377449491646
40
0.535348727399452
40
0.535348727399452
40
0.666091500997336
40
0.666091500997336
40
1
40
1
40
1
40
1
41
1
10
58.6851538154918
20
-5.71281684724207
30
0
41
1
10
58.6841944096306
20
-5.71586419749769
30
0
41
1
10
58.6836752576174
20
-5.71906069538963
30
0
41
1
10
58.6834606556868
20
-5.72758026330507
30
0
41
1
10
58.6845711800019
20
-5.73297984146029
30
0
41
1
10
58.6868579523848
20
-5.73927055929425
30
0
41
1
10
58.6873676630204
20
-5.740527697066
30
0
41
1
10
58.6923162607559
20
-5.75169641526929
30
0
41
1
10
58.6991111068649
20
-5.76059334292626
30
0
41
1
10
58.7179180982349
20
-5.78126259907535
30
0
41
1
10
58.7311714111494
20
-5.79229728919171
30
0
41
1
10
58.7726959197032
20
-5.82340891801329
30
0
41
1
10
58.8028806679834
20
-5.84133282594354
30
0
41
1
10
58.8664245003498
20
-5.8761066997543
30
0
41
1
10
58.9001500789516
20
-5.89268763390066
30
0
41
1
10
58.9588717218141
20
-5.91991105779425
30
0
41
1
10
58.9837238482399
20
-5.93091171275034
30
0
41
1
10
59.0725376834062
20
-5.96889948954501
30
0
41
1
10
59.1372933387234
20
-5.99424483621095
30
0
41
1
10
59.2024794711793
20
-6.01847176625353
30
0
0
SPLINE
5
267
100
AcDbEntity
8
1
62
256
6
ByLayer
370
-1
48
1
60
0
100
AcDbSpline
70
4
71
3
72
18
73
14
40
0
40
0
40
0
40
0
40
0.439677344605704
40
0.439677344605704
40
0.819840138515273
40
0.819840138515273
40
0.920758376963029
40
0.920758376963029
40
0.968467673881566
40
0.968467673881566
40
0.990240013274118
40
0.990240013274118
40
1
40
1
40
1
40
1
41
1
10
52.3464270749264
20
-2.84510125318775
30
0
41
1
10
52.3850398882892
20
-2.92991152887956
30
0
41
1
10
52.4255300286196
20
-3.01401277763063
30
0
41
1
10
52.5087406253859
20
-3.16659021419642
30
0
41
1
10
52.5491358125622
20
-3.23753117204475
30
0
41
1
10
52.6161105968758
20
-3.31497099891357
30
0
41
1
10
52.6313269517236
20
-3.33079661849664
30
0
41
1
10
52.6575573198841
20
-3.34896300547439
30
0
41
1
10
52.666819430522
20
-3.35413053449557
30
0
41
1
10
52.6813803253504
20
-3.35794536340026
30
0
41
1
10
52.6862120796345
20
-3.35858137920053
30
0
41
1
10
52.6931136453417
20
-3.35822427589113
30
0
41
1
10
52.6952642265428
20
-3.35793335292999
30
0
41
1
10
52.6973628002793
20
-3.35745612326267
30
0
0
SPLINE
5
268
100
AcDbEntity
8
1
62
256
6
ByLayer
370
-1
48
1
60
0
100
AcDbSpline
70
4
71
3
72
20
73
16
40
0
40
0
40
0
40
0
40
0.511365204367436
40
0.511365204367436
40
0.617167309555446
40
0.617167309555446
40
0.785488434327111
40
0.785488434327111
40
0.873398812153864
40
0.873398812153864
40
0.935684402254219
40
0.935684402254219
40
0.978722765374129
40
0.978722765374129
40
1
40
1
40
1
40
1
41
1
10
59.1605421515043
20
-6.11241853568666
30
0
41
1
10
59.0557693315754
20
-6.06364360448154
30
0
41
1
10
58.9522441193674
20
-6.0111138962036
30
0
41
1
10
58.8357586726924
20
-5.9354025851911
30
0
41
1
10
58.8160654548722
20
-5.92189494953229
30
0
41
1
10
58.7665340746469
20
-5.8852039064036
30
0
41
1
10
58.7371436086565
20
-5.86099179792726
30
0
41
1
10
58.6981173327077
20
-5.81914538342241
30
0
41
1
10
58.6856391724223
20
-5.80373351016789
30
0
41
1
10
58.6686546067453
20
-5.77507043527854
30
0
41
1
10
58.6627999473585
20
-5.76227691483936
30
0
41
1
10
58.6574149009798
20
-5.73969477936194
30
0
41
1
10
58.6565130952957
20
-5.73000671488546
30
0
41
1
10
58.6578953134845
20
-5.71583995318156
30
0
41
1
10
58.6588060519693
20
-5.71114017441849
30
0
41
1
10
58.6601575886813
20
-5.70658086505907
30
0
0
SPLINE
5
269
100
AcDbEntity
8
1
62
256
6
ByLayer
370
-1
48
1
60
0
100
AcDbSpline
70
4
71
3
72
16
73
12
40
0
40
0
40
0
40
0
40
0.0426292751499176
40
0.0426292751499176
40
0.0996436166287579
40
0.0996436166287579
40
0.207156078099359
40
0.207156078099359
40
0.580806890299262
40
0.580806890299262
40
1
40
1
40
1
40
1
41
1
10
52.7037017156807
20
-3.38243069061034
30
0
41
1
10
52.6940257739077
20
-3.38480352521364
30
0
41
1
10
52.6837585618197
20
-3.38534265069913
30
0
41
1
10
52.6605891298297
20
-3.38304450804688
30
0
41
1
10
52.6475603074865
20
-3.37910918154276
30
0
41
1
10
52.6125354771614
20
-3.36407447268735
30
0
41
1
10
52.5917845810963
20
-3.34969293343119
30
0
41
1
10
52.5068666025424
20
-3.28033680933226
30
0
41
1
10
52.4552893036275
20
-3.21121457489343
30
0
41
1
10
52.3537353000847
20
-3.06379862616566
30
0
41
1
10
52.3056176393653
20
-2.98202508274906
30
0
41
1
10
52.2602865385463
20
-2.89905534038687
30
0
0
SPLINE
5
26A
100
AcDbEntity
8
1
62
256
6
ByLayer
370
-1
48
1
60
0
100
AcDbSpline
70
4
71
3
72
24
73
20
40
0
40
0
40
0
40
0
40
0.0154450745970706
40
0.0154450745970706
40
0.0417985895668809
40
0.0417985895668809
40
0.0483972597877273
40
0.0483972597877273
40
0.10210385550058
40
0.10210385550058
40
0.185330321122064
40
0.185330321122064
40
0.354377449491643
40
0.354377449491643
40
0.535348727399446
40
0.535348727399446
40
0.666091500997332
40
0.666091500997332
40
1
40
1
40
1
40
1
41
1
10
53.7295110772648
20
-8.96999146132541
30
0
41
1
10
53.7272652305627
20
-8.96768062555878
30
0
41
1
10
53.7246569782995
20
-8.9656542037167
30
0
41
1
10
53.7170993833281
20
-8.96120705066991
30
0
41
1
10
53.7116634817384
20
-8.95940553035322
30
0
41
1
10
53.7048158199375
20
-8.95811679047583
30
0
41
1
10
53.7034200583771
20
-8.95790226107198
30
0
41
1
10
53.6908019908416
20
-8.95633914435376
30
0
41
1
10
53.679271954699
20
-8.95742137134451
30
0
41
1
10
53.6509193985499
20
-8.96240008883805
30
0
41
1
10
53.6341174680789
20
-8.96767886615055
30
0
41
1
10
53.5845899095937
20
-8.98595284739125
30
0
41
1
10
53.5528098480983
20
-9.00158776380192
30
0
41
1
10
53.4885693836333
20
-9.03598313639867
30
0
41
1
10
53.456161074521
20
-9.05517730855436
30
0
41
1
10
53.4012138517763
20
-9.08942115384266
30
0
41
1
10
53.3784275358791
20
-9.10417437546403
30
0
41
1
10
53.2981877602043
20
-9.15756037674592
30
0
41
1
10
53.2417984242115
20
-9.19766091443827
30
0
41
1
10
53.1861905812906
20
-9.23867037548254
30
0
0
SPLINE
5
26B
100
AcDbEntity
8
1
62
256
6
ByLayer
370
-1
48
1
60
0
100
AcDbSpline
70
4
71
3
72
14
73
10
40
0
40
0
40
0
40
0
40
0.249606055014975
40
0.249606055014975
40
0.499158243446861
40
0.499158243446861
40
0.746144217743588
40
0.746144217743588
40
1
40
1
40
1
40
1
41
1
10
53.3432996562534
20
-10.1737464755703
30
0
41
1
10
53.3589843871608
20
-10.1826456997342
30
0
41
1
10
53.374684051586
20
-10.1919405087065
30
0
41
1
10
53.4054542452957
20
-10.2109148462967
30
0
41
1
10
53.4206319070349
20
-10.220660149995
30
0
41
1
10
53.4498153198994
20
-10.240166788466
30
0
41
1
10
53.4639284453082
20
-10.2499916661694
30
0
41
1
10
53.4911671830362
20
-10.2697673352095
30
0
41
1
10
53.504349288129
20
-10.2797828986409
30
0
41
1
10
53.5166299309381
20
-10.2895825839837
30
0
0
SPLINE
5
26C
100
AcDbEntity
8
1
62
256
6
ByLayer
370
-1
48
1
60
0
100
AcDbSpline
70
4
71
3
72
10
73
6
40
0
40
0
40
0
40
0
40
0.70949562281678
40
0.70949562281678
40
1
40
1
40
1
40
1
41
1
10
55.8398038349676
20
-11.6064123582383
30
0
41
1
10
55.8630546515992
20
-11.6165434392561
30
0
41
1
10
55.888166127392
20
-11.6219874249782
30
0
41
1
10
55.9228031113536
20
-11.6236746442517
30
0
41
1
10
55.9329839697443
20
-11.6234717072203
30
0
41
1
10
55.9431008469153
20
-11.6226363932798
30
0
0
SPLINE
5
26D
100
AcDbEntity
8
1
62
256
6
ByLayer
370
-1
48
1
60
0
100
AcDbSpline
70
4
71
3
72
12
73
8
40
0
40
0
40
0
40
0
40
0.347623173836862
40
0.347623173836862
40
0.696503371294852
40
0.696503371294852
40
1
40
1
40
1
40
1
41
1
10
59.5541252467711
20
-1.73744596379473
30
0
41
1
10
59.5470503978908
20
-1.72517693413729
30
0
41
1
10
59.5419007205695
20
-1.71161639884741
30
0
41
1
10
59.5363304274205
20
-1.6841472374995
30
0
41
1
10
59.535863542846
20
-1.66983960752347
30
0
41
1
10
59.5394551123435
20
-1.64466621444788
30
0
41
1
10
59.5429802934248
20
-1.63330453599437
30
0
41
1
10
59.5479866932225
20
-1.62320682869435
30
0
0
SPLINE
5
26E
100
AcDbEntity
8
1
62
256
6
ByLayer
370
-1
48
1
60
0
100
AcDbSpline
70
4
71
3
72
16
73
12
40
0
40
0
40
0
40
0
40
0.0426292751499098
40
0.0426292751499098
40
0.0996436166287523
40
0.0996436166287523
40
0.207156078099353
40
0.207156078099353
40
0.580806890299258
40
0.580806890299258
40
1
40
1
40
1
40
1
41
1
10
54.184616422264
20
-9.38761991134038
30
0
41
1
10
54.1915436649207
20
-9.39451961036153
30
0
41
1
10
54.1971204047606
20
-9.40283802485735
30
0
41
1
10
54.206554318958
20
-9.42338084399339
30
0
41
1
10
54.2094899469837
20
-9.43626449551914
30
0
41
1
10
54.2133875132128
20
-9.47314426765732
30
0
41
1
10
54.2107894829927
20
-9.49775258045412
30
0
41
1
10
54.1907421192701
20
-9.60374877502554
30
0
41
1
10
54.1543645107257
20
-9.6817325547145
30
0
41
1
10
54.0725935024792
20
-9.84098259100185
30
0
41
1
10
54.0231583671109
20
-9.92244700157744
30
0
41
1
10
53.9712685222777
20
-10.0021828093749
30
0
0
SPLINE
5
26F
100
AcDbEntity
8
1
62
256
6
ByLayer
370
-1
48
1
60
0
100
AcDbSpline
70
4
71
3
72
14
73
10
40
0
40
0
40
0
40
0
40
0.249606055014984
40
0.249606055014984
40
0.499158243446863
40
0.499158243446863
40
0.746144217743585
40
0.746144217743585
40
1
40
1
40
1
40
1
41
1
10
52.3688678216052
20
-2.21018087520318
30
0
41
1
10
52.3532127450052
20
-2.21921685896075
30
0
41
1
10
52.3375950846987
20
-2.22864832941727
30
0
41
1
10
52.3070879542433
20
-2.24789006692541
30
0
41
1
10
52.2920922286485
20
-2.25776704023241
30
0
41
1
10
52.2633625089835
20
-2.27752639807554
30
0
41
1
10
52.249521697856
20
-2.28747326022327
30
0
41
1
10
52.2229184690107
20
-2.30748388301902
30
0
41
1
10
52.2101040876088
20
-2.31761288904036
30
0
41
1
10
52.1982294163911
20
-2.32751798252676
30
0
0
SPLINE
5
270
100
AcDbEntity
8
1
62
256
6
ByLayer
370
-1
48
1
60
0
100
AcDbSpline
70
4
71
2
72
6
73
3
40
0
40
0
40
0
40
1
40
1
40
1
41
0.50000128421651
10
59.5479866932225
20
-1.62320682869433
30
0
41
0.49999871578349
10
59.5484028025992
20
-1.62236755279555
30
0
41
0.50000128421651
10
59.5488184035136
20
-1.62153129237072
30
0
0
SPLINE
5
271
100
AcDbEntity
8
1
62
256
6
ByLayer
370
-1
48
1
60
0
100
AcDbSpline
70
4
71
3
72
12
73
8
40
0
40
0
40
0
40
0
40
0.474376698371041
40
0.474376698371041
40
0.706219783413732
40
0.706219783413732
40
1
40
1
40
1
40
1
41
1
10
52.611521341396
20
-9.77604082936227
30
0
41
1
10
52.6340272513862
20
-9.7834533540439
30
0
41
1
10
52.6600562996099
20
-9.79392927263913
30
0
41
1
10
52.7007315433508
20
-9.81263996525007
30
0
41
1
10
52.7146083744865
20
-9.81938029896457
30
0
41
1
10
52.7463681539067
20
-9.83556932989146
30
0
41
1
10
52.7644977191442
20
-9.84534503755981
30
0
41
1
10
52.7824852161581
20
-9.85555080831975
30
0
0
SPLINE
5
272
100
AcDbEntity
8
1
62
256
6
ByLayer
370
-1
48
1
60
0
100
AcDbSpline
70
4
71
3
72
18
73
14
40
0
40
0
40
0
40
0
40
0.439677344605708
40
0.439677344605708
40
0.819840138515278
40
0.819840138515278
40
0.920758376963038
40
0.920758376963038
40
0.968467673881582
40
0.968467673881582
40
0.99024001327413
40
0.99024001327413
40
1
40
1
40
1
40
1
41
1
10
53.8877136101133
20
-9.94258401287112
30
0
41
1
10
53.9434738421378
20
-9.86971136289927
30
0
41
1
10
53.9976718394034
20
-9.79561618111958
30
0
41
1
10
54.0911325465436
20
-9.65308589313281
30
0
41
1
10
54.1337369283883
20
-9.58539595150418
30
0
41
1
10
54.168820811949
20
-9.49250647093214
30
0
41
1
10
54.1752269345296
20
-9.47225360576854
30
0
41
1
10
54.178204674419
20
-9.44172886554927
30
0
41
1
10
54.1781525223055
20
-9.43155077745689
30
0
41
1
10
54.1742574580355
20
-9.41762425672718
30
0
41
1
10
54.1724075854197
20
-9.41330622501548
30
0
41
1
10
54.1686453655449
20
-9.40774767761937
30
0
41
1
10
54.167314059614
20
-9.4061020704288
30
0
41
1
10
54.1658438616195
20
-9.4045893286613
30
0
0
SPLINE
5
273
100
AcDbEntity
8
1
62
256
6
ByLayer
370
-1
48
1
60
0
100
AcDbSpline
70
4
71
3
72
12
73
8
40
0
40
0
40
0
40
0
40
0.474376698371049
40
0.474376698371049
40
0.706219783413745
40
0.706219783413745
40
1
40
1
40
1
40
1
41
1
10
59.9993088935015
20
-6.16993280002777
30
0
41
1
10
59.998968152087
20
-6.13921639692285
30
0
41
1
10
59.9987026747952
20
-6.10580920780066
30
0
41
1
10
59.9984459606277
20
-6.0562082848665
30
0
41
1
10
59.9983825030249
20
-6.03968357841347
30
0
41
1
10
59.9982887967614
20
-6.0027121161956
30
0
41
1
10
59.9982714243002
20
-5.98220227939601
30
0
41
1
10
59.9982884283142
20
-5.96241697541407
30
0
0
SPLINE
5
274
100
AcDbEntity
8
1
62
256
6
ByLayer
370
-1
48
1
60
0
100
AcDbSpline
70
4
71
3
72
12
73
8
40
0
40
0
40
0
40
0
40
0.347623173836883
40
0.347623173836883
40
0.696503371294862
40
0.696503371294862
40
1
40
1
40
1
40
1
41
1
10
49.394563489464
20
-4.32322667964325
30
0
41
1
10
49.3874886405836
20
-4.33452097358517
30
0
41
1
10
49.3782734829346
20
-4.34490898508074
30
0
41
1
10
49.3568915215767
20
-4.36247643812581
30
0
41
1
10
49.3443906795926
20
-4.36989429846108
30
0
41
1
10
49.319753341629
20
-4.38013819473605
30
0
41
1
10
49.3074909526799
20
-4.38355473409388
30
0
41
1
10
49.2954260720382
20
-4.38548666000082
30
0
0
SPLINE
5
275
100
AcDbEntity
8
1
62
256
6
ByLayer
370
-1
48
1
60
0
100
AcDbSpline
70
4
71
2
72
6
73
3
40
0
40
0
40
0
40
1
40
1
40
1
41
0.500001283809901
10
49.2954260720381
20
-4.38548666000083
30
0
41
0.499998716190099
10
49.2944232935616
20
-4.38564723297083
30
0
41
0.500001283809901
10
49.2934221311148
20
-4.38580932434725
30
0
0
SPLINE
5
276
100
AcDbEntity
8
1
62
256
6
ByLayer
370
-1
48
1
60
0
100
AcDbSpline
70
4
71
3
72
16
73
12
40
0
40
0
40
0
40
0
40
0.0426292751499109
40
0.0426292751499109
40
0.0996436166287509
40
0.0996436166287509
40
0.20715607809935
40
0.20715607809935
40
0.580806890299256
40
0.580806890299256
40
1
40
1
40
1
40
1
41
1
10
58.8332924993804
20
-5.12252302055933
30
0
41
1
10
58.8360411984966
20
-5.11325048693487
30
0
41
1
10
58.8407316707448
20
-5.1043929469536
30
0
41
1
10
58.8544671885374
20
-5.08614827046981
30
0
41
1
10
58.8645603828548
20
-5.07719994544814
30
0
41
1
10
58.8956876469509
20
-5.05535488216537
30
0
41
1
10
58.9190365732361
20
-5.04512810862477
30
0
41
1
10
59.0240019155125
20
-5.00848803815225
30
0
41
1
10
59.111956822972
20
-4.99962649290211
30
0
41
1
10
59.2952818347611
20
-4.98779240534253
30
0
41
1
10
59.392834630849
20
-4.98810153818357
30
0
41
1
10
59.4900555765011
20
-4.99133547274832
30
0
0
SPLINE
5
277
100
AcDbEntity
8
1
62
256
6
ByLayer
370
-1
48
1
60
0
100
AcDbSpline
70
4
71
3
72
10
73
6
40
0
40
0
40
0
40
0
40
0.709495622816785
40
0.709495622816785
40
1
40
1
40
1
40
1
41
1
10
60.0012058988419
20
-2.61963082946673
30
0
41
1
10
59.9987534331305
20
-2.59507280891157
30
0
41
1
10
59.9921309410939
20
-2.56945769790355
30
0
41
1
10
59.9783043093756
20
-2.53603195679156
30
0
41
1
10
59.9736778280507
20
-2.52643430143968
30
0
41
1
10
59.9685421027961
20
-2.51715830363733
30
0
0
SPLINE
5
278
100
AcDbEntity
8
1
62
256
6
ByLayer
370
-1
48
1
60
0
100
AcDbSpline
70
4
71
3
72
12
73
8
40
0
40
0
40
0
40
0
40
0.474376698371058
40
0.474376698371058
40
0.706219783413759
40
0.706219783413759
40
1
40
1
40
1
40
1
41
1
10
53.1016267640547
20
-1.80608433076611
30
0
41
1
10
53.0784393712354
20
-1.81369625033958
30
0
41
1
10
53.0518793684276
20
-1.82440165525961
30
0
41
1
10
53.0106906963517
20
-1.84346958286201
30
0
41
1
10
52.9966869500108
20
-1.85033158089931
30
0
41
1
10
52.9647397580637
20
-1.86679861415658
30
0
41
1
10
52.9465754479039
20
-1.87673269981283
30
0
41
1
10
52.928621958918
20
-1.8870953086338
30
0
0
SPLINE
5
279
100
AcDbEntity
8
1
62
256
6
ByLayer
370
-1
48
1
60
0
100
AcDbSpline
70
4
71
3
72
24
73
20
40
0
40
0
40
0
40
0
40
0.0154450745970495
40
0.0154450745970495
40
0.0417985895668253
40
0.0417985895668253
40
0.0483972597876658
40
0.0483972597876658
40
0.102103855500445
40
0.102103855500445
40
0.185330321121814
40
0.185330321121814
40
0.354377449491148
40
0.354377449491148
40
0.535348727398701
40
0.535348727398701
40
0.666091501001305
40
0.666091501001305
40
1
40
1
40
1
40
1
41
1
10
53.3068304953329
20
-3.20799614609882
30
0
41
1
10
53.3100362369561
20
-3.20726713906811
30
0
41
1
10
53.3131627834357
20
-3.20608389515289
30
0
41
1
10
53.3209294018768
20
-3.2019258464519
30
0
41
1
10
53.3252477329253
20
-3.19821962341342
30
0
41
1
10
53.3297976113132
20
-3.19304861734864
30
0
41
1
10
53.3306813130395
20
-3.19196994690617
30
0
41
1
10
53.3383287257741
20
-3.18202575184435
30
0
41
1
10
53.3430382889658
20
-3.17165320469786
30
0
41
1
10
53.3525157425412
20
-3.14495966966186
30
0
41
1
10
53.3560188834566
20
-3.12794809945751
30
0
41
1
10
53.3638818284722
20
-3.07641176699966
30
0
41
1
10
53.3653785333895
20
-3.04133922650297
30
0
41
1
10
53.3658694021075
20
-2.96901134780913
30
0
41
1
10
53.3644441131766
20
-2.93157805677885
30
0
41
1
10
53.3604825401377
20
-2.86723784073169
30
0
41
1
10
53.3583378205895
20
-2.84027264802464
30
0
41
1
10
53.3494824608917
20
-2.74458068697922
30
0
41
1
10
53.3409122639889
20
-2.6760051185943
30
0
41
1
10
53.3311292740381
20
-2.60762641257895
30
0
0
SPLINE
5
27A
100
AcDbEntity
8
1
62
256
6
ByLayer
370
-1
48
1
60
0
100
AcDbSpline
70
4
71
3
72
18
73
14
40
0
40
0
40
0
40
0
40
0.439677344605703
40
0.439677344605703
40
0.819840138515269
40
0.819840138515269
40
0.920758376963034
40
0.920758376963034
40
0.968467673881573
40
0.968467673881573
40
0.990240013274128
40
0.990240013274128
40
1
40
1
40
1
40
1
41
1
10
59.4856243699837
20
-5.07655719358598
30
0
41
1
10
59.3915234179367
20
-5.06879641802919
30
0
41
1
10
59.2971062263633
20
-5.06294958897797
30
0
41
1
10
59.1209332270556
20
-5.0605518141131
30
0
41
1
10
59.0381662521438
20
-5.0608713033028
30
0
41
1
10
58.9363794543691
20
-5.08049438024514
30
0
41
1
10
58.9148137405959
20
-5.08579299328349
30
0
41
1
10
58.8856777661561
20
-5.09925865507228
30
0
41
1
10
58.8764897602854
20
-5.10460620491776
30
0
41
1
10
58.865846279341
20
-5.11506098117309
30
0
41
1
10
58.8628700360824
20
-5.11882955117792
30
0
41
1
10
58.8597351689593
20
-5.12481395365083
30
0
41
1
10
58.8589167817798
20
-5.12676411670219
30
0
41
1
10
58.8582887261908
20
-5.12875900274233
30
0
0
SPLINE
5
27B
100
AcDbEntity
8
1
62
256
6
ByLayer
370
-1
48
1
60
0
100
AcDbSpline
70
4
71
3
72
12
73
8
40
0
40
0
40
0
40
0
40
0.347623173836892
40
0.347623173836892
40
0.696503371294874
40
0.696503371294874
40
1
40
1
40
1
40
1
41
1
10
56.7526194007186
20
-11.5202413776193
30
0
41
1
10
56.7666678476776
20
-11.5196618326364
30
0
41
1
10
56.7809381549005
20
-11.5213832799838
30
0
41
1
10
56.8077731599582
20
-11.5294851155642
30
0
41
1
10
56.8207179949087
20
-11.5360234807311
30
0
41
1
10
56.8418344427971
20
-11.5520379631345
30
0
41
1
10
56.8506519843863
20
-11.5612162890356
30
0
41
1
10
56.8578399044045
20
-11.5713690651681
30
0
0
SPLINE
5
27C
100
AcDbEntity
8
1
62
256
6
ByLayer
370
-1
48
1
60
0
100
AcDbSpline
70
4
71
3
72
10
73
6
40
0
40
0
40
0
40
0
40
0.709495622816782
40
0.709495622816782
40
1
40
1
40
1
40
1
41
1
10
49.8806009035156
20
-3.66653043480505
30
0
41
1
10
49.8598025525954
20
-3.68095737434237
30
0
41
1
10
49.8410800375326
20
-3.69754360749164
30
0
41
1
10
49.819818683946
20
-3.72235889838214
30
0
41
1
10
49.8141160707407
20
-3.72988394758951
30
0
41
1
10
49.8089803454861
20
-3.73762243509381
30
0
0
SPLINE
5
27D
100
AcDbEntity
8
1
62
256
6
ByLayer
370
-1
48
1
60
0
100
AcDbSpline
70
4
71
3
72
20
73
16
40
0
40
0
40
0
40
0
40
0.511365204367435
40
0.511365204367435
40
0.617167309555451
40
0.617167309555451
40
0.785488434327115
40
0.785488434327115
40
0.873398812153858
40
0.873398812153858
40
0.935684402254219
40
0.935684402254219
40
0.978722765374134
40
0.978722765374134
40
1
40
1
40
1
40
1
41
1
10
53.1323215128037
20
-9.17033867826865
30
0
41
1
10
53.2288419751794
20
-9.10687692472069
30
0
41
1
10
53.3280997158311
20
-9.0463216852593
30
0
41
1
10
53.4546693756342
20
-8.98642335378167
30
0
41
1
10
53.4767019160876
20
-8.97664795595506
30
0
41
1
10
53.5345529821068
20
-8.95340940479971
30
0
41
1
10
53.5710680851526
20
-8.94083114402815
30
0
41
1
10
53.6282470269165
20
-8.92893923059231
30
0
41
1
10
53.6483508642
20
-8.92614499661707
30
0
41
1
10
53.6826045468015
20
-8.92615423194556
30
0
41
1
10
53.697023505916
20
-8.92760263129244
30
0
41
1
10
53.7199808064596
20
-8.93429994896158
30
0
41
1
10
53.7291200837171
20
-8.938351584792
30
0
41
1
10
53.7411233336504
20
-8.94653598281042
30
0
41
1
10
53.7448775092763
20
-8.94962945859055
30
0
41
1
10
53.7482836379094
20
-8.95302204400446
30
0
0
SPLINE
5
27E
100
AcDbEntity
8
1
62
256
6
ByLayer
370
-1
48
1
60
0
100
AcDbSpline
70
4
71
3
72
34
73
30
40
0
40
0
40
0
40
0
40
0.0514465755209424
40
0.0514465755209424
40
0.13578614473541
40
0.13578614473541
40
0.203131635218865
40
0.203131635218865
40
0.270315608875094
40
0.270315608875094
40
0.337431278535927
40
0.337431278535927
40
0.404515897625515
40
0.404515897625515
40
0.499929883690866
40
0.499929883690866
40
0.599210771748132
40
0.599210771748132
40
0.697083019894226
40
0.697083019894226
40
0.780957226922756
40
0.780957226922756
40
0.847546414393275
40
0.847546414393275
40
0.898875235580379
40
0.898875235580379
40
0.980803570703577
40
0.980803570703577
40
1
40
1
40
1
40
1
41
1
10
56.7015123581272
20
-6.3790492962803
30
0
41
1
10
56.6878450824024
20
-6.37434690587395
30
0
41
1
10
56.673491364928
20
-6.37221366379626
30
0
41
1
10
56.6364183129165
20
-6.3718491613794
30
0
41
1
10
56.6134810743221
20
-6.37677361594447
30
0
41
1
10
56.5744364490326
20
-6.3908826921195
30
0
41
1
10
56.5575751137128
20
-6.39914383063558
30
0
41
1
10
56.5252677746898
20
-6.41835509321746
30
0
41
1
10
56.5097147141002
20
-6.42936776122261
30
0
41
1
10
56.4799385930765
20
-6.45347580729026
30
0
41
1
10
56.4656505199231
20
-6.46662486131387
30
0
41
1
10
56.4383848422488
20
-6.49462367577121
30
0
41
1
10
56.4253603974897
20
-6.50952245160823
30
0
41
1
10
56.3954590624698
20
-6.54731011064058
30
0
41
1
10
56.3791729706254
20
-6.57104111417064
30
0
41
1
10
56.3489742236024
20
-6.62171598727005
30
0
41
1
10
56.3350863946089
20
-6.64891360453365
30
0
41
1
10
56.3111730893374
20
-6.7046753380196
30
0
41
1
10
56.3010112445857
20
-6.73339954701319
30
0
41
1
10
56.2861955890188
20
-6.78776922861709
30
0
41
1
10
56.2809145520225
20
-6.8134324824608
30
0
41
1
10
56.2751303570117
20
-6.85972446115395
30
0
41
1
10
56.2738522962759
20
-6.88042813240304
30
0
41
1
10
56.2746054131142
20
-6.91679601715271
30
0
41
1
10
56.2759509793227
20
-6.93262146739343
30
0
41
1
10
56.2827974386726
20
-6.97252129663573
30
0
41
1
10
56.2904344205731
20
-6.99677139983646
30
0
41
1
10
56.3057842651492
20
-7.02246747564064
30
0
41
1
10
56.3090252463857
20
-7.0272402767271
30
0
41
1
10
56.3125440060256
20
-7.03175590915384
30
0
0
SPLINE
5
27F
100
AcDbEntity
8
1
62
256
6
ByLayer
370
-1
48
1
60
0
100
AcDbSpline
70
4
71
3
72
22
73
18
40
0
40
0
40
0
40
0
40
0.097371265984696
40
0.097371265984696
40
0.180296832630716
40
0.180296832630716
40
0.30744508080304
40
0.30744508080304
40
0.411978418514896
40
0.411978418514896
40
0.516185210011092
40
0.516185210011092
40
0.620250145291918
40
0.620250145291918
40
0.829289859626088
40
0.829289859626088
40
1
40
1
40
1
40
1
41
1
10
54.1728414789748
20
-4.9763755420891
30
0
41
1
10
54.1646612774358
20
-4.96767089838042
30
0
41
1
10
54.1588588367913
20
-4.9567775187094
30
0
41
1
10
54.1537259071768
20
-4.93475929011615
30
0
41
1
10
54.1534565520083
20
-4.92367670818118
30
0
41
1
10
54.157099508996
20
-4.89550623400027
30
0
41
1
10
54.1632437780509
20
-4.87789871430357
30
0
41
1
10
54.1784007052705
20
-4.84709436111248
30
0
41
1
10
54.1868259283934
20
-4.833411976912
30
0
41
1
10
54.2055841370284
20
-4.80703336612854
30
0
41
1
10
54.2159734759069
20
-4.79425024413206
30
0
41
1
10
54.2380989106927
20
-4.76961037190623
30
0
41
1
10
54.2498741360823
20
-4.75770979463624
30
0
41
1
10
54.2867876046084
20
-4.72326551270393
30
0
41
1
10
54.3135852798971
20
-4.70189967543942
30
0
41
1
10
54.3646110715834
20
-4.66616458017765
30
0
41
1
10
54.3885268786985
20
-4.65116130524086
30
0
41
1
10
54.4131419545795
20
-4.63731522694644
30
0
0
SPLINE
5
280
100
AcDbEntity
8
1
62
256
6
ByLayer
370
-1
48
1
60
0
100
AcDbSpline
70
4
71
3
72
24
73
20
40
0
40
0
40
0
40
0
40
0.0380198325522348
40
0.0380198325522348
40
0.246834654675432
40
0.246834654675432
40
0.40472650566377
40
0.40472650566377
40
0.526150637963231
40
0.526150637963231
40
0.621531995503997
40
0.621531995503997
40
0.776890538332355
40
0.776890538332355
40
0.873684213898203
40
0.873684213898203
40
0.971746172255173
40
0.971746172255173
40
1
40
1
40
1
40
1
41
1
10
56.9273215690023
20
-6.02775103592623
30
0
41
1
10
56.9273215690023
20
-6.03387348411735
30
0
41
1
10
56.927246305988
20
-6.03999094130535
30
0
41
1
10
56.9262693760962
20
-6.07960074043893
30
0
41
1
10
56.9231936052086
20
-6.11297822571669
30
0
41
1
10
56.9134701698805
20
-6.17039948625077
30
0
41
1
10
56.9078547730731
20
-6.19484010570707
30
0
41
1
10
56.8949649545602
20
-6.23681043035478
30
0
41
1
10
56.8883504643624
20
-6.25470046738471
30
0
41
1
10
56.8744011622694
20
-6.28535878222587
30
0
41
1
10
56.8675002383959
20
-6.29845276145139
30
0
41
1
10
56.847136735728
20
-6.33083326510953
30
0
41
1
10
56.8319789092369
20
-6.34939748246049
30
0
41
1
10
56.8027368170626
20
-6.37244222451031
30
0
41
1
10
56.7901253331104
20
-6.37969324615779
30
0
41
1
10
56.7632419114001
20
-6.38856579828752
30
0
41
1
10
56.748544877472
20
-6.39014116189202
30
0
41
1
10
56.7300531367366
20
-6.38785134611834
30
0
41
1
10
56.7258651065917
20
-6.38705659519152
30
0
41
1
10
56.7217242779141
20
-6.38600351624297
30
0
0
SPLINE
5
281
100
AcDbEntity
8
1
62
256
6
ByLayer
370
-1
48
1
60
0
100
AcDbSpline
70
4
71
3
72
8
73
4
40
0
40
0
40
0
40
0
40
1
40
1
40
1
40
1
41
1
10
54.1728414789748
20
-7.05966028206507
30
0
41
1
10
54.1772984033188
20
-7.05371362121286
30
0
41
1
10
54.1817553532875
20
-7.04776695023574
30
0
41
1
10
54.1862123299376
20
-7.04182026871746
30
0
0
SPLINE
5
282
100
AcDbEntity
8
1
62
256
6
ByLayer
370
-1
48
1
60
0
100
AcDbSpline
70
4
71
3
72
8
73
4
40
0
40
0
40
0
40
0
40
1
40
1
40
1
40
1
41
1
10
54.8542145370912
20
-4.59310048106499
30
0
41
1
10
54.8562796171392
20
-4.59831863094857
30
0
41
1
10
54.8583447098941
20
-4.60353683100604
30
0
41
1
10
54.86040981588
20
-4.60875508330699
30
0
0
SPLINE
5
283
100
AcDbEntity
8
1
62
256
6
ByLayer
370
-1
48
1
60
0
100
AcDbSpline
70
4
71
3
72
8
73
4
40
0
40
0
40
0
40
0
40
1
40
1
40
1
40
1
41
1
10
54.1862123299376
20
-4.98799385638262
30
0
41
1
10
54.1817553532875
20
-4.98412104086387
30
0
41
1
10
54.1772984033188
20
-4.98024827002271
30
0
41
1
10
54.1728414789748
20
-4.9763755420891
30
0
0
SPLINE
5
284
100
AcDbEntity
8
1
62
256
6
ByLayer
370
-1
48
1
60
0
100
AcDbSpline
70
4
71
3
72
24
73
20
40
0
40
0
40
0
40
0
40
0.0380198325519957
40
0.0380198325519957
40
0.246834654675165
40
0.246834654675165
40
0.404726505663556
40
0.404726505663556
40
0.526150637963065
40
0.526150637963065
40
0.621531995503864
40
0.621531995503864
40
0.776890538332255
40
0.776890538332255
40
0.873684213898134
40
0.873684213898134
40
0.971746172255139
40
0.971746172255139
40
1
40
1
40
1
40
1
41
1
10
56.0892616975281
20
-4.62938181187562
30
0
41
1
10
56.0947500167266
20
-4.63241705864201
30
0
41
1
10
56.1002009185049
20
-4.63550952691784
30
0
41
1
10
56.1352806301965
20
-4.65592117179213
30
0
41
1
10
56.1638530107719
20
-4.67490903101256
30
0
41
1
10
56.2110956616337
20
-4.71107206983351
30
0
41
1
10
56.230566852584
20
-4.7276295832514
30
0
41
1
10
56.2626391983097
20
-4.75860083116172
30
0
41
1
10
56.2758394844593
20
-4.77267810010201
30
0
41
1
10
56.2973903483222
20
-4.79882763571891
30
0
41
1
10
56.3062082674838
20
-4.81072673829485
30
0
41
1
10
56.3266917916785
20
-4.84268911701361
30
0
41
1
10
56.3370348737476
20
-4.86369509464421
30
0
41
1
10
56.3458068241058
20
-4.89771592651871
30
0
41
1
10
56.3472377508874
20
-4.91101861284912
30
0
41
1
10
56.3445666495842
20
-4.93599300261221
30
0
41
1
10
56.3402618329444
20
-4.94796285764741
30
0
41
1
10
56.3311534711045
20
-4.96081556909135
30
0
41
1
10
56.3288518977229
20
-4.96358377559233
30
0
41
1
10
56.3263453836785
20
-4.96618257085029
30
0
0
SPLINE
5
285
100
AcDbEntity
8
1
62
256
6
ByLayer
370
-1
48
1
60
0
100
AcDbSpline
70
4
71
3
72
22
73
18
40
0
40
0
40
0
40
0
40
0.0973712659846762
40
0.0973712659846762
40
0.180296832630713
40
0.180296832630713
40
0.307445080803049
40
0.307445080803049
40
0.411978418514933
40
0.411978418514933
40
0.516185210011155
40
0.516185210011155
40
0.620250145292013
40
0.620250145292013
40
0.829289859626226
40
0.829289859626226
40
1
40
1
40
1
40
1
41
1
10
56.7217242779141
20
-5.62590354826148
30
0
41
1
10
56.7357195330442
20
-5.6263368008029
30
0
41
1
10
56.7504629188895
20
-5.6298231467986
30
0
41
1
10
56.7761679324047
20
-5.64128560354317
30
0
41
1
10
56.7876706013163
20
-5.64860640818762
30
0
41
1
10
56.8142578793373
20
-5.67016403949563
30
0
41
1
10
56.8285097102932
20
-5.68627783812286
30
0
41
1
10
56.850819271815
20
-5.7175812814163
30
0
41
1
10
56.8597197426811
20
-5.73267957100327
30
0
41
1
10
56.8754154473653
20
-5.76361200212165
30
0
41
1
10
56.8822651327315
20
-5.77954349592642
30
0
41
1
10
56.8942709755548
20
-5.81181038450794
30
0
41
1
10
56.8994483497673
20
-5.8282026236983
30
0
41
1
10
56.9128456745475
20
-5.87778790528037
30
0
41
1
10
56.9189717940162
20
-5.91149714411705
30
0
41
1
10
56.9258160713853
20
-5.97267856601854
30
0
41
1
10
56.9273215690023
20
-6.00029189564162
30
0
41
1
10
56.9273215690023
20
-6.02775103592623
30
0
0
SPLINE
5
286
100
AcDbEntity
8
1
62
256
6
ByLayer
370
-1
48
1
60
0
100
AcDbSpline
70
4
71
3
72
34
73
30
40
0
40
0
40
0
40
0
40
0.0514465755209411
40
0.0514465755209411
40
0.135786144735408
40
0.135786144735408
40
0.203131635218874
40
0.203131635218874
40
0.270315608875113
40
0.270315608875113
40
0.337431278535945
40
0.337431278535945
40
0.404515897625541
40
0.404515897625541
40
0.499929883690864
40
0.499929883690864
40
0.599210771748131
40
0.599210771748131
40
0.69708301989422
40
0.69708301989422
40
0.78095722692275
40
0.78095722692275
40
0.847546414393269
40
0.847546414393269
40
0.898875235580373
40
0.898875235580373
40
0.980803570703574
40
0.980803570703574
40
1
40
1
40
1
40
1
41
1
10
54.86040981588
20
-4.60875508330699
30
0
41
1
10
54.864599060139
20
-4.61934075476572
30
0
41
1
10
54.871429302425
20
-4.62920994787441
30
0
41
1
10
54.8935161862327
20
-4.65243549923562
30
0
41
1
10
54.9116295163334
20
-4.66454149317062
30
0
41
1
10
54.9473449453899
20
-4.68275772941939
30
0
41
1
10
54.9646173990439
20
-4.68971846622478
30
0
41
1
10
55.0005561582314
20
-4.70172257382606
30
0
41
1
10
55.0193408283864
20
-4.70680574170001
30
0
41
1
10
55.0578109315651
20
-4.71541582533058
30
0
41
1
10
55.0775813680366
20
-4.71896086377507
30
0
41
1
10
55.1176899418912
20
-4.72470425973498
30
0
41
1
10
55.1380978093972
20
-4.72691201040465
30
0
41
1
10
55.1878611628518
20
-4.73076853741838
30
0
41
1
10
55.2175233189763
20
-4.73180548603372
30
0
41
1
10
55.2779208130224
20
-4.73151961243101
30
0
41
1
10
55.3088452635758
20
-4.73009956263834
30
0
41
1
10
55.3693430508268
20
-4.72464630709419
30
0
41
1
10
55.399133034007
20
-4.72063553943892
30
0
41
1
10
55.4527769118035
20
-4.71043895399154
30
0
41
1
10
55.4770347933771
20
-4.70461653035781
30
0
41
1
10
55.5185391274958
20
-4.69176916275052
30
0
41
1
10
55.5363137443426
20
-4.68520289618743
30
0
41
1
10
55.5657749901302
20
-4.67170414047743
30
0
41
1
10
55.5779971139547
20
-4.66516303039009
30
0
41
1
10
55.6068135593615
20
-4.64634727757056
30
0
41
1
10
55.6223167523331
20
-4.63257180969563
30
0
41
1
10
55.6345987164563
20
-4.6129856180026
30
0
41
1
10
55.6366572243676
20
-4.60907969408814
30
0
41
1
10
55.6383465200832
20
-4.60507295093001
30
0
0
SPLINE
5
287
100
AcDbEntity
8
1
62
256
6
ByLayer
370
-1
48
1
60
0
100
AcDbSpline
70
4
71
3
72
30
73
26
40
0
40
0
40
0
40
0
40
0.0511772287528871
40
0.0511772287528871
40
0.135075241067796
40
0.135075241067796
40
0.271834780652428
40
0.271834780652428
40
0.469061266910873
40
0.469061266910873
40
0.500636061959798
40
0.500636061959798
40
0.599800502489193
40
0.599800502489193
40
0.697557955314527
40
0.697557955314527
40
0.781333785463103
40
0.781333785463103
40
0.847844869822084
40
0.847844869822084
40
0.899113486931139
40
0.899113486931139
40
0.939077913069158
40
0.939077913069158
40
1
40
1
40
1
40
1
41
1
10
54.1862123299376
20
-4.98799385638267
30
0
41
1
10
54.1952536885757
20
-4.99585019416347
30
0
41
1
10
54.2023411237447
20
-5.00557471525028
30
0
41
1
10
54.2162457808864
20
-5.03340280172401
30
0
41
1
10
54.220445718365
20
-5.05333513446541
30
0
41
1
10
54.2238416383998
20
-5.10715095121429
30
0
41
1
10
54.2185236676094
20
-5.14312114884072
30
0
41
1
10
54.1953915565414
20
-5.23059804340156
30
0
41
1
10
54.1725602247578
20
-5.28390448540998
30
0
41
1
10
54.1395617190858
20
-5.34357515582553
30
0
41
1
10
54.1347966449232
20
-5.35187044850537
30
0
41
1
10
54.1144826866865
20
-5.38595819575548
30
0
41
1
10
54.0975375254497
20
-5.41146499339479
30
0
41
1
10
54.0613132373674
20
-5.46041829074275
30
0
41
1
10
54.0419523501853
20
-5.48405508357502
30
0
41
1
10
54.0037780789728
20
-5.52550657291633
30
0
41
1
10
53.9851672669992
20
-5.543797960268
30
0
41
1
10
53.9502139570168
20
-5.57395832221434
30
0
41
1
10
53.9340976049592
20
-5.5864558607434
30
0
41
1
10
53.9046248615149
20
-5.60610770887695
30
0
41
1
10
53.8914048984607
20
-5.61387787406659
30
0
41
1
10
53.8674432564296
20
-5.62555707721168
30
0
41
1
10
53.8567353506503
20
-5.62996588267174
30
0
41
1
10
53.8297335810227
20
-5.63850176242858
30
0
41
1
10
53.8130109972661
20
-5.64138690017003
30
0
41
1
10
53.797243977836
20
-5.64070046925622
30
0
0
SPLINE
5
288
100
AcDbEntity
8
1
62
256
6
ByLayer
370
-1
48
1
60
0
100
AcDbSpline
70
4
71
3
72
24
73
20
40
0
40
0
40
0
40
0
40
0.097402156626973
40
0.097402156626973
40
0.180354031075301
40
0.180354031075301
40
0.307542616517198
40
0.307542616517198
40
0.412109117009584
40
0.412109117009584
40
0.516348967690843
40
0.516348967690843
40
0.620446917153424
40
0.620446917153424
40
0.724476829460011
40
0.724476829460011
40
0.93331090138622
40
0.93331090138622
40
1
40
1
40
1
40
1
41
1
10
53.7774625847393
20
-5.6398393366724
30
0
41
1
10
53.7637586940945
20
-5.64040369489496
30
0
41
1
10
53.7493045673201
20
-5.64402823864628
30
0
41
1
10
53.7240757795608
20
-5.65573177541413
30
0
41
1
10
53.7127749478255
20
-5.66316051365726
30
0
41
1
10
53.6866346395021
20
-5.68496771533745
30
0
41
1
10
53.6726035401663
20
-5.70121538281637
30
0
41
1
10
53.6506235566252
20
-5.73272845751927
30
0
41
1
10
53.6418476138928
20
-5.74791041316087
30
0
41
1
10
53.626364429099
20
-5.77899042029378
30
0
41
1
10
53.6196034362222
20
-5.79498633620156
30
0
41
1
10
53.6077490448384
20
-5.82736616011624
30
0
41
1
10
53.6026346635043
20
-5.84380711227578
30
0
41
1
10
53.5938237970247
20
-5.87689490311089
30
0
41
1
10
53.5901177823477
20
-5.89357902879823
30
0
41
1
10
53.580879931272
20
-5.94383345040558
30
0
41
1
10
53.5772060123784
20
-5.97768773353019
30
0
41
1
10
53.5753109062169
20
-6.02212190311584
30
0
41
1
10
53.5750820831052
20
-6.03288062921791
30
0
41
1
10
53.5750820831052
20
-6.04361786606788
30
0
0
SPLINE
5
289
100
AcDbEntity
8
1
62
256
6
ByLayer
370
-1
48
1
60
0
100
AcDbSpline
70
4
71
3
72
22
73
18
40
0
40
0
40
0
40
0
40
0.0973712659846882
40
0.0973712659846882
40
0.180296832630705
40
0.180296832630705
40
0.307445080803029
40
0.307445080803029
40
0.411978418514899
40
0.411978418514899
40
0.516185210011107
40
0.516185210011107
40
0.620250145291952
40
0.620250145291952
40
0.829289859626151
40
0.829289859626151
40
1
40
1
40
1
40
1
41
1
10
56.3263453836786
20
-7.04946731082626
30
0
41
1
10
56.3348169497029
20
-7.06229552993463
30
0
41
1
10
56.3409086494182
20
-7.07728268784149
30
0
41
1
10
56.3465178047887
20
-7.10604076604184
30
0
41
1
10
56.3469889971334
20
-7.11997987599079
30
0
41
1
10
56.3437930098433
20
-7.15447614944398
30
0
41
1
10
56.3378694724084
20
-7.17520760333429
30
0
41
1
10
56.3230421231695
20
-7.21067635360046
30
0
41
1
10
56.3147414281803
20
-7.22612113910375
30
0
41
1
10
56.2961957394358
20
-7.25550746646388
30
0
41
1
10
56.2858950930477
20
-7.26954582096081
30
0
41
1
10
56.2639211097015
20
-7.29632913022871
30
0
41
1
10
56.2522088771893
20
-7.30912122274128
30
0
41
1
10
56.2154552203465
20
-7.34582726119717
30
0
41
1
10
56.1887260074053
20
-7.36816202112226
30
0
41
1
10
56.1377762947993
20
-7.40497383588794
30
0
41
1
10
56.113876773409
20
-7.42020759675327
30
0
41
1
10
56.0892616975281
20
-7.43405367504769
30
0
0
SPLINE
5
28A
100
AcDbEntity
8
1
62
256
6
ByLayer
370
-1
48
1
60
0
100
AcDbSpline
70
4
71
3
72
22
73
18
40
0
40
0
40
0
40
0
40
0.0973712659846699
40
0.0973712659846699
40
0.1802968326307
40
0.1802968326307
40
0.307445080803018
40
0.307445080803018
40
0.411978418514889
40
0.411978418514889
40
0.516185210011081
40
0.516185210011081
40
0.620250145291913
40
0.620250145291913
40
0.829289859626088
40
0.829289859626088
40
1
40
1
40
1
40
1
41
1
10
54.8542145370912
20
-7.43648518902248
30
0
41
1
10
54.848836530228
20
-7.45094194328928
30
0
41
1
10
54.8403294736335
20
-7.46448964431835
30
0
41
1
10
54.8204717283667
20
-7.48515519057767
30
0
41
1
10
54.809541170388
20
-7.49320175988916
30
0
41
1
10
54.7799813899256
20
-7.50930330167046
30
0
41
1
10
54.7599163873449
20
-7.51548292403038
30
0
41
1
10
54.7229442655746
20
-7.52198042954063
30
0
41
1
10
54.7058053637861
20
-7.52320812610839
30
0
41
1
10
54.6716702303025
20
-7.52316588063846
30
0
41
1
10
54.6545642447935
20
-7.52190035758088
30
0
41
1
10
54.6206601443438
20
-7.51748849678825
30
0
41
1
10
54.6038020340578
20
-7.51433410773177
30
0
41
1
10
54.5537309582764
20
-7.50258574286741
30
0
41
1
10
54.5209098570403
20
-7.49169572528609
30
0
41
1
10
54.4631539066054
20
-7.4678644779022
30
0
41
1
10
54.4377570304604
20
-7.45560015210873
30
0
41
1
10
54.4131419545795
20
-7.44198709011852
30
0
0
SPLINE
5
28B
100
AcDbEntity
8
1
62
256
6
ByLayer
370
-1
48
1
60
0
100
AcDbSpline
70
4
71
3
72
30
73
26
40
0
40
0
40
0
40
0
40
0.0515194889309869
40
0.0515194889309869
40
0.0928771460763373
40
0.0928771460763373
40
0.14818515044222
40
0.14818515044222
40
0.203338923043295
40
0.203338923043295
40
0.287955708682703
40
0.287955708682703
40
0.372427214532649
40
0.372427214532649
40
0.435367147735184
40
0.435367147735184
40
0.498971020782858
40
0.498971020782858
40
0.701334348038925
40
0.701334348038925
40
0.838887327921291
40
0.838887327921291
40
0.925006664597047
40
0.925006664597047
40
1
40
1
40
1
40
1
41
1
10
53.797243977836
20
-6.39279578822092
30
0
41
1
10
53.8106201383423
20
-6.38796539573988
30
0
41
1
10
53.8246831624704
20
-6.38569765145431
30
0
41
1
10
53.8496501657883
20
-6.38520861533618
30
0
41
1
10
53.8607962310385
20
-6.38626163196227
30
0
41
1
10
53.8863266055463
20
-6.39096912813
30
0
41
1
10
53.9006744147181
20
-6.39539382138202
30
0
41
1
10
53.928431558419
20
-6.40665808168782
30
0
41
1
10
53.9419368983613
20
-6.41353190361178
30
0
41
1
10
53.9750168406033
20
-6.43326986758032
30
0
41
1
10
53.9941492436003
20
-6.44745684428236
30
0
41
1
10
54.030363196083
20
-6.47891545136485
30
0
41
1
10
54.0475649083274
20
-6.49629456966184
30
0
41
1
10
54.0758329180788
20
-6.52877591610547
30
0
41
1
10
54.0873882551283
20
-6.54338478977093
30
0
41
1
10
54.1094553402458
20
-6.57394119140835
30
0
41
1
10
54.1199839342165
20
-6.58994206109398
30
0
41
1
10
54.1609899074375
20
-6.65836377284305
30
0
41
1
10
54.1865032113724
20
-6.71633065021575
30
0
41
1
10
54.2142129999311
20
-6.81725785568321
30
0
41
1
10
54.2215231419922
20
-6.86005135629892
30
0
41
1
10
54.2225357180563
20
-6.92888295046143
30
0
41
1
10
54.2202602491481
20
-6.95571491735652
30
0
41
1
10
54.2083078994519
20
-7.00290739180215
30
0
41
1
10
54.1993367564662
20
-7.02430911916403
30
0
41
1
10
54.1862123299376
20
-7.04182026871746
30
0
0
SPLINE
5
28C
100
AcDbEntity
8
1
62
256
6
ByLayer
370
-1
48
1
60
0
100
AcDbSpline
70
4
71
3
72
8
73
4
40
0
40
0
40
0
40
0
40
1
40
1
40
1
40
1
41
1
10
53.797243977836
20
-5.64070046925622
30
0
41
1
10
53.7906501419502
20
-5.64041340087192
30
0
41
1
10
53.784056344762
20
-5.64012635700121
30
0
41
1
10
53.7774625847393
20
-5.6398393366724
30
0
0
SPLINE
5
28D
100
AcDbEntity
8
1
62
256
6
ByLayer
370
-1
48
1
60
0
100
AcDbSpline
70
4
71
3
72
24
73
20
40
0
40
0
40
0
40
0
40
0.0380198325520569
40
0.0380198325520569
40
0.246834654675205
40
0.246834654675205
40
0.404726505663588
40
0.404726505663588
40
0.526150637963063
40
0.526150637963063
40
0.621531995503855
40
0.621531995503855
40
0.776890538332256
40
0.776890538332256
40
0.873684213898121
40
0.873684213898121
40
0.971746172255116
40
0.971746172255116
40
1
40
1
40
1
40
1
41
1
10
54.4131419545795
20
-4.63731522694644
30
0
41
1
10
54.4186302737781
20
-4.63422802552174
30
0
41
1
10
54.4241560278187
20
-4.63119722338737
30
0
41
1
10
54.460207330691
20
-4.61192351229602
30
0
41
1
10
54.4918388400252
20
-4.597298356251
30
0
41
1
10
54.5487498252264
20
-4.57526031032313
30
0
41
1
10
54.5738041336135
20
-4.56692036611383
30
0
41
1
10
54.6186884805225
20
-4.55481996906448
30
0
41
1
10
54.6384623653711
20
-4.55042847849165
30
0
41
1
10
54.6738721530972
20
-4.54464060911153
30
0
41
1
10
54.6895450702673
20
-4.54279576042691
30
0
41
1
10
54.7302506024772
20
-4.54037511322085
30
0
41
1
10
54.7556411946571
20
-4.54125560596583
30
0
41
1
10
54.7934207062443
20
-4.54891246477658
30
0
41
1
10
54.8073572868911
20
-4.55346635479944
30
0
41
1
10
54.8313291770156
20
-4.56616547024581
30
0
41
1
10
54.8415824508839
20
-4.57459354607769
30
0
41
1
10
54.8507797406462
20
-4.5871024215958
30
0
41
1
10
54.8526233260099
20
-4.5900586357258
30
0
41
1
10
54.8542145370911
20
-4.59310048106499
30
0
0
SPLINE
5
28E
100
AcDbEntity
8
1
62
256
6
ByLayer
370
-1
48
1
60
0
100
AcDbSpline
70
4
71
3
72
8
73
4
40
0
40
0
40
0
40
0
40
1
40
1
40
1
40
1
41
1
10
55.6449723255622
20
-7.43274237185037
30
0
41
1
10
55.6427637342526
20
-7.42549315937188
30
0
41
1
10
55.6405551325688
20
-7.41824392973368
30
0
41
1
10
55.6383465200832
20
-7.4109946822295
30
0
0
SPLINE
5
28F
100
AcDbEntity
8
1
62
256
6
ByLayer
370
-1
48
1
60
0
100
AcDbSpline
70
4
71
3
72
22
73
18
40
0
40
0
40
0
40
0
40
0.142057608739352
40
0.142057608739352
40
0.351004812992998
40
0.351004812992998
40
0.487763342942081
40
0.487763342942081
40
0.591529353509569
40
0.591529353509569
40
0.758694969227191
40
0.758694969227191
40
0.858776631808966
40
0.858776631808966
40
0.960359919517452
40
0.960359919517452
40
1
40
1
40
1
40
1
41
1
10
53.5750820831052
20
-6.04361786606788
30
0
41
1
10
53.5750820831052
20
-6.06646426137735
30
0
41
1
10
53.5761148661618
20
-6.08925135689921
30
0
41
1
10
53.5812931001009
20
-6.14500015831848
30
0
41
1
10
53.586670935244
20
-6.1778865888972
30
0
41
1
10
53.6000078335764
20
-6.23059379843326
30
0
41
1
10
53.6064645200374
20
-6.25109496273623
30
0
41
1
10
53.6202814496132
20
-6.28578351355176
30
0
41
1
10
53.627072783583
20
-6.30035684720926
30
0
41
1
10
53.6472398695058
20
-6.33631874784115
30
0
41
1
10
53.662375965494
20
-6.35704913785167
30
0
41
1
10
53.6917096856829
20
-6.38290267056593
30
0
41
1
10
53.7041161680423
20
-6.39106283290133
30
0
41
1
10
53.7308785291214
20
-6.4017118602691
30
0
41
1
10
53.7456877303861
20
-6.4041574274973
30
0
41
1
10
53.7659942179378
20
-6.40249258919081
30
0
41
1
10
53.7717783262651
20
-6.40147001950876
30
0
41
1
10
53.7774625847393
20
-6.39993930465391
30
0
0
SPLINE
5
290
100
AcDbEntity
8
1
62
256
6
ByLayer
370
-1
48
1
60
0
100
AcDbSpline
70
4
71
3
72
8
73
4
40
0
40
0
40
0
40
0
40
1
40
1
40
1
40
1
41
1
10
56.721724277914
20
-6.38600351624297
30
0
41
1
10
56.7149870066298
20
-6.38368543331924
30
0
41
1
10
56.7082497005128
20
-6.3813673598678
30
0
41
1
10
56.7015123581272
20
-6.3790492962803
30
0
0
SPLINE
5
291
100
AcDbEntity
8
1
62
256
6
ByLayer
370
-1
48
1
60
0
100
AcDbSpline
70
4
71
3
72
24
73
20
40
0
40
0
40
0
40
0
40
0.0380198325521288
40
0.0380198325521288
40
0.246834654675295
40
0.246834654675295
40
0.404726505663651
40
0.404726505663651
40
0.526150637963144
40
0.526150637963144
40
0.621531995503917
40
0.621531995503917
40
0.776890538332289
40
0.776890538332289
40
0.873684213898154
40
0.873684213898154
40
0.971746172255146
40
0.971746172255146
40
1
40
1
40
1
40
1
41
1
10
56.0892616975281
20
-7.43405367504769
30
0
41
1
10
56.0837733783294
20
-7.43714087647237
30
0
41
1
10
56.078246802785
20
-7.4401600521623
30
0
41
1
10
56.0421848224905
20
-7.45928264958948
30
0
41
1
10
56.0105200288984
20
-7.47343674565909
30
0
41
1
10
55.9534988417201
20
-7.49391514315749
30
0
41
1
10
55.9283799745917
20
-7.50134141102498
30
0
41
1
10
55.8833399930236
20
-7.51123916745047
30
0
41
1
10
55.8634843251774
20
-7.5144732130569
30
0
41
1
10
55.8278937809918
20
-7.51770290212534
30
0
41
1
10
55.8121290120916
20
-7.51824780673991
30
0
41
1
10
55.771140490576
20
-7.51666340941264
30
0
41
1
10
55.7455292656356
20
-7.51266038159835
30
0
41
1
10
55.707280692158
20
-7.49836506075971
30
0
41
1
10
55.6931324513373
20
-7.49081562141677
30
0
41
1
10
55.6686797006476
20
-7.47131106159642
30
0
41
1
10
55.6581485399392
20
-7.45895015456694
30
0
41
1
10
55.6485790719104
20
-7.44117397564975
30
0
41
1
10
55.6466497437475
20
-7.43700427492419
30
0
41
1
10
55.6449723255622
20
-7.43274237185037
30
0
0
SPLINE
5
292
100
AcDbEntity
8
1
62
256
6
ByLayer
370
-1
48
1
60
0
100
AcDbSpline
70
4
71
3
72
8
73
4
40
0
40
0
40
0
40
0
40
1
40
1
40
1
40
1
41
1
10
56.3263453836785
20
-4.96618257085029
30
0
41
1
10
56.321744948073
20
-4.97009816910759
30
0
41
1
10
56.3171444891754
20
-4.97401381050398
30
0
41
1
10
56.3125440060256
20
-4.97792949681903
30
0
0
SPLINE
5
293
100
AcDbEntity
8
1
62
256
6
ByLayer
370
-1
48
1
60
0
100
AcDbSpline
70
4
71
3
72
8
73
4
40
0
40
0
40
0
40
0
40
1
40
1
40
1
40
1
41
1
10
56.3125440060256
20
-7.03175590915387
30
0
41
1
10
56.3171444891754
20
-7.03765971987585
30
0
41
1
10
56.321744948073
20
-7.04356352029774
30
0
41
1
10
56.3263453836785
20
-7.04946731082626
30
0
0
SPLINE
5
294
100
AcDbEntity
8
1
62
256
6
ByLayer
370
-1
48
1
60
0
100
AcDbSpline
70
4
71
3
72
34
73
30
40
0
40
0
40
0
40
0
40
0.0514465755209369
40
0.0514465755209369
40
0.135786144735409
40
0.135786144735409
40
0.203131635218869
40
0.203131635218869
40
0.270315608875101
40
0.270315608875101
40
0.337431278535943
40
0.337431278535943
40
0.404515897625537
40
0.404515897625537
40
0.499929883690861
40
0.499929883690861
40
0.599210771748126
40
0.599210771748126
40
0.697083019894224
40
0.697083019894224
40
0.780957226922748
40
0.780957226922748
40
0.847546414393275
40
0.847546414393275
40
0.898875235580374
40
0.898875235580374
40
0.980803570703574
40
0.980803570703574
40
1
40
1
40
1
40
1
41
1
10
56.3125440060256
20
-4.97792949681903
30
0
41
1
10
56.303211532169
20
-4.98587280167973
30
0
41
1
10
56.2958334036538
20
-4.99566579121674
30
0
41
1
10
56.2812077391373
20
-5.02362891749578
30
0
41
1
10
56.276591820982
20
-5.04360297747186
30
0
41
1
10
56.2735942336615
20
-5.08062143000893
30
0
41
1
10
56.2741400878004
20
-5.09775017208204
30
0
41
1
10
56.2780128353352
20
-5.13238096060797
30
0
41
1
10
56.2813518607363
20
-5.14999701367259
30
0
41
1
10
56.2902332530617
20
-5.18536749122748
30
0
41
1
10
56.2957960268004
20
-5.20319960308021
30
0
41
1
10
56.3087722948878
20
-5.2388293775021
30
0
41
1
10
56.3162089087767
20
-5.2566886988626
30
0
41
1
10
56.3361661581356
20
-5.29968065348041
30
0
41
1
10
56.3495703818313
20
-5.32484713557329
30
0
41
1
10
56.3797691288543
20
-5.37523613507
30
0
41
1
10
56.3967752636399
20
-5.40058223433155
30
0
41
1
10
56.433239680987
20
-5.44919148127778
30
0
41
1
10
56.4527787356672
20
-5.47264415278562
30
0
41
1
10
56.4913889742245
20
-5.51373220545147
30
0
41
1
10
56.5102438079333
20
-5.53184626029602
30
0
41
1
10
56.5457083373327
20
-5.56167332031052
30
0
41
1
10
56.5620781587592
20
-5.57401709518433
30
0
41
1
10
56.5920453149913
20
-5.59338760220379
30
0
41
1
10
56.6054970960314
20
-5.60103152461306
30
0
41
1
10
56.6408421924449
20
-5.6176177753515
30
0
41
1
10
56.6637635194565
20
-5.62499513664599
30
0
41
1
10
56.691114490479
20
-5.62713042744195
30
0
41
1
10
56.6963591844942
20
-5.62722180906923
30
0
41
1
10
56.7015123581272
20
-5.62695397731557
30
0
0
SPLINE
5
295
100
AcDbEntity
8
1
62
256
6
ByLayer
370
-1
48
1
60
0
100
AcDbSpline
70
4
71
3
72
8
73
4
40
0
40
0
40
0
40
0
40
1
40
1
40
1
40
1
41
1
10
56.7015123581272
20
-5.62695397731559
30
0
41
1
10
56.7082497005128
20
-5.62660380975771
30
0
41
1
10
56.7149870066298
20
-5.62625366706826
30
0
41
1
10
56.721724277914
20
-5.62590354826148
30
0
0
SPLINE
5
296
100
AcDbEntity
8
1
62
256
6
ByLayer
370
-1
48
1
60
0
100
AcDbSpline
70
4
71
3
72
8
73
4
40
0
40
0
40
0
40
0
40
1
40
1
40
1
40
1
41
1
10
53.7774625847393
20
-6.39993930465391
30
0
41
1
10
53.784056344762
20
-6.3975581232522
30
0
41
1
10
53.7906501419502
20
-6.39517695098201
30
0
41
1
10
53.797243977836
20
-6.39279578822092
30
0
0
SPLINE
5
297
100
AcDbEntity
8
1
62
256
6
ByLayer
370
-1
48
1
60
0
100
AcDbSpline
70
4
71
3
72
8
73
4
40
0
40
0
40
0
40
0
40
1
40
1
40
1
40
1
41
1
10
54.86040981588
20
-7.41467681460654
30
0
41
1
10
54.8583447098941
20
-7.42194629048799
30
0
41
1
10
54.8562796171392
20
-7.42921574838971
30
0
41
1
10
54.8542145370912
20
-7.43648518902248
30
0
0
SPLINE
5
298
100
AcDbEntity
8
1
62
256
6
ByLayer
370
-1
48
1
60
0
100
AcDbSpline
70
4
71
3
72
34
73
30
40
0
40
0
40
0
40
0
40
0.051446575520935
40
0.051446575520935
40
0.135786144735407
40
0.135786144735407
40
0.203131635218869
40
0.203131635218869
40
0.270315608875097
40
0.270315608875097
40
0.337431278535948
40
0.337431278535948
40
0.404515897625547
40
0.404515897625547
40
0.499929883690859
40
0.499929883690859
40
0.599210771748111
40
0.599210771748111
40
0.697083019894216
40
0.697083019894216
40
0.780957226922742
40
0.780957226922742
40
0.847546414393264
40
0.847546414393264
40
0.898875235580379
40
0.898875235580379
40
0.980803570703559
40
0.980803570703559
40
1
40
1
40
1
40
1
41
1
10
55.6383465200833
20
-7.4109946822295
30
0
41
1
10
55.6338661606057
20
-7.39628896315412
30
0
41
1
10
55.6267452249735
20
-7.38230569303346
30
0
41
1
10
55.6039373337911
20
-7.34887598700286
30
0
41
1
10
55.5854080230136
20
-7.33088277011586
30
0
41
1
10
55.5490293761322
20
-7.30328025364059
30
0
41
1
10
55.5314874508688
20
-7.29250578333188
30
0
41
1
10
55.4950660369406
20
-7.27367083904505
30
0
41
1
10
55.4760665351141
20
-7.26554723680007
30
0
41
1
10
55.4372216115946
20
-7.25163245745617
30
0
41
1
10
55.417290354282
20
-7.24581138024246
30
0
41
1
10
55.3769150366133
20
-7.23629285627322
30
0
41
1
10
55.356400786823
20
-7.23257951589596
30
0
41
1
10
55.3064469715201
20
-7.22602745173873
30
0
41
1
10
55.2767284965646
20
-7.22419344322844
30
0
41
1
10
55.2163310025185
20
-7.22447931683118
30
0
41
1
10
55.1854675255138
20
-7.22676230304256
30
0
41
1
10
55.1252098675275
20
-7.23561402057783
30
0
41
1
10
55.0955980518439
20
-7.24214632789406
30
0
41
1
10
55.0423901413921
20
-7.25851300032278
30
0
41
1
10
55.0183762815554
20
-7.26778897468736
30
0
41
1
10
54.9773831668538
20
-7.28787144443737
30
0
41
1
10
54.9598620193759
20
-7.29802497062485
30
0
41
1
10
54.930895186376
20
-7.31852097037532
30
0
41
1
10
54.9189048805373
20
-7.32834291595083
30
0
41
1
10
54.8907240518169
20
-7.35615432013901
30
0
41
1
10
54.8756585545664
20
-7.3761243360766
30
0
41
1
10
54.8639382657969
20
-7.40365971439999
30
0
41
1
10
54.8619893481506
20
-7.40911662940388
30
0
41
1
10
54.86040981588
20
-7.41467681460651
30
0
0
SPLINE
5
299
100
AcDbEntity
8
1
62
256
6
ByLayer
370
-1
48
1
60
0
100
AcDbSpline
70
4
71
3
72
8
73
4
40
0
40
0
40
0
40
0
40
1
40
1
40
1
40
1
41
1
10
55.6383465200832
20
-4.60507295092995
30
0
41
1
10
55.6405551325688
20
-4.59983447025172
30
0
41
1
10
55.6427637342526
20
-4.59459604193074
30
0
41
1
10
55.6449723255622
20
-4.58935766389288
30
0
0
SPLINE
5
29A
100
AcDbEntity
8
1
62
256
6
ByLayer
370
-1
48
1
60
0
100
AcDbSpline
70
4
71
3
72
24
73
20
40
0
40
0
40
0
40
0
40
0.038019832552045
40
0.038019832552045
40
0.246834654675196
40
0.246834654675196
40
0.404726505663581
40
0.404726505663581
40
0.526150637963076
40
0.526150637963076
40
0.62153199550387
40
0.62153199550387
40
0.776890538332263
40
0.776890538332263
40
0.873684213898131
40
0.873684213898131
40
0.971746172255129
40
0.971746172255129
40
1
40
1
40
1
40
1
41
1
10
54.4131419545795
20
-7.44198709011852
30
0
41
1
10
54.4076536353809
20
-7.43895184335213
30
0
41
1
10
54.4022019120988
20
-7.43584774863183
30
0
41
1
10
54.3671115229852
20
-7.41528499009337
30
0
41
1
10
54.3385058581517
20
-7.39582607089753
30
0
41
1
10
54.2911530053129
20
-7.35810338364712
30
0
41
1
10
54.2716172556213
20
-7.34063219388739
30
0
41
1
10
54.2393892752365
20
-7.30745830535324
30
0
41
1
10
54.2261072060893
20
-7.29222359144654
30
0
41
1
10
54.2043755857668
20
-7.26351587551798
30
0
41
1
10
54.1954658148751
20
-7.250316828872
30
0
41
1
10
54.1746993013746
20
-7.21434940561991
30
0
41
1
10
54.1641355865452
20
-7.19022089291997
30
0
41
1
10
54.1548945742965
20
-7.14956159901757
30
0
41
1
10
54.1532519873412
20
-7.13326336336709
30
0
41
1
10
54.1554422280791
20
-7.10148352923005
30
0
41
1
10
54.1594691578788
20
-7.08558084299722
30
0
41
1
10
54.1682053414522
20
-7.06746082815422
30
0
41
1
10
54.1704211720346
20
-7.06347913505766
30
0
41
1
10
54.1728414789748
20
-7.05966028206507
30
0
0
SPLINE
5
29B
100
AcDbEntity
8
1
62
256
6
ByLayer
370
-1
48
1
60
0
100
AcDbSpline
70
4
71
3
72
22
73
18
40
0
40
0
40
0
40
0
40
0.09737126598468
40
0.09737126598468
40
0.180296832630692
40
0.180296832630692
40
0.307445080803014
40
0.307445080803014
40
0.411978418514854
40
0.411978418514854
40
0.516185210011044
40
0.516185210011044
40
0.62025014529188
40
0.62025014529188
40
0.829289859626033
40
0.829289859626033
40
1
40
1
40
1
40
1
41
1
10
55.6449723255622
20
-4.58935766389288
30
0
41
1
10
55.6506416969106
20
-4.5790244850258
30
0
41
1
10
55.659438012576
20
-4.56957056223254
30
0
41
1
10
55.6797719835988
20
-4.55564486558035
30
0
41
1
10
55.6909043787537
20
-4.55045482428281
30
0
41
1
10
55.7209111289137
20
-4.54067908177376
30
0
41
1
10
55.7411968631145
20
-4.53762339360747
30
0
41
1
10
55.7784985628655
20
-4.53579028517231
30
0
41
1
10
55.7957619927876
20
-4.53632498990737
30
0
41
1
10
55.8301096461617
20
-4.53937495195396
30
0
41
1
10
55.8473043241611
20
-4.541895707512
30
0
41
1
10
55.8813598760504
20
-4.54845100534666
30
0
41
1
10
55.8982809792138
20
-4.55249690964573
30
0
41
1
10
55.9485118666784
20
-4.56650703103369
30
0
41
1
10
55.9814014302621
20
-4.57836597127556
30
0
41
1
10
56.0392334597774
20
-4.60327393816337
30
0
41
1
10
56.0646466216471
20
-4.61576874988541
30
0
41
1
10
56.0892616975281
20
-4.62938181187562
30
0
0
SPLINE
5
29C
100
AcDbEntity
8
1
62
256
6
ByLayer
370
-1
48
1
60
0
100
AcDbSpline
70
4
71
1
72
4
73
2
40
0
40
0
40
1
40
1
41
1.08358774580744
10
47.5696640803815
20
-3.73643226026587
30
0
41
1.08358774580744
10
47.5985611960972
20
-3.87723351878054
30
0
0
SPLINE
5
29D
100
AcDbEntity
8
1
62
256
6
ByLayer
370
-1
48
1
60
0
100
AcDbSpline
70
4
71
3
72
10
73
6
40
0
40
0
40
0
40
0
40
0.722254617258808
40
0.722254617258808
40
1
40
1
40
1
40
1
41
1
10
50.9666334467427
20
-9.46784493824791
30
0
41
1
10
51.0165381236385
20
-9.49216156969661
30
0
41
1
10
51.071508725554
20
-9.50847419750721
30
0
41
1
10
51.1485901637136
20
-9.51814154586123
30
0
41
1
10
51.170422801947
20
-9.51948611634592
30
0
41
1
10
51.1922117941135
20
-9.51944940297366
30
0
0
SPLINE
5
29E
100
AcDbEntity
8
1
62
256
6
ByLayer
370
-1
48
1
60
0
100
AcDbSpline
70
4
71
3
72
8
73
4
40
0
40
0
40
0
40
0
40
1
40
1
40
1
40
1
41
1
10
51.1931947459697
20
-9.51957527368694
30
0
41
1
10
51.1928674486192
20
-9.51953342432816
30
0
41
1
10
51.1925397962007
20
-9.51949146791927
30
0
41
1
10
51.1922117941146
20
-9.51944940297361
30
0
0
SPLINE
5
29F
100
AcDbEntity
8
1
62
256
6
ByLayer
370
-1
48
1
60
0
100
AcDbSpline
70
4
71
3
72
12
73
8
40
0
40
0
40
0
40
0
40
0.404644073901353
40
0.404644073901353
40
0.809285947755716
40
0.809285947755716
40
1
40
1
40
1
40
1
41
1
10
50.6988736992669
20
-9.0641123213662
30
0
41
1
10
50.6988736992669
20
-9.11815956286614
30
0
41
1
10
50.7085338946951
20
-9.1729180566476
30
0
41
1
10
50.7455734564292
20
-9.274787942225
30
0
41
1
10
50.7734633761762
20
-9.32330408458591
30
0
41
1
10
50.8250688745124
20
-9.38543984747386
30
0
41
1
10
50.8434540015143
20
-9.40425698461914
30
0
41
1
10
50.8632170139528
20
-9.42147735450598
30
0
0
SPLINE
5
2A0
100
AcDbEntity
8
1
62
256
6
ByLayer
370
-1
48
1
60
0
100
AcDbSpline
70
4
71
3
72
10
73
6
40
0
40
0
40
0
40
0
40
0.638091248905416
40
0.638091248905416
40
1
40
1
40
1
40
1
41
1
10
50.9666334467427
20
-9.46784493824791
30
0
41
1
10
50.9385978312875
20
-9.45747565143643
30
0
41
1
10
50.9138312326531
20
-9.44636155247403
30
0
41
1
10
50.8820950107051
20
-9.43097698151081
30
0
41
1
10
50.8718623344524
20
-9.4257459290082
30
0
41
1
10
50.8632170139509
20
-9.42147735450374
30
0
0
SPLINE
5
2A1
100
AcDbEntity
8
1
62
256
6
ByLayer
370
-1
48
1
60
0
100
AcDbSpline
70
4
71
3
72
16
73
12
40
0
40
0
40
0
40
0
40
0.0023448809055313
40
0.0023448809055313
40
0.244769775800058
40
0.244769775800058
40
0.48703871633987
40
0.48703871633987
40
0.973677497833435
40
0.973677497833435
40
1
40
1
40
1
40
1
41
1
10
60.1314810547482
20
3.1138187753057
30
0
41
1
10
60.1315060050831
20
3.11382993140214
30
0
41
1
10
60.1315309254936
20
3.11384101164026
30
0
41
1
10
60.134130383555
20
3.11499027683922
30
0
41
1
10
60.1363939175978
20
3.11532182835322
30
0
41
1
10
60.1404198218608
20
3.11462335582402
30
0
41
1
10
60.1421865200234
20
3.11359223781818
30
0
41
1
10
60.1468661470127
20
3.10869150149017
30
0
41
1
10
60.1491756946845
20
3.10301061723138
30
0
41
1
10
60.1508557739442
20
3.09481529440203
30
0
41
1
10
60.1509400619354
20
3.09438741278498
30
0
41
1
10
60.1510222070447
20
3.09395326142675
30
0
0
SPLINE
5
2A2
100
AcDbEntity
8
1
62
256
6
ByLayer
370
-1
48
1
60
0
100
AcDbSpline
70
4
71
3
72
8
73
4
40
0
40
0
40
0
40
0
40
1
40
1
40
1
40
1
41
1
10
60.0905800856229
20
1.10461413107012
30
0
41
1
10
60.0947697997177
20
1.10083228633772
30
0
41
1
10
60.0989596056795
20
1.09705047117114
30
0
41
1
10
60.1031494991757
20
1.09326868417875
30
0
0
SPLINE
5
2A3
100
AcDbEntity
8
1
62
256
6
ByLayer
370
-1
48
1
60
0
100
AcDbSpline
70
4
71
3
72
8
73
4
40
0
40
0
40
0
40
0
40
1
40
1
40
1
40
1
41
1
10
60.0967351440363
20
2.36113987314539
30
0
41
1
10
60.1009803002593
20
2.36414570836197
30
0
41
1
10
60.1052255479068
20
2.36715151897326
30
0
41
1
10
60.109470882667
20
2.37015730613737
30
0
0
SPLINE
5
2A4
100
AcDbEntity
8
1
62
256
6
ByLayer
370
-1
48
1
60
0
100
AcDbSpline
70
4
71
3
72
24
73
20
40
0
40
0
40
0
40
0
40
0.104000448201694
40
0.104000448201694
40
0.192499055460852
40
0.192499055460852
40
0.328500518746479
40
0.328500518746479
40
0.438682575665125
40
0.438682575665125
40
0.548533158171579
40
0.548533158171579
40
0.658237202769645
40
0.658237202769645
40
0.767870673660786
40
0.767870673660786
40
0.988088331634187
40
0.988088331634187
40
1
40
1
40
1
40
1
41
1
10
60.1031494991757
20
1.09326868417875
30
0
41
1
10
60.1107721018048
20
1.08525881218392
30
0
41
1
10
60.118223272875
20
1.07475503587096
30
0
41
1
10
60.1302805574531
20
1.05283503068392
30
0
41
1
10
60.1353014040291
20
1.04156095355083
30
0
41
1
10
60.1462523120468
20
1.01235985466064
30
0
41
1
10
60.1514729874095
20
0.993634801656924
30
0
41
1
10
60.1589428158415
20
0.96051201026242
30
0
41
1
10
60.1616296393535
20
0.945695912156793
30
0
41
1
10
60.1660175041133
20
0.916776715762836
30
0
41
1
10
60.167733456574
20
0.902579027688063
30
0
41
1
10
60.1704539087457
20
0.874911426141495
30
0
41
1
10
60.171462711731
20
0.861390588946961
30
0
41
1
10
60.1729315909845
20
0.835073693960481
30
0
41
1
10
60.1733928879759
20
0.822245881742958
30
0
41
1
10
60.1741001733908
20
0.784797746602209
30
0
41
1
10
60.1736795418803
20
0.761141332199315
30
0
41
1
10
60.1724543610015
20
0.737902597636833
30
0
41
1
10
60.1723890902336
20
0.736711697003585
30
0
41
1
10
60.1723215795344
20
0.735525415628615
30
0
0
SPLINE
5
2A5
100
AcDbEntity
8
1
62
256
6
ByLayer
370
-1
48
1
60
0
100
AcDbSpline
70
4
71
3
72
22
73
18
40
0
40
0
40
0
40
0
40
0.208266363442917
40
0.208266363442917
40
0.317899168105649
40
0.317899168105649
40
0.427584739862027
40
0.427584739862027
40
0.537377253733188
40
0.537377253733188
40
0.647402228731182
40
0.647402228731182
40
0.811583680502398
40
0.811583680502398
40
0.90663602213161
40
0.90663602213161
40
1
40
1
40
1
40
1
41
1
10
60.1510222070447
20
3.09395326142675
30
0
41
1
10
60.1524545852158
20
3.08638289073551
30
0
41
1
10
60.1532530999979
20
3.07689868616646
30
0
41
1
10
60.153332732673
20
3.05949287472666
30
0
41
1
10
60.1531500633945
20
3.05293338446987
30
0
41
1
10
60.1522799531897
20
3.03866901284078
30
0
41
1
10
60.1515920683561
20
3.03094836822919
30
0
41
1
10
60.1495718210668
20
3.01424933734151
30
0
41
1
10
60.1482369158065
20
3.005243468998
30
0
41
1
10
60.14469609691
20
2.98581844664966
30
0
41
1
10
60.1424805049698
20
2.97534317214777
30
0
41
1
10
60.1354805548145
20
2.94750037550582
30
0
41
1
10
60.1298377966858
20
2.92870603218606
30
0
41
1
10
60.1176688257101
20
2.89720195014357
30
0
41
1
10
60.1123698654824
20
2.8849756921914
30
0
41
1
10
60.1006553776918
20
2.86135810803984
30
0
41
1
10
60.0941055088807
20
2.84967348050151
30
0
41
1
10
60.0873828003314
20
2.83907699914954
30
0
0
SPLINE
5
2A6
100
AcDbEntity
8
1
62
256
6
ByLayer
370
-1
48
1
60
0
100
AcDbSpline
70
4
71
3
72
24
73
20
40
0
40
0
40
0
40
0
40
0.104000448201697
40
0.104000448201697
40
0.192499055460846
40
0.192499055460846
40
0.328500518746489
40
0.328500518746489
40
0.438682575665131
40
0.438682575665131
40
0.548533158171583
40
0.548533158171583
40
0.658237202769646
40
0.658237202769646
40
0.767870673660787
40
0.767870673660787
40
0.988088331634184
40
0.988088331634184
40
1
40
1
40
1
40
1
41
1
10
60.109470882667
20
2.37015730613737
30
0
41
1
10
60.1172606490927
20
2.37455693758881
30
0
41
1
10
60.1250321279211
20
2.37632904375204
30
0
41
1
10
60.1379000772804
20
2.3744026152207
30
0
41
1
10
60.143386122574
20
2.37150355768401
30
0
41
1
10
60.1556303635547
20
2.36049664525439
30
0
41
1
10
60.1617583409069
20
2.35035413358369
30
0
41
1
10
60.1709196027536
20
2.32898777328762
30
0
41
1
10
60.1743949547576
20
2.31816590358113
30
0
41
1
10
60.1803689918491
20
2.29517825953124
30
0
41
1
10
60.1828876771351
20
2.28294123827817
30
0
41
1
10
60.18721093519
20
2.25756857430912
30
0
41
1
10
60.1890227554444
20
2.24438647275147
30
0
41
1
10
60.1920885542555
20
2.21738305314699
30
0
41
1
10
60.1933456869408
20
2.20352889849036
30
0
41
1
10
60.1964239626846
20
2.16119138295383
30
0
41
1
10
60.1975663486082
20
2.13185775639309
30
0
41
1
10
60.1979425464666
20
2.10042408612054
30
0
41
1
10
60.197959539858
20
2.09880531382524
30
0
41
1
10
60.1979741742681
20
2.09718488109206
30
0
0
SPLINE
5
2A7
100
AcDbEntity
8
1
62
256
6
ByLayer
370
-1
48
1
60
0
100
AcDbSpline
70
4
71
3
72
10
73
6
40
0
40
0
40
0
40
0
40
0.425586067180638
40
0.425586067180638
40
1
40
1
40
1
40
1
41
1
10
60.1024113537209
20
1.73262694464006
30
0
41
1
10
60.0945990655102
20
1.73188219152882
30
0
41
1
10
60.0867910806478
20
1.72866874554066
30
0
41
1
10
60.0695423170444
20
1.71728917325729
30
0
41
1
10
60.060214207995
20
1.70773101447227
30
0
41
1
10
60.0517283160239
20
1.69649311806387
30
0
0
SPLINE
5
2A8
100
AcDbEntity
8
1
62
256
6
ByLayer
370
-1
48
1
60
0
100
AcDbSpline
70
4
71
3
72
10
73
6
40
0
40
0
40
0
40
0
40
0.747052175316971
40
0.747052175316971
40
1
40
1
40
1
40
1
41
1
10
60.0568932564663
20
1.1484738969429
30
0
41
1
10
60.0645785809976
20
1.1354138945957
30
0
41
1
10
60.0728916857415
20
1.12345164013229
30
0
41
1
10
60.0845041047392
20
1.11044288364519
30
0
41
1
10
60.0875333851047
20
1.1073642347873
30
0
41
1
10
60.0905800856229
20
1.10461413107015
30
0
0
SPLINE
5
2A9
100
AcDbEntity
8
1
62
256
6
ByLayer
370
-1
48
1
60
0
100
AcDbSpline
70
4
71
3
72
22
73
18
40
0
40
0
40
0
40
0
40
0.208266363442949
40
0.208266363442949
40
0.317899168105671
40
0.317899168105671
40
0.427584739862038
40
0.427584739862038
40
0.53737725373319
40
0.53737725373319
40
0.647402228731177
40
0.647402228731177
40
0.811583680502374
40
0.811583680502374
40
0.90663602213157
40
0.90663602213157
40
1
40
1
40
1
40
1
41
1
10
60.1979741742681
20
2.09718488109206
30
0
41
1
10
60.1982293569539
20
2.06892912134768
30
0
41
1
10
60.1977819576905
20
2.04008753271012
30
0
41
1
10
60.1958764597109
20
1.99579248662533
30
0
41
1
10
60.1949916311288
20
1.98041616293673
30
0
41
1
10
60.192688353076
20
1.94966525966379
30
0
41
1
10
60.1912678533105
20
1.93425604618426
30
0
41
1
10
60.1877565368565
20
1.90360738761126
30
0
41
1
10
60.1856607116849
20
1.88831715938076
30
0
41
1
10
60.1805788350013
20
1.85820959470362
30
0
41
1
10
60.177578745315
20
1.84330791339545
30
0
41
1
10
60.1686368528943
20
1.80780713765398
30
0
41
1
10
60.1618032198157
20
1.7872838961035
30
0
41
1
10
60.1479185904756
20
1.76093194431579
30
0
41
1
10
60.1420127345698
20
1.75239603769089
30
0
41
1
10
60.1292635927506
20
1.73985939205724
30
0
41
1
10
60.122271695112
20
1.73566220059294
30
0
41
1
10
60.1152175052311
20
1.73384773055338
30
0
0
SPLINE
5
2AA
100
AcDbEntity
8
1
62
256
6
ByLayer
370
-1
48
1
60
0
100
AcDbSpline
70
4
71
3
72
22
73
18
40
0
40
0
40
0
40
0
40
0.208266363442972
40
0.208266363442972
40
0.317899168105705
40
0.317899168105705
40
0.427584739862083
40
0.427584739862083
40
0.537377253733244
40
0.537377253733244
40
0.647402228731244
40
0.647402228731244
40
0.811583680502416
40
0.811583680502416
40
0.906636022131608
40
0.906636022131608
40
1
40
1
40
1
40
1
41
1
10
60.1723215795344
20
0.735525415628615
30
0
41
1
10
60.171144384049
20
0.714840026575473
30
0
41
1
10
60.1692962053804
20
0.695485604981059
30
0
41
1
10
60.1653384580201
20
0.668606073422751
30
0
41
1
10
60.1637592713554
20
0.659793553993012
30
0
41
1
10
60.1601073349775
20
0.643317936229863
30
0
41
1
10
60.1580310055168
20
0.635635976947299
30
0
41
1
10
60.1532620868332
20
0.621702472646717
30
0
41
1
10
60.1505623989053
20
0.615427649348419
30
0
41
1
10
60.144350465491
20
0.60476808254802
30
0
41
1
10
60.1408210755318
20
0.600355177567536
30
0
41
1
10
60.1307188679145
20
0.592737337924376
30
0
41
1
10
60.1233085170679
20
0.59103903261817
30
0
41
1
10
60.1089403208748
20
0.596253399328248
30
0
41
1
10
60.102948283056
20
0.599970239583115
30
0
41
1
10
60.0902698512769
20
0.611108452575451
30
0
41
1
10
60.0834332768991
20
0.618627342722476
30
0
41
1
10
60.0766394790459
20
0.627441141465937
30
0
0
SPLINE
5
2AB
100
AcDbEntity
8
1
62
256
6
ByLayer
370
-1
48
1
60
0
100
AcDbSpline
70
4
71
3
72
8
73
4
40
0
40
0
40
0
40
0
40
1
40
1
40
1
40
1
41
1
10
60.1152175052288
20
1.73384773055318
30
0
41
1
10
60.110948699691
20
1.7334408056582
30
0
41
1
10
60.1066799810874
20
1.73303387708114
30
0
41
1
10
60.1024113537209
20
1.73262694464006
30
0
0
LINE
5
49
100
AcDbEntity
8
80
62
256
6
ByLayer
370
-1
48
1
60
0
100
AcDbLine
10
0
20
0
30
0
11
-5
21
0
31
0
39
0
210
0
220
0
230
1
0
LINE
5
4A
100
AcDbEntity
8
4
62
256
6
ByLayer
370
-1
48
0.05
60
0
100
AcDbLine
10
0
20
0
30
0
11
60
21
0
31
0
39
0
210
0
220
0
230
1
0
LINE
5
4C
100
AcDbEntity
8
81
62
256
6
ByLayer
370
-1
48
1
60
0
100
AcDbLine
10
60
20
-13.875
30
0
11
65
21
-13.875
31
0
39
0
210
0
220
0
230
1
0
LINE
5
4D
100
AcDbEntity
8
SK4
62
256
6
ByLayer
370
-1
48
0.05
60
0
100
AcDbLine
10
-29
20
0
30
0
11
65
21
0
31
0
39
0
210
0
220
0
230
1
0
LINE
5
4F
100
AcDbEntity
8
1
62
256
6
ByLayer
370
-1
48
1
60
0
100
AcDbLine
10
19.5
20
-20
30
0
11
21.941173
21
-10.889417
31
0
39
0
210
0
220
0
230
1
0
LINE
5
50
100
AcDbEntity
8
1
62
256
6
ByLayer
370
-1
48
1
60
0
100
AcDbLine
10
21.941173
20
10.889417
30
0
11
19.5
21
20
31
0
39
0
210
0
220
0
230
1
0
LINE
5
51
100
AcDbEntity
8
1
62
256
6
ByLayer
370
-1
48
1
60
0
100
AcDbLine
10
19.5
20
20
30
0
11
0.3
21
20
31
0
39
0
210
0
220
0
230
1
0
LINE
5
52
100
AcDbEntity
8
1
62
256
6
ByLayer
370
-1
48
1
60
0
100
AcDbLine
10
0.3
20
-20
30
0
11
19.5
21
-20
31
0
39
0
210
0
220
0
230
1
0
LINE
5
53
100
AcDbEntity
8
1
62
256
6
ByLayer
370
-1
48
1
60
0
100
AcDbLine
10
0.3
20
20
30
0
11
0
21
19.7
31
0
39
0
210
0
220
0
230
1
0
LINE
5
54
100
AcDbEntity
8
1
62
256
6
ByLayer
370
-1
48
1
60
0
100
AcDbLine
10
0
20
-19.7
30
0
11
0.3
21
-20
31
0
39
0
210
0
220
0
230
1
0
LINE
5
55
100
AcDbEntity
8
1
62
256
6
ByLayer
370
-1
48
1
60
0
100
AcDbLine
10
23.100284
20
-10
30
0
11
43.128099
21
-10
31
0
39
0
210
0
220
0
230
1
0
LINE
5
56
100
AcDbEntity
8
1
62
256
6
ByLayer
370
-1
48
1
60
0
100
AcDbLine
10
43.128099
20
10
30
0
11
23.100284
21
10
31
0
39
0
210
0
220
0
230
1
0
LINE
5
57
100
AcDbEntity
8
1
62
256
6
ByLayer
370
-1
48
1
60
0
100
AcDbLine
10
43.50249
20
10.01
30
0
11
43.254194
21
10.01
31
0
39
0
210
0
220
0
230
1
0
LINE
5
58
100
AcDbEntity
8
1
62
256
6
ByLayer
370
-1
48
1
60
0
100
AcDbLine
10
57.968302
20
-5.827735
30
0
11
57.945655
21
-5.507211
31
0
39
0
210
0
220
0
230
1
0
LINE
5
59
100
AcDbEntity
8
1
62
256
6
ByLayer
370
-1
48
1
60
0
100
AcDbLine
10
52.509209
20
-5.891341
30
0
11
52.531856
21
-6.211864
31
0
39
0
210
0
220
0
230
1
0
LINE
5
5A
100
AcDbEntity
8
1
62
256
6
ByLayer
370
-1
48
1
60
0
100
AcDbLine
10
54.221635
20
-5.072275
30
0
11
54.203211
21
-4.811522
31
0
39
0
210
0
220
0
230
1
0
LINE
5
5B
100
AcDbEntity
8
1
62
256
6
ByLayer
370
-1
48
1
60
0
100
AcDbLine
10
56.249282
20
-4.739644
30
0
11
56.274911
21
-5.102362
31
0
39
0
210
0
220
0
230
1
0
LINE
5
5C
100
AcDbEntity
8
1
62
256
6
ByLayer
370
-1
48
1
60
0
100
AcDbLine
10
54.221173
20
-6.879573
30
0
11
54.195525
21
-6.516581
31
0
39
0
210
0
220
0
230
1
0
LINE
5
5D
100
AcDbEntity
8
1
62
256
6
ByLayer
370
-1
48
1
60
0
100
AcDbLine
10
56.24912
20
-6.551176
30
0
11
56.275072
21
-6.918468
31
0
39
0
210
0
220
0
230
1
0
LINE
5
5E
100
AcDbEntity
8
1
62
256
6
ByLayer
370
-1
48
1
60
0
100
AcDbLine
10
60.062475
20
2.349541
30
0
11
60.063281
21
2.349537
31
0
39
0
210
0
220
0
230
1
0
LINE
5
5F
100
AcDbEntity
8
1
62
256
6
ByLayer
370
-1
48
1
60
0
100
AcDbLine
10
59.344513
20
0.531561
30
0
11
59.277628
21
1.558291
31
0
39
0
210
0
220
0
230
1
0
LINE
5
60
100
AcDbEntity
8
1
62
256
6
ByLayer
370
-1
48
1
60
0
100
AcDbLine
10
59.689842
20
-1.291007
30
0
11
59.625968
21
-0.310488
31
0
39
0
210
0
220
0
230
1
0
LINE
5
61
100
AcDbEntity
8
1
62
256
6
ByLayer
370
-1
48
1
60
0
100
AcDbLine
10
60.001867
20
-2.627644
30
0
11
59.932581
21
-1.564049
31
0
39
0
210
0
220
0
230
1
0
LINE
5
62
100
AcDbEntity
8
1
62
256
6
ByLayer
370
-1
48
1
60
0
100
AcDbLine
10
47.302908
20
-4.799424
30
0
11
47.369768
21
-5.82577
31
0
39
0
210
0
220
0
230
1
0
LINE
5
63
100
AcDbEntity
8
1
62
256
6
ByLayer
370
-1
48
1
60
0
100
AcDbLine
10
48.442072
20
-4.186917
30
0
11
48.505895
21
-5.166652
31
0
39
0
210
0
220
0
230
1
0
LINE
5
64
100
AcDbEntity
8
1
62
256
6
ByLayer
370
-1
48
1
60
0
100
AcDbLine
10
43.128099
20
1.683224
30
0
11
43.128099
21
10
31
0
39
0
210
0
220
0
230
1
0
LINE
5
65
100
AcDbEntity
8
1
62
256
6
ByLayer
370
-1
48
1
60
0
100
AcDbLine
10
48.653741
20
-3.954083
30
0
11
48.621014
21
-3.92474
31
0
39
0
210
0
220
0
230
1
0
LINE
5
66
100
AcDbEntity
8
1
62
256
6
ByLayer
370
-1
48
1
60
0
100
AcDbLine
10
9.336603
20
19.024574
30
0
11
9.336603
21
6.16973
31
0
39
0
210
0
220
0
230
1
0
LINE
5
67
100
AcDbEntity
8
1
62
256
6
ByLayer
370
-1
48
1
60
0
100
AcDbLine
10
48.841327
20
-3.887517
30
0
11
48.653741
21
-3.954083
31
0
39
0
210
0
220
0
230
1
0
LINE
5
68
100
AcDbEntity
8
1
62
256
6
ByLayer
370
-1
48
1
60
0
100
AcDbLine
10
59.432902
20
2.110019
30
0
11
59.432902
21
5.647585
31
0
39
0
210
0
220
0
230
1
0
LINE
5
69
100
AcDbEntity
8
1
62
256
6
ByLayer
370
-1
48
1
60
0
100
AcDbLine
10
43.128099
20
-10
30
0
11
43.128099
21
-9.948005
31
0
39
0
210
0
220
0
230
1
0
LINE
5
6A
100
AcDbEntity
8
1
62
256
6
ByLayer
370
-1
48
1
60
0
100
AcDbLine
10
48.841327
20
-3.887517
30
0
11
50.82339
21
-2.772598
31
0
39
0
210
0
220
0
230
1
0
LINE
5
6B
100
AcDbEntity
8
1
62
256
6
ByLayer
370
-1
48
1
60
0
100
AcDbLine
10
23.100284
20
10
30
0
11
23.100284
21
-10
31
0
39
0
210
0
220
0
230
1
0
LINE
5
6C
100
AcDbEntity
8
1
62
256
6
ByLayer
370
-1
48
1
60
0
100
AcDbLine
10
52.105556
20
7.65412
30
0
11
51.226445
21
7.894857
31
0
39
0
210
0
220
0
230
1
0
LINE
5
6D
100
AcDbEntity
8
1
62
256
6
ByLayer
370
-1
48
1
60
0
100
AcDbLine
10
52.105556
20
7.65412
30
0
11
41.615006
21
-9.945186
31
0
39
0
210
0
220
0
230
1
0
LINE
5
6E
100
AcDbEntity
8
1
62
256
6
ByLayer
370
-1
48
1
60
0
100
AcDbLine
10
59.432902
20
2.110019
30
0
11
48.653741
21
-3.954083
31
0
39
0
210
0
220
0
230
1
0
LINE
5
6F
100
AcDbEntity
8
1
62
256
6
ByLayer
370
-1
48
1
60
0
100
AcDbLine
10
50.437318
20
-10.442322
30
0
11
50.437318
21
-9.010823
31
0
39
0
210
0
220
0
230
1
0
LINE
5
70
100
AcDbEntity
8
1
62
256
6
ByLayer
370
-1
48
1
60
0
100
AcDbLine
10
19.5
20
20
30
0
11
19.5
21
-20
31
0
39
0
210
0
220
0
230
1
0
LINE
5
71
100
AcDbEntity
8
1
62
256
6
ByLayer
370
-1
48
1
60
0
100
AcDbLine
10
0.3
20
20
30
0
11
0.3
21
-20
31
0
39
0
210
0
220
0
230
1
0
LINE
5
72
100
AcDbEntity
8
1
62
256
6
ByLayer
370
-1
48
1
60
0
100
AcDbLine
10
42.726396
20
-6.106934
30
0
11
40.575326
21
-9.715643
31
0
39
0
210
0
220
0
230
1
0
LINE
5
73
100
AcDbEntity
8
1
62
256
6
ByLayer
370
-1
48
1
60
0
100
AcDbLine
10
6.923205
20
-19.122283
30
0
11
9.076795
21
-19.122283
31
0
39
0
210
0
220
0
230
1
0
LINE
5
74
100
AcDbEntity
8
1
62
256
6
ByLayer
370
-1
48
1
60
0
100
AcDbLine
10
6.663397
20
-6.16973
30
0
11
6.663397
21
-19.024574
31
0
39
0
210
0
220
0
230
1
0
LINE
5
75
100
AcDbEntity
8
1
62
256
6
ByLayer
370
-1
48
1
60
0
100
AcDbLine
10
52.105556
20
7.65412
30
0
11
59.432902
21
5.647585
31
0
39
0
210
0
220
0
230
1
0
LINE
5
76
100
AcDbEntity
8
1
62
256
6
ByLayer
370
-1
48
1
60
0
100
AcDbLine
10
50.303782
20
-8.544101
30
0
11
50.437318
21
-9.010823
31
0
39
0
210
0
220
0
230
1
0
LINE
5
77
100
AcDbEntity
8
1
62
256
6
ByLayer
370
-1
48
1
60
0
100
AcDbLine
10
43.92603
20
-10.470735
30
0
11
50.437318
21
-10.442322
31
0
39
0
210
0
220
0
230
1
0
LINE
5
78
100
AcDbEntity
8
1
62
256
6
ByLayer
370
-1
48
1
60
0
100
AcDbLine
10
50.408016
20
-8.908401
30
0
11
50.408016
21
-8.601765
31
0
39
0
210
0
220
0
230
1
0
LINE
5
79
100
AcDbEntity
8
1
62
256
6
ByLayer
370
-1
48
1
60
0
100
AcDbLine
10
43.254194
20
10.01
30
0
11
43.254194
21
1.818571
31
0
39
0
210
0
220
0
230
1
0
LINE
5
7A
100
AcDbEntity
8
1
62
256
6
ByLayer
370
-1
48
1
60
0
100
AcDbLine
10
21.941173
20
0
30
0
11
21.941173
21
-10.889417
31
0
39
0
210
0
220
0
230
1
0
LINE
5
7B
100
AcDbEntity
8
1
62
256
6
ByLayer
370
-1
48
1
60
0
100
AcDbLine
10
21.941173
20
10.889417
30
0
11
21.941173
21
0
31
0
39
0
210
0
220
0
230
1
0
LINE
5
7C
100
AcDbEntity
8
1
62
256
6
ByLayer
370
-1
48
1
60
0
100
AcDbLine
10
50.762192
20
7.37419
30
0
11
44.573058
21
-3.008911
31
0
39
0
210
0
220
0
230
1
0
LINE
5
7D
100
AcDbEntity
8
1
62
256
6
ByLayer
370
-1
48
1
60
0
100
AcDbLine
10
56.884554
20
0.636831
30
0
11
59.419707
21
2.062865
31
0
39
0
210
0
220
0
230
1
0
LINE
5
7E
100
AcDbEntity
8
1
62
256
6
ByLayer
370
-1
48
1
60
0
100
AcDbLine
10
59.432902
20
2.110019
30
0
11
59.419707
21
2.062865
31
0
39
0
210
0
220
0
230
1
0
LINE
5
7F
100
AcDbEntity
8
1
62
256
6
ByLayer
370
-1
48
1
60
0
100
AcDbLine
10
43.50249
20
10.01
30
0
11
51.226445
21
7.894857
31
0
39
0
210
0
220
0
230
1
0
LINE
5
80
100
AcDbEntity
8
1
62
256
6
ByLayer
370
-1
48
1
60
0
100
AcDbLine
10
43.740935
20
-10.284382
30
0
11
43.740935
21
-10.243778
31
0
39
0
210
0
220
0
230
1
0
LINE
5
81
100
AcDbEntity
8
1
62
256
6
ByLayer
370
-1
48
1
60
0
100
AcDbLine
10
6.663397
20
19.024574
30
0
11
6.663397
21
6.16973
31
0
39
0
210
0
220
0
230
1
0
LINE
5
82
100
AcDbEntity
8
1
62
256
6
ByLayer
370
-1
48
1
60
0
100
AcDbLine
10
9.076795
20
19.122283
30
0
11
9.076795
21
5.85989
31
0
39
0
210
0
220
0
230
1
0
LINE
5
83
100
AcDbEntity
8
1
62
256
6
ByLayer
370
-1
48
1
60
0
100
AcDbLine
10
47.885958
20
-6.678267
30
0
11
46.268384
21
-5.783688
31
0
39
0
210
0
220
0
230
1
0
LINE
5
84
100
AcDbEntity
8
1
62
256
6
ByLayer
370
-1
48
1
60
0
100
AcDbLine
10
6.923205
20
5.85989
30
0
11
9.076795
21
5.85989
31
0
39
0
210
0
220
0
230
1
0
LINE
5
85
100
AcDbEntity
8
1
62
256
6
ByLayer
370
-1
48
1
60
0
100
AcDbLine
10
9.336603
20
-6.16973
30
0
11
9.336603
21
-19.024574
31
0
39
0
210
0
220
0
230
1
0
LINE
5
86
100
AcDbEntity
8
1
62
256
6
ByLayer
370
-1
48
1
60
0
100
AcDbLine
10
51.531977
20
-2.393502
30
0
11
56.27199
21
0.272774
31
0
39
0
210
0
220
0
230
1
0
LINE
5
87
100
AcDbEntity
8
1
62
256
6
ByLayer
370
-1
48
1
60
0
100
AcDbLine
10
50.437318
20
-9.010823
30
0
11
47.028509
21
-7.124674
31
0
39
0
210
0
220
0
230
1
0
LINE
5
88
100
AcDbEntity
8
1
62
256
6
ByLayer
370
-1
48
1
60
0
100
AcDbLine
10
0
20
0
30
0
11
0
21
-19.7
31
0
39
0
210
0
220
0
230
1
0
LINE
5
89
100
AcDbEntity
8
1
62
256
6
ByLayer
370
-1
48
1
60
0
100
AcDbLine
10
0
20
19.7
30
0
11
0
21
0
31
0
39
0
210
0
220
0
230
1
0
LINE
5
8A
100
AcDbEntity
8
1
62
256
6
ByLayer
370
-1
48
1
60
0
100
AcDbLine
10
9.076795
20
19.122283
30
0
11
6.923205
21
19.122283
31
0
39
0
210
0
220
0
230
1
0
LINE
5
8B
100
AcDbEntity
8
1
62
256
6
ByLayer
370
-1
48
1
60
0
100
AcDbLine
10
9.076795
20
-5.85989
30
0
11
6.923205
21
-5.85989
31
0
39
0
210
0
220
0
230
1
0
LINE
5
8C
100
AcDbEntity
8
1
62
256
6
ByLayer
370
-1
48
1
60
0
100
AcDbLine
10
6.923205
20
19.122283
30
0
11
6.923205
21
5.85989
31
0
39
0
210
0
220
0
230
1
0
LINE
5
8D
100
AcDbEntity
8
1
62
256
6
ByLayer
370
-1
48
1
60
0
100
AcDbLine
10
6.923205
20
-5.85989
30
0
11
6.923205
21
-19.122283
31
0
39
0
210
0
220
0
230
1
0
LINE
5
8E
100
AcDbEntity
8
1
62
256
6
ByLayer
370
-1
48
1
60
0
100
AcDbLine
10
9.076795
20
-5.85989
30
0
11
9.076795
21
-19.122283
31
0
39
0
210
0
220
0
230
1
0
LINE
5
8F
100
AcDbEntity
8
SK1
62
256
6
ByLayer
370
-1
48
1
60
0
100
AcDbLine
10
-0.2
20
14.083485
30
0
11
-0.2
21
5.547043
31
0
39
0
210
0
220
0
230
1
0
LINE
5
91
100
AcDbEntity
8
SK1
62
256
6
ByLayer
370
-1
48
1
60
0
100
AcDbLine
10
-1.307107
20
3.588717
30
0
11
-1.307107
21
-3.588717
31
0
39
0
210
0
220
0
230
1
0
LINE
5
92
100
AcDbEntity
8
SK1
62
256
6
ByLayer
370
-1
48
1
60
0
100
AcDbLine
10
-24
20
-12.579031
30
0
11
-24
21
12.578424
31
0
39
0
210
0
220
0
230
1
0
LINE
5
93
100
AcDbEntity
8
SK1
62
256
6
ByLayer
370
-1
48
1
60
0
100
AcDbLine
10
-0.2
20
-14.083485
30
0
11
-0.2
21
-5.547043
31
0
39
0
210
0
220
0
230
1
0
LINE
5
94
100
AcDbEntity
8
1
62
256
6
ByLayer
370
-1
48
1
60
0
100
AcDbLine
10
58.998103
20
-12.576442
30
0
11
59.002181
21
-12.576425
31
0
39
0
210
0
220
0
230
1
0
LINE
5
95
100
AcDbEntity
8
1
62
256
6
ByLayer
370
-1
48
1
60
0
100
AcDbLine
10
58.356122
20
-11.361018
30
0
11
58.901184
21
-12.295776
31
0
39
0
210
0
220
0
230
1
0
LINE
5
96
100
AcDbEntity
8
1
62
256
6
ByLayer
370
-1
48
1
60
0
100
AcDbLine
10
57.185241
20
-11.904347
30
0
11
57.834103
21
-11.901515
31
0
39
0
210
0
220
0
230
1
0
LINE
5
97
100
AcDbEntity
8
1
62
256
6
ByLayer
370
-1
48
1
60
0
100
AcDbLine
10
57.378229
20
0.914539
30
0
11
57.391343
21
0.713225
31
0
39
0
210
0
220
0
230
1
0
LINE
5
98
100
AcDbEntity
8
1
62
256
6
ByLayer
370
-1
48
1
60
0
100
AcDbLine
10
58.858289
20
-5.128759
30
0
11
58.685154
21
-5.712817
31
0
39
0
210
0
220
0
230
1
0
LINE
5
99
100
AcDbEntity
8
1
62
256
6
ByLayer
370
-1
48
1
60
0
100
AcDbLine
10
47.380598
20
-5.859814
30
0
11
48.215453
21
-7.211962
31
0
39
0
210
0
220
0
230
1
0
LINE
5
9A
100
AcDbEntity
8
1
62
256
6
ByLayer
370
-1
48
1
60
0
100
AcDbLine
10
59.815649
20
-2.216928
30
0
11
56.618278
21
-0.105635
31
0
39
0
210
0
220
0
230
1
0
LINE
5
9B
100
AcDbEntity
8
1
62
256
6
ByLayer
370
-1
48
1
60
0
100
AcDbLine
10
52.368868
20
-2.210181
30
0
11
52.697363
21
-3.357456
31
0
39
0
210
0
220
0
230
1
0
LINE
5
9C
100
AcDbEntity
8
1
62
256
6
ByLayer
370
-1
48
1
60
0
100
AcDbLine
10
52.198229
20
-2.327518
30
0
11
52.346427
21
-2.845101
31
0
39
0
210
0
220
0
230
1
0
LINE
5
9D
100
AcDbEntity
8
1
62
256
6
ByLayer
370
-1
48
1
60
0
100
AcDbLine
10
53.971269
20
-10.002183
30
0
11
53.697836
21
-10.42235
31
0
39
0
210
0
220
0
230
1
0
LINE
5
9E
100
AcDbEntity
8
1
62
256
6
ByLayer
370
-1
48
1
60
0
100
AcDbLine
10
52.611521
20
-9.776041
30
0
11
53.186191
21
-9.23867
31
0
39
0
210
0
220
0
230
1
0
LINE
5
9F
100
AcDbEntity
8
1
62
256
6
ByLayer
370
-1
48
1
60
0
100
AcDbLine
10
58.610636
20
0.257008
30
0
11
58.009942
21
0.298774
31
0
39
0
210
0
220
0
230
1
0
LINE
5
A0
100
AcDbEntity
8
1
62
256
6
ByLayer
370
-1
48
1
60
0
100
AcDbLine
10
56.859034
20
-11.573057
30
0
11
57.03919
21
-11.828006
31
0
39
0
210
0
220
0
230
1
0
LINE
5
A1
100
AcDbEntity
8
1
62
256
6
ByLayer
370
-1
48
1
60
0
100
AcDbLine
10
60.00236
20
-6.50431
30
0
11
59.160542
21
-6.112419
31
0
39
0
210
0
220
0
230
1
0
LINE
5
A2
100
AcDbEntity
8
1
62
256
6
ByLayer
370
-1
48
1
60
0
100
AcDbLine
10
52.356809
20
-9.680235
30
0
11
53.132322
21
-9.170339
31
0
39
0
210
0
220
0
230
1
0
LINE
5
A3
100
AcDbEntity
8
1
62
256
6
ByLayer
370
-1
48
1
60
0
100
AcDbLine
10
59.548818
20
-1.621531
30
0
11
59.674308
21
-1.369025
31
0
39
0
210
0
220
0
230
1
0
LINE
5
A4
100
AcDbEntity
8
1
62
256
6
ByLayer
370
-1
48
1
60
0
100
AcDbLine
10
59.998288
20
-5.962417
30
0
11
59.998819
21
-5.34555
31
0
39
0
210
0
220
0
230
1
0
LINE
5
A5
100
AcDbEntity
8
1
62
256
6
ByLayer
370
-1
48
1
60
0
100
AcDbLine
10
49.484606
20
-7.929913
30
0
11
49.926952
21
-8.320144
31
0
39
0
210
0
220
0
230
1
0
LINE
5
A6
100
AcDbEntity
8
1
62
256
6
ByLayer
370
-1
48
1
60
0
100
AcDbLine
10
58.702813
20
0.190727
30
0
11
58.409152
21
-0.279918
31
0
39
0
210
0
220
0
230
1
0
LINE
5
A7
100
AcDbEntity
8
1
62
256
6
ByLayer
370
-1
48
1
60
0
100
AcDbLine
10
48.309982
20
-5.662541
30
0
11
48.246566
21
-4.689057
31
0
39
0
210
0
220
0
230
1
0
LINE
5
A8
100
AcDbEntity
8
1
62
256
6
ByLayer
370
-1
48
1
60
0
100
AcDbLine
10
59.204162
20
-0.584394
30
0
11
59.153176
21
0.19828
31
0
39
0
210
0
220
0
230
1
0
LINE
5
A9
100
AcDbEntity
8
1
62
256
6
ByLayer
370
-1
48
1
60
0
100
AcDbLine
10
52.449868
20
-9.722799
30
0
11
52.611521
21
-9.776041
31
0
39
0
210
0
220
0
230
1
0
LINE
5
AA
100
AcDbEntity
8
1
62
256
6
ByLayer
370
-1
48
1
60
0
100
AcDbLine
10
47.665208
20
-5.806488
30
0
11
48.098794
21
-5.986801
31
0
39
0
210
0
220
0
230
1
0
LINE
5
AB
100
AcDbEntity
8
1
62
256
6
ByLayer
370
-1
48
1
60
0
100
AcDbLine
10
59.25584
20
0.616576
30
0
11
57.520689
21
0.737218
31
0
39
0
210
0
220
0
230
1
0
LINE
5
AC
100
AcDbEntity
8
1
62
256
6
ByLayer
370
-1
48
1
60
0
100
AcDbLine
10
59.759085
20
-10.030844
30
0
11
56.859034
21
-11.573057
31
0
39
0
210
0
220
0
230
1
0
LINE
5
AD
100
AcDbEntity
8
1
62
256
6
ByLayer
370
-1
48
1
60
0
100
AcDbLine
10
56.500596
20
0.267917
30
0
11
56.680085
21
0.368811
31
0
39
0
210
0
220
0
230
1
0
LINE
5
AE
100
AcDbEntity
8
1
62
256
6
ByLayer
370
-1
48
1
60
0
100
AcDbLine
10
49.295426
20
-4.385487
30
0
11
49.248082
21
-3.658722
31
0
39
0
210
0
220
0
230
1
0
LINE
5
AF
100
AcDbEntity
8
1
62
256
6
ByLayer
370
-1
48
1
60
0
100
AcDbLine
10
59.998288
20
-5.962417
30
0
11
58.685154
21
-5.712817
31
0
39
0
210
0
220
0
230
1
0
LINE
5
B0
100
AcDbEntity
8
1
62
256
6
ByLayer
370
-1
48
1
60
0
100
AcDbLine
10
49.293422
20
-4.385809
30
0
11
48.991124
21
-4.434752
31
0
39
0
210
0
220
0
230
1
0
LINE
5
B1
100
AcDbEntity
8
1
62
256
6
ByLayer
370
-1
48
1
60
0
100
AcDbLine
10
49.445139
20
-7.490678
30
0
11
49.484606
21
-7.929913
31
0
39
0
210
0
220
0
230
1
0
LINE
5
B2
100
AcDbEntity
8
1
62
256
6
ByLayer
370
-1
48
1
60
0
100
AcDbLine
10
56.618278
20
-0.105635
30
0
11
56.212903
21
0.067265
31
0
39
0
210
0
220
0
230
1
0
LINE
5
B3
100
AcDbEntity
8
1
62
256
6
ByLayer
370
-1
48
1
60
0
100
AcDbLine
10
48.308234
20
-7.294229
30
0
11
48.933134
21
-7.591554
31
0
39
0
210
0
220
0
230
1
0
LINE
5
B4
100
AcDbEntity
8
1
62
256
6
ByLayer
370
-1
48
1
60
0
100
AcDbLine
10
58.627047
20
-0.454388
30
0
11
59.144459
21
0.374859
31
0
39
0
210
0
220
0
230
1
0
LINE
5
B5
100
AcDbEntity
8
1
62
256
6
ByLayer
370
-1
48
1
60
0
100
AcDbLine
10
59.036415
20
-0.508596
30
0
11
58.914417
21
-0.304993
31
0
39
0
210
0
220
0
230
1
0
LINE
5
B6
100
AcDbEntity
8
1
62
256
6
ByLayer
370
-1
48
1
60
0
100
AcDbLine
10
49.170302
20
-7.490105
30
0
11
49.01253
21
-7.632466
31
0
39
0
210
0
220
0
230
1
0
LINE
5
B7
100
AcDbEntity
8
1
62
256
6
ByLayer
370
-1
48
1
60
0
100
AcDbLine
10
48.715416
20
-5.723699
30
0
11
47.665208
21
-5.806488
31
0
39
0
210
0
220
0
230
1
0
LINE
5
B8
100
AcDbEntity
8
1
62
256
6
ByLayer
370
-1
48
1
60
0
100
AcDbLine
10
47.314523
20
-4.751535
30
0
11
47.316562
21
-4.748115
31
0
39
0
210
0
220
0
230
1
0
LINE
5
B9
100
AcDbEntity
8
1
62
256
6
ByLayer
370
-1
48
1
60
0
100
AcDbLine
10
58.897154
20
-11.745747
30
0
11
58.5878
21
-11.215219
31
0
39
0
210
0
220
0
230
1
0
LINE
5
BA
100
AcDbEntity
8
1
62
256
6
ByLayer
370
-1
48
1
60
0
100
AcDbLine
10
58.004387
20
0.395597
30
0
11
58.605082
21
0.353832
31
0
39
0
210
0
220
0
230
1
0
LINE
5
BB
100
AcDbEntity
8
1
62
256
6
ByLayer
370
-1
48
1
60
0
100
AcDbLine
10
48.092099
20
-6.083677
30
0
11
48.381119
21
-6.55178
31
0
39
0
210
0
220
0
230
1
0
LINE
5
BC
100
AcDbEntity
8
1
62
256
6
ByLayer
370
-1
48
1
60
0
100
AcDbLine
10
58.124434
20
-11.710247
30
0
11
58.36843
21
-11.709182
31
0
39
0
210
0
220
0
230
1
0
LINE
5
BD
100
AcDbEntity
8
1
62
256
6
ByLayer
370
-1
48
1
60
0
100
AcDbLine
10
59.092617
20
-11.744895
30
0
11
59.096647
21
-12.294923
31
0
39
0
210
0
220
0
230
1
0
LINE
5
BE
100
AcDbEntity
8
1
62
256
6
ByLayer
370
-1
48
1
60
0
100
AcDbLine
10
59.899585
20
-1.458615
30
0
11
59.968542
21
-2.517158
31
0
39
0
210
0
220
0
230
1
0
LINE
5
BF
100
AcDbEntity
8
1
62
256
6
ByLayer
370
-1
48
1
60
0
100
AcDbLine
10
59.202479
20
-6.018472
30
0
11
60.001756
21
-6.390559
31
0
39
0
210
0
220
0
230
1
0
LINE
5
C0
100
AcDbEntity
8
1
62
256
6
ByLayer
370
-1
48
1
60
0
100
AcDbLine
10
57.520689
20
0.737218
30
0
11
57.504512
21
0.98556
31
0
39
0
210
0
220
0
230
1
0
LINE
5
C1
100
AcDbEntity
8
1
62
256
6
ByLayer
370
-1
48
1
60
0
100
AcDbLine
10
59.633532
20
-11.355444
30
0
11
59.39733
21
-11.211686
31
0
39
0
210
0
220
0
230
1
0
LINE
5
C2
100
AcDbEntity
8
1
62
256
6
ByLayer
370
-1
48
1
60
0
100
AcDbLine
10
59.077512
20
-12.531733
30
0
11
59.957697
21
-10.991523
31
0
39
0
210
0
220
0
230
1
0
LINE
5
C3
100
AcDbEntity
8
1
62
256
6
ByLayer
370
-1
48
1
60
0
100
AcDbLine
10
58.660158
20
-5.706581
30
0
11
58.833292
21
-5.122523
31
0
39
0
210
0
220
0
230
1
0
LINE
5
C4
100
AcDbEntity
8
1
62
256
6
ByLayer
370
-1
48
1
60
0
100
AcDbLine
10
56.75989
20
0.410418
30
0
11
56.809476
21
0.187316
31
0
39
0
210
0
220
0
230
1
0
LINE
5
C5
100
AcDbEntity
8
1
62
256
6
ByLayer
370
-1
48
1
60
0
100
AcDbLine
10
52.782485
20
-9.855551
30
0
11
53.3433
21
-10.173746
31
0
39
0
210
0
220
0
230
1
0
LINE
5
C6
100
AcDbEntity
8
1
62
256
6
ByLayer
370
-1
48
1
60
0
100
AcDbLine
10
58.684961
20
-11.158361
30
0
11
58.994316
21
-11.688889
31
0
39
0
210
0
220
0
230
1
0
LINE
5
C7
100
AcDbEntity
8
1
62
256
6
ByLayer
370
-1
48
1
60
0
100
AcDbLine
10
53.51663
20
-10.289583
30
0
11
53.612244
21
-10.365881
31
0
39
0
210
0
220
0
230
1
0
LINE
5
C8
100
AcDbEntity
8
1
62
256
6
ByLayer
370
-1
48
1
60
0
100
AcDbLine
10
60.000165
20
-5.174361
30
0
11
59.485624
21
-5.076557
31
0
39
0
210
0
220
0
230
1
0
LINE
5
C9
100
AcDbEntity
8
1
62
256
6
ByLayer
370
-1
48
1
60
0
100
AcDbLine
10
59.330901
20
0.57144
30
0
11
59.263975
21
1.598806
31
0
39
0
210
0
220
0
230
1
0
LINE
5
CA
100
AcDbEntity
8
1
62
256
6
ByLayer
370
-1
48
1
60
0
100
AcDbLine
10
58.684961
20
-11.158361
30
0
11
58.991166
21
-10.967002
31
0
39
0
210
0
220
0
230
1
0
LINE
5
CB
100
AcDbEntity
8
1
62
256
6
ByLayer
370
-1
48
1
60
0
100
AcDbLine
10
59.144459
20
0.374859
30
0
11
58.702813
21
0.190727
31
0
39
0
210
0
220
0
230
1
0
LINE
5
CC
100
AcDbEntity
8
1
62
256
6
ByLayer
370
-1
48
1
60
0
100
AcDbLine
10
48.076711
20
-6.795213
30
0
11
48.290083
21
-6.618861
31
0
39
0
210
0
220
0
230
1
0
LINE
5
CD
100
AcDbEntity
8
1
62
256
6
ByLayer
370
-1
48
1
60
0
100
AcDbLine
10
49.763593
20
-3.801621
30
0
11
49.656088
21
-3.938032
31
0
39
0
210
0
220
0
230
1
0
LINE
5
CE
100
AcDbEntity
8
1
62
256
6
ByLayer
370
-1
48
1
60
0
100
AcDbLine
10
59.046728
20
0.537963
30
0
11
57.988341
21
0.611551
31
0
39
0
210
0
220
0
230
1
0
LINE
5
CF
100
AcDbEntity
8
1
62
256
6
ByLayer
370
-1
48
1
60
0
100
AcDbLine
10
59.989042
20
-9.815383
30
0
11
59.786807
21
-9.948216
31
0
39
0
210
0
220
0
230
1
0
LINE
5
D0
100
AcDbEntity
8
1
62
256
6
ByLayer
370
-1
48
1
60
0
100
AcDbLine
10
52.198229
20
-2.327518
30
0
11
52.105776
21
-2.404637
31
0
39
0
210
0
220
0
230
1
0
LINE
5
D1
100
AcDbEntity
8
1
62
256
6
ByLayer
370
-1
48
1
60
0
100
AcDbLine
10
59.66617
20
-1.216396
30
0
11
59.602211
21
-0.234576
31
0
39
0
210
0
220
0
230
1
0
LINE
5
D2
100
AcDbEntity
8
1
62
256
6
ByLayer
370
-1
48
1
60
0
100
AcDbLine
10
59.999309
20
-6.169933
30
0
11
59.202479
21
-6.018472
31
0
39
0
210
0
220
0
230
1
0
LINE
5
D3
100
AcDbEntity
8
1
62
256
6
ByLayer
370
-1
48
1
60
0
100
AcDbLine
10
48.420296
20
-5.594898
30
0
11
48.357166
21
-4.625804
31
0
39
0
210
0
220
0
230
1
0
LINE
5
D4
100
AcDbEntity
8
1
62
256
6
ByLayer
370
-1
48
1
60
0
100
AcDbLine
10
48.523108
20
-6.794696
30
0
11
48.834728
21
-6.612375
31
0
39
0
210
0
220
0
230
1
0
LINE
5
D5
100
AcDbEntity
8
1
62
256
6
ByLayer
370
-1
48
1
60
0
100
AcDbLine
10
48.854218
20
-4.526507
30
0
11
48.529787
21
-5.070784
31
0
39
0
210
0
220
0
230
1
0
LINE
5
D6
100
AcDbEntity
8
1
62
256
6
ByLayer
370
-1
48
1
60
0
100
AcDbLine
10
59.33294
20
0.568038
30
0
11
59.330901
21
0.57144
31
0
39
0
210
0
220
0
230
1
0
LINE
5
D7
100
AcDbEntity
8
1
62
256
6
ByLayer
370
-1
48
1
60
0
100
AcDbLine
10
60.00236
20
-6.50431
30
0
11
60.00236
21
-9.075466
31
0
39
0
210
0
220
0
230
1
0
LINE
5
D8
100
AcDbEntity
8
1
62
256
6
ByLayer
370
-1
48
1
60
0
100
AcDbLine
10
58.678973
20
1.646206
30
0
11
59.189108
21
1.64097
31
0
39
0
210
0
220
0
230
1
0
LINE
5
D9
100
AcDbEntity
8
1
62
256
6
ByLayer
370
-1
48
1
60
0
100
AcDbLine
10
49.926952
20
-8.320144
30
0
11
49.763593
21
-3.801621
31
0
39
0
210
0
220
0
230
1
0
LINE
5
DA
100
AcDbEntity
8
1
62
256
6
ByLayer
370
-1
48
1
60
0
100
AcDbLine
10
48.290083
20
-6.618861
30
0
11
48.001063
21
-6.150758
31
0
39
0
210
0
220
0
230
1
0
LINE
5
DB
100
AcDbEntity
8
1
62
256
6
ByLayer
370
-1
48
1
60
0
100
AcDbLine
10
59.135776
20
-0.573998
30
0
11
59.091869
21
0.100013
31
0
39
0
210
0
220
0
230
1
0
LINE
5
DC
100
AcDbEntity
8
1
62
256
6
ByLayer
370
-1
48
1
60
0
100
AcDbLine
10
52.928622
20
-1.887095
30
0
11
52.368868
21
-2.210181
31
0
39
0
210
0
220
0
230
1
0
LINE
5
DD
100
AcDbEntity
8
1
62
256
6
ByLayer
370
-1
48
1
60
0
100
AcDbLine
10
59.25584
20
0.616576
30
0
11
59.189108
21
1.64097
31
0
39
0
210
0
220
0
230
1
0
LINE
5
DE
100
AcDbEntity
8
1
62
256
6
ByLayer
370
-1
48
1
60
0
100
AcDbLine
10
53.3433
20
-10.173746
30
0
11
54.165844
21
-9.404589
31
0
39
0
210
0
220
0
230
1
0
LINE
5
DF
100
AcDbEntity
8
1
62
256
6
ByLayer
370
-1
48
1
60
0
100
AcDbLine
10
56.212903
20
0.067265
30
0
11
55.790214
21
-0.326741
31
0
39
0
210
0
220
0
230
1
0
LINE
5
E0
100
AcDbEntity
8
1
62
256
6
ByLayer
370
-1
48
1
60
0
100
AcDbLine
10
58.913731
20
-0.18547
30
0
11
59.333403
21
0.48713
31
0
39
0
210
0
220
0
230
1
0
LINE
5
E1
100
AcDbEntity
8
1
62
256
6
ByLayer
370
-1
48
1
60
0
100
AcDbLine
10
56.809476
20
0.187316
30
0
11
59.548818
21
-1.621531
31
0
39
0
210
0
220
0
230
1
0
LINE
5
E2
100
AcDbEntity
8
1
62
256
6
ByLayer
370
-1
48
1
60
0
100
AcDbLine
10
53.186191
20
-9.23867
30
0
11
52.449868
21
-9.722799
31
0
39
0
210
0
220
0
230
1
0
LINE
5
E3
100
AcDbEntity
8
1
62
256
6
ByLayer
370
-1
48
1
60
0
100
AcDbLine
10
59.341739
20
-0.674951
30
0
11
59.27778
21
0.306869
31
0
39
0
210
0
220
0
230
1
0
LINE
5
E4
100
AcDbEntity
8
1
62
256
6
ByLayer
370
-1
48
1
60
0
100
AcDbLine
10
53.362442
20
-1.708029
30
0
11
55.667349
21
-0.412393
31
0
39
0
210
0
220
0
230
1
0
LINE
5
E5
100
AcDbEntity
8
1
62
256
6
ByLayer
370
-1
48
1
60
0
100
AcDbLine
10
48.715416
20
-5.723699
30
0
11
48.694848
21
-5.939813
31
0
39
0
210
0
220
0
230
1
0
LINE
5
E6
100
AcDbEntity
8
1
62
256
6
ByLayer
370
-1
48
1
60
0
100
AcDbLine
10
58.316975
20
-0.213637
30
0
11
58.003697
21
-0.034044
31
0
39
0
210
0
220
0
230
1
0
LINE
5
E7
100
AcDbEntity
8
1
62
256
6
ByLayer
370
-1
48
1
60
0
100
AcDbLine
10
53.51663
20
-10.289583
30
0
11
53.887714
21
-9.942584
31
0
39
0
210
0
220
0
230
1
0
LINE
5
E8
100
AcDbEntity
8
1
62
256
6
ByLayer
370
-1
48
1
60
0
100
AcDbLine
10
52.356809
20
-9.680235
30
0
11
50.051901
21
-8.404715
31
0
39
0
210
0
220
0
230
1
0
LINE
5
E9
100
AcDbEntity
8
1
62
256
6
ByLayer
370
-1
48
1
60
0
100
AcDbLine
10
60.001318
20
-9.197685
30
0
11
56.031737
21
-11.611298
31
0
39
0
210
0
220
0
230
1
0
LINE
5
EA
100
AcDbEntity
8
1
62
256
6
ByLayer
370
-1
48
1
60
0
100
AcDbLine
10
48.933134
20
-7.591554
30
0
11
49.112693
21
-7.429533
31
0
39
0
210
0
220
0
230
1
0
LINE
5
EB
100
AcDbEntity
8
1
62
256
6
ByLayer
370
-1
48
1
60
0
100
AcDbLine
10
59.554125
20
-1.737446
30
0
11
59.546911
21
-1.626705
31
0
39
0
210
0
220
0
230
1
0
LINE
5
EC
100
AcDbEntity
8
1
62
256
6
ByLayer
370
-1
48
1
60
0
100
AcDbLine
10
57.863727
20
-0.27819
30
0
11
58.177005
21
-0.457783
31
0
39
0
210
0
220
0
230
1
0
LINE
5
ED
100
AcDbEntity
8
1
62
256
6
ByLayer
370
-1
48
1
60
0
100
AcDbLine
10
59.992524
20
-10.858581
30
0
11
59.989247
21
-10.107538
31
0
39
0
210
0
220
0
230
1
0
LINE
5
EE
100
AcDbEntity
8
1
62
256
6
ByLayer
370
-1
48
1
60
0
100
AcDbLine
10
59.299028
20
-11.155681
30
0
11
58.991166
21
-10.967002
31
0
39
0
210
0
220
0
230
1
0
LINE
5
EF
100
AcDbEntity
8
1
62
256
6
ByLayer
370
-1
48
1
60
0
100
AcDbLine
10
53.612244
20
-10.365881
30
0
11
53.887714
21
-9.942584
31
0
39
0
210
0
220
0
230
1
0
LINE
5
F0
100
AcDbEntity
8
1
62
256
6
ByLayer
370
-1
48
1
60
0
100
AcDbLine
10
49.900803
20
-3.653887
30
0
11
49.878034
21
-3.304363
31
0
39
0
210
0
220
0
230
1
0
LINE
5
F1
100
AcDbEntity
8
1
62
256
6
ByLayer
370
-1
48
1
60
0
100
AcDbLine
10
59.923154
20
-2.431652
30
0
11
59.815649
21
-2.216928
31
0
39
0
210
0
220
0
230
1
0
LINE
5
F2
100
AcDbEntity
8
1
62
256
6
ByLayer
370
-1
48
1
60
0
100
AcDbLine
10
59.433969
20
-10.938628
30
0
11
59.126106
21
-10.74995
31
0
39
0
210
0
220
0
230
1
0
LINE
5
F3
100
AcDbEntity
8
1
62
256
6
ByLayer
370
-1
48
1
60
0
100
AcDbLine
10
53.362442
20
-1.708029
30
0
11
53.428747
21
-2.609816
31
0
39
0
210
0
220
0
230
1
0
LINE
5
F4
100
AcDbEntity
8
1
62
256
6
ByLayer
370
-1
48
1
60
0
100
AcDbLine
10
49.112693
20
-7.429533
30
0
11
49.293422
21
-4.385809
31
0
39
0
210
0
220
0
230
1
0
LINE
5
F5
100
AcDbEntity
8
1
62
256
6
ByLayer
370
-1
48
1
60
0
100
AcDbLine
10
49.900803
20
-3.653887
30
0
11
52.021415
21
-2.461847
31
0
39
0
210
0
220
0
230
1
0
LINE
5
F6
100
AcDbEntity
8
1
62
256
6
ByLayer
370
-1
48
1
60
0
100
AcDbLine
10
57.988341
20
0.611551
30
0
11
58.004387
21
0.395597
31
0
39
0
210
0
220
0
230
1
0
LINE
5
F7
100
AcDbEntity
8
1
62
256
6
ByLayer
370
-1
48
1
60
0
100
AcDbLine
10
48.991124
20
-4.434752
30
0
11
48.951441
21
-3.825588
31
0
39
0
210
0
220
0
230
1
0
LINE
5
F8
100
AcDbEntity
8
1
62
256
6
ByLayer
370
-1
48
1
60
0
100
AcDbLine
10
53.313169
20
-3.232971
30
0
11
52.703702
21
-3.382431
31
0
39
0
210
0
220
0
230
1
0
LINE
5
F9
100
AcDbEntity
8
1
62
256
6
ByLayer
370
-1
48
1
60
0
100
AcDbLine
10
53.101627
20
-1.806084
30
0
11
53.331129
21
-2.607626
31
0
39
0
210
0
220
0
230
1
0
LINE
5
FA
100
AcDbEntity
8
1
62
256
6
ByLayer
370
-1
48
1
60
0
100
AcDbLine
10
59.39733
20
-11.211686
30
0
11
59.092617
21
-11.744895
31
0
39
0
210
0
220
0
230
1
0
LINE
5
FB
100
AcDbEntity
8
1
62
256
6
ByLayer
370
-1
48
1
60
0
100
AcDbLine
10
52.105776
20
-2.404637
30
0
11
52.346427
21
-2.845101
31
0
39
0
210
0
220
0
230
1
0
LINE
5
FC
100
AcDbEntity
8
1
62
256
6
ByLayer
370
-1
48
1
60
0
100
AcDbLine
10
49.784195
20
-3.357142
30
0
11
49.80898
21
-3.737622
31
0
39
0
210
0
220
0
230
1
0
LINE
5
FD
100
AcDbEntity
8
1
62
256
6
ByLayer
370
-1
48
1
60
0
100
AcDbLine
10
56.500596
20
0.267917
30
0
11
56.723654
21
0.172779
31
0
39
0
210
0
220
0
230
1
0
LINE
5
FE
100
AcDbEntity
8
1
62
256
6
ByLayer
370
-1
48
1
60
0
100
AcDbLine
10
48.098794
20
-5.986801
30
0
11
48.694848
21
-5.939813
31
0
39
0
210
0
220
0
230
1
0
LINE
5
FF
100
AcDbEntity
8
1
62
256
6
ByLayer
370
-1
48
1
60
0
100
AcDbLine
10
59.66617
20
-1.216396
30
0
11
59.341739
21
-0.674951
31
0
39
0
210
0
220
0
230
1
0
LINE
5
100
100
AcDbEntity
8
1
62
256
6
ByLayer
370
-1
48
1
60
0
100
AcDbLine
10
60.000165
20
-5.174361
30
0
11
60.001745
21
-5.093725
31
0
39
0
210
0
220
0
230
1
0
LINE
5
101
100
AcDbEntity
8
1
62
256
6
ByLayer
370
-1
48
1
60
0
100
AcDbLine
10
49.192019
20
-7.731794
30
0
11
49.01253
21
-7.632466
31
0
39
0
210
0
220
0
230
1
0
LINE
5
102
100
AcDbEntity
8
1
62
256
6
ByLayer
370
-1
48
1
60
0
100
AcDbLine
10
52.782485
20
-9.855551
30
0
11
53.729511
21
-8.969991
31
0
39
0
210
0
220
0
230
1
0
LINE
5
103
100
AcDbEntity
8
1
62
256
6
ByLayer
370
-1
48
1
60
0
100
AcDbLine
10
52.928622
20
-1.887095
30
0
11
53.30683
21
-3.207996
31
0
39
0
210
0
220
0
230
1
0
LINE
5
104
100
AcDbEntity
8
1
62
256
6
ByLayer
370
-1
48
1
60
0
100
AcDbLine
10
53.268175
20
-1.75141
30
0
11
53.101627
21
-1.806084
31
0
39
0
210
0
220
0
230
1
0
LINE
5
105
100
AcDbEntity
8
1
62
256
6
ByLayer
370
-1
48
1
60
0
100
AcDbLine
10
60.001206
20
-2.619631
30
0
11
55.667349
21
-0.412393
31
0
39
0
210
0
220
0
230
1
0
LINE
5
106
100
AcDbEntity
8
1
62
256
6
ByLayer
370
-1
48
1
60
0
100
AcDbLine
10
59.989042
20
-9.815383
30
0
11
59.989042
21
-10.015604
31
0
39
0
210
0
220
0
230
1
0
LINE
5
107
100
AcDbEntity
8
1
62
256
6
ByLayer
370
-1
48
1
60
0
100
AcDbLine
10
58.356122
20
-11.361018
30
0
11
58.5878
21
-11.215219
31
0
39
0
210
0
220
0
230
1
0
LINE
5
108
100
AcDbEntity
8
1
62
256
6
ByLayer
370
-1
48
1
60
0
100
AcDbLine
10
54.165844
20
-9.404589
30
0
11
53.729511
21
-8.969991
31
0
39
0
210
0
220
0
230
1
0
LINE
5
109
100
AcDbEntity
8
1
62
256
6
ByLayer
370
-1
48
1
60
0
100
AcDbLine
10
60.00236
20
-2.642805
30
0
11
60.00236
21
-5.008377
31
0
39
0
210
0
220
0
230
1
0
LINE
5
10A
100
AcDbEntity
8
1
62
256
6
ByLayer
370
-1
48
1
60
0
100
AcDbLine
10
48.688152
20
-6.03669
30
0
11
48.692739
21
-6.36946
31
0
39
0
210
0
220
0
230
1
0
LINE
5
10B
100
AcDbEntity
8
1
62
256
6
ByLayer
370
-1
48
1
60
0
100
AcDbLine
10
47.381449
20
-5.778901
30
0
11
47.314523
21
-4.751535
31
0
39
0
210
0
220
0
230
1
0
LINE
5
10C
100
AcDbEntity
8
1
62
256
6
ByLayer
370
-1
48
1
60
0
100
AcDbLine
10
55.839804
20
-11.606412
30
0
11
60.00236
21
-9.075466
31
0
39
0
210
0
220
0
230
1
0
LINE
5
10D
100
AcDbEntity
8
1
62
256
6
ByLayer
370
-1
48
1
60
0
100
AcDbLine
10
56.031737
20
-11.611298
30
0
11
56.239005
21
-11.570768
31
0
39
0
210
0
220
0
230
1
0
LINE
5
10E
100
AcDbEntity
8
1
62
256
6
ByLayer
370
-1
48
1
60
0
100
AcDbLine
10
58.316975
20
-0.213637
30
0
11
58.610636
21
0.257008
31
0
39
0
210
0
220
0
230
1
0
LINE
5
10F
100
AcDbEntity
8
1
62
256
6
ByLayer
370
-1
48
1
60
0
100
AcDbLine
10
48.001063
20
-6.150758
30
0
11
47.567476
21
-5.970446
31
0
39
0
210
0
220
0
230
1
0
LINE
5
110
100
AcDbEntity
8
1
62
256
6
ByLayer
370
-1
48
1
60
0
100
AcDbLine
10
49.880601
20
-3.66653
30
0
11
50.051901
21
-8.404715
31
0
39
0
210
0
220
0
230
1
0
LINE
5
111
100
AcDbEntity
8
1
62
256
6
ByLayer
370
-1
48
1
60
0
100
AcDbLine
10
60.001745
20
-5.093725
30
0
11
59.485624
21
-5.076557
31
0
39
0
210
0
220
0
230
1
0
LINE
5
112
100
AcDbEntity
8
1
62
256
6
ByLayer
370
-1
48
1
60
0
100
AcDbLine
10
60.001756
20
-6.390559
30
0
11
59.999309
21
-6.169933
31
0
39
0
210
0
220
0
230
1
0
LINE
5
113
100
AcDbEntity
8
1
62
256
6
ByLayer
370
-1
48
1
60
0
100
AcDbLine
10
52.697363
20
-3.357456
30
0
11
53.30683
21
-3.207996
31
0
39
0
210
0
220
0
230
1
0
LINE
5
114
100
AcDbEntity
8
1
62
256
6
ByLayer
370
-1
48
1
60
0
100
AcDbLine
10
57.391343
20
0.713225
30
0
11
56.75989
21
0.410418
31
0
39
0
210
0
220
0
230
1
0
LINE
5
115
100
AcDbEntity
8
1
62
256
6
ByLayer
370
-1
48
1
60
0
100
AcDbLine
10
58.480286
20
-11.77423
30
0
11
58.922385
21
-12.53241
31
0
39
0
210
0
220
0
230
1
0
LINE
5
116
100
AcDbEntity
8
1
62
256
6
ByLayer
370
-1
48
1
60
0
100
AcDbLine
10
58.858245
20
-10.751119
30
0
11
58.55204
21
-10.942477
31
0
39
0
210
0
220
0
230
1
0
LINE
5
117
100
AcDbEntity
8
1
62
256
6
ByLayer
370
-1
48
1
60
0
100
AcDbLine
10
59.623956
20
-9.77069
30
0
11
59.991489
21
-9.529285
31
0
39
0
210
0
220
0
230
1
0
LINE
5
118
100
AcDbEntity
8
1
62
256
6
ByLayer
370
-1
48
1
60
0
100
AcDbLine
10
59.989247
20
-10.107538
30
0
11
59.759085
21
-10.030844
31
0
39
0
210
0
220
0
230
1
0
LINE
5
119
100
AcDbEntity
8
1
62
256
6
ByLayer
370
-1
48
1
60
0
100
AcDbLine
10
48.357166
20
-4.625804
30
0
11
48.45948
21
-4.454157
31
0
39
0
210
0
220
0
230
1
0
LINE
5
11A
100
AcDbEntity
8
1
62
256
6
ByLayer
370
-1
48
1
60
0
100
AcDbLine
10
59.33294
20
0.568038
30
0
11
59.266014
21
1.595403
31
0
39
0
210
0
220
0
230
1
0
LINE
5
11B
100
AcDbEntity
8
1
62
256
6
ByLayer
370
-1
48
1
60
0
100
AcDbLine
10
58.994316
20
-11.688889
30
0
11
59.299028
21
-11.155681
31
0
39
0
210
0
220
0
230
1
0
LINE
5
11C
100
AcDbEntity
8
1
62
256
6
ByLayer
370
-1
48
1
60
0
100
AcDbLine
10
48.688152
20
-6.03669
30
0
11
48.092099
21
-6.083677
31
0
39
0
210
0
220
0
230
1
0
LINE
5
11D
100
AcDbEntity
8
1
62
256
6
ByLayer
370
-1
48
1
60
0
100
AcDbLine
10
55.818448
20
-11.595882
30
0
11
53.697836
21
-10.42235
31
0
39
0
210
0
220
0
230
1
0
LINE
5
11E
100
AcDbEntity
8
1
62
256
6
ByLayer
370
-1
48
1
60
0
100
AcDbLine
10
58.914417
20
-0.304993
30
0
11
58.90739
21
-0.197135
31
0
39
0
210
0
220
0
230
1
0
LINE
5
11F
100
AcDbEntity
8
1
62
256
6
ByLayer
370
-1
48
1
60
0
100
AcDbLine
10
48.542294
20
-5.39023
30
0
11
48.420296
21
-5.594898
31
0
39
0
210
0
220
0
230
1
0
LINE
5
120
100
AcDbEntity
8
1
62
256
6
ByLayer
370
-1
48
1
60
0
100
AcDbLine
10
48.542294
20
-5.39023
30
0
11
48.533033
21
-5.248076
31
0
39
0
210
0
220
0
230
1
0
LINE
5
121
100
AcDbEntity
8
1
62
256
6
ByLayer
370
-1
48
1
60
0
100
AcDbLine
10
59.204162
20
-0.584394
30
0
11
59.135776
21
-0.573998
31
0
39
0
210
0
220
0
230
1
0
LINE
5
122
100
AcDbEntity
8
1
62
256
6
ByLayer
370
-1
48
1
60
0
100
AcDbLine
10
59.27778
20
0.306869
30
0
11
59.602211
21
-0.234576
31
0
39
0
210
0
220
0
230
1
0
LINE
5
123
100
AcDbEntity
8
1
62
256
6
ByLayer
370
-1
48
1
60
0
100
AcDbLine
10
58.009942
20
0.298774
30
0
11
58.003697
21
-0.034044
31
0
39
0
210
0
220
0
230
1
0
LINE
5
124
100
AcDbEntity
8
1
62
256
6
ByLayer
370
-1
48
1
60
0
100
AcDbLine
10
52.260287
20
-2.899055
30
0
11
52.021415
21
-2.461847
31
0
39
0
210
0
220
0
230
1
0
LINE
5
125
100
AcDbEntity
8
1
62
256
6
ByLayer
370
-1
48
1
60
0
100
AcDbLine
10
59.998819
20
-5.34555
30
0
11
58.858289
21
-5.128759
31
0
39
0
210
0
220
0
230
1
0
LINE
5
126
100
AcDbEntity
8
1
62
256
6
ByLayer
370
-1
48
1
60
0
100
AcDbLine
10
47.383487
20
-5.77548
30
0
11
47.381449
21
-5.778901
31
0
39
0
210
0
220
0
230
1
0
LINE
5
127
100
AcDbEntity
8
1
62
256
6
ByLayer
370
-1
48
1
60
0
100
AcDbLine
10
56.239005
20
-11.570768
30
0
11
59.623956
21
-9.77069
31
0
39
0
210
0
220
0
230
1
0
LINE
5
128
100
AcDbEntity
8
1
62
256
6
ByLayer
370
-1
48
1
60
0
100
AcDbLine
10
53.748284
20
-8.953022
30
0
11
54.184616
21
-9.38762
31
0
39
0
210
0
220
0
230
1
0
LINE
5
129
100
AcDbEntity
8
1
62
256
6
ByLayer
370
-1
48
1
60
0
100
AcDbLine
10
47.567476
20
-5.970446
30
0
11
48.076711
21
-6.795213
31
0
39
0
210
0
220
0
230
1
0
LINE
5
12A
100
AcDbEntity
8
1
62
256
6
ByLayer
370
-1
48
1
60
0
100
AcDbLine
10
49.394563
20
-4.323227
30
0
11
49.347628
21
-3.602725
31
0
39
0
210
0
220
0
230
1
0
LINE
5
12B
100
AcDbEntity
8
1
62
256
6
ByLayer
370
-1
48
1
60
0
100
AcDbLine
10
48.309982
20
-5.662541
30
0
11
47.458161
21
-5.729691
31
0
39
0
210
0
220
0
230
1
0
LINE
5
12C
100
AcDbEntity
8
1
62
256
6
ByLayer
370
-1
48
1
60
0
100
AcDbLine
10
59.036415
20
-0.508596
30
0
11
59.005757
21
-0.037979
31
0
39
0
210
0
220
0
230
1
0
LINE
5
12D
100
AcDbEntity
8
1
62
256
6
ByLayer
370
-1
48
1
60
0
100
AcDbLine
10
49.656088
20
-3.938032
30
0
11
49.445139
21
-7.490678
31
0
39
0
210
0
220
0
230
1
0
LINE
5
12E
100
AcDbEntity
8
1
62
256
6
ByLayer
370
-1
48
1
60
0
100
AcDbLine
10
59.490056
20
-4.991335
30
0
11
60.00236
21
-5.008377
31
0
39
0
210
0
220
0
230
1
0
LINE
5
12F
100
AcDbEntity
8
1
62
256
6
ByLayer
370
-1
48
1
60
0
100
AcDbLine
10
53.331129
20
-2.607626
30
0
11
53.268175
21
-1.75141
31
0
39
0
210
0
220
0
230
1
0
LINE
5
130
100
AcDbEntity
8
1
62
256
6
ByLayer
370
-1
48
1
60
0
100
AcDbLine
10
59.991489
20
-9.529285
30
0
11
60.001318
21
-9.197685
31
0
39
0
210
0
220
0
230
1
0
LINE
5
131
100
AcDbEntity
8
1
62
256
6
ByLayer
370
-1
48
1
60
0
100
AcDbLine
10
49.192019
20
-7.731794
30
0
11
49.170302
21
-7.490105
31
0
39
0
210
0
220
0
230
1
0
LINE
5
132
100
AcDbEntity
8
1
62
256
6
ByLayer
370
-1
48
1
60
0
100
AcDbLine
10
57.979483
20
-11.823903
30
0
11
58.019438
21
-11.7663
31
0
39
0
210
0
220
0
230
1
0
LINE
5
133
100
AcDbEntity
8
1
62
256
6
ByLayer
370
-1
48
1
60
0
100
AcDbLine
10
47.391429
20
-4.705297
30
0
11
48.246566
21
-4.689057
31
0
39
0
210
0
220
0
230
1
0
LINE
5
134
100
AcDbEntity
8
1
62
256
6
ByLayer
370
-1
48
1
60
0
100
AcDbLine
10
59.263975
20
1.598806
30
0
11
59.266014
21
1.595403
31
0
39
0
210
0
220
0
230
1
0
LINE
5
135
100
AcDbEntity
8
1
62
256
6
ByLayer
370
-1
48
1
60
0
100
AcDbLine
10
58.605082
20
0.353832
30
0
11
59.046728
21
0.537963
31
0
39
0
210
0
220
0
230
1
0
LINE
5
136
100
AcDbEntity
8
1
62
256
6
ByLayer
370
-1
48
1
60
0
100
AcDbLine
10
58.901184
20
-12.295776
30
0
11
58.897154
21
-11.745747
31
0
39
0
210
0
220
0
230
1
0
LINE
5
137
100
AcDbEntity
8
1
62
256
6
ByLayer
370
-1
48
1
60
0
100
AcDbLine
10
59.67651
20
-1.086324
30
0
11
59.899585
21
-1.458615
31
0
39
0
210
0
220
0
230
1
0
LINE
5
138
100
AcDbEntity
8
1
62
256
6
ByLayer
370
-1
48
1
60
0
100
AcDbLine
10
48.381119
20
-6.55178
30
0
11
48.692739
21
-6.36946
31
0
39
0
210
0
220
0
230
1
0
LINE
5
139
100
AcDbEntity
8
1
62
256
6
ByLayer
370
-1
48
1
60
0
100
AcDbLine
10
48.520978
20
-5.223486
30
0
11
48.548656
21
-5.279945
31
0
39
0
210
0
220
0
230
1
0
LINE
5
13A
100
AcDbEntity
8
1
62
256
6
ByLayer
370
-1
48
1
60
0
100
AcDbLine
10
47.458161
20
-5.729691
30
0
11
47.391429
21
-4.705297
31
0
39
0
210
0
220
0
230
1
0
LINE
5
13B
100
AcDbEntity
8
1
62
256
6
ByLayer
370
-1
48
1
60
0
100
AcDbLine
10
48.968658
20
-6.387689
30
0
11
48.964072
21
-6.054919
31
0
39
0
210
0
220
0
230
1
0
LINE
5
13C
100
AcDbEntity
8
1
62
256
6
ByLayer
370
-1
48
1
60
0
100
AcDbLine
10
57.736041
20
0.278145
30
0
11
57.729796
21
-0.054672
31
0
39
0
210
0
220
0
230
1
0
LINE
5
13D
100
AcDbEntity
8
1
62
256
6
ByLayer
370
-1
48
1
60
0
100
AcDbLine
10
56.723654
20
0.172779
30
0
11
56.680085
21
0.368811
31
0
39
0
210
0
220
0
230
1
0
LINE
5
13E
100
AcDbEntity
8
1
62
256
6
ByLayer
370
-1
48
1
60
0
100
AcDbLine
10
59.096647
20
-12.294923
30
0
11
59.633532
21
-11.355444
31
0
39
0
210
0
220
0
230
1
0
LINE
5
13F
100
AcDbEntity
8
1
62
256
6
ByLayer
370
-1
48
1
60
0
100
AcDbLine
10
48.465828
20
-4.088963
30
0
11
48.578401
21
-3.900107
31
0
39
0
210
0
220
0
230
1
0
LINE
5
140
100
AcDbEntity
8
1
62
256
6
ByLayer
370
-1
48
1
60
0
100
AcDbLine
10
48.529787
20
-5.070784
30
0
11
48.465828
21
-4.088963
31
0
39
0
210
0
220
0
230
1
0
LINE
5
141
100
AcDbEntity
8
1
62
256
6
ByLayer
370
-1
48
1
60
0
100
AcDbLine
10
47.383487
20
-5.77548
30
0
11
47.316562
21
-4.748115
31
0
39
0
210
0
220
0
230
1
0
LINE
5
142
100
AcDbEntity
8
1
62
256
6
ByLayer
370
-1
48
1
60
0
100
AcDbLine
10
48.854218
20
-4.526507
30
0
11
48.813242
21
-3.897498
31
0
39
0
210
0
220
0
230
1
0
LINE
5
143
100
AcDbEntity
8
1
62
256
6
ByLayer
370
-1
48
1
60
0
100
AcDbLine
10
58.627047
20
-0.454388
30
0
11
58.409152
21
-0.279918
31
0
39
0
210
0
220
0
230
1
0
LINE
5
144
100
AcDbEntity
8
1
62
256
6
ByLayer
370
-1
48
1
60
0
100
AcDbLine
10
59.786807
20
-9.948216
30
0
11
59.989042
21
-10.015604
31
0
39
0
210
0
220
0
230
1
0
LINE
5
145
100
AcDbEntity
8
1
62
256
6
ByLayer
370
-1
48
1
60
0
100
AcDbLine
10
55.790214
20
-0.326741
30
0
11
59.923154
21
-2.431652
31
0
39
0
210
0
220
0
230
1
0
LINE
5
146
100
AcDbEntity
8
1
62
256
6
ByLayer
370
-1
48
1
60
0
100
AcDbLine
10
53.750273
20
-6.01513
30
0
11
53.777463
21
-6.399939
31
0
39
0
210
0
220
0
230
1
0
LINE
5
147
100
AcDbEntity
8
1
62
256
6
ByLayer
370
-1
48
1
60
0
100
AcDbLine
10
56.694534
20
-6.001195
30
0
11
56.721724
21
-6.386004
31
0
39
0
210
0
220
0
230
1
0
LINE
5
148
100
AcDbEntity
8
1
62
256
6
ByLayer
370
-1
48
1
60
0
100
AcDbLine
10
54.833435
20
-7.032915
30
0
11
54.86041
21
-7.414677
31
0
39
0
210
0
220
0
230
1
0
LINE
5
149
100
AcDbEntity
8
1
62
256
6
ByLayer
370
-1
48
1
60
0
100
AcDbLine
10
56.316621
20
-4.828553
30
0
11
56.326345
21
-4.966183
31
0
39
0
210
0
220
0
230
1
0
LINE
5
14A
100
AcDbEntity
8
1
62
256
6
ByLayer
370
-1
48
1
60
0
100
AcDbLine
10
54.176645
20
-4.852588
30
0
11
54.186212
21
-4.987994
31
0
39
0
210
0
220
0
230
1
0
LINE
5
14B
100
AcDbEntity
8
1
62
256
6
ByLayer
370
-1
48
1
60
0
100
AcDbLine
10
53.770269
20
-6.011034
30
0
11
53.797244
21
-6.392796
31
0
39
0
210
0
220
0
230
1
0
LINE
5
14C
100
AcDbEntity
8
1
62
256
6
ByLayer
370
-1
48
1
60
0
100
AcDbLine
10
55.617782
20
-7.047934
30
0
11
55.644972
21
-7.432742
31
0
39
0
210
0
220
0
230
1
0
LINE
5
14D
100
AcDbEntity
8
1
62
256
6
ByLayer
370
-1
48
1
60
0
100
AcDbLine
10
54.827025
20
-7.051676
30
0
11
54.833435
21
-7.032915
31
0
39
0
210
0
220
0
230
1
0
LINE
5
14E
100
AcDbEntity
8
1
62
256
6
ByLayer
370
-1
48
1
60
0
100
AcDbLine
10
56.300266
20
-4.804168
30
0
11
56.312544
21
-4.977929
31
0
39
0
210
0
220
0
230
1
0
LINE
5
14F
100
AcDbEntity
8
1
62
256
6
ByLayer
370
-1
48
1
60
0
100
AcDbLine
10
55.611372
20
-7.029232
30
0
11
55.638347
21
-7.410995
31
0
39
0
210
0
220
0
230
1
0
LINE
5
150
100
AcDbEntity
8
1
62
256
6
ByLayer
370
-1
48
1
60
0
100
AcDbLine
10
53.750273
20
-6.01513
30
0
11
53.770269
21
-6.011034
31
0
39
0
210
0
220
0
230
1
0
LINE
5
151
100
AcDbEntity
8
1
62
256
6
ByLayer
370
-1
48
1
60
0
100
AcDbLine
10
54.16592
20
-4.878418
30
0
11
54.172841
21
-4.976376
31
0
39
0
210
0
220
0
230
1
0
LINE
5
152
100
AcDbEntity
8
1
62
256
6
ByLayer
370
-1
48
1
60
0
100
AcDbLine
10
56.674538
20
-5.997287
30
0
11
56.701512
21
-6.379049
31
0
39
0
210
0
220
0
230
1
0
LINE
5
153
100
AcDbEntity
8
1
62
256
6
ByLayer
370
-1
48
1
60
0
100
AcDbLine
10
54.827025
20
-7.051676
30
0
11
54.854215
21
-7.436485
31
0
39
0
210
0
220
0
230
1
0
LINE
5
154
100
AcDbEntity
8
1
62
256
6
ByLayer
370
-1
48
1
60
0
100
AcDbLine
10
55.611372
20
-7.029232
30
0
11
55.617782
21
-7.047934
31
0
39
0
210
0
220
0
230
1
0
LINE
5
155
100
AcDbEntity
8
1
62
256
6
ByLayer
370
-1
48
1
60
0
100
AcDbLine
10
56.674538
20
-5.997287
30
0
11
56.694534
21
-6.001195
31
0
39
0
210
0
220
0
230
1
0
LINE
5
156
100
AcDbEntity
8
1
62
256
6
ByLayer
370
-1
48
1
60
0
100
AcDbLine
10
51.727775
20
-9.649778
30
0
11
51.727775
21
-9.332096
31
0
39
0
210
0
220
0
230
1
0
LINE
5
157
100
AcDbEntity
8
1
62
256
6
ByLayer
370
-1
48
1
60
0
100
AcDbLine
10
52.025223
20
-9.648729
30
0
11
52.025223
21
-9.496736
31
0
39
0
210
0
220
0
230
1
0
LINE
5
158
100
AcDbEntity
8
1
62
256
6
ByLayer
370
-1
48
1
60
0
100
AcDbLine
10
47.598561
20
-3.877234
30
0
11
47.598561
21
-4.701386
31
0
39
0
210
0
220
0
230
1
0
LINE
5
159
100
AcDbEntity
8
1
62
256
6
ByLayer
370
-1
48
1
60
0
100
AcDbLine
10
51.192212
20
-9.51945
30
0
11
51.192212
21
-9.035719
31
0
39
0
210
0
220
0
230
1
0
LINE
5
15A
100
AcDbEntity
8
1
62
256
6
ByLayer
370
-1
48
1
60
0
100
AcDbLine
10
50.622353
20
-8.720391
30
0
11
50.698874
21
-9.064112
31
0
39
0
210
0
220
0
230
1
0
LINE
5
15B
100
AcDbEntity
8
1
62
256
6
ByLayer
370
-1
48
1
60
0
100
AcDbLine
10
47.431842
20
-4.704519
30
0
11
47.431842
21
-3.71643
31
0
39
0
210
0
220
0
230
1
0
LINE
5
15C
100
AcDbEntity
8
1
62
256
6
ByLayer
370
-1
48
1
60
0
100
AcDbLine
10
52.20842
20
-9.62709
30
0
11
52.20842
21
-9.598079
31
0
39
0
210
0
220
0
230
1
0
LINE
5
15D
100
AcDbEntity
8
1
62
256
6
ByLayer
370
-1
48
1
60
0
100
AcDbLine
10
50.698874
20
-8.76273
30
0
11
50.698874
21
-9.064112
31
0
39
0
210
0
220
0
230
1
0
LINE
5
15E
100
AcDbEntity
8
1
62
256
6
ByLayer
370
-1
48
1
60
0
100
AcDbLine
10
51.298354
20
-9.54496
30
0
11
51.298354
21
-9.094386
31
0
39
0
210
0
220
0
230
1
0
LINE
5
15F
100
AcDbEntity
8
1
62
256
6
ByLayer
370
-1
48
1
60
0
100
AcDbLine
10
50.966633
20
-9.467845
30
0
11
50.966633
21
-8.910817
31
0
39
0
210
0
220
0
230
1
0
LINE
5
160
100
AcDbEntity
8
1
62
256
6
ByLayer
370
-1
48
1
60
0
100
AcDbLine
10
52.025223
20
-9.648729
30
0
11
51.727775
21
-9.649778
31
0
39
0
210
0
220
0
230
1
0
LINE
5
161
100
AcDbEntity
8
1
62
256
6
ByLayer
370
-1
48
1
60
0
100
AcDbLine
10
47.923701
20
-3.694815
30
0
11
47.598561
21
-3.877234
31
0
39
0
210
0
220
0
230
1
0
LINE
5
162
100
AcDbEntity
8
1
62
256
6
ByLayer
370
-1
48
1
60
0
100
AcDbLine
10
51.542367
20
-9.62944
30
0
11
51.542367
21
-9.229475
31
0
39
0
210
0
220
0
230
1
0
LINE
5
163
100
AcDbEntity
8
1
62
256
6
ByLayer
370
-1
48
1
60
0
100
AcDbLine
10
50.863217
20
-9.421477
30
0
11
50.863217
21
-8.853651
31
0
39
0
210
0
220
0
230
1
0
LINE
5
164
100
AcDbEntity
8
1
62
256
6
ByLayer
370
-1
48
1
60
0
100
AcDbLine
10
60.052055
20
1.734158
30
0
11
60.115218
21
1.733848
31
0
39
0
210
0
220
0
230
1
0
LINE
5
165
100
AcDbEntity
8
1
62
256
6
ByLayer
370
-1
48
1
60
0
100
AcDbLine
10
60.052057
20
1.732875
30
0
11
60.102411
21
1.732627
31
0
39
0
210
0
220
0
230
1
0
LINE
5
166
100
AcDbEntity
8
1
62
256
6
ByLayer
370
-1
48
1
60
0
100
AcDbLine
10
60.056875
20
1.093496
30
0
11
60.103149
21
1.093269
31
0
39
0
210
0
220
0
230
1
0
LINE
5
167
100
AcDbEntity
8
1
62
256
6
ByLayer
370
-1
48
1
60
0
100
AcDbLine
10
60.085376
20
2.839087
30
0
11
60.087383
21
2.839077
31
0
39
0
210
0
220
0
230
1
0
LINE
5
168
100
AcDbEntity
8
1
62
256
6
ByLayer
370
-1
48
1
60
0
100
AcDbLine
10
60.056623
20
1.104781
30
0
11
60.09058
21
1.104614
31
0
39
0
210
0
220
0
230
1
0
LINE
5
169
100
AcDbEntity
8
2
62
256
6
ByLayer
370
-1
48
1
60
1
100
AcDbLine
10
0
20
0
30
0
11
0
21
-0.001
31
0
39
0
210
0
220
0
230
1
0
MTEXT
5
2AC
100
AcDbEntity
8
SK6
62
256
6
ByLayer
370
-1
48
1
60
0
100
AcDbMText
10
-11.125
20
29.125
30
0
210
0
220
0
230
1
1
\W00.718;\fsimplex.shx,bigfont.shx;C4-266LKF-14060-16 
40
3.5
41
0
44
1.084337
50
0
71
7
72
5
7
DEFAULT
0
DIMENSION
5
2DF
100
AcDbEntity
8
2
62
256
6
ByLayer
370
-3
48
1
60
0
100
AcDbDimension
2
DimnDraft3D1
10
22.179492
20
-28.125
30
0
11
38.460799
21
-28.125
31
0
70
32
71
5
72
1
41
1
210
0
220
0
230
1
3
Standard
100
AcDbAlignedDimension
13
60
23
-15.375
33
0
14
22.179492
24
-15.375
34
0
50
0
100
AcDbRotatedDimension
1001
ACAD
1000
DSTYLE
1002
{
1070
   279
1070
     0
1070
   172
1070
     1
1070
   173
1070
     1
1070
   340
1005
2AD
1070
   271
1070
     3
1070
   272
1070
     3
1070
    77
1070
     1
1070
    73
1070
     0
1070
   171
1070
     4
1070
   274
1070
     4
1070
   177
1070
     2
1070
   176
1070
     2
1070
   178
1070
     7
1070
    78
1070
     8
1070
    41
1041
3.0
1070
   147
1041
2.25
1070
    42
1041
1.5
1070
    44
1041
3.0
1070
   140
1041
4.5
1070
   343
1005
2E0
1070
   344
1005
2E0
1002
}
0
DIMENSION
5
2F4
100
AcDbEntity
8
2
62
256
6
ByLayer
370
-3
48
1
60
0
100
AcDbDimension
2
DimnDraft3D2
10
0
20
-38.125
30
0
11
27.371053
21
-38.125
31
0
70
32
71
5
72
1
41
1
210
0
220
0
230
1
3
Standard
100
AcDbAlignedDimension
13
60
23
-15.375
33
0
14
0
24
-1.501
34
0
50
0
100
AcDbRotatedDimension
1001
ACAD
1000
DSTYLE
1002
{
1070
   279
1070
     0
1070
   172
1070
     1
1070
   173
1070
     1
1070
   340
1005
2AD
1070
   271
1070
     3
1070
   272
1070
     3
1070
    77
1070
     1
1070
    73
1070
     0
1070
   171
1070
     4
1070
   274
1070
     4
1070
   177
1070
     2
1070
   176
1070
     2
1070
   178
1070
     7
1070
    78
1070
     8
1070
    41
1041
3.0
1070
   147
1041
2.25
1070
    42
1041
1.5
1070
    44
1041
3.0
1070
   140
1041
4.5
1070
   343
1005
2E0
1070
   344
1005
2E0
1002
}
0
DIMENSION
5
303
100
AcDbEntity
8
SK2
62
256
6
ByLayer
370
-3
48
1
60
0
100
AcDbDimension
2
DimnDraft3D3
10
-33.75
20
-20
30
0
11
-33.75
21
-5.021053
31
0
70
32
71
5
72
1
41
1
210
0
220
0
230
1
3
Standard
100
AcDbAlignedDimension
13
-1.5
23
20
33
0
14
-1.5
24
-20
34
0
50
90
100
AcDbRotatedDimension
1001
ACAD
1000
DSTYLE
1002
{
1070
    74
1070
     0
1070
   279
1070
     0
1070
   172
1070
     1
1070
   173
1070
     1
1070
   340
1005
2AD
1070
   271
1070
     3
1070
   272
1070
     3
1070
    77
1070
     1
1070
    73
1070
     0
1070
   171
1070
     4
1070
   274
1070
     4
1070
   177
1070
     2
1070
   176
1070
     2
1070
   178
1070
     7
1070
    78
1070
     8
1070
    41
1041
3.0
1070
   147
1041
2.25
1070
    42
1041
1.5
1070
    44
1041
3.0
1070
   140
1041
4.5
1070
   343
1005
2E0
1070
   344
1005
2E0
1002
}
0
DIMENSION
5
311
100
AcDbEntity
8
2
62
256
6
ByLayer
370
-3
48
1
60
0
100
AcDbDimension
2
DimnDraft3D4
10
74.25
20
-13.875
30
0
11
74.25
21
-9.240789
31
0
70
32
71
5
72
1
41
1
210
0
220
0
230
1
3
Standard
100
AcDbAlignedDimension
13
66.5
23
0
33
0
14
61.5
24
-13.875
34
0
50
90
100
AcDbRotatedDimension
1001
ACAD
1000
DSTYLE
1002
{
1070
    74
1070
     0
1070
   279
1070
     0
1070
   172
1070
     1
1070
   173
1070
     1
1070
   340
1005
2AD
1070
   271
1070
     3
1070
   272
1070
     3
1070
    77
1070
     1
1070
    73
1070
     0
1070
   171
1070
     4
1070
   274
1070
     4
1070
   177
1070
     2
1070
   176
1070
     2
1070
   178
1070
     7
1070
    78
1070
     8
1070
    41
1041
3.0
1070
   147
1041
2.25
1070
    42
1041
1.5
1070
    44
1041
3.0
1070
   140
1041
4.5
1070
   343
1005
2E0
1070
   344
1005
2E0
1002
}
0
ENDSEC
0
SECTION
2
OBJECTS
0
DICTIONARY
5
342
330
0
100
AcDbDictionary
280
0
281
1
3
ACAD_GROUP
350
343
3
ACAD_MLINESTYLE
350
344
0
DICTIONARY
5
343
330
0
100
AcDbDictionary
280
0
281
1
0
DICTIONARY
5
344
330
0
100
AcDbDictionary
280
0
281
1
3
Standard
350
18
0
MLINESTYLE
5
18
330
344
100
AcDbMlineStyle
2
Standard
70
0
3

62
256
51
90
52
90
71
2
49
-0.5
62
256
6
ByLayer
49
0.5
62
256
6
ByLayer
0
RASTERVARIABLES
5
330
330

100
AcDbRasterVariables
90
0
70
1
71
1
72
1
0
ENDSEC
0
EOF
