0
SECTION
2
HEADER
9
$ACADVER
1
AC1015
9
$DWGCODEPAGE
3
ANSI_1252
9
$HANDSEED
5
18e
9
$ANGBASE
50
0
9
$ANGDIR
70
0
9
$ATTMODE
70
1
9
$AUNITS
70
0
9
$AUPREC
70
0
9
$CECOLOR
62
256
9
$CELTSCALE
40
1
9
$CELTYPE
6
ByLayer
9
$CELWEIGHT
370
-1
9
$CLAYER
8
0
9
$CMLJUST
70
0
9
$CMLSCALE
40
1
9
$CMLSTYLE
2
Standard
9
$DIMSTYLE
2
Standard
9
$TEXTSIZE
40
0.2
9
$TEXTSTYLE
7
Standard
9
$LUNITS
70
2
9
$LUPREC
70
4
9
$EXTNAMES
290
1
9
$INSUNITS
70
4
9
$LTSCALE
40
1
9
$LWDISPLAY
290
0
9
$PDMODE
70
0
9
$PDSIZE
40
0
9
$PLINEGEN
70
0
0
ENDSEC
0
SECTION
2
CLASSES
0
CLASS
1
RASTERVARIABLES
2
AcDbRasterVariables
3
ISM
90
0
280
0
281
0
0
ENDSEC
0
SECTION
2
TABLES
0
TABLE
2
VPORT
5
184
100
AcDbSymbolTable
0
VPORT
5
1
100
AcDbSymbolTableRecord
100
AcDbViewportTableRecord
2
*Active
70
0
10
0
20
0
11
1
21
1
12
-1
22
1
13
0
23
0
14
0.5
24
0.5
15
10
25
10
16
0
26
0
36
1
17
0
27
0
37
0
0
ENDTAB
0
TABLE
2
LTYPE
5
185
100
AcDbSymbolTable
0
LTYPE
5
14
100
AcDbSymbolTableRecord
100
AcDbLinetypeTableRecord
70
0
2
ByBlock
3

72
65
73
0
40
0
0
LTYPE
5
15
100
AcDbSymbolTableRecord
100
AcDbLinetypeTableRecord
70
0
2
ByLayer
3

72
65
73
0
40
0
0
LTYPE
5
16
100
AcDbSymbolTableRecord
100
AcDbLinetypeTableRecord
70
0
2
CONTINUOUS
3
Solid line
72
65
73
0
40
0
0
LTYPE
5
3B
100
AcDbSymbolTableRecord
100
AcDbLinetypeTableRecord
70
0
2
DASHED
3
__ __ __ __ __ __ __ __ __
72
65
73
2
40
25.72
49
12.86
74
0
49
-12.86
74
0
0
LTYPE
5
3C
100
AcDbSymbolTableRecord
100
AcDbLinetypeTableRecord
70
0
2
HIDDEN
3
_ _ _ _ _ _ _ _ _ _ _ _ _ _ _
72
65
73
2
40
0.5
49
0.25
74
0
49
-0.25
74
0
0
LTYPE
5
3D
100
AcDbSymbolTableRecord
100
AcDbLinetypeTableRecord
70
0
2
PHANTOM
3
____ _ _ ____ _ _ _____ _ _ ____
72
65
73
6
40
50.5
49
18
74
0
49
-6.5
74
0
49
6.5
74
0
49
-6.5
74
0
49
6.5
74
0
49
-6.5
74
0
0
LTYPE
5
3E
100
AcDbSymbolTableRecord
100
AcDbLinetypeTableRecord
70
0
2
CENTER
3
____ _ ____ _ ____ _ ____
72
65
73
4
40
47.5
49
22
74
0
49
-8.5
74
0
49
8.5
74
0
49
-8.5
74
0
0
LTYPE
5
3F
100
AcDbSymbolTableRecord
100
AcDbLinetypeTableRecord
70
0
2
DOT
3
.........................
72
65
73
2
40
10
49
0
74
0
49
-10
74
0
0
LTYPE
5
40
100
AcDbSymbolTableRecord
100
AcDbLinetypeTableRecord
70
0
2
DASHDOT
3
_._._._._._._._._._._._._._._._.
72
65
73
4
40
70
49
31
74
0
49
-13
74
0
49
13
74
0
49
-13
74
0
0
ENDTAB
0
TABLE
2
LAYER
5
186
100
AcDbSymbolTable
0
LAYER
5
10
100
AcDbSymbolTableRecord
100
AcDbLayerTableRecord
2
0
70
0
62
7
6
CONTINUOUS
290
1
370
-3
390
0
0
LAYER
5
47
100
AcDbSymbolTableRecord
100
AcDbLayerTableRecord
2
81
70
0
62
-3
6
CONTINUOUS
290
1
370
-3
390
0
0
LAYER
5
4B
100
AcDbSymbolTableRecord
100
AcDbLayerTableRecord
2
2
70
0
62
7
6
CONTINUOUS
290
1
370
-3
390
0
0
LAYER
5
4D
100
AcDbSymbolTableRecord
100
AcDbLayerTableRecord
2
80
70
0
62
-6
6
CONTINUOUS
290
1
370
-3
390
0
0
LAYER
5
4F
100
AcDbSymbolTableRecord
100
AcDbLayerTableRecord
2
1
70
0
62
4
6
CONTINUOUS
290
1
370
-3
390
0
0
LAYER
5
58
100
AcDbSymbolTableRecord
100
AcDbLayerTableRecord
2
4
70
0
62
-2
6
CENTER
290
1
370
-3
390
0
0
LAYER
5
170
100
AcDbSymbolTableRecord
100
AcDbLayerTableRecord
2
SK2
70
0
62
7
6
CONTINUOUS
290
1
370
-3
390
0
0
LAYER
5
171
100
AcDbSymbolTableRecord
100
AcDbLayerTableRecord
2
SK4
70
0
62
2
6
CENTER
290
1
370
-3
390
0
0
LAYER
5
172
100
AcDbSymbolTableRecord
100
AcDbLayerTableRecord
2
SK1
70
0
62
4
6
CONTINUOUS
290
1
370
-3
390
0
0
LAYER
5
173
100
AcDbSymbolTableRecord
100
AcDbLayerTableRecord
2
SK6
70
0
62
5
6
CONTINUOUS
290
1
370
-3
390
0
0
ENDTAB
0
TABLE
2
STYLE
5
187
100
AcDbSymbolTable
0
STYLE
5
11
100
AcDbSymbolTableRecord
100
AcDbTextStyleTableRecord
2
Standard
3
txt
70
0
71
0
40
0
41
1
42
0
50
0
0
STYLE
5
ED
100
AcDbSymbolTableRecord
100
AcDbTextStyleTableRecord
2
DEFAULT
3
simplex.shx
70
0
71
0
40
0
41
1
42
0
50
0
0
STYLE
5
110
100
AcDbSymbolTableRecord
100
AcDbTextStyleTableRecord
2
DWGDirectTextStyle
3
SIMPLEX
70
0
71
0
40
0
41
1
42
0
50
0
0
ENDTAB
0
TABLE
2
DIMSTYLE
5
188
100
AcDbSymbolTable
100
AcDbDimStyleTable
0
DIMSTYLE
105
27
100
AcDbSymbolTableRecord
100
AcDbDimStyleTableRecord
2
Standard
70
0
3
<>
41
0.18
42
0.0625
44
0.18
140
0.18
147
0.09
73
0
74
0
77
1
271
2
275
0
278
52
280
0
340
11
0
ENDTAB
0
TABLE
2
VIEW
5
189
100
AcDbSymbolTable
0
ENDTAB
0
TABLE
2
UCS
5
18a
100
AcDbSymbolTable
0
ENDTAB
0
TABLE
2
APPID
5
18b
100
AcDbSymbolTable
0
APPID
5
12
100
AcDbSymbolTableRecord
100
AcDbRegAppTableRecord
2
ACAD
70
0
0
ENDTAB
0
TABLE
2
BLOCK_RECORD
5
18c
100
AcDbSymbolTable
0
BLOCK_RECORD
5
1F
100
AcDbSymbolTableRecord
100
AcDbBlockTableRecord
2
*Model_Space
340
0
70
0
0
BLOCK_RECORD
5
1B
100
AcDbSymbolTableRecord
100
AcDbBlockTableRecord
2
*Paper_Space
340
0
70
0
0
BLOCK_RECORD
5
23
100
AcDbSymbolTableRecord
100
AcDbBlockTableRecord
2
*Paper_Space0
340
0
70
0
0
BLOCK_RECORD
5
112
100
AcDbSymbolTableRecord
100
AcDbBlockTableRecord
2
DimnDraft3D1
340
0
70
0
0
BLOCK_RECORD
5
120
100
AcDbSymbolTableRecord
100
AcDbBlockTableRecord
2
_CLOSED
340
0
70
0
0
BLOCK_RECORD
5
127
100
AcDbSymbolTableRecord
100
AcDbBlockTableRecord
2
DimnDraft3D2
340
0
70
0
0
BLOCK_RECORD
5
135
100
AcDbSymbolTableRecord
100
AcDbBlockTableRecord
2
DimnDraft3D3
340
0
70
0
0
BLOCK_RECORD
5
143
100
AcDbSymbolTableRecord
100
AcDbBlockTableRecord
2
DimnDraft3D4
340
0
70
0
0
ENDTAB
0
ENDSEC
0
SECTION
2
BLOCKS
0
BLOCK
5
20
100
AcDbEntity
8
0
100
AcDbBlockBegin
2
*Model_Space
70
0
10
0
20
0
30
0
3
*Model_Space
0
ENDBLK
5
21
100
AcDbEntity
8
0
100
AcDbBlockEnd
0
BLOCK
5
1C
100
AcDbEntity
8
0
100
AcDbBlockBegin
2
*Paper_Space
70
0
10
0
20
0
30
0
3
*Paper_Space
0
ENDBLK
5
1D
100
AcDbEntity
8
0
100
AcDbBlockEnd
0
BLOCK
5
24
100
AcDbEntity
8
0
100
AcDbBlockBegin
2
*Paper_Space0
70
0
10
0
20
0
30
0
3
*Paper_Space0
0
ENDBLK
5
25
100
AcDbEntity
8
0
100
AcDbBlockEnd
0
BLOCK
5
11D
100
AcDbEntity
8
0
100
AcDbBlockBegin
2
DimnDraft3D1
70
0
10
0
20
0
30
0
3
DimnDraft3D1
0
MTEXT
5
113
100
AcDbEntity
8
2
62
256
6
ByLayer
370
-1
48
1
60
0
100
AcDbMText
10
21.641649
20
-32.210569
30
0
210
0
220
0
230
1
1
\W01.000;\fsimplex.shx,bigfont.shx;93%%d0' 
40
4.5
41
0
44
1.084337
50
313.5
71
7
72
5
7
DEFAULT
0
LINE
5
114
100
AcDbEntity
8
2
62
256
6
ByLayer
370
-1
48
1
60
0
100
AcDbLine
10
26.60017
20
-21.319089
30
0
11
16.576668
21
-20.793779
31
0
39
0
210
0
220
0
230
1
0
LINE
5
115
100
AcDbEntity
8
2
62
256
6
ByLayer
370
-1
48
1
60
0
100
AcDbLine
10
40
20
-24
30
0
11
40
21
-45.476821
31
0
39
0
210
0
220
0
230
1
0
ARC
5
116
100
AcDbEntity
8
2
62
256
6
ByLayer
370
-1
48
1
60
0
100
AcDbCircle
39
0
10
40
20
-22.021344
30
0
40
21.455476987466
210
0
220
0
230
1
100
AcDbArc
50
177
51
270
0
LINE
5
117
100
AcDbEntity
8
2
62
256
6
ByLayer
370
-1
48
1
60
0
100
AcDbLine
10
18.573927
20
-20.898451
30
0
11
18.942879
21
-24.079522
31
0
39
0
210
0
220
0
230
1
0
LINE
5
118
100
AcDbEntity
8
2
62
256
6
ByLayer
370
-1
48
1
60
0
100
AcDbLine
10
18.573927
20
-20.898451
30
0
11
18.106986
21
-24.066624
31
0
39
0
210
0
220
0
230
1
0
LINE
5
119
100
AcDbEntity
8
2
62
256
6
ByLayer
370
-1
48
1
60
0
100
AcDbLine
10
18.942879
20
-24.079522
30
0
11
18.106986
21
-24.066624
31
0
39
0
210
0
220
0
230
1
0
LINE
5
11A
100
AcDbEntity
8
2
62
256
6
ByLayer
370
-1
48
1
60
0
100
AcDbLine
10
40
20
-43.476821
30
0
11
36.811734
21
-43.777313
31
0
39
0
210
0
220
0
230
1
0
LINE
5
11B
100
AcDbEntity
8
2
62
256
6
ByLayer
370
-1
48
1
60
0
100
AcDbLine
10
40
20
-43.476821
30
0
11
36.842595
21
-42.94189
31
0
39
0
210
0
220
0
230
1
0
LINE
5
11C
100
AcDbEntity
8
2
62
256
6
ByLayer
370
-1
48
1
60
0
100
AcDbLine
10
36.811734
20
-43.777313
30
0
11
36.842595
21
-42.94189
31
0
39
0
210
0
220
0
230
1
0
ENDBLK
5
11E
100
AcDbEntity
8
0
100
AcDbBlockEnd
0
BLOCK
5
121
100
AcDbEntity
8
0
100
AcDbBlockBegin
2
_CLOSED
70
0
10
0
20
0
30
0
3
_CLOSED
0
LINE
5
123
100
AcDbEntity
8
0
62
256
6
ByLayer
370
-2
48
1
60
0
100
AcDbLine
10
-1
20
0.166667
30
0
11
0
21
0
31
0
39
0
210
0
220
0
230
1
0
LINE
5
124
100
AcDbEntity
8
0
62
256
6
ByLayer
370
-2
48
1
60
0
100
AcDbLine
10
0
20
0
30
0
11
-1
21
-0.166667
31
0
39
0
210
0
220
0
230
1
0
LINE
5
125
100
AcDbEntity
8
0
62
256
6
ByLayer
370
-2
48
1
60
0
100
AcDbLine
10
-1
20
0.166667
30
0
11
-1
21
-0.166667
31
0
39
0
210
0
220
0
230
1
0
LINE
5
126
100
AcDbEntity
8
0
62
256
6
ByLayer
370
-2
48
1
60
0
100
AcDbLine
10
0
20
0
30
0
11
-1
21
0
31
0
39
0
210
0
220
0
230
1
0
ENDBLK
5
122
100
AcDbEntity
8
0
100
AcDbBlockEnd
0
BLOCK
5
132
100
AcDbEntity
8
0
100
AcDbBlockBegin
2
DimnDraft3D2
70
0
10
0
20
0
30
0
3
DimnDraft3D2
0
MTEXT
5
128
100
AcDbEntity
8
SK2
62
256
6
ByLayer
370
-1
48
1
60
0
100
AcDbMText
10
-29.875
20
-3.659211
30
0
210
0
220
0
230
1
1
\W01.000;\fsimplex.shx,bigfont.shx;%%c32 
40
4.5
41
0
44
1.084337
50
90
71
7
72
5
7
DEFAULT
0
LINE
5
129
100
AcDbEntity
8
SK2
62
256
6
ByLayer
370
-1
48
1
60
0
100
AcDbLine
10
-2
20
-16
30
0
11
-30.75
21
-16
31
0
39
0
210
0
220
0
230
1
0
LINE
5
12A
100
AcDbEntity
8
SK2
62
256
6
ByLayer
370
-1
48
1
60
0
100
AcDbLine
10
-2
20
16
30
0
11
-30.75
21
16
31
0
39
0
210
0
220
0
230
1
0
LINE
5
12B
100
AcDbEntity
8
SK2
62
256
6
ByLayer
370
-1
48
1
60
0
100
AcDbLine
10
-28.75
20
-16
30
0
11
-28.75
21
16
31
0
39
0
210
0
220
0
230
1
0
LINE
5
12C
100
AcDbEntity
8
SK2
62
256
6
ByLayer
370
-1
48
1
60
0
100
AcDbLine
10
-28.75
20
-16
30
0
11
-29.167997
21
-12.825002
31
0
39
0
210
0
220
0
230
1
0
LINE
5
12D
100
AcDbEntity
8
SK2
62
256
6
ByLayer
370
-1
48
1
60
0
100
AcDbLine
10
-28.75
20
-16
30
0
11
-28.332003
21
-12.824998
31
0
39
0
210
0
220
0
230
1
0
LINE
5
12E
100
AcDbEntity
8
SK2
62
256
6
ByLayer
370
-1
48
1
60
0
100
AcDbLine
10
-29.167997
20
-12.825002
30
0
11
-28.332003
21
-12.824998
31
0
39
0
210
0
220
0
230
1
0
LINE
5
12F
100
AcDbEntity
8
SK2
62
256
6
ByLayer
370
-1
48
1
60
0
100
AcDbLine
10
-28.75
20
16
30
0
11
-28.332003
21
12.825002
31
0
39
0
210
0
220
0
230
1
0
LINE
5
130
100
AcDbEntity
8
SK2
62
256
6
ByLayer
370
-1
48
1
60
0
100
AcDbLine
10
-28.75
20
16
30
0
11
-29.167997
21
12.824998
31
0
39
0
210
0
220
0
230
1
0
LINE
5
131
100
AcDbEntity
8
SK2
62
256
6
ByLayer
370
-1
48
1
60
0
100
AcDbLine
10
-28.332003
20
12.825002
30
0
11
-29.167997
21
12.824998
31
0
39
0
210
0
220
0
230
1
0
ENDBLK
5
133
100
AcDbEntity
8
0
100
AcDbBlockEnd
0
BLOCK
5
140
100
AcDbEntity
8
0
100
AcDbBlockBegin
2
DimnDraft3D3
70
0
10
0
20
0
30
0
3
DimnDraft3D3
0
MTEXT
5
136
100
AcDbEntity
8
2
62
256
6
ByLayer
370
-1
48
1
60
0
100
AcDbMText
10
66.125
20
-12.503947
30
0
210
0
220
0
230
1
1
\W01.000;\fsimplex.shx,bigfont.shx;22 
40
4.5
41
0
44
1.084337
50
90
71
7
72
5
7
DEFAULT
0
LINE
5
137
100
AcDbEntity
8
2
62
256
6
ByLayer
370
-1
48
1
60
0
100
AcDbLine
10
42
20
0
30
0
11
69.25
21
0
31
0
39
0
210
0
220
0
230
1
0
LINE
5
138
100
AcDbEntity
8
2
62
256
6
ByLayer
370
-1
48
1
60
0
100
AcDbLine
10
42
20
-22
30
0
11
69.25
21
-22
31
0
39
0
210
0
220
0
230
1
0
LINE
5
139
100
AcDbEntity
8
2
62
256
6
ByLayer
370
-1
48
1
60
0
100
AcDbLine
10
67.25
20
0
30
0
11
67.25
21
-22
31
0
39
0
210
0
220
0
230
1
0
LINE
5
13A
100
AcDbEntity
8
2
62
256
6
ByLayer
370
-1
48
1
60
0
100
AcDbLine
10
67.25
20
0
30
0
11
67.667997
21
-3.174998
31
0
39
0
210
0
220
0
230
1
0
LINE
5
13B
100
AcDbEntity
8
2
62
256
6
ByLayer
370
-1
48
1
60
0
100
AcDbLine
10
67.25
20
0
30
0
11
66.832003
21
-3.175002
31
0
39
0
210
0
220
0
230
1
0
LINE
5
13C
100
AcDbEntity
8
2
62
256
6
ByLayer
370
-1
48
1
60
0
100
AcDbLine
10
67.667997
20
-3.174998
30
0
11
66.832003
21
-3.175002
31
0
39
0
210
0
220
0
230
1
0
LINE
5
13D
100
AcDbEntity
8
2
62
256
6
ByLayer
370
-1
48
1
60
0
100
AcDbLine
10
67.25
20
-22
30
0
11
66.832003
21
-18.825002
31
0
39
0
210
0
220
0
230
1
0
LINE
5
13E
100
AcDbEntity
8
2
62
256
6
ByLayer
370
-1
48
1
60
0
100
AcDbLine
10
67.25
20
-22
30
0
11
67.667997
21
-18.824998
31
0
39
0
210
0
220
0
230
1
0
LINE
5
13F
100
AcDbEntity
8
2
62
256
6
ByLayer
370
-1
48
1
60
0
100
AcDbLine
10
66.832003
20
-18.825002
30
0
11
67.667997
21
-18.824998
31
0
39
0
210
0
220
0
230
1
0
ENDBLK
5
141
100
AcDbEntity
8
0
100
AcDbBlockEnd
0
BLOCK
5
14E
100
AcDbEntity
8
0
100
AcDbBlockBegin
2
DimnDraft3D4
70
0
10
0
20
0
30
0
3
DimnDraft3D4
0
MTEXT
5
144
100
AcDbEntity
8
2
62
256
6
ByLayer
370
-1
48
1
60
0
100
AcDbMText
10
18.259211
20
-45.125
30
0
210
0
220
0
230
1
1
\W01.000;\fsimplex.shx,bigfont.shx;40 
40
4.5
41
0
44
1.084337
50
0
71
7
72
5
7
DEFAULT
0
LINE
5
145
100
AcDbEntity
8
2
62
256
6
ByLayer
370
-1
48
1
60
0
100
AcDbLine
10
0
20
-18
30
0
11
0
21
-48.25
31
0
39
0
210
0
220
0
230
1
0
LINE
5
146
100
AcDbEntity
8
2
62
256
6
ByLayer
370
-1
48
1
60
0
100
AcDbLine
10
40
20
-24
30
0
11
40
21
-48.25
31
0
39
0
210
0
220
0
230
1
0
LINE
5
147
100
AcDbEntity
8
2
62
256
6
ByLayer
370
-1
48
1
60
0
100
AcDbLine
10
0
20
-46.25
30
0
11
40
21
-46.25
31
0
39
0
210
0
220
0
230
1
0
LINE
5
148
100
AcDbEntity
8
2
62
256
6
ByLayer
370
-1
48
1
60
0
100
AcDbLine
10
0
20
-46.25
30
0
11
3.174998
21
-45.832003
31
0
39
0
210
0
220
0
230
1
0
LINE
5
149
100
AcDbEntity
8
2
62
256
6
ByLayer
370
-1
48
1
60
0
100
AcDbLine
10
0
20
-46.25
30
0
11
3.175002
21
-46.667997
31
0
39
0
210
0
220
0
230
1
0
LINE
5
14A
100
AcDbEntity
8
2
62
256
6
ByLayer
370
-1
48
1
60
0
100
AcDbLine
10
3.174998
20
-45.832003
30
0
11
3.175002
21
-46.667997
31
0
39
0
210
0
220
0
230
1
0
LINE
5
14B
100
AcDbEntity
8
2
62
256
6
ByLayer
370
-1
48
1
60
0
100
AcDbLine
10
40
20
-46.25
30
0
11
36.825002
21
-46.667997
31
0
39
0
210
0
220
0
230
1
0
LINE
5
14C
100
AcDbEntity
8
2
62
256
6
ByLayer
370
-1
48
1
60
0
100
AcDbLine
10
40
20
-46.25
30
0
11
36.824998
21
-45.832003
31
0
39
0
210
0
220
0
230
1
0
LINE
5
14D
100
AcDbEntity
8
2
62
256
6
ByLayer
370
-1
48
1
60
0
100
AcDbLine
10
36.825002
20
-46.667997
30
0
11
36.824998
21
-45.832003
31
0
39
0
210
0
220
0
230
1
0
ENDBLK
5
14F
100
AcDbEntity
8
0
100
AcDbBlockEnd
0
ENDSEC
0
SECTION
2
ENTITIES
0
ARC
5
87
100
AcDbEntity
8
SK1
62
256
6
ByLayer
370
-1
48
1
60
0
100
AcDbCircle
39
0
10
0.6
20
-11.8
30
0
40
0.999999999999989
210
0
220
0
230
-1
100
AcDbArc
50
113.578178
51
126.869898
0
ARC
5
88
100
AcDbEntity
8
SK1
62
256
6
ByLayer
370
-1
48
1
60
0
100
AcDbCircle
39
0
10
0.6
20
11.8
30
0
40
0.999999999999989
210
0
220
0
230
-1
100
AcDbArc
50
233.130102
51
246.421822
0
ARC
5
89
100
AcDbEntity
8
1
62
256
6
ByLayer
370
-1
48
1
60
0
100
AcDbCircle
39
0
10
-22.783692
20
-14.525871
30
0
40
1.49999999999999
210
0
220
0
230
-1
100
AcDbArc
50
164.266807
51
191.982686
0
ARC
5
8A
100
AcDbEntity
8
1
62
256
6
ByLayer
370
-1
48
1
60
0
100
AcDbCircle
39
0
10
-22.783692
20
-14.525871
30
0
40
1.49999999999999
210
0
220
0
230
-1
100
AcDbArc
50
269.568248
51
159.873913
0
ARC
5
8B
100
AcDbEntity
8
1
62
256
6
ByLayer
370
-1
48
1
60
0
100
AcDbCircle
39
0
10
30.343183
20
-29.150716
30
0
40
8.1
210
0
220
0
230
1
100
AcDbArc
50
97.320365
51
102.642471
0
ARC
5
8C
100
AcDbEntity
8
1
62
256
6
ByLayer
370
-1
48
1
60
0
100
AcDbCircle
39
0
10
37.566223
20
-9.831817
30
0
40
8.1
210
0
220
0
230
1
100
AcDbArc
50
215.679934
51
221.679672
0
ARC
5
8D
100
AcDbEntity
8
1
62
256
6
ByLayer
370
-1
48
1
60
0
100
AcDbCircle
39
0
10
-37.566223
20
-9.831817
30
0
40
8.1
210
0
220
0
230
-1
100
AcDbArc
50
324.870425
51
331.464616
0
ARC
5
8E
100
AcDbEntity
8
1
62
256
6
ByLayer
370
-1
48
1
60
0
100
AcDbCircle
39
0
10
30.949509
20
-18.367671
30
0
40
0.748000000000001
210
0
220
0
230
1
100
AcDbArc
50
67.338153
51
71.661847
0
ARC
5
90
100
AcDbEntity
8
1
62
256
6
ByLayer
370
-1
48
1
60
0
100
AcDbCircle
39
0
10
30.949509
20
-18.367671
30
0
40
1.035
210
0
220
0
230
1
100
AcDbArc
50
339.5
51
39.450841
0
ARC
5
91
100
AcDbEntity
8
1
62
256
6
ByLayer
370
-1
48
1
60
0
100
AcDbCircle
39
0
10
30.949509
20
-18.367671
30
0
40
0.748000000000001
210
0
220
0
230
1
100
AcDbArc
50
189.475421
51
247.338153
0
ARC
5
92
100
AcDbEntity
8
1
62
256
6
ByLayer
370
-1
48
1
60
0
100
AcDbCircle
39
0
10
-30.949509
20
-18.367671
30
0
40
0.748000000000001
210
0
220
0
230
-1
100
AcDbArc
50
112.661847
51
170.524579
0
ARC
5
93
100
AcDbEntity
8
1
62
256
6
ByLayer
370
-1
48
1
60
0
100
AcDbCircle
39
0
10
30.949509
20
-18.367671
30
0
40
0.748000000000001
210
0
220
0
230
1
100
AcDbArc
50
247.338153
51
251.661847
0
ARC
5
94
100
AcDbEntity
8
1
62
256
6
ByLayer
370
-1
48
1
60
0
100
AcDbCircle
39
0
10
30.949509
20
-18.367671
30
0
40
1.035
210
0
220
0
230
1
100
AcDbArc
50
39.450841
51
99.549159
0
ARC
5
96
100
AcDbEntity
8
1
62
256
6
ByLayer
370
-1
48
1
60
0
100
AcDbCircle
39
0
10
-30.949509
20
-18.367671
30
0
40
0.748000000000001
210
0
220
0
230
-1
100
AcDbArc
50
50.475421
51
108.338153
0
ARC
5
99
100
AcDbEntity
8
1
62
256
6
ByLayer
370
-1
48
1
60
0
100
AcDbCircle
39
0
10
-30.949509
20
-18.367671
30
0
40
0.748000000000001
210
0
220
0
230
-1
100
AcDbArc
50
230.475421
51
288.338153
0
ARC
5
9A
100
AcDbEntity
8
1
62
256
6
ByLayer
370
-1
48
1
60
0
100
AcDbCircle
39
0
10
30.949509
20
-18.367671
30
0
40
1.035
210
0
220
0
230
1
100
AcDbArc
50
159.5
51
219.450841
0
ARC
5
9C
100
AcDbEntity
8
1
62
256
6
ByLayer
370
-1
48
1
60
0
100
AcDbCircle
39
0
10
30.949509
20
-18.367671
30
0
40
1.035
210
0
220
0
230
1
100
AcDbArc
50
279.549159
51
339.5
0
ARC
5
9D
100
AcDbEntity
8
1
62
256
6
ByLayer
370
-1
48
1
60
0
100
AcDbCircle
39
0
10
-30.949509
20
-18.367671
30
0
40
0.748000000000001
210
0
220
0
230
-1
100
AcDbArc
50
350.524579
51
50.475421
0
ARC
5
9E
100
AcDbEntity
8
1
62
256
6
ByLayer
370
-1
48
1
60
0
100
AcDbCircle
39
0
10
-22.296283
20
-15.132362
30
0
40
0.396999999999993
210
0
220
0
230
-1
100
AcDbArc
50
308
51
93
0
ARC
5
9F
100
AcDbEntity
8
1
62
256
6
ByLayer
370
-1
48
1
60
0
100
AcDbCircle
39
0
10
30.949509
20
-18.367671
30
0
40
1.035
210
0
220
0
230
1
100
AcDbArc
50
99.549159
51
159.5
0
ARC
5
A0
100
AcDbEntity
8
1
62
256
6
ByLayer
370
-1
48
1
60
0
100
AcDbCircle
39
0
10
30.949509
20
-18.367671
30
0
40
1.035
210
0
220
0
230
1
100
AcDbArc
50
219.450841
51
279.549159
0
ARC
5
A1
100
AcDbEntity
8
1
62
256
6
ByLayer
370
-1
48
1
60
0
100
AcDbCircle
39
0
10
-29.92942
20
-21.096022
30
0
40
0.39699999999999
210
0
220
0
230
-1
100
AcDbArc
50
273
51
308
0
ARC
5
A2
100
AcDbEntity
8
1
62
256
6
ByLayer
370
-1
48
1
60
0
100
AcDbCircle
39
0
10
-31.969598
20
-15.639319
30
0
40
0.396999999999996
210
0
220
0
230
-1
100
AcDbArc
50
93
51
128
0
ARC
5
A3
100
AcDbEntity
8
1
62
256
6
ByLayer
370
-1
48
1
60
0
100
AcDbCircle
39
0
10
-30.949509
20
-18.367671
30
0
40
0.748000000000001
210
0
220
0
230
-1
100
AcDbArc
50
170.524579
51
230.475421
0
ARC
5
A4
100
AcDbEntity
8
1
62
256
6
ByLayer
370
-1
48
1
60
0
100
AcDbCircle
39
0
10
-39.602736
20
-21.602979
30
0
40
0.396999999999995
210
0
220
0
230
-1
100
AcDbArc
50
128
51
273
0
CIRCLE
5
8F
100
AcDbEntity
8
1
62
256
6
ByLayer
370
-1
48
1
60
0
100
AcDbCircle
10
30.949509
20
-18.367671
30
0
40
1.3
39
0
210
0
220
0
230
1
0
CIRCLE
5
95
100
AcDbEntity
8
1
62
256
6
ByLayer
370
-1
48
1
60
0
100
AcDbCircle
10
30.949509
20
-18.367671
30
0
40
1.875
39
0
210
0
220
0
230
1
0
CIRCLE
5
97
100
AcDbEntity
8
1
62
256
6
ByLayer
370
-1
48
1
60
0
100
AcDbCircle
10
30.949509
20
-18.367671
30
0
40
1.90468944117779
39
0
210
0
220
0
230
1
0
CIRCLE
5
98
100
AcDbEntity
8
1
62
256
6
ByLayer
370
-1
48
1
60
0
100
AcDbCircle
10
30.949509
20
-18.367671
30
0
40
1.82436208350486
39
0
210
0
220
0
230
1
0
CIRCLE
5
9B
100
AcDbEntity
8
1
62
256
6
ByLayer
370
-1
48
1
60
0
100
AcDbCircle
10
30.949509
20
-18.367671
30
0
40
1.725
39
0
210
0
220
0
230
1
0
ELLIPSE
5
A5
100
AcDbEntity
8
1
62
256
6
ByLayer
370
-1
48
1
60
0
100
AcDbEllipse
10
37.566144
20
-9.831874
30
0
11
-4.69467779510505
21
6.60069812209281
31
0
210
0
220
0
230
1
40
0.999994
41
1.56569349888219
42
1.57529592328904
0
ELLIPSE
5
A6
100
AcDbEntity
8
1
62
256
6
ByLayer
370
-1
48
1
60
0
100
AcDbEllipse
10
-0.928203
20
0
30
0
11
-7.49393430382496
21
-15.7933993221994
31
0
210
0
220
0
230
1
40
0.341999
41
2.05401345238923
42
2.98012608239207
0
ELLIPSE
5
A7
100
AcDbEntity
8
1
62
256
6
ByLayer
370
-1
48
1
60
0
100
AcDbEllipse
10
13.399819
20
0
30
0
11
9.79685083057902E-16
21
16
31
0
210
0
220
0
230
1
40
0.087489
41
0.215500178635921
42
2.92609247495387
0
ELLIPSE
5
A8
100
AcDbEntity
8
1
62
256
6
ByLayer
370
-1
48
1
60
0
100
AcDbEllipse
10
12.552187
20
-4.641458
30
0
11
-0.0558300904782129
21
5.29960480666406
31
0
210
0
220
0
230
1
40
0.075889
41
-1.24276493631211
42
0.187866915821521
0
ELLIPSE
5
A9
100
AcDbEntity
8
1
62
256
6
ByLayer
370
-1
48
1
60
0
100
AcDbEllipse
10
12.552187
20
-4.641458
30
0
11
-0.0558300904782129
21
5.29960480666406
31
0
210
0
220
0
230
1
40
0.075889
41
0.495692580648687
42
-1.8614946898629
0
ELLIPSE
5
AA
100
AcDbEntity
8
1
62
256
6
ByLayer
370
-1
48
1
60
0
100
AcDbEllipse
10
22.783692
20
-14.525871
30
0
11
-0.480186164956304
21
1.42106341217606
31
0
210
0
220
0
230
1
40
1
41
-1.62205800934029
42
-1.54539033635725
0
ELLIPSE
5
AB
100
AcDbEntity
8
1
62
256
6
ByLayer
370
-1
48
1
60
0
100
AcDbEllipse
10
12.928203
20
0
30
0
11
-7.49393430382579
21
-15.7933993222003
31
0
210
0
220
0
230
1
40
0.341999
41
-1.08757920120052
42
-0.161466571197715
0
ELLIPSE
5
AC
100
AcDbEntity
8
1
62
256
6
ByLayer
370
-1
48
1
60
0
100
AcDbEllipse
10
-0.928203
20
0
30
0
11
-7.49393430382551
21
15.7933993222
31
0
210
0
220
0
230
1
40
0.341999
41
-2.98012608239207
42
-2.05401345238926
0
ELLIPSE
5
AD
100
AcDbEntity
8
1
62
256
6
ByLayer
370
-1
48
1
60
0
100
AcDbEllipse
10
12.928203
20
0
30
0
11
-7.49393430382571
21
15.7933993222003
31
0
210
0
220
0
230
1
40
0.341999
41
0.161466571197716
42
1.08757920120052
0
ELLIPSE
5
AE
100
AcDbEntity
8
1
62
256
6
ByLayer
370
-1
48
1
60
0
100
AcDbEllipse
10
13.259688
20
-5.073125
30
0
11
0.859385989970746
21
1.40852963058716
31
0
210
0
220
0
230
1
40
0.148846
41
-3.14155731924398
42
-1.81007940530565
0
ELLIPSE
5
AF
100
AcDbEntity
8
1
62
256
6
ByLayer
370
-1
48
1
60
0
100
AcDbEllipse
10
13.259688
20
-5.073125
30
0
11
0.859385989970746
21
1.40852963058716
31
0
210
0
220
0
230
1
40
0.148846
41
-1.81007940530565
42
0
0
ELLIPSE
5
B0
100
AcDbEntity
8
1
62
256
6
ByLayer
370
-1
48
1
60
0
100
AcDbEllipse
10
13.38631
20
-5.150381
30
0
11
-0.781259990882497
21
-1.28048148235196
31
0
210
0
220
0
230
1
40
0.148846
41
0.151027180824486
42
2.9905361975145
0
POINT
5
41
100
AcDbEntity
8
SK2
62
256
6
ByLayer
370
-1
48
1
60
0
100
AcDbPoint
10
90
20
72
30
0
39
0
210
0
220
0
230
1
50
360
0
POINT
5
43
100
AcDbEntity
8
SK2
62
256
6
ByLayer
370
-1
48
1
60
0
100
AcDbPoint
10
40
20
22
30
0
39
0
210
0
220
0
230
1
50
360
0
POINT
5
44
100
AcDbEntity
8
SK2
62
256
6
ByLayer
370
-1
48
1
60
0
100
AcDbPoint
10
40
20
22
30
0
39
0
210
0
220
0
230
1
50
360
0
POINT
5
45
100
AcDbEntity
8
SK2
62
256
6
ByLayer
370
-1
48
1
60
0
100
AcDbPoint
10
40
20
22
30
0
39
0
210
0
220
0
230
1
50
360
0
POINT
5
46
100
AcDbEntity
8
81
62
256
6
ByLayer
370
-1
48
1
60
0
100
AcDbPoint
10
40
20
-22
30
0
39
0
210
0
220
0
230
1
50
360
0
POINT
5
48
100
AcDbEntity
8
SK2
62
256
6
ByLayer
370
-1
48
1
60
0
100
AcDbPoint
10
40
20
22
30
0
39
0
210
0
220
0
230
1
50
360
0
POINT
5
49
100
AcDbEntity
8
SK2
62
256
6
ByLayer
370
-1
48
1
60
0
100
AcDbPoint
10
90
20
72
30
0
39
0
210
0
220
0
230
1
50
360
0
POINT
5
4A
100
AcDbEntity
8
2
62
256
6
ByLayer
370
-1
48
1
60
0
100
AcDbPoint
10
40
20
22
30
0
39
0
210
0
220
0
230
1
50
360
0
POINT
5
4C
100
AcDbEntity
8
80
62
256
6
ByLayer
370
-1
48
1
60
0
100
AcDbPoint
10
0
20
0
30
0
39
0
210
0
220
0
230
1
50
360
0
SPLINE
5
B1
100
AcDbEntity
8
SK1
62
256
6
ByLayer
370
-1
48
1
60
0
100
AcDbSpline
70
4
71
2
72
6
73
3
40
0
40
0
40
0
40
1
40
1
40
1
41
1
10
-18
20
-10.6074547380105
30
0
41
1
10
-9.84999999997147
20
-10.8121485451078
30
0
41
1
10
-1.7
20
-11.0168421588455
30
0
0
SPLINE
5
B2
100
AcDbEntity
8
SK1
62
256
6
ByLayer
370
-1
48
1
60
0
100
AcDbSpline
70
4
71
2
72
6
73
3
40
0
40
0
40
0
40
1
40
1
40
1
41
1
10
-1.7
20
11.0168420288686
30
0
41
1
10
-9.84999999997146
20
10.8121484207173
30
0
41
1
10
-18
20
10.607454619207
30
0
0
SPLINE
5
B3
100
AcDbEntity
8
SK1
62
256
6
ByLayer
370
-1
48
1
60
0
100
AcDbSpline
70
4
71
3
72
13
73
9
40
0
40
0
40
0
40
0
40
0.23945753155636
40
0.368361583742283
40
0.500001014838393
40
0.63164027695707
40
0.760543863357377
40
1
40
1
40
1
40
1
41
1
10
-1.4950399779393
20
10.8251849228641
30
0
41
1
10
-1.52111030873553
20
10.8247832816898
30
0
41
1
10
-1.55884064234822
20
10.8309555342783
30
0
41
1
10
-1.60627712751968
20
10.8539993323472
30
0
41
1
10
-1.63886378681494
20
10.8791666984849
30
0
41
1
10
-1.66563592205242
20
10.9104482477181
30
0
41
1
10
-1.69103284108787
20
10.9566674150535
30
0
41
1
10
-1.69909198644035
20
10.9940399940815
30
0
41
1
10
-1.7
20
11.0200974665178
30
0
0
SPLINE
5
B4
100
AcDbEntity
8
SK1
62
256
6
ByLayer
370
-1
48
1
60
0
100
AcDbSpline
70
4
71
3
72
13
73
9
40
0
40
0
40
0
40
0
40
0.239456136706651
40
0.36835972312732
40
0.499998985252622
40
0.631638416340245
40
0.760542468504853
40
1
40
1
40
1
40
1
41
1
10
-1.7
20
-11.0200973601888
30
0
41
1
10
-1.69909198644136
20
-10.9940398877345
30
0
41
1
10
-1.69103284108888
20
-10.9566673086801
30
0
41
1
10
-1.66563592205368
20
-10.9104481413092
30
0
41
1
10
-1.63886378681656
20
-10.8791665920526
30
0
41
1
10
-1.60627712752138
20
-10.8539992258965
30
0
41
1
10
-1.55884064235043
20
-10.8309554278117
30
0
41
1
10
-1.5211103087367
20
-10.824783175221
30
0
41
1
10
-1.4950399779393
20
-10.8251848163966
30
0
0
SPLINE
5
B5
100
AcDbEntity
8
SK1
62
256
6
ByLayer
370
-1
48
1
60
0
100
AcDbSpline
70
4
71
2
72
6
73
3
40
0
40
0
40
0
40
1
40
1
40
1
41
1
10
-18
20
10.6097644106827
30
0
41
1
10
-18.4999999996377
20
10.3211141428552
30
0
41
1
10
-19
20
10.0324637535503
30
0
0
SPLINE
5
B6
100
AcDbEntity
8
SK1
62
256
6
ByLayer
370
-1
48
1
60
0
100
AcDbSpline
70
4
71
2
72
6
73
3
40
0
40
0
40
0
40
1
40
1
40
1
41
1
10
-19
20
-10.0324636942008
30
0
41
1
10
-18.499999999638
20
-10.3211140865705
30
0
41
1
10
-18
20
-10.6097643575036
30
0
0
SPLINE
5
B7
100
AcDbEntity
8
SK1
62
256
6
ByLayer
370
-1
48
1
60
0
100
AcDbSpline
70
4
71
2
72
6
73
3
40
0
40
0
40
0
40
1
40
1
40
1
41
1
10
-0.394976888875291
20
10.7560155899517
30
0
41
1
10
-0.945008433407295
20
10.7423064506887
30
0
41
1
10
-1.4950399779393
20
10.7285973110991
30
0
0
SPLINE
5
B8
100
AcDbEntity
8
SK1
62
256
6
ByLayer
370
-1
48
1
60
0
100
AcDbSpline
70
4
71
2
72
6
73
3
40
0
40
0
40
0
40
1
40
1
40
1
41
1
10
-1.4950399779393
20
-10.7285972344608
30
0
41
1
10
-0.945008433407295
20
-10.7423063740663
30
0
41
1
10
-0.394976888875291
20
-10.7560155133454
30
0
0
SPLINE
5
B9
100
AcDbEntity
8
1
62
256
6
ByLayer
370
-1
48
1
60
0
100
AcDbSpline
70
4
71
3
72
16
73
12
40
0
40
0
40
0
40
0
40
0.112904383055296
40
0.112904383055296
40
0.251995806601944
40
0.251995806601944
40
0.4711774786145
40
0.4711774786145
40
0.892334804026128
40
0.892334804026128
40
1
40
1
40
1
40
1
41
1
10
7.07679491924311
20
15.2769622091386
30
0
41
1
10
7.09363003644253
20
15.2769622091386
30
0
41
1
10
7.11067448209637
20
15.2760126621563
30
0
41
1
10
7.14599612783957
20
15.2722082770661
30
0
41
1
10
7.16423843011323
20
15.2689414463835
30
0
41
1
10
7.2059463631429
20
15.2589992478797
30
0
41
1
10
7.22743815354157
20
15.2513160232934
30
0
41
1
10
7.2804704094188
20
15.2273927985289
30
0
41
1
10
7.30493517049524
20
15.2092528380283
30
0
41
1
10
7.32822068883897
20
15.1857432227236
30
0
41
1
10
7.33259153417376
20
15.1808653782146
30
0
41
1
10
7.33660254037849
20
15.1759383782004
30
0
0
SPLINE
5
BA
100
AcDbEntity
8
1
62
256
6
ByLayer
370
-1
48
1
60
0
100
AcDbSpline
70
4
71
3
72
16
73
12
40
0
40
0
40
0
40
0
40
0.112904383055294
40
0.112904383055294
40
0.251995806601948
40
0.251995806601948
40
0.471177478614501
40
0.471177478614501
40
0.892334804026132
40
0.892334804026132
40
1
40
1
40
1
40
1
41
1
10
4.92320508075689
20
4.75546271781755
30
0
41
1
10
4.90636996355747
20
4.75546271781755
30
0
41
1
10
4.88932551790363
20
4.75851551862661
30
0
41
1
10
4.85400387216043
20
4.77071315953359
30
0
41
1
10
4.83576156988677
20
4.78117073972194
30
0
41
1
10
4.79405363685711
20
4.81283214608439
30
0
41
1
10
4.77256184645843
20
4.83715715133616
30
0
41
1
10
4.7195295905812
20
4.91214630601436
30
0
41
1
10
4.69506482950476
20
4.96811547083689
30
0
41
1
10
4.67177931116103
20
5.03919021254677
30
0
41
1
10
4.66740846582624
20
5.05386666454072
30
0
41
1
10
4.66339745962151
20
5.06861858311169
30
0
0
SPLINE
5
BB
100
AcDbEntity
8
1
62
256
6
ByLayer
370
-1
48
1
60
0
100
AcDbSpline
70
4
71
3
72
16
73
12
40
0
40
0
40
0
40
0
40
0.1129043830553
40
0.1129043830553
40
0.251995806601947
40
0.251995806601947
40
0.471177478614504
40
0.471177478614504
40
0.892334804026125
40
0.892334804026125
40
1
40
1
40
1
40
1
41
1
10
7.07679491924311
20
-4.75546271781755
30
0
41
1
10
7.09363003644253
20
-4.75546271781755
30
0
41
1
10
7.11067448209637
20
-4.75851551862661
30
0
41
1
10
7.14599612783957
20
-4.77071315953359
30
0
41
1
10
7.16423843011323
20
-4.78117073972194
30
0
41
1
10
7.20594636314289
20
-4.81283214608436
30
0
41
1
10
7.22743815354157
20
-4.83715715133616
30
0
41
1
10
7.2804704094188
20
-4.91214630601436
30
0
41
1
10
7.30493517049524
20
-4.96811547083686
30
0
41
1
10
7.32822068883897
20
-5.03919021254677
30
0
41
1
10
7.33259153417376
20
-5.05386666454072
30
0
41
1
10
7.33660254037849
20
-5.06861858311169
30
0
0
SPLINE
5
BC
100
AcDbEntity
8
1
62
256
6
ByLayer
370
-1
48
1
60
0
100
AcDbSpline
70
4
71
3
72
16
73
12
40
0
40
0
40
0
40
0
40
0.462497527135806
40
0.462497527135806
40
0.645191851133669
40
0.645191851133669
40
0.830465145084792
40
0.830465145084792
40
0.946099677592168
40
0.946099677592168
40
1
40
1
40
1
40
1
41
1
10
4.66339745962155
20
-5.06861858311171
30
0
41
1
10
4.68049745427383
20
-5.00572719980329
30
0
41
1
10
4.70393430551654
20
-4.94318132289493
30
0
41
1
10
4.75230660037377
20
-4.864513415327
30
0
41
1
10
4.76803751709781
20
-4.84296870144203
30
0
41
1
10
4.80461917683135
20
-4.80415189945637
30
0
41
1
10
4.82601832205678
20
-4.78648459402868
30
0
41
1
10
4.86534830605126
20
-4.76617783194868
30
0
41
1
10
4.88194300110749
20
-4.76031541807632
30
0
41
1
10
4.90693069677602
20
-4.75614889828648
30
0
41
1
10
4.91508241701403
20
-4.75546271781749
30
0
41
1
10
4.92320508075687
20
-4.75546271781749
30
0
0
SPLINE
5
BD
100
AcDbEntity
8
1
62
256
6
ByLayer
370
-1
48
1
60
0
100
AcDbSpline
70
4
71
3
72
16
73
12
40
0
40
0
40
0
40
0
40
0.46249752713583
40
0.46249752713583
40
0.645191851133689
40
0.645191851133689
40
0.830465145084805
40
0.830465145084805
40
0.946099677592179
40
0.946099677592179
40
1
40
1
40
1
40
1
41
1
10
7.33660254037845
20
-15.1759383782004
30
0
41
1
10
7.31950254572617
20
-15.1969435000064
30
0
41
1
10
7.29606569448346
20
-15.2173733040723
30
0
41
1
10
7.24769339962623
20
-15.2426068177431
30
0
41
1
10
7.23196248290218
20
-15.2494611471717
30
0
41
1
10
7.19538082316863
20
-15.2617345707429
30
0
41
1
10
7.1739816779432
20
-15.2672766430868
30
0
41
1
10
7.13465169394873
20
-15.2736248541653
30
0
41
1
10
7.1180569988925
20
-15.2754510872996
30
0
41
1
10
7.09306930322398
20
-15.2767486596485
30
0
41
1
10
7.08491758298597
20
-15.2769622091386
30
0
41
1
10
7.07679491924313
20
-15.2769622091386
30
0
0
SPLINE
5
BE
100
AcDbEntity
8
1
62
256
6
ByLayer
370
-1
48
1
60
0
100
AcDbSpline
70
4
71
3
72
14
73
10
40
0
40
0
40
0
40
0
40
0.28160583243109
40
0.28160583243109
40
0.563347210800175
40
0.563347210800175
40
0.842788480033597
40
0.842788480033597
40
1
40
1
40
1
40
1
41
1
10
15.92079238
20
-15.9998993634484
30
0
41
1
10
15.4942096823904
20
-16.0003597661056
30
0
41
1
10
15.0840617589761
20
-15.9997509198355
30
0
41
1
10
14.364246451125
20
-15.9819377781038
30
0
41
1
10
14.0446731904667
20
-15.9640530642602
30
0
41
1
10
13.541843366758
20
-15.8954173554948
30
0
41
1
10
13.3506615019096
20
-15.843575272548
30
0
41
1
10
13.1662708987741
20
-15.7310135675588
30
0
41
1
10
13.1218934669988
20
-15.6834728137437
30
0
41
1
10
13.1004869127285
20
-15.6299129628212
30
0
0
SPLINE
5
BF
100
AcDbEntity
8
1
62
256
6
ByLayer
370
-1
48
1
60
0
100
AcDbSpline
70
4
71
3
72
8
73
4
40
0
40
0
40
0
40
0
40
1
40
1
40
1
40
1
41
1
10
15.9207923799999
20
-15.9998993634484
30
0
41
1
10
16.3083495442327
20
-17.4458732055619
30
0
41
1
10
16.696652458404
20
-18.8941564940626
30
0
41
1
10
17.0852657050954
20
-20.3445735538738
30
0
0
SPLINE
5
C0
100
AcDbEntity
8
1
62
256
6
ByLayer
370
-1
48
1
60
0
100
AcDbSpline
70
4
71
3
72
16
73
12
40
0
40
0
40
0
40
0
40
0.462497527135778
40
0.462497527135778
40
0.645191851133639
40
0.645191851133639
40
0.830465145084769
40
0.830465145084769
40
0.946099677592151
40
0.946099677592151
40
1
40
1
40
1
40
1
41
1
10
7.33660254037845
20
5.06861858311171
30
0
41
1
10
7.31950254572617
20
5.00572719980329
30
0
41
1
10
7.29606569448347
20
4.94318132289493
30
0
41
1
10
7.24769339962624
20
4.864513415327
30
0
41
1
10
7.2319624829022
20
4.84296870144203
30
0
41
1
10
7.19538082316865
20
4.80415189945637
30
0
41
1
10
7.17398167794322
20
4.78648459402871
30
0
41
1
10
7.13465169394874
20
4.76617783194868
30
0
41
1
10
7.11805699889251
20
4.76031541807632
30
0
41
1
10
7.093069303224
20
4.75614889828648
30
0
41
1
10
7.08491758298597
20
4.75546271781747
30
0
41
1
10
7.07679491924313
20
4.75546271781747
30
0
0
SPLINE
5
C1
100
AcDbEntity
8
1
62
256
6
ByLayer
370
-1
48
1
60
0
100
AcDbSpline
70
4
71
3
72
16
73
12
40
0
40
0
40
0
40
0
40
0.462497527135787
40
0.462497527135787
40
0.645191851133657
40
0.645191851133657
40
0.830465145084786
40
0.830465145084786
40
0.946099677592161
40
0.946099677592161
40
1
40
1
40
1
40
1
41
1
10
4.66339745962155
20
15.1759383782004
30
0
41
1
10
4.68049745427383
20
15.1969435000064
30
0
41
1
10
4.70393430551653
20
15.2173733040723
30
0
41
1
10
4.75230660037376
20
15.2426068177431
30
0
41
1
10
4.76803751709781
20
15.2494611471717
30
0
41
1
10
4.80461917683135
20
15.2617345707429
30
0
41
1
10
4.82601832205678
20
15.2672766430868
30
0
41
1
10
4.86534830605126
20
15.2736248541653
30
0
41
1
10
4.88194300110749
20
15.2754510872996
30
0
41
1
10
4.906930696776
20
15.2767486596485
30
0
41
1
10
4.91508241701403
20
15.2769622091386
30
0
41
1
10
4.92320508075687
20
15.2769622091386
30
0
0
SPLINE
5
C2
100
AcDbEntity
8
1
62
256
6
ByLayer
370
-1
48
1
60
0
100
AcDbSpline
70
4
71
3
72
12
73
8
40
0
40
0
40
0
40
0
40
0.460439351265486
40
0.460439351265486
40
0.921169780053612
40
0.921169780053612
40
1
40
1
40
1
40
1
41
1
10
13.1004869127285
20
15.6299129628211
30
0
41
1
10
13.1381485085128
20
15.7241434228119
30
0
41
1
10
13.2486551957116
20
15.7996672106107
30
0
41
1
10
13.6031880790802
20
15.908834938881
30
0
41
1
10
13.8521695956886
20
15.9442303478517
30
0
41
1
10
14.2046834770051
20
15.9692139544627
30
0
41
1
10
14.2582663020831
20
15.9725037572195
30
0
41
1
10
14.3133541447337
20
15.9754409080188
30
0
0
SPLINE
5
C3
100
AcDbEntity
8
1
62
256
6
ByLayer
370
-1
48
1
60
0
100
AcDbSpline
70
4
71
3
72
16
73
12
40
0
40
0
40
0
40
0
40
0.112904383055298
40
0.112904383055298
40
0.251995806601949
40
0.251995806601949
40
0.471177478614513
40
0.471177478614513
40
0.892334804026096
40
0.892334804026096
40
1
40
1
40
1
40
1
41
1
10
4.92320508075689
20
-15.2769622091386
30
0
41
1
10
4.90636996355747
20
-15.2769622091386
30
0
41
1
10
4.88932551790363
20
-15.2760126621562
30
0
41
1
10
4.85400387216043
20
-15.2722082770661
30
0
41
1
10
4.83576156988677
20
-15.2689414463835
30
0
41
1
10
4.79405363685711
20
-15.2589992478797
30
0
41
1
10
4.77256184645843
20
-15.2513160232934
30
0
41
1
10
4.7195295905812
20
-15.2273927985289
30
0
41
1
10
4.69506482950476
20
-15.2092528380283
30
0
41
1
10
4.67177931116105
20
-15.1857432227236
30
0
41
1
10
4.66740846582624
20
-15.1808653782146
30
0
41
1
10
4.66339745962151
20
-15.1759383782004
30
0
0
SPLINE
5
C4
100
AcDbEntity
8
1
62
256
6
ByLayer
370
-1
48
1
60
0
100
AcDbSpline
70
4
71
3
72
8
73
4
40
0
40
0
40
0
40
0
40
1
40
1
40
1
40
1
41
1
10
17.0852657050954
20
-20.3445735538739
30
0
41
1
10
17.1124966505663
20
-20.4462073200977
30
0
41
1
10
17.1397276203658
20
-20.5478410798197
30
0
41
1
10
17.1669586134319
20
-20.6494748333235
30
0
0
SPLINE
5
C5
100
AcDbEntity
8
SK1
62
256
6
ByLayer
370
-1
48
1
60
0
100
AcDbSpline
70
4
71
3
72
22
73
18
40
0
40
0
40
0
40
0
40
0.0395600313570846
40
0.0395600313570846
40
0.0799315093878188
40
0.0799315093878188
40
0.106876580589611
40
0.106876580589611
40
0.133701048543486
40
0.133701048543486
40
0.176352973010727
40
0.176352973010727
40
0.259356921688642
40
0.259356921688642
40
0.548295527673574
40
0.548295527673574
40
1
40
1
40
1
40
1
41
1
10
-0.394976888875291
20
10.7863556154697
30
0
41
1
10
-0.389702639678646
20
10.7870422282048
30
0
41
1
10
-0.383949255474249
20
10.787901693367
30
0
41
1
10
-0.371341349893655
20
10.7901447377048
30
0
41
1
10
-0.364243586661772
20
10.7915871586324
30
0
41
1
10
-0.352098900524396
20
10.7944788307469
30
0
41
1
10
-0.347036906174168
20
10.7957979077191
30
0
41
1
10
-0.337425084029817
20
10.798522674748
30
0
41
1
10
-0.33276601646044
20
10.7999559337413
30
0
41
1
10
-0.321717088695223
20
10.8035790811787
30
0
41
1
10
-0.315694378191637
20
10.8057810587444
30
0
41
1
10
-0.300169598666315
20
10.8118410319123
30
0
41
1
10
-0.292195204420992
20
10.8154752639726
30
0
41
1
10
-0.261918491650448
20
10.8302075808718
30
0
41
1
10
-0.249810830339086
20
10.8386591321433
30
0
41
1
10
-0.224322469962189
20
10.8569180764323
30
0
41
1
10
-0.214796829338454
20
10.8650247494482
30
0
41
1
10
-0.208974318378111
20
10.870798211959
30
0
0
SPLINE
5
C6
100
AcDbEntity
8
SK1
62
256
6
ByLayer
370
-1
48
1
60
0
100
AcDbSpline
70
4
71
3
72
114
73
110
40
0
40
0
40
0
40
0
40
0.0016971436381088
40
0.005794255321995
40
0.0098913670058813
40
0.0180855903736538
40
0.0262798137414264
40
0.0344740371091989
40
0.0426682604769714
40
0.0508624838447439
40
0.0590567072125165
40
0.067250930580289
40
0.0754451539480615
40
0.0836393773158341
40
0.0918336006836066
40
0.100027824051379
40
0.108222047419152
40
0.116416270786924
40
0.124610494154697
40
0.132804717522469
40
0.140998940890242
40
0.149193164258014
40
0.165581610993559
40
0.181970057729104
40
0.198358504464649
40
0.214746951200194
40
0.222941174567967
40
0.23113539793574
40
0.239329621303512
40
0.247523844671285
40
0.255718068039057
40
0.26391229140683
40
0.272106514774602
40
0.280300738142375
40
0.288494961510147
40
0.29668918487792
40
0.304883408245692
40
0.313077631613465
40
0.321271854981237
40
0.32946607834901
40
0.337660301716782
40
0.345854525084555
40
0.354048748452327
40
0.3622429718201
40
0.378631418555645
40
0.39501986529119
40
0.403214088658963
40
0.411408312026735
40
0.419602535394508
40
0.42779675876228
40
0.435990982130053
40
0.444185205497825
40
0.452379428865598
40
0.46057365223337
40
0.476962098968915
40
0.49335054570446
40
0.501544769072233
40
0.509738992440005
40
0.517933215807778
40
0.52612743917555
40
0.534321662543323
40
0.542515885911095
40
0.550710109278868
40
0.558904332646641
40
0.575292779382186
40
0.591681226117731
40
0.599875449485503
40
0.608069672853276
40
0.616263896221048
40
0.624458119588821
40
0.632652342956593
40
0.640846566324366
40
0.649040789692138
40
0.657235013059911
40
0.673623459795456
40
0.690011906531001
40
0.698206129898774
40
0.706400353266546
40
0.714594576634319
40
0.722788800002091
40
0.730983023369864
40
0.739177246737636
40
0.747371470105409
40
0.755565693473181
40
0.763759916840954
40
0.771954140208726
40
0.780148363576499
40
0.788342586944271
40
0.796536810312044
40
0.804731033679816
40
0.812925257047589
40
0.821119480415361
40
0.829313703783134
40
0.837507927150906
40
0.845702150518679
40
0.853896373886452
40
0.870284820621997
40
0.878479043989769
40
0.886673267357542
40
0.894867490725314
40
0.903061714093087
40
0.919450160828632
40
0.935838607564177
40
0.952227054299722
40
0.968615501035267
40
0.976809724403039
40
0.985003947770812
40
0.993198171138585
40
1
40
1
40
1
40
1
41
1
10
-1.7
20
2.34751168175015
30
0
41
1
10
-1.7
20
2.35621957733798
30
0
41
1
10
-1.7
20
2.38592944625574
30
0
41
1
10
-1.7
20
2.43652877485601
30
0
41
1
10
-1.7
20
2.52010001413041
30
0
41
1
10
-1.7
20
2.62409374349514
30
0
41
1
10
-1.7
20
2.74807047639385
30
0
41
1
10
-1.7
20
2.8712390381817
30
0
41
1
10
-1.7
20
2.99359419383882
30
0
41
1
10
-1.7
20
3.115131944757
30
0
41
1
10
-1.7
20
3.23584791746731
30
0
41
1
10
-1.7
20
3.35573880021465
30
0
41
1
10
-1.7
20
3.47480199284001
30
0
41
1
10
-1.7
20
3.59303526241621
30
0
41
1
10
-1.7
20
3.71043643743553
30
0
41
1
10
-1.7
20
3.82700351079481
30
0
41
1
10
-1.7
20
3.94273451640885
30
0
41
1
10
-1.7
20
4.05762829513469
30
0
41
1
10
-1.7
20
4.17168365277391
30
0
41
1
10
-1.7
20
4.28489934734066
30
0
41
1
10
-1.7
20
4.39727377856164
30
0
41
1
10
-1.7
20
4.54596815109079
30
0
41
1
10
-1.7
20
4.7297623506839
30
0
41
1
10
-1.7
20
4.94691859926491
30
0
41
1
10
-1.7
20
5.16068767245523
30
0
41
1
10
-1.7
20
5.33601327110074
30
0
41
1
10
-1.7
20
5.4745489994917
30
0
41
1
10
-1.7
20
5.57760868171391
30
0
41
1
10
-1.7
20
5.67981550565051
30
0
41
1
10
-1.7
20
5.78116852113124
30
0
41
1
10
-1.7
20
5.88166659485614
30
0
41
1
10
-1.7
20
5.98130841102724
30
0
41
1
10
-1.7
20
6.08009291387742
30
0
41
1
10
-1.7
20
6.17801857115037
30
0
41
1
10
-1.7
20
6.27508411030436
30
0
41
1
10
-1.7
20
6.37128816532112
30
0
41
1
10
-1.7
20
6.46662903768907
30
0
41
1
10
-1.7
20
6.56110534348878
30
0
41
1
10
-1.7
20
6.65471546144812
30
0
41
1
10
-1.7
20
6.74745756863808
30
0
41
1
10
-1.7
20
6.83933013294538
30
0
41
1
10
-1.7
20
6.93033107540649
30
0
41
1
10
-1.7
20
7.02045851391139
30
0
41
1
10
-1.7
20
7.13945161440037
30
0
41
1
10
-1.7
20
7.28602036791514
30
0
41
1
10
-1.7
20
7.42964987262871
30
0
41
1
10
-1.7
20
7.54276400792273
30
0
41
1
10
-1.7
20
7.62671723619306
30
0
41
1
10
-1.7
20
7.70977880868622
30
0
41
1
10
-1.7
20
7.79194597495291
30
0
41
1
10
-1.7
20
7.87321638075602
30
0
41
1
10
-1.7
20
7.95358681402573
30
0
41
1
10
-1.7
20
8.0330544688868
30
0
41
1
10
-1.7
20
8.13779570521024
30
0
41
1
10
-1.7
20
8.26646747522287
30
0
41
1
10
-1.7
20
8.39208804491184
30
0
41
1
10
-1.7
20
8.49072596407868
30
0
41
1
10
-1.7
20
8.56378400031386
30
0
41
1
10
-1.7
20
8.63591214139896
30
0
41
1
10
-1.7
20
8.70710645983874
30
0
41
1
10
-1.7
20
8.77736340151236
30
0
41
1
10
-1.7
20
8.84667843706413
30
0
41
1
10
-1.7
20
8.91504748954583
30
0
41
1
10
-1.7
20
9.00493246986304
30
0
41
1
10
-1.7
20
9.11491647650138
30
0
41
1
10
-1.7
20
9.22168702931728
30
0
41
1
10
-1.7
20
9.30514376314053
30
0
41
1
10
-1.7
20
9.36676192571935
30
0
41
1
10
-1.7
20
9.42739550269755
30
0
41
1
10
-1.7
20
9.48703891782515
30
0
41
1
10
-1.7
20
9.54568702498426
30
0
41
1
10
-1.7
20
9.60333355436057
30
0
41
1
10
-1.7
20
9.65997270948603
30
0
41
1
10
-1.7
20
9.73413470277157
30
0
41
1
10
-1.7
20
9.82429996242755
30
0
41
1
10
-1.7
20
9.91102209624654
30
0
41
1
10
-1.7
20
9.9782962601187
30
0
41
1
10
-1.7
20
10.0277015194443
30
0
41
1
10
-1.7
20
10.0760448746501
30
0
41
1
10
-1.7
20
10.1233184572166
30
0
41
1
10
-1.7
20
10.1695147015167
30
0
41
1
10
-1.7
20
10.214624938185
30
0
41
1
10
-1.7
20
10.2586409300894
30
0
41
1
10
-1.7
20
10.3015538731596
30
0
41
1
10
-1.7
20
10.3433544952797
30
0
41
1
10
-1.7
20
10.3840336911891
30
0
41
1
10
-1.7
20
10.4235819208782
30
0
41
1
10
-1.7
20
10.4619889454751
30
0
41
1
10
-1.7
20
10.4992449917908
30
0
41
1
10
-1.7
20
10.5353389668746
30
0
41
1
10
-1.7
20
10.5702601801729
30
0
41
1
10
-1.7
20
10.6039972784095
30
0
41
1
10
-1.7
20
10.6365384804889
30
0
41
1
10
-1.7
20
10.6678717210084
30
0
41
1
10
-1.7
20
10.6979846325427
30
0
41
1
10
-1.7
20
10.7364870112034
30
0
41
1
10
-1.7
20
10.7725058156908
30
0
41
1
10
-1.7
20
10.8059645321906
30
0
41
1
10
-1.7
20
10.8297709184935
30
0
41
1
10
-1.7
20
10.8522711614578
30
0
41
1
10
-1.7
20
10.8805066448562
30
0
41
1
10
-1.7
20
10.9124599417153
30
0
41
1
10
-1.7
20
10.9453046900679
30
0
41
1
10
-1.7
20
10.9724987368511
30
0
41
1
10
-1.7
20
10.9903135336491
30
0
41
1
10
-1.7
20
11.0015624988159
30
0
41
1
10
-1.7
20
11.0084752989365
30
0
41
1
10
-1.7
20
11.0135338004117
30
0
41
1
10
-1.7
20
11.0159248556916
30
0
41
1
10
-1.69999999999999
20
11.0168256817994
30
0
0
SPLINE
5
C7
100
AcDbEntity
8
SK1
62
256
6
ByLayer
370
-1
48
1
60
0
100
AcDbSpline
70
4
71
3
72
113
73
109
40
0
40
0
40
0
40
0
40
0.0068017935160897
40
0.0149960172010916
40
0.0231902408860936
40
0.0313844645710956
40
0.0477729119410995
40
0.0641613593111034
40
0.0805498066811074
40
0.0969382540511113
40
0.105132477736113
40
0.113326701421115
40
0.121520925106117
40
0.129715148791119
40
0.146103596161123
40
0.154297819846125
40
0.162492043531127
40
0.170686267216129
40
0.178880490901131
40
0.187074714586133
40
0.195268938271135
40
0.203463161956137
40
0.211657385641139
40
0.219851609326141
40
0.228045833011143
40
0.236240056696145
40
0.244434280381147
40
0.252628504066149
40
0.260822727751151
40
0.269016951436153
40
0.277211175121155
40
0.285405398806157
40
0.293599622491159
40
0.301793846176161
40
0.309988069861163
40
0.326376517231167
40
0.34276496460117
40
0.350959188286172
40
0.359153411971174
40
0.367347635656176
40
0.375541859341178
40
0.38373608302618
40
0.391930306711182
40
0.400124530396184
40
0.408318754081186
40
0.42470720145119
40
0.441095648821194
40
0.449289872506196
40
0.457484096191198
40
0.4656783198762
40
0.473872543561202
40
0.482066767246204
40
0.490260990931206
40
0.498455214616208
40
0.50664943830121
40
0.523037885671214
40
0.539426333041218
40
0.54762055672622
40
0.555814780411222
40
0.564009004096224
40
0.572203227781225
40
0.580397451466227
40
0.588591675151229
40
0.596785898836231
40
0.604980122521233
40
0.621368569891237
40
0.637757017261241
40
0.645951240946243
40
0.654145464631245
40
0.662339688316247
40
0.670533912001249
40
0.678728135686251
40
0.686922359371253
40
0.695116583056255
40
0.703310806741257
40
0.711505030426259
40
0.719699254111261
40
0.727893477796263
40
0.736087701481265
40
0.744281925166267
40
0.752476148851269
40
0.760670372536271
40
0.768864596221273
40
0.777058819906275
40
0.785253043591277
40
0.801641490961281
40
0.818029938331285
40
0.834418385701288
40
0.850806833071293
40
0.867195280441296
40
0.875389504126298
40
0.8835837278113
40
0.891777951496302
40
0.899972175181304
40
0.908166398866306
40
0.916360622551308
40
0.92455484623631
40
0.932749069921312
40
0.940943293606314
40
0.949137517291316
40
0.957331740976318
40
0.96552596466132
40
0.973720188346322
40
0.981914412031324
40
0.990108635716326
40
0.994205747558827
40
0.998302859401328
40
1
40
1
40
1
40
1
41
1
10
-1.7
20
-11.0168257863217
30
0
41
1
10
-1.69999999999999
20
-11.0159250075181
30
0
41
1
10
-1.7
20
-11.0135340499858
30
0
41
1
10
-1.7
20
-11.0084756345047
30
0
41
1
10
-1.7
20
-11.0015627517285
30
0
41
1
10
-1.7
20
-10.9903135656216
30
0
41
1
10
-1.7
20
-10.9724987271428
30
0
41
1
10
-1.7
20
-10.9453046871603
30
0
41
1
10
-1.7
20
-10.9124599273338
30
0
41
1
10
-1.7
20
-10.8805066572373
30
0
41
1
10
-1.7
20
-10.8522711554431
30
0
41
1
10
-1.7
20
-10.8297709040831
30
0
41
1
10
-1.7
20
-10.805964526766
30
0
41
1
10
-1.7
20
-10.7725058279894
30
0
41
1
10
-1.7
20
-10.7364870109124
30
0
41
1
10
-1.7
20
-10.6979846247737
30
0
41
1
10
-1.7
20
-10.667871716058
30
0
41
1
10
-1.7
20
-10.6365384864303
30
0
41
1
10
-1.7
20
-10.6039972898543
30
0
41
1
10
-1.7
20
-10.5702601848038
30
0
41
1
10
-1.7
20
-10.5353389624728
30
0
41
1
10
-1.7
20
-10.4992449887466
30
0
41
1
10
-1.7
20
-10.4619889498579
30
0
41
1
10
-1.7
20
-10.4235819316408
30
0
41
1
10
-1.7
20
-10.3840337022625
30
0
41
1
10
-1.7
20
-10.3433544990447
30
0
41
1
10
-1.7
20
-10.3015538720295
30
0
41
1
10
-1.7
20
-10.2586409327216
30
0
41
1
10
-1.7
20
-10.2146249480068
30
0
41
1
10
-1.7
20
-10.1695147146772
30
0
41
1
10
-1.7
20
-10.1233184687774
30
0
41
1
10
-1.7
20
-10.0760448810433
30
0
41
1
10
-1.7
20
-10.027701522966
30
0
41
1
10
-1.7
20
-9.97829626766935
30
0
41
1
10
-1.7
20
-9.91102211065424
30
0
41
1
10
-1.7
20
-9.8242999772026
30
0
41
1
10
-1.7
20
-9.73413471042332
30
0
41
1
10
-1.7
20
-9.65997272044626
30
0
41
1
10
-1.7
20
-9.60333356924752
30
0
41
1
10
-1.7
20
-9.54568704168656
30
0
41
1
10
-1.7
20
-9.48703893408199
30
0
41
1
10
-1.7
20
-9.42739551695706
30
0
41
1
10
-1.7
20
-9.36676193872179
30
0
41
1
10
-1.7
20
-9.3051437774476
30
0
41
1
10
-1.7
20
-9.22168704652844
30
0
41
1
10
-1.7
20
-9.11491649636679
30
0
41
1
10
-1.7
20
-9.0049324875024
30
0
41
1
10
-1.7
20
-8.9150475069234
30
0
41
1
10
-1.7
20
-8.8466784551658
30
0
41
1
10
-1.7
20
-8.77736342146704
30
0
41
1
10
-1.7
20
-8.707106481632
30
0
41
1
10
-1.7
20
-8.63591216394966
30
0
41
1
10
-1.7
20
-8.56378402232568
30
0
41
1
10
-1.7
20
-8.49072598449763
30
0
41
1
10
-1.7
20
-8.39208806457802
30
0
41
1
10
-1.7
20
-8.26646749990718
30
0
41
1
10
-1.7
20
-8.13779573224099
30
0
41
1
10
-1.7
20
-8.0330544924083
30
0
41
1
10
-1.7
20
-7.95358683542918
30
0
41
1
10
-1.7
20
-7.87321640404122
30
0
41
1
10
-1.7
20
-7.79194600202328
30
0
41
1
10
-1.7
20
-7.70977883874548
30
0
41
1
10
-1.7
20
-7.62671726605947
30
0
41
1
10
-1.7
20
-7.54276403355829
30
0
41
1
10
-1.7
20
-7.42964989475425
30
0
41
1
10
-1.7
20
-7.28602039903603
30
0
41
1
10
-1.7
20
-7.13945164867536
30
0
41
1
10
-1.7
20
-7.0204585412456
30
0
41
1
10
-1.7
20
-6.93033109954712
30
0
41
1
10
-1.7
20
-6.83933016168689
30
0
41
1
10
-1.7
20
-6.74745760354551
30
0
41
1
10
-1.7
20
-6.6547154979545
30
0
41
1
10
-1.7
20
-6.56110537660942
30
0
41
1
10
-1.7
20
-6.46662906510221
30
0
41
1
10
-1.7
20
-6.37128819193615
30
0
41
1
10
-1.7
20
-6.27508414397229
30
0
41
1
10
-1.7
20
-6.17801861138651
30
0
41
1
10
-1.7
20
-6.08009295106382
30
0
41
1
10
-1.7
20
-5.98130844183515
30
0
41
1
10
-1.7
20
-5.88166662352432
30
0
41
1
10
-1.7
20
-5.7811685540097
30
0
41
1
10
-1.7
20
-5.67981554633886
30
0
41
1
10
-1.7
20
-5.57760872375084
30
0
41
1
10
-1.7
20
-5.47454903301667
30
0
41
1
10
-1.7
20
-5.33601329758696
30
0
41
1
10
-1.7
20
-5.16068772031301
30
0
41
1
10
-1.7
20
-4.94691863630067
30
0
41
1
10
-1.7
20
-4.72976236922625
30
0
41
1
10
-1.7
20
-4.50922638794765
30
0
41
1
10
-1.7
20
-4.32262158144502
30
0
41
1
10
-1.7
20
-4.171683851729
30
0
41
1
10
-1.7
20
-4.05762856057325
30
0
41
1
10
-1.7
20
-3.94273458524899
30
0
41
1
10
-1.7
20
-3.82700345953037
30
0
41
1
10
-1.7
20
-3.71043651779695
30
0
41
1
10
-1.7
20
-3.59303544152357
30
0
41
1
10
-1.7
20
-3.47480210546814
30
0
41
1
10
-1.7
20
-3.3557387899657
30
0
41
1
10
-1.7
20
-3.23584780039647
30
0
41
1
10
-1.7
20
-3.11513187517292
30
0
41
1
10
-1.7
20
-2.993594380779
30
0
41
1
10
-1.7
20
-2.87123918356852
30
0
41
1
10
-1.7
20
-2.74807054514892
30
0
41
1
10
-1.7
20
-2.62409378657779
30
0
41
1
10
-1.7
20
-2.52010006268682
30
0
41
1
10
-1.7
20
-2.43652882976181
30
0
41
1
10
-1.7
20
-2.38592951909064
30
0
41
1
10
-1.7
20
-2.35621966593379
30
0
41
1
10
-1.7
20
-2.34751178615289
30
0
0
SPLINE
5
C8
100
AcDbEntity
8
SK1
62
256
6
ByLayer
370
-1
48
1
60
0
100
AcDbSpline
70
4
71
3
72
282
73
278
40
0
40
0
40
0
40
0
40
0.0005689168346609
40
0.0040614426504136
40
0.0075539684661663
40
0.011046494281919
40
0.0145390200976717
40
0.0180315459134245
40
0.0215240717291771
40
0.0250165975449298
40
0.0320016491764353
40
0.0389867008079407
40
0.0459717524394462
40
0.0529568040709516
40
0.0564493298867043
40
0.059941855702457
40
0.0634343815182097
40
0.0669269073339624
40
0.0739119589654679
40
0.0774044847812205
40
0.0808970105969733
40
0.084389536412726
40
0.0878820622284787
40
0.0913745880442314
40
0.0948671138599842
40
0.0983596396757369
40
0.101852165491489
40
0.105344691307242
40
0.108837217122995
40
0.112329742938748
40
0.1158222687545
40
0.119314794570253
40
0.122807320386006
40
0.126299846201758
40
0.129792372017511
40
0.133284897833264
40
0.136777423649017
40
0.140269949464769
40
0.143762475280522
40
0.150747526912027
40
0.157732578543533
40
0.161225104359286
40
0.164717630175038
40
0.168210155990791
40
0.171702681806544
40
0.175195207622297
40
0.178687733438049
40
0.182180259253802
40
0.185672785069555
40
0.19265783670106
40
0.199642888332565
40
0.203135414148318
40
0.206627939964071
40
0.210120465779824
40
0.213612991595576
40
0.217105517411329
40
0.220598043227082
40
0.224090569042835
40
0.227583094858587
40
0.234568146490093
40
0.241553198121598
40
0.245045723937351
40
0.248538249753104
40
0.252030775568856
40
0.255523301384609
40
0.259015827200362
40
0.262508353016114
40
0.266000878831867
40
0.26949340464762
40
0.276478456279125
40
0.283463507910631
40
0.286956033726383
40
0.290448559542136
40
0.293941085357889
40
0.297433611173641
40
0.300926136989394
40
0.304418662805147
40
0.3079111886209
40
0.311403714436652
40
0.314896240252405
40
0.318388766068158
40
0.321881291883911
40
0.325373817699663
40
0.328866343515416
40
0.332358869331169
40
0.335851395146921
40
0.339343920962674
40
0.342836446778427
40
0.34632897259418
40
0.353314024225685
40
0.36029907585719
40
0.367284127488696
40
0.374269179120201
40
0.381254230751707
40
0.384746756567459
40
0.388239282383212
40
0.391731808198965
40
0.395224334014718
40
0.39871685983047
40
0.402209385646223
40
0.405701911461976
40
0.409194437277728
40
0.412686963093481
40
0.416179488909234
40
0.419672014724986
40
0.423164540540739
40
0.426657066356492
40
0.430149592172245
40
0.433642117987997
40
0.435388380895874
40
0.43713464380375
40
0.440627169619503
40
0.444119695435255
40
0.447612221251008
40
0.451104747066761
40
0.454597272882514
40
0.458089798698266
40
0.461582324514019
40
0.465074850329772
40
0.466821113237648
40
0.468567376145524
40
0.470313639053401
40
0.472059901961277
40
0.473806164869154
40
0.47555242777703
40
0.477298690684906
40
0.479044953592783
40
0.480791216500659
40
0.482537479408535
40
0.484283742316412
40
0.486030005224288
40
0.487776268132164
40
0.489522531040041
40
0.491268793947917
40
0.493015056855794
40
0.49476131976367
40
0.496507582671546
40
0.498253845579423
40
0.500000108487299
40
0.501746371395175
40
0.503492634303052
40
0.505238897210928
40
0.506985160118804
40
0.508731423026681
40
0.510477685934557
40
0.512223948842433
40
0.51397021175031
40
0.515716474658186
40
0.517462737566062
40
0.519209000473939
40
0.520955263381815
40
0.522701526289692
40
0.524447789197568
40
0.526194052105444
40
0.527940315013321
40
0.529686577921197
40
0.531432840829073
40
0.53317910373695
40
0.534925366644826
40
0.538417892460579
40
0.541910418276331
40
0.545402944092084
40
0.548895469907837
40
0.55238799572359
40
0.555880521539342
40
0.559373047355095
40
0.562865573170848
40
0.564611836078724
40
0.566358098986601
40
0.569850624802353
40
0.573343150618106
40
0.576835676433859
40
0.580328202249611
40
0.583820728065364
40
0.587313253881117
40
0.59080577969687
40
0.594298305512622
40
0.597790831328375
40
0.601283357144128
40
0.60477588295988
40
0.608268408775633
40
0.611760934591386
40
0.615253460407139
40
0.618745986222891
40
0.622238512038644
40
0.625731037854397
40
0.632716089485902
40
0.639701141117408
40
0.646686192748913
40
0.653671244380419
40
0.657163770196171
40
0.660656296011924
40
0.664148821827677
40
0.667641347643429
40
0.671133873459182
40
0.674626399274935
40
0.678118925090688
40
0.68161145090644
40
0.685103976722193
40
0.688596502537946
40
0.692089028353698
40
0.695581554169451
40
0.699074079985204
40
0.702566605800957
40
0.706059131616709
40
0.709551657432462
40
0.713044183248215
40
0.716536709063967
40
0.723521760695473
40
0.730506812326978
40
0.733999338142731
40
0.737491863958484
40
0.740984389774236
40
0.744476915589989
40
0.747969441405742
40
0.751461967221495
40
0.754954493037247
40
0.758447018853
40
0.765432070484505
40
0.772417122116011
40
0.775909647931763
40
0.779402173747516
40
0.782894699563269
40
0.786387225379021
40
0.789879751194774
40
0.793372277010527
40
0.79686480282628
40
0.800357328642032
40
0.807342380273538
40
0.814327431905043
40
0.817819957720796
40
0.821312483536549
40
0.824805009352301
40
0.828297535168054
40
0.831790060983807
40
0.83528258679956
40
0.838775112615312
40
0.842267638431065
40
0.84925269006257
40
0.856237741694076
40
0.859730267509829
40
0.863222793325581
40
0.866715319141334
40
0.870207844957087
40
0.873700370772839
40
0.877192896588592
40
0.880685422404345
40
0.884177948220098
40
0.88767047403585
40
0.891162999851603
40
0.894655525667356
40
0.898148051483108
40
0.901640577298861
40
0.905133103114614
40
0.908625628930367
40
0.912118154746119
40
0.915610680561872
40
0.919103206377625
40
0.922595732193378
40
0.92608825800913
40
0.933073309640636
40
0.936565835456388
40
0.940058361272141
40
0.943550887087894
40
0.947043412903647
40
0.954028464535152
40
0.961013516166657
40
0.967998567798163
40
0.974983619429668
40
0.978476145245421
40
0.981968671061174
40
0.985461196876926
40
0.988953722692679
40
0.992446248508432
40
0.995938774324184
40
0.999431300139937
40
1
40
1
40
1
40
1
41
1
10
-18
20
-10.6091545213442
30
0
41
1
10
-18
20
-10.6092716844846
30
0
41
1
10
-18
20
-10.6100564429041
30
0
41
1
10
-18
20
-10.6108321487841
30
0
41
1
10
-18
20
-10.6103050545653
30
0
41
1
10
-18
20
-10.6082029915013
30
0
41
1
10
-18
20
-10.6045523963069
30
0
41
1
10
-18
20
-10.599378203272
30
0
41
1
10
-18
20
-10.592703758728
30
0
41
1
10
-18
20
-10.5818120868309
30
0
41
1
10
-18
20
-10.5646169538388
30
0
41
1
10
-18
20
-10.5383008597592
30
0
41
1
10
-18
20
-10.5064892630525
30
0
41
1
10
-18
20
-10.4755678718975
30
0
41
1
10
-18
20
-10.4481323745122
30
0
41
1
10
-18
20
-10.4263041000347
30
0
41
1
10
-18
20
-10.4032013384501
30
0
41
1
10
-18
20
-10.3706596194956
30
0
41
1
10
-18
20
-10.3358095061466
30
0
41
1
10
-18
20
-10.2983352374592
30
0
41
1
10
-18
20
-10.2690719430376
30
0
41
1
10
-18
20
-10.2386154287957
30
0
41
1
10
-18
20
-10.2069776298432
30
0
41
1
10
-18
20
-10.1741699954592
30
0
41
1
10
-18
20
-10.1402037904431
30
0
41
1
10
-18
20
-10.1050900859652
30
0
41
1
10
-18
20
-10.0688389854125
30
0
41
1
10
-18
20
-10.0314612838791
30
0
41
1
10
-18
20
-9.99296651357056
30
0
41
1
10
-18
20
-9.95336440120047
30
0
41
1
10
-18
20
-9.91266446512716
30
0
41
1
10
-18
20
-9.87087543598923
30
0
41
1
10
-18
20
-9.82800620980919
30
0
41
1
10
-18
20
-9.7840656391997
30
0
41
1
10
-18
20
-9.73906158174464
30
0
41
1
10
-18
20
-9.69300262436195
30
0
41
1
10
-18
20
-9.64589640582304
30
0
41
1
10
-18
20
-9.59775041693439
30
0
41
1
10
-18
20
-9.53207738577578
30
0
41
1
10
-18
20
-9.44765448811151
30
0
41
1
10
-18
20
-9.3598674920926
30
0
41
1
10
-18
20
-9.28744513847656
30
0
41
1
10
-18
20
-9.23221919243571
30
0
41
1
10
-18
20
-9.17600808045955
30
0
41
1
10
-18
20
-9.11881724129319
30
0
41
1
10
-18
20
-9.06065321078685
30
0
41
1
10
-18
20
-9.00152153550755
30
0
41
1
10
-18
20
-8.94142744136704
30
0
41
1
10
-18
20
-8.8599036769107
30
0
41
1
10
-18
20
-8.75589867127121
30
0
41
1
10
-18
20
-8.64876093189611
30
0
41
1
10
-18
20
-8.56095254151674
30
0
41
1
10
-18
20
-8.49426810443586
30
0
41
1
10
-18
20
-8.42666168347023
30
0
41
1
10
-18
20
-8.35813713243078
30
0
41
1
10
-18
20
-8.28869946906789
30
0
41
1
10
-18
20
-8.21835292520672
30
0
41
1
10
-18
20
-8.14710122037499
30
0
41
1
10
-18
20
-8.05075300914629
30
0
41
1
10
-18
20
-7.92840576311144
30
0
41
1
10
-18
20
-7.80309792535269
30
0
41
1
10
-18
20
-7.70081044177078
30
0
41
1
10
-18
20
-7.62333369313473
30
0
41
1
10
-18
20
-7.54498258382409
30
0
41
1
10
-18
20
-7.4657598851355
30
0
41
1
10
-18
20
-7.3856695958325
30
0
41
1
10
-18
20
-7.30471500134038
30
0
41
1
10
-18
20
-7.22289886113486
30
0
41
1
10
-18
20
-7.11249590401042
30
0
41
1
10
-18
20
-6.97274644349409
30
0
41
1
10
-18
20
-6.83016814404567
30
0
41
1
10
-18
20
-6.71409024311311
30
0
41
1
10
-18
20
-6.62633156228856
30
0
41
1
10
-18
20
-6.53773585931214
30
0
41
1
10
-18
20
-6.44830547511725
30
0
41
1
10
-18
20
-6.35804369451674
30
0
41
1
10
-18
20
-6.26695324021441
30
0
41
1
10
-18
20
-6.17503665947791
30
0
41
1
10
-18
20
-6.08229713807037
30
0
41
1
10
-18
20
-5.98873702476692
30
0
41
1
10
-18
20
-5.89435903702207
30
0
41
1
10
-18
20
-5.79916633117398
30
0
41
1
10
-18
20
-5.70316110146723
30
0
41
1
10
-18
20
-5.60634650403392
30
0
41
1
10
-18
20
-5.50872532385608
30
0
41
1
10
-18
20
-5.41030024314784
30
0
41
1
10
-18
20
-5.31107465945468
30
0
41
1
10
-18
20
-5.21105054825134
30
0
41
1
10
-18
20
-5.07638404339966
30
0
41
1
10
-18
20
-4.9066349784587
30
0
41
1
10
-18
20
-4.69948157884701
30
0
41
1
10
-18
20
-4.48921424352019
30
0
41
1
10
-18
20
-4.27586319348595
30
0
41
1
10
-18
20
-4.09581338934953
30
0
41
1
10
-18
20
-3.94972228937704
30
0
41
1
10
-18
20
-3.83964277700957
30
0
41
1
10
-18
20
-3.72882077112345
30
0
41
1
10
-18
20
-3.61726252861362
30
0
41
1
10
-18
20
-3.5049748957627
30
0
41
1
10
-18
20
-3.39196471421937
30
0
41
1
10
-18
20
-3.27823925856785
30
0
41
1
10
-18
20
-3.16380725793991
30
0
41
1
10
-18
20
-3.04867846612532
30
0
41
1
10
-18
20
-2.93286234661062
30
0
41
1
10
-18
20
-2.81636932516915
30
0
41
1
10
-18
20
-2.69921228427648
30
0
41
1
10
-18
20
-2.58140420660004
30
0
41
1
10
-18
20
-2.46295993427742
30
0
41
1
10
-18
20
-2.36395709248046
30
0
41
1
10
-18
20
-2.2840420412912
30
0
41
1
10
-18
20
-2.20393499577068
30
0
41
1
10
-18
20
-2.10398013562451
30
0
41
1
10
-18
20
-1.98317122682144
30
0
41
1
10
-18
20
-1.86182470164047
30
0
41
1
10
-18
20
-1.73996869594836
30
0
41
1
10
-18
20
-1.61763140130913
30
0
41
1
10
-18
20
-1.49484387929499
30
0
41
1
10
-18
20
-1.37164025517353
30
0
41
1
10
-18
20
-1.26895275020124
30
0
41
1
10
-18
20
-1.18606363592943
30
0
41
1
10
-18
20
-1.12406381547396
30
0
41
1
10
-18
20
-1.06198977283731
30
0
41
1
10
-18
20
-0.999845142204208
30
0
41
1
10
-18
20
-0.937636316394475
30
0
41
1
10
-18
20
-0.87536723489913
30
0
41
1
10
-18
20
-0.813044982640463
30
0
41
1
10
-18
20
-0.750672614854494
30
0
41
1
10
-18
20
-0.688256683922077
30
0
41
1
10
-18
20
-0.625800994862885
30
0
41
1
10
-18
20
-0.563310977461924
30
0
41
1
10
-18
20
-0.500790536511772
30
0
41
1
10
-18
20
-0.43824433367962
30
0
41
1
10
-18
20
-0.375676097210004
30
0
41
1
10
-18
20
-0.313089809374958
30
0
41
1
10
-18
20
-0.250488699287644
30
0
41
1
10
-18
20
-0.187876264694836
30
0
41
1
10
-18
20
-0.125255374427184
30
0
41
1
10
-18
20
-0.0626290839053922
30
0
41
1
10
-18
20
-3.20922311E-08
30
0
41
1
10
-18
20
0.0626290271069365
30
0
41
1
10
-18
20
0.125255331589216
30
0
41
1
10
-18
20
0.187876220606341
30
0
41
1
10
-18
20
0.250488634444707
30
0
41
1
10
-18
20
0.313089739834197
30
0
41
1
10
-18
20
0.375676054943824
30
0
41
1
10
-18
20
0.438244302653686
30
0
41
1
10
-18
20
0.500790472931612
30
0
41
1
10
-18
20
0.563310894882505
30
0
41
1
10
-18
20
0.62580094788143
30
0
41
1
10
-18
20
0.688256665460784
30
0
41
1
10
-18
20
0.75067256225924
30
0
41
1
10
-18
20
0.813044890326779
30
0
41
1
10
-18
20
0.875367170941672
30
0
41
1
10
-18
20
0.937636300485195
30
0
41
1
10
-18
20
0.999845111434894
30
0
41
1
10
-18
20
1.06198969497243
30
0
41
1
10
-18
20
1.12406372316545
30
0
41
1
10
-18
20
1.186063589047
30
0
41
1
10
-18
20
1.26895273622944
30
0
41
1
10
-18
20
1.37164017880389
30
0
41
1
10
-18
20
1.49484382588881
30
0
41
1
10
-18
20
1.61763137476078
30
0
41
1
10
-18
20
1.73996860709434
30
0
41
1
10
-18
20
1.86182467095802
30
0
41
1
10
-18
20
1.98317119500538
30
0
41
1
10
-18
20
2.10398004111116
30
0
41
1
10
-18
20
2.20393495183686
30
0
41
1
10
-18
20
2.28404204181248
30
0
41
1
10
-18
20
2.36395705803145
30
0
41
1
10
-18
20
2.4629597502701
30
0
41
1
10
-18
20
2.58140376430018
30
0
41
1
10
-18
20
2.69921210979672
30
0
41
1
10
-18
20
2.81636991600769
30
0
41
1
10
-18
20
2.93286301922586
30
0
41
1
10
-18
20
3.04867826135629
30
0
41
1
10
-18
20
3.1638065993838
30
0
41
1
10
-18
20
3.27823874237262
30
0
41
1
10
-18
20
3.39196474884636
30
0
41
1
10
-18
20
3.50497537086059
30
0
41
1
10
-18
20
3.61726245308643
30
0
41
1
10
-18
20
3.72881992966333
30
0
41
1
10
-18
20
3.83964235720097
30
0
41
1
10
-18
20
3.94972277737918
30
0
41
1
10
-18
20
4.05905436847678
30
0
41
1
10
-18
20
4.16763243265373
30
0
41
1
10
-18
20
4.31169460692027
30
0
41
1
10
-18
20
4.48921431467912
30
0
41
1
10
-18
20
4.69948150824786
30
0
41
1
10
-18
20
4.90663494713598
30
0
41
1
10
-18
20
5.07638402809525
30
0
41
1
10
-18
20
5.2110504888509
30
0
41
1
10
-18
20
5.31107460858115
30
0
41
1
10
-18
20
5.41030022073681
30
0
41
1
10
-18
20
5.50872530998984
30
0
41
1
10
-18
20
5.60634647599673
30
0
41
1
10
-18
20
5.70316105559499
30
0
41
1
10
-18
20
5.79916628067869
30
0
41
1
10
-18
20
5.89435900496744
30
0
41
1
10
-18
20
5.98873701214285
30
0
41
1
10
-18
20
6.08229711859906
30
0
41
1
10
-18
20
6.17503662085343
30
0
41
1
10
-18
20
6.26695319447285
30
0
41
1
10
-18
20
6.35804365721182
30
0
41
1
10
-18
20
6.44830545225392
30
0
41
1
10
-18
20
6.53773584474615
30
0
41
1
10
-18
20
6.62633153834341
30
0
41
1
10
-18
20
6.71409020409422
30
0
41
1
10
-18
20
6.83016810635769
30
0
41
1
10
-18
20
6.97274642193665
30
0
41
1
10
-18
20
7.11249588450139
30
0
41
1
10
-18
20
7.22289882691013
30
0
41
1
10
-18
20
7.3047149669423
30
0
41
1
10
-18
20
7.3856695697848
30
0
41
1
10
-18
20
7.46575986597483
30
0
41
1
10
-18
20
7.54498256644959
30
0
41
1
10
-18
20
7.62333367085023
30
0
41
1
10
-18
20
7.70081041299485
30
0
41
1
10
-18
20
7.80309789738925
30
0
41
1
10
-18
20
7.9284057431208
30
0
41
1
10
-18
20
8.05075299167547
30
0
41
1
10
-18
20
8.14710119768421
30
0
41
1
10
-18
20
8.21835290126668
30
0
41
1
10
-18
20
8.28869944694208
30
0
41
1
10
-18
20
8.35813711319386
30
0
41
1
10
-18
20
8.42666166687422
30
0
41
1
10
-18
20
8.4942680885093
30
0
41
1
10
-18
20
8.56095252446428
30
0
41
1
10
-18
20
8.64876091292308
30
0
41
1
10
-18
20
8.75589865176036
30
0
41
1
10
-18
20
8.85990366278926
30
0
41
1
10
-18
20
8.94142742966559
30
0
41
1
10
-18
20
9.00152152233744
30
0
41
1
10
-18
20
9.06065319401594
30
0
41
1
10
-18
20
9.1188172233754
30
0
41
1
10
-18
20
9.17600806496941
30
0
41
1
10
-18
20
9.23221918172709
30
0
41
1
10
-18
20
9.28744513180197
30
0
41
1
10
-18
20
9.3598674830186
30
0
41
1
10
-18
20
9.44765447086007
30
0
41
1
10
-18
20
9.5320773748978
30
0
41
1
10
-18
20
9.59775041479642
30
0
41
1
10
-18
20
9.6458964026537
30
0
41
1
10
-18
20
9.69300261323349
30
0
41
1
10
-18
20
9.73906156658435
30
0
41
1
10
-18
20
9.78406562726659
30
0
41
1
10
-18
20
9.82800620569321
30
0
41
1
10
-18
20
9.87087543880676
30
0
41
1
10
-18
20
9.91266446536125
30
0
41
1
10
-18
20
9.95336439144063
30
0
41
1
10
-18
20
9.99296649945873
30
0
41
1
10
-18
20
10.0314612764173
30
0
41
1
10
-18
20
10.0688389871438
30
0
41
1
10
-18
20
10.1050900925226
30
0
41
1
10
-18
20
10.1402037914164
30
0
41
1
10
-18
20
10.1741699845987
30
0
41
1
10
-18
20
10.2069776182064
30
0
41
1
10
-18
20
10.2386154290236
30
0
41
1
10
-18
20
10.2690719526608
30
0
41
1
10
-18
20
10.2983352440808
30
0
41
1
10
-18
20
10.3358095016122
30
0
41
1
10
-18
20
10.3706596087076
30
0
41
1
10
-18
20
10.4032013500169
30
0
41
1
10
-18
20
10.4263041143214
30
0
41
1
10
-18
20
10.4481323749746
30
0
41
1
10
-18
20
10.4755678604265
30
0
41
1
10
-18
20
10.506489279177
30
0
41
1
10
-18
20
10.5383008623823
30
0
41
1
10
-18
20
10.5646169600635
30
0
41
1
10
-18
20
10.5818120325131
30
0
41
1
10
-18
20
10.592703485268
30
0
41
1
10
-18
20
10.5993778692674
30
0
41
1
10
-18
20
10.6045521568697
30
0
41
1
10
-18
20
10.6082029107285
30
0
41
1
10
-18
20
10.6103051294408
30
0
41
1
10
-18
20
10.6108322853176
30
0
41
1
10
-18
20
10.6100565225558
30
0
41
1
10
-18
20
10.6092717785657
30
0
41
1
10
-18
20
10.6091546590305
30
0
0
SPLINE
5
C9
100
AcDbEntity
8
SK1
62
256
6
ByLayer
370
-1
48
1
60
0
100
AcDbSpline
70
4
71
3
72
115
73
111
40
0
40
0
40
0
40
0
40
0.0010816361994272
40
0.0051306209564629
40
0.0132285904705342
40
0.0213265599846056
40
0.029424529498677
40
0.0375224990127484
40
0.0456204685268197
40
0.0537184380408911
40
0.0618164075549625
40
0.0699143770690339
40
0.0780123465831052
40
0.0861103160971766
40
0.094208285611248
40
0.102306255125319
40
0.110404224639391
40
0.118502194153462
40
0.126600163667533
40
0.134698133181605
40
0.142796102695676
40
0.158992041723819
40
0.175187980751962
40
0.191383919780104
40
0.207579858808247
40
0.215677828322318
40
0.22377579783639
40
0.231873767350461
40
0.239971736864533
40
0.248069706378604
40
0.256167675892675
40
0.264265645406747
40
0.272363614920818
40
0.28046158443489
40
0.288559553948961
40
0.296657523463032
40
0.304755492977104
40
0.312853462491175
40
0.320951432005246
40
0.329049401519318
40
0.337147371033389
40
0.34524534054746
40
0.353343310061532
40
0.369539249089675
40
0.385735188117817
40
0.393833157631889
40
0.40193112714596
40
0.410029096660032
40
0.418127066174103
40
0.426225035688174
40
0.434323005202246
40
0.442420974716317
40
0.450518944230388
40
0.466714883258531
40
0.482910822286674
40
0.491008791800745
40
0.499106761314817
40
0.507204730828888
40
0.515302700342959
40
0.523400669857031
40
0.531498639371102
40
0.539596608885173
40
0.547694578399245
40
0.563890517427388
40
0.58008645645553
40
0.588184425969602
40
0.596282395483673
40
0.604380364997744
40
0.612478334511816
40
0.620576304025887
40
0.628674273539959
40
0.63677224305403
40
0.644870212568101
40
0.661066151596244
40
0.677262090624387
40
0.685360060138458
40
0.69345802965253
40
0.701555999166601
40
0.709653968680672
40
0.717751938194744
40
0.725849907708815
40
0.733947877222886
40
0.742045846736958
40
0.750143816251029
40
0.7582417857651
40
0.766339755279172
40
0.774437724793243
40
0.782535694307315
40
0.790633663821386
40
0.798731633335457
40
0.806829602849529
40
0.8149275723636
40
0.823025541877672
40
0.831123511391743
40
0.839221480905814
40
0.855417419933957
40
0.863515389448028
40
0.8716133589621
40
0.879711328476171
40
0.887809297990242
40
0.904005237018385
40
0.920201176046528
40
0.936397115074671
40
0.952593054102813
40
0.960691023616885
40
0.968788993130956
40
0.976886962645028
40
0.984984932159099
40
0.99308290167317
40
1
40
1
40
1
40
1
41
1
10
-1.4950399779393
20
2.34749772747685
30
0
41
1
10
-1.4950399779393
20
2.35297422288201
30
0
41
1
10
-1.4950399779393
20
2.37894311658403
30
0
41
1
10
-1.4950399779393
20
2.44578140509637
30
0
41
1
10
-1.4950399779393
20
2.54739957461444
30
0
41
1
10
-1.4950399779393
20
2.66874292602245
30
0
41
1
10
-1.4950399779393
20
2.78936021153859
30
0
41
1
10
-1.4950399779393
20
2.90924160987004
30
0
41
1
10
-1.4950399779393
20
3.02837828417549
30
0
41
1
10
-1.4950399779393
20
3.14676167980997
30
0
41
1
10
-1.4950399779393
20
3.2643857571382
30
0
41
1
10
-1.4950399779393
20
3.38124473142446
30
0
41
1
10
-1.4950399779393
20
3.4973327007406
30
0
41
1
10
-1.4950399779393
20
3.61264412544148
30
0
41
1
10
-1.4950399779393
20
3.72717407208265
30
0
41
1
10
-1.4950399779393
20
3.84091862322862
30
0
41
1
10
-1.4950399779393
20
3.95387458058386
30
0
41
1
10
-1.4950399779393
20
4.06603800642878
30
0
41
1
10
-1.4950399779393
20
4.17740500301781
30
0
41
1
10
-1.4950399779393
20
4.28797249574384
30
0
41
1
10
-1.4950399779393
20
4.43446210322787
30
0
41
1
10
-1.4950399779393
20
4.61526986323273
30
0
41
1
10
-1.4950399779393
20
4.82914716155648
30
0
41
1
10
-1.4950399779393
20
5.03976742322499
30
0
41
1
10
-1.4950399779393
20
5.21243879366801
30
0
41
1
10
-1.4950399779393
20
5.34913288542151
30
0
41
1
10
-1.4950399779393
20
5.4507477456186
30
0
41
1
10
-1.4950399779393
20
5.55153561657562
30
0
41
1
10
-1.4950399779393
20
5.65149504114433
30
0
41
1
10
-1.4950399779393
20
5.75062380699094
30
0
41
1
10
-1.4950399779393
20
5.84891995701895
30
0
41
1
10
-1.4950399779393
20
5.9463816204476
30
0
41
1
10
-1.4950399779393
20
6.0430064968013
30
0
41
1
10
-1.4950399779393
20
6.13879286433351
30
0
41
1
10
-1.4950399779393
20
6.23373849191756
30
0
41
1
10
-1.4950399779393
20
6.32784120271069
30
0
41
1
10
-1.4950399779393
20
6.42109916514164
30
0
41
1
10
-1.4950399779393
20
6.5135100149694
30
0
41
1
10
-1.4950399779393
20
6.60507157996005
30
0
41
1
10
-1.4950399779393
20
6.69578175553812
30
0
41
1
10
-1.4950399779393
20
6.78563788330885
30
0
41
1
10
-1.4950399779393
20
6.87463786848124
30
0
41
1
10
-1.4950399779393
20
6.99224343614395
30
0
41
1
10
-1.4950399779393
20
7.13691288017824
30
0
41
1
10
-1.4950399779393
20
7.27869561996113
30
0
41
1
10
-1.4950399779393
20
7.39051932186584
30
0
41
1
10
-1.4950399779393
20
7.47345537056427
30
0
41
1
10
-1.4950399779393
20
7.5555140988842
30
0
41
1
10
-1.4950399779393
20
7.63669274732661
30
0
41
1
10
-1.4950399779393
20
7.71698851670988
30
0
41
1
10
-1.4950399779393
20
7.79639781976607
30
0
41
1
10
-1.4950399779393
20
7.87491786951264
30
0
41
1
10
-1.4950399779393
20
7.97849120537592
30
0
41
1
10
-1.4950399779393
20
8.10556186458783
30
0
41
1
10
-1.4950399779393
20
8.22962444741844
30
0
41
1
10
-1.4950399779393
20
8.327172542867
30
0
41
1
10
-1.4950399779393
20
8.39937082766957
30
0
41
1
10
-1.4950399779393
20
8.47065099138817
30
0
41
1
10
-1.4950399779393
20
8.54100920456628
30
0
41
1
10
-1.4950399779393
20
8.61044158988983
30
0
41
1
10
-1.4950399779393
20
8.67894338472402
30
0
41
1
10
-1.4950399779393
20
8.74651061840999
30
0
41
1
10
-1.4950399779393
20
8.83540721332508
30
0
41
1
10
-1.4950399779393
20
8.94403649561855
30
0
41
1
10
-1.4950399779393
20
9.04949074686073
30
0
41
1
10
-1.4950399779393
20
9.13202745573767
30
0
41
1
10
-1.4950399779393
20
9.19292021412031
30
0
41
1
10
-1.4950399779393
20
9.25283893648347
30
0
41
1
10
-1.4950399779393
20
9.31177821550872
30
0
41
1
10
-1.4950399779393
20
9.36973271501176
30
0
41
1
10
-1.4950399779393
20
9.42669603797344
30
0
41
1
10
-1.4950399779393
20
9.48266255671325
30
0
41
1
10
-1.4950399779393
20
9.55599654096136
30
0
41
1
10
-1.4950399779393
20
9.64502982606291
30
0
41
1
10
-1.4950399779393
20
9.73065760658244
30
0
41
1
10
-1.4950399779393
20
9.79716969120636
30
0
41
1
10
-1.4950399779393
20
9.84597558117031
30
0
41
1
10
-1.4950399779393
20
9.89373009862075
30
0
41
1
10
-1.4950399779393
20
9.94042555998314
30
0
41
1
10
-1.4950399779393
20
9.9860543664019
30
0
41
1
10
-1.4950399779393
20
10.0306078864835
30
0
41
1
10
-1.4950399779393
20
10.0740780611422
30
0
41
1
10
-1.4950399779393
20
10.1164560590941
30
0
41
1
10
-1.4950399779393
20
10.1577327882333
30
0
41
1
10
-1.4950399779393
20
10.1978993278187
30
0
41
1
10
-1.4950399779393
20
10.2369461506972
30
0
41
1
10
-1.4950399779393
20
10.2748632577403
30
0
41
1
10
-1.4950399779393
20
10.3116409871695
30
0
41
1
10
-1.4950399779393
20
10.3472683849274
30
0
41
1
10
-1.4950399779393
20
10.3817350419115
30
0
41
1
10
-1.4950399779393
20
10.4150297473557
30
0
41
1
10
-1.4950399779393
20
10.4471409666571
30
0
41
1
10
-1.4950399779393
20
10.4780569204745
30
0
41
1
10
-1.4950399779393
20
10.5077654424246
30
0
41
1
10
-1.4950399779393
20
10.5457784712346
30
0
41
1
10
-1.4950399779393
20
10.5812410164663
30
0
41
1
10
-1.4950399779393
20
10.6142632847113
30
0
41
1
10
-1.4950399779393
20
10.6377347714484
30
0
41
1
10
-1.4950399779393
20
10.659915174236
30
0
41
1
10
-1.4950399779393
20
10.6877698864739
30
0
41
1
10
-1.4950399779393
20
10.719232045291
30
0
41
1
10
-1.4950399779393
20
10.751585043016
30
0
41
1
10
-1.4950399779393
20
10.7783612166035
30
0
41
1
10
-1.4950399779393
20
10.7958810461951
30
0
41
1
10
-1.4950399779393
20
10.8069598479051
30
0
41
1
10
-1.4950399779393
20
10.8137591702554
30
0
41
1
10
-1.4950399779393
20
10.8190319435411
30
0
41
1
10
-1.4950399779393
20
10.8227533881918
30
0
41
1
10
-1.4950399779393
20
10.8247928606477
30
0
41
1
10
-1.4950399779393
20
10.8251975917409
30
0
41
1
10
-1.4950399779393
20
10.8251856487041
30
0
0
SPLINE
5
CA
100
AcDbEntity
8
SK1
62
256
6
ByLayer
370
-1
48
1
60
0
100
AcDbSpline
70
4
71
3
72
114
73
110
40
0
40
0
40
0
40
0
40
0.0069476261645512
40
0.0150453467573701
40
0.0231430673501889
40
0.0312407879430078
40
0.0393385085358266
40
0.0474362291286455
40
0.0636316703142831
40
0.0798271114999208
40
0.0960225526855585
40
0.112217993871196
40
0.120315714464015
40
0.128413435056834
40
0.136511155649653
40
0.144608876242472
40
0.160804317428109
40
0.168902038020928
40
0.176999758613747
40
0.185097479206566
40
0.193195199799385
40
0.201292920392203
40
0.209390640985022
40
0.217488361577841
40
0.22558608217066
40
0.233683802763479
40
0.241781523356298
40
0.249879243949117
40
0.257976964541935
40
0.266074685134754
40
0.274172405727573
40
0.282270126320392
40
0.290367846913211
40
0.298465567506029
40
0.306563288098848
40
0.314661008691667
40
0.322758729284486
40
0.338954170470124
40
0.355149611655761
40
0.36324733224858
40
0.371345052841399
40
0.379442773434218
40
0.387540494027037
40
0.395638214619856
40
0.403735935212674
40
0.411833655805493
40
0.419931376398312
40
0.43612681758395
40
0.452322258769587
40
0.460419979362406
40
0.468517699955225
40
0.476615420548044
40
0.484713141140863
40
0.492810861733682
40
0.500908582326501
40
0.509006302919319
40
0.517104023512138
40
0.533299464697776
40
0.549494905883414
40
0.557592626476232
40
0.565690347069051
40
0.57378806766187
40
0.581885788254689
40
0.589983508847508
40
0.598081229440327
40
0.606178950033146
40
0.614276670625964
40
0.630472111811602
40
0.64666755299724
40
0.654765273590059
40
0.662862994182877
40
0.670960714775696
40
0.679058435368515
40
0.687156155961334
40
0.695253876554153
40
0.703351597146971
40
0.71144931773979
40
0.719547038332609
40
0.727644758925428
40
0.735742479518247
40
0.743840200111066
40
0.751937920703885
40
0.760035641296704
40
0.768133361889522
40
0.776231082482341
40
0.78432880307516
40
0.792426523667979
40
0.808621964853616
40
0.824817406039254
40
0.841012847224892
40
0.85720828841053
40
0.873403729596167
40
0.881501450188986
40
0.889599170781805
40
0.897696891374624
40
0.905794611967443
40
0.913892332560262
40
0.92199005315308
40
0.930087773745899
40
0.938185494338718
40
0.946283214931537
40
0.954380935524356
40
0.962478656117174
40
0.970576376709993
40
0.978674097302812
40
0.986771817895631
40
0.99486953848845
40
0.998918398784859
40
1
40
1
40
1
40
1
41
1
10
-1.4950399779393
20
-10.8251853681427
30
0
41
1
10
-1.4950399779393
20
-10.8251991354576
30
0
41
1
10
-1.4950399779393
20
-10.8247955073056
30
0
41
1
10
-1.4950399779393
20
-10.8227534746688
30
0
41
1
10
-1.4950399779393
20
-10.8190321898994
30
0
41
1
10
-1.4950399779393
20
-10.8137595050794
30
0
41
1
10
-1.4950399779393
20
-10.8069601105976
30
0
41
1
10
-1.4950399779393
20
-10.7958810888031
30
0
41
1
10
-1.4950399779393
20
-10.7783612085532
30
0
41
1
10
-1.4950399779393
20
-10.7515850402438
30
0
41
1
10
-1.4950399779393
20
-10.7192320300799
30
0
41
1
10
-1.4950399779393
20
-10.6877698984218
30
0
41
1
10
-1.4950399779393
20
-10.659915170864
30
0
41
1
10
-1.4950399779393
20
-10.6377347570968
30
0
41
1
10
-1.4950399779393
20
-10.6142632763632
30
0
41
1
10
-1.4950399779393
20
-10.5812410280458
30
0
41
1
10
-1.4950399779393
20
-10.5457784732404
30
0
41
1
10
-1.4950399779393
20
-10.5077654352017
30
0
41
1
10
-1.4950399779393
20
-10.4780569133
30
0
41
1
10
-1.4950399779393
20
-10.4471409696622
30
0
41
1
10
-1.4950399779393
20
-10.4150297588919
30
0
41
1
10
-1.4950399779393
20
-10.3817350495075
30
0
41
1
10
-1.4950399779393
20
-10.3472683821575
30
0
41
1
10
-1.4950399779393
20
-10.3116409824532
30
0
41
1
10
-1.4950399779393
20
-10.274863259213
30
0
41
1
10
-1.4950399779393
20
-10.2369461598887
30
0
41
1
10
-1.4950399779393
20
-10.1978993403383
30
0
41
1
10
-1.4950399779393
20
-10.1577327948517
30
0
41
1
10
-1.4950399779393
20
-10.1164560583904
30
0
41
1
10
-1.4950399779393
20
-10.0740780611805
30
0
41
1
10
-1.4950399779393
20
-10.0306078935895
30
0
41
1
10
-1.4950399779393
20
-9.9860543789782
30
0
41
1
10
-1.4950399779393
20
-9.94042557325719
30
0
41
1
10
-1.4950399779393
20
-9.89373010726783
30
0
41
1
10
-1.4950399779393
20
-9.84597558452433
30
0
41
1
10
-1.4950399779393
20
-9.79716969618076
30
0
41
1
10
-1.4950399779393
20
-9.73065761931014
30
0
41
1
10
-1.4950399779393
20
-9.64502984201664
30
0
41
1
10
-1.4950399779393
20
-9.55599654929009
30
0
41
1
10
-1.4950399779393
20
-9.48266256563366
30
0
41
1
10
-1.4950399779393
20
-9.42669605087167
30
0
41
1
10
-1.4950399779393
20
-9.36973273113713
30
0
41
1
10
-1.4950399779393
20
-9.31177823255615
30
0
41
1
10
-1.4950399779393
20
-9.25283895193832
30
0
41
1
10
-1.4950399779393
20
-9.19292022720256
30
0
41
1
10
-1.4950399779393
20
-9.13202746880455
30
0
41
1
10
-1.4950399779393
20
-9.04949076260129
30
0
41
1
10
-1.4950399779393
20
-8.94403651531519
30
0
41
1
10
-1.4950399779393
20
-8.83540723159925
30
0
41
1
10
-1.4950399779393
20
-8.74651063563283
30
0
41
1
10
-1.4950399779393
20
-8.67894340179043
30
0
41
1
10
-1.4950399779393
20
-8.61044160824594
30
0
41
1
10
-1.4950399779393
20
-8.5410092251428
30
0
41
1
10
-1.4950399779393
20
-8.47065101373664
30
0
41
1
10
-1.4950399779393
20
-8.39937085059915
30
0
41
1
10
-1.4950399779393
20
-8.32717256436729
30
0
41
1
10
-1.4950399779393
20
-8.22962446603972
30
0
41
1
10
-1.4950399779393
20
-8.10556188703811
30
0
41
1
10
-1.4950399779393
20
-7.97849123285059
30
0
41
1
10
-1.4950399779393
20
-7.87491789553505
30
0
41
1
10
-1.4950399779393
20
-7.79639784158888
30
0
41
1
10
-1.4950399779393
20
-7.71698853718178
30
0
41
1
10
-1.4950399779393
20
-7.63669277063221
30
0
41
1
10
-1.4950399779393
20
-7.55551412703409
30
0
41
1
10
-1.4950399779393
20
-7.47345540258758
30
0
41
1
10
-1.4950399779393
20
-7.39051935158955
30
0
41
1
10
-1.4950399779393
20
-7.27869564084133
30
0
41
1
10
-1.4950399779393
20
-7.13691290674728
30
0
41
1
10
-1.4950399779393
20
-6.99224347204341
30
0
41
1
10
-1.4950399779393
20
-6.87463790137696
30
0
41
1
10
-1.4950399779393
20
-6.78563790735643
30
0
41
1
10
-1.4950399779393
20
-6.69578177753257
30
0
41
1
10
-1.4950399779393
20
-6.60507160913491
30
0
41
1
10
-1.4950399779393
20
-6.51351005185586
30
0
41
1
10
-1.4950399779393
20
-6.42109920426941
30
0
41
1
10
-1.4950399779393
20
-6.32784123546003
30
0
41
1
10
-1.4950399779393
20
-6.23373851513244
30
0
41
1
10
-1.4950399779393
20
-6.13879288798532
30
0
41
1
10
-1.4950399779393
20
-6.04300653314334
30
0
41
1
10
-1.4950399779393
20
-5.94638166396857
30
0
41
1
10
-1.4950399779393
20
-5.84891999499698
30
0
41
1
10
-1.4950399779393
20
-5.75062383535882
30
0
41
1
10
-1.4950399779393
20
-5.65149506497363
30
0
41
1
10
-1.4950399779393
20
-5.5515356485646
30
0
41
1
10
-1.4950399779393
20
-5.45074779186143
30
0
41
1
10
-1.4950399779393
20
-5.34913293126229
30
0
41
1
10
-1.4950399779393
20
-5.21243881483207
30
0
41
1
10
-1.4950399779393
20
-5.03976746321263
30
0
41
1
10
-1.4950399779393
20
-4.82914721456726
30
0
41
1
10
-1.4950399779393
20
-4.61526983908041
30
0
41
1
10
-1.4950399779393
20
-4.39815363484092
30
0
41
1
10
-1.4950399779393
20
-4.21466878117025
30
0
41
1
10
-1.4950399779393
20
-4.06603787841615
30
0
41
1
10
-1.4950399779393
20
-3.9538749194972
30
0
41
1
10
-1.4950399779393
20
-3.84091905980895
30
0
41
1
10
-1.4950399779393
20
-3.72717408116662
30
0
41
1
10
-1.4950399779393
20
-3.61264394142361
30
0
41
1
10
-1.4950399779393
20
-3.49733277811788
30
0
41
1
10
-1.4950399779393
20
-3.38124503613648
30
0
41
1
10
-1.4950399779393
20
-3.26438606521717
30
0
41
1
10
-1.4950399779393
20
-3.1467617159237
30
0
41
1
10
-1.4950399779393
20
-3.02837792756958
30
0
41
1
10
-1.4950399779393
20
-2.90924142661461
30
0
41
1
10
-1.4950399779393
20
-2.78936037077261
30
0
41
1
10
-1.4950399779393
20
-2.66874317257182
30
0
41
1
10
-1.4950399779393
20
-2.54739968477233
30
0
41
1
10
-1.4950399779393
20
-2.44578144693816
30
0
41
1
10
-1.4950399779393
20
-2.37894315632079
30
0
41
1
10
-1.4950399779393
20
-2.35297427447952
30
0
41
1
10
-1.4950399779393
20
-2.34749778874223
30
0
0
SPLINE
5
CB
100
AcDbEntity
8
SK1
62
256
6
ByLayer
370
-1
48
1
60
0
100
AcDbSpline
70
4
71
3
72
280
73
276
40
0
40
0
40
0
40
0
40
0.0015538582520081
40
0.0050640558945289
40
0.0085742535370497
40
0.0120844511795704
40
0.0155946488220912
40
0.0191048464646119
40
0.0226150441071326
40
0.0296354393921741
40
0.0366558346772156
40
0.0436762299622571
40
0.0506966252472985
40
0.0542068228898193
40
0.05771702053234
40
0.0612272181748607
40
0.0647374158173815
40
0.0717578111024229
40
0.0752680087449437
40
0.0787782063874645
40
0.0822884040299852
40
0.0857986016725058
40
0.0893087993150267
40
0.0928189969575474
40
0.0963291946000681
40
0.0998393922425889
40
0.10334958988511
40
0.10685978752763
40
0.110369985170151
40
0.113880182812672
40
0.117390380455193
40
0.120900578097713
40
0.124410775740234
40
0.127920973382755
40
0.131431171025275
40
0.134941368667796
40
0.138451566310317
40
0.141961763952838
40
0.148982159237879
40
0.156002554522921
40
0.159512752165441
40
0.163022949807962
40
0.166533147450483
40
0.170043345093004
40
0.173553542735524
40
0.177063740378045
40
0.180573938020566
40
0.184084135663087
40
0.191104530948128
40
0.19812492623317
40
0.20163512387569
40
0.205145321518211
40
0.208655519160732
40
0.212165716803253
40
0.215675914445773
40
0.219186112088294
40
0.222696309730815
40
0.226206507373335
40
0.233226902658377
40
0.240247297943418
40
0.243757495585939
40
0.24726769322846
40
0.250777890870981
40
0.254288088513501
40
0.257798286156022
40
0.261308483798543
40
0.264818681441064
40
0.268328879083584
40
0.275349274368626
40
0.282369669653667
40
0.285879867296188
40
0.289390064938709
40
0.292900262581229
40
0.29641046022375
40
0.299920657866271
40
0.303430855508792
40
0.306941053151312
40
0.310451250793833
40
0.313961448436354
40
0.317471646078875
40
0.320981843721395
40
0.324492041363916
40
0.328002239006437
40
0.331512436648958
40
0.335022634291478
40
0.338532831933999
40
0.34204302957652
40
0.345553227219041
40
0.352573622504082
40
0.359594017789124
40
0.366614413074165
40
0.373634808359206
40
0.380655203644248
40
0.384165401286769
40
0.387675598929289
40
0.39118579657181
40
0.394695994214331
40
0.398206191856852
40
0.401716389499372
40
0.405226587141893
40
0.408736784784414
40
0.412246982426935
40
0.415757180069455
40
0.419267377711976
40
0.422777575354497
40
0.426287772997018
40
0.429797970639538
40
0.433308168282059
40
0.435063267103319
40
0.43681836592458
40
0.4403285635671
40
0.443838761209621
40
0.447348958852142
40
0.450859156494663
40
0.454369354137183
40
0.457879551779704
40
0.461389749422225
40
0.464899947064746
40
0.466655045886006
40
0.468410144707266
40
0.470165243528527
40
0.471920342349787
40
0.473675441171047
40
0.475430539992308
40
0.477185638813568
40
0.478940737634829
40
0.480695836456089
40
0.482450935277349
40
0.48420603409861
40
0.48596113291987
40
0.48771623174113
40
0.489471330562391
40
0.491226429383651
40
0.492981528204912
40
0.494736627026172
40
0.496491725847433
40
0.498246824668693
40
0.500001923489953
40
0.501757022311213
40
0.503512121132474
40
0.505267219953734
40
0.507022318774995
40
0.508777417596255
40
0.510532516417515
40
0.512287615238776
40
0.514042714060036
40
0.515797812881296
40
0.517552911702557
40
0.519308010523817
40
0.521063109345077
40
0.522818208166338
40
0.524573306987598
40
0.526328405808859
40
0.528083504630119
40
0.529838603451379
40
0.53159370227264
40
0.5333488010939
40
0.535103899915161
40
0.538614097557681
40
0.542124295200202
40
0.545634492842723
40
0.549144690485243
40
0.552654888127764
40
0.556165085770285
40
0.559675283412806
40
0.563185481055326
40
0.564940579876587
40
0.566695678697847
40
0.570205876340368
40
0.573716073982888
40
0.577226271625409
40
0.58073646926793
40
0.584246666910451
40
0.587756864552972
40
0.591267062195492
40
0.594777259838013
40
0.598287457480534
40
0.601797655123055
40
0.605307852765575
40
0.608818050408096
40
0.612328248050617
40
0.615838445693137
40
0.619348643335658
40
0.622858840978179
40
0.6263690386207
40
0.633389433905741
40
0.640409829190783
40
0.647430224475824
40
0.654450619760866
40
0.657960817403386
40
0.661471015045907
40
0.664981212688428
40
0.668491410330949
40
0.672001607973469
40
0.67551180561599
40
0.679022003258511
40
0.682532200901032
40
0.686042398543552
40
0.689552596186073
40
0.693062793828594
40
0.696572991471115
40
0.700083189113635
40
0.703593386756156
40
0.707103584398677
40
0.710613782041197
40
0.714123979683718
40
0.717634177326239
40
0.72465457261128
40
0.731674967896322
40
0.735185165538843
40
0.738695363181363
40
0.742205560823884
40
0.745715758466405
40
0.749225956108926
40
0.752736153751446
40
0.756246351393967
40
0.759756549036488
40
0.766776944321529
40
0.773797339606571
40
0.777307537249092
40
0.780817734891612
40
0.784327932534133
40
0.787838130176654
40
0.791348327819175
40
0.794858525461695
40
0.798368723104216
40
0.801878920746737
40
0.808899316031778
40
0.81591971131682
40
0.819429908959341
40
0.822940106601861
40
0.826450304244382
40
0.829960501886903
40
0.833470699529423
40
0.836980897171944
40
0.840491094814465
40
0.844001292456986
40
0.851021687742027
40
0.858042083027069
40
0.861552280669589
40
0.86506247831211
40
0.868572675954631
40
0.872082873597152
40
0.875593071239672
40
0.879103268882193
40
0.882613466524714
40
0.886123664167234
40
0.889633861809755
40
0.893144059452276
40
0.896654257094797
40
0.900164454737317
40
0.903674652379838
40
0.907184850022359
40
0.91069504766488
40
0.9142052453074
40
0.917715442949921
40
0.921225640592442
40
0.924735838234962
40
0.928246035877483
40
0.935266431162525
40
0.938776628805045
40
0.942286826447566
40
0.945797024090087
40
0.949307221732608
40
0.956327617017649
40
0.963348012302691
40
0.970368407587732
40
0.977388802872774
40
0.980899000515294
40
0.984409198157815
40
0.987919395800336
40
0.991429593442857
40
0.994939791085377
40
0.998449988727898
40
1
40
1
40
1
40
1
41
1
10
-19
20
-10.0329562507339
30
0
41
1
10
-19
20
-10.0330937727382
30
0
41
1
10
-19
20
-10.0333795946589
30
0
41
1
10
-19
20
-10.0329736292638
30
0
41
1
10
-19
20
-10.0309830775664
30
0
41
1
10
-19
20
-10.0275226633951
30
0
41
1
10
-19
20
-10.0226134495803
30
0
41
1
10
-19
20
-10.0162751664439
30
0
41
1
10
-19
20
-10.0058875348545
30
0
41
1
10
-19
20
-9.98956609173456
30
0
41
1
10
-19
20
-9.9644877669829
30
0
41
1
10
-19
20
-9.93413277211897
30
0
41
1
10
-19
20
-9.90466617231215
30
0
41
1
10
-19
20
-9.87835855867948
30
0
41
1
10
-19
20
-9.85747766874042
30
0
41
1
10
-19
20
-9.83536689762977
30
0
41
1
10
-19
20
-9.80411797985391
30
0
41
1
10
-19
20
-9.77091555985692
30
0
41
1
10
-19
20
-9.73489077939223
30
0
41
1
10
-19
20
-9.70682531106701
30
0
41
1
10
-19
20
-9.67760483131215
30
0
41
1
10
-19
20
-9.64724068471727
30
0
41
1
10
-19
20
-9.6157434616903
30
0
41
1
10
-19
20
-9.58312368489487
30
0
41
1
10
-19
20
-9.54939200999823
30
0
41
1
10
-19
20
-9.51455771866412
30
0
41
1
10
-19
20
-9.47863119608741
30
0
41
1
10
-19
20
-9.4416216418046
30
0
41
1
10
-19
20
-9.40353806264943
30
0
41
1
10
-19
20
-9.36438993231127
30
0
41
1
10
-19
20
-9.32418544446557
30
0
41
1
10
-19
20
-9.28293297227461
30
0
41
1
10
-19
20
-9.24064144704931
30
0
41
1
10
-19
20
-9.19731819280184
30
0
41
1
10
-19
20
-9.1529716782799
30
0
41
1
10
-19
20
-9.10760963710959
30
0
41
1
10
-19
20
-9.06123902108874
30
0
41
1
10
-19
20
-8.99782333228856
30
0
41
1
10
-19
20
-8.91664200511912
30
0
41
1
10
-19
20
-8.83220800680829
30
0
41
1
10
-19
20
-8.76223827415896
30
0
41
1
10
-19
20
-8.70900473105829
30
0
41
1
10
-19
20
-8.65481733532434
30
0
41
1
10
-19
20
-8.59968102157819
30
0
41
1
10
-19
20
-8.5436026997406
30
0
41
1
10
-19
20
-8.48658847771898
30
0
41
1
10
-19
20
-8.42864308493384
30
0
41
1
10
-19
20
-8.34984450729289
30
0
41
1
10
-19
20
-8.24973849608213
30
0
41
1
10
-19
20
-8.1466135609819
30
0
41
1
10
-19
20
-8.06173284490114
30
0
41
1
10
-19
20
-7.99742345663478
30
0
41
1
10
-19
20
-7.93222591806958
30
0
41
1
10
-19
20
-7.86614377003909
30
0
41
1
10
-19
20
-7.79918272035923
30
0
41
1
10
-19
20
-7.73134795661787
30
0
41
1
10
-19
20
-7.66264290479879
30
0
41
1
10
-19
20
-7.56952283231723
30
0
41
1
10
-19
20
-7.45179046448189
30
0
41
1
10
-19
20
-7.33122525294459
30
0
41
1
10
-19
20
-7.23239719005699
30
0
41
1
10
-19
20
-7.15772731741785
30
0
41
1
10
-19
20
-7.08222314311982
30
0
41
1
10
-19
20
-7.00588739266459
30
0
41
1
10
-19
20
-6.92872517773969
30
0
41
1
10
-19
20
-6.8507410999662
30
0
41
1
10
-19
20
-6.77193793275302
30
0
41
1
10
-19
20
-6.66535732677102
30
0
41
1
10
-19
20
-6.5310781219363
30
0
41
1
10
-19
20
-6.39412574741868
30
0
41
1
10
-19
20
-6.28215784138942
30
0
41
1
10
-19
20
-6.19773875078891
30
0
41
1
10
-19
20
-6.11253406080701
30
0
41
1
10
-19
20
-6.02654676803036
30
0
41
1
10
-19
20
-5.93978186598008
30
0
41
1
10
-19
20
-5.85224375649918
30
0
41
1
10
-19
20
-5.76393600430757
30
0
41
1
10
-19
20
-5.67486399066652
30
0
41
1
10
-19
20
-5.58503142050256
30
0
41
1
10
-19
20
-5.49444245957596
30
0
41
1
10
-19
20
-5.40310280117828
30
0
41
1
10
-19
20
-5.31101593014734
30
0
41
1
10
-19
20
-5.2181872813623
30
0
41
1
10
-19
20
-5.12462207475713
30
0
41
1
10
-19
20
-5.03032492286113
30
0
41
1
10
-19
20
-4.93530242964377
30
0
41
1
10
-19
20
-4.83955802089457
30
0
41
1
10
-19
20
-4.71034653885877
30
0
41
1
10
-19
20
-4.54845950265877
30
0
41
1
10
-19
20
-4.35063320532774
30
0
41
1
10
-19
20
-4.15007820921215
30
0
41
1
10
-19
20
-3.94685681236828
30
0
41
1
10
-19
20
-3.77604855813308
30
0
41
1
10
-19
20
-3.63679046418028
30
0
41
1
10
-19
20
-3.53231619129491
30
0
41
1
10
-19
20
-3.42723503898236
30
0
41
1
10
-19
20
-3.32155992301486
30
0
41
1
10
-19
20
-3.2153054606147
30
0
41
1
10
-19
20
-3.10848576848568
30
0
41
1
10
-19
20
-3.00111573414051
30
0
41
1
10
-19
20
-2.89321317852722
30
0
41
1
10
-19
20
-2.78479835655281
30
0
41
1
10
-19
20
-2.67589021302877
30
0
41
1
10
-19
20
-2.56650912624585
30
0
41
1
10
-19
20
-2.45668069003122
30
0
41
1
10
-19
20
-2.34643018241178
30
0
41
1
10
-19
20
-2.23578586879043
30
0
41
1
10
-19
20
-2.14381940674534
30
0
41
1
10
-19
20
-2.06905901211775
30
0
41
1
10
-19
20
-1.99420804195603
30
0
41
1
10
-19
20
-1.90180866816084
30
0
41
1
10
-19
20
-1.78992235940532
30
0
41
1
10
-19
20
-1.67782006325021
30
0
41
1
10
-19
20
-1.56555014993987
30
0
41
1
10
-19
20
-1.45315823265884
30
0
41
1
10
-19
20
-1.34069259518992
30
0
41
1
10
-19
20
-1.22820431977141
30
0
41
1
10
-19
20
-1.13522914745167
30
0
41
1
10
-19
20
-1.05947688607969
30
0
41
1
10
-19
20
-1.00330201206953
30
0
41
1
10
-19
20
-0.947161044590956
30
0
41
1
10
-19
20
-0.891055246744145
30
0
41
1
10
-19
20
-0.834992891996194
30
0
41
1
10
-19
20
-0.778974983835127
30
0
41
1
10
-19
20
-0.723010172894845
30
0
41
1
10
-19
20
-0.667096437512413
30
0
41
1
10
-19
20
-0.611239537520476
30
0
41
1
10
-19
20
-0.555438256952783
30
0
41
1
10
-19
20
-0.499694285660439
30
0
41
1
10
-19
20
-0.444005417542485
30
0
41
1
10
-19
20
-0.388370253126254
30
0
41
1
10
-19
20
-0.332784951295196
30
0
41
1
10
-19
20
-0.27724537907406
30
0
41
1
10
-19
20
-0.221745399560149
30
0
41
1
10
-19
20
-0.166278832055241
30
0
41
1
10
-19
20
-0.110837824934066
30
0
41
1
10
-19
20
-0.0554145387399103
30
0
41
1
10
-19
20
-3.86551449E-08
30
0
41
1
10
-19
20
0.0554144797882259
30
0
41
1
10
-19
20
0.110837800625205
30
0
41
1
10
-19
20
0.166278804490219
30
0
41
1
10
-19
20
0.221745320409724
30
0
41
1
10
-19
20
0.277245288582179
30
0
41
1
10
-19
20
0.332784928641019
30
0
41
1
10
-19
20
0.388370257726166
30
0
41
1
10
-19
20
0.444005340907694
30
0
41
1
10
-19
20
0.499694162742941
30
0
41
1
10
-19
20
0.555438223077687
30
0
41
1
10
-19
20
0.611239573198077
30
0
41
1
10
-19
20
0.667096387172222
30
0
41
1
10
-19
20
0.72301002513845
30
0
41
1
10
-19
20
0.778974908352097
30
0
41
1
10
-19
20
0.834992934518169
30
0
41
1
10
-19
20
0.891055249962079
30
0
41
1
10
-19
20
0.947160931144765
30
0
41
1
10
-19
20
1.00330186501549
30
0
41
1
10
-19
20
1.05947685359391
30
0
41
1
10
-19
20
1.13522919275331
30
0
41
1
10
-19
20
1.22820420682382
30
0
41
1
10
-19
20
1.34069255012383
30
0
41
1
10
-19
20
1.45315824122116
30
0
41
1
10
-19
20
1.56555001007138
30
0
41
1
10
-19
20
1.67782007270242
30
0
41
1
10
-19
20
1.78992235147862
30
0
41
1
10
-19
20
1.90180851379787
30
0
41
1
10
-19
20
1.99420801826724
30
0
41
1
10
-19
20
2.0690590907827
30
0
41
1
10
-19
20
2.14381939218558
30
0
41
1
10
-19
20
2.23578548610092
30
0
41
1
10
-19
20
2.34642921347091
30
0
41
1
10
-19
20
2.45668047453484
30
0
41
1
10
-19
20
2.56651081363336
30
0
41
1
10
-19
20
2.67589173582562
30
0
41
1
10
-19
20
2.7847976980388
30
0
41
1
10
-19
20
2.89321157705834
30
0
41
1
10
-19
20
3.00111464897742
30
0
41
1
10
-19
20
3.1084861044454
30
0
41
1
10
-19
20
3.21530671882519
30
0
41
1
10
-19
20
3.32155966873089
30
0
41
1
10
-19
20
3.42723310824633
30
0
41
1
10
-19
20
3.53231555384821
30
0
41
1
10
-19
20
3.63679192068699
30
0
41
1
10
-19
20
3.74064752046888
30
0
41
1
10
-19
20
3.84387328825898
30
0
41
1
10
-19
20
3.98140477206883
30
0
41
1
10
-19
20
4.15007840683617
30
0
41
1
10
-19
20
4.35063308740936
30
0
41
1
10
-19
20
4.548459494648
30
0
41
1
10
-19
20
4.710346539319
30
0
41
1
10
-19
20
4.83955792501368
30
0
41
1
10
-19
20
4.93530236631196
30
0
41
1
10
-19
20
5.03032492621836
30
0
41
1
10
-19
20
5.1246220876952
30
0
41
1
10
-19
20
5.21818725421468
30
0
41
1
10
-19
20
5.3110158630366
30
0
41
1
10
-19
20
5.40310273191946
30
0
41
1
10
-19
20
5.494442439056
30
0
41
1
10
-19
20
5.58503143754709
30
0
41
1
10
-19
20
5.67486398126673
30
0
41
1
10
-19
20
5.76393594987684
30
0
41
1
10
-19
20
5.85224369296404
30
0
41
1
10
-19
20
5.93978182754935
30
0
41
1
10
-19
20
6.02654676214735
30
0
41
1
10
-19
20
6.11253406622629
30
0
41
1
10
-19
20
6.19773872711932
30
0
41
1
10
-19
20
6.28215778589691
30
0
41
1
10
-19
20
6.39412570491888
30
0
41
1
10
-19
20
6.53107811386184
30
0
41
1
10
-19
20
6.66535731095081
30
0
41
1
10
-19
20
6.77193788641881
30
0
41
1
10
-19
20
6.85074105917917
30
0
41
1
10
-19
20
6.9287251573476
30
0
41
1
10
-19
20
7.00588738465538
30
0
41
1
10
-19
20
7.0822231340785
30
0
41
1
10
-19
20
7.15772729389116
30
0
41
1
10
-19
20
7.23239715387311
30
0
41
1
10
-19
20
7.33122522366617
30
0
41
1
10
-19
20
7.45179045110856
30
0
41
1
10
-19
20
7.5695228179415
30
0
41
1
10
-19
20
7.66264287890505
30
0
41
1
10
-19
20
7.73134792995933
30
0
41
1
10
-19
20
7.7991826988324
30
0
41
1
10
-19
20
7.86614375440624
30
0
41
1
10
-19
20
7.9322259062088
30
0
41
1
10
-19
20
7.99742344377475
30
0
41
1
10
-19
20
8.06173282830702
30
0
41
1
10
-19
20
8.14661354012861
30
0
41
1
10
-19
20
8.24973847707108
30
0
41
1
10
-19
20
8.34984449752756
30
0
41
1
10
-19
20
8.4286430769059
30
0
41
1
10
-19
20
8.48658846431246
30
0
41
1
10
-19
20
8.54360267942897
30
0
41
1
10
-19
20
8.59968100131871
30
0
41
1
10
-19
20
8.65481732154311
30
0
41
1
10
-19
20
8.70900472624047
30
0
41
1
10
-19
20
8.76223827352649
30
0
41
1
10
-19
20
8.83220799572914
30
0
41
1
10
-19
20
8.91664198437633
30
0
41
1
10
-19
20
8.99782332638691
30
0
41
1
10
-19
20
9.06123902658183
30
0
41
1
10
-19
20
9.10760963443713
30
0
41
1
10
-19
20
9.15297166047549
30
0
41
1
10
-19
20
9.19731817256692
30
0
41
1
10
-19
20
9.24064143684652
30
0
41
1
10
-19
20
9.2829329762028
30
0
41
1
10
-19
20
9.32418545496637
30
0
41
1
10
-19
20
9.36438993128212
30
0
41
1
10
-19
20
9.4035380444378
30
0
41
1
10
-19
20
9.44162162340905
30
0
41
1
10
-19
20
9.47863119327923
30
0
41
1
10
-19
20
9.51455772901525
30
0
41
1
10
-19
20
9.54939202150851
30
0
41
1
10
-19
20
9.58312368103438
30
0
41
1
10
-19
20
9.61574344204712
30
0
41
1
10
-19
20
9.6472406728098
30
0
41
1
10
-19
20
9.67760484023773
30
0
41
1
10
-19
20
9.70682532727795
30
0
41
1
10
-19
20
9.7348907843963
30
0
41
1
10
-19
20
9.77091554851933
30
0
41
1
10
-19
20
9.8041179711955
30
0
41
1
10
-19
20
9.83536691785611
30
0
41
1
10
-19
20
9.85747768285276
30
0
41
1
10
-19
20
9.8783585513138
30
0
41
1
10
-19
20
9.90466616212436
30
0
41
1
10
-19
20
9.93413279070074
30
0
41
1
10
-19
20
9.96448776920468
30
0
41
1
10
-19
20
9.9895660930479
30
0
41
1
10
-19
20
10.0058874490332
30
0
41
1
10
-19
20
10.0162748640149
30
0
41
1
10
-19
20
10.0226131177802
30
0
41
1
10
-19
20
10.0275224425778
30
0
41
1
10
-19
20
10.0309830121398
30
0
41
1
10
-19
20
10.0329737078169
30
0
41
1
10
-19
20
10.0333795364933
30
0
41
1
10
-19
20
10.0330943034796
30
0
41
1
10
-19
20
10.0329573564703
30
0
0
SPLINE
5
CC
100
AcDbEntity
8
SK1
62
256
6
ByLayer
370
-1
48
1
60
0
100
AcDbSpline
70
4
71
3
72
87
73
83
40
0
40
0
40
0
40
0
40
0.0205895173222281
40
0.0422092341784394
40
0.0638289510346506
40
0.0746388094627563
40
0.0854486678908619
40
0.0962585263189675
40
0.107068384747073
40
0.117878243175179
40
0.128688101603284
40
0.13949796003139
40
0.150307818459496
40
0.161117676887601
40
0.171927535315707
40
0.182737393743813
40
0.193547252171918
40
0.204357110600024
40
0.21516696902813
40
0.225976827456235
40
0.236786685884341
40
0.247596544312446
40
0.258406402740552
40
0.280026119596763
40
0.301645836452975
40
0.31245569488108
40
0.323265553309186
40
0.334075411737292
40
0.344885270165397
40
0.355695128593503
40
0.366504987021608
40
0.377314845449714
40
0.38812470387782
40
0.409744420734031
40
0.431364137590242
40
0.442173996018348
40
0.452983854446454
40
0.463793712874559
40
0.474603571302665
40
0.485413429730771
40
0.496223288158876
40
0.507033146586982
40
0.517843005015087
40
0.539462721871299
40
0.56108243872751
40
0.571892297155616
40
0.582702155583721
40
0.593512014011827
40
0.604321872439933
40
0.615131730868038
40
0.625941589296144
40
0.636751447724249
40
0.647561306152355
40
0.669181023008566
40
0.690800739864778
40
0.701610598292883
40
0.712420456720989
40
0.723230315149094
40
0.7340401735772
40
0.744850032005306
40
0.755659890433411
40
0.766469748861517
40
0.777279607289623
40
0.788089465717728
40
0.798899324145834
40
0.80970918257394
40
0.820519041002045
40
0.831328899430151
40
0.842138757858256
40
0.852948616286362
40
0.863758474714468
40
0.874568333142573
40
0.885378191570679
40
0.896188049998785
40
0.90699790842689
40
0.928617625283102
40
0.939427483711207
40
0.950237342139313
40
0.961047200567419
40
0.971857058995524
40
0.993476775851735
40
1
40
1
40
1
40
1
41
1
10
-0.394976888875291
20
4.64126630129056
30
0
41
1
10
-0.394976888875291
20
4.70975933848587
30
0
41
1
10
-0.394976888875291
20
4.84919883643008
30
0
41
1
10
-0.394976888875291
20
5.05691306897958
30
0
41
1
10
-0.394976888875291
20
5.2299607904209
30
0
41
1
10
-0.394976888875291
20
5.36691601337117
30
0
41
1
10
-0.394976888875291
20
5.46873573922787
30
0
41
1
10
-0.394976888875291
20
5.56972480779478
30
0
41
1
10
-0.394976888875291
20
5.66988183380954
30
0
41
1
10
-0.394976888875291
20
5.76920475793781
30
0
41
1
10
-0.394976888875291
20
5.8676917140148
30
0
41
1
10
-0.394976888875291
20
5.96534094682289
30
0
41
1
10
-0.394976888875291
20
6.06215026481468
30
0
41
1
10
-0.394976888875291
20
6.15811800993771
30
0
41
1
10
-0.394976888875291
20
6.25324207373163
30
0
41
1
10
-0.394976888875291
20
6.34752034717769
30
0
41
1
10
-0.394976888875291
20
6.44095106217856
30
0
41
1
10
-0.394976888875291
20
6.53353195984096
30
0
41
1
10
-0.394976888875291
20
6.62526091746003
30
0
41
1
10
-0.394976888875291
20
6.7161359116314
30
0
41
1
10
-0.394976888875291
20
6.80615436611964
30
0
41
1
10
-0.394976888875291
20
6.89531421629039
30
0
41
1
10
-0.394976888875291
20
7.01311652640493
30
0
41
1
10
-0.394976888875291
20
7.15805527924184
30
0
41
1
10
-0.394976888875291
20
7.30009987737762
30
0
41
1
10
-0.394976888875291
20
7.41210655371302
30
0
41
1
10
-0.394976888875291
20
7.49518683136168
30
0
41
1
10
-0.394976888875291
20
7.57738775597255
30
0
41
1
10
-0.394976888875291
20
7.65870656932981
30
0
41
1
10
-0.394976888875291
20
7.73914053534185
30
0
41
1
10
-0.394976888875291
20
7.81868611994122
30
0
41
1
10
-0.394976888875291
20
7.89734053346649
30
0
41
1
10
-0.394976888875291
20
8.00107946944797
30
0
41
1
10
-0.394976888875291
20
8.12837715497497
30
0
41
1
10
-0.394976888875291
20
8.25266064944725
30
0
41
1
10
-0.394976888875291
20
8.35036327427801
30
0
41
1
10
-0.394976888875291
20
8.42268346582151
30
0
41
1
10
-0.394976888875291
20
8.49408386680085
30
0
41
1
10
-0.394976888875291
20
8.56456063385824
30
0
41
1
10
-0.394976888875291
20
8.63410993550619
30
0
41
1
10
-0.394976888875291
20
8.70272704218718
30
0
41
1
10
-0.394976888875291
20
8.77040796817133
30
0
41
1
10
-0.394976888875291
20
8.85944470922473
30
0
41
1
10
-0.394976888875291
20
8.96826608195681
30
0
41
1
10
-0.394976888875291
20
9.07390697555735
30
0
41
1
10
-0.394976888875291
20
9.156574137538
30
0
41
1
10
-0.394976888875291
20
9.21756975316299
30
0
41
1
10
-0.394976888875291
20
9.27758983691163
30
0
41
1
10
-0.394976888875291
20
9.33662895751223
30
0
41
1
10
-0.394976888875291
20
9.39468180573056
30
0
41
1
10
-0.394976888875291
20
9.45174200258421
30
0
41
1
10
-0.394976888875291
20
9.50780389645979
30
0
41
1
10
-0.394976888875291
20
9.58125528659923
30
0
41
1
10
-0.394976888875291
20
9.67044907777677
30
0
41
1
10
-0.394976888875291
20
9.75623202994143
30
0
41
1
10
-0.394976888875291
20
9.8228521720736
30
0
41
1
10
-0.394976888875291
20
9.87174304842168
30
0
41
1
10
-0.394976888875291
20
9.91958105894813
30
0
41
1
10
-0.394976888875291
20
9.9663584938545
30
0
41
1
10
-0.394976888875291
20
10.0120677589968
30
0
41
1
10
-0.394976888875291
20
10.0567002175973
30
0
41
1
10
-0.394976888875291
20
10.1002477853245
30
0
41
1
10
-0.394976888875291
20
10.1427016347534
30
0
41
1
10
-0.394976888875291
20
10.1840526482538
30
0
41
1
10
-0.394976888875291
20
10.2242918789209
30
0
41
1
10
-0.394976888875291
20
10.2634097977789
30
0
41
1
10
-0.394976888875291
20
10.3013963717051
30
0
41
1
10
-0.394976888875291
20
10.3382419231241
30
0
41
1
10
-0.394976888875291
20
10.373935478284
30
0
41
1
10
-0.394976888875291
20
10.4084665881748
30
0
41
1
10
-0.394976888875291
20
10.4418240218233
30
0
41
1
10
-0.394976888875291
20
10.4739962096758
30
0
41
1
10
-0.394976888875291
20
10.5049713318295
30
0
41
1
10
-0.394976888875291
20
10.5347371933948
30
0
41
1
10
-0.394976888875291
20
10.5728196085917
30
0
41
1
10
-0.394976888875291
20
10.6083610274959
30
0
41
1
10
-0.394976888875291
20
10.6414451810514
30
0
41
1
10
-0.394976888875291
20
10.664964154205
30
0
41
1
10
-0.394976888875291
20
10.687189908093
30
0
41
1
10
-0.394976888875291
20
10.7150986110188
30
0
41
1
10
-0.394976888875291
20
10.7378232718623
30
0
41
1
10
-0.394976888875291
20
10.7527121733543
30
0
41
1
10
-0.394976888875291
20
10.7560803013844
30
0
0
SPLINE
5
CD
100
AcDbEntity
8
SK1
62
256
6
ByLayer
370
-1
48
1
60
0
100
AcDbSpline
70
4
71
3
72
87
73
83
40
0
40
0
40
0
40
0
40
0.0065230983964719
40
0.0281428541403624
40
0.0389527320123077
40
0.0497626098842529
40
0.0605724877561982
40
0.0713823656281434
40
0.0930021213720339
40
0.103811999243979
40
0.114621877115925
40
0.12543175498787
40
0.136241632859815
40
0.14705151073176
40
0.157861388603705
40
0.168671266475651
40
0.179481144347596
40
0.190291022219541
40
0.201100900091487
40
0.211910777963432
40
0.222720655835377
40
0.233530533707322
40
0.244340411579268
40
0.255150289451213
40
0.265960167323158
40
0.276770045195103
40
0.287579923067049
40
0.298389800938994
40
0.309199678810939
40
0.33081943455483
40
0.35243919029872
40
0.363249068170665
40
0.374058946042611
40
0.384868823914556
40
0.395678701786501
40
0.406488579658446
40
0.417298457530392
40
0.428108335402337
40
0.438918213274282
40
0.460537969018173
40
0.482157724762063
40
0.492967602634008
40
0.503777480505954
40
0.514587358377899
40
0.525397236249844
40
0.536207114121789
40
0.547016991993735
40
0.55782686986568
40
0.568636747737625
40
0.590256503481516
40
0.611876259225406
40
0.622686137097352
40
0.633496014969297
40
0.644305892841242
40
0.655115770713187
40
0.665925648585133
40
0.676735526457078
40
0.687545404329023
40
0.698355282200968
40
0.719975037944859
40
0.741594793688749
40
0.752404671560695
40
0.76321454943264
40
0.774024427304585
40
0.78483430517653
40
0.795644183048476
40
0.806454060920421
40
0.817263938792366
40
0.828073816664311
40
0.838883694536257
40
0.849693572408202
40
0.860503450280147
40
0.871313328152092
40
0.882123206024038
40
0.892933083895983
40
0.903742961767928
40
0.914552839639874
40
0.925362717511819
40
0.936172595383764
40
0.957792351127655
40
0.979412106871545
40
1
40
1
40
1
40
1
41
1
10
-0.394976888875291
20
-10.7560800795025
30
0
41
1
10
-0.394976888875291
20
-10.7527120189065
30
0
41
1
10
-0.394976888875291
20
-10.7378231841317
30
0
41
1
10
-0.394976888875291
20
-10.7150986230281
30
0
41
1
10
-0.394976888875291
20
-10.6871899043463
30
0
41
1
10
-0.394976888875291
20
-10.6649641398451
30
0
41
1
10
-0.394976888875291
20
-10.6414451731179
30
0
41
1
10
-0.394976888875291
20
-10.6083610391774
30
0
41
1
10
-0.394976888875291
20
-10.5728196102718
30
0
41
1
10
-0.394976888875291
20
-10.5347371860945
30
0
41
1
10
-0.394976888875291
20
-10.5049713249704
30
0
41
1
10
-0.394976888875291
20
-10.4739962130972
30
0
41
1
10
-0.394976888875291
20
-10.4418240333465
30
0
41
1
10
-0.394976888875291
20
-10.4084665953504
30
0
41
1
10
-0.394976888875291
20
-10.3739354752827
30
0
41
1
10
-0.394976888875291
20
-10.3382419186448
30
0
41
1
10
-0.394976888875291
20
-10.3013963735904
30
0
41
1
10
-0.394976888875291
20
-10.2634098071932
30
0
41
1
10
-0.394976888875291
20
-10.2242918912355
30
0
41
1
10
-0.394976888875291
20
-10.1840526544675
30
0
41
1
10
-0.394976888875291
20
-10.1427016339893
30
0
41
1
10
-0.394976888875291
20
-10.1002477857307
30
0
41
1
10
-0.394976888875291
20
-10.0567002250884
30
0
41
1
10
-0.394976888875291
20
-10.0120677716559
30
0
41
1
10
-0.394976888875291
20
-9.96635850688563
30
0
41
1
10
-0.394976888875291
20
-9.9195810672756
30
0
41
1
10
-0.394976888875291
20
-9.87174305179948
30
0
41
1
10
-0.394976888875291
20
-9.8228521774133
30
0
41
1
10
-0.394976888875291
20
-9.75623204290733
30
0
41
1
10
-0.394976888875291
20
-9.67044909356338
30
0
41
1
10
-0.394976888875291
20
-9.58125529483195
30
0
41
1
10
-0.394976888875291
20
-9.50780390566945
30
0
41
1
10
-0.394976888875291
20
-9.45174201576441
30
0
41
1
10
-0.394976888875291
20
-9.39468182193772
30
0
41
1
10
-0.394976888875291
20
-9.33662897444754
30
0
41
1
10
-0.394976888875291
20
-9.27758985219697
30
0
41
1
10
-0.394976888875291
20
-9.21756976623391
30
0
41
1
10
-0.394976888875291
20
-9.15657415078076
30
0
41
1
10
-0.394976888875291
20
-9.07390699150645
30
0
41
1
10
-0.394976888875291
20
-8.96826610167739
30
0
41
1
10
-0.394976888875291
20
-8.85944472740889
30
0
41
1
10
-0.394976888875291
20
-8.77040798541609
30
0
41
1
10
-0.394976888875291
20
-8.70272705940039
30
0
41
1
10
-0.394976888875291
20
-8.63410995408893
30
0
41
1
10
-0.394976888875291
20
-8.56456065460728
30
0
41
1
10
-0.394976888875291
20
-8.494083889178
30
0
41
1
10
-0.394976888875291
20
-8.42268348862098
30
0
41
1
10
-0.394976888875291
20
-8.35036329562493
30
0
41
1
10
-0.394976888875291
20
-8.25266066821666
30
0
41
1
10
-0.394976888875291
20
-8.12837717774204
30
0
41
1
10
-0.394976888875291
20
-8.00107949685969
30
0
41
1
10
-0.394976888875291
20
-7.89734055913431
30
0
41
1
10
-0.394976888875291
20
-7.81868614170455
30
0
41
1
10
-0.394976888875291
20
-7.73914055621265
30
0
41
1
10
-0.394976888875291
20
-7.65870659316923
30
0
41
1
10
-0.394976888875291
20
-7.57738778439318
30
0
41
1
10
-0.394976888875291
20
-7.49518686307914
30
0
41
1
10
-0.394976888875291
20
-7.41210658285704
30
0
41
1
10
-0.394976888875291
20
-7.30009989843438
30
0
41
1
10
-0.394976888875291
20
-7.15805530645628
30
0
41
1
10
-0.394976888875291
20
-7.01311656207406
30
0
41
1
10
-0.394976888875291
20
-6.89531424839751
30
0
41
1
10
-0.394976888875291
20
-6.80615439018041
30
0
41
1
10
-0.394976888875291
20
-6.71613593458255
30
0
41
1
10
-0.394976888875291
20
-6.62526094744771
30
0
41
1
10
-0.394976888875291
20
-6.5335319966735
30
0
41
1
10
-0.394976888875291
20
-6.44095110045453
30
0
41
1
10
-0.394976888875291
20
-6.34752037917039
30
0
41
1
10
-0.394976888875291
20
-6.25324209742863
30
0
41
1
10
-0.394976888875291
20
-6.15811803500972
30
0
41
1
10
-0.394976888875291
20
-6.06215030170887
30
0
41
1
10
-0.394976888875291
20
-5.96534098944565
30
0
41
1
10
-0.394976888875291
20
-5.86769175097615
30
0
41
1
10
-0.394976888875291
20
-5.76920478634827
30
0
41
1
10
-0.394976888875291
20
-5.66988185892194
30
0
41
1
10
-0.394976888875291
20
-5.56972484101726
30
0
41
1
10
-0.394976888875291
20
-5.46873578487436
30
0
41
1
10
-0.394976888875291
20
-5.36691605746566
30
0
41
1
10
-0.394976888875291
20
-5.22996081233961
30
0
41
1
10
-0.394976888875291
20
-5.05691311008314
30
0
41
1
10
-0.394976888875291
20
-4.84920429303571
30
0
41
1
10
-0.394976888875291
20
-4.70977032131108
30
0
41
1
10
-0.394976888875291
20
-4.64126507959355
30
0
0
SPLINE
5
CE
100
AcDbEntity
8
1
62
256
6
ByLayer
370
-1
48
1
60
0
100
AcDbSpline
70
4
71
3
72
14
73
10
40
0
40
0
40
0
40
0
40
0.283980725520045
40
0.283980725520045
40
0.570701471413844
40
0.570701471413844
40
0.830482212432935
40
0.830482212432935
40
1
40
1
40
1
40
1
41
1
10
31.5305374853017
20
-17.6585924223662
30
0
41
1
10
31.5498785989315
20
-17.6499715916932
30
0
41
1
10
31.5713493644318
20
-17.6444826511064
30
0
41
1
10
31.6154699871997
20
-17.6414895600558
30
0
41
1
10
31.6388139465157
20
-17.6440560082648
30
0
41
1
10
31.6810281078733
20
-17.6572257015132
30
0
41
1
10
31.7007375275575
20
-17.6672853713213
30
0
41
1
10
31.7292227761913
20
-17.6889817571458
30
0
41
1
10
31.7396478539744
20
-17.699008376865
30
0
41
1
10
31.7487052993104
20
-17.7100151637774
30
0
0
SPLINE
5
CF
100
AcDbEntity
8
SK1
62
256
6
ByLayer
370
-1
48
1
60
0
100
AcDbSpline
70
4
71
3
72
32
73
28
40
0
40
0
40
0
40
0
40
0.356636599161906
40
0.356636599161906
40
0.43891852351592
40
0.43891852351592
40
0.466852578885802
40
0.466852578885802
40
0.491648863255271
40
0.491648863255271
40
0.509433307376993
40
0.509433307376993
40
0.517845551817556
40
0.517845551817556
40
0.524955946811716
40
0.524955946811716
40
0.532136299556503
40
0.532136299556503
40
0.539988715042862
40
0.539988715042862
40
0.553068472451522
40
0.553068472451522
40
0.592506287500258
40
0.592506287500258
40
0.765129517161187
40
0.765129517161187
40
1
40
1
40
1
40
1
41
1
10
-1.4950399779393
20
-2.34749778874212
30
0
41
1
10
-1.51674926438412
20
-2.22504168094253
30
0
41
1
10
-1.53965959796295
20
-2.10198973938301
30
0
41
1
10
-1.57929452892496
20
-1.95694389798328
30
0
41
1
10
-1.58728688913916
20
-1.92997452960571
30
0
41
1
10
-1.60014685041297
20
-1.89558884836046
30
0
41
1
10
-1.60360996173446
20
-1.88701586088285
30
0
41
1
10
-1.61080217017806
20
-1.87149615869794
30
0
41
1
10
-1.61445737042807
20
-1.8644190972937
30
0
41
1
10
-1.62165915554128
20
-1.85350876899568
30
0
41
1
10
-1.62497669273341
20
-1.84923962381322
30
0
41
1
10
-1.63063349736491
20
-1.84456798020818
30
0
41
1
10
-1.63260114583201
20
-1.8433090630092
30
0
41
1
10
-1.63644881746124
20
-1.84189791662214
30
0
41
1
10
-1.63833413896836
20
-1.84160704031282
30
0
41
1
10
-1.6421074918232
20
-1.84204241824955
30
0
41
1
10
-1.64404339960068
20
-1.84279760818919
30
0
41
1
10
-1.64777693783728
20
-1.84528412040601
30
0
41
1
10
-1.64960310807172
20
-1.84711345963706
30
0
41
1
10
-1.65393228741361
20
-1.85260771701388
30
0
41
1
10
-1.65619857548441
20
-1.85674952744043
30
0
41
1
10
-1.6640326486616
20
-1.87382005025418
30
0
41
1
10
-1.66775630870622
20
-1.88824132138959
30
0
41
1
10
-1.68468176544543
20
-1.96436510563876
30
0
41
1
10
-1.68890392552055
20
-2.02849690055311
30
0
41
1
10
-1.69788177008901
20
-2.17720019173632
30
0
41
1
10
-1.69963442185517
20
-2.26267094142099
30
0
41
1
10
-1.69999999999999
20
-2.34751178615272
30
0
0
SPLINE
5
D0
100
AcDbEntity
8
1
62
256
6
ByLayer
370
-1
48
1
60
0
100
AcDbSpline
70
4
71
3
72
18
73
14
40
0
40
0
40
0
40
0
40
0.213401032662297
40
0.213401032662297
40
0.389009763545768
40
0.389009763545768
40
0.566256681222316
40
0.566256681222316
40
0.721179527483721
40
0.721179527483721
40
0.927421658996559
40
0.927421658996559
40
1
40
1
40
1
40
1
41
1
10
30.6245391940398
20
-17.5098637783746
30
0
41
1
10
30.6199488789182
20
-17.5529806885763
30
0
41
1
10
30.6084524177327
20
-17.5968509725857
30
0
41
1
10
30.5741384000409
20
-17.6729803936846
30
0
41
1
10
30.5532086011429
20
-17.7067384494184
30
0
41
1
10
30.5019487971075
20
-17.7675859582701
30
0
41
1
10
30.4706947199981
20
-17.7954318107418
30
0
41
1
10
30.407588545217
20
-17.8370170685215
30
0
41
1
10
30.3755859836372
20
-17.8526330404794
30
0
41
1
10
30.3007694069071
20
-17.8786319761088
30
0
41
1
10
30.2566344273134
20
-17.8861632365734
30
0
41
1
10
30.1989560367619
20
-17.8874188579975
30
0
41
1
10
30.183912247894
20
-17.8869301415547
30
0
41
1
10
30.1690561243675
20
-17.8856633381762
30
0
0
SPLINE
5
D1
100
AcDbEntity
8
SK1
62
256
6
ByLayer
370
-1
48
1
60
0
100
AcDbSpline
70
4
71
3
72
22
73
18
40
0
40
0
40
0
40
0
40
0.0401187176479352
40
0.0401187176479352
40
0.0809205840693321
40
0.0809205840693321
40
0.110939215438291
40
0.110939215438291
40
0.140811855964671
40
0.140811855964671
40
0.18957721074261
40
0.18957721074261
40
0.310490649824216
40
0.310490649824216
40
0.734284037039096
40
0.734284037039096
40
1
40
1
40
1
40
1
41
1
10
-0.394976888875291
20
4.64126630128334
30
0
41
1
10
-0.41485124075767
20
4.65707202833818
30
0
41
1
10
-0.43657681469648
20
4.67161770815903
30
0
41
1
10
-0.484344234972085
20
4.69527225619453
30
0
41
1
10
-0.511179996443502
20
4.70447803201566
30
0
41
1
10
-0.559630211893236
20
4.71148455325257
30
0
41
1
10
-0.581226521051775
20
4.71163748110686
30
0
41
1
10
-0.622738196979199
20
4.70615885554017
30
0
41
1
10
-0.643113978930629
20
4.7005544858514
30
0
41
1
10
-0.692838639904053
20
4.68088286984391
30
0
41
1
10
-0.72076225993483
20
4.66360961664179
30
0
41
1
10
-0.806980143907495
20
4.59739735467713
30
0
41
1
10
-0.85411153067848
20
4.53827797672739
30
0
41
1
10
-1.0376233151235
20
4.26752717334409
30
0
41
1
10
-1.11969019773208
20
4.02710662395185
30
0
41
1
10
-1.23587986907133
20
3.63062538504175
30
0
41
1
10
-1.27383836253277
20
3.47371869693896
30
0
41
1
10
-1.30710678118653
20
3.3140325278145
30
0
0
SPLINE
5
D2
100
AcDbEntity
8
1
62
256
6
ByLayer
370
-1
48
1
60
0
100
AcDbSpline
70
4
71
3
72
18
73
14
40
0
40
0
40
0
40
0
40
0.213344534360665
40
0.213344534360665
40
0.388962974488713
40
0.388962974488713
40
0.566220263555568
40
0.566220263555568
40
0.721144845531757
40
0.721144845531757
40
0.927376779809831
40
0.927376779809831
40
1
40
1
40
1
40
1
41
1
10
31.8547500618271
20
-18.5159184756927
30
0
41
1
10
31.8197360806303
20
-18.4903614063275
30
0
41
1
10
31.7875268489154
20
-18.4584527273193
30
0
41
1
10
31.7388127989245
20
-18.3906429838896
30
0
41
1
10
31.7200687652091
20
-18.3556223210847
30
0
41
1
10
31.6930604211766
20
-18.2807816482986
30
0
41
1
10
31.6846040392693
20
-18.2397828143739
30
0
41
1
10
31.6802032585842
20
-18.1643320046632
30
0
41
1
10
31.6827091826435
20
-18.1288101514829
30
0
41
1
10
31.6976640240045
20
-18.0510305205427
30
0
41
1
10
31.7132421513751
20
-18.0090567877199
30
0
41
1
10
31.7410377797127
20
-17.9584930935263
30
0
41
1
10
31.7489984277267
20
-17.9457077526227
30
0
41
1
10
31.7575393198146
20
-17.9334751672562
30
0
0
SPLINE
5
D3
100
AcDbEntity
8
SK1
62
256
6
ByLayer
370
-1
48
1
60
0
100
AcDbSpline
70
4
71
3
72
24
73
20
40
0
40
0
40
0
40
0
40
0.408376563842919
40
0.408376563842919
40
0.590835889028663
40
0.590835889028663
40
0.775086150017169
40
0.775086150017169
40
0.828531189558963
40
0.828531189558963
40
0.869657835859007
40
0.869657835859007
40
0.900601749045859
40
0.900601749045859
40
0.931618254112826
40
0.931618254112826
40
0.972400059148962
40
0.972400059148962
40
1
40
1
40
1
40
1
41
1
10
-1.30710678118655
20
-3.31403271963518
30
0
41
1
10
-1.25598388032309
20
-3.55942158652502
30
0
41
1
10
-1.19453871593758
20
-3.79878086806582
30
0
41
1
10
-1.07463317102506
20
-4.12991464169377
30
0
41
1
10
-1.03315372296908
20
-4.23044470813102
30
0
41
1
10
-0.933421287209484
20
-4.42439620445134
30
0
41
1
10
-0.87601216435813
20
-4.52058411767737
30
0
41
1
10
-0.771196593353352
20
-4.62470115719427
30
0
41
1
10
-0.744945905488407
20
-4.64699527823979
30
0
41
1
10
-0.692659478740381
20
-4.68003423159399
30
0
41
1
10
-0.667470836328533
20
-4.69244795089361
30
0
41
1
10
-0.62024854956438
20
-4.70666093811084
30
0
41
1
10
-0.598519884659027
20
-4.71034447812073
30
0
41
1
10
-0.555414291762958
20
-4.71130494933678
30
0
41
1
10
-0.533554485474482
20
-4.70857045210869
30
0
41
1
10
-0.486310637142424
20
-4.69632743776958
30
0
41
1
10
-0.461171363725498
20
-4.68495700384938
30
0
41
1
10
-0.42312766746349
20
-4.6623550622588
30
0
41
1
10
-0.408633205232604
20
-4.65212577667924
30
0
41
1
10
-0.394976888875291
20
-4.64126507959352
30
0
0
SPLINE
5
D4
100
AcDbEntity
8
1
62
256
6
ByLayer
370
-1
48
1
60
0
100
AcDbSpline
70
4
71
3
72
14
73
10
40
0
40
0
40
0
40
0
40
0.283999679271251
40
0.283999679271251
40
0.571278515706031
40
0.571278515706031
40
0.831593340341213
40
0.831593340341213
40
1
40
1
40
1
40
1
41
1
10
31.8547500618271
20
-18.5159184756927
30
0
41
1
10
31.8718118861109
20
-18.5283720788482
30
0
41
1
10
31.8872266167495
20
-18.5442154838517
30
0
41
1
10
31.9117772389445
20
-18.5809154757914
30
0
41
1
10
31.9211852410802
20
-18.602417384655
30
0
41
1
10
31.9308155775433
20
-18.645549281349
30
0
41
1
10
31.9319258404926
20
-18.667635587671
30
0
41
1
10
31.9273512109536
20
-18.7030022244811
30
0
41
1
10
31.9239104029867
20
-18.716908287971
30
0
41
1
10
31.9189650222422
20
-18.7301353096061
30
0
0
SPLINE
5
D5
100
AcDbEntity
8
1
62
256
6
ByLayer
370
-1
48
1
60
0
100
AcDbSpline
70
4
71
3
72
18
73
14
40
0
40
0
40
0
40
0
40
0.213344534360665
40
0.213344534360665
40
0.388962974488705
40
0.388962974488705
40
0.566220263555561
40
0.566220263555561
40
0.72114484553175
40
0.72114484553175
40
0.927376779809832
40
0.927376779809832
40
1
40
1
40
1
40
1
41
1
10
30.0442685509131
20
-18.2194228643123
30
0
41
1
10
30.0792825321099
20
-18.2449799336775
30
0
41
1
10
30.1114917638248
20
-18.2768886126857
30
0
41
1
10
30.1602058138157
20
-18.3446983561154
30
0
41
1
10
30.1789498475311
20
-18.3797190189203
30
0
41
1
10
30.2059581915636
20
-18.4545596917064
30
0
41
1
10
30.2144145734709
20
-18.4955585256311
30
0
41
1
10
30.218815354156
20
-18.5710093353418
30
0
41
1
10
30.2163094300967
20
-18.6065311885221
30
0
41
1
10
30.2013545887356
20
-18.6843108194623
30
0
41
1
10
30.1857764613651
20
-18.7262845522851
30
0
41
1
10
30.1579808330275
20
-18.7768482464787
30
0
41
1
10
30.1500201850135
20
-18.7896335873823
30
0
41
1
10
30.1414792929256
20
-18.8018661727488
30
0
0
SPLINE
5
D6
100
AcDbEntity
8
1
62
256
6
ByLayer
370
-1
48
1
60
0
100
AcDbSpline
70
4
71
3
72
14
73
10
40
0
40
0
40
0
40
0
40
0.283980725520047
40
0.283980725520047
40
0.570701471413841
40
0.570701471413841
40
0.830482212432967
40
0.830482212432967
40
1
40
1
40
1
40
1
41
1
10
30.3684811274385
20
-19.0767489176388
30
0
41
1
10
30.3491400138087
20
-19.0853697483118
30
0
41
1
10
30.3276692483084
20
-19.0908586888986
30
0
41
1
10
30.2835486255405
20
-19.0938517799492
30
0
41
1
10
30.2602046662245
20
-19.0912853317401
30
0
41
1
10
30.2179905048669
20
-19.0781156384918
30
0
41
1
10
30.1982810851827
20
-19.0680559686837
30
0
41
1
10
30.1697958365488
20
-19.0463595828592
30
0
41
1
10
30.1593707587658
20
-19.03633296314
30
0
41
1
10
30.1503133134298
20
-19.0253261762276
30
0
0
SPLINE
5
D7
100
AcDbEntity
8
1
62
256
6
ByLayer
370
-1
48
1
60
0
100
AcDbSpline
70
4
71
3
72
12
73
8
40
0
40
0
40
0
40
0
40
0.464554249887432
40
0.464554249887432
40
0.846536430465837
40
0.846536430465837
40
1
40
1
40
1
40
1
41
1
10
31.5305374853017
20
-17.6585924223662
30
0
41
1
10
31.4908752436784
20
-17.6762709012631
30
0
41
1
10
31.447091857382
20
-17.6883337310142
30
0
41
1
10
31.3639302516228
20
-17.6967995365715
30
0
41
1
10
31.3242036023618
20
-17.6956017558451
30
0
41
1
10
31.2692279812324
20
-17.6858613824792
30
0
41
1
10
31.2533343149523
20
-17.6820983373936
30
0
41
1
10
31.2377074578945
20
-17.6774201173349
30
0
0
SPLINE
5
D8
100
AcDbEntity
8
1
62
256
6
ByLayer
370
-1
48
1
60
0
100
AcDbSpline
70
4
71
3
72
12
73
8
40
0
40
0
40
0
40
0
40
0.377026769291451
40
0.377026769291451
40
0.761057337837993
40
0.761057337837993
40
1
40
1
40
1
40
1
41
1
10
30.7141701049847
20
-19.0776843743007
30
0
41
1
10
30.7501755360559
20
-19.0939670657845
30
0
41
1
10
30.7839635719255
20
-19.1155683361647
30
0
41
1
10
30.8426517435965
20
-19.1652600103752
30
0
41
1
10
30.8682304149232
20
-19.1940602046202
30
0
41
1
10
30.9020149366151
20
-19.2436339723197
30
0
41
1
10
30.9133021152572
20
-19.2635750572358
30
0
41
1
10
30.9228196527666
20
-19.2840075995071
30
0
0
SPLINE
5
D9
100
AcDbEntity
8
SK1
62
256
6
ByLayer
370
-1
48
1
60
0
100
AcDbSpline
70
4
71
3
72
10
73
6
40
0
40
0
40
0
40
0
40
0.5
40
0.5
40
1
40
1
40
1
40
1
41
1
10
-1.7
20
-2.34751178615284
30
0
41
1
10
-1.82829275010134
20
-1.59849102282857
30
0
41
1
10
-1.92877517104071
20
-0.802936952128817
30
0
41
1
10
-1.92836372452413
20
0.80821608021509
30
0
41
1
10
-1.82832256560682
20
1.59831678082259
30
0
41
1
10
-1.69999999999841
20
2.347511681735
30
0
0
SPLINE
5
DA
100
AcDbEntity
8
1
62
256
6
ByLayer
370
-1
48
1
60
0
100
AcDbSpline
70
4
71
3
72
16
73
12
40
0
40
0
40
0
40
0
40
0.0651963742943426
40
0.0651963742943426
40
0.289863523350699
40
0.289863523350699
40
0.517415117715309
40
0.517415117715309
40
0.759456886687481
40
0.759456886687481
40
1
40
1
40
1
40
1
41
1
10
31.7487052993104
20
-17.7100151637774
30
0
41
1
10
31.752190923274
20
-17.7142509630344
30
0
41
1
10
31.7554918084923
20
-17.7186473405998
30
0
41
1
10
31.7691732450292
20
-17.7386633811097
30
0
41
1
10
31.7774335662704
20
-17.7559666169311
30
0
41
1
10
31.7882769698551
20
-17.7915477084067
30
0
41
1
10
31.7909381530642
20
-17.8102839857724
30
0
41
1
10
31.7907598396258
20
-17.8477673703663
30
0
41
1
10
31.7875771725599
20
-17.8669089321656
30
0
41
1
10
31.7761317063633
20
-17.9022216388869
30
0
41
1
10
31.7677951746688
20
-17.9187863480181
30
0
41
1
10
31.7575393198146
20
-17.9334751672562
30
0
0
SPLINE
5
DB
100
AcDbEntity
8
1
62
256
6
ByLayer
370
-1
48
1
60
0
100
AcDbSpline
70
4
71
3
72
12
73
8
40
0
40
0
40
0
40
0
40
0.377026770614193
40
0.377026770614193
40
0.761057339373761
40
0.761057339373761
40
1
40
1
40
1
40
1
41
1
10
31.1848485077555
20
-17.6576569657043
30
0
41
1
10
31.1488430765584
20
-17.6413742741636
30
0
41
1
10
31.1150550405783
20
-17.6197730036879
30
0
41
1
10
31.0563668688481
20
-17.5700813293307
30
0
41
1
10
31.030788197542
20
-17.5412811350503
30
0
41
1
10
30.9970036759804
20
-17.4917073674297
30
0
41
1
10
30.9857164974221
20
-17.4717662826384
30
0
41
1
10
30.9761989599735
20
-17.4513337404977
30
0
0
SPLINE
5
DC
100
AcDbEntity
8
1
62
256
6
ByLayer
370
-1
48
1
60
0
100
AcDbSpline
70
4
71
3
72
18
73
14
40
0
40
0
40
0
40
0
40
0.213401032662305
40
0.213401032662305
40
0.389009763545778
40
0.389009763545778
40
0.566256681222321
40
0.566256681222321
40
0.721179527483738
40
0.721179527483738
40
0.92742165899658
40
0.92742165899658
40
1
40
1
40
1
40
1
41
1
10
31.2744794187004
20
-19.2254775616304
30
0
41
1
10
31.279069733822
20
-19.1823606514287
30
0
41
1
10
31.2905661950075
20
-19.1384903674193
30
0
41
1
10
31.3248802126993
20
-19.0623609463204
30
0
41
1
10
31.3458100115973
20
-19.0286028905865
30
0
41
1
10
31.3970698156327
20
-18.9677553817349
30
0
41
1
10
31.4283238927421
20
-18.9399095292633
30
0
41
1
10
31.4914300675232
20
-18.8983242714835
30
0
41
1
10
31.523432629103
20
-18.8827082995256
30
0
41
1
10
31.5982492058331
20
-18.8567093638962
30
0
41
1
10
31.6423841854268
20
-18.8491781034316
30
0
41
1
10
31.7000625759783
20
-18.8479224820075
30
0
41
1
10
31.7151063648462
20
-18.8484111984503
30
0
41
1
10
31.7299624883727
20
-18.8496780018288
30
0
0
SPLINE
5
DD
100
AcDbEntity
8
1
62
256
6
ByLayer
370
-1
48
1
60
0
100
AcDbSpline
70
4
71
3
72
16
73
12
40
0
40
0
40
0
40
0
40
0.0651963742943438
40
0.0651963742943438
40
0.289863523350692
40
0.289863523350692
40
0.517415117715319
40
0.517415117715319
40
0.759456886687494
40
0.759456886687494
40
1
40
1
40
1
40
1
41
1
10
30.1503133134298
20
-19.0253261762276
30
0
41
1
10
30.1468276894662
20
-19.0210903769706
30
0
41
1
10
30.1435268042479
20
-19.0166939994052
30
0
41
1
10
30.129845367711
20
-18.9966779588953
30
0
41
1
10
30.1215850464698
20
-18.9793747230739
30
0
41
1
10
30.1107416428851
20
-18.9437936315983
30
0
41
1
10
30.108080459676
20
-18.9250573542326
30
0
41
1
10
30.1082587731144
20
-18.8875739696387
30
0
41
1
10
30.1114414401802
20
-18.8684324078394
30
0
41
1
10
30.1228869063769
20
-18.8331197011181
30
0
41
1
10
30.1312234380713
20
-18.8165549919869
30
0
41
1
10
30.1414792929256
20
-18.8018661727488
30
0
0
SPLINE
5
DE
100
AcDbEntity
8
1
62
256
6
ByLayer
370
-1
48
1
60
0
100
AcDbSpline
70
4
71
3
72
16
73
12
40
0
40
0
40
0
40
0
40
0.0666801185229473
40
0.0666801185229473
40
0.291327849312081
40
0.291327849312081
40
0.518943310444883
40
0.518943310444883
40
0.761116805784564
40
0.761116805784564
40
1
40
1
40
1
40
1
41
1
10
29.980053590498
20
-18.0052060303989
30
0
41
1
10
29.9820180881234
20
-17.9999517428254
30
0
41
1
10
29.9842247534401
20
-17.9947804563696
30
0
41
1
10
29.9947961166222
20
-17.9728270572309
30
0
41
1
10
30.0056665532178
20
-17.9570376859802
30
0
41
1
10
30.0310867236249
20
-17.9298861949896
30
0
41
1
10
30.0459959050084
20
-17.9182293912698
30
0
41
1
10
30.0785726306614
20
-17.8996751545796
30
0
41
1
10
30.0967537823692
20
-17.8928798332128
30
0
41
1
10
30.1329452927395
20
-17.8852048001894
30
0
41
1
10
30.1513268051506
20
-17.8841515331994
30
0
41
1
10
30.1690561243675
20
-17.8856633381762
30
0
0
SPLINE
5
DF
100
AcDbEntity
8
1
62
256
6
ByLayer
370
-1
48
1
60
0
100
AcDbSpline
70
4
71
3
72
12
73
8
40
0
40
0
40
0
40
0
40
0.464554249887435
40
0.464554249887435
40
0.84653643046577
40
0.84653643046577
40
1
40
1
40
1
40
1
41
1
10
30.3684811274385
20
-19.0767489176388
30
0
41
1
10
30.4081433690618
20
-19.0590704387419
30
0
41
1
10
30.4519267553582
20
-19.0470076089908
30
0
41
1
10
30.5350883611174
20
-19.0385418034335
30
0
41
1
10
30.5748150103784
20
-19.0397395841599
30
0
41
1
10
30.6297906315078
20
-19.0494799575258
30
0
41
1
10
30.6456842977879
20
-19.0532430026114
30
0
41
1
10
30.6613111548458
20
-19.0579212226701
30
0
0
SPLINE
5
E0
100
AcDbEntity
8
1
62
256
6
ByLayer
370
-1
48
1
60
0
100
AcDbSpline
70
4
71
3
72
14
73
10
40
0
40
0
40
0
40
0
40
0.283999679271257
40
0.283999679271257
40
0.571278515706021
40
0.571278515706021
40
0.831593340341182
40
0.831593340341182
40
1
40
1
40
1
40
1
41
1
10
30.0442685509131
20
-18.2194228643123
30
0
41
1
10
30.0272067266293
20
-18.2069692611568
30
0
41
1
10
30.0117919959907
20
-18.1911258561533
30
0
41
1
10
29.9872413737957
20
-18.1544258642136
30
0
41
1
10
29.97783337166
20
-18.13292395535
30
0
41
1
10
29.9682030351969
20
-18.089792058656
30
0
41
1
10
29.9670927722476
20
-18.067705752334
30
0
41
1
10
29.9716674017866
20
-18.0323391155239
30
0
41
1
10
29.9751082097535
20
-18.018433052034
30
0
41
1
10
29.980053590498
20
-18.0052060303989
30
0
0
SPLINE
5
E1
100
AcDbEntity
8
SK1
62
256
6
ByLayer
370
-1
48
1
60
0
100
AcDbSpline
70
4
71
3
72
30
73
26
40
0
40
0
40
0
40
0
40
0.360052108286739
40
0.360052108286739
40
0.414182795369029
40
0.414182795369029
40
0.441319094800672
40
0.441319094800672
40
0.451195262960072
40
0.451195262960072
40
0.461224946381245
40
0.461224946381245
40
0.467711236499062
40
0.467711236499062
40
0.474212016079713
40
0.474212016079713
40
0.482847947921514
40
0.482847947921514
40
0.498532582458581
40
0.498532582458581
40
0.552379769925851
40
0.552379769925851
40
0.810349417089643
40
0.810349417089643
40
1
40
1
40
1
40
1
41
1
10
-1.70000000000019
20
2.3475116817483
30
0
41
1
10
-1.69943534817308
20
2.21647118487891
30
0
41
1
10
-1.69844614237978
20
2.08289239857018
30
0
41
1
10
-1.67656862366603
20
1.93048811627656
30
0
41
1
10
-1.67316038985986
20
1.91036346359695
30
0
41
1
10
-1.66561843849142
20
1.88100938605297
30
0
41
1
10
-1.66268553859864
20
1.87122075315878
30
0
41
1
10
-1.65724625767594
20
1.85893849976404
30
0
41
1
10
-1.65562897748315
20
1.85574110436585
30
0
41
1
10
-1.6519311451772
20
1.84988105484797
30
0
41
1
10
-1.64979259662024
20
1.84716009843925
30
0
41
1
10
-1.6458510847675
20
1.84387231659994
30
0
41
1
10
-1.64415793169223
20
1.84287333682909
30
0
41
1
10
-1.64073072295233
20
1.84175513669575
30
0
41
1
10
-1.63895837579804
20
1.84162628990126
30
0
41
1
10
-1.63503521616398
20
1.84220716119697
30
0
41
1
10
-1.63288581659658
20
1.84318624425814
30
0
41
1
10
-1.62734818582315
20
1.84688091511674
30
0
41
1
10
-1.62421744742181
20
1.85036268886339
30
0
41
1
10
-1.61177945546781
20
1.86703561073952
30
0
41
1
10
-1.60483242201902
20
1.8835838297675
30
0
41
1
10
-1.56808403778946
20
1.97915260079586
30
0
41
1
10
-1.54998962063458
20
2.0676165097141
30
0
41
1
10
-1.51860078034382
20
2.21850563673004
30
0
41
1
10
-1.50648423368442
20
2.28294377267119
30
0
41
1
10
-1.49503997793819
20
2.34749772746747
30
0
0
SPLINE
5
E2
100
AcDbEntity
8
1
62
256
6
ByLayer
370
-1
48
1
60
0
100
AcDbSpline
70
4
71
3
72
16
73
12
40
0
40
0
40
0
40
0
40
0.066878093843468
40
0.066878093843468
40
0.290864569547106
40
0.290864569547106
40
0.517832136788489
40
0.517832136788489
40
0.759333160551965
40
0.759333160551965
40
1
40
1
40
1
40
1
41
1
10
30.7778092668467
20
-17.3470120118667
30
0
41
1
10
30.7833735103949
20
-17.3460759684308
30
0
41
1
10
30.7889877959675
20
-17.3453940637416
30
0
41
1
10
30.8133171164946
20
-17.3435621423605
30
0
41
1
10
30.8324257012591
20
-17.3450751729935
30
0
41
1
10
30.8686518383695
20
-17.3535014361726
30
0
41
1
10
30.8862041219948
20
-17.3605789732004
30
0
41
1
10
30.9185687138763
20
-17.3795041035926
30
0
41
1
10
30.9335492691349
20
-17.3918478232274
30
0
41
1
10
30.9584249546834
20
-17.419483693738
30
0
41
1
10
30.9686122314881
20
-17.4350463184281
30
0
41
1
10
30.9761989599735
20
-17.4513337404977
30
0
0
SPLINE
5
E3
100
AcDbEntity
8
SK1
62
256
6
ByLayer
370
-1
48
1
60
0
100
AcDbSpline
70
4
71
3
72
26
73
22
40
0
40
0
40
0
40
0
40
0.445565443532363
40
0.445565443532363
40
0.655264383376964
40
0.655264383376964
40
0.828726256262898
40
0.828726256262898
40
0.876154197532178
40
0.876154197532178
40
0.905968249810069
40
0.905968249810069
40
0.926210751072041
40
0.926210751072041
40
0.943172178773616
40
0.943172178773616
40
0.960117844485506
40
0.960117844485506
40
0.984238026671506
40
0.984238026671506
40
1
40
1
40
1
40
1
41
1
10
-0.200000000000216
20
-10.8830974324239
30
0
41
1
10
-0.200000000000216
20
-10.8819710079772
30
0
41
1
10
-0.203329262474341
20
-10.8768357974762
30
0
41
1
10
-0.220508256687154
20
-10.8608398006147
30
0
41
1
10
-0.227841696150222
20
-10.8544331912715
30
0
41
1
10
-0.248876399316813
20
-10.839300022036
30
0
41
1
10
-0.260519040164908
20
-10.831234386332
30
0
41
1
10
-0.287682580192112
20
-10.8176098223726
30
0
41
1
10
-0.294422106503234
20
-10.814425636351
30
0
41
1
10
-0.307975059129362
20
-10.8087542809808
30
0
41
1
10
-0.313923536345712
20
-10.8064124165897
30
0
41
1
10
-0.325470142016073
20
-10.8023264062819
30
0
41
1
10
-0.330674635557642
20
-10.8005996536701
30
0
41
1
10
-0.340874762381091
20
-10.7975129873952
30
0
41
1
10
-0.345873303925472
20
-10.7961109015917
30
0
41
1
10
-0.355778101184384
20
-10.7935676582257
30
0
41
1
10
-0.360793362650213
20
-10.7923975310653
30
0
41
1
10
-0.372226633464606
20
-10.7899641210796
30
0
41
1
10
-0.378545586362165
20
-10.7888184755389
30
0
41
1
10
-0.388035310313086
20
-10.7873050473985
30
0
41
1
10
-0.391599313536332
20
-10.7867953109233
30
0
41
1
10
-0.394976888893865
20
-10.7863556111439
30
0
0
SPLINE
5
E4
100
AcDbEntity
8
SK1
62
256
6
ByLayer
370
-1
48
1
60
0
100
AcDbSpline
70
4
71
3
72
8
73
4
40
0
40
0
40
0
40
0
40
1
40
1
40
1
40
1
41
1
10
-1.49503997793941
20
2.34749772747679
30
0
41
1
10
-1.43636647390603
20
2.67845911204324
30
0
41
1
10
-1.37234124557347
20
3.00091149187799
30
0
41
1
10
-1.30710678118653
20
3.31403252781453
30
0
0
SPLINE
5
E5
100
AcDbEntity
8
SK1
62
256
6
ByLayer
370
-1
48
1
60
0
100
AcDbSpline
70
4
71
3
72
8
73
4
40
0
40
0
40
0
40
0
40
1
40
1
40
1
40
1
41
1
10
-1.30710678118655
20
-3.31403271963521
30
0
41
1
10
-1.37234069530528
20
-3.00091128094479
30
0
41
1
10
-1.43636641767525
20
-2.67845918809309
30
0
41
1
10
-1.4950399779393
20
-2.34749778874226
30
0
0
SPLINE
5
E6
100
AcDbEntity
8
1
62
256
6
ByLayer
370
-1
48
1
60
0
100
AcDbSpline
70
4
71
3
72
14
73
10
40
0
40
0
40
0
40
0
40
0.28454492500774
40
0.28454492500774
40
0.57175552485576
40
0.57175552485576
40
0.832016155851827
40
0.832016155851827
40
1
40
1
40
1
40
1
41
1
10
30.6245391940398
20
-17.5098637783746
30
0
41
1
10
30.6267796781432
20
-17.4888188720153
30
0
41
1
10
30.6327940110389
20
-17.4675005227303
30
0
41
1
10
30.6523131208522
20
-17.4278495222695
30
0
41
1
10
30.6662243961966
20
-17.4089514496484
30
0
41
1
10
30.6987505182536
20
-17.3790428313025
30
0
41
1
10
30.7173165833126
20
-17.3670355739184
30
0
41
1
10
30.7501926993323
20
-17.3533195482692
30
0
41
1
10
30.7639184713682
20
-17.3493487873534
30
0
41
1
10
30.7778092668467
20
-17.3470120118667
30
0
0
SPLINE
5
E7
100
AcDbEntity
8
SK1
62
256
6
ByLayer
370
-1
48
1
60
0
100
AcDbSpline
70
4
71
3
72
22
73
18
40
0
40
0
40
0
40
0
40
0.0245639900498755
40
0.0245639900498755
40
0.0496318308550454
40
0.0496318308550454
40
0.0663627728408016
40
0.0663627728408016
40
0.0830188311624026
40
0.0830188311624026
40
0.109502469153841
40
0.109502469153841
40
0.161041561866806
40
0.161041561866806
40
0.34045087796751
40
0.34045087796751
40
1
40
1
40
1
40
1
41
1
10
-0.394976888875291
20
-4.64126507959352
30
0
41
1
10
-0.38970266587873
20
-4.63707055620748
30
0
41
1
10
-0.383949309888493
20
-4.63330757597581
30
0
41
1
10
-0.371341458593548
20
-4.62763518822399
30
0
41
1
10
-0.364243722574742
20
-4.62572404052057
30
0
41
1
10
-0.352099082312236
20
-4.62547750923432
30
0
41
1
10
-0.347037112029582
20
-4.62618835449879
30
0
41
1
10
-0.337425328060121
20
-4.62914446237855
30
0
41
1
10
-0.332766275168396
20
-4.63140037203357
30
0
41
1
10
-0.3217174123955
20
-4.63845052899637
30
0
41
1
10
-0.315694741777278
20
-4.64402202563343
30
0
41
1
10
-0.300170082835322
20
-4.66154175044696
30
0
41
1
10
-0.292195743622628
20
-4.67485779786532
30
0
41
1
10
-0.261919134875725
20
-4.73474950476742
30
0
41
1
10
-0.249811404729869
20
-4.78489851705862
30
0
41
1
10
-0.203345284675137
20
-5.0129847254702
30
0
41
1
10
-0.20000000000006
20
-5.19061666338965
30
0
41
1
10
-0.20000000000006
20
-5.36201916428996
30
0
0
SPLINE
5
E8
100
AcDbEntity
8
1
62
256
6
ByLayer
370
-1
48
1
60
0
100
AcDbSpline
70
4
71
3
72
16
73
12
40
0
40
0
40
0
40
0
40
0.0668780938434247
40
0.0668780938434247
40
0.290864569546917
40
0.290864569546917
40
0.517832136788154
40
0.517832136788154
40
0.759333160551473
40
0.759333160551473
40
1
40
1
40
1
40
1
41
1
10
31.1212093458935
20
-19.3883293281383
30
0
41
1
10
31.1156451023453
20
-19.3892653715741
30
0
41
1
10
31.1100308167727
20
-19.3899472762635
30
0
41
1
10
31.0857014962456
20
-19.3917791976445
30
0
41
1
10
31.0665929114811
20
-19.3902661670115
30
0
41
1
10
31.0303667743707
20
-19.3818399038324
30
0
41
1
10
31.0128144907454
20
-19.3747623668047
30
0
41
1
10
30.9804498988639
20
-19.3558372364124
30
0
41
1
10
30.9654693436053
20
-19.3434935167776
30
0
41
1
10
30.9405936580568
20
-19.315857646267
30
0
41
1
10
30.930406381252
20
-19.3002950215768
30
0
41
1
10
30.9228196527666
20
-19.2840075995072
30
0
0
SPLINE
5
E9
100
AcDbEntity
8
1
62
256
6
ByLayer
370
-1
48
1
60
0
100
AcDbSpline
70
4
71
3
72
16
73
12
40
0
40
0
40
0
40
0
40
0.0666801185229739
40
0.0666801185229739
40
0.291327849312108
40
0.291327849312108
40
0.518943310444889
40
0.518943310444889
40
0.761116805784616
40
0.761116805784616
40
1
40
1
40
1
40
1
41
1
10
31.9189650222422
20
-18.7301353096061
30
0
41
1
10
31.9170005246168
20
-18.7353895971796
30
0
41
1
10
31.9147938593001
20
-18.7405608836354
30
0
41
1
10
31.904222496118
20
-18.7625142827742
30
0
41
1
10
31.8933520595224
20
-18.7783036540248
30
0
41
1
10
31.8679318891152
20
-18.8054551450154
30
0
41
1
10
31.8530227077318
20
-18.8171119487352
30
0
41
1
10
31.8204459820788
20
-18.8356661854254
30
0
41
1
10
31.802264830371
20
-18.8424615067923
30
0
41
1
10
31.7660733200007
20
-18.8501365398157
30
0
41
1
10
31.7476918075896
20
-18.8511898068056
30
0
41
1
10
31.7299624883727
20
-18.8496780018289
30
0
0
SPLINE
5
EA
100
AcDbEntity
8
1
62
256
6
ByLayer
370
-1
48
1
60
0
100
AcDbSpline
70
4
71
3
72
14
73
10
40
0
40
0
40
0
40
0
40
0.284544925007728
40
0.284544925007728
40
0.571755524855753
40
0.571755524855753
40
0.832016155851824
40
0.832016155851824
40
1
40
1
40
1
40
1
41
1
10
31.2744794187004
20
-19.2254775616304
30
0
41
1
10
31.272238934597
20
-19.2465224679897
30
0
41
1
10
31.2662246017013
20
-19.2678408172747
30
0
41
1
10
31.246705491888
20
-19.3074918177355
30
0
41
1
10
31.2327942165436
20
-19.3263898903566
30
0
41
1
10
31.2002680944866
20
-19.3562985087025
30
0
41
1
10
31.1817020294276
20
-19.3683057660866
30
0
41
1
10
31.1488259134079
20
-19.3820217917357
30
0
41
1
10
31.135100141372
20
-19.3859925526516
30
0
41
1
10
31.1212093458935
20
-19.3883293281383
30
0
0
SPLINE
5
EB
100
AcDbEntity
8
SK1
62
256
6
ByLayer
370
-1
48
1
60
0
100
AcDbSpline
70
4
71
3
72
26
73
22
40
0
40
0
40
0
40
0
40
0.445566590533867
40
0.445566590533867
40
0.655265017644429
40
0.655265017644429
40
0.828725510676232
40
0.828725510676232
40
0.876154403041356
40
0.876154403041356
40
0.905967808629008
40
0.905967808629008
40
0.926210487707145
40
0.926210487707145
40
0.943171934612362
40
0.943171934612362
40
0.960117618490364
40
0.960117618490364
40
0.984237918068801
40
0.984237918068801
40
1
40
1
40
1
40
1
41
1
10
-0.200000000000003
20
5.3620191612489
30
0
41
1
10
-0.200000000000003
20
5.24584624080083
30
0
41
1
10
-0.203329327154421
20
5.12739325570544
30
0
41
1
10
-0.220508378527413
20
4.95054302716966
30
0
41
1
10
-0.227841766328012
20
4.89336484437209
30
0
41
1
10
-0.248876465876791
20
4.78899542518664
30
0
41
1
10
-0.260519103089237
20
4.74088977224739
30
0
41
1
10
-0.287682522661115
20
4.68318824223033
30
0
41
1
10
-0.294422177085465
20
4.67086770501695
30
0
41
1
10
-0.307975229842981
20
4.65239528283644
30
0
41
1
10
-0.313923584320364
20
4.64555604634515
30
0
41
1
10
-0.325470047439183
20
4.63588471512031
30
0
41
1
10
-0.330674572834084
20
4.63242356449325
30
0
41
1
10
-0.340874729766469
20
4.62785000237457
30
0
41
1
10
-0.3458732646979
20
4.62642720846634
30
0
41
1
10
-0.355778046324488
20
4.62530065114441
30
0
41
1
10
-0.360793298356427
20
4.62557634523813
30
0
41
1
10
-0.37222657292665
20
4.62787080761487
30
0
41
1
10
-0.378545535867204
20
4.63055709110699
30
0
41
1
10
-0.388035283948739
20
4.6360822290674
30
0
41
1
10
-0.39159930045011
20
4.63858016383932
30
0
41
1
10
-0.39497688888521
20
4.64126630129033
30
0
0
LINE
5
4E
100
AcDbEntity
8
1
62
256
6
ByLayer
370
-1
48
1
60
0
100
AcDbLine
10
14.119074
20
-3.664595
30
0
11
12.162535
21
-2.470853
31
0
39
0
210
0
220
0
230
1
0
LINE
5
50
100
AcDbEntity
8
1
62
256
6
ByLayer
370
-1
48
1
60
0
100
AcDbLine
10
12.18943
20
-6.352996
30
0
11
12.400302
21
-6.481655
31
0
39
0
210
0
220
0
230
1
0
LINE
5
51
100
AcDbEntity
8
1
62
256
6
ByLayer
370
-1
48
1
60
0
100
AcDbLine
10
12.441651
20
-6.484861
30
0
11
12.642639
21
-6.433777
31
0
39
0
210
0
220
0
230
1
0
LINE
5
52
100
AcDbEntity
8
1
62
256
6
ByLayer
370
-1
48
1
60
0
100
AcDbLine
10
14.187357
20
-3.901992
30
0
11
14.14084
21
-3.699898
31
0
39
0
210
0
220
0
230
1
0
LINE
5
53
100
AcDbEntity
8
1
62
256
6
ByLayer
370
-1
48
1
60
0
100
AcDbLine
10
0.3
20
-16
30
0
11
15.777971
21
-16
31
0
39
0
210
0
220
0
230
1
0
LINE
5
54
100
AcDbEntity
8
1
62
256
6
ByLayer
370
-1
48
1
60
0
100
AcDbLine
10
14.3
20
16
30
0
11
0.3
21
16
31
0
39
0
210
0
220
0
230
1
0
LINE
5
55
100
AcDbEntity
8
1
62
256
6
ByLayer
370
-1
48
1
60
0
100
AcDbLine
10
0.3
20
16
30
0
11
0
21
15.7
31
0
39
0
210
0
220
0
230
1
0
LINE
5
56
100
AcDbEntity
8
1
62
256
6
ByLayer
370
-1
48
1
60
0
100
AcDbLine
10
0
20
-15.7
30
0
11
0.3
21
-16
31
0
39
0
210
0
220
0
230
1
0
LINE
5
57
100
AcDbEntity
8
4
62
256
6
ByLayer
370
-1
48
0.05
60
0
100
AcDbLine
10
0
20
0
30
0
11
40
21
0
31
0
39
0
210
0
220
0
230
1
0
LINE
5
59
100
AcDbEntity
8
80
62
256
6
ByLayer
370
-1
48
1
60
0
100
AcDbLine
10
0
20
0
30
0
11
-5
21
0
31
0
39
0
210
0
220
0
230
1
0
LINE
5
5A
100
AcDbEntity
8
SK4
62
256
6
ByLayer
370
-1
48
0.05
60
0
100
AcDbLine
10
-24
20
0
30
0
11
40
21
0
31
0
39
0
210
0
220
0
230
1
0
LINE
5
5C
100
AcDbEntity
8
81
62
256
6
ByLayer
370
-1
48
1
60
0
100
AcDbLine
10
40
20
-22
30
0
11
50
21
-22
31
0
39
0
210
0
220
0
230
1
0
LINE
5
5D
100
AcDbEntity
8
1
62
256
6
ByLayer
370
-1
48
1
60
0
100
AcDbLine
10
4.663397
20
15.175938
30
0
11
4.663397
21
5.068619
31
0
39
0
210
0
220
0
230
1
0
LINE
5
5E
100
AcDbEntity
8
1
62
256
6
ByLayer
370
-1
48
1
60
0
100
AcDbLine
10
14.3
20
16
30
0
11
14.313354
21
15.975441
31
0
39
0
210
0
220
0
230
1
0
LINE
5
5F
100
AcDbEntity
8
1
62
256
6
ByLayer
370
-1
48
1
60
0
100
AcDbLine
10
12.311784
20
0.018269
30
0
11
12.422227
21
0.564108
31
0
39
0
210
0
220
0
230
1
0
LINE
5
60
100
AcDbEntity
8
1
62
256
6
ByLayer
370
-1
48
1
60
0
100
AcDbLine
10
28.419239
20
-21.239182
30
0
11
28.656292
21
-20.605157
31
0
39
0
210
0
220
0
230
1
0
LINE
5
61
100
AcDbEntity
8
1
62
256
6
ByLayer
370
-1
48
1
60
0
100
AcDbLine
10
4.923205
20
15.276962
30
0
11
4.923205
21
4.755463
31
0
39
0
210
0
220
0
230
1
0
LINE
5
62
100
AcDbEntity
8
1
62
256
6
ByLayer
370
-1
48
1
60
0
100
AcDbLine
10
13.100487
20
-15.629913
30
0
11
13.100487
21
-5.971604
31
0
39
0
210
0
220
0
230
1
0
LINE
5
63
100
AcDbEntity
8
1
62
256
6
ByLayer
370
-1
48
1
60
0
100
AcDbLine
10
13.100487
20
-3.042949
30
0
11
13.100487
21
15.629913
31
0
39
0
210
0
220
0
230
1
0
LINE
5
64
100
AcDbEntity
8
1
62
256
6
ByLayer
370
-1
48
1
60
0
100
AcDbLine
10
7.336603
20
-5.068619
30
0
11
7.336603
21
-15.175938
31
0
39
0
210
0
220
0
230
1
0
LINE
5
65
100
AcDbEntity
8
1
62
256
6
ByLayer
370
-1
48
1
60
0
100
AcDbLine
10
17.085266
20
-20.344574
30
0
11
17.085266
21
10.877725
31
0
39
0
210
0
220
0
230
1
0
LINE
5
66
100
AcDbEntity
8
1
62
256
6
ByLayer
370
-1
48
1
60
0
100
AcDbLine
10
25.315815
20
-14.887684
30
0
11
25.313829
21
-14.892961
31
0
39
0
210
0
220
0
230
1
0
LINE
5
67
100
AcDbEntity
8
1
62
256
6
ByLayer
370
-1
48
1
60
0
100
AcDbLine
10
24.227493
20
-14.11913
30
0
11
25.211053
21
-14.887571
31
0
39
0
210
0
220
0
230
1
0
LINE
5
68
100
AcDbEntity
8
1
62
256
6
ByLayer
370
-1
48
1
60
0
100
AcDbLine
10
7.076795
20
-4.755463
30
0
11
7.076795
21
-15.276962
31
0
39
0
210
0
220
0
230
1
0
LINE
5
69
100
AcDbEntity
8
1
62
256
6
ByLayer
370
-1
48
1
60
0
100
AcDbLine
10
7.076795
20
-15.276962
30
0
11
4.923205
21
-15.276962
31
0
39
0
210
0
220
0
230
1
0
LINE
5
6A
100
AcDbEntity
8
1
62
256
6
ByLayer
370
-1
48
1
60
0
100
AcDbLine
10
28.486682
20
-21.242716
30
0
11
28.419239
21
-21.239182
31
0
39
0
210
0
220
0
230
1
0
LINE
5
6B
100
AcDbEntity
8
1
62
256
6
ByLayer
370
-1
48
1
60
0
100
AcDbLine
10
4.923205
20
15.276962
30
0
11
7.076795
21
15.276962
31
0
39
0
210
0
220
0
230
1
0
LINE
5
6C
100
AcDbEntity
8
1
62
256
6
ByLayer
370
-1
48
1
60
0
100
AcDbLine
10
4.923205
20
-4.755463
30
0
11
7.076795
21
-4.755463
31
0
39
0
210
0
220
0
230
1
0
LINE
5
6D
100
AcDbEntity
8
1
62
256
6
ByLayer
370
-1
48
1
60
0
100
AcDbLine
10
30.686716
20
-15.174539
30
0
11
30.941616
21
-14.49278
31
0
39
0
210
0
220
0
230
1
0
LINE
5
6E
100
AcDbEntity
8
1
62
256
6
ByLayer
370
-1
48
1
60
0
100
AcDbLine
10
0.3
20
0
30
0
11
0.3
21
-16
31
0
39
0
210
0
220
0
230
1
0
LINE
5
6F
100
AcDbEntity
8
1
62
256
6
ByLayer
370
-1
48
1
60
0
100
AcDbLine
10
0.3
20
16
30
0
11
0.3
21
0
31
0
39
0
210
0
220
0
230
1
0
LINE
5
70
100
AcDbEntity
8
1
62
256
6
ByLayer
370
-1
48
1
60
0
100
AcDbLine
10
28.70951
20
-20.646736
30
0
11
28.486682
21
-21.242716
31
0
39
0
210
0
220
0
230
1
0
LINE
5
71
100
AcDbEntity
8
1
62
256
6
ByLayer
370
-1
48
1
60
0
100
AcDbLine
10
14.313354
20
15.975441
30
0
11
17.085266
21
10.877725
31
0
39
0
210
0
220
0
230
1
0
LINE
5
72
100
AcDbEntity
8
1
62
256
6
ByLayer
370
-1
48
1
60
0
100
AcDbLine
10
0
20
0
30
0
11
0
21
-15.7
31
0
39
0
210
0
220
0
230
1
0
LINE
5
73
100
AcDbEntity
8
1
62
256
6
ByLayer
370
-1
48
1
60
0
100
AcDbLine
10
0
20
15.7
30
0
11
0
21
0
31
0
39
0
210
0
220
0
230
1
0
LINE
5
74
100
AcDbEntity
8
1
62
256
6
ByLayer
370
-1
48
1
60
0
100
AcDbLine
10
17.166959
20
-20.649475
30
0
11
28.419239
21
-21.239182
31
0
39
0
210
0
220
0
230
1
0
LINE
5
75
100
AcDbEntity
8
1
62
256
6
ByLayer
370
-1
48
1
60
0
100
AcDbLine
10
4.923205
20
-4.755463
30
0
11
4.923205
21
-15.276962
31
0
39
0
210
0
220
0
230
1
0
LINE
5
76
100
AcDbEntity
8
1
62
256
6
ByLayer
370
-1
48
1
60
0
100
AcDbLine
10
7.076795
20
4.755463
30
0
11
4.923205
21
4.755463
31
0
39
0
210
0
220
0
230
1
0
LINE
5
77
100
AcDbEntity
8
1
62
256
6
ByLayer
370
-1
48
1
60
0
100
AcDbLine
10
28.570364
20
-21.247102
30
0
11
28.486679
21
-21.242716
31
0
39
0
210
0
220
0
230
1
0
LINE
5
78
100
AcDbEntity
8
1
62
256
6
ByLayer
370
-1
48
1
60
0
100
AcDbLine
10
7.076795
20
15.276962
30
0
11
7.076795
21
4.755463
31
0
39
0
210
0
220
0
230
1
0
LINE
5
79
100
AcDbEntity
8
1
62
256
6
ByLayer
370
-1
48
1
60
0
100
AcDbLine
10
4.663397
20
-5.068619
30
0
11
4.663397
21
-15.175938
31
0
39
0
210
0
220
0
230
1
0
LINE
5
7A
100
AcDbEntity
8
1
62
256
6
ByLayer
370
-1
48
1
60
0
100
AcDbLine
10
17.085266
20
10.877725
30
0
11
30.450193
21
-13.701199
31
0
39
0
210
0
220
0
230
1
0
LINE
5
7B
100
AcDbEntity
8
1
62
256
6
ByLayer
370
-1
48
1
60
0
100
AcDbLine
10
7.336603
20
15.175938
30
0
11
7.336603
21
5.068619
31
0
39
0
210
0
220
0
230
1
0
LINE
5
7C
100
AcDbEntity
8
1
62
256
6
ByLayer
370
-1
48
1
60
0
100
AcDbLine
10
25.315815
20
-14.887684
30
0
11
24.192098
21
-14.00974
31
0
39
0
210
0
220
0
230
1
0
LINE
5
7D
100
AcDbEntity
8
1
62
256
6
ByLayer
370
-1
48
1
60
0
100
AcDbLine
10
25.315815
20
-14.887684
30
0
11
26.545237
21
-14.957496
31
0
39
0
210
0
220
0
230
1
0
LINE
5
7E
100
AcDbEntity
8
1
62
256
6
ByLayer
370
-1
48
1
60
0
100
AcDbLine
10
30.986677
20
-14.556176
30
0
11
30.754158
21
-15.178075
31
0
39
0
210
0
220
0
230
1
0
LINE
5
7F
100
AcDbEntity
8
SK1
62
256
6
ByLayer
370
-1
48
1
60
0
100
AcDbLine
10
-0.2
20
10.883485
30
0
11
-0.2
21
5.362019
31
0
39
0
210
0
220
0
230
1
0
LINE
5
81
100
AcDbEntity
8
SK1
62
256
6
ByLayer
370
-1
48
1
60
0
100
AcDbLine
10
-0.2
20
-5.362019
30
0
11
-0.2
21
-10.883485
31
0
39
0
210
0
220
0
230
1
0
LINE
5
82
100
AcDbEntity
8
1
62
256
6
ByLayer
370
-1
48
1
60
0
100
AcDbLine
10
29.908643
20
-21.492478
30
0
11
39.581958
21
-21.999435
31
0
39
0
210
0
220
0
230
1
0
LINE
5
83
100
AcDbEntity
8
SK1
62
256
6
ByLayer
370
-1
48
1
60
0
100
AcDbLine
10
-1.307107
20
3.314033
30
0
11
-1.307107
21
-3.314033
31
0
39
0
210
0
220
0
230
1
0
LINE
5
84
100
AcDbEntity
8
1
62
256
6
ByLayer
370
-1
48
1
60
0
100
AcDbLine
10
22.051865
20
-15.445202
30
0
11
29.685003
21
-21.408863
31
0
39
0
210
0
220
0
230
1
0
LINE
5
85
100
AcDbEntity
8
1
62
256
6
ByLayer
370
-1
48
1
60
0
100
AcDbLine
10
31.990376
20
-15.242863
30
0
11
22.31706
21
-14.735906
31
0
39
0
210
0
220
0
230
1
0
LINE
5
86
100
AcDbEntity
8
1
62
256
6
ByLayer
370
-1
48
1
60
0
100
AcDbLine
10
39.847153
20
-21.290139
30
0
11
32.214016
21
-15.326479
31
0
39
0
210
0
220
0
230
1
0
MTEXT
5
EC
100
AcDbEntity
8
SK6
62
256
6
ByLayer
370
-1
48
1
60
0
100
AcDbMText
10
13.863801
20
25.362798
30
0
210
0
220
0
230
1
1
\W00.743;\fsimplex.shx,bigfont.shx;C3-SVJBL-22040-11 
40
3.5
41
0
44
1.084337
50
0
71
7
72
5
7
DEFAULT
0
DIMENSION
5
11F
100
AcDbEntity
8
2
62
256
6
ByLayer
370
-3
48
1
60
0
100
AcDbDimension
2
DimnDraft3D1
10
40
20
-45.476821
30
0
11
21.683296
21
-30.620124
31
0
70
34
71
5
72
1
41
1
210
0
220
0
230
1
3
Standard
100
AcDb2LineAngularDimension
13
26.60017
23
-21.319089
33
0
14
16.576668
24
-20.793779
34
0
15
40
25
-24
35
0
16
27.700932
26
-33.692724
36
0
40
0
0
DIMENSION
5
134
100
AcDbEntity
8
SK2
62
256
6
ByLayer
370
-3
48
1
60
0
100
AcDbDimension
2
DimnDraft3D2
10
-28.75
20
16
30
0
11
-28.75
21
-4.784211
31
0
70
32
71
5
72
1
41
1
210
0
220
0
230
1
3
Standard
100
AcDbAlignedDimension
13
-2
23
-16
33
0
14
-2
24
16
34
0
50
90
100
AcDbRotatedDimension
1001
ACAD
1000
DSTYLE
1002
{
1070
    74
1070
     0
1070
   279
1070
     0
1070
   172
1070
     1
1070
   173
1070
     1
1070
   340
1005
ED
1070
    77
1070
     1
1070
    73
1070
     0
1070
   171
1070
     3
1070
   274
1070
     4
1070
   177
1070
     2
1070
   176
1070
     2
1070
   178
1070
     7
1070
    78
1070
     8
1070
    41
1041
3.175
1070
   147
1041
2.25
1070
    42
1041
2.0
1070
    44
1041
2.0
1070
   140
1041
4.5
1070
   343
1005
120
1070
   344
1005
120
1002
}
0
DIMENSION
5
142
100
AcDbEntity
8
2
62
256
6
ByLayer
370
-3
48
1
60
0
100
AcDbDimension
2
DimnDraft3D3
10
67.25
20
-22
30
0
11
67.25
21
-13.628947
31
0
70
32
71
5
72
1
41
1
210
0
220
0
230
1
3
Standard
100
AcDbAlignedDimension
13
42
23
0
33
0
14
42
24
-22
34
0
50
90
100
AcDbRotatedDimension
1001
ACAD
1000
DSTYLE
1002
{
1070
    74
1070
     0
1070
   279
1070
     0
1070
   172
1070
     1
1070
   173
1070
     1
1070
   340
1005
ED
1070
    77
1070
     1
1070
    73
1070
     0
1070
   171
1070
     3
1070
   274
1070
     4
1070
   177
1070
     2
1070
   176
1070
     2
1070
   178
1070
     7
1070
    78
1070
     8
1070
    41
1041
3.175
1070
   147
1041
2.25
1070
    42
1041
2.0
1070
    44
1041
2.0
1070
   140
1041
4.5
1070
   343
1005
120
1070
   344
1005
120
1002
}
0
DIMENSION
5
150
100
AcDbEntity
8
2
62
256
6
ByLayer
370
-3
48
1
60
0
100
AcDbDimension
2
DimnDraft3D4
10
40
20
-46.25
30
0
11
17.134211
21
-46.25
31
0
70
32
71
5
72
1
41
1
210
0
220
0
230
1
3
Standard
100
AcDbAlignedDimension
13
0
23
-18
33
0
14
40
24
-24
34
0
50
0
100
AcDbRotatedDimension
1001
ACAD
1000
DSTYLE
1002
{
1070
   279
1070
     0
1070
   172
1070
     1
1070
   173
1070
     1
1070
   340
1005
ED
1070
    77
1070
     1
1070
    73
1070
     0
1070
   171
1070
     3
1070
   274
1070
     4
1070
   177
1070
     2
1070
   176
1070
     2
1070
   178
1070
     7
1070
    78
1070
     8
1070
    41
1041
3.175
1070
   147
1041
2.25
1070
    42
1041
2.0
1070
    44
1041
2.0
1070
   140
1041
4.5
1070
   343
1005
120
1070
   344
1005
120
1002
}
0
ENDSEC
0
SECTION
2
OBJECTS
0
DICTIONARY
5
181
330
0
100
AcDbDictionary
280
0
281
1
3
ACAD_GROUP
350
182
3
ACAD_MLINESTYLE
350
183
0
DICTIONARY
5
182
330
0
100
AcDbDictionary
280
0
281
1
0
DICTIONARY
5
183
330
0
100
AcDbDictionary
280
0
281
1
3
Standard
350
18
0
MLINESTYLE
5
18
330
183
100
AcDbMlineStyle
2
Standard
70
0
3

62
256
51
90
52
90
71
2
49
-0.5
62
256
6
ByLayer
49
0.5
62
256
6
ByLayer
0
RASTERVARIABLES
5
16f
330

100
AcDbRasterVariables
90
0
70
1
71
1
72
1
0
ENDSEC
0
EOF
