0
SECTION
2
HEADER
9
$ACADVER
1
AC1015
9
$DWGCODEPAGE
3
ANSI_1252
9
$HANDSEED
5
1be
9
$ANGBASE
50
0
9
$ANGDIR
70
0
9
$ATTMODE
70
1
9
$AUNITS
70
0
9
$AUPREC
70
0
9
$CECOLOR
62
256
9
$CELTSCALE
40
1
9
$CELTYPE
6
ByLayer
9
$CELWEIGHT
370
-1
9
$CLAYER
8
0
9
$CMLJUST
70
0
9
$CMLSCALE
40
1
9
$CMLSTYLE
2
Standard
9
$DIMSTYLE
2
Standard
9
$TEXTSIZE
40
0.2
9
$TEXTSTYLE
7
Standard
9
$LUNITS
70
2
9
$LUPREC
70
4
9
$EXTNAMES
290
1
9
$INSUNITS
70
4
9
$LTSCALE
40
1
9
$LWDISPLAY
290
0
9
$PDMODE
70
0
9
$PDSIZE
40
0
9
$PLINEGEN
70
0
0
ENDSEC
0
SECTION
2
CLASSES
0
CLASS
1
RASTERVARIABLES
2
AcDbRasterVariables
3
ISM
90
0
280
0
281
0
0
ENDSEC
0
SECTION
2
TABLES
0
TABLE
2
VPORT
5
1b4
100
AcDbSymbolTable
0
VPORT
5
1
100
AcDbSymbolTableRecord
100
AcDbViewportTableRecord
2
*Active
70
0
10
0
20
0
11
1
21
1
12
-1
22
1
13
0
23
0
14
0.5
24
0.5
15
10
25
10
16
0
26
0
36
1
17
0
27
0
37
0
0
ENDTAB
0
TABLE
2
LTYPE
5
1b5
100
AcDbSymbolTable
0
LTYPE
5
14
100
AcDbSymbolTableRecord
100
AcDbLinetypeTableRecord
70
0
2
ByBlock
3

72
65
73
0
40
0
0
LTYPE
5
15
100
AcDbSymbolTableRecord
100
AcDbLinetypeTableRecord
70
0
2
ByLayer
3

72
65
73
0
40
0
0
LTYPE
5
16
100
AcDbSymbolTableRecord
100
AcDbLinetypeTableRecord
70
0
2
CONTINUOUS
3
Solid line
72
65
73
0
40
0
0
LTYPE
5
3B
100
AcDbSymbolTableRecord
100
AcDbLinetypeTableRecord
70
0
2
DASHED
3
__ __ __ __ __ __ __ __ __
72
65
73
2
40
25.72
49
12.86
74
0
49
-12.86
74
0
0
LTYPE
5
3C
100
AcDbSymbolTableRecord
100
AcDbLinetypeTableRecord
70
0
2
HIDDEN
3
_ _ _ _ _ _ _ _ _ _ _ _ _ _ _
72
65
73
2
40
0.5
49
0.25
74
0
49
-0.25
74
0
0
LTYPE
5
3D
100
AcDbSymbolTableRecord
100
AcDbLinetypeTableRecord
70
0
2
PHANTOM
3
____ _ _ ____ _ _ _____ _ _ ____
72
65
73
6
40
50.5
49
18
74
0
49
-6.5
74
0
49
6.5
74
0
49
-6.5
74
0
49
6.5
74
0
49
-6.5
74
0
0
LTYPE
5
3E
100
AcDbSymbolTableRecord
100
AcDbLinetypeTableRecord
70
0
2
CENTER
3
____ _ ____ _ ____ _ ____
72
65
73
4
40
47.5
49
22
74
0
49
-8.5
74
0
49
8.5
74
0
49
-8.5
74
0
0
LTYPE
5
3F
100
AcDbSymbolTableRecord
100
AcDbLinetypeTableRecord
70
0
2
DOT
3
.........................
72
65
73
2
40
10
49
0
74
0
49
-10
74
0
0
LTYPE
5
40
100
AcDbSymbolTableRecord
100
AcDbLinetypeTableRecord
70
0
2
DASHDOT
3
_._._._._._._._._._._._._._._._.
72
65
73
4
40
70
49
31
74
0
49
-13
74
0
49
13
74
0
49
-13
74
0
0
ENDTAB
0
TABLE
2
LAYER
5
1b6
100
AcDbSymbolTable
0
LAYER
5
10
100
AcDbSymbolTableRecord
100
AcDbLayerTableRecord
2
0
70
0
62
7
6
CONTINUOUS
290
1
370
-3
390
0
0
LAYER
5
42
100
AcDbSymbolTableRecord
100
AcDbLayerTableRecord
2
80
70
0
62
-6
6
CONTINUOUS
290
1
370
-3
390
0
0
LAYER
5
44
100
AcDbSymbolTableRecord
100
AcDbLayerTableRecord
2
81
70
0
62
-3
6
CONTINUOUS
290
1
370
-3
390
0
0
LAYER
5
46
100
AcDbSymbolTableRecord
100
AcDbLayerTableRecord
2
1
70
0
62
4
6
CONTINUOUS
290
1
370
-3
390
0
0
LAYER
5
48
100
AcDbSymbolTableRecord
100
AcDbLayerTableRecord
2
2
70
0
62
7
6
CONTINUOUS
290
1
370
-3
390
0
0
LAYER
5
4F
100
AcDbSymbolTableRecord
100
AcDbLayerTableRecord
2
4
70
0
62
-2
6
CENTER
290
1
370
-3
390
0
0
LAYER
5
1a0
100
AcDbSymbolTableRecord
100
AcDbLayerTableRecord
2
SK4
70
0
62
2
6
CENTER
290
1
370
-3
390
0
0
LAYER
5
1a1
100
AcDbSymbolTableRecord
100
AcDbLayerTableRecord
2
SK1
70
0
62
4
6
CONTINUOUS
290
1
370
-3
390
0
0
LAYER
5
1a2
100
AcDbSymbolTableRecord
100
AcDbLayerTableRecord
2
SK6
70
0
62
5
6
CONTINUOUS
290
1
370
-3
390
0
0
LAYER
5
1a3
100
AcDbSymbolTableRecord
100
AcDbLayerTableRecord
2
SK2
70
0
62
7
6
CONTINUOUS
290
1
370
-3
390
0
0
ENDTAB
0
TABLE
2
STYLE
5
1b7
100
AcDbSymbolTable
0
STYLE
5
11
100
AcDbSymbolTableRecord
100
AcDbTextStyleTableRecord
2
Standard
3
txt
70
0
71
0
40
0
41
1
42
0
50
0
0
STYLE
5
102
100
AcDbSymbolTableRecord
100
AcDbTextStyleTableRecord
2
DEFAULT
3
simplex.shx
70
0
71
0
40
0
41
1
42
0
50
0
0
STYLE
5
125
100
AcDbSymbolTableRecord
100
AcDbTextStyleTableRecord
2
DWGDirectTextStyle
3
SIMPLEX
70
0
71
0
40
0
41
1
42
0
50
0
0
ENDTAB
0
TABLE
2
DIMSTYLE
5
1b8
100
AcDbSymbolTable
100
AcDbDimStyleTable
0
DIMSTYLE
105
27
100
AcDbSymbolTableRecord
100
AcDbDimStyleTableRecord
2
Standard
70
0
3
<>
41
0.18
42
0.0625
44
0.18
140
0.18
147
0.09
73
0
74
0
77
1
271
2
275
0
278
52
280
0
340
11
0
ENDTAB
0
TABLE
2
VIEW
5
1b9
100
AcDbSymbolTable
0
ENDTAB
0
TABLE
2
UCS
5
1ba
100
AcDbSymbolTable
0
ENDTAB
0
TABLE
2
APPID
5
1bb
100
AcDbSymbolTable
0
APPID
5
12
100
AcDbSymbolTableRecord
100
AcDbRegAppTableRecord
2
ACAD
70
0
0
ENDTAB
0
TABLE
2
BLOCK_RECORD
5
1bc
100
AcDbSymbolTable
0
BLOCK_RECORD
5
1F
100
AcDbSymbolTableRecord
100
AcDbBlockTableRecord
2
*Model_Space
340
0
70
0
0
BLOCK_RECORD
5
1B
100
AcDbSymbolTableRecord
100
AcDbBlockTableRecord
2
*Paper_Space
340
0
70
0
0
BLOCK_RECORD
5
23
100
AcDbSymbolTableRecord
100
AcDbBlockTableRecord
2
*Paper_Space0
340
0
70
0
0
BLOCK_RECORD
5
127
100
AcDbSymbolTableRecord
100
AcDbBlockTableRecord
2
DimnDraft3D1
340
0
70
0
0
BLOCK_RECORD
5
136
100
AcDbSymbolTableRecord
100
AcDbBlockTableRecord
2
_CLOSED
340
0
70
0
0
BLOCK_RECORD
5
13D
100
AcDbSymbolTableRecord
100
AcDbBlockTableRecord
2
DimnDraft3D2
340
0
70
0
0
BLOCK_RECORD
5
149
100
AcDbSymbolTableRecord
100
AcDbBlockTableRecord
2
DimnDraft3D3
340
0
70
0
0
BLOCK_RECORD
5
157
100
AcDbSymbolTableRecord
100
AcDbBlockTableRecord
2
DimnDraft3D4
340
0
70
0
0
BLOCK_RECORD
5
165
100
AcDbSymbolTableRecord
100
AcDbBlockTableRecord
2
DimnDraft3D5
340
0
70
0
0
BLOCK_RECORD
5
173
100
AcDbSymbolTableRecord
100
AcDbBlockTableRecord
2
DimnDraft3D6
340
0
70
0
0
ENDTAB
0
ENDSEC
0
SECTION
2
BLOCKS
0
BLOCK
5
20
100
AcDbEntity
8
0
100
AcDbBlockBegin
2
*Model_Space
70
0
10
0
20
0
30
0
3
*Model_Space
0
ENDBLK
5
21
100
AcDbEntity
8
0
100
AcDbBlockEnd
0
BLOCK
5
1C
100
AcDbEntity
8
0
100
AcDbBlockBegin
2
*Paper_Space
70
0
10
0
20
0
30
0
3
*Paper_Space
0
ENDBLK
5
1D
100
AcDbEntity
8
0
100
AcDbBlockEnd
0
BLOCK
5
24
100
AcDbEntity
8
0
100
AcDbBlockBegin
2
*Paper_Space0
70
0
10
0
20
0
30
0
3
*Paper_Space0
0
ENDBLK
5
25
100
AcDbEntity
8
0
100
AcDbBlockEnd
0
BLOCK
5
133
100
AcDbEntity
8
0
100
AcDbBlockBegin
2
DimnDraft3D1
70
0
10
0
20
0
30
0
3
DimnDraft3D1
0
MTEXT
5
128
100
AcDbEntity
8
SK2
62
256
6
ByLayer
370
-1
48
1
60
0
100
AcDbMText
10
-32.875
20
-3.659211
30
0
210
0
220
0
230
1
1
\W01.000;\fsimplex.shx,bigfont.shx;%%c32 
40
4.5
41
0
44
1.084337
50
90
71
7
72
5
7
DEFAULT
0
LINE
5
12A
100
AcDbEntity
8
SK2
62
256
6
ByLayer
370
-1
48
1
60
0
100
AcDbLine
10
-2
20
16
30
0
11
-33.75
21
16
31
0
39
0
210
0
220
0
230
1
0
LINE
5
12B
100
AcDbEntity
8
SK2
62
256
6
ByLayer
370
-1
48
1
60
0
100
AcDbLine
10
-2
20
-16
30
0
11
-33.75
21
-16
31
0
39
0
210
0
220
0
230
1
0
LINE
5
12C
100
AcDbEntity
8
SK2
62
256
6
ByLayer
370
-1
48
1
60
0
100
AcDbLine
10
-31.75
20
16
30
0
11
-31.75
21
-16
31
0
39
0
210
0
220
0
230
1
0
LINE
5
12D
100
AcDbEntity
8
SK2
62
256
6
ByLayer
370
-1
48
1
60
0
100
AcDbLine
10
-31.75
20
16
30
0
11
-31.332003
21
12.825002
31
0
39
0
210
0
220
0
230
1
0
LINE
5
12E
100
AcDbEntity
8
SK2
62
256
6
ByLayer
370
-1
48
1
60
0
100
AcDbLine
10
-31.75
20
16
30
0
11
-32.167997
21
12.824998
31
0
39
0
210
0
220
0
230
1
0
LINE
5
12F
100
AcDbEntity
8
SK2
62
256
6
ByLayer
370
-1
48
1
60
0
100
AcDbLine
10
-31.332003
20
12.825002
30
0
11
-32.167997
21
12.824998
31
0
39
0
210
0
220
0
230
1
0
LINE
5
130
100
AcDbEntity
8
SK2
62
256
6
ByLayer
370
-1
48
1
60
0
100
AcDbLine
10
-31.75
20
-16
30
0
11
-32.167997
21
-12.825002
31
0
39
0
210
0
220
0
230
1
0
LINE
5
131
100
AcDbEntity
8
SK2
62
256
6
ByLayer
370
-1
48
1
60
0
100
AcDbLine
10
-31.75
20
-16
30
0
11
-31.332003
21
-12.824998
31
0
39
0
210
0
220
0
230
1
0
LINE
5
132
100
AcDbEntity
8
SK2
62
256
6
ByLayer
370
-1
48
1
60
0
100
AcDbLine
10
-32.167997
20
-12.825002
30
0
11
-31.332003
21
-12.824998
31
0
39
0
210
0
220
0
230
1
0
ENDBLK
5
134
100
AcDbEntity
8
0
100
AcDbBlockEnd
0
BLOCK
5
137
100
AcDbEntity
8
0
100
AcDbBlockBegin
2
_CLOSED
70
0
10
0
20
0
30
0
3
_CLOSED
0
LINE
5
139
100
AcDbEntity
8
0
62
256
6
ByLayer
370
-2
48
1
60
0
100
AcDbLine
10
-1
20
0.166667
30
0
11
0
21
0
31
0
39
0
210
0
220
0
230
1
0
LINE
5
13A
100
AcDbEntity
8
0
62
256
6
ByLayer
370
-2
48
1
60
0
100
AcDbLine
10
0
20
0
30
0
11
-1
21
-0.166667
31
0
39
0
210
0
220
0
230
1
0
LINE
5
13B
100
AcDbEntity
8
0
62
256
6
ByLayer
370
-2
48
1
60
0
100
AcDbLine
10
-1
20
0.166667
30
0
11
-1
21
-0.166667
31
0
39
0
210
0
220
0
230
1
0
LINE
5
13C
100
AcDbEntity
8
0
62
256
6
ByLayer
370
-2
48
1
60
0
100
AcDbLine
10
0
20
0
30
0
11
-1
21
0
31
0
39
0
210
0
220
0
230
1
0
ENDBLK
5
138
100
AcDbEntity
8
0
100
AcDbBlockEnd
0
BLOCK
5
146
100
AcDbEntity
8
0
100
AcDbBlockBegin
2
DimnDraft3D2
70
0
10
0
20
0
30
0
3
DimnDraft3D2
0
MTEXT
5
13E
100
AcDbEntity
8
2
62
256
6
ByLayer
370
-1
48
1
60
0
100
AcDbMText
10
30.725
20
19.38
30
0
210
0
220
0
230
1
1
\W01.000;\fsimplex.shx,bigfont.shx;%%c16.0 
40
4.5
41
0
44
1.084337
50
90
71
7
72
5
7
DEFAULT
0
LINE
5
13F
100
AcDbEntity
8
2
62
256
6
ByLayer
370
-1
48
1
60
0
100
AcDbLine
10
31.85
20
-8
30
0
11
31.85
21
31.766842
31
0
39
0
210
0
220
0
230
1
0
LINE
5
140
100
AcDbEntity
8
2
62
256
6
ByLayer
370
-1
48
1
60
0
100
AcDbLine
10
31.85
20
-8
30
0
11
31.432003
21
-4.825002
31
0
39
0
210
0
220
0
230
1
0
LINE
5
141
100
AcDbEntity
8
2
62
256
6
ByLayer
370
-1
48
1
60
0
100
AcDbLine
10
31.85
20
-8
30
0
11
32.267997
21
-4.824998
31
0
39
0
210
0
220
0
230
1
0
LINE
5
142
100
AcDbEntity
8
2
62
256
6
ByLayer
370
-1
48
1
60
0
100
AcDbLine
10
31.432003
20
-4.825002
30
0
11
32.267997
21
-4.824998
31
0
39
0
210
0
220
0
230
1
0
LINE
5
143
100
AcDbEntity
8
2
62
256
6
ByLayer
370
-1
48
1
60
0
100
AcDbLine
10
31.85
20
8
30
0
11
32.267997
21
4.825002
31
0
39
0
210
0
220
0
230
1
0
LINE
5
144
100
AcDbEntity
8
2
62
256
6
ByLayer
370
-1
48
1
60
0
100
AcDbLine
10
31.85
20
8
30
0
11
31.432003
21
4.824998
31
0
39
0
210
0
220
0
230
1
0
LINE
5
145
100
AcDbEntity
8
2
62
256
6
ByLayer
370
-1
48
1
60
0
100
AcDbLine
10
32.267997
20
4.825002
30
0
11
31.432003
21
4.824998
31
0
39
0
210
0
220
0
230
1
0
ENDBLK
5
147
100
AcDbEntity
8
0
100
AcDbBlockEnd
0
BLOCK
5
154
100
AcDbEntity
8
0
100
AcDbBlockBegin
2
DimnDraft3D3
70
0
10
0
20
0
30
0
3
DimnDraft3D3
0
MTEXT
5
14A
100
AcDbEntity
8
2
62
256
6
ByLayer
370
-1
48
1
60
0
100
AcDbMText
10
76.125
20
-28.106316
30
0
210
0
220
0
230
1
1
\W01.000;\fsimplex.shx,bigfont.shx;11.0 
40
4.5
41
0
44
1.084337
50
90
71
7
72
5
7
DEFAULT
0
LINE
5
14B
100
AcDbEntity
8
2
62
256
6
ByLayer
370
-1
48
1
60
0
100
AcDbLine
10
67
20
0
30
0
11
79.25
21
0
31
0
39
0
210
0
220
0
230
1
0
LINE
5
14C
100
AcDbEntity
8
2
62
256
6
ByLayer
370
-1
48
1
60
0
100
AcDbLine
10
67
20
-10.9
30
0
11
79.25
21
-10.9
31
0
39
0
210
0
220
0
230
1
0
LINE
5
14D
100
AcDbEntity
8
2
62
256
6
ByLayer
370
-1
48
1
60
0
100
AcDbLine
10
77.25
20
0
30
0
11
77.25
21
-29.231316
31
0
39
0
210
0
220
0
230
1
0
LINE
5
14E
100
AcDbEntity
8
2
62
256
6
ByLayer
370
-1
48
1
60
0
100
AcDbLine
10
77.25
20
0
30
0
11
77.667997
21
-3.174998
31
0
39
0
210
0
220
0
230
1
0
LINE
5
14F
100
AcDbEntity
8
2
62
256
6
ByLayer
370
-1
48
1
60
0
100
AcDbLine
10
77.25
20
0
30
0
11
76.832003
21
-3.175002
31
0
39
0
210
0
220
0
230
1
0
LINE
5
150
100
AcDbEntity
8
2
62
256
6
ByLayer
370
-1
48
1
60
0
100
AcDbLine
10
77.667997
20
-3.174998
30
0
11
76.832003
21
-3.175002
31
0
39
0
210
0
220
0
230
1
0
LINE
5
151
100
AcDbEntity
8
2
62
256
6
ByLayer
370
-1
48
1
60
0
100
AcDbLine
10
77.25
20
-10.9
30
0
11
76.832003
21
-7.725002
31
0
39
0
210
0
220
0
230
1
0
LINE
5
152
100
AcDbEntity
8
2
62
256
6
ByLayer
370
-1
48
1
60
0
100
AcDbLine
10
77.25
20
-10.9
30
0
11
77.667997
21
-7.724998
31
0
39
0
210
0
220
0
230
1
0
LINE
5
153
100
AcDbEntity
8
2
62
256
6
ByLayer
370
-1
48
1
60
0
100
AcDbLine
10
76.832003
20
-7.725002
30
0
11
77.667997
21
-7.724998
31
0
39
0
210
0
220
0
230
1
0
ENDBLK
5
155
100
AcDbEntity
8
0
100
AcDbBlockEnd
0
BLOCK
5
162
100
AcDbEntity
8
0
100
AcDbBlockBegin
2
DimnDraft3D4
70
0
10
0
20
0
30
0
3
DimnDraft3D4
0
MTEXT
5
158
100
AcDbEntity
8
2
62
256
6
ByLayer
370
-1
48
1
60
0
100
AcDbMText
10
28.461842
20
-42.025
30
0
210
0
220
0
230
1
1
\W01.000;\fsimplex.shx,bigfont.shx;65.0 
40
4.5
41
0
44
1.084337
50
0
71
7
72
5
7
DEFAULT
0
LINE
5
159
100
AcDbEntity
8
2
62
256
6
ByLayer
370
-1
48
1
60
0
100
AcDbLine
10
0
20
-18
30
0
11
0
21
-45.15
31
0
39
0
210
0
220
0
230
1
0
LINE
5
15A
100
AcDbEntity
8
2
62
256
6
ByLayer
370
-1
48
1
60
0
100
AcDbLine
10
65
20
-12.9
30
0
11
65
21
-45.15
31
0
39
0
210
0
220
0
230
1
0
LINE
5
15B
100
AcDbEntity
8
2
62
256
6
ByLayer
370
-1
48
1
60
0
100
AcDbLine
10
0
20
-43.15
30
0
11
65
21
-43.15
31
0
39
0
210
0
220
0
230
1
0
LINE
5
15C
100
AcDbEntity
8
2
62
256
6
ByLayer
370
-1
48
1
60
0
100
AcDbLine
10
0
20
-43.15
30
0
11
3.174998
21
-42.732003
31
0
39
0
210
0
220
0
230
1
0
LINE
5
15D
100
AcDbEntity
8
2
62
256
6
ByLayer
370
-1
48
1
60
0
100
AcDbLine
10
0
20
-43.15
30
0
11
3.175002
21
-43.567997
31
0
39
0
210
0
220
0
230
1
0
LINE
5
15E
100
AcDbEntity
8
2
62
256
6
ByLayer
370
-1
48
1
60
0
100
AcDbLine
10
3.174998
20
-42.732003
30
0
11
3.175002
21
-43.567997
31
0
39
0
210
0
220
0
230
1
0
LINE
5
15F
100
AcDbEntity
8
2
62
256
6
ByLayer
370
-1
48
1
60
0
100
AcDbLine
10
65
20
-43.15
30
0
11
61.825002
21
-43.567997
31
0
39
0
210
0
220
0
230
1
0
LINE
5
160
100
AcDbEntity
8
2
62
256
6
ByLayer
370
-1
48
1
60
0
100
AcDbLine
10
65
20
-43.15
30
0
11
61.824998
21
-42.732003
31
0
39
0
210
0
220
0
230
1
0
LINE
5
161
100
AcDbEntity
8
2
62
256
6
ByLayer
370
-1
48
1
60
0
100
AcDbLine
10
61.825002
20
-43.567997
30
0
11
61.824998
21
-42.732003
31
0
39
0
210
0
220
0
230
1
0
ENDBLK
5
163
100
AcDbEntity
8
0
100
AcDbBlockEnd
0
BLOCK
5
170
100
AcDbEntity
8
0
100
AcDbBlockBegin
2
DimnDraft3D5
70
0
10
0
20
0
30
0
3
DimnDraft3D5
0
MTEXT
5
166
100
AcDbEntity
8
2
62
256
6
ByLayer
370
-1
48
1
60
0
100
AcDbMText
10
36.288158
20
-27.025
30
0
210
0
220
0
230
1
1
\W01.000;\fsimplex.shx,bigfont.shx;48.4 
40
4.5
41
0
44
1.084337
50
0
71
7
72
5
7
DEFAULT
0
LINE
5
167
100
AcDbEntity
8
2
62
256
6
ByLayer
370
-1
48
1
60
0
100
AcDbLine
10
16.6
20
-10
30
0
11
16.6
21
-30.15
31
0
39
0
210
0
220
0
230
1
0
LINE
5
168
100
AcDbEntity
8
2
62
256
6
ByLayer
370
-1
48
1
60
0
100
AcDbLine
10
65
20
-12.9
30
0
11
65
21
-30.15
31
0
39
0
210
0
220
0
230
1
0
LINE
5
169
100
AcDbEntity
8
2
62
256
6
ByLayer
370
-1
48
1
60
0
100
AcDbLine
10
16.6
20
-28.15
30
0
11
65
21
-28.15
31
0
39
0
210
0
220
0
230
1
0
LINE
5
16A
100
AcDbEntity
8
2
62
256
6
ByLayer
370
-1
48
1
60
0
100
AcDbLine
10
16.6
20
-28.15
30
0
11
19.774998
21
-27.732003
31
0
39
0
210
0
220
0
230
1
0
LINE
5
16B
100
AcDbEntity
8
2
62
256
6
ByLayer
370
-1
48
1
60
0
100
AcDbLine
10
16.6
20
-28.15
30
0
11
19.775002
21
-28.567997
31
0
39
0
210
0
220
0
230
1
0
LINE
5
16C
100
AcDbEntity
8
2
62
256
6
ByLayer
370
-1
48
1
60
0
100
AcDbLine
10
19.774998
20
-27.732003
30
0
11
19.775002
21
-28.567997
31
0
39
0
210
0
220
0
230
1
0
LINE
5
16D
100
AcDbEntity
8
2
62
256
6
ByLayer
370
-1
48
1
60
0
100
AcDbLine
10
65
20
-28.15
30
0
11
61.825002
21
-28.567997
31
0
39
0
210
0
220
0
230
1
0
LINE
5
16E
100
AcDbEntity
8
2
62
256
6
ByLayer
370
-1
48
1
60
0
100
AcDbLine
10
65
20
-28.15
30
0
11
61.824998
21
-27.732003
31
0
39
0
210
0
220
0
230
1
0
LINE
5
16F
100
AcDbEntity
8
2
62
256
6
ByLayer
370
-1
48
1
60
0
100
AcDbLine
10
61.825002
20
-28.567997
30
0
11
61.824998
21
-27.732003
31
0
39
0
210
0
220
0
230
1
0
ENDBLK
5
171
100
AcDbEntity
8
0
100
AcDbBlockEnd
0
BLOCK
5
17E
100
AcDbEntity
8
0
100
AcDbBlockBegin
2
DimnDraft3D6
70
0
10
0
20
0
30
0
3
DimnDraft3D6
0
MTEXT
5
174
100
AcDbEntity
8
2
62
256
6
ByLayer
370
-1
48
1
60
0
100
AcDbMText
10
87.504618
20
31.938034
30
0
210
0
220
0
230
1
1
\W01.000;\fsimplex.shx,bigfont.shx;93%%d0' 
40
4.5
41
0
44
1.084337
50
316.5
71
7
72
5
7
DEFAULT
0
LINE
5
175
100
AcDbEntity
8
2
62
256
6
ByLayer
370
-1
48
1
60
0
100
AcDbLine
10
64.528976
20
-1.912334
30
0
11
62.339169
21
39.871689
31
0
39
0
210
0
220
0
230
1
0
LINE
5
176
100
AcDbEntity
8
2
62
256
6
ByLayer
370
-1
48
1
60
0
100
AcDbLine
10
67
20
0
30
0
11
104.355162
21
0
31
0
39
0
210
0
220
0
230
1
0
ARC
5
177
100
AcDbEntity
8
2
62
256
6
ByLayer
370
-1
48
1
60
0
100
AcDbCircle
39
0
10
64.428755
20
0
30
0
40
37.9264068640929
210
0
220
0
230
1
100
AcDbArc
50
0
51
93
0
LINE
5
178
100
AcDbEntity
8
2
62
256
6
ByLayer
370
-1
48
1
60
0
100
AcDbLine
10
62.44384
20
37.87443
30
0
11
65.604128
21
38.392036
31
0
39
0
210
0
220
0
230
1
0
LINE
5
179
100
AcDbEntity
8
2
62
256
6
ByLayer
370
-1
48
1
60
0
100
AcDbLine
10
62.44384
20
37.87443
30
0
11
65.630414
21
37.556456
31
0
39
0
210
0
220
0
230
1
0
LINE
5
17A
100
AcDbEntity
8
2
62
256
6
ByLayer
370
-1
48
1
60
0
100
AcDbLine
10
65.604128
20
38.392036
30
0
11
65.630414
21
37.556456
31
0
39
0
210
0
220
0
230
1
0
LINE
5
17B
100
AcDbEntity
8
2
62
256
6
ByLayer
370
-1
48
1
60
0
100
AcDbLine
10
102.355162
20
0
30
0
11
101.870852
21
3.165562
31
0
39
0
210
0
220
0
230
1
0
LINE
5
17C
100
AcDbEntity
8
2
62
256
6
ByLayer
370
-1
48
1
60
0
100
AcDbLine
10
102.355162
20
0
30
0
11
102.706662
21
3.183049
31
0
39
0
210
0
220
0
230
1
0
LINE
5
17D
100
AcDbEntity
8
2
62
256
6
ByLayer
370
-1
48
1
60
0
100
AcDbLine
10
101.870852
20
3.165562
30
0
11
102.706662
21
3.183049
31
0
39
0
210
0
220
0
230
1
0
ENDBLK
5
17F
100
AcDbEntity
8
0
100
AcDbBlockEnd
0
ENDSEC
0
SECTION
2
ENTITIES
0
ARC
5
8A
100
AcDbEntity
8
1
62
256
6
ByLayer
370
-1
48
1
60
0
100
AcDbCircle
39
0
10
-21.228275
20
-14
30
0
40
6
210
0
220
0
230
-1
100
AcDbArc
50
14.708304
51
90
0
ARC
5
8B
100
AcDbEntity
8
1
62
256
6
ByLayer
370
-1
48
1
60
0
100
AcDbCircle
39
0
10
-21.228275
20
14
30
0
40
6
210
0
220
0
230
-1
100
AcDbArc
50
270
51
345.291696
0
ARC
5
8C
100
AcDbEntity
8
SK1
62
256
6
ByLayer
370
-1
48
1
60
0
100
AcDbCircle
39
0
10
0.6
20
11.8
30
0
40
1
210
0
220
0
230
-1
100
AcDbArc
50
233.130102
51
246.421822
0
ARC
5
8D
100
AcDbEntity
8
SK1
62
256
6
ByLayer
370
-1
48
1
60
0
100
AcDbCircle
39
0
10
0.6
20
-11.8
30
0
40
1
210
0
220
0
230
-1
100
AcDbArc
50
113.578178
51
126.869898
0
ELLIPSE
5
8E
100
AcDbEntity
8
1
62
256
6
ByLayer
370
-1
48
1
60
0
100
AcDbEllipse
10
68.304095
20
-4.75334
30
0
11
-4.19424404596921
21
-0.219811016220398
31
0
210
0
220
0
230
1
40
0.997126
41
-0.439975954790888
42
-0.391928592698303
0
ELLIPSE
5
8F
100
AcDbEntity
8
1
62
256
6
ByLayer
370
-1
48
1
60
0
100
AcDbEllipse
10
58.476136
20
0.033589
30
0
11
-1.0485610114923
21
-0.054952754055099
31
0
210
0
220
0
230
1
40
0.997126
41
2.75909929579824
42
2.78398620744039
0
ELLIPSE
5
90
100
AcDbEntity
8
1
62
256
6
ByLayer
370
-1
48
1
60
0
100
AcDbEllipse
10
58.476136
20
0.033589
30
0
11
-1.0485610114923
21
-0.054952754055099
31
0
210
0
220
0
230
1
40
0.997126
41
0.0889120777820944
42
1.19431336887273
0
ELLIPSE
5
91
100
AcDbEntity
8
1
62
256
6
ByLayer
370
-1
48
1
60
0
100
AcDbEllipse
10
-0.928203
20
0
30
0
11
7.49393430382698
21
15.7933993222019
31
0
210
0
220
0
230
-1
40
0.341999
41
0.161466571197697
42
1.08757920120044
0
ELLIPSE
5
92
100
AcDbEntity
8
1
62
256
6
ByLayer
370
-1
48
1
60
0
100
AcDbEllipse
10
12.928203
20
0
30
0
11
7.49393430382674
21
15.7933993222016
31
0
210
0
220
0
230
-1
40
0.341999
41
-2.98012608239209
42
-2.05401345238933
0
ELLIPSE
5
93
100
AcDbEntity
8
1
62
256
6
ByLayer
370
-1
48
1
60
0
100
AcDbEllipse
10
12.928203
20
0
30
0
11
7.49393430382662
21
-15.7933993222013
31
0
210
0
220
0
230
-1
40
0.341999
41
2.05401345238933
42
2.98012608239209
0
ELLIPSE
5
94
100
AcDbEntity
8
1
62
256
6
ByLayer
370
-1
48
1
60
0
100
AcDbEllipse
10
58.298614
20
-1.016335
30
0
11
-1.24828691844322
21
-0.0654199453036896
31
0
210
0
220
0
230
1
40
0.997126
41
0.0654635128446017
42
0.959931088596885
0
ELLIPSE
5
95
100
AcDbEntity
8
1
62
256
6
ByLayer
370
-1
48
1
60
0
100
AcDbEllipse
10
58.484673
20
-0.129301
30
0
11
1.0485610114923
21
0.0549527540550997
31
0
210
0
220
0
230
1
40
0.997126
41
-0.263164752213136
42
-3.05268057580771
0
ELLIPSE
5
96
100
AcDbEntity
8
1
62
256
6
ByLayer
370
-1
48
1
60
0
100
AcDbEllipse
10
-0.928203
20
0
30
0
11
7.49393430382716
21
-15.7933993222021
31
0
210
0
220
0
230
-1
40
0.341999
41
-1.08757920120044
42
-0.161466571197699
0
ELLIPSE
5
97
100
AcDbEntity
8
1
62
256
6
ByLayer
370
-1
48
1
60
0
100
AcDbEllipse
10
57.779318
20
-10.936223
30
0
11
-4.19424404596921
21
-0.219811016220397
31
0
210
0
220
0
230
1
40
0.997126
41
-1.78282931837934
42
-0.837758040957293
0
ELLIPSE
5
98
100
AcDbEntity
8
1
62
256
6
ByLayer
370
-1
48
1
60
0
100
AcDbEllipse
10
58.307151
20
-1.179225
30
0
11
-1.24828691844322
21
-0.0654199453036896
31
0
210
0
220
0
230
1
40
0.997126
41
-0.862027290779753
42
0.95993108859685
0
ELLIPSE
5
99
100
AcDbEntity
8
1
62
256
6
ByLayer
370
-1
48
1
60
0
100
AcDbEllipse
10
58.474352
20
0.067634
30
0
11
-1.0485610114923
21
-0.054952754055099
31
0
210
0
220
0
230
1
40
0.997126
41
2.73172552260129
42
3.04725971075569
0
ELLIPSE
5
9A
100
AcDbEntity
8
1
62
256
6
ByLayer
370
-1
48
1
60
0
100
AcDbEllipse
10
58.474352
20
0.067634
30
0
11
-1.0485610114923
21
-0.054952754055099
31
0
210
0
220
0
230
1
40
0.997126
41
0.0942609564489571
42
1.1943089080211
0
ELLIPSE
5
9B
100
AcDbEntity
8
1
62
256
6
ByLayer
370
-1
48
1
60
0
100
AcDbEllipse
10
58.851463
20
-6.921023
30
0
11
0.396331096605723
21
0.0207708326339217
31
0
210
0
220
0
230
1
40
0.997126
41
3.14159265358979
42
-2.18166156499289
0
ELLIPSE
5
9C
100
AcDbEntity
8
1
62
256
6
ByLayer
370
-1
48
1
60
0
100
AcDbEllipse
10
61.547812
20
-5.287897
30
0
11
1.87243037766482
21
0.098129917955535
31
0
210
0
220
0
230
1
40
0.997126
41
3.08908208998976
42
-9.50120961991568E-16
0
ELLIPSE
5
9D
100
AcDbEntity
8
1
62
256
6
ByLayer
370
-1
48
1
60
0
100
AcDbEllipse
10
61.547812
20
-5.287897
30
0
11
1.87243037766482
21
0.098129917955535
31
0
210
0
220
0
230
1
40
0.997126
41
0
42
1.16898013593241
0
ELLIPSE
5
9E
100
AcDbEntity
8
1
62
256
6
ByLayer
370
-1
48
1
60
0
100
AcDbEllipse
10
61.547812
20
-5.287897
30
0
11
1.87243037766482
21
0.098129917955535
31
0
210
0
220
0
230
1
40
0.997126
41
1.97254068599507
42
3.08908208998976
0
ELLIPSE
5
9F
100
AcDbEntity
8
1
62
256
6
ByLayer
370
-1
48
1
60
0
100
AcDbEllipse
10
64.603128
20
-10.504262
30
0
11
0.39633109660577
21
0.0207708326339241
31
0
210
0
220
0
230
1
40
0.997126
41
-2.18166156499296
42
-4.48876045035327E-15
0
ELLIPSE
5
A0
100
AcDbEntity
8
1
62
256
6
ByLayer
370
-1
48
1
60
0
100
AcDbEllipse
10
61.547232
20
-5.276824
30
0
11
1.82225885974135
21
0.0955005401179058
31
0
210
0
220
0
230
1
40
0.997126
41
0
42
6.28318530717959
0
ELLIPSE
5
A1
100
AcDbEntity
8
1
62
256
6
ByLayer
370
-1
48
1
60
0
100
AcDbEllipse
10
61.55031
20
-5.335559
30
0
11
1.91642389486198
21
0.100435520494688
31
0
210
0
220
0
230
1
40
0.997126
41
0
42
6.28318530717959
0
ELLIPSE
5
A2
100
AcDbEntity
8
1
62
256
6
ByLayer
370
-1
48
1
60
0
100
AcDbEllipse
10
58.497492
20
-0.166856
30
0
11
0.39633109660577
21
0.0207708326339241
31
0
210
0
220
0
230
1
40
0.997126
41
0.959931088596657
42
3.1415926535896
0
ELLIPSE
5
A3
100
AcDbEntity
8
1
62
256
6
ByLayer
370
-1
48
1
60
0
100
AcDbEllipse
10
64.249157
20
-3.750095
30
0
11
0.396331096605723
21
0.0207708326339217
31
0
210
0
220
0
230
1
40
0.997126
41
0
42
0.959931088596792
0
ELLIPSE
5
A4
100
AcDbEntity
8
1
62
256
6
ByLayer
370
-1
48
1
60
0
100
AcDbEllipse
10
61.128163
20
-5.995162
30
0
11
-0.184746463929596
21
-0.00968215190494611
31
0
210
0
220
0
230
1
40
0.997126
41
0.17434078477935
42
2.30249181317747
0
ELLIPSE
5
A5
100
AcDbEntity
8
1
62
256
6
ByLayer
370
-1
48
1
60
0
100
AcDbEllipse
10
61.550161
20
-5.332713
30
0
11
1.03358156847098
21
0.0541677147114552
31
0
210
0
220
0
230
1
40
0.997126
41
-0.0444912109597717
42
1.00442229955662
0
ELLIPSE
5
A6
100
AcDbEntity
8
1
62
256
6
ByLayer
370
-1
48
1
60
0
100
AcDbEllipse
10
61.550161
20
-5.332713
30
0
11
1.03358156847098
21
0.0541677147114552
31
0
210
0
220
0
230
1
40
0.997126
41
-1.09083078249647
42
-0.0444912109597717
0
ELLIPSE
5
A7
100
AcDbEntity
8
1
62
256
6
ByLayer
370
-1
48
1
60
0
100
AcDbEllipse
10
62.396164
20
-5.250262
30
0
11
-0.184746463929596
21
-0.00968215190494611
31
0
210
0
220
0
230
1
40
0.997126
41
1.79903192900935
42
2.96560879547276
0
ELLIPSE
5
A8
100
AcDbEntity
8
1
62
256
6
ByLayer
370
-1
48
1
60
0
100
AcDbEllipse
10
61.546196
20
-5.257059
30
0
11
-0.74697489199642
21
-0.0391472952697277
31
0
210
0
220
0
230
1
40
0.997126
41
-2.5560117155035
42
-1.83185417825577
0
ELLIPSE
5
A9
100
AcDbEntity
8
1
62
256
6
ByLayer
370
-1
48
1
60
0
100
AcDbEllipse
10
61.546196
20
-5.257059
30
0
11
-0.74697489199642
21
-0.0391472952697277
31
0
210
0
220
0
230
1
40
0.997126
41
0.517696896215523
42
1.527592085325
0
ELLIPSE
5
AA
100
AcDbEntity
8
1
62
256
6
ByLayer
370
-1
48
1
60
0
100
AcDbEllipse
10
61.546593
20
-5.264624
30
0
11
1.72263594745164
21
0.0902795245190922
31
0
210
0
220
0
230
1
40
0.997126
41
3.08908208998976
42
-3.14157966276704
0
ELLIPSE
5
AB
100
AcDbEntity
8
1
62
256
6
ByLayer
370
-1
48
1
60
0
100
AcDbEllipse
10
61.546593
20
-5.264624
30
0
11
1.72263594745164
21
0.0902795245190922
31
0
210
0
220
0
230
1
40
0.997126
41
0
42
3.08908227048283
0
ELLIPSE
5
AC
100
AcDbEntity
8
1
62
256
6
ByLayer
370
-1
48
1
60
0
100
AcDbEllipse
10
61.546196
20
-5.257059
30
0
11
0.746974891996421
21
0.0391472952697281
31
0
210
0
220
0
230
1
40
0.997126
41
-1.61400056826479
42
-0.567660996728124
0
ELLIPSE
5
AD
100
AcDbEntity
8
1
62
256
6
ByLayer
370
-1
48
1
60
0
100
AcDbEllipse
10
61.556732
20
-6.423655
30
0
11
-0.42142166366643
21
-0.0220857735345256
31
0
210
0
220
0
230
1
40
0.997126
41
-2.38890029611722
42
-1.61400056826478
0
ELLIPSE
5
AE
100
AcDbEntity
8
1
62
256
6
ByLayer
370
-1
48
1
60
0
100
AcDbEllipse
10
62.553111
20
-4.665537
30
0
11
-0.42142166366643
21
-0.0220857735345256
31
0
210
0
220
0
230
1
40
0.997126
41
-0.297120655593502
42
9.45024090944254E-06
0
ELLIPSE
5
AF
100
AcDbEntity
8
1
62
256
6
ByLayer
370
-1
48
1
60
0
100
AcDbEllipse
10
61.549472
20
-5.319555
30
0
11
1.72263594745164
21
0.0902795245190922
31
0
210
0
220
0
230
1
40
0.997126
41
0
42
6.28318530717959
0
ELLIPSE
5
B0
100
AcDbEntity
8
1
62
256
6
ByLayer
370
-1
48
1
60
0
100
AcDbEllipse
10
61.546196
20
-5.257059
30
0
11
-0.74697489199642
21
-0.0391472952697277
31
0
210
0
220
0
230
1
40
0.997126
41
-0.349839296834712
42
0.442234192381386
0
ELLIPSE
5
B1
100
AcDbEntity
8
1
62
256
6
ByLayer
370
-1
48
1
60
0
100
AcDbEllipse
10
61.546196
20
-5.257059
30
0
11
-0.74697489199642
21
-0.0391472952697277
31
0
210
0
220
0
230
1
40
0.997126
41
2.57393165686166
42
-2.83678243653132
0
ELLIPSE
5
B2
100
AcDbEntity
8
1
62
256
6
ByLayer
370
-1
48
1
60
0
100
AcDbEllipse
10
61.546196
20
-5.257059
30
0
11
-0.74697489199642
21
-0.0391472952697277
31
0
210
0
220
0
230
1
40
0.997126
41
-1.37600752889257
42
-0.668142777853266
0
ELLIPSE
5
B3
100
AcDbEntity
8
1
62
256
6
ByLayer
370
-1
48
1
60
0
100
AcDbEllipse
10
60.696228
20
-5.263856
30
0
11
-0.184746463929596
21
-0.00968215190494611
31
0
210
0
220
0
230
1
40
0.997126
41
0.191010006986879
42
1.25705174419046
0
ELLIPSE
5
B4
100
AcDbEntity
8
1
62
256
6
ByLayer
370
-1
48
1
60
0
100
AcDbEllipse
10
61.550161
20
-5.332713
30
0
11
1.03358156847098
21
0.0541677147114552
31
0
210
0
220
0
230
1
40
0.997126
41
-2.13717035403313
42
-1.09083078249647
0
ELLIPSE
5
B5
100
AcDbEntity
8
1
62
256
6
ByLayer
370
-1
48
1
60
0
100
AcDbEllipse
10
61.550161
20
-5.332713
30
0
11
1.03358156847098
21
0.0541677147114552
31
0
210
0
220
0
230
1
40
0.997126
41
1.00442229955662
42
2.05076187109334
0
ELLIPSE
5
B6
100
AcDbEntity
8
1
62
256
6
ByLayer
370
-1
48
1
60
0
100
AcDbEllipse
10
61.550161
20
-5.332713
30
0
11
1.03358156847098
21
0.0541677147114552
31
0
210
0
220
0
230
1
40
0.997126
41
3.09710144263003
42
-2.13717035403313
0
ELLIPSE
5
B7
100
AcDbEntity
8
1
62
256
6
ByLayer
370
-1
48
1
60
0
100
AcDbEllipse
10
61.97749
20
-5.98728
30
0
11
-0.184746463929596
21
-0.00968215190494611
31
0
210
0
220
0
230
1
40
0.997126
41
0.752692357472567
42
2.94841523386486
0
ELLIPSE
5
B8
100
AcDbEntity
8
1
62
256
6
ByLayer
370
-1
48
1
60
0
100
AcDbEllipse
10
61.549504
20
-5.320177
30
0
11
0.746974891996421
21
0.0391472952697281
31
0
210
0
220
0
230
1
40
0.997126
41
0.442234192381363
42
0.517696896215477
0
ELLIPSE
5
B9
100
AcDbEntity
8
1
62
256
6
ByLayer
370
-1
48
1
60
0
100
AcDbEllipse
10
62.564171
20
-5.831826
30
0
11
-0.42142166366643
21
-0.0220857735345256
31
0
210
0
220
0
230
1
40
0.997126
41
-0.567660996728131
42
-1.17165041042908E-05
0
ELLIPSE
5
BA
100
AcDbEntity
8
1
62
256
6
ByLayer
370
-1
48
1
60
0
100
AcDbEllipse
10
61.549504
20
-5.320177
30
0
11
0.746974891996421
21
0.0391472952697281
31
0
210
0
220
0
230
1
40
0.997126
41
-2.69935846120843
42
-2.62389575737426
0
ELLIPSE
5
BB
100
AcDbEntity
8
1
62
256
6
ByLayer
370
-1
48
1
60
0
100
AcDbEllipse
10
61.550161
20
-5.332713
30
0
11
1.03358156847098
21
0.0541677147114552
31
0
210
0
220
0
230
1
40
0.997126
41
2.05076187109334
42
3.09710144263003
0
ELLIPSE
5
BC
100
AcDbEntity
8
1
62
256
6
ByLayer
370
-1
48
1
60
0
100
AcDbEllipse
10
62.564171
20
-5.831826
30
0
11
-0.42142166366643
21
-0.0220857735345256
31
0
210
0
220
0
230
1
40
0.997126
41
-1.3425607245806
42
-0.567660996728131
0
ELLIPSE
5
BD
100
AcDbEntity
8
1
62
256
6
ByLayer
370
-1
48
1
60
0
100
AcDbEllipse
10
61.556732
20
-6.423655
30
0
11
-0.42142166366643
21
-0.0220857735345256
31
0
210
0
220
0
230
1
40
0.997126
41
-1.61400056826478
42
-0.839100840412339
0
ELLIPSE
5
BE
100
AcDbEntity
8
1
62
256
6
ByLayer
370
-1
48
1
60
0
100
AcDbEllipse
10
61.550161
20
-5.332713
30
0
11
1.29821839518095
21
0.0680367431158381
31
0
210
0
220
0
230
1
40
0.997126
41
0
42
6.28318530717959
0
POINT
5
41
100
AcDbEntity
8
80
62
256
6
ByLayer
370
-1
48
1
60
0
100
AcDbPoint
10
0
20
0
30
0
39
0
210
0
220
0
230
1
50
360
0
POINT
5
43
100
AcDbEntity
8
81
62
256
6
ByLayer
370
-1
48
1
60
0
100
AcDbPoint
10
65
20
-10.9
30
0
39
0
210
0
220
0
230
1
50
360
0
POINT
5
45
100
AcDbEntity
8
1
62
256
6
ByLayer
370
-1
48
1
60
0
100
AcDbPoint
10
0
20
0
30
0
39
0
210
0
220
0
230
1
50
360
0
POINT
5
47
100
AcDbEntity
8
2
62
256
6
ByLayer
370
-1
48
1
60
0
100
AcDbPoint
10
65
20
10.9
30
0
39
0
210
0
220
0
230
1
50
360
0
POINT
5
49
100
AcDbEntity
8
2
62
256
6
ByLayer
370
-1
48
1
60
0
100
AcDbPoint
10
64.771013
20
9.945945
30
0
39
0
210
0
220
0
230
1
50
360
0
SPLINE
5
BF
100
AcDbEntity
8
SK1
62
256
6
ByLayer
370
-1
48
1
60
0
100
AcDbSpline
70
4
71
2
72
6
73
3
40
0
40
0
40
0
40
1
40
1
40
1
41
1
10
-2.5
20
10.9999999791865
30
0
41
1
10
-10.2501577226355
20
10.8052890415268
30
0
41
1
10
-18.0003154452711
20
10.6105781038671
30
0
0
SPLINE
5
C0
100
AcDbEntity
8
SK1
62
256
6
ByLayer
370
-1
48
1
60
0
100
AcDbSpline
70
4
71
2
72
6
73
3
40
0
40
0
40
0
40
1
40
1
40
1
41
1
10
-18.0003154452711
20
-10.6105781447962
30
0
41
1
10
-10.2501577226355
20
-10.805289083207
30
0
41
1
10
-2.5
20
-11.0000000216178
30
0
0
SPLINE
5
C1
100
AcDbEntity
8
SK1
62
256
6
ByLayer
370
-1
48
1
60
0
100
AcDbSpline
70
4
71
2
72
6
73
3
40
0
40
0
40
0
40
1
40
1
40
1
41
1
10
-2.5
20
-11.0000000216178
30
0
41
1
10
-2.09751251213362
20
-11.0101119082743
30
0
41
1
10
-1.69502502426718
20
-11.0202237949308
30
0
0
SPLINE
5
C2
100
AcDbEntity
8
SK1
62
256
6
ByLayer
370
-1
48
1
60
0
100
AcDbSpline
70
4
71
2
72
6
73
3
40
0
40
0
40
0
40
1
40
1
40
1
41
1
10
-1.69502502426718
20
11.0202237524214
30
0
41
1
10
-2.09751251213362
20
11.0101118658039
30
0
41
1
10
-2.5
20
10.9999999791865
30
0
0
SPLINE
5
C3
100
AcDbEntity
8
SK1
62
256
6
ByLayer
370
-1
48
1
60
0
100
AcDbSpline
70
4
71
2
72
6
73
3
40
0
40
0
40
0
40
1
40
1
40
1
41
1
10
-18.0002062662752
20
10.6070648849158
30
0
41
1
10
-18.5001026802154
20
10.301383051238
30
0
41
1
10
-19
20
9.99570806969172
30
0
0
SPLINE
5
C4
100
AcDbEntity
8
SK1
62
256
6
ByLayer
370
-1
48
1
60
0
100
AcDbSpline
70
4
71
2
72
6
73
3
40
0
40
0
40
0
40
1
40
1
40
1
41
1
10
-19
20
-9.996785310587
30
0
41
1
10
-18.5001033313043
20
-10.302566364032
30
0
41
1
10
-18.0002077056275
20
-10.6083539004405
30
0
0
SPLINE
5
C5
100
AcDbEntity
8
SK1
62
256
6
ByLayer
370
-1
48
1
60
0
100
AcDbSpline
70
4
71
3
72
17
73
13
40
0
40
0
40
0
40
0
40
0.0147857283984951
40
0.096922612410325
40
0.193526403879446
40
0.30402017270381
40
0.426423791300417
40
0.557552662743554
40
0.693336977025398
40
0.829229756745751
40
0.960662645421235
40
1
40
1
40
1
40
1
41
1
10
-1.69885963580686
20
-2.44931817215209
30
0
41
1
10
-1.69878121045804
20
-2.50814386087498
30
0
41
1
10
-1.69812489743151
20
-2.89134404574403
30
0
41
1
10
-1.69381864805598
20
-3.61381721164045
30
0
41
1
10
-1.6859410395034
20
-4.64275879731954
30
0
41
1
10
-1.67432201824425
20
-5.72474664845239
30
0
41
1
10
-1.65947240173119
20
-6.81412463811753
30
0
41
1
10
-1.64151601153253
20
-7.85039508645337
30
0
41
1
10
-1.62100301117636
20
-8.78178233378625
30
0
41
1
10
-1.59832201180097
20
-9.54945878851581
30
0
41
1
10
-1.57990123420404
20
-10.0392607359167
30
0
41
1
10
-1.56837676962044
20
-10.224585960352
30
0
41
1
10
-1.56567452769786
20
-10.2638812175671
30
0
0
SPLINE
5
C6
100
AcDbEntity
8
SK1
62
256
6
ByLayer
370
-1
48
1
60
0
100
AcDbSpline
70
4
71
1
72
4
73
2
40
0
40
0
40
1
40
1
41
1
10
-1.69922662732802
20
-2.24422844727147
30
0
41
1
10
-1.69885963580686
20
-2.44931817215209
30
0
0
SPLINE
5
C7
100
AcDbEntity
8
SK1
62
256
6
ByLayer
370
-1
48
1
60
0
100
AcDbSpline
70
4
71
1
72
4
73
2
40
0
40
0
40
1
40
1
41
1
10
-1.69888663344005
20
2.43422323676444
30
0
41
1
10
-1.69921111833776
20
2.25288818144043
30
0
0
SPLINE
5
C8
100
AcDbEntity
8
SK1
62
256
6
ByLayer
370
-1
48
1
60
0
100
AcDbSpline
70
4
71
3
72
17
73
13
40
0
40
0
40
0
40
0
40
0.0392876794461218
40
0.170553566495534
40
0.306273633806252
40
0.44188531118983
40
0.572847869911188
40
0.695095316181934
40
0.80544854001527
40
0.901929404608446
40
0.983961763626605
40
1
40
1
40
1
40
1
41
1
10
-1.56567446797743
20
10.2638780538572
30
0
41
1
10
-1.5683767303633
20
10.2245823345271
30
0
41
1
10
-1.5799012115267
20
10.0392559851553
30
0
41
1
10
-1.59832201551916
20
9.54945264100604
30
0
41
1
10
-1.62100298179331
20
8.7817732691922
30
0
41
1
10
-1.64151611845767
20
7.85038870102488
30
0
41
1
10
-1.65947211442517
20
6.81410247033003
30
0
41
1
10
-1.6743227257129
20
5.7247470359481
30
0
41
1
10
-1.68593892797372
20
4.64271758310429
30
0
41
1
10
-1.6938250065179
20
3.61390246258944
30
0
41
1
10
-1.69813997988535
20
2.8863876355918
30
0
41
1
10
-1.69880349776554
20
2.49814548719061
30
0
41
1
10
-1.69888663344005
20
2.43422323676444
30
0
0
SPLINE
5
C9
100
AcDbEntity
8
SK1
62
256
6
ByLayer
370
-1
48
1
60
0
100
AcDbSpline
70
4
71
2
72
6
73
3
40
0
40
0
40
0
40
1
40
1
40
1
41
1
10
-1.5
20
-10.7847407283835
30
0
41
1
10
-1.19913538109506
20
-10.7847407283835
30
0
41
1
10
-0.89827076219018
20
-10.7847407283835
30
0
0
SPLINE
5
CA
100
AcDbEntity
8
SK1
62
256
6
ByLayer
370
-1
48
1
60
0
100
AcDbSpline
70
4
71
2
72
6
73
3
40
0
40
0
40
0
40
1
40
1
40
1
41
1
10
-0.885216220499217
20
10.7847407263988
30
0
41
1
10
-1.19260811024958
20
10.7847407263988
30
0
41
1
10
-1.5
20
10.7847407263988
30
0
0
SPLINE
5
CB
100
AcDbEntity
8
1
62
256
6
ByLayer
370
-1
48
1
60
0
100
AcDbSpline
70
4
71
3
72
18
73
14
40
0
40
0
40
0
40
0
40
0.0872973106983417
40
0.0872973106983417
40
0.542504713769245
40
0.542504713769245
40
0.700049237734307
40
0.700049237734307
40
0.859641035571736
40
0.859641035571736
40
0.97080052564029
40
0.97080052564029
40
1
40
1
40
1
40
1
41
1
10
4.66339745962154
20
-5.06861858311169
30
0
41
1
10
4.66664048724545
20
-5.05669118210812
30
0
41
1
10
4.67011875476442
20
-5.04481392106402
30
0
41
1
10
4.69320396133111
20
-4.97182102384318
30
0
41
1
10
4.71929050879203
20
-4.91100060572398
30
0
41
1
10
4.77107527248018
20
-4.83986869632042
30
0
41
1
10
4.78620198735473
20
-4.82232975779158
30
0
41
1
10
4.82059850439146
20
-4.79137868546448
30
0
41
1
10
4.84035202645151
20
-4.77770433946458
30
0
41
1
10
4.87713528116666
20
-4.76194246224043
30
0
41
1
10
4.89353665034179
20
-4.75754333105169
30
0
41
1
10
4.91442266320462
20
-4.75566124801006
30
0
41
1
10
4.91881627021672
20
-4.75546271781752
30
0
41
1
10
4.92320508075687
20
-4.75546271781752
30
0
0
SPLINE
5
CC
100
AcDbEntity
8
1
62
256
6
ByLayer
370
-1
48
1
60
0
100
AcDbSpline
70
4
71
3
72
18
73
14
40
0
40
0
40
0
40
0
40
0.0872973106983427
40
0.0872973106983427
40
0.542504713769251
40
0.542504713769251
40
0.700049237734308
40
0.700049237734308
40
0.859641035571733
40
0.859641035571733
40
0.970800525640285
40
0.970800525640285
40
1
40
1
40
1
40
1
41
1
10
4.66339745962154
20
15.1759383782004
30
0
41
1
10
4.66664048724545
20
15.1799220163036
30
0
41
1
10
4.67011875476442
20
15.1838732610658
30
0
41
1
10
4.69320396133111
20
15.2080620258527
30
0
41
1
10
4.71929050879203
20
15.2277749876852
30
0
41
1
10
4.77107527248018
20
15.2504441152008
30
0
41
1
10
4.78620198735473
20
15.2559954463097
30
0
41
1
10
4.82059850439146
20
15.2657445103485
30
0
41
1
10
4.84035202645151
20
15.2700240892114
30
0
41
1
10
4.87713528116666
20
15.2749451765724
30
0
41
1
10
4.89353665034179
20
15.2763144731656
30
0
41
1
10
4.91442266320462
20
15.2769004141622
30
0
41
1
10
4.91881627021672
20
15.2769622091386
30
0
41
1
10
4.92320508075687
20
15.2769622091386
30
0
0
SPLINE
5
CD
100
AcDbEntity
8
1
62
256
6
ByLayer
370
-1
48
1
60
0
100
AcDbSpline
70
4
71
3
72
16
73
12
40
0
40
0
40
0
40
0
40
0.0824510846571657
40
0.0824510846571657
40
0.188383068428384
40
0.188383068428384
40
0.365472907848039
40
0.365472907848039
40
0.680803291610384
40
0.680803291610384
40
1
40
1
40
1
40
1
41
1
10
4.92320508075693
20
4.75546271781764
30
0
41
1
10
4.91089649083546
20
4.75546271781764
30
0
41
1
10
4.89849486249386
20
4.75706222436497
30
0
41
1
10
4.87125637552424
20
4.76394233360963
30
0
41
1
10
4.85646478450172
20
4.77020840137905
30
0
41
1
10
4.82023312564894
20
4.79093881117953
30
0
41
1
10
4.80022243273464
20
4.80829129424853
30
0
41
1
10
4.75215970503024
20
4.86090601671924
30
0
41
1
10
4.72849000125774
20
4.90053819345553
30
0
41
1
10
4.69009643205953
20
4.98223274168748
30
0
41
1
10
4.67520403045438
20
5.02519567059605
30
0
41
1
10
4.66339745962159
20
5.06861858311177
30
0
0
SPLINE
5
CE
100
AcDbEntity
8
1
62
256
6
ByLayer
370
-1
48
1
60
0
100
AcDbSpline
70
4
71
3
72
16
73
12
40
0
40
0
40
0
40
0
40
0.0824510846571659
40
0.0824510846571659
40
0.188383068428396
40
0.188383068428396
40
0.365472907848055
40
0.365472907848055
40
0.680803291610427
40
0.680803291610427
40
1
40
1
40
1
40
1
41
1
10
7.07679491924307
20
15.2769622091386
30
0
41
1
10
7.08910350916454
20
15.2769622091386
30
0
41
1
10
7.10150513750614
20
15.2764645420423
30
0
41
1
10
7.12874362447576
20
15.2743206039305
30
0
41
1
10
7.14353521549828
20
15.2723664954752
30
0
41
1
10
7.17976687435106
20
15.2658799044773
30
0
41
1
10
7.19977756726536
20
15.2604302192604
30
0
41
1
10
7.24784029496976
20
15.2437803206195
30
0
41
1
10
7.27150999874226
20
15.231104729462
30
0
41
1
10
7.30990356794047
20
15.2045789137682
30
0
41
1
10
7.32479596954562
20
15.1904412165637
30
0
41
1
10
7.33660254037841
20
15.1759383782004
30
0
0
SPLINE
5
CF
100
AcDbEntity
8
1
62
256
6
ByLayer
370
-1
48
1
60
0
100
AcDbSpline
70
4
71
3
72
22
73
18
40
0
40
0
40
0
40
0
40
0.125
40
0.125
40
0.25
40
0.25
40
0.375
40
0.375
40
0.5
40
0.5
40
0.625
40
0.625
40
0.75
40
0.75
40
0.875
40
0.875
40
1
40
1
40
1
40
1
41
1
10
54.6051701038161
20
-7.99994069615119
30
0
41
1
10
52.9993971507722
20
-7.99991610367618
30
0
41
1
10
51.433100697559
20
-8.00965163246596
30
0
41
1
10
48.3854704703839
20
-7.92040425453655
30
0
41
1
10
46.9189279759397
20
-7.82602238355221
30
0
41
1
10
44.4571776134685
20
-7.08462779315178
30
0
41
1
10
43.4869292709245
20
-6.36692966608103
30
0
41
1
10
42.6611361232552
20
-4.02614673695803
30
0
41
1
10
42.7677275768006
20
-2.44675033458739
30
0
41
1
10
43.532290927907
20
0.662398294843058
30
0
41
1
10
44.1689143861495
20
2.16954231505426
30
0
41
1
10
45.82995798397
20
4.65760795659062
30
0
41
1
10
46.8620555029755
20
5.61690334504749
30
0
41
1
10
49.2424123963992
20
6.93466994661881
30
0
41
1
10
50.600908645163
20
7.3119738999236
30
0
41
1
10
53.4841549378485
20
7.75849045880526
30
0
41
1
10
55.0416150461793
20
7.84040955121358
30
0
41
1
10
56.6138012679647
20
7.87932471785825
30
0
0
SPLINE
5
D0
100
AcDbEntity
8
1
62
256
6
ByLayer
370
-1
48
1
60
0
100
AcDbSpline
70
4
71
3
72
18
73
14
40
0
40
0
40
0
40
0
40
0.0872973106982676
40
0.0872973106982676
40
0.542504713769245
40
0.542504713769245
40
0.700049237734301
40
0.700049237734301
40
0.859641035571716
40
0.859641035571716
40
0.970800525640281
40
0.970800525640281
40
1
40
1
40
1
40
1
41
1
10
7.33660254037846
20
-15.1759383782004
30
0
41
1
10
7.33335951275456
20
-15.1799220163035
30
0
41
1
10
7.32988124523558
20
-15.1838732610658
30
0
41
1
10
7.30679603866889
20
-15.2080620258526
30
0
41
1
10
7.28070949120797
20
-15.2277749876852
30
0
41
1
10
7.22892472751983
20
-15.2504441152008
30
0
41
1
10
7.21379801264527
20
-15.2559954463097
30
0
41
1
10
7.17940149560854
20
-15.2657445103485
30
0
41
1
10
7.15964797354849
20
-15.2700240892114
30
0
41
1
10
7.12286471883334
20
-15.2749451765724
30
0
41
1
10
7.10646334965821
20
-15.2763144731655
30
0
41
1
10
7.08557733679538
20
-15.2769004141622
30
0
41
1
10
7.08118372978328
20
-15.2769622091385
30
0
41
1
10
7.07679491924313
20
-15.2769622091385
30
0
0
SPLINE
5
D1
100
AcDbEntity
8
1
62
256
6
ByLayer
370
-1
48
1
60
0
100
AcDbSpline
70
4
71
3
72
18
73
14
40
0
40
0
40
0
40
0
40
0.0872973106983345
40
0.0872973106983345
40
0.542504713769339
40
0.542504713769339
40
0.700049237734365
40
0.700049237734365
40
0.859641035571757
40
0.859641035571757
40
0.970800525640322
40
0.970800525640322
40
1
40
1
40
1
40
1
41
1
10
7.33660254037846
20
5.06861858311174
30
0
41
1
10
7.3333595127545
20
5.05669118210821
30
0
41
1
10
7.32988124523558
20
5.04481392106408
30
0
41
1
10
7.30679603866884
20
4.97182102384326
30
0
41
1
10
7.28070949120792
20
4.91100060572404
30
0
41
1
10
7.22892472751983
20
4.83986869632048
30
0
41
1
10
7.21379801264521
20
4.82232975779166
30
0
41
1
10
7.17940149560854
20
4.79137868546457
30
0
41
1
10
7.15964797354843
20
4.77770433946466
30
0
41
1
10
7.12286471883334
20
4.76194246224051
30
0
41
1
10
7.10646334965821
20
4.75754333105178
30
0
41
1
10
7.08557733679532
20
4.75566124801017
30
0
41
1
10
7.08118372978328
20
4.75546271781764
30
0
41
1
10
7.07679491924313
20
4.75546271781764
30
0
0
SPLINE
5
D2
100
AcDbEntity
8
1
62
256
6
ByLayer
370
-1
48
1
60
0
100
AcDbSpline
70
4
71
3
72
28
73
24
40
-0.124999999999998
40
-0.124999999999998
40
0
40
0
40
0.125000000000001
40
0.125000000000001
40
0.187500000000001
40
0.187500000000001
40
0.250000000000002
40
0.250000000000002
40
0.375000000000002
40
0.375000000000002
40
0.500000000000003
40
0.500000000000003
40
0.625000000000004
40
0.625000000000004
40
0.687500000000004
40
0.687500000000004
40
0.718750000000004
40
0.718750000000004
40
0.750000000000003
40
0.750000000000003
40
0.875000000000002
40
0.875000000000002
40
1
40
1
40
1.125
40
1.125
41
1
10
49.7435500225844
20
-2.70113253146047
30
0
41
1
10
48.6686237816504
20
-2.22714687676771
30
0
41
1
10
48.1111518013103
20
-2.06695797086243
30
0
41
1
10
47.2660306535982
20
-2.21659246287379
30
0
41
1
10
46.9840900698188
20
-2.34119006508922
30
0
41
1
10
46.562276991006
20
-2.83470287823161
30
0
41
1
10
46.4662929806383
20
-3.1863772843025
30
0
41
1
10
46.5517461110766
20
-4.13490454415037
30
0
41
1
10
46.9683784836702
20
-4.57870647095268
30
0
41
1
10
47.8937756172195
20
-5.21013651822548
30
0
41
1
10
48.4452363060026
20
-5.41563131947885
30
0
41
1
10
49.6029895550865
20
-5.6910953440661
30
0
41
1
10
50.2253086874512
20
-5.77028294232497
30
0
41
1
10
51.180123830559
20
-5.74280457303868
30
0
41
1
10
51.5105673038744
20
-5.72081725811452
30
0
41
1
10
51.9564505953028
20
-5.52042005559093
30
0
41
1
10
52.1020089847938
20
-5.3995655177244
30
0
41
1
10
52.1623687241172
20
-5.07389957493353
30
0
41
1
10
52.0983629630966
20
-4.90991262070094
30
0
41
1
10
51.7193160451879
20
-4.19592147755048
30
0
41
1
10
51.2153314777658
20
-3.77957987754303
30
0
41
1
10
50.2481544239998
20
-3.02161515058503
30
0
41
1
10
49.7435500225844
20
-2.70113253146047
30
0
41
1
10
48.6686237816504
20
-2.22714687676771
30
0
0
SPLINE
5
D3
100
AcDbEntity
8
1
62
256
6
ByLayer
370
-1
48
1
60
0
100
AcDbSpline
70
4
71
3
72
16
73
12
40
0
40
0
40
0
40
0
40
0.0824510846571695
40
0.0824510846571695
40
0.188383068428396
40
0.188383068428396
40
0.365472907848062
40
0.365472907848062
40
0.680803291610439
40
0.680803291610439
40
1
40
1
40
1
40
1
41
1
10
7.07679491924313
20
-4.75546271781752
30
0
41
1
10
7.08910350916454
20
-4.75546271781752
30
0
41
1
10
7.10150513750614
20
-4.75706222436486
30
0
41
1
10
7.12874362447576
20
-4.76394233360952
30
0
41
1
10
7.14353521549828
20
-4.77020840137894
30
0
41
1
10
7.17976687435106
20
-4.79093881117942
30
0
41
1
10
7.19977756726536
20
-4.80829129424839
30
0
41
1
10
7.24784029496976
20
-4.86090601671913
30
0
41
1
10
7.27150999874226
20
-4.90053819345542
30
0
41
1
10
7.30990356794047
20
-4.98223274168734
30
0
41
1
10
7.32479596954562
20
-5.02519567059593
30
0
41
1
10
7.33660254037841
20
-5.06861858311163
30
0
0
SPLINE
5
D4
100
AcDbEntity
8
1
62
256
6
ByLayer
370
-1
48
1
60
0
100
AcDbSpline
70
4
71
3
72
16
73
12
40
0
40
0
40
0
40
0
40
0.0824510846571602
40
0.0824510846571602
40
0.188383068428385
40
0.188383068428385
40
0.365472907848031
40
0.365472907848031
40
0.680803291610383
40
0.680803291610383
40
1
40
1
40
1
40
1
41
1
10
4.92320508075693
20
-15.2769622091385
30
0
41
1
10
4.91089649083546
20
-15.2769622091385
30
0
41
1
10
4.89849486249386
20
-15.2764645420423
30
0
41
1
10
4.87125637552424
20
-15.2743206039304
30
0
41
1
10
4.85646478450172
20
-15.2723664954752
30
0
41
1
10
4.82023312564894
20
-15.2658799044772
30
0
41
1
10
4.80022243273464
20
-15.2604302192603
30
0
41
1
10
4.75215970503024
20
-15.2437803206194
30
0
41
1
10
4.72849000125774
20
-15.231104729462
30
0
41
1
10
4.69009643205953
20
-15.2045789137681
30
0
41
1
10
4.67520403045438
20
-15.1904412165636
30
0
41
1
10
4.66339745962159
20
-15.1759383782003
30
0
0
SPLINE
5
D5
100
AcDbEntity
8
SK1
62
256
6
ByLayer
370
-1
48
1
60
0
100
AcDbSpline
70
4
71
3
72
24
73
20
40
0
40
0
40
0
40
0
40
0.394887530671275
40
0.394887530671275
40
0.583923275334675
40
0.583923275334675
40
0.775640263639324
40
0.775640263639324
40
0.824781731617119
40
0.824781731617119
40
0.862517656538363
40
0.862517656538363
40
0.89426261244368
40
0.89426261244368
40
0.925906833096296
40
0.925906833096296
40
0.974831011730869
40
0.974831011730869
40
1
40
1
40
1
40
1
41
1
10
-1.30710678118658
20
-3.27410008506507
30
0
41
1
10
-1.25832942599459
20
-3.50149952651384
30
0
41
1
10
-1.19991064580012
20
-3.72346664111421
30
0
41
1
10
-1.08384884657397
20
-4.0370771437056
30
0
41
1
10
-1.04153791965376
20
-4.13675427692158
30
0
41
1
10
-0.938254289261693
20
-4.32801751486153
30
0
41
1
10
-0.878155607060592
20
-4.42371753851697
30
0
41
1
10
-0.767111712667372
20
-4.51729029260753
30
0
41
1
10
-0.741708507810927
20
-4.53512787407632
30
0
41
1
10
-0.691958906630077
20
-4.55987158851019
30
0
41
1
10
-0.668248724766499
20
-4.56845950218982
30
0
41
1
10
-0.622857383271423
20
-4.57708046005288
30
0
41
1
10
-0.600993180994863
20
-4.57825352233775
30
0
41
1
10
-0.558658423255963
20
-4.57453349365301
30
0
41
1
10
-0.537724143555636
20
-4.56966479399497
30
0
41
1
10
-0.488248270422446
20
-4.55200346897223
30
0
41
1
10
-0.460806462020514
20
-4.53627234602419
30
0
41
1
10
-0.423570034054364
20
-4.50937867037399
30
0
41
1
10
-0.411500153524855
20
-4.49956715918469
30
0
41
1
10
-0.400000000000034
20
-4.48934914533075
30
0
0
SPLINE
5
D6
100
AcDbEntity
8
SK1
62
256
6
ByLayer
370
-1
48
1
60
0
100
AcDbSpline
70
4
71
3
72
8
73
4
40
0
40
0
40
0
40
0
40
1
40
1
40
1
40
1
41
1
10
-1.30710678118658
20
-3.2741000850651
30
0
41
1
10
-1.37418676031894
20
-2.96137403161117
30
0
41
1
10
-1.43992527842408
20
-2.6391871954711
30
0
41
1
10
-1.5
20
-2.30830602436779
30
0
0
SPLINE
5
D7
100
AcDbEntity
8
SK1
62
256
6
ByLayer
370
-1
48
1
60
0
100
AcDbSpline
70
4
71
3
72
22
73
18
40
0
40
0
40
0
40
0
40
0.0449734260287716
40
0.0449734260287716
40
0.0906738274120162
40
0.0906738274120162
40
0.122638717708356
40
0.122638717708356
40
0.154549770731825
40
0.154549770731825
40
0.201552050367308
40
0.201552050367308
40
0.290895290031139
40
0.290895290031139
40
0.598982552652836
40
0.598982552652836
40
1
40
1
40
1
40
1
41
1
10
-0.400000000000034
20
4.48934893107537
30
0
41
1
10
-0.420456941468217
20
4.50752512906291
30
0
41
1
10
-0.44279365957027
20
4.52452287299627
30
0
41
1
10
-0.492193632877786
20
4.5532875570679
30
0
41
1
10
-0.520039992485408
20
4.56524258715393
30
0
41
1
10
-0.570193326457115
20
4.57628050315313
30
0
41
1
10
-0.592133279247662
20
4.57814021899074
30
0
41
1
10
-0.634912844043129
20
4.57562166953767
30
0
41
1
10
-0.656221684239426
20
4.57125895050498
30
0
41
1
10
-0.705207801022823
20
4.55499593975378
30
0
41
1
10
-0.732067427106074
20
4.54046143085233
30
0
41
1
10
-0.801682679231533
20
4.49257590710445
30
0
41
1
10
-0.839313324772718
20
4.45345948567501
30
0
41
1
10
-0.985377121353224
20
4.27336869710479
30
0
41
1
10
-1.0562136843908
20
4.11001095439886
30
0
41
1
10
-1.19814354028301
20
3.73039497896576
30
0
41
1
10
-1.25757188978821
20
3.50503116473169
30
0
41
1
10
-1.30710678118658
20
3.27410007766451
30
0
0
SPLINE
5
D8
100
AcDbEntity
8
SK1
62
256
6
ByLayer
370
-1
48
1
60
0
100
AcDbSpline
70
4
71
3
72
8
73
4
40
0
40
0
40
0
40
0
40
1
40
1
40
1
40
1
41
1
10
-1.5
20
2.30830715862382
30
0
41
1
10
-1.43992566134762
20
2.63918814774505
30
0
41
1
10
-1.3741866857074
20
2.96137434366062
30
0
41
1
10
-1.30710678118675
20
3.2741000776636
30
0
0
SPLINE
5
D9
100
AcDbEntity
8
SK1
62
256
6
ByLayer
370
-1
48
1
60
0
100
AcDbSpline
70
4
71
3
72
20
73
16
40
0
40
0
40
0
40
0
40
0.140420538696903
40
0.140420538696903
40
0.283113565135716
40
0.283113565135716
40
0.38300374929775
40
0.38300374929775
40
0.482719595028391
40
0.482719595028391
40
0.629860782987117
40
0.629860782987117
40
0.909835980316276
40
0.909835980316276
40
1
40
1
40
1
40
1
41
1
10
-0.400000000000034
20
-10.7720903551641
30
0
41
1
10
-0.420485425404365
20
-10.7699879927591
30
0
41
1
10
-0.442853612204203
20
-10.7679559042768
30
0
41
1
10
-0.492317942748457
20
-10.7644479456746
30
0
41
1
10
-0.520199073627055
20
-10.7629489681196
30
0
41
1
10
-0.57041474459777
20
-10.7615601980511
30
0
41
1
10
-0.592388657551908
20
-10.7613257206405
30
0
41
1
10
-0.635222276121908
20
-10.7616521249958
30
0
41
1
10
-0.656551809000575
20
-10.762210406105
30
0
41
1
10
-0.705635225108949
20
-10.7642598717253
30
0
41
1
10
-0.732559682028807
20
-10.7660705901044
30
0
41
1
10
-0.802383167639846
20
-10.7718500865204
30
0
41
1
10
-0.840123259759594
20
-10.7763551487408
30
0
41
1
10
-0.883850457362314
20
-10.7820664301106
30
0
41
1
10
-0.89406634953383
20
-10.783434797784
30
0
41
1
10
-0.903940088695094
20
-10.7847858831467
30
0
0
SPLINE
5
DA
100
AcDbEntity
8
SK1
62
256
6
ByLayer
370
-1
48
1
60
0
100
AcDbSpline
70
4
71
3
72
20
73
16
40
0
40
0
40
0
40
0
40
0.289591250207081
40
0.289591250207081
40
0.445641579471341
40
0.445641579471341
40
0.565150656188431
40
0.565150656188431
40
0.665669956959956
40
0.665669956959956
40
0.76587402669134
40
0.76587402669134
40
0.92060947572083
40
0.92060947572083
40
1
40
1
40
1
40
1
41
1
10
-0.899903122953731
20
10.7840848927913
30
0
41
1
10
-0.868449172464409
20
10.7797260979509
30
0
41
1
10
-0.832767748820572
20
10.775300420935
30
0
41
1
10
-0.767668067718603
20
10.7688851018166
30
0
41
1
10
-0.742170086684837
20
10.7667139324169
30
0
41
1
10
-0.692274786497364
20
10.7636476309374
30
0
41
1
10
-0.668530490600347
20
10.7625613907743
30
0
41
1
10
-0.62306916607713
20
10.7614648455063
30
0
41
1
10
-0.601170315114928
20
10.7613125350673
30
0
41
1
10
-0.558760887240567
20
10.7617815137992
30
0
41
1
10
-0.537785827568314
20
10.7623989525676
30
0
41
1
10
-0.488247839736005
20
10.7646079926068
30
0
41
1
10
-0.460778861773292
20
10.7665508551728
30
0
41
1
10
-0.423537546807495
20
10.7697595930047
30
0
41
1
10
-0.411485089493112
20
10.7709116409693
30
0
41
1
10
-0.400000000000034
20
10.7720903270618
30
0
0
SPLINE
5
DB
100
AcDbEntity
8
SK1
62
256
6
ByLayer
370
-1
48
1
60
0
100
AcDbSpline
70
4
71
3
72
32
73
28
40
0
40
0
40
0
40
0
40
0.365927089807649
40
0.365927089807649
40
0.434988381544102
40
0.434988381544102
40
0.459470391973526
40
0.459470391973526
40
0.484523297819611
40
0.484523297819611
40
0.495000485667551
40
0.495000485667551
40
0.505685328487508
40
0.505685328487508
40
0.512277836854413
40
0.512277836854413
40
0.518861441140287
40
0.518861441140287
40
0.528508909357715
40
0.528508909357715
40
0.546991571884285
40
0.546991571884285
40
0.628302439414124
40
0.628302439414124
40
0.950686415613842
40
0.950686415613842
40
1
40
1
40
1
40
1
41
1
10
-1.5
20
-2.30830602436802
30
0
41
1
10
-1.52221751736221
20
-2.18593578325891
30
0
41
1
10
-1.5452299933437
20
-2.06251508992042
30
0
41
1
10
-1.58645530727239
20
-1.92421817182063
30
0
41
1
10
-1.59351669828698
20
-1.90246957270816
30
0
41
1
10
-1.60499906250118
20
-1.87469947052622
30
0
41
1
10
-1.6082003540161
20
-1.8675788212021
30
0
41
1
10
-1.61534084307135
20
-1.85393197437202
30
0
41
1
10
-1.61929930659136
20
-1.84729792851803
30
0
41
1
10
-1.62596752666457
20
-1.83957892922561
30
0
41
1
10
-1.62809255235374
20
-1.83750162516705
30
0
41
1
10
-1.63273883786326
20
-1.83425727265225
30
0
41
1
10
-1.63534521763034
20
-1.8330769398703
30
0
41
1
10
-1.63973359946959
20
-1.83275236286212
30
0
41
1
10
-1.64148920088587
20
-1.83301807905258
30
0
41
1
10
-1.64485340276019
20
-1.83436876713788
30
0
41
1
10
-1.64649922195929
20
-1.83546324657846
30
0
41
1
10
-1.65020824529177
20
-1.83881160526317
30
0
41
1
10
-1.65218279132313
20
-1.84139532031719
30
0
41
1
10
-1.65723177402214
20
-1.849484045693
30
0
41
1
10
-1.65984043101901
20
-1.85563378259269
30
0
41
1
10
-1.67182065388494
20
-1.888941134085
30
0
41
1
10
-1.67632598434432
20
-1.91870567173245
30
0
41
1
10
-1.69605916878521
20
-2.06239070530873
30
0
41
1
10
-1.69829182976605
20
-2.17797320288884
30
0
41
1
10
-1.6997878183206
20
-2.3091658731316
30
0
41
1
10
-1.69991061150085
20
-2.32659131405609
30
0
41
1
10
-1.69996579751825
20
-2.34399454350921
30
0
0
SPLINE
5
DC
100
AcDbEntity
8
SK1
62
256
6
ByLayer
370
-1
48
1
60
0
100
AcDbSpline
70
4
71
3
72
28
73
24
40
0
40
0
40
0
40
0
40
0.343154913050553
40
0.343154913050553
40
0.438240387752228
40
0.438240387752228
40
0.461906262757859
40
0.461906262757859
40
0.470082742892958
40
0.470082742892958
40
0.478403565799421
40
0.478403565799421
40
0.485616048076814
40
0.485616048076814
40
0.49498478208156
40
0.49498478208156
40
0.512255311898736
40
0.512255311898736
40
0.586224098711352
40
0.586224098711352
40
0.878018968214535
40
0.878018968214535
40
1
40
1
40
1
40
1
41
1
10
-1.69989009590069
20
-10.912317360478
30
0
41
1
10
-1.69920451821673
20
-10.8740263951111
30
0
41
1
10
-1.69726521816682
20
-10.8323287812115
30
0
41
1
10
-1.67853907532424
20
-10.7628347797173
30
0
41
1
10
-1.67397095661659
20
-10.7468498525868
30
0
41
1
10
-1.66077432528931
20
-10.7213614533972
30
0
41
1
10
-1.65762501801402
20
-10.7157991042865
30
0
41
1
10
-1.65185849839088
20
-10.7076227829041
30
0
41
1
10
-1.65019504375897
20
-10.7054125901193
30
0
41
1
10
-1.64653422023201
20
-10.7009758910414
30
0
41
1
10
-1.64447208533073
20
-10.6986885686392
30
0
41
1
10
-1.64056382056441
20
-10.6948016115452
30
0
41
1
10
-1.63868158902147
20
-10.6931071977885
30
0
41
1
10
-1.63458346791265
20
-10.6897506304862
30
0
41
1
10
-1.63236594562102
20
-10.6881800310438
30
0
41
1
10
-1.6266026221515
20
-10.6845313891021
30
0
41
1
10
-1.62334000067364
20
-10.6829911152334
30
0
41
1
10
-1.60794500993575
20
-10.6769624806516
30
0
41
1
10
-1.59958172790385
20
-10.6775435877503
30
0
41
1
10
-1.56113270181959
20
-10.6819813790051
30
0
41
1
10
-1.54173525187014
20
-10.6971947890523
30
0
41
1
10
-1.51479102134942
20
-10.7170184942906
30
0
41
1
10
-1.50724986451144
20
-10.7230716034657
30
0
41
1
10
-1.5
20
-10.7291967921706
30
0
0
SPLINE
5
DD
100
AcDbEntity
8
SK1
62
256
6
ByLayer
370
-1
48
1
60
0
100
AcDbSpline
70
4
71
3
72
28
73
24
40
0
40
0
40
0
40
0
40
0.349178244038127
40
0.349178244038127
40
0.441485413895459
40
0.441485413895459
40
0.464418174627259
40
0.464418174627259
40
0.473297759398041
40
0.473297759398041
40
0.482336266147379
40
0.482336266147379
40
0.488860737631369
40
0.488860737631369
40
0.4953513510299
40
0.4953513510299
40
0.506128456733832
40
0.506128456733832
40
0.534013657527057
40
0.534013657527057
40
0.644941898339769
40
0.644941898339769
40
1
40
1
40
1
40
1
41
1
10
-1.69996579738211
20
2.34399541728098
30
0
41
1
10
-1.69957351800008
20
2.2202872660603
30
0
41
1
10
-1.6978568428512
20
2.09468422296274
30
0
41
1
10
-1.67915903600471
20
1.9362551896819
30
0
41
1
10
-1.67466133865747
20
1.90240437328657
30
0
41
1
10
-1.66257453306423
20
1.86273523592695
30
0
41
1
10
-1.65975033602422
20
1.85482927921262
30
0
41
1
10
-1.65455231119012
20
1.84507122970734
30
0
41
1
10
-1.65293210062902
20
1.84245438467247
30
0
41
1
10
-1.64928001329514
20
1.83786290531623
30
0
41
1
10
-1.64718169695362
20
1.83585290038428
30
0
41
1
10
-1.64332341703022
20
1.83361873011964
30
0
41
1
10
-1.64159303361367
20
1.83304396936836
30
0
41
1
10
-1.6382124463716
20
1.83273324875088
30
0
41
1
10
-1.63652572409745
20
1.83298094253604
30
0
41
1
10
-1.63230470511542
20
1.83441412291407
30
0
41
1
10
-1.62985912301394
20
1.83609472866004
30
0
41
1
10
-1.62193294237829
20
1.84325136454726
30
0
41
1
10
-1.61733263266495
20
1.85052711231805
30
0
41
1
10
-1.59692149956965
20
1.88783133301965
30
0
41
1
10
-1.58631748354395
20
1.92357606741402
30
0
41
1
10
-1.54387296204186
20
2.07163462791979
30
0
41
1
10
-1.52142094847255
20
2.19032359396863
30
0
41
1
10
-1.5
20
2.30830715862382
30
0
0
SPLINE
5
DE
100
AcDbEntity
8
SK1
62
256
6
ByLayer
370
-1
48
1
60
0
100
AcDbSpline
70
4
71
3
72
32
73
28
40
0
40
0
40
0
40
0
40
0.375967902692924
40
0.375967902692924
40
0.444464229653131
40
0.444464229653131
40
0.468990955108136
40
0.468990955108136
40
0.494558645555655
40
0.494558645555655
40
0.504755305769426
40
0.504755305769426
40
0.515140081750197
40
0.515140081750197
40
0.521985618949525
40
0.521985618949525
40
0.528815562517944
40
0.528815562517944
40
0.539106505973226
40
0.539106505973226
40
0.559131898627258
40
0.559131898627258
40
0.632403265174771
40
0.632403265174771
40
0.924267768423137
40
0.924267768423137
40
1
40
1
40
1
40
1
41
1
10
-1.50000000000006
20
10.7291970110907
30
0
41
1
10
-1.52238821820077
20
10.710281852142
30
0
41
1
10
-1.54551182698873
20
10.6896066631374
30
0
41
1
10
-1.58732255241432
20
10.6788393268745
30
0
41
1
10
-1.59428077326487
20
10.6776449254147
30
0
41
1
10
-1.60562095811139
20
10.6782121701821
30
0
41
1
10
-1.60880790601186
20
10.6785812709992
30
0
41
1
10
-1.61598450313733
20
10.6801894200945
30
0
41
1
10
-1.62001006403415
20
10.6814211011701
30
0
41
1
10
-1.62671914901614
20
10.684730344978
30
0
41
1
10
-1.62878476790775
20
10.6858783555147
30
0
41
1
10
-1.63327245942486
20
10.6888012949566
30
0
41
1
10
-1.63577098066594
20
10.6906412359988
30
0
41
1
10
-1.64004954599722
20
10.6943350345439
30
0
41
1
10
-1.64182373236196
20
10.6960107552647
30
0
41
1
10
-1.64520857424037
20
10.699508871149
30
0
41
1
10
-1.64685684987228
20
10.7013674400397
30
0
41
1
10
-1.65062968719053
20
10.705938586449
30
0
41
1
10
-1.65264929056326
20
10.7086849260755
30
0
41
1
10
-1.65785750074656
20
10.7163178808146
30
0
41
1
10
-1.66053888902616
20
10.720995730557
30
0
41
1
10
-1.67118601277627
20
10.7411944588538
30
0
41
1
10
-1.67553327655526
20
10.7541659981155
30
0
41
1
10
-1.69413704527
20
10.8147555719656
30
0
41
1
10
-1.69697811933361
20
10.8517553017774
30
0
41
1
10
-1.69942780046676
20
10.895169971226
30
0
41
1
10
-1.69973873227127
20
10.9038635732803
30
0
41
1
10
-1.69989009581764
20
10.9123175561691
30
0
0
SPLINE
5
DF
100
AcDbEntity
8
SK1
62
256
6
ByLayer
370
-1
48
1
60
0
100
AcDbSpline
70
4
71
3
72
26
73
22
40
0
40
0
40
0
40
0
40
0.0042434309448905
40
0.0613301591488156
40
0.118416887352741
40
0.175503615556666
40
0.232590343760591
40
0.289677071964516
40
0.346763800168441
40
0.403850528372367
40
0.460937256576292
40
0.518023984780217
40
0.575110712984142
40
0.632197441188068
40
0.689284169391993
40
0.746370897595918
40
0.803457625799843
40
0.860544354003768
40
0.917631082207694
40
0.974717810411619
40
1
40
1
40
1
40
1
41
1
10
-0.400000000000034
20
-10.7720903551641
30
0
41
1
10
-0.400000000000034
20
-10.7706666069312
30
0
41
1
10
-0.400000000000034
20
-10.7496439100427
30
0
41
1
10
-0.400000000000034
20
-10.6965241329296
30
0
41
1
10
-0.400000000000034
20
-10.5827105539549
30
0
41
1
10
-0.400000000000034
20
-10.4292548370654
30
0
41
1
10
-0.400000000000034
20
-10.2342567210012
30
0
41
1
10
-0.400000000000034
20
-9.99668422428971
30
0
41
1
10
-0.400000000000034
20
-9.71646045325278
30
0
41
1
10
-0.400000000000034
20
-9.39451028305967
30
0
41
1
10
-0.400000000000034
20
-9.03277100198562
30
0
41
1
10
-0.400000000000034
20
-8.63416168408222
30
0
41
1
10
-0.400000000000034
20
-8.2025147049051
30
0
41
1
10
-0.400000000000034
20
-7.74247141428037
30
0
41
1
10
-0.400000000000034
20
-7.25934377839385
30
0
41
1
10
-0.400000000000034
20
-6.75895136864708
30
0
41
1
10
-0.400000000000034
20
-6.24743323087412
30
0
41
1
10
-0.400000000000034
20
-5.73105035715909
30
0
41
1
10
-0.400000000000034
20
-5.21597569580999
30
0
41
1
10
-0.400000000000034
20
-4.80241032436584
30
0
41
1
10
-0.400000000000034
20
-4.56250546597264
30
0
41
1
10
-0.400000000000034
20
-4.48934914533311
30
0
0
SPLINE
5
E0
100
AcDbEntity
8
SK1
62
256
6
ByLayer
370
-1
48
1
60
0
100
AcDbSpline
70
4
71
3
72
26
73
22
40
0
40
0
40
0
40
0
40
0.0252822053743131
40
0.0823689313925979
40
0.139455657410883
40
0.196542383429167
40
0.253629109447452
40
0.310715835465737
40
0.367802561484022
40
0.424889287502306
40
0.481976013520591
40
0.539062739538876
40
0.596149465557161
40
0.653236191575446
40
0.71032291759373
40
0.767409643612015
40
0.8244963696303
40
0.881583095648585
40
0.938669821666869
40
0.995756547685154
40
1
40
1
40
1
40
1
41
1
10
-0.400000000000034
20
4.4893489310777
30
0
41
1
10
-0.400000000000034
20
4.56250527649343
30
0
41
1
10
-0.400000000000034
20
4.80241012018314
30
0
41
1
10
-0.400000000000034
20
5.21597581842096
30
0
41
1
10
-0.400000000000034
20
5.73105048063846
30
0
41
1
10
-0.400000000000034
20
6.24743659384492
30
0
41
1
10
-0.400000000000034
20
6.75893656128304
30
0
41
1
10
-0.400000000000034
20
7.25934857263886
30
0
41
1
10
-0.400000000000034
20
7.74247092873685
30
0
41
1
10
-0.400000000000034
20
8.20251481389079
30
0
41
1
10
-0.400000000000034
20
8.63416150202502
30
0
41
1
10
-0.400000000000034
20
9.03277107731486
30
0
41
1
10
-0.400000000000034
20
9.39451017773413
30
0
41
1
10
-0.400000000000034
20
9.71646048768639
30
0
41
1
10
-0.400000000000034
20
9.99668420392302
30
0
41
1
10
-0.400000000000034
20
10.2342567136415
30
0
41
1
10
-0.400000000000034
20
10.4292548968257
30
0
41
1
10
-0.400000000000034
20
10.5827105102703
30
0
41
1
10
-0.400000000000034
20
10.6965242483831
30
0
41
1
10
-0.400000000000034
20
10.7496437528317
30
0
41
1
10
-0.400000000000034
20
10.7706665633893
30
0
41
1
10
-0.400000000000034
20
10.7720903270618
30
0
0
SPLINE
5
E1
100
AcDbEntity
8
SK1
62
256
6
ByLayer
370
-1
48
1
60
0
100
AcDbSpline
70
4
71
3
72
33
73
29
40
0
40
0
40
0
40
0
40
0.0262294113247771
40
0.0662244389764755
40
0.106219466628174
40
0.146214494279872
40
0.186209521931571
40
0.226204549583269
40
0.266199577234968
40
0.306194604886666
40
0.346189632538364
40
0.386184660190063
40
0.426179687841761
40
0.46617471549346
40
0.506169743145158
40
0.546164770796857
40
0.586159798448555
40
0.626154826100253
40
0.666149853751952
40
0.70614488140365
40
0.746139909055349
40
0.786134936707047
40
0.826129964358745
40
0.866124992010444
40
0.906120019662142
40
0.946115047313841
40
0.986110074965539
40
1
40
1
40
1
40
1
41
1
10
-1.5
20
-10.8197347433075
30
0
41
1
10
-1.5
20
-10.8232836062228
30
0
41
1
10
-1.5
20
-10.8279984695671
30
0
41
1
10
-1.5
20
-10.8164403957515
30
0
41
1
10
-1.5
20
-10.7733485034928
30
0
41
1
10
-1.5
20
-10.6965241329296
30
0
41
1
10
-1.5
20
-10.5827105539549
30
0
41
1
10
-1.5
20
-10.4292548370654
30
0
41
1
10
-1.5
20
-10.2342567210012
30
0
41
1
10
-1.5
20
-9.99668422428968
30
0
41
1
10
-1.5
20
-9.71646045325278
30
0
41
1
10
-1.5
20
-9.39451028305967
30
0
41
1
10
-1.5
20
-9.03277100198562
30
0
41
1
10
-1.5
20
-8.63416168408222
30
0
41
1
10
-1.5
20
-8.2025147049051
30
0
41
1
10
-1.5
20
-7.74247141428037
30
0
41
1
10
-1.5
20
-7.25934377839385
30
0
41
1
10
-1.5
20
-6.75895136864708
30
0
41
1
10
-1.5
20
-6.24743323087412
30
0
41
1
10
-1.5
20
-5.73105035715909
30
0
41
1
10
-1.5
20
-5.21597569580999
30
0
41
1
10
-1.5
20
-4.70809176356334
30
0
41
1
10
-1.5
20
-4.21279029060338
30
0
41
1
10
-1.5
20
-3.73479561610898
30
0
41
1
10
-1.5
20
-3.27800425826317
30
0
41
1
10
-1.5
20
-2.84536147075812
30
0
41
1
10
-1.5
20
-2.52722557449198
30
0
41
1
10
-1.5
20
-2.35274458205822
30
0
41
1
10
-1.5
20
-2.30830602436802
30
0
0
SPLINE
5
E2
100
AcDbEntity
8
SK1
62
256
6
ByLayer
370
-1
48
1
60
0
100
AcDbSpline
70
4
71
3
72
33
73
29
40
0
40
0
40
0
40
0
40
0.0138898280737938
40
0.0538848653351647
40
0.0938799025965356
40
0.133874939857906
40
0.173869977119277
40
0.213865014380648
40
0.253860051642019
40
0.29385508890339
40
0.333850126164761
40
0.373845163426132
40
0.413840200687503
40
0.453835237948874
40
0.493830275210245
40
0.533825312471616
40
0.573820349732986
40
0.613815386994357
40
0.653810424255728
40
0.693805461517099
40
0.73380049877847
40
0.773795536039841
40
0.813790573301212
40
0.853785610562583
40
0.893780647823954
40
0.933775685085325
40
0.973770722346696
40
1
40
1
40
1
40
1
41
1
10
-1.5
20
2.30830715862382
30
0
41
1
10
-1.5
20
2.35274536835021
30
0
41
1
10
-1.5
20
2.52722590203587
30
0
41
1
10
-1.5
20
2.84536131291168
30
0
41
1
10
-1.5
20
3.27800431136151
30
0
41
1
10
-1.5
20
3.73479546756539
30
0
41
1
10
-1.5
20
4.2127903847566
30
0
41
1
10
-1.5
20
4.70809154586752
30
0
41
1
10
-1.5
20
5.21597581842096
30
0
41
1
10
-1.5
20
5.73105048063846
30
0
41
1
10
-1.5
20
6.24743659384492
30
0
41
1
10
-1.5
20
6.75893656128304
30
0
41
1
10
-1.5
20
7.25934857263886
30
0
41
1
10
-1.5
20
7.74247092873685
30
0
41
1
10
-1.5
20
8.20251481389079
30
0
41
1
10
-1.5
20
8.63416150202502
30
0
41
1
10
-1.5
20
9.03277107731486
30
0
41
1
10
-1.5
20
9.39451017773411
30
0
41
1
10
-1.5
20
9.71646048768639
30
0
41
1
10
-1.5
20
9.99668420392302
30
0
41
1
10
-1.5
20
10.2342567136415
30
0
41
1
10
-1.5
20
10.4292548968257
30
0
41
1
10
-1.5
20
10.5827105102703
30
0
41
1
10
-1.5
20
10.6965242483831
30
0
41
1
10
-1.5
20
10.7733482106365
30
0
41
1
10
-1.5
20
10.8164410190789
30
0
41
1
10
-1.5
20
10.8279984270183
30
0
41
1
10
-1.5
20
10.823283384145
30
0
41
1
10
-1.5
20
10.8197345244454
30
0
0
SPLINE
5
E3
100
AcDbEntity
8
1
62
256
6
ByLayer
370
-1
48
1
60
0
100
AcDbSpline
70
4
71
3
72
16
73
12
40
0
40
0
40
0
40
0
40
0.0516536825677713
40
0.0516536825677713
40
0.275745014056357
40
0.275745014056357
40
0.501959042320187
40
0.501959042320187
40
0.74199998371706
40
0.74199998371706
40
1
40
1
40
1
40
1
41
1
10
62.0591778141847
20
-4.43396419678757
30
0
41
1
10
62.0629807852335
20
-4.43610498233721
30
0
41
1
10
62.0667101655485
20
-4.43837640882163
30
0
41
1
10
62.0860112567971
20
-4.45106108489472
30
0
41
1
10
62.1002007673703
20
-4.46381222832304
30
0
41
1
10
62.12362283323
20
-4.49213883592702
30
0
41
1
10
62.133117170588
20
-4.50809237668446
30
0
41
1
10
62.1469906228564
20
-4.54186632702118
30
0
41
1
10
62.1512140015602
20
-4.56015751826394
30
0
41
1
10
62.1539583214275
20
-4.59717665428389
30
0
41
1
10
62.1520979963255
20
-4.61628575489141
30
0
41
1
10
62.1474014031143
20
-4.63411854533069
30
0
0
SPLINE
5
E4
100
AcDbEntity
8
1
62
256
6
ByLayer
370
-1
48
1
60
0
100
AcDbSpline
70
4
71
3
72
16
73
12
40
0
40
0
40
0
40
0
40
0.0304743461052503
40
0.0304743461052503
40
0.351430277231435
40
0.351430277231435
40
0.638773309859509
40
0.638773309859509
40
0.891838789221699
40
0.891838789221699
40
1
40
1
40
1
40
1
41
1
10
62.159992872481
20
-6.01041397370784
30
0
41
1
10
62.1605850111696
20
-6.01270996217701
30
0
41
1
10
62.1611371541073
20
-6.01502052454387
30
0
41
1
10
62.1669578851221
20
-6.0414734213303
30
0
41
1
10
62.1678121989652
20
-6.06752414136008
30
0
41
1
10
62.1595810618339
20
-6.11544299201574
30
0
41
1
10
62.151345410187
20
-6.13820875088601
30
0
41
1
10
62.1283807825915
20
-6.17639975023661
30
0
41
1
10
62.1141753282451
20
-6.19292443700186
30
0
41
1
10
62.0907002317207
20
-6.21202295784934
30
0
41
1
10
62.0831724251713
20
-6.21725447546069
30
0
41
1
10
62.0753252723158
20
-6.22186436175417
30
0
0
SPLINE
5
E5
100
AcDbEntity
8
1
62
256
6
ByLayer
370
-1
48
1
60
0
100
AcDbSpline
70
4
71
3
72
12
73
8
40
0
40
0
40
0
40
0
40
0.463244365478473
40
0.463244365478473
40
0.844851842583046
40
0.844851842583046
40
1
40
1
40
1
40
1
41
1
10
62.447692282171
20
-5.14253882777007
30
0
41
1
10
62.405720686745
20
-5.12968012020602
30
0
41
1
10
62.3640867531597
20
-5.1100027141857
30
0
41
1
10
62.2940480488955
20
-5.06213042826937
30
0
41
1
10
62.2638686902351
20
-5.03543327107136
30
0
41
1
10
62.2271801574091
20
-4.99267018349374
30
0
41
1
10
62.2171501810068
20
-4.9795950277373
30
0
41
1
10
62.2079130904735
20
-4.96603921356774
30
0
0
SPLINE
5
E6
100
AcDbEntity
8
1
62
256
6
ByLayer
370
-1
48
1
60
0
100
AcDbSpline
70
4
71
3
72
14
73
10
40
0
40
0
40
0
40
0
40
0.282714959993468
40
0.282714959993468
40
0.570154590389739
40
0.570154590389739
40
0.830597265196416
40
0.830597265196416
40
1
40
1
40
1
40
1
41
1
10
61.2624769742578
20
-6.19626981848955
30
0
41
1
10
61.2476287271446
20
-6.21189829756403
30
0
41
1
10
61.229716160023
20
-6.22535729219828
30
0
41
1
10
61.189829455505
20
-6.24524828679037
30
0
41
1
10
61.1671574066596
20
-6.25183019651337
30
0
41
1
10
61.1230863987946
20
-6.25558682863627
30
0
41
1
10
61.1011014341978
20
-6.25360573782203
30
0
41
1
10
61.0667934163431
20
-6.24393299666625
30
0
41
1
10
61.0535122786662
20
-6.23842360497599
30
0
41
1
10
61.0411444713622
20
-6.2314614633195
30
0
0
SPLINE
5
E7
100
AcDbEntity
8
1
62
256
6
ByLayer
370
-1
48
1
60
0
100
AcDbSpline
70
4
71
3
72
14
73
10
40
0
40
0
40
0
40
0
40
0.269060881173184
40
0.269060881173184
40
0.557648235738397
40
0.557648235738397
40
0.818929759770235
40
0.818929759770235
40
1
40
1
40
1
40
1
41
1
10
62.447692282171
20
-5.14253882777004
30
0
41
1
10
62.467117088163
20
-5.14848994535814
30
0
41
1
10
62.4862406167943
20
-5.15776977291614
30
0
41
1
10
62.522037294901
20
-5.18318999327963
30
0
41
1
10
62.5389708263947
20
-5.20022050602773
30
0
41
1
10
62.5642752324018
20
-5.23756261258245
30
0
41
1
10
62.573655491183
20
-5.25799709364455
30
0
41
1
10
62.5829632053687
20
-5.29389251452855
30
0
41
1
10
62.5850046909283
20
-5.3092590267008
30
0
41
1
10
62.5851221780346
20
-5.32443673746536
30
0
0
SPLINE
5
E8
100
AcDbEntity
8
1
62
256
6
ByLayer
370
-1
48
1
60
0
100
AcDbSpline
70
4
71
3
72
14
73
10
40
0
40
0
40
0
40
0
40
0.0452133056889014
40
0.0452133056889014
40
0.382461826990555
40
0.382461826990555
40
0.8287502259104
40
0.8287502259104
40
1
40
1
40
1
40
1
41
1
10
60.9197294821151
20
-5.72279520762888
30
0
41
1
10
60.9218842306996
20
-5.72709407599064
30
0
41
1
10
60.9239645921782
20
-5.73143233821844
30
0
41
1
10
60.9407799770867
20
-5.7681194504629
30
0
41
1
10
60.9514336724238
20
-5.80263891259386
30
0
41
1
10
60.9658817780487
20
-5.88196128097968
30
0
41
1
10
60.9667425912841
20
-5.92781102245888
30
0
41
1
10
60.9592850405755
20
-5.98808992099086
30
0
41
1
10
60.9562655839353
20
-6.00470597305647
30
0
41
1
10
60.9523793956541
20
-6.02097493154139
30
0
0
SPLINE
5
E9
100
AcDbEntity
8
1
62
256
6
ByLayer
370
-1
48
1
60
0
100
AcDbSpline
70
4
71
3
72
14
73
10
40
0
40
0
40
0
40
0
40
0.26242551043154
40
0.26242551043154
40
0.552405489226925
40
0.552405489226925
40
0.814895908009831
40
0.814895908009831
40
1
40
1
40
1
40
1
41
1
10
60.9397905536901
20
-4.64472963699174
30
0
41
1
10
60.9348216933499
20
-4.62667585180861
30
0
41
1
10
60.9327611629285
20
-4.60725215952093
30
0
41
1
10
60.9355516870212
20
-4.56625505516101
30
0
41
1
10
60.9412476218379
20
-4.54401742456378
30
0
41
1
10
60.9600872130576
20
-4.50474693938674
30
0
41
1
10
60.9727940539439
20
-4.48684188161442
30
0
41
1
10
60.9991429442387
20
-4.46098535572992
30
0
41
1
10
61.0116273797881
20
-4.45141541959831
30
0
41
1
10
61.0249970132311
20
-4.4435612983529
30
0
0
SPLINE
5
EA
100
AcDbEntity
8
1
62
256
6
ByLayer
370
-1
48
1
60
0
100
AcDbSpline
70
4
71
3
72
16
73
12
40
0
40
0
40
0
40
0
40
0.122942322249586
40
0.122942322249586
40
0.347103580567349
40
0.347103580567349
40
0.57732401306039
40
0.57732401306039
40
0.824599348258672
40
0.824599348258672
40
1
40
1
40
1
40
1
41
1
10
62.0753252723158
20
-6.22186436175417
30
0
41
1
10
62.0664500953927
20
-6.22707817078836
30
0
41
1
10
62.0570953328553
20
-6.23153633893205
30
0
41
1
10
62.0300410377799
20
-6.24167921189877
30
0
41
1
10
62.0114197221391
20
-6.2454489284724
30
0
41
1
10
61.9743261854731
20
-6.2471918432484
30
0
41
1
10
61.9554031245871
20
-6.24504445940073
30
0
41
1
10
61.9186537708126
20
-6.23518070634512
30
0
41
1
10
61.9005476258803
20
-6.22696075918435
30
0
41
1
10
61.873015607549
20
-6.20903868520563
30
0
41
1
10
61.8624217383816
20
-6.2003575564276
30
0
41
1
10
61.8529482924573
20
-6.19079029962063
30
0
0
SPLINE
5
EB
100
AcDbEntity
8
1
62
256
6
ByLayer
370
-1
48
1
60
0
100
AcDbSpline
70
4
71
3
72
14
73
10
40
0
40
0
40
0
40
0
40
0.0512682032926329
40
0.0512682032926329
40
0.387934804128897
40
0.387934804128897
40
0.83554816784015
40
0.83554816784015
40
1
40
1
40
1
40
1
41
1
10
62.1792788536706
20
-4.91755879748408
30
0
41
1
10
62.1768376726552
20
-4.91273295910725
30
0
41
1
10
62.1744928489736
20
-4.90787052459797
30
0
41
1
10
62.1576285349303
20
-4.87113663488671
30
0
41
1
10
62.1472030091387
20
-4.83774755385781
30
0
41
1
10
62.1332523400832
20
-4.76184144314519
30
0
41
1
10
62.1327410041832
20
-4.71863464006776
30
0
41
1
10
62.1406319557003
20
-4.66318929336182
30
0
41
1
10
62.1436188957251
20
-4.64848058576598
30
0
41
1
10
62.1474014031143
20
-4.63411854533069
30
0
0
SPLINE
5
EC
100
AcDbEntity
8
1
62
256
6
ByLayer
370
-1
48
1
60
0
100
AcDbSpline
70
4
71
3
72
14
73
10
40
0
40
0
40
0
40
0
40
0.263355402481873
40
0.263355402481873
40
0.553218974748528
40
0.553218974748528
40
0.815614396034577
40
0.815614396034577
40
1
40
1
40
1
40
1
41
1
10
61.8373064519128
20
-4.45887379221054
30
0
41
1
10
61.8512211959049
20
-4.44583950695377
30
0
41
1
10
61.8677685312781
20
-4.43462545953406
30
0
41
1
10
61.9060478216043
20
-4.41712363462966
30
0
41
1
10
61.9287675787871
20
-4.41121129644213
30
0
41
1
10
61.9731085436387
20
-4.40826536504869
30
0
41
1
10
61.9953041349082
20
-4.41043684905932
30
0
41
1
10
62.0311625932929
20
-4.42039254734433
30
0
41
1
10
62.0457207797046
20
-4.42638890247517
30
0
41
1
10
62.0591778141847
20
-4.43396419678757
30
0
0
SPLINE
5
ED
100
AcDbEntity
8
1
62
256
6
ByLayer
370
-1
48
1
60
0
100
AcDbSpline
70
4
71
3
72
18
73
14
40
0
40
0
40
0
40
0
40
0.206876373433147
40
0.206876373433147
40
0.38362125660644
40
0.38362125660644
40
0.562080641773543
40
0.562080641773543
40
0.717223476469251
40
0.717223476469251
40
0.922304626406193
40
0.922304626406193
40
1
40
1
40
1
40
1
41
1
10
61.2624769742578
20
-6.19626981848955
30
0
41
1
10
61.2921573793802
20
-6.16502979487967
30
0
41
1
10
61.32730739491
20
-6.13741890521635
30
0
41
1
10
61.4002094706037
20
-6.09748352728795
30
0
41
1
10
61.4377184927409
20
-6.08316129545278
30
0
41
1
10
61.5160836047044
20
-6.0663822389657
30
0
41
1
10
61.558157057738
20
-6.06392192343529
30
0
41
1
10
61.6338059406142
20
-6.07131809896126
30
0
41
1
10
61.6686807608177
20
-6.07963573019953
30
0
41
1
10
61.7433445079738
20
-6.10768190181764
30
0
41
1
10
61.782443000654
20
-6.13054949011047
30
0
41
1
10
61.8291480919009
20
-6.16806136446533
30
0
41
1
10
61.8414125857014
20
-6.17914036042566
30
0
41
1
10
61.8529482924573
20
-6.19079029962063
30
0
0
SPLINE
5
EE
100
AcDbEntity
8
1
62
256
6
ByLayer
370
-1
48
1
60
0
100
AcDbSpline
70
4
71
3
72
18
73
14
40
0
40
0
40
0
40
0
40
0.207143737958698
40
0.207143737958698
40
0.383841779483488
40
0.383841779483488
40
0.562251207973125
40
0.562251207973125
40
0.717384491073565
40
0.717384491073565
40
0.922512797829371
40
0.922512797829371
40
1
40
1
40
1
40
1
41
1
10
62.1599928724809
20
-6.0104139737079
30
0
41
1
10
62.1491094599534
20
-5.96821408008793
30
0
41
1
10
62.1440531088619
20
-5.9231519453119
30
0
41
1
10
62.1479004051265
20
-5.8389254250323
30
0
41
1
10
62.1550082997303
20
-5.79891843186644
30
0
41
1
10
62.1805795027875
20
-5.72235752866985
30
0
41
1
10
62.1996439795132
20
-5.68475549516015
30
0
41
1
10
62.2435382043395
20
-5.62347045228896
30
0
41
1
10
62.267771326693
20
-5.59784237296645
30
0
41
1
10
62.3280609491235
20
-5.54840631471853
30
0
41
1
10
62.3663555595227
20
-5.52686112207726
30
0
41
1
10
62.4205252587919
20
-5.50649551192529
30
0
41
1
10
62.4357365342776
20
-5.50179980003628
30
0
41
1
10
62.4510642699155
20
-5.49802264734257
30
0
0
SPLINE
5
EF
100
AcDbEntity
8
1
62
256
6
ByLayer
370
-1
48
1
60
0
100
AcDbSpline
70
4
71
3
72
18
73
14
40
0
40
0
40
0
40
0
40
0.212836474270039
40
0.212836474270039
40
0.388538034482027
40
0.388538034482027
40
0.565884313346375
40
0.565884313346375
40
0.720821372044257
40
0.720821372044257
40
0.92695832984774
40
0.92695832984774
40
1
40
1
40
1
40
1
41
1
10
61.8373064519128
20
-4.45887379221057
30
0
41
1
10
61.8065927414184
20
-4.48764408536891
30
0
41
1
10
61.7700764270269
20
-4.51278167988778
30
0
41
1
10
61.6955074278522
20
-4.54794893696595
30
0
41
1
10
61.657947414899
20
-4.5601674514198
30
0
41
1
10
61.5797413293336
20
-4.57426205963472
30
0
41
1
10
61.5378994951238
20
-4.57615120392788
30
0
41
1
10
61.4626816739287
20
-4.56937593772042
30
0
41
1
10
61.4280018982142
20
-4.56198141366627
30
0
41
1
10
61.3535889517836
20
-4.53701892605156
30
0
41
1
10
61.3146272889308
20
-4.5165892053071
30
0
41
1
10
61.2690421838798
20
-4.48343768478534
30
0
41
1
10
61.2576165558183
20
-4.47413396360702
30
0
41
1
10
61.2468351337137
20
-4.4643533110789
30
0
0
SPLINE
5
F0
100
AcDbEntity
8
1
62
256
6
ByLayer
370
-1
48
1
60
0
100
AcDbSpline
70
4
71
3
72
14
73
10
40
0
40
0
40
0
40
0
40
0.282923964318669
40
0.282923964318669
40
0.569776881870662
40
0.569776881870662
40
0.829662954905755
40
0.829662954905755
40
1
40
1
40
1
40
1
41
1
10
60.6520885165974
20
-5.51255464910199
30
0
41
1
10
60.6317524244969
20
-5.50794515213548
30
0
41
1
10
60.6117295429781
20
-5.4995609050828
30
0
41
1
10
60.5756642191732
20
-5.47566963790865
30
0
41
1
10
60.5591454895122
20
-5.45966222313109
30
0
41
1
10
60.5346265819876
20
-5.42388170768038
30
0
41
1
10
60.5256331988975
20
-5.40404331270724
30
0
41
1
10
60.5171142033562
20
-5.3695910285559
30
0
41
1
10
60.5153106570644
20
-5.35527039725153
30
0
41
1
10
60.5152001075123
20
-5.34098892264171
30
0
0
SPLINE
5
F1
100
AcDbEntity
8
1
62
256
6
ByLayer
370
-1
48
1
60
0
100
AcDbSpline
70
4
71
3
72
16
73
12
40
0
40
0
40
0
40
0
40
0.054390786689117
40
0.054390786689117
40
0.279062194117795
40
0.279062194117795
40
0.506009211152393
40
0.506009211152393
40
0.746941572282179
40
0.746941572282179
40
1
40
1
40
1
40
1
41
1
10
62.5851221780346
20
-5.32443673746536
30
0
41
1
10
62.5851575669455
20
-5.32900849576964
30
0
41
1
10
62.5850218763086
20
-5.33357934835971
30
0
41
1
10
62.5834626516582
20
-5.35676533435267
30
0
41
1
10
62.5792455862964
20
-5.37529599879602
30
0
41
1
10
62.5657302444133
20
-5.40939003176726
30
0
41
1
10
62.5562222072813
20
-5.42536171104464
30
0
41
1
10
62.5328879373777
20
-5.45372789401802
30
0
41
1
10
62.518554888769
20
-5.46620952608819
30
0
41
1
10
62.4869225802066
20
-5.48613752966011
30
0
41
1
10
62.4691601439184
20
-5.49356335336401
30
0
41
1
10
62.4510642699155
20
-5.49802264734257
30
0
0
SPLINE
5
F2
100
AcDbEntity
8
1
62
256
6
ByLayer
370
-1
48
1
60
0
100
AcDbSpline
70
4
71
3
72
16
73
12
40
0
40
0
40
0
40
0
40
0.0644106298752683
40
0.0644106298752683
40
0.289015549661261
40
0.289015549661261
40
0.516461022914765
40
0.516461022914765
40
0.758356986817483
40
0.758356986817483
40
1
40
1
40
1
40
1
41
1
10
60.5152001075123
20
-5.34098892264171
30
0
41
1
10
60.5151582613078
20
-5.33558297121996
30
0
41
1
10
60.5153549070058
20
-5.33016017597015
30
0
41
1
10
60.5172885020278
20
-5.30604752074248
30
0
41
1
10
60.5217337542527
20
-5.28728317349828
30
0
41
1
10
60.5356427258253
20
-5.25237369709595
30
0
41
1
10
60.5453325519648
20
-5.23581482982769
30
0
41
1
10
60.5689863327161
20
-5.20596632947698
30
0
41
1
10
60.5834635313257
20
-5.19256489518114
30
0
41
1
10
60.6145533454967
20
-5.17110240114428
30
0
41
1
10
60.6314809706388
20
-5.16278845645115
30
0
41
1
10
60.6487191562555
20
-5.15712096335707
30
0
0
SPLINE
5
F3
100
AcDbEntity
8
1
62
256
6
ByLayer
370
-1
48
1
60
0
100
AcDbSpline
70
4
71
3
72
12
73
8
40
0
40
0
40
0
40
0
40
0.45379772304342
40
0.45379772304342
40
0.836990959046444
40
0.836990959046444
40
1
40
1
40
1
40
1
41
1
10
60.6520885165974
20
-5.51255464910199
30
0
41
1
10
60.6930350085748
20
-5.52183581923171
30
0
41
1
10
60.7336517319247
20
-5.53783967825382
30
0
41
1
10
60.8030128370299
20
-5.58011234407471
30
0
41
1
10
60.8333571087403
20
-5.60497274385972
30
0
41
1
10
60.8708384186894
20
-5.64682520567979
30
0
41
1
10
60.8814013410321
20
-5.66023344841128
30
0
41
1
10
60.8910952453122
20
-5.67431479154521
30
0
0
SPLINE
5
F4
100
AcDbEntity
8
1
62
256
6
ByLayer
370
-1
48
1
60
0
100
AcDbSpline
70
4
71
3
72
16
73
12
40
0
40
0
40
0
40
0
40
0.0655343505911093
40
0.0655343505911093
40
0.289449262567811
40
0.289449262567811
40
0.516270172068589
40
0.516270172068589
40
0.757558566552699
40
0.757558566552699
40
1
40
1
40
1
40
1
41
1
10
61.0411444713622
20
-6.2314614633195
30
0
41
1
10
61.0363277504167
20
-6.22875001312318
30
0
41
1
10
61.0316270503438
20
-6.22581022069892
30
0
41
1
10
61.0116287725072
20
-6.21198449593953
30
0
41
1
10
60.9976979670027
20
-6.19867919082532
30
0
41
1
10
60.9747728571579
20
-6.16894074370109
30
0
41
1
10
60.9655412934409
20
-6.15210002617721
30
0
41
1
10
60.9521984593964
20
-6.11626472443635
30
0
41
1
10
60.9482653494809
20
-6.09675973651915
30
0
41
1
10
60.9461932832345
20
-6.05841445364703
30
0
41
1
10
60.9480336033952
20
-6.03916795481513
30
0
41
1
10
60.9523793956541
20
-6.02097493154139
30
0
0
SPLINE
5
F5
100
AcDbEntity
8
1
62
256
6
ByLayer
370
-1
48
1
60
0
100
AcDbSpline
70
4
71
3
72
16
73
12
40
0
40
0
40
0
40
0
40
0.0511648346818294
40
0.0511648346818294
40
0.276034966121113
40
0.276034966121113
40
0.502997278795613
40
0.502997278795613
40
0.743803013202799
40
0.743803013202799
40
1
40
1
40
1
40
1
41
1
10
61.0249970132311
20
-4.4435612983529
30
0
41
1
10
61.0287126266071
20
-4.44137852512429
30
0
41
1
10
61.0325073565139
20
-4.43931844705148
30
0
41
1
10
61.0531801127286
20
-4.4289820503229
30
0
41
1
10
61.0714842968967
20
-4.42301633593743
30
0
41
1
10
61.1082212044785
20
-4.41667669822277
30
0
41
1
10
61.1271198785897
20
-4.41626048156041
30
0
41
1
10
61.1641220401598
20
-4.42068454820952
30
0
41
1
10
61.1825733729598
20
-4.42588313712403
30
0
41
1
10
61.216989493628
20
-4.44127420416251
30
0
41
1
10
61.2331391140424
20
-4.45192860419692
30
0
41
1
10
61.2468351337136
20
-4.46435331107892
30
0
0
SPLINE
5
F6
100
AcDbEntity
8
1
62
256
6
ByLayer
370
-1
48
1
60
0
100
AcDbSpline
70
4
71
3
72
18
73
14
40
0
40
0
40
0
40
0
40
0.112769639026748
40
0.112769639026748
40
0.308119981055548
40
0.308119981055548
40
0.469305635971363
40
0.469305635971363
40
0.631029386934897
40
0.631029386934897
40
0.786482431884775
40
0.786482431884775
40
1
40
1
40
1
40
1
41
1
10
60.9397905536901
20
-4.64472963699174
30
0
41
1
10
60.9456353685338
20
-4.66596610257957
30
0
41
1
10
60.9497451123251
20
-4.68802139727833
30
0
41
1
10
60.9556668477715
20
-4.74964485573329
30
0
41
1
10
60.9535853935245
20
-4.79110453479802
30
0
41
1
10
60.9374329838272
20
-4.86650277504026
30
0
41
1
10
60.9252493138281
20
-4.9013147259642
30
0
41
1
10
60.8921350206572
20
-4.96685257925773
30
0
41
1
10
60.8707358872613
20
-4.99837885413623
30
0
41
1
10
60.8232554030548
20
-5.05257341609377
30
0
41
1
10
60.7968841160136
20
-5.07621237705035
30
0
41
1
10
60.7314523995402
20
-5.12295313089908
30
0
41
1
10
60.6903113558688
20
-5.14344646713582
30
0
41
1
10
60.6487191562555
20
-5.15712096335707
30
0
0
SPLINE
5
F7
100
AcDbEntity
8
SK1
62
256
6
ByLayer
370
-1
48
1
60
0
100
AcDbSpline
70
4
71
3
72
79
73
75
40
0
40
0
40
0
40
0
40
0.0064305958367694
40
0.0205325818874705
40
0.0346345679381715
40
0.0487365539888726
40
0.0628385400395736
40
0.0769405260902747
40
0.0910425121409757
40
0.105144498191677
40
0.119246484242378
40
0.133348470293079
40
0.14745045634378
40
0.161552442394481
40
0.175654428445182
40
0.189756414495883
40
0.203858400546584
40
0.217960386597285
40
0.232062372647986
40
0.246164358698687
40
0.260266344749388
40
0.274368330800089
40
0.28847031685079
40
0.302572302901491
40
0.316674288952192
40
0.330776275002893
40
0.344878261053594
40
0.358980247104295
40
0.373082233154997
40
0.387184219205698
40
0.401286205256399
40
0.4153881913071
40
0.429490177357801
40
0.443592163408502
40
0.457694149459203
40
0.471796135509904
40
0.485898121560605
40
0.500000107611306
40
0.514102093662007
40
0.528204079712708
40
0.542306065763409
40
0.55640805181411
40
0.570510037864811
40
0.584612023915512
40
0.598714009966213
40
0.612815996016914
40
0.626917982067615
40
0.641019968118316
40
0.655121954169017
40
0.669223940219718
40
0.683325926270419
40
0.69742791232112
40
0.711529898371822
40
0.725631884422523
40
0.739733870473224
40
0.753835856523925
40
0.767937842574626
40
0.782039828625327
40
0.796141814676028
40
0.810243800726729
40
0.82434578677743
40
0.838447772828131
40
0.852549758878832
40
0.866651744929533
40
0.880753730980234
40
0.894855717030935
40
0.908957703081636
40
0.923059689132337
40
0.937161675183038
40
0.951263661233739
40
0.96536564728444
40
0.979467633335141
40
0.993569619385842
40
1
40
1
40
1
40
1
41
1
10
-2.5
20
10.8686550028393
30
0
41
1
10
-2.5
20
10.8790746714437
30
0
41
1
10
-2.5
20
10.9108282723053
30
0
41
1
10
-2.5
20
10.9553895973621
30
0
41
1
10
-2.5
20
10.9911639635893
30
0
41
1
10
-2.5
20
11.004418378241
30
0
41
1
10
-2.5
20
10.9911623984962
30
0
41
1
10
-2.5
20
10.9474686304738
30
0
41
1
10
-2.5
20
10.8696664218331
30
0
41
1
10
-2.5
20
10.7545189459148
30
0
41
1
10
-2.5
20
10.5993939502378
30
0
41
1
10
-2.5
20
10.4024076559292
30
0
41
1
10
-2.5
20
10.1625416635539
30
0
41
1
10
-2.5
20
9.87972833820902
30
0
41
1
10
-2.5
20
9.55489716738788
30
0
41
1
10
-2.5
20
9.18998633548568
30
0
41
1
10
-2.5
20
8.7879102308668
30
0
41
1
10
-2.5
20
8.35249429791335
30
0
41
1
10
-2.5
20
7.88836739733654
30
0
41
1
10
-2.5
20
7.40083249722349
30
0
41
1
10
-2.5
20
6.89566660501004
30
0
41
1
10
-2.5
20
6.37905265294063
30
0
41
1
10
-2.5
20
5.85717357325984
30
0
41
1
10
-2.5
20
5.3362171107967
30
0
41
1
10
-2.5
20
4.82204796703348
30
0
41
1
10
-2.5
20
4.32005112408754
30
0
41
1
10
-2.5
20
3.83494636183181
30
0
41
1
10
-2.5
20
3.37063352515292
30
0
41
1
10
-2.5
20
2.93006538818366
30
0
41
1
10
-2.5
20
2.515155240528
30
0
41
1
10
-2.5
20
2.1267232238333
30
0
41
1
10
-2.5
20
1.76448070218825
30
0
41
1
10
-2.5
20
1.4270586722962
30
0
41
1
10
-2.5
20
1.11207189529088
30
0
41
1
10
-2.5
20
0.816225686754592
30
0
41
1
10
-2.5
20
0.535450813753641
30
0
41
1
10
-2.5
20
0.265073199113004
30
0
41
1
10
-2.5
20
-5.5264195E-08
30
0
41
1
10
-2.5
20
-0.265072978056168
30
0
41
1
10
-2.5
20
-0.535450915490543
30
0
41
1
10
-2.5
20
-0.816225500863794
30
0
41
1
10
-2.5
20
-1.11207197195026
30
0
41
1
10
-2.5
20
-1.42705855154932
30
0
41
1
10
-2.5
20
-1.76448074117411
30
0
41
1
10
-2.5
20
-2.12672318863659
30
0
41
1
10
-2.5
20
-2.51515523478019
30
0
41
1
10
-2.5
20
-2.93006544637146
30
0
41
1
10
-2.5
20
-3.37063347415665
30
0
41
1
10
-2.5
20
-3.83494650762893
30
0
41
1
10
-2.5
20
-4.32005103389795
30
0
41
1
10
-2.5
20
-4.82204818199463
30
0
41
1
10
-2.5
20
-5.33621699307892
30
0
41
1
10
-2.5
20
-5.85717382916968
30
0
41
1
10
-2.5
20
-6.37904809202519
30
0
41
1
10
-2.5
20
-6.89568136104162
30
0
41
1
10
-2.5
20
-7.40082874697168
30
0
41
1
10
-2.5
20
-7.88836763355843
30
0
41
1
10
-2.5
20
-8.35249419387415
30
0
41
1
10
-2.5
20
-8.78791041080157
30
0
41
1
10
-2.5
20
-9.18998626466617
30
0
41
1
10
-2.5
20
-9.55489727073115
30
0
41
1
10
-2.5
20
-9.87972830774902
30
0
41
1
10
-2.5
20
-10.1625416820507
30
0
41
1
10
-2.5
20
-10.4024076666937
30
0
41
1
10
-2.5
20
-10.5993938886828
30
0
41
1
10
-2.5
20
-10.7545189924614
30
0
41
1
10
-2.5
20
-10.8696662972013
30
0
41
1
10
-2.5
20
-10.9474689380927
30
0
41
1
10
-2.5
20
-10.991161771703
30
0
41
1
10
-2.5
20
-11.0044184915466
30
0
41
1
10
-2.5
20
-10.9911643916233
30
0
41
1
10
-2.5
20
-10.9553894530377
30
0
41
1
10
-2.49999999999994
20
-10.910828407671
30
0
41
1
10
-2.49999999999994
20
-10.8790752660899
30
0
41
1
10
-2.49999999999994
20
-10.868655998312
30
0
0
SPLINE
5
F8
100
AcDbEntity
8
SK1
62
256
6
ByLayer
370
-1
48
1
60
0
100
AcDbSpline
70
4
71
3
72
17
73
13
40
0
40
0
40
0
40
0
40
0.0453314400684739
40
0.158804635794638
40
0.272283041375548
40
0.385660391883166
40
0.498422014251944
40
0.611746502465681
40
0.725487043276064
40
0.83924618694661
40
0.952964168152006
40
1
40
1
40
1
40
1
41
1
10
-19
20
-9.99543016444986
30
0
41
1
10
-19.0000000000001
20
-9.98351281850529
30
0
41
1
10
-19
20
-9.81027270083533
30
0
41
1
10
-19
20
-8.84228615051492
30
0
41
1
10
-19
20
-6.73030840132179
30
0
41
1
10
-19
20
-3.88225725729353
30
0
41
1
10
-19
20
-0.0568742514864482
30
0
41
1
10
-19
20
3.80709470138552
30
0
41
1
10
-19
20
6.67873341162661
30
0
41
1
10
-19
20
8.81280576388937
30
0
41
1
10
-19
20
9.8026774369456
30
0
41
1
10
-19
20
9.98226811583908
30
0
41
1
10
-19.0000000000001
20
9.99476283551468
30
0
0
SPLINE
5
F9
100
AcDbEntity
8
SK1
62
256
6
ByLayer
370
-1
48
1
60
0
100
AcDbSpline
70
4
71
3
72
28
73
24
40
0
40
0
40
0
40
0
40
0.0423879951308033
40
0.0423879951308033
40
0.156794666145991
40
0.156794666145991
40
0.271201337161178
40
0.271201337161178
40
0.385608008176365
40
0.385608008176365
40
0.500014679191552
40
0.500014679191552
40
0.557218014699146
40
0.557218014699146
40
0.61442135020674
40
0.61442135020674
40
0.728828021221927
40
0.728828021221927
40
0.843234692237114
40
0.843234692237114
40
0.957641363252301
40
0.957641363252301
40
1
40
1
40
1
40
1
41
1
10
-18.0001734295129
20
-10.6054878413186
30
0
41
1
10
-18.0000005467312
20
-10.5885153788858
30
0
41
1
10
-17.9998497172842
20
-10.5352314114941
30
0
41
1
10
-17.9993460601134
20
-10.2429088672824
30
0
41
1
10
-17.9990988056028
20
-9.81359720713402
30
0
41
1
10
-17.9988195891792
20
-8.67799587917008
30
0
41
1
10
-17.9987789888217
20
-7.93803669656467
30
0
41
1
10
-17.9988983953945
20
-6.21390741143236
30
0
41
1
10
-17.9990885772988
20
-5.2000970908768
30
0
41
1
10
-17.9995974783544
20
-2.89237914518125
30
0
41
1
10
-18.000287271437
20
-1.57655907424311
30
0
41
1
10
-18.0003286246019
20
0.690578498002651
30
0
41
1
10
-18.0000850867792
20
1.41417473709515
30
0
41
1
10
-17.9996934384013
20
2.75651088503116
30
0
41
1
10
-17.9994983534135
20
3.37778931845674
30
0
41
1
10
-17.9990930991172
20
5.13772388357202
30
0
41
1
10
-17.998907377526
20
6.13962641864131
30
0
41
1
10
-17.998777565303
20
7.90646294229808
30
0
41
1
10
-17.9988135429197
20
8.63135220704805
30
0
41
1
10
-17.9990900316852
20
9.79882231270327
30
0
41
1
10
-17.9993298221815
20
10.225403547372
30
0
41
1
10
-17.9998318423106
20
10.5275743209201
30
0
41
1
10
-17.999981658709
20
10.5829979495472
30
0
41
1
10
-18.0001534602758
20
10.6023204593822
30
0
0
SPLINE
5
FA
100
AcDbEntity
8
SK1
62
256
6
ByLayer
370
-1
48
1
60
0
100
AcDbSpline
70
4
71
3
72
24
73
20
40
0
40
0
40
0
40
0
40
0.0348890371140488
40
0.0348890371140488
40
0.0617027213621947
40
0.0617027213621947
40
0.0827724763829611
40
0.0827724763829611
40
0.103857289987096
40
0.103857289987096
40
0.132456700829786
40
0.132456700829786
40
0.183303847887376
40
0.183303847887376
40
0.342147323918191
40
0.342147323918191
40
0.999994163616029
40
0.999994163616029
40
1
40
1
40
1
40
1
41
1
10
-0.400000000000034
20
10.7720903270618
30
0
41
1
10
-0.394111355098573
20
10.7726946640025
30
0
41
1
10
-0.387638990857908
20
10.7735074107736
30
0
41
1
10
-0.374999497999227
20
10.7755463299797
30
0
41
1
10
-0.368988434639903
20
10.7766582562045
30
0
41
1
10
-0.357779191188456
20
10.7790947211554
30
0
41
1
10
-0.352573525529351
20
10.7803510360362
30
0
41
1
10
-0.342444927003157
20
10.7830631767083
30
0
41
1
10
-0.337408731680853
20
10.7845489216127
30
0
41
1
10
-0.326477488214323
20
10.7880399886084
30
0
41
1
10
-0.320718590221418
20
10.790094933621
30
0
41
1
10
-0.306589885788867
20
10.7955138573257
30
0
41
1
10
-0.299229318200901
20
10.7987886768127
30
0
41
1
10
-0.273318263088015
20
10.8111744132949
30
0
41
1
10
-0.26176150519791
20
10.8187552826324
30
0
41
1
10
-0.212916331686188
20
10.8527221106266
30
0
41
1
10
-0.206214896622498
20
10.8665219361729
30
0
41
1
10
-0.201948096039862
20
10.8745596594224
30
0
41
1
10
-0.201947627118363
20
10.8745605427755
30
0
41
1
10
-0.201947158199687
20
10.87456142613
30
0
0
SPLINE
5
FB
100
AcDbEntity
8
SK1
62
256
6
ByLayer
370
-1
48
1
60
0
100
AcDbSpline
70
4
71
3
72
24
73
20
40
0
40
0
40
0
40
0
40
0.0288407257317727
40
0.0288407257317727
40
0.0509955919663311
40
0.0509955919663311
40
0.0683898145862111
40
0.0683898145862111
40
0.0857973114187118
40
0.0857973114187118
40
0.109377904005675
40
0.109377904005675
40
0.151277300634705
40
0.151277300634705
40
0.282099488990439
40
0.282099488990439
40
0.823874497013243
40
0.823874497013243
40
1
40
1
40
1
40
1
41
1
10
-0.400000000000034
20
-4.48934914533075
30
0
41
1
10
-0.394116473092879
20
-4.48412156647126
30
0
41
1
10
-0.387649558798614
20
-4.47936666342238
30
0
41
1
10
-0.375020695476792
20
-4.47300024936567
30
0
41
1
10
-0.369015733581705
20
-4.47088976573133
30
0
41
1
10
-0.357819037006664
20
-4.46928378990089
30
0
41
1
10
-0.352620795543146
20
-4.4693378300326
30
0
41
1
10
-0.342504208041191
20
-4.47118331490236
30
0
41
1
10
-0.337472714781029
20
-4.47299443494018
30
0
41
1
10
-0.326559027546409
20
-4.47870654294016
30
0
41
1
10
-0.320811012640036
20
-4.4831623835409
30
0
41
1
10
-0.3067126689985
20
-4.49677058842062
30
0
41
1
10
-0.299366502504768
20
-4.50708193062854
30
0
41
1
10
-0.273512837585713
20
-4.55030240434653
30
0
41
1
10
-0.261969797101415
20
-4.58649632348286
30
0
41
1
10
-0.213168679495254
20
-4.76802497148651
30
0
41
1
10
-0.206388298823185
20
-4.91574806320796
30
0
41
1
10
-0.200616563362587
20
-5.1048724008445
30
0
41
1
10
-0.20000000000033
20
-5.15111693550304
30
0
41
1
10
-0.200000000000046
20
-5.19704283599549
30
0
0
SPLINE
5
FC
100
AcDbEntity
8
SK1
62
256
6
ByLayer
370
-1
48
1
60
0
100
AcDbSpline
70
4
71
3
72
26
73
22
40
0
40
0
40
0
40
0
40
0.449738132477954
40
0.449738132477954
40
0.664402002683402
40
0.664402002683402
40
0.7737612207596
40
0.7737612207596
40
0.856245095717807
40
0.856245095717807
40
0.897662328372348
40
0.897662328372348
40
0.91706495237681
40
0.91706495237681
40
0.936734615560887
40
0.936734615560887
40
0.954124174419597
40
0.954124174419597
40
0.979939143819098
40
0.979939143819098
40
1
40
1
40
1
40
1
41
1
10
-0.200000000000046
20
5.19704273475742
30
0
41
1
10
-0.200000000000046
20
5.07975410009703
30
0
41
1
10
-0.203466682130625
20
4.96017714586688
30
0
41
1
10
-0.221693360550034
20
4.78102610938947
30
0
41
1
10
-0.2295609559024
20
4.72253456210919
30
0
41
1
10
-0.248699491321418
20
4.63442555966748
30
0
41
1
10
-0.256413494564128
20
4.60458658946615
30
0
41
1
10
-0.274681296242647
20
4.55329063876354
30
0
41
1
10
-0.284007523646267
20
4.53119508230068
30
0
41
1
10
-0.303744106160423
20
4.50098594538659
30
0
41
1
10
-0.311509525681402
20
4.49116741345233
30
0
41
1
10
-0.325471651806765
20
4.47968016512067
30
0
41
1
10
-0.330427279763057
20
4.47641864212306
30
0
41
1
10
-0.341006642070965
20
4.4716078953679
30
0
41
1
10
-0.346789289837659
20
4.47005622337582
30
0
41
1
10
-0.35750171321132
20
4.4692526659862
30
0
41
1
10
-0.362570628376432
20
4.46973139878193
30
0
41
1
10
-0.374383227259841
20
4.47254618031181
30
0
41
1
10
-0.380971575520618
20
4.47565191427904
30
0
41
1
10
-0.391577664442764
20
4.48234828370349
30
0
41
1
10
-0.395922839313982
20
4.48572633284783
30
0
41
1
10
-0.400000000000148
20
4.48934893107318
30
0
0
SPLINE
5
FD
100
AcDbEntity
8
SK1
62
256
6
ByLayer
370
-1
48
1
60
0
100
AcDbSpline
70
4
71
3
72
26
73
22
40
0
40
0
40
0
40
0
40
0.0008023794764263
40
0.0008023794764263
40
0.389955818052091
40
0.389955818052091
40
0.588411381898567
40
0.588411381898567
40
0.738873838915899
40
0.738873838915899
40
0.814437133741716
40
0.814437133741716
40
0.849669814042665
40
0.849669814042665
40
0.885379597279917
40
0.885379597279917
40
0.917015756722979
40
0.917015756722979
40
0.964291651362239
40
0.964291651362239
40
1
40
1
40
1
40
1
41
1
10
-0.215811086592112
20
-10.8563923645235
30
0
41
1
10
-0.21582320181551
20
-10.8563793708357
30
0
41
1
10
-0.215835325590888
20
-10.856366371465
30
0
41
1
10
-0.221736537161121
20
-10.8500406644013
30
0
41
1
10
-0.229595996987712
20
-10.842375997527
30
0
41
1
10
-0.248697987408263
20
-10.8277247348159
30
0
41
1
10
-0.256401529113873
20
-10.8222273926603
30
0
41
1
10
-0.274672330728549
20
-10.8111348764243
30
0
41
1
10
-0.284031111048876
20
-10.8058441112873
30
0
41
1
10
-0.303862792072039
20
-10.7967411489855
30
0
41
1
10
-0.311673384937649
20
-10.793419574543
30
0
41
1
10
-0.325697750675374
20
-10.78834194919
30
0
41
1
10
-0.330659077403368
20
-10.7866628614953
30
0
41
1
10
-0.341238014585599
20
-10.7834040520235
30
0
41
1
10
-0.347013203094093
20
-10.7817865260973
30
0
41
1
10
-0.357712157030278
20
-10.77910778386
30
0
41
1
10
-0.362775636738434
20
-10.7779724373213
30
0
41
1
10
-0.374620388322228
20
-10.7755812023392
30
0
41
1
10
-0.381238297735365
20
-10.7744865169402
30
0
41
1
10
-0.391758607838881
20
-10.773005485568
30
0
41
1
10
-0.396007428966925
20
-10.7725001016588
30
0
41
1
10
-0.400000000000091
20
-10.7720903551647
30
0
0
SPLINE
5
FE
100
AcDbEntity
8
SK1
62
256
6
ByLayer
370
-1
48
1
60
0
100
AcDbSpline
70
4
71
3
72
34
73
30
40
0
40
0
40
0
40
0
40
0.0112669685473899
40
0.0112669685473899
40
0.0589394571114245
40
0.0589394571114245
40
0.154535986936305
40
0.154535986936305
40
0.250071361964139
40
0.250071361964139
40
0.345575677084835
40
0.345575677084835
40
0.441065554336702
40
0.441065554336702
40
0.536552664117248
40
0.536552664117248
40
0.632047854666877
40
0.632047854666877
40
0.72756460239812
40
0.72756460239812
40
0.823124579528475
40
0.823124579528475
40
0.870792997061788
40
0.870792997061788
40
0.918469321596012
40
0.918469321596012
40
0.966157775290171
40
0.966157775290171
40
1
40
1
40
1
40
1
41
1
10
-1.69993676286356
20
-11.0201001927739
30
0
41
1
10
-1.69993832691932
20
-11.0201347387087
30
0
41
1
10
-1.69993984120725
20
-11.019627451577
30
0
41
1
10
-1.69994751366465
20
-11.0142188011048
30
0
41
1
10
-1.69995287995744
20
-11.000405024139
30
0
41
1
10
-1.69996695296891
20
-10.9332843475555
30
0
41
1
10
-1.69997367173841
20
-10.8542029227334
30
0
41
1
10
-1.69998386152667
20
-10.6377999041158
30
0
41
1
10
-1.69998734498478
20
-10.5001171728846
30
0
41
1
10
-1.69999246905712
20
-10.1728975826325
30
0
41
1
10
-1.69999411792992
20
-9.98292332235604
30
0
41
1
10
-1.69999643908523
20
-9.55552993499316
30
0
41
1
10
-1.6999971168857
20
-9.31759782738115
30
0
41
1
10
-1.69999798411868
20
-8.79743010432028
30
0
41
1
10
-1.69999817542509
20
-8.51459573987518
30
0
41
1
10
-1.69999824461598
20
-7.90689005466763
30
0
41
1
10
-1.69999812267855
20
-7.58130243438197
30
0
41
1
10
-1.69999744438479
20
-6.8897188186929
30
0
41
1
10
-1.69999688682344
20
-6.52282614529054
30
0
41
1
10
-1.69999489291331
20
-5.74978712553676
30
0
41
1
10
-1.69999345206901
20
-5.34244656677163
30
0
41
1
10
-1.69999000494022
20
-4.70303852615055
30
0
41
1
10
-1.69998863813788
20
-4.48501546085996
30
0
41
1
10
-1.69998532683127
20
-4.03938656106379
30
0
41
1
10
-1.69998338085907
20
-3.81152710629337
30
0
41
1
10
-1.69997876258685
20
-3.34638056322453
30
0
41
1
10
-1.6999760835148
20
-3.10876440414407
30
0
41
1
10
-1.69997079701295
20
-2.69478121630701
30
0
41
1
10
-1.69996839509747
20
-2.52048785703786
30
0
41
1
10
-1.69996579751813
20
-2.34399454350842
30
0
0
SPLINE
5
FF
100
AcDbEntity
8
SK1
62
256
6
ByLayer
370
-1
48
1
60
0
100
AcDbSpline
70
4
71
3
72
34
73
30
40
0
40
0
40
0
40
0
40
0.0138699461135721
40
0.0138699461135721
40
0.0615376971138885
40
0.0615376971138885
40
0.10918926111394
40
0.10918926111394
40
0.156830572311102
40
0.156830572311102
40
0.252358343228305
40
0.252358343228305
40
0.347829116956805
40
0.347829116956805
40
0.443270849231678
40
0.443270849231678
40
0.538699345848867
40
0.538699345848867
40
0.634126101528651
40
0.634126101528651
40
0.729562062530656
40
0.729562062530656
40
0.825021175249778
40
0.825021175249778
40
0.872655105310154
40
0.872655105310154
40
0.920293090024452
40
0.920293090024452
40
1
40
1
40
1
40
1
41
1
10
-1.69996579738211
20
2.34399541728098
30
0
41
1
10
-1.69996686313755
20
2.41640598367121
30
0
41
1
10
-1.69996789580711
20
2.48843835386174
30
0
41
1
10
-1.69997232375255
20
2.80617464221731
30
0
41
1
10
-1.6999753518283
20
3.04785091887862
30
0
41
1
10
-1.69998060299412
20
3.52111771354691
30
0
41
1
10
-1.6999828378074
20
3.75308301404428
30
0
41
1
10
-1.69998665823965
20
4.20691759809461
30
0
41
1
10
-1.6999882494477
20
4.42906881485823
30
0
41
1
10
-1.69999228100289
20
5.08095958549046
30
0
41
1
10
-1.69999399832386
20
5.49674568755356
30
0
41
1
10
-1.69999640677304
20
6.28665686269224
30
0
41
1
10
-1.69999709786958
20
6.66206466504687
30
0
41
1
10
-1.69999798189281
20
7.3708282640267
30
0
41
1
10
-1.69999817407842
20
7.70515361426863
30
0
41
1
10
-1.69999824533255
20
8.3306008255654
30
0
41
1
10
-1.69999812372993
20
8.6225172182109
30
0
41
1
10
-1.69999745591969
20
9.16128938563259
30
0
41
1
10
-1.69999690935441
20
9.40881093991047
30
0
41
1
10
-1.69999497540988
20
9.85604515063557
30
0
41
1
10
-1.69999358833155
20
10.0563309819064
30
0
41
1
10
-1.69998919708894
20
10.4051496355369
30
0
41
1
10
-1.69998618942941
20
10.5541774341773
30
0
41
1
10
-1.69997952914247
20
10.7345238916283
30
0
41
1
10
-1.69997694129074
20
10.7874883912928
30
0
41
1
10
-1.69997082738263
20
10.8781161933101
30
0
41
1
10
-1.6999672899446
20
10.9158197893435
30
0
41
1
10
-1.69995622914706
20
10.9944425651836
30
0
41
1
10
-1.69994759490555
20
11.0208189246456
30
0
41
1
10
-1.69993649660586
20
11.0201007972385
30
0
0
SPLINE
5
100
100
AcDbEntity
8
SK1
62
256
6
ByLayer
370
-1
48
1
60
0
100
AcDbSpline
70
4
71
3
72
10
73
6
40
0
40
0
40
0
40
0
40
0.5
40
0.5
40
1
40
1
40
1
40
1
41
1
10
-1.69996579751438
20
-2.34399454350793
30
0
41
1
10
-1.82597576019367
20
-1.61001532399777
30
0
41
1
10
-1.92804003196062
20
-0.809037898581778
30
0
41
1
10
-1.92909522738216
20
0.795359530273288
30
0
41
1
10
-1.82836818305549
20
1.5960753900805
30
0
41
1
10
-1.69996579738211
20
2.34399541728104
30
0
0
LINE
5
4A
100
AcDbEntity
8
80
62
256
6
ByLayer
370
-1
48
1
60
0
100
AcDbLine
10
0
20
0
30
0
11
-10
21
0
31
0
39
0
210
0
220
0
230
1
0
LINE
5
4B
100
AcDbEntity
8
81
62
256
6
ByLayer
370
-1
48
1
60
0
100
AcDbLine
10
65
20
-10.9
30
0
11
75
21
-10.9
31
0
39
0
210
0
220
0
230
1
0
LINE
5
4C
100
AcDbEntity
8
SK4
62
256
6
ByLayer
370
-1
48
0.05
60
0
100
AcDbLine
10
-24
20
0
30
0
11
69.771013
21
0
31
0
39
0
210
0
220
0
230
1
0
LINE
5
4E
100
AcDbEntity
8
4
62
256
6
ByLayer
370
-1
48
0.05
60
0
100
AcDbLine
10
0
20
0
30
0
11
88.771013
21
0
31
0
39
0
210
0
220
0
230
1
0
LINE
5
50
100
AcDbEntity
8
1
62
256
6
ByLayer
370
-1
48
1
60
0
100
AcDbLine
10
0.3
20
16
30
0
11
0
21
15.7
31
0
39
0
210
0
220
0
230
1
0
LINE
5
51
100
AcDbEntity
8
1
62
256
6
ByLayer
370
-1
48
1
60
0
100
AcDbLine
10
0
20
-15.7
30
0
11
0.3
21
-16
31
0
39
0
210
0
220
0
230
1
0
LINE
5
52
100
AcDbEntity
8
1
62
256
6
ByLayer
370
-1
48
1
60
0
100
AcDbLine
10
14.5
20
-16
30
0
11
15.42489
21
-12.476611
31
0
39
0
210
0
220
0
230
1
0
LINE
5
53
100
AcDbEntity
8
1
62
256
6
ByLayer
370
-1
48
1
60
0
100
AcDbLine
10
15.42489
20
12.476611
30
0
11
14.5
21
16
31
0
39
0
210
0
220
0
230
1
0
LINE
5
54
100
AcDbEntity
8
1
62
256
6
ByLayer
370
-1
48
1
60
0
100
AcDbLine
10
14.5
20
16
30
0
11
0.3
21
16
31
0
39
0
210
0
220
0
230
1
0
LINE
5
55
100
AcDbEntity
8
1
62
256
6
ByLayer
370
-1
48
1
60
0
100
AcDbLine
10
0.3
20
-16
30
0
11
14.5
21
-16
31
0
39
0
210
0
220
0
230
1
0
LINE
5
56
100
AcDbEntity
8
1
62
256
6
ByLayer
370
-1
48
1
60
0
100
AcDbLine
10
56.488189
20
8
30
0
11
21.228275
21
8
31
0
39
0
210
0
220
0
230
1
0
LINE
5
57
100
AcDbEntity
8
1
62
256
6
ByLayer
370
-1
48
1
60
0
100
AcDbLine
10
54.596364
20
-8
30
0
11
54.782804
21
-8
31
0
39
0
210
0
220
0
230
1
0
LINE
5
58
100
AcDbEntity
8
1
62
256
6
ByLayer
370
-1
48
1
60
0
100
AcDbLine
10
21.228275
20
-8
30
0
11
54.596364
21
-8
31
0
39
0
210
0
220
0
230
1
0
LINE
5
59
100
AcDbEntity
8
1
62
256
6
ByLayer
370
-1
48
1
60
0
100
AcDbLine
10
60.953179
20
-4.727673
30
0
11
60.949644
21
-4.660206
31
0
39
0
210
0
220
0
230
1
0
LINE
5
5A
100
AcDbEntity
8
1
62
256
6
ByLayer
370
-1
48
1
60
0
100
AcDbLine
10
62.131689
20
-4.687623
30
0
11
62.135168
21
-4.754004
31
0
39
0
210
0
220
0
230
1
0
LINE
5
5B
100
AcDbEntity
8
1
62
256
6
ByLayer
370
-1
48
1
60
0
100
AcDbLine
10
59.823957
20
-5.354904
30
0
11
59.826836
21
-5.409834
31
0
39
0
210
0
220
0
230
1
0
LINE
5
5C
100
AcDbEntity
8
1
62
256
6
ByLayer
370
-1
48
1
60
0
100
AcDbLine
10
63.272107
20
-5.229275
30
0
11
63.269229
21
-5.174345
31
0
39
0
210
0
220
0
230
1
0
LINE
5
5D
100
AcDbEntity
8
1
62
256
6
ByLayer
370
-1
48
1
60
0
100
AcDbLine
10
62.142749
20
-5.853912
30
0
11
62.146288
21
-5.921432
31
0
39
0
210
0
220
0
230
1
0
LINE
5
5E
100
AcDbEntity
8
1
62
256
6
ByLayer
370
-1
48
1
60
0
100
AcDbLine
10
60.964182
20
-5.892879
30
0
11
60.960703
21
-5.826495
31
0
39
0
210
0
220
0
230
1
0
LINE
5
5F
100
AcDbEntity
8
1
62
256
6
ByLayer
370
-1
48
1
60
0
100
AcDbLine
10
4.663397
20
15.175938
30
0
11
4.663397
21
5.068619
31
0
39
0
210
0
220
0
230
1
0
LINE
5
60
100
AcDbEntity
8
1
62
256
6
ByLayer
370
-1
48
1
60
0
100
AcDbLine
10
56.488189
20
8
30
0
11
56.613801
21
7.879325
31
0
39
0
210
0
220
0
230
1
0
LINE
5
61
100
AcDbEntity
8
1
62
256
6
ByLayer
370
-1
48
1
60
0
100
AcDbLine
10
4.923205
20
4.755463
30
0
11
7.076795
21
4.755463
31
0
39
0
210
0
220
0
230
1
0
LINE
5
62
100
AcDbEntity
8
1
62
256
6
ByLayer
370
-1
48
1
60
0
100
AcDbLine
10
7.336603
20
15.175938
30
0
11
7.336603
21
5.068619
31
0
39
0
210
0
220
0
230
1
0
LINE
5
63
100
AcDbEntity
8
1
62
256
6
ByLayer
370
-1
48
1
60
0
100
AcDbLine
10
58.219019
20
-2.436634
30
0
11
57.636061
21
-2.073456
31
0
39
0
210
0
220
0
230
1
0
LINE
5
64
100
AcDbEntity
8
1
62
256
6
ByLayer
370
-1
48
1
60
0
100
AcDbLine
10
64.415951
20
-3.170947
30
0
11
64.219774
21
0.572321
31
0
39
0
210
0
220
0
230
1
0
LINE
5
65
100
AcDbEntity
8
1
62
256
6
ByLayer
370
-1
48
1
60
0
100
AcDbLine
10
7.336603
20
-5.068619
30
0
11
7.336603
21
-15.175938
31
0
39
0
210
0
220
0
230
1
0
LINE
5
66
100
AcDbEntity
8
1
62
256
6
ByLayer
370
-1
48
1
60
0
100
AcDbLine
10
7.076795
20
-4.755463
30
0
11
4.923205
21
-4.755463
31
0
39
0
210
0
220
0
230
1
0
LINE
5
67
100
AcDbEntity
8
1
62
256
6
ByLayer
370
-1
48
1
60
0
100
AcDbLine
10
4.663397
20
-5.068619
30
0
11
4.663397
21
-15.175938
31
0
39
0
210
0
220
0
230
1
0
LINE
5
68
100
AcDbEntity
8
1
62
256
6
ByLayer
370
-1
48
1
60
0
100
AcDbLine
10
0
20
15.7
30
0
11
0
21
-15.7
31
0
39
0
210
0
220
0
230
1
0
LINE
5
69
100
AcDbEntity
8
1
62
256
6
ByLayer
370
-1
48
1
60
0
100
AcDbLine
10
54.809939
20
-7.975331
30
0
11
54.785256
21
-7.999943
31
0
39
0
210
0
220
0
230
1
0
LINE
5
6A
100
AcDbEntity
8
1
62
256
6
ByLayer
370
-1
48
1
60
0
100
AcDbLine
10
4.923205
20
15.276962
30
0
11
4.923205
21
4.755463
31
0
39
0
210
0
220
0
230
1
0
LINE
5
6B
100
AcDbEntity
8
1
62
256
6
ByLayer
370
-1
48
1
60
0
100
AcDbLine
10
57.636061
20
-2.073456
30
0
11
57.644598
21
-2.236347
31
0
39
0
210
0
220
0
230
1
0
LINE
5
6C
100
AcDbEntity
8
1
62
256
6
ByLayer
370
-1
48
1
60
0
100
AcDbLine
10
58.408568
20
6.155105
30
0
11
64.219774
21
0.572321
31
0
39
0
210
0
220
0
230
1
0
LINE
5
6D
100
AcDbEntity
8
1
62
256
6
ByLayer
370
-1
48
1
60
0
100
AcDbLine
10
21.228275
20
-8
30
0
11
21.228275
21
8
31
0
39
0
210
0
220
0
230
1
0
LINE
5
6E
100
AcDbEntity
8
1
62
256
6
ByLayer
370
-1
48
1
60
0
100
AcDbLine
10
59.479158
20
-0.311737
30
0
11
59.477542
21
-0.280911
31
0
39
0
210
0
220
0
230
1
0
LINE
5
6F
100
AcDbEntity
8
1
62
256
6
ByLayer
370
-1
48
1
60
0
100
AcDbLine
10
4.923205
20
-4.755463
30
0
11
4.923205
21
-15.276962
31
0
39
0
210
0
220
0
230
1
0
LINE
5
70
100
AcDbEntity
8
1
62
256
6
ByLayer
370
-1
48
1
60
0
100
AcDbLine
10
15.42489
20
12.476611
30
0
11
15.42489
21
-12.476611
31
0
39
0
210
0
220
0
230
1
0
LINE
5
71
100
AcDbEntity
8
1
62
256
6
ByLayer
370
-1
48
1
60
0
100
AcDbLine
10
58.22756
20
-2.599527
30
0
11
57.644598
21
-2.236347
31
0
39
0
210
0
220
0
230
1
0
LINE
5
72
100
AcDbEntity
8
1
62
256
6
ByLayer
370
-1
48
1
60
0
100
AcDbLine
10
54.60517
20
-7.999941
30
0
11
58.408568
21
6.155105
31
0
39
0
210
0
220
0
230
1
0
LINE
5
73
100
AcDbEntity
8
1
62
256
6
ByLayer
370
-1
48
1
60
0
100
AcDbLine
10
7.076795
20
15.276962
30
0
11
7.076795
21
4.755463
31
0
39
0
210
0
220
0
230
1
0
LINE
5
74
100
AcDbEntity
8
1
62
256
6
ByLayer
370
-1
48
1
60
0
100
AcDbLine
10
14.5
20
16
30
0
11
14.5
21
-16
31
0
39
0
210
0
220
0
230
1
0
LINE
5
75
100
AcDbEntity
8
1
62
256
6
ByLayer
370
-1
48
1
60
0
100
AcDbLine
10
56.613801
20
7.879325
30
0
11
58.408568
21
6.155105
31
0
39
0
210
0
220
0
230
1
0
LINE
5
76
100
AcDbEntity
8
1
62
256
6
ByLayer
370
-1
48
1
60
0
100
AcDbLine
10
4.923205
20
-15.276962
30
0
11
7.076795
21
-15.276962
31
0
39
0
210
0
220
0
230
1
0
LINE
5
77
100
AcDbEntity
8
1
62
256
6
ByLayer
370
-1
48
1
60
0
100
AcDbLine
10
0.3
20
16
30
0
11
0.3
21
-16
31
0
39
0
210
0
220
0
230
1
0
LINE
5
78
100
AcDbEntity
8
1
62
256
6
ByLayer
370
-1
48
1
60
0
100
AcDbLine
10
57.436583
20
-0.113986
30
0
11
57.445119
21
-0.276876
31
0
39
0
210
0
220
0
230
1
0
LINE
5
79
100
AcDbEntity
8
1
62
256
6
ByLayer
370
-1
48
1
60
0
100
AcDbLine
10
7.076795
20
15.276962
30
0
11
4.923205
21
15.276962
31
0
39
0
210
0
220
0
230
1
0
LINE
5
7A
100
AcDbEntity
8
1
62
256
6
ByLayer
370
-1
48
1
60
0
100
AcDbLine
10
7.076795
20
-4.755463
30
0
11
7.076795
21
-15.276962
31
0
39
0
210
0
220
0
230
1
0
LINE
5
7B
100
AcDbEntity
8
SK1
62
256
6
ByLayer
370
-1
48
1
60
0
100
AcDbLine
10
-1.307107
20
-3.2741
30
0
11
-1.307107
21
3.2741
31
0
39
0
210
0
220
0
230
1
0
LINE
5
7D
100
AcDbEntity
8
1
62
256
6
ByLayer
370
-1
48
1
60
0
100
AcDbLine
10
58.455132
20
-6.941794
30
0
11
58.101161
21
-0.187626
31
0
39
0
210
0
220
0
230
1
0
LINE
5
7E
100
AcDbEntity
8
1
62
256
6
ByLayer
370
-1
48
1
60
0
100
AcDbLine
10
58.707853
20
0.168781
30
0
11
64.459518
21
-3.414459
31
0
39
0
210
0
220
0
230
1
0
LINE
5
7F
100
AcDbEntity
8
1
62
256
6
ByLayer
370
-1
48
1
60
0
100
AcDbLine
10
64.645488
20
-3.729324
30
0
11
64.999459
21
-10.483492
31
0
39
0
210
0
220
0
230
1
0
LINE
5
80
100
AcDbEntity
8
1
62
256
6
ByLayer
370
-1
48
1
60
0
100
AcDbLine
10
64.392768
20
-10.839899
30
0
11
58.641103
21
-7.256659
31
0
39
0
210
0
220
0
230
1
0
LINE
5
81
100
AcDbEntity
8
1
62
256
6
ByLayer
370
-1
48
1
60
0
100
AcDbLine
10
61.258782
20
-6.125757
30
0
11
61.262477
21
-6.19627
31
0
39
0
210
0
220
0
230
1
0
LINE
5
82
100
AcDbEntity
8
1
62
256
6
ByLayer
370
-1
48
1
60
0
100
AcDbLine
10
62.143707
20
-4.563631
30
0
11
62.147401
21
-4.634119
31
0
39
0
210
0
220
0
230
1
0
LINE
5
83
100
AcDbEntity
8
1
62
256
6
ByLayer
370
-1
48
1
60
0
100
AcDbLine
10
60.648394
20
-5.442067
30
0
11
60.652089
21
-5.512555
31
0
39
0
210
0
220
0
230
1
0
LINE
5
84
100
AcDbEntity
8
1
62
256
6
ByLayer
370
-1
48
1
60
0
100
AcDbLine
10
60.936095
20
-4.574217
30
0
11
60.939791
21
-4.64473
31
0
39
0
210
0
220
0
230
1
0
LINE
5
85
100
AcDbEntity
8
1
62
256
6
ByLayer
370
-1
48
1
60
0
100
AcDbLine
10
62.447369
20
-5.42751
30
0
11
62.451064
21
-5.498023
31
0
39
0
210
0
220
0
230
1
0
LINE
5
86
100
AcDbEntity
8
1
62
256
6
ByLayer
370
-1
48
1
60
0
100
AcDbLine
10
61.849253
20
-6.120277
30
0
11
61.852948
21
-6.19079
31
0
39
0
210
0
220
0
230
1
0
LINE
5
87
100
AcDbEntity
8
SK1
62
256
6
ByLayer
370
-1
48
1
60
0
100
AcDbLine
10
-0.2
20
5.197043
30
0
11
-0.2
21
10.883485
31
0
39
0
210
0
220
0
230
1
0
LINE
5
88
100
AcDbEntity
8
SK1
62
256
6
ByLayer
370
-1
48
1
60
0
100
AcDbLine
10
-0.2
20
-10.883485
30
0
11
-0.2
21
-5.197043
31
0
39
0
210
0
220
0
230
1
0
LINE
5
89
100
AcDbEntity
8
2
62
256
6
ByLayer
370
-1
48
1
60
1
100
AcDbLine
10
65
20
0
30
0
11
65.001
21
0.001
31
0
39
0
210
0
220
0
230
1
0
MTEXT
5
101
100
AcDbEntity
8
SK6
62
256
6
ByLayer
370
-1
48
1
60
0
100
AcDbMText
10
-0.339493
20
25.125
30
0
210
0
220
0
230
1
1
\W00.705;\fsimplex.shx,bigfont.shx;C3-SDUCL-11065-07 
40
3.5
41
0
44
1.084337
50
0
71
7
72
5
7
DEFAULT
0
DIMENSION
5
135
100
AcDbEntity
8
SK2
62
256
6
ByLayer
370
-3
48
1
60
0
100
AcDbDimension
2
DimnDraft3D1
10
-31.75
20
-16
30
0
11
-31.75
21
-4.784211
31
0
70
32
71
5
72
1
41
1
210
0
220
0
230
1
3
Standard
100
AcDbAlignedDimension
13
-2
23
16
33
0
14
-2
24
-16
34
0
50
90
100
AcDbRotatedDimension
1001
ACAD
1000
DSTYLE
1002
{
1070
    74
1070
     0
1070
   279
1070
     0
1070
   172
1070
     1
1070
   173
1070
     1
1070
   340
1005
102
1070
    77
1070
     1
1070
    73
1070
     0
1070
   171
1070
     4
1070
   274
1070
     4
1070
   177
1070
     2
1070
   176
1070
     2
1070
   178
1070
     7
1070
    78
1070
     8
1070
    41
1041
3.175
1070
   147
1041
2.25
1070
    42
1041
2.0
1070
    44
1041
2.0
1070
   140
1041
4.5
1070
   343
1005
136
1070
   344
1005
136
1002
}
0
DIMENSION
5
148
100
AcDbEntity
8
2
62
256
6
ByLayer
370
-3
48
1
60
0
100
AcDbDimension
2
DimnDraft3D2
10
31.85
20
8
30
0
11
31.85
21
18.255
31
0
70
32
71
5
72
1
41
1
210
0
220
0
230
1
3
Standard
100
AcDbAlignedDimension
13
16.6
23
8
33
0
14
0
24
0
34
0
50
90
100
AcDbRotatedDimension
1001
ACAD
1000
DSTYLE
1002
{
1070
    74
1070
     0
1070
   279
1070
     0
1070
   172
1070
     1
1070
   173
1070
     1
1070
   340
1005
102
1070
    75
1070
     1
1070
    76
1070
     1
1070
    77
1070
     1
1070
    73
1070
     0
1070
   171
1070
     4
1070
   274
1070
     4
1070
   177
1070
     2
1070
   176
1070
     2
1070
   178
1070
     7
1070
    78
1070
     8
1070
    41
1041
3.175
1070
   147
1041
2.25
1070
    42
1041
2.0
1070
    44
1041
2.0
1070
   140
1041
4.5
1070
   343
1005
136
1070
   344
1005
136
1002
}
0
DIMENSION
5
156
100
AcDbEntity
8
2
62
256
6
ByLayer
370
-3
48
1
60
0
100
AcDbDimension
2
DimnDraft3D3
10
77.25
20
-10.9
30
0
11
77.25
21
-29.231316
31
0
70
32
71
5
72
1
41
1
210
0
220
0
230
1
3
Standard
100
AcDbAlignedDimension
13
67
23
0
33
0
14
67
24
-10.9
34
0
50
90
100
AcDbRotatedDimension
1001
ACAD
1000
DSTYLE
1002
{
1070
    74
1070
     0
1070
   279
1070
     0
1070
   172
1070
     1
1070
   173
1070
     1
1070
   340
1005
102
1070
    77
1070
     1
1070
    73
1070
     0
1070
   171
1070
     4
1070
   274
1070
     4
1070
   177
1070
     2
1070
   176
1070
     2
1070
   178
1070
     7
1070
    78
1070
     8
1070
    41
1041
3.175
1070
   147
1041
2.25
1070
    42
1041
2.0
1070
    44
1041
2.0
1070
   140
1041
4.5
1070
   343
1005
136
1070
   344
1005
136
1002
}
0
DIMENSION
5
164
100
AcDbEntity
8
2
62
256
6
ByLayer
370
-3
48
1
60
0
100
AcDbDimension
2
DimnDraft3D4
10
65
20
-43.15
30
0
11
27.336842
21
-43.15
31
0
70
32
71
5
72
1
41
1
210
0
220
0
230
1
3
Standard
100
AcDbAlignedDimension
13
0
23
-18
33
0
14
65
24
-12.9
34
0
50
0
100
AcDbRotatedDimension
1001
ACAD
1000
DSTYLE
1002
{
1070
   279
1070
     0
1070
   172
1070
     1
1070
   173
1070
     1
1070
   340
1005
102
1070
    77
1070
     1
1070
    73
1070
     0
1070
   171
1070
     4
1070
   274
1070
     4
1070
   177
1070
     2
1070
   176
1070
     2
1070
   178
1070
     7
1070
    78
1070
     8
1070
    41
1041
3.175
1070
   147
1041
2.25
1070
    42
1041
2.0
1070
    44
1041
2.0
1070
   140
1041
4.5
1070
   343
1005
136
1070
   344
1005
136
1002
}
0
DIMENSION
5
172
100
AcDbEntity
8
2
62
256
6
ByLayer
370
-3
48
1
60
0
100
AcDbDimension
2
DimnDraft3D5
10
65
20
-28.15
30
0
11
35.163158
21
-28.15
31
0
70
32
71
5
72
1
41
1
210
0
220
0
230
1
3
Standard
100
AcDbAlignedDimension
13
16.6
23
-10
33
0
14
65
24
-12.9
34
0
50
0
100
AcDbRotatedDimension
1001
ACAD
1000
DSTYLE
1002
{
1070
   279
1070
     0
1070
   172
1070
     1
1070
   173
1070
     1
1070
   340
1005
102
1070
    77
1070
     1
1070
    73
1070
     0
1070
   171
1070
     4
1070
   274
1070
     4
1070
   177
1070
     2
1070
   176
1070
     2
1070
   178
1070
     7
1070
    78
1070
     8
1070
    41
1041
3.175
1070
   147
1041
2.25
1070
    42
1041
2.0
1070
    44
1041
2.0
1070
   140
1041
4.5
1070
   343
1005
136
1070
   344
1005
136
1002
}
0
DIMENSION
5
180
100
AcDbEntity
8
2
62
256
6
ByLayer
370
-3
48
1
60
0
100
AcDbDimension
2
DimnDraft3D6
10
104.355162
20
0
30
0
11
87.46297
21
33.528479
31
0
70
34
71
5
72
1
41
1
210
0
220
0
230
1
3
Standard
100
AcDb2LineAngularDimension
13
64.528976
23
-1.912334
33
0
14
62.339169
24
39.871689
34
0
15
67
25
0
35
0
16
93.633167
26
30.775028
36
0
40
0
0
ENDSEC
0
SECTION
2
OBJECTS
0
DICTIONARY
5
1b1
330
0
100
AcDbDictionary
280
0
281
1
3
ACAD_GROUP
350
1b2
3
ACAD_MLINESTYLE
350
1b3
0
DICTIONARY
5
1b2
330
0
100
AcDbDictionary
280
0
281
1
0
DICTIONARY
5
1b3
330
0
100
AcDbDictionary
280
0
281
1
3
Standard
350
18
0
MLINESTYLE
5
18
330
1b3
100
AcDbMlineStyle
2
Standard
70
0
3

62
256
51
90
52
90
71
2
49
-0.5
62
256
6
ByLayer
49
0.5
62
256
6
ByLayer
0
RASTERVARIABLES
5
19f
330

100
AcDbRasterVariables
90
0
70
1
71
1
72
1
0
ENDSEC
0
EOF
