0
SECTION
2
HEADER
9
$ACADVER
1
AC1015
9
$DWGCODEPAGE
3
ANSI_1252
9
$HANDSEED
5
1ab
9
$ANGBASE
50
0
9
$ANGDIR
70
0
9
$ATTMODE
70
1
9
$AUNITS
70
0
9
$AUPREC
70
0
9
$CECOLOR
62
256
9
$CELTSCALE
40
1
9
$CELTYPE
6
ByLayer
9
$CELWEIGHT
370
-1
9
$CLAYER
8
0
9
$CMLJUST
70
0
9
$CMLSCALE
40
1
9
$CMLSTYLE
2
Standard
9
$DIMSTYLE
2
Standard
9
$TEXTSIZE
40
0.2
9
$TEXTSTYLE
7
Standard
9
$LUNITS
70
2
9
$LUPREC
70
4
9
$EXTNAMES
290
1
9
$INSUNITS
70
4
9
$LTSCALE
40
1
9
$LWDISPLAY
290
0
9
$PDMODE
70
0
9
$PDSIZE
40
0
9
$PLINEGEN
70
0
0
ENDSEC
0
SECTION
2
CLASSES
0
CLASS
1
RASTERVARIABLES
2
AcDbRasterVariables
3
ISM
90
0
280
0
281
0
0
ENDSEC
0
SECTION
2
TABLES
0
TABLE
2
VPORT
5
1a1
100
AcDbSymbolTable
0
VPORT
5
1
100
AcDbSymbolTableRecord
100
AcDbViewportTableRecord
2
*Active
70
0
10
0
20
0
11
1
21
1
12
-1
22
1
13
0
23
0
14
0.5
24
0.5
15
10
25
10
16
0
26
0
36
1
17
0
27
0
37
0
0
ENDTAB
0
TABLE
2
LTYPE
5
1a2
100
AcDbSymbolTable
0
LTYPE
5
14
100
AcDbSymbolTableRecord
100
AcDbLinetypeTableRecord
70
0
2
ByBlock
3

72
65
73
0
40
0
0
LTYPE
5
15
100
AcDbSymbolTableRecord
100
AcDbLinetypeTableRecord
70
0
2
ByLayer
3

72
65
73
0
40
0
0
LTYPE
5
16
100
AcDbSymbolTableRecord
100
AcDbLinetypeTableRecord
70
0
2
CONTINUOUS
3
Solid line
72
65
73
0
40
0
0
LTYPE
5
3B
100
AcDbSymbolTableRecord
100
AcDbLinetypeTableRecord
70
0
2
DASHED
3
__ __ __ __ __ __ __ __ __
72
65
73
2
40
25.72
49
12.86
74
0
49
-12.86
74
0
0
LTYPE
5
3C
100
AcDbSymbolTableRecord
100
AcDbLinetypeTableRecord
70
0
2
HIDDEN
3
_ _ _ _ _ _ _ _ _ _ _ _ _ _ _
72
65
73
2
40
0.5
49
0.25
74
0
49
-0.25
74
0
0
LTYPE
5
3D
100
AcDbSymbolTableRecord
100
AcDbLinetypeTableRecord
70
0
2
PHANTOM
3
____ _ _ ____ _ _ _____ _ _ ____
72
65
73
6
40
50.5
49
18
74
0
49
-6.5
74
0
49
6.5
74
0
49
-6.5
74
0
49
6.5
74
0
49
-6.5
74
0
0
LTYPE
5
3E
100
AcDbSymbolTableRecord
100
AcDbLinetypeTableRecord
70
0
2
CENTER
3
____ _ ____ _ ____ _ ____
72
65
73
4
40
47.5
49
22
74
0
49
-8.5
74
0
49
8.5
74
0
49
-8.5
74
0
0
LTYPE
5
3F
100
AcDbSymbolTableRecord
100
AcDbLinetypeTableRecord
70
0
2
DOT
3
.........................
72
65
73
2
40
10
49
0
74
0
49
-10
74
0
0
LTYPE
5
40
100
AcDbSymbolTableRecord
100
AcDbLinetypeTableRecord
70
0
2
DASHDOT
3
_._._._._._._._._._._._._._._._.
72
65
73
4
40
70
49
31
74
0
49
-13
74
0
49
13
74
0
49
-13
74
0
0
ENDTAB
0
TABLE
2
LAYER
5
1a3
100
AcDbSymbolTable
0
LAYER
5
10
100
AcDbSymbolTableRecord
100
AcDbLayerTableRecord
2
0
70
0
62
7
6
CONTINUOUS
290
1
370
-3
390
0
0
LAYER
5
48
100
AcDbSymbolTableRecord
100
AcDbLayerTableRecord
2
81
70
0
62
-3
6
CONTINUOUS
290
1
370
-3
390
0
0
LAYER
5
4A
100
AcDbSymbolTableRecord
100
AcDbLayerTableRecord
2
80
70
0
62
-6
6
CONTINUOUS
290
1
370
-3
390
0
0
LAYER
5
4D
100
AcDbSymbolTableRecord
100
AcDbLayerTableRecord
2
2
70
0
62
7
6
CONTINUOUS
290
1
370
-3
390
0
0
LAYER
5
50
100
AcDbSymbolTableRecord
100
AcDbLayerTableRecord
2
1
70
0
62
4
6
CONTINUOUS
290
1
370
-3
390
0
0
LAYER
5
58
100
AcDbSymbolTableRecord
100
AcDbLayerTableRecord
2
4
70
0
62
-2
6
CENTER
290
1
370
-3
390
0
0
LAYER
5
18d
100
AcDbSymbolTableRecord
100
AcDbLayerTableRecord
2
SK2
70
0
62
7
6
CONTINUOUS
290
1
370
-3
390
0
0
LAYER
5
18e
100
AcDbSymbolTableRecord
100
AcDbLayerTableRecord
2
SK4
70
0
62
2
6
CENTER
290
1
370
-3
390
0
0
LAYER
5
18f
100
AcDbSymbolTableRecord
100
AcDbLayerTableRecord
2
SK1
70
0
62
4
6
CONTINUOUS
290
1
370
-3
390
0
0
LAYER
5
190
100
AcDbSymbolTableRecord
100
AcDbLayerTableRecord
2
SK6
70
0
62
5
6
CONTINUOUS
290
1
370
-3
390
0
0
ENDTAB
0
TABLE
2
STYLE
5
1a4
100
AcDbSymbolTable
0
STYLE
5
11
100
AcDbSymbolTableRecord
100
AcDbTextStyleTableRecord
2
Standard
3
txt
70
0
71
0
40
0
41
1
42
0
50
0
0
STYLE
5
10A
100
AcDbSymbolTableRecord
100
AcDbTextStyleTableRecord
2
DEFAULT
3
simplex.shx
70
0
71
0
40
0
41
1
42
0
50
0
0
STYLE
5
12D
100
AcDbSymbolTableRecord
100
AcDbTextStyleTableRecord
2
DWGDirectTextStyle
3
SIMPLEX
70
0
71
0
40
0
41
1
42
0
50
0
0
ENDTAB
0
TABLE
2
DIMSTYLE
5
1a5
100
AcDbSymbolTable
100
AcDbDimStyleTable
0
DIMSTYLE
105
27
100
AcDbSymbolTableRecord
100
AcDbDimStyleTableRecord
2
Standard
70
0
3
<>
41
0.18
42
0.0625
44
0.18
140
0.18
147
0.09
73
0
74
0
77
1
271
2
275
0
278
52
280
0
340
11
0
ENDTAB
0
TABLE
2
VIEW
5
1a6
100
AcDbSymbolTable
0
ENDTAB
0
TABLE
2
UCS
5
1a7
100
AcDbSymbolTable
0
ENDTAB
0
TABLE
2
APPID
5
1a8
100
AcDbSymbolTable
0
APPID
5
12
100
AcDbSymbolTableRecord
100
AcDbRegAppTableRecord
2
ACAD
70
0
0
ENDTAB
0
TABLE
2
BLOCK_RECORD
5
1a9
100
AcDbSymbolTable
0
BLOCK_RECORD
5
1F
100
AcDbSymbolTableRecord
100
AcDbBlockTableRecord
2
*Model_Space
340
0
70
0
0
BLOCK_RECORD
5
1B
100
AcDbSymbolTableRecord
100
AcDbBlockTableRecord
2
*Paper_Space
340
0
70
0
0
BLOCK_RECORD
5
23
100
AcDbSymbolTableRecord
100
AcDbBlockTableRecord
2
*Paper_Space0
340
0
70
0
0
BLOCK_RECORD
5
12F
100
AcDbSymbolTableRecord
100
AcDbBlockTableRecord
2
DimnDraft3D11
340
0
70
0
0
BLOCK_RECORD
5
13D
100
AcDbSymbolTableRecord
100
AcDbBlockTableRecord
2
DimnDraft3D2
340
0
70
0
0
BLOCK_RECORD
5
14B
100
AcDbSymbolTableRecord
100
AcDbBlockTableRecord
2
_CLOSED
340
0
70
0
0
BLOCK_RECORD
5
152
100
AcDbSymbolTableRecord
100
AcDbBlockTableRecord
2
DimnDraft3D3
340
0
70
0
0
BLOCK_RECORD
5
160
100
AcDbSymbolTableRecord
100
AcDbBlockTableRecord
2
DimnDraft3D4
340
0
70
0
0
ENDTAB
0
ENDSEC
0
SECTION
2
BLOCKS
0
BLOCK
5
20
100
AcDbEntity
8
0
100
AcDbBlockBegin
2
*Model_Space
70
0
10
0
20
0
30
0
3
*Model_Space
0
ENDBLK
5
21
100
AcDbEntity
8
0
100
AcDbBlockEnd
0
BLOCK
5
1C
100
AcDbEntity
8
0
100
AcDbBlockBegin
2
*Paper_Space
70
0
10
0
20
0
30
0
3
*Paper_Space
0
ENDBLK
5
1D
100
AcDbEntity
8
0
100
AcDbBlockEnd
0
BLOCK
5
24
100
AcDbEntity
8
0
100
AcDbBlockBegin
2
*Paper_Space0
70
0
10
0
20
0
30
0
3
*Paper_Space0
0
ENDBLK
5
25
100
AcDbEntity
8
0
100
AcDbBlockEnd
0
BLOCK
5
130
100
AcDbEntity
8
0
100
AcDbBlockBegin
2
DimnDraft3D11
70
0
10
0
20
0
30
0
3
DimnDraft3D11
0
LINE
5
132
100
AcDbEntity
8
2
62
256
6
ByLayer
370
-1
48
1
60
0
100
AcDbLine
10
40
20
24
30
0
11
40
21
43.75
31
0
39
0
210
0
220
0
230
1
0
LINE
5
133
100
AcDbEntity
8
2
62
256
6
ByLayer
370
-1
48
1
60
0
100
AcDbLine
10
0
20
18
30
0
11
0
21
43.75
31
0
39
0
210
0
220
0
230
1
0
LINE
5
134
100
AcDbEntity
8
2
62
256
6
ByLayer
370
-1
48
1
60
0
100
AcDbLine
10
40
20
41.75
30
0
11
0
21
41.75
31
0
39
0
210
0
220
0
230
1
0
LINE
5
135
100
AcDbEntity
8
2
62
256
6
ByLayer
370
-1
48
1
60
0
100
AcDbLine
10
40
20
41.75
30
0
11
36.825002
21
41.332003
31
0
39
0
210
0
220
0
230
1
0
LINE
5
136
100
AcDbEntity
8
2
62
256
6
ByLayer
370
-1
48
1
60
0
100
AcDbLine
10
40
20
41.75
30
0
11
36.824998
21
42.167997
31
0
39
0
210
0
220
0
230
1
0
LINE
5
137
100
AcDbEntity
8
2
62
256
6
ByLayer
370
-1
48
1
60
0
100
AcDbLine
10
36.825002
20
41.332003
30
0
11
36.824998
21
42.167997
31
0
39
0
210
0
220
0
230
1
0
LINE
5
138
100
AcDbEntity
8
2
62
256
6
ByLayer
370
-1
48
1
60
0
100
AcDbLine
10
0
20
41.75
30
0
11
3.174998
21
42.167997
31
0
39
0
210
0
220
0
230
1
0
LINE
5
139
100
AcDbEntity
8
2
62
256
6
ByLayer
370
-1
48
1
60
0
100
AcDbLine
10
0
20
41.75
30
0
11
3.175002
21
41.332003
31
0
39
0
210
0
220
0
230
1
0
LINE
5
13A
100
AcDbEntity
8
2
62
256
6
ByLayer
370
-1
48
1
60
0
100
AcDbLine
10
3.174998
20
42.167997
30
0
11
3.175002
21
41.332003
31
0
39
0
210
0
220
0
230
1
0
MTEXT
5
13B
100
AcDbEntity
8
2
62
256
6
ByLayer
370
-1
48
1
60
0
100
AcDbMText
10
18.259211
20
42.875
30
0
210
0
220
0
230
1
1
\W00.718;\fsimplex.shx,bigfont.shx;40 
40
4.5
41
0
44
1.084337
50
0
71
7
72
5
7
DEFAULT
0
ENDBLK
5
131
100
AcDbEntity
8
0
100
AcDbBlockEnd
0
BLOCK
5
148
100
AcDbEntity
8
0
100
AcDbBlockBegin
2
DimnDraft3D2
70
0
10
0
20
0
30
0
3
DimnDraft3D2
0
MTEXT
5
13E
100
AcDbEntity
8
2
62
256
6
ByLayer
370
-1
48
1
60
0
100
AcDbMText
10
26.469845
20
27.355139
30
0
210
0
220
0
230
1
1
\W01.000;\fsimplex.shx,bigfont.shx;95%%d0' 
40
4.5
41
0
44
1.084337
50
47.4999999999999
71
7
72
5
7
DEFAULT
0
LINE
5
13F
100
AcDbEntity
8
2
62
256
6
ByLayer
370
-1
48
1
60
0
100
AcDbLine
10
40
20
24
30
0
11
40
21
36.491868
31
0
39
0
210
0
220
0
230
1
0
LINE
5
140
100
AcDbEntity
8
2
62
256
6
ByLayer
370
-1
48
1
60
0
100
AcDbLine
10
36.148486
20
21.735512
30
0
11
25.635478
21
20.815743
31
0
39
0
210
0
220
0
230
1
0
ARC
5
141
100
AcDbEntity
8
2
62
256
6
ByLayer
370
-1
48
1
60
0
100
AcDbCircle
39
0
10
40
20
22.072476
30
0
40
12.4193920050033
210
0
220
0
230
1
100
AcDbArc
50
90
51
185
0
LINE
5
142
100
AcDbEntity
8
2
62
256
6
ByLayer
370
-1
48
1
60
0
100
AcDbLine
10
40
20
34.491868
30
0
11
36.857967
21
33.873025
31
0
39
0
210
0
220
0
230
1
0
LINE
5
143
100
AcDbEntity
8
2
62
256
6
ByLayer
370
-1
48
1
60
0
100
AcDbLine
10
40
20
34.491868
30
0
11
36.804858
21
34.70733
31
0
39
0
210
0
220
0
230
1
0
LINE
5
144
100
AcDbEntity
8
2
62
256
6
ByLayer
370
-1
48
1
60
0
100
AcDbLine
10
36.857967
20
33.873025
30
0
11
36.804858
21
34.70733
31
0
39
0
210
0
220
0
230
1
0
LINE
5
145
100
AcDbEntity
8
2
62
256
6
ByLayer
370
-1
48
1
60
0
100
AcDbLine
10
27.627868
20
20.990055
30
0
11
27.134751
21
24.154256
31
0
39
0
210
0
220
0
230
1
0
LINE
5
146
100
AcDbEntity
8
2
62
256
6
ByLayer
370
-1
48
1
60
0
100
AcDbLine
10
27.627868
20
20.990055
30
0
11
27.970509
21
24.17407
31
0
39
0
210
0
220
0
230
1
0
LINE
5
147
100
AcDbEntity
8
2
62
256
6
ByLayer
370
-1
48
1
60
0
100
AcDbLine
10
27.134751
20
24.154256
30
0
11
27.970509
21
24.17407
31
0
39
0
210
0
220
0
230
1
0
ENDBLK
5
149
100
AcDbEntity
8
0
100
AcDbBlockEnd
0
BLOCK
5
14C
100
AcDbEntity
8
0
100
AcDbBlockBegin
2
_CLOSED
70
0
10
0
20
0
30
0
3
_CLOSED
0
LINE
5
14E
100
AcDbEntity
8
0
62
256
6
ByLayer
370
-2
48
1
60
0
100
AcDbLine
10
-1
20
0.166667
30
0
11
0
21
0
31
0
39
0
210
0
220
0
230
1
0
LINE
5
14F
100
AcDbEntity
8
0
62
256
6
ByLayer
370
-2
48
1
60
0
100
AcDbLine
10
0
20
0
30
0
11
-1
21
-0.166667
31
0
39
0
210
0
220
0
230
1
0
LINE
5
150
100
AcDbEntity
8
0
62
256
6
ByLayer
370
-2
48
1
60
0
100
AcDbLine
10
-1
20
0.166667
30
0
11
-1
21
-0.166667
31
0
39
0
210
0
220
0
230
1
0
LINE
5
151
100
AcDbEntity
8
0
62
256
6
ByLayer
370
-2
48
1
60
0
100
AcDbLine
10
0
20
0
30
0
11
-1
21
0
31
0
39
0
210
0
220
0
230
1
0
ENDBLK
5
14D
100
AcDbEntity
8
0
100
AcDbBlockEnd
0
BLOCK
5
15D
100
AcDbEntity
8
0
100
AcDbBlockBegin
2
DimnDraft3D3
70
0
10
0
20
0
30
0
3
DimnDraft3D3
0
MTEXT
5
153
100
AcDbEntity
8
SK2
62
256
6
ByLayer
370
-1
48
1
60
0
100
AcDbMText
10
-29.875
20
-3.659211
30
0
210
0
220
0
230
1
1
\W01.000;\fsimplex.shx,bigfont.shx;%%c32 
40
4.5
41
0
44
1.084337
50
90
71
7
72
5
7
DEFAULT
0
LINE
5
154
100
AcDbEntity
8
SK2
62
256
6
ByLayer
370
-1
48
1
60
0
100
AcDbLine
10
-2
20
-16
30
0
11
-30.75
21
-16
31
0
39
0
210
0
220
0
230
1
0
LINE
5
155
100
AcDbEntity
8
SK2
62
256
6
ByLayer
370
-1
48
1
60
0
100
AcDbLine
10
-2
20
16
30
0
11
-30.75
21
16
31
0
39
0
210
0
220
0
230
1
0
LINE
5
156
100
AcDbEntity
8
SK2
62
256
6
ByLayer
370
-1
48
1
60
0
100
AcDbLine
10
-28.75
20
-16
30
0
11
-28.75
21
16
31
0
39
0
210
0
220
0
230
1
0
LINE
5
157
100
AcDbEntity
8
SK2
62
256
6
ByLayer
370
-1
48
1
60
0
100
AcDbLine
10
-28.75
20
-16
30
0
11
-29.167997
21
-12.825002
31
0
39
0
210
0
220
0
230
1
0
LINE
5
158
100
AcDbEntity
8
SK2
62
256
6
ByLayer
370
-1
48
1
60
0
100
AcDbLine
10
-28.75
20
-16
30
0
11
-28.332003
21
-12.824998
31
0
39
0
210
0
220
0
230
1
0
LINE
5
159
100
AcDbEntity
8
SK2
62
256
6
ByLayer
370
-1
48
1
60
0
100
AcDbLine
10
-29.167997
20
-12.825002
30
0
11
-28.332003
21
-12.824998
31
0
39
0
210
0
220
0
230
1
0
LINE
5
15A
100
AcDbEntity
8
SK2
62
256
6
ByLayer
370
-1
48
1
60
0
100
AcDbLine
10
-28.75
20
16
30
0
11
-28.332003
21
12.825002
31
0
39
0
210
0
220
0
230
1
0
LINE
5
15B
100
AcDbEntity
8
SK2
62
256
6
ByLayer
370
-1
48
1
60
0
100
AcDbLine
10
-28.75
20
16
30
0
11
-29.167997
21
12.824998
31
0
39
0
210
0
220
0
230
1
0
LINE
5
15C
100
AcDbEntity
8
SK2
62
256
6
ByLayer
370
-1
48
1
60
0
100
AcDbLine
10
-28.332003
20
12.825002
30
0
11
-29.167997
21
12.824998
31
0
39
0
210
0
220
0
230
1
0
ENDBLK
5
15E
100
AcDbEntity
8
0
100
AcDbBlockEnd
0
BLOCK
5
16B
100
AcDbEntity
8
0
100
AcDbBlockBegin
2
DimnDraft3D4
70
0
10
0
20
0
30
0
3
DimnDraft3D4
0
MTEXT
5
161
100
AcDbEntity
8
2
62
256
6
ByLayer
370
-1
48
1
60
0
100
AcDbMText
10
66.125
20
9.496053
30
0
210
0
220
0
230
1
1
\W01.000;\fsimplex.shx,bigfont.shx;22 
40
4.5
41
0
44
1.084337
50
90
71
7
72
5
7
DEFAULT
0
LINE
5
162
100
AcDbEntity
8
2
62
256
6
ByLayer
370
-1
48
1
60
0
100
AcDbLine
10
42
20
0
30
0
11
69.25
21
0
31
0
39
0
210
0
220
0
230
1
0
LINE
5
163
100
AcDbEntity
8
2
62
256
6
ByLayer
370
-1
48
1
60
0
100
AcDbLine
10
42
20
22
30
0
11
69.25
21
22
31
0
39
0
210
0
220
0
230
1
0
LINE
5
164
100
AcDbEntity
8
2
62
256
6
ByLayer
370
-1
48
1
60
0
100
AcDbLine
10
67.25
20
0
30
0
11
67.25
21
22
31
0
39
0
210
0
220
0
230
1
0
LINE
5
165
100
AcDbEntity
8
2
62
256
6
ByLayer
370
-1
48
1
60
0
100
AcDbLine
10
67.25
20
0
30
0
11
66.832003
21
3.174998
31
0
39
0
210
0
220
0
230
1
0
LINE
5
166
100
AcDbEntity
8
2
62
256
6
ByLayer
370
-1
48
1
60
0
100
AcDbLine
10
67.25
20
0
30
0
11
67.667997
21
3.175002
31
0
39
0
210
0
220
0
230
1
0
LINE
5
167
100
AcDbEntity
8
2
62
256
6
ByLayer
370
-1
48
1
60
0
100
AcDbLine
10
66.832003
20
3.174998
30
0
11
67.667997
21
3.175002
31
0
39
0
210
0
220
0
230
1
0
LINE
5
168
100
AcDbEntity
8
2
62
256
6
ByLayer
370
-1
48
1
60
0
100
AcDbLine
10
67.25
20
22
30
0
11
67.667997
21
18.825002
31
0
39
0
210
0
220
0
230
1
0
LINE
5
169
100
AcDbEntity
8
2
62
256
6
ByLayer
370
-1
48
1
60
0
100
AcDbLine
10
67.25
20
22
30
0
11
66.832003
21
18.824998
31
0
39
0
210
0
220
0
230
1
0
LINE
5
16A
100
AcDbEntity
8
2
62
256
6
ByLayer
370
-1
48
1
60
0
100
AcDbLine
10
67.667997
20
18.825002
30
0
11
66.832003
21
18.824998
31
0
39
0
210
0
220
0
230
1
0
ENDBLK
5
16C
100
AcDbEntity
8
0
100
AcDbBlockEnd
0
ENDSEC
0
SECTION
2
ENTITIES
0
ARC
5
96
100
AcDbEntity
8
SK1
62
256
6
ByLayer
370
-1
48
1
60
0
100
AcDbCircle
39
0
10
0.6
20
-11.8
30
0
40
0.999999999999989
210
0
220
0
230
-1
100
AcDbArc
50
113.578178
51
126.869898
0
ARC
5
97
100
AcDbEntity
8
SK1
62
256
6
ByLayer
370
-1
48
1
60
0
100
AcDbCircle
39
0
10
0.6
20
11.8
30
0
40
0.999999999999989
210
0
220
0
230
-1
100
AcDbArc
50
233.130102
51
246.421822
0
ARC
5
98
100
AcDbEntity
8
1
62
256
6
ByLayer
370
-1
48
1
60
0
100
AcDbCircle
39
0
10
30.244181
20
12.244181
30
0
40
1.5
210
0
220
0
230
1
100
AcDbArc
50
225
51
295.980198
0
ARC
5
99
100
AcDbEntity
8
1
62
256
6
ByLayer
370
-1
48
1
60
0
100
AcDbCircle
39
0
10
-30.244181
20
12.244181
30
0
40
1.5
210
0
220
0
230
-1
100
AcDbArc
50
197.928369
51
231.843001
0
ARC
5
9A
100
AcDbEntity
8
1
62
256
6
ByLayer
370
-1
48
1
60
0
100
AcDbCircle
39
0
10
23.364096
20
12.477463
30
0
40
3.2
210
0
220
0
230
1
100
AcDbArc
50
45
51
74.242746
0
ARC
5
9B
100
AcDbEntity
8
1
62
256
6
ByLayer
370
-1
48
1
60
0
100
AcDbCircle
39
0
10
31.694251
20
12.554521
30
0
40
1.5
210
0
220
0
230
1
100
AcDbArc
50
275.25
51
334.239596
0
ARC
5
9C
100
AcDbEntity
8
1
62
256
6
ByLayer
370
-1
48
1
60
0
100
AcDbCircle
39
0
10
30.15466
20
5.6869
30
0
40
1.59999999999987
210
0
220
0
230
1
100
AcDbArc
50
347.713269
51
45
0
ARC
5
9D
100
AcDbEntity
8
1
62
256
6
ByLayer
370
-1
48
1
60
0
100
AcDbCircle
39
0
10
31.472244
20
12.534121
30
0
40
1.5
210
0
220
0
230
1
100
AcDbArc
50
258.410996
51
275.25
0
ARC
5
9E
100
AcDbEntity
8
1
62
256
6
ByLayer
370
-1
48
1
60
0
100
AcDbCircle
39
0
10
23.364096
20
12.477463
30
0
40
1.60000000001085
210
0
220
0
230
1
100
AcDbArc
50
45
51
74.242746
0
ARC
5
9F
100
AcDbEntity
8
1
62
256
6
ByLayer
370
-1
48
1
60
0
100
AcDbCircle
39
0
10
30.244181
20
12.244181
30
0
40
1.5
210
0
220
0
230
1
100
AcDbArc
50
107.929062
51
225
0
ARC
5
A0
100
AcDbEntity
8
1
62
256
6
ByLayer
370
-1
48
1
60
0
100
AcDbCircle
39
0
10
31.472244
20
12.534121
30
0
40
1.735
210
0
220
0
230
1
100
AcDbArc
50
250.786427
51
275.25
0
ARC
5
A1
100
AcDbEntity
8
1
62
256
6
ByLayer
370
-1
48
1
60
0
100
AcDbCircle
39
0
10
30.15466
20
5.6869
30
0
40
3.2
210
0
220
0
230
1
100
AcDbArc
50
347.713269
51
45
0
ARC
5
A2
100
AcDbEntity
8
1
62
256
6
ByLayer
370
-1
48
1
60
0
100
AcDbCircle
39
0
10
31.694251
20
12.554521
30
0
40
1.735
210
0
220
0
230
1
100
AcDbArc
50
275.25
51
338.757369
0
ARC
5
A3
100
AcDbEntity
8
1
62
256
6
ByLayer
370
-1
48
1
60
0
100
AcDbCircle
39
0
10
34.840375
20
16.840375
30
0
40
1.2065
210
0
220
0
230
1
100
AcDbArc
50
195.079943
51
254.920057
0
ARC
5
A4
100
AcDbEntity
8
1
62
256
6
ByLayer
370
-1
48
1
60
0
100
AcDbCircle
39
0
10
-34.840375
20
16.840375
30
0
40
1.6765
210
0
220
0
230
-1
100
AcDbArc
50
14.840113
51
75.159887
0
ARC
5
A5
100
AcDbEntity
8
1
62
256
6
ByLayer
370
-1
48
1
60
0
100
AcDbCircle
39
0
10
-34.840375
20
16.840375
30
0
40
1.6765
210
0
220
0
230
-1
100
AcDbArc
50
75.159887
51
135
0
ARC
5
A6
100
AcDbEntity
8
1
62
256
6
ByLayer
370
-1
48
1
60
0
100
AcDbCircle
39
0
10
34.840375
20
16.840375
30
0
40
1.2065
210
0
220
0
230
1
100
AcDbArc
50
15.079943
51
74.920057
0
ARC
5
A7
100
AcDbEntity
8
1
62
256
6
ByLayer
370
-1
48
1
60
0
100
AcDbCircle
39
0
10
34.840375
20
16.840375
30
0
40
1.2065
210
0
220
0
230
1
100
AcDbArc
50
74.920057
51
131.044721
0
ARC
5
A8
100
AcDbEntity
8
1
62
256
6
ByLayer
370
-1
48
1
60
0
100
AcDbCircle
39
0
10
-34.840375
20
16.840375
30
0
40
1.6765
210
0
220
0
230
-1
100
AcDbArc
50
315
51
14.840113
0
ARC
5
AA
100
AcDbEntity
8
1
62
256
6
ByLayer
370
-1
48
1
60
0
100
AcDbCircle
39
0
10
-39.205975
20
21.205975
30
0
40
0.793999999999996
210
0
220
0
230
-1
100
AcDbArc
50
85
51
185
0
ARC
5
AB
100
AcDbEntity
8
1
62
256
6
ByLayer
370
-1
48
1
60
0
100
AcDbCircle
39
0
10
-34.840375
20
16.840375
30
0
40
1.6765
210
0
220
0
230
-1
100
AcDbArc
50
194.840113
51
255.159887
0
ARC
5
AC
100
AcDbEntity
8
1
62
256
6
ByLayer
370
-1
48
1
60
0
100
AcDbCircle
39
0
10
34.840375
20
16.840375
30
0
40
1.2065
210
0
220
0
230
1
100
AcDbArc
50
138.955279
51
195.079943
0
ARC
5
AD
100
AcDbEntity
8
1
62
256
6
ByLayer
370
-1
48
1
60
0
100
AcDbCircle
39
0
10
-34.840375
20
16.840375
30
0
40
1.6765
210
0
220
0
230
-1
100
AcDbArc
50
255.159887
51
315
0
ARC
5
AE
100
AcDbEntity
8
1
62
256
6
ByLayer
370
-1
48
1
60
0
100
AcDbCircle
39
0
10
-34.840375
20
16.840375
30
0
40
1.2065
210
0
220
0
230
-1
100
AcDbArc
50
221.044721
51
228.955279
0
ARC
5
AF
100
AcDbEntity
8
1
62
256
6
ByLayer
370
-1
48
1
60
0
100
AcDbCircle
39
0
10
34.840375
20
16.840375
30
0
40
1.2065
210
0
220
0
230
1
100
AcDbArc
50
318.955279
51
15.079943
0
ARC
5
B0
100
AcDbEntity
8
1
62
256
6
ByLayer
370
-1
48
1
60
0
100
AcDbCircle
39
0
10
-38.503548
20
13.177203
30
0
40
0.793999999999989
210
0
220
0
230
-1
100
AcDbArc
50
185
51
265
0
ARC
5
B2
100
AcDbEntity
8
1
62
256
6
ByLayer
370
-1
48
1
60
0
100
AcDbCircle
39
0
10
-34.840375
20
16.840375
30
0
40
1.6765
210
0
220
0
230
-1
100
AcDbArc
50
135
51
194.840113
0
ARC
5
B3
100
AcDbEntity
8
1
62
256
6
ByLayer
370
-1
48
1
60
0
100
AcDbCircle
39
0
10
-31.177203
20
20.503548
30
0
40
0.793999999999991
210
0
220
0
230
-1
100
AcDbArc
50
5
51
85
0
ARC
5
B5
100
AcDbEntity
8
1
62
256
6
ByLayer
370
-1
48
1
60
0
100
AcDbCircle
39
0
10
34.840375
20
16.840375
30
0
40
1.2065
210
0
220
0
230
1
100
AcDbArc
50
254.920057
51
311.044721
0
ARC
5
B7
100
AcDbEntity
8
1
62
256
6
ByLayer
370
-1
48
1
60
0
100
AcDbCircle
39
0
10
-34.840375
20
16.840375
30
0
40
1.2065
210
0
220
0
230
-1
100
AcDbArc
50
41.044721
51
48.955279
0
ARC
5
B8
100
AcDbEntity
8
1
62
256
6
ByLayer
370
-1
48
1
60
0
100
AcDbCircle
39
0
10
-30.474776
20
12.474776
30
0
40
0.793999999999999
210
0
220
0
230
-1
100
AcDbArc
50
265
51
5
0
CIRCLE
5
A9
100
AcDbEntity
8
1
62
256
6
ByLayer
370
-1
48
1
60
0
100
AcDbCircle
10
-34.840375
20
16.840375
30
0
40
2.625
39
0
210
0
220
0
230
-1
0
CIRCLE
5
B1
100
AcDbEntity
8
1
62
256
6
ByLayer
370
-1
48
1
60
0
100
AcDbCircle
10
-34.840375
20
16.840375
30
0
40
1.8
39
0
210
0
220
0
230
-1
0
CIRCLE
5
B4
100
AcDbEntity
8
1
62
256
6
ByLayer
370
-1
48
1
60
0
100
AcDbCircle
10
34.840375
20
16.840375
30
0
40
2.95049568210608
39
0
210
0
220
0
230
1
0
CIRCLE
5
B6
100
AcDbEntity
8
1
62
256
6
ByLayer
370
-1
48
1
60
0
100
AcDbCircle
10
-34.840375
20
16.840375
30
0
40
3.07132534818238
39
0
210
0
220
0
230
-1
0
CIRCLE
5
B9
100
AcDbEntity
8
1
62
256
6
ByLayer
370
-1
48
1
60
0
100
AcDbCircle
10
-34.840375
20
16.840375
30
0
40
3.00605207334199
39
0
210
0
220
0
230
-1
0
ELLIPSE
5
BA
100
AcDbEntity
8
1
62
256
6
ByLayer
370
-1
48
1
60
0
100
AcDbEllipse
10
-0.928203
20
0
30
0
11
-7.49393430382495
21
15.7933993221994
31
0
210
0
220
0
230
1
40
0.341999
41
-2.98012608239207
42
-2.05401345238923
0
ELLIPSE
5
BB
100
AcDbEntity
8
1
62
256
6
ByLayer
370
-1
48
1
60
0
100
AcDbEllipse
10
19
20
-0.064133
30
0
11
-1.71233361885395
21
10.5792174066649
31
0
210
0
220
0
230
1
40
0.341704
41
-0.442370969795246
42
0.428609534931625
0
ELLIPSE
5
BC
100
AcDbEntity
8
1
62
256
6
ByLayer
370
-1
48
1
60
0
100
AcDbEllipse
10
19
20
-0.064133
30
0
11
-1.71233361885768
21
10.5792174066744
31
0
210
0
220
0
230
1
40
0.341704
41
0.601921063461487
42
0.978797487115839
0
ELLIPSE
5
BD
100
AcDbEntity
8
1
62
256
6
ByLayer
370
-1
48
1
60
0
100
AcDbEllipse
10
12.928203
20
0
30
0
11
-7.49393430382578
21
15.7933993222003
31
0
210
0
220
0
230
1
40
0.341999
41
0.161466571197713
42
1.08757920120052
0
ELLIPSE
5
BE
100
AcDbEntity
8
1
62
256
6
ByLayer
370
-1
48
1
60
0
100
AcDbEllipse
10
57.381542
20
0
30
0
11
-43.2425511498341
21
6.99916366709506
31
0
210
0
220
0
230
1
40
0.341704
41
-0.607071053873438
42
-0.245322879269238
0
ELLIPSE
5
BF
100
AcDbEntity
8
1
62
256
6
ByLayer
370
-1
48
1
60
0
100
AcDbEllipse
10
-0.928203
20
0
30
0
11
-7.49393430382552
21
-15.7933993222
31
0
210
0
220
0
230
1
40
0.341999
41
2.05401345238926
42
2.98012608239207
0
ELLIPSE
5
C0
100
AcDbEntity
8
1
62
256
6
ByLayer
370
-1
48
1
60
0
100
AcDbEllipse
10
57.381542
20
0
30
0
11
-42.3168696267977
21
6.84933447543851
31
0
210
0
220
0
230
1
40
0.341704
41
-0.104807466586301
42
0.101180268247653
0
ELLIPSE
5
C1
100
AcDbEntity
8
1
62
256
6
ByLayer
370
-1
48
1
60
0
100
AcDbEllipse
10
12.928203
20
0
30
0
11
-7.49393430382572
21
-15.7933993222003
31
0
210
0
220
0
230
1
40
0.341999
41
-1.08757920120052
42
-0.161466571197715
0
POINT
5
41
100
AcDbEntity
8
SK2
62
256
6
ByLayer
370
-1
48
1
60
0
100
AcDbPoint
10
90
20
72
30
0
39
0
210
0
220
0
230
1
50
360
0
POINT
5
43
100
AcDbEntity
8
SK2
62
256
6
ByLayer
370
-1
48
1
60
0
100
AcDbPoint
10
40
20
22
30
0
39
0
210
0
220
0
230
1
50
360
0
POINT
5
44
100
AcDbEntity
8
SK2
62
256
6
ByLayer
370
-1
48
1
60
0
100
AcDbPoint
10
40
20
22
30
0
39
0
210
0
220
0
230
1
50
360
0
POINT
5
45
100
AcDbEntity
8
SK2
62
256
6
ByLayer
370
-1
48
1
60
0
100
AcDbPoint
10
19.957222
20
0
30
0
39
0
210
0
220
0
230
1
50
360
0
POINT
5
46
100
AcDbEntity
8
SK2
62
256
6
ByLayer
370
-1
48
1
60
0
100
AcDbPoint
10
40
20
22
30
0
39
0
210
0
220
0
230
1
50
360
0
POINT
5
47
100
AcDbEntity
8
81
62
256
6
ByLayer
370
-1
48
1
60
0
100
AcDbPoint
10
40
20
22
30
0
39
0
210
0
220
0
230
1
50
360
0
POINT
5
49
100
AcDbEntity
8
80
62
256
6
ByLayer
370
-1
48
1
60
0
100
AcDbPoint
10
0
20
0
30
0
39
0
210
0
220
0
230
1
50
360
0
POINT
5
4B
100
AcDbEntity
8
SK2
62
256
6
ByLayer
370
-1
48
1
60
0
100
AcDbPoint
10
40
20
22
30
0
39
0
210
0
220
0
230
1
50
360
0
POINT
5
4C
100
AcDbEntity
8
2
62
256
6
ByLayer
370
-1
48
1
60
0
100
AcDbPoint
10
40
20
22
30
0
39
0
210
0
220
0
230
1
50
360
0
POINT
5
4E
100
AcDbEntity
8
SK2
62
256
6
ByLayer
370
-1
48
1
60
0
100
AcDbPoint
10
90
20
72
30
0
39
0
210
0
220
0
230
1
50
360
0
SPLINE
5
C2
100
AcDbEntity
8
SK1
62
256
6
ByLayer
370
-1
48
1
60
0
100
AcDbSpline
70
4
71
2
72
6
73
3
40
0
40
0
40
0
40
1
40
1
40
1
41
1
10
-18
20
-10.607454619207
30
0
41
1
10
-9.84999999997147
20
-10.8121484207173
30
0
41
1
10
-1.7
20
-11.0168420288686
30
0
0
SPLINE
5
C3
100
AcDbEntity
8
SK1
62
256
6
ByLayer
370
-1
48
1
60
0
100
AcDbSpline
70
4
71
2
72
6
73
3
40
0
40
0
40
0
40
1
40
1
40
1
41
1
10
-1.7
20
11.0168421588455
30
0
41
1
10
-9.84999999997146
20
10.8121485451078
30
0
41
1
10
-18
20
10.6074547380105
30
0
0
SPLINE
5
C4
100
AcDbEntity
8
SK1
62
256
6
ByLayer
370
-1
48
1
60
0
100
AcDbSpline
70
4
71
3
72
13
73
9
40
0
40
0
40
0
40
0
40
0.239456136642623
40
0.36835972304293
40
0.499998985161607
40
0.631638416257717
40
0.76054246844364
40
1
40
1
40
1
40
1
41
1
10
-1.7
20
-11.0200974665178
30
0
41
1
10
-1.69909198644035
20
-10.9940399940815
30
0
41
1
10
-1.69103284108787
20
-10.9566674150535
30
0
41
1
10
-1.66563592205242
20
-10.9104482477181
30
0
41
1
10
-1.63886378681494
20
-10.8791666984849
30
0
41
1
10
-1.60627712751968
20
-10.8539993323472
30
0
41
1
10
-1.55884064234822
20
-10.8309555342783
30
0
41
1
10
-1.52111030873553
20
-10.8247832816898
30
0
41
1
10
-1.4950399779393
20
-10.8251849228641
30
0
0
SPLINE
5
C5
100
AcDbEntity
8
SK1
62
256
6
ByLayer
370
-1
48
1
60
0
100
AcDbSpline
70
4
71
3
72
13
73
9
40
0
40
0
40
0
40
0
40
0.239457531495148
40
0.368361583659755
40
0.500001014747378
40
0.63164027687268
40
0.760543863293349
40
1
40
1
40
1
40
1
41
1
10
-1.4950399779393
20
10.8251848163966
30
0
41
1
10
-1.5211103087367
20
10.8247831752209
30
0
41
1
10
-1.55884064235043
20
10.8309554278117
30
0
41
1
10
-1.60627712752138
20
10.8539992258965
30
0
41
1
10
-1.63886378681656
20
10.8791665920526
30
0
41
1
10
-1.66563592205368
20
10.9104481413092
30
0
41
1
10
-1.69103284108888
20
10.9566673086801
30
0
41
1
10
-1.69909198644136
20
10.9940398877345
30
0
41
1
10
-1.7
20
11.0200973601888
30
0
0
SPLINE
5
C6
100
AcDbEntity
8
SK1
62
256
6
ByLayer
370
-1
48
1
60
0
100
AcDbSpline
70
4
71
2
72
6
73
3
40
0
40
0
40
0
40
1
40
1
40
1
41
1
10
-19
20
-10.0324637535503
30
0
41
1
10
-18.4999999996377
20
-10.3211141428552
30
0
41
1
10
-18
20
-10.6097644106827
30
0
0
SPLINE
5
C7
100
AcDbEntity
8
SK1
62
256
6
ByLayer
370
-1
48
1
60
0
100
AcDbSpline
70
4
71
2
72
6
73
3
40
0
40
0
40
0
40
1
40
1
40
1
41
1
10
-18
20
10.6097643575036
30
0
41
1
10
-18.499999999638
20
10.3211140865705
30
0
41
1
10
-19
20
10.0324636942008
30
0
0
SPLINE
5
C8
100
AcDbEntity
8
SK1
62
256
6
ByLayer
370
-1
48
1
60
0
100
AcDbSpline
70
4
71
2
72
6
73
3
40
0
40
0
40
0
40
1
40
1
40
1
41
1
10
-1.4950399779393
20
-10.7285973110991
30
0
41
1
10
-0.945008433407295
20
-10.7423064506887
30
0
41
1
10
-0.394976888875291
20
-10.7560155899517
30
0
0
SPLINE
5
C9
100
AcDbEntity
8
SK1
62
256
6
ByLayer
370
-1
48
1
60
0
100
AcDbSpline
70
4
71
2
72
6
73
3
40
0
40
0
40
0
40
1
40
1
40
1
41
1
10
-0.394976888875291
20
10.7560155133454
30
0
41
1
10
-0.945008433407295
20
10.7423063740663
30
0
41
1
10
-1.4950399779393
20
10.7285972344608
30
0
0
SPLINE
5
CA
100
AcDbEntity
8
1
62
256
6
ByLayer
370
-1
48
1
60
0
100
AcDbSpline
70
4
71
3
72
9
73
5
40
0
40
0
40
0
40
0
40
0.5
40
1
40
1
40
1
40
1
41
1
10
18.8567256581192
20
17.6992139435447
30
0
41
1
10
18.7598137262131
20
17.6178744129221
30
0
41
1
10
18.5606802253705
20
17.4611770084293
30
0
41
1
10
18.3508071900452
20
17.3165783987481
30
0
41
1
10
18.2431215050984
20
17.2473762124024
30
0
0
SPLINE
5
CB
100
AcDbEntity
8
1
62
256
6
ByLayer
370
-1
48
1
60
0
100
AcDbSpline
70
4
71
3
72
8
73
4
40
0
40
0
40
0
40
0
40
1
40
1
40
1
40
1
41
1
10
15.92079238
20
-9.15658440325404
30
0
41
1
10
15.9467013790626
20
-9.37032069166068
30
0
41
1
10
15.9735048783514
20
-9.58393432103568
30
0
41
1
10
16.0011771377293
20
-9.79743457348053
30
0
0
SPLINE
5
CC
100
AcDbEntity
8
1
62
256
6
ByLayer
370
-1
48
1
60
0
100
AcDbSpline
70
4
71
3
72
8
73
4
40
0
40
0
40
0
40
0
40
1
40
1
40
1
40
1
41
1
10
16.0145745973509
20
15.0453481182723
30
0
41
1
10
16.0145745973509
20
15.1379126280912
30
0
41
1
10
16.0179928682056
20
15.2373702490486
30
0
41
1
10
16.0248011137383
20
15.3437120512232
30
0
0
SPLINE
5
CD
100
AcDbEntity
8
1
62
256
6
ByLayer
370
-1
48
1
60
0
100
AcDbSpline
70
4
71
3
72
16
73
12
40
0
40
0
40
0
40
0
40
0.462497527135806
40
0.462497527135806
40
0.645191851133669
40
0.645191851133669
40
0.830465145084792
40
0.830465145084792
40
0.946099677592168
40
0.946099677592168
40
1
40
1
40
1
40
1
41
1
10
4.66339745962155
20
5.06861858311171
30
0
41
1
10
4.68049745427383
20
5.00572719980329
30
0
41
1
10
4.70393430551654
20
4.94318132289493
30
0
41
1
10
4.75230660037377
20
4.864513415327
30
0
41
1
10
4.76803751709781
20
4.84296870144203
30
0
41
1
10
4.80461917683137
20
4.80415189945637
30
0
41
1
10
4.82601832205678
20
4.78648459402868
30
0
41
1
10
4.86534830605126
20
4.76617783194868
30
0
41
1
10
4.88194300110749
20
4.76031541807632
30
0
41
1
10
4.90693069677602
20
4.75614889828648
30
0
41
1
10
4.91508241701403
20
4.75546271781749
30
0
41
1
10
4.92320508075687
20
4.75546271781749
30
0
0
SPLINE
5
CE
100
AcDbEntity
8
1
62
256
6
ByLayer
370
-1
48
1
60
0
100
AcDbSpline
70
4
71
3
72
16
73
12
40
0
40
0
40
0
40
0
40
0.112904383055296
40
0.112904383055296
40
0.251995806601944
40
0.251995806601944
40
0.4711774786145
40
0.4711774786145
40
0.892334804026128
40
0.892334804026128
40
1
40
1
40
1
40
1
41
1
10
7.07679491924311
20
-15.2769622091386
30
0
41
1
10
7.09363003644253
20
-15.2769622091386
30
0
41
1
10
7.11067448209637
20
-15.2760126621563
30
0
41
1
10
7.14599612783957
20
-15.2722082770661
30
0
41
1
10
7.16423843011323
20
-15.2689414463835
30
0
41
1
10
7.2059463631429
20
-15.2589992478797
30
0
41
1
10
7.22743815354157
20
-15.2513160232934
30
0
41
1
10
7.2804704094188
20
-15.2273927985289
30
0
41
1
10
7.30493517049526
20
-15.2092528380283
30
0
41
1
10
7.32822068883897
20
-15.1857432227236
30
0
41
1
10
7.33259153417376
20
-15.1808653782146
30
0
41
1
10
7.33660254037849
20
-15.1759383782004
30
0
0
SPLINE
5
CF
100
AcDbEntity
8
1
62
256
6
ByLayer
370
-1
48
1
60
0
100
AcDbSpline
70
4
71
3
72
10
73
6
40
0
40
0
40
0
40
0
40
0.5
40
0.5
40
1
40
1
40
1
40
1
41
1
10
15.92079238
20
-9.15658440325407
30
0
41
1
10
15.4407419473372
20
-8.32696013543776
30
0
41
1
10
15.2366096450995
20
-7.36648529399417
30
0
41
1
10
15.0131879826244
20
-5.35076706933401
30
0
41
1
10
15
20
-4.3012507028526
30
0
41
1
10
15
20
-3.21340888498116
30
0
0
SPLINE
5
D0
100
AcDbEntity
8
1
62
256
6
ByLayer
370
-1
48
1
60
0
100
AcDbSpline
70
4
71
3
72
8
73
4
40
0
40
0
40
0
40
0
40
1
40
1
40
1
40
1
41
1
10
15.9401567000286
20
9.31496059706774
30
0
41
1
10
15.9336476130698
20
9.26217600721228
30
0
41
1
10
15.927192717662
20
9.20938398895498
30
0
41
1
10
15.92079238
20
9.15658440325404
30
0
0
SPLINE
5
D1
100
AcDbEntity
8
1
62
256
6
ByLayer
370
-1
48
1
60
0
100
AcDbSpline
70
4
71
3
72
9
73
5
40
0
40
0
40
0
40
0
40
0.5
40
1
40
1
40
1
40
1
41
1
10
19.5922229675717
20
18.3165217415224
30
0
41
1
10
19.8278768941886
20
18.5143060099506
30
0
41
1
10
20.3086858141214
20
18.8993210034957
30
0
41
1
10
20.8086495390471
20
19.2630593266925
30
0
41
1
10
21.0634902517455
20
19.4395314009924
30
0
0
SPLINE
5
D2
100
AcDbEntity
8
1
62
256
6
ByLayer
370
-1
48
1
60
0
100
AcDbSpline
70
4
71
3
72
8
73
4
40
0
40
0
40
0
40
0
40
1
40
1
40
1
40
1
41
1
10
31.1709090499268
20
11.0647002197456
30
0
41
1
10
31.0901446522064
20
11.0012429985659
30
0
41
1
10
31.0004307968223
20
10.94408365782
30
0
41
1
10
30.9012721481902
20
10.8957631688957
30
0
0
SPLINE
5
D3
100
AcDbEntity
8
1
62
256
6
ByLayer
370
-1
48
1
60
0
100
AcDbSpline
70
4
71
3
72
15
73
11
40
0
40
0
40
0
40
0
40
0.268383360804975
40
0.268383360804975
40
0.535179170337008
40
0.535179170337008
40
0.887934150864909
40
0.887934150864909
40
0.887934150864909
40
1
40
1
40
1
40
1
41
1
10
19
20
-11.3757605055125
30
0
41
1
10
18.6585415638047
20
-11.3757605055125
30
0
41
1
10
18.3120943923159
20
-11.3292193007152
30
0
41
1
10
17.6742110350772
20
-11.1549377101757
30
0
41
1
10
17.3737485173282
20
-11.0256164297117
30
0
41
1
10
16.7591630823857
20
-10.656885287757
30
0
41
1
10
16.4607971172518
20
-10.3900432824713
30
0
41
1
10
16.2189250752321
20
-10.0933547180148
30
0
41
1
10
16.1412263975112
20
-9.99804684794964
30
0
41
1
10
16.0687228226953
20
-9.89917870348049
30
0
41
1
10
16.0011771377293
20
-9.79743457348053
30
0
0
SPLINE
5
D4
100
AcDbEntity
8
1
62
256
6
ByLayer
370
-1
48
1
60
0
100
AcDbSpline
70
4
71
3
72
16
73
12
40
0
40
0
40
0
40
0
40
0.112904383055298
40
0.112904383055298
40
0.251995806601949
40
0.251995806601949
40
0.471177478614513
40
0.471177478614513
40
0.892334804026096
40
0.892334804026096
40
1
40
1
40
1
40
1
41
1
10
4.92320508075689
20
15.2769622091386
30
0
41
1
10
4.90636996355747
20
15.2769622091386
30
0
41
1
10
4.88932551790363
20
15.2760126621562
30
0
41
1
10
4.85400387216043
20
15.2722082770661
30
0
41
1
10
4.83576156988677
20
15.2689414463835
30
0
41
1
10
4.7940536368571
20
15.2589992478797
30
0
41
1
10
4.77256184645843
20
15.2513160232934
30
0
41
1
10
4.7195295905812
20
15.2273927985289
30
0
41
1
10
4.69506482950476
20
15.2092528380283
30
0
41
1
10
4.67177931116105
20
15.1857432227236
30
0
41
1
10
4.66740846582624
20
15.1808653782146
30
0
41
1
10
4.66339745962151
20
15.1759383782004
30
0
0
SPLINE
5
D5
100
AcDbEntity
8
1
62
256
6
ByLayer
370
-1
48
1
60
0
100
AcDbSpline
70
4
71
3
72
16
73
12
40
0
40
0
40
0
40
0
40
0.462497527135778
40
0.462497527135778
40
0.645191851133639
40
0.645191851133639
40
0.830465145084769
40
0.830465145084769
40
0.946099677592151
40
0.946099677592151
40
1
40
1
40
1
40
1
41
1
10
7.33660254037845
20
-5.06861858311171
30
0
41
1
10
7.31950254572617
20
-5.00572719980329
30
0
41
1
10
7.29606569448347
20
-4.94318132289493
30
0
41
1
10
7.24769339962624
20
-4.864513415327
30
0
41
1
10
7.2319624829022
20
-4.84296870144203
30
0
41
1
10
7.19538082316866
20
-4.80415189945637
30
0
41
1
10
7.17398167794322
20
-4.78648459402871
30
0
41
1
10
7.13465169394874
20
-4.76617783194868
30
0
41
1
10
7.11805699889251
20
-4.76031541807632
30
0
41
1
10
7.093069303224
20
-4.75614889828648
30
0
41
1
10
7.08491758298597
20
-4.75546271781747
30
0
41
1
10
7.07679491924313
20
-4.75546271781747
30
0
0
SPLINE
5
D6
100
AcDbEntity
8
1
62
256
6
ByLayer
370
-1
48
1
60
0
100
AcDbSpline
70
4
71
3
72
8
73
4
40
0
40
0
40
0
40
0
40
1
40
1
40
1
40
1
41
1
10
19.5922229675717
20
18.3165217415224
30
0
41
1
10
19.3470563554705
20
18.110753479081
30
0
41
1
10
19.1018905562778
20
17.9049842480791
30
0
41
1
10
18.8567256581192
20
17.6992139435447
30
0
0
SPLINE
5
D7
100
AcDbEntity
8
1
62
256
6
ByLayer
370
-1
48
1
60
0
100
AcDbSpline
70
4
71
3
72
8
73
4
40
0
40
0
40
0
40
0
40
1
40
1
40
1
40
1
41
1
10
15
20
3.21340888498116
30
0
41
1
10
15
20
3.94437583510114
30
0
41
1
10
15.0074521262332
20
4.65803330802353
30
0
41
1
10
15.044693520394
20
5.35375031857012
30
0
0
SPLINE
5
D8
100
AcDbEntity
8
1
62
256
6
ByLayer
370
-1
48
1
60
0
100
AcDbSpline
70
4
71
3
72
8
73
4
40
0
40
0
40
0
40
0
40
1
40
1
40
1
40
1
41
1
10
16.9561532912272
20
15.9480403413954
30
0
41
1
10
16.6313953309229
20
15.7344017962182
30
0
41
1
10
16.2962619429616
20
15.5406574228709
30
0
41
1
10
16.0248011137442
20
15.3437120512232
30
0
0
SPLINE
5
D9
100
AcDbEntity
8
1
62
256
6
ByLayer
370
-1
48
1
60
0
100
AcDbSpline
70
4
71
3
72
10
73
6
40
0
40
0
40
0
40
0
40
0.739009183857093
40
0.739009183857093
40
1
40
1
40
1
40
1
41
1
10
16.024801113738
20
16.3806737981705
30
0
41
1
10
16.0056746837738
20
16.3044131441943
30
0
41
1
10
15.994163146526
20
16.2535338735143
30
0
41
1
10
15.9904033138382
20
16.2245236565096
30
0
41
1
10
15.9904953666746
20
16.2205160316981
30
0
41
1
10
15.991668573604
20
16.2201849927661
30
0
0
SPLINE
5
DA
100
AcDbEntity
8
1
62
256
6
ByLayer
370
-1
48
1
60
0
100
AcDbSpline
70
4
71
3
72
16
73
12
40
0
40
0
40
0
40
0
40
0.112904383055294
40
0.112904383055294
40
0.251995806601948
40
0.251995806601948
40
0.471177478614501
40
0.471177478614501
40
0.892334804026132
40
0.892334804026132
40
1
40
1
40
1
40
1
41
1
10
4.92320508075689
20
-4.75546271781755
30
0
41
1
10
4.90636996355747
20
-4.75546271781755
30
0
41
1
10
4.88932551790363
20
-4.75851551862661
30
0
41
1
10
4.85400387216043
20
-4.77071315953359
30
0
41
1
10
4.83576156988677
20
-4.78117073972194
30
0
41
1
10
4.79405363685711
20
-4.81283214608439
30
0
41
1
10
4.77256184645843
20
-4.83715715133616
30
0
41
1
10
4.7195295905812
20
-4.91214630601436
30
0
41
1
10
4.69506482950474
20
-4.96811547083689
30
0
41
1
10
4.67177931116103
20
-5.03919021254677
30
0
41
1
10
4.66740846582624
20
-5.05386666454072
30
0
41
1
10
4.66339745962151
20
-5.06861858311169
30
0
0
SPLINE
5
DB
100
AcDbEntity
8
1
62
256
6
ByLayer
370
-1
48
1
60
0
100
AcDbSpline
70
4
71
3
72
12
73
8
40
0
40
0
40
0
40
0
40
0.311004519583924
40
0.311004519583924
40
0.786899370645287
40
0.786899370645287
40
1
40
1
40
1
40
1
41
1
10
16.024801113738
20
16.3806737981705
30
0
41
1
10
16.2185123893717
20
16.4198378331255
30
0
41
1
10
16.4475092041425
20
16.4718674290303
30
0
41
1
10
17.0300966588353
20
16.6424559161975
30
0
41
1
10
17.4039902949197
20
16.7855329091223
30
0
41
1
10
17.925986933643
20
17.054376090128
30
0
41
1
10
18.0873088731256
20
17.1472461459211
30
0
41
1
10
18.2431215050984
20
17.2473762124024
30
0
0
SPLINE
5
DC
100
AcDbEntity
8
1
62
256
6
ByLayer
370
-1
48
1
60
0
100
AcDbSpline
70
4
71
3
72
8
73
4
40
0
40
0
40
0
40
0
40
1
40
1
40
1
40
1
41
1
10
15.5417240345878
20
8.32447518934805
30
0
41
1
10
15.6438754731906
20
8.61295456750699
30
0
41
1
10
15.7670401498887
20
8.89086944363271
30
0
41
1
10
15.92079238
20
9.15658440325407
30
0
0
SPLINE
5
DD
100
AcDbEntity
8
1
62
256
6
ByLayer
370
-1
48
1
60
0
100
AcDbSpline
70
4
71
3
72
16
73
12
40
0
40
0
40
0
40
0
40
0.1129043830553
40
0.1129043830553
40
0.251995806601947
40
0.251995806601947
40
0.471177478614504
40
0.471177478614504
40
0.892334804026125
40
0.892334804026125
40
1
40
1
40
1
40
1
41
1
10
7.07679491924311
20
4.75546271781755
30
0
41
1
10
7.09363003644253
20
4.75546271781755
30
0
41
1
10
7.11067448209637
20
4.75851551862661
30
0
41
1
10
7.14599612783957
20
4.77071315953359
30
0
41
1
10
7.16423843011323
20
4.78117073972194
30
0
41
1
10
7.2059463631429
20
4.81283214608436
30
0
41
1
10
7.22743815354157
20
4.83715715133616
30
0
41
1
10
7.2804704094188
20
4.91214630601436
30
0
41
1
10
7.30493517049526
20
4.96811547083686
30
0
41
1
10
7.32822068883897
20
5.03919021254677
30
0
41
1
10
7.33259153417376
20
5.05386666454072
30
0
41
1
10
7.33660254037849
20
5.06861858311169
30
0
0
SPLINE
5
DE
100
AcDbEntity
8
1
62
256
6
ByLayer
370
-1
48
1
60
0
100
AcDbSpline
70
4
71
3
72
16
73
12
40
0
40
0
40
0
40
0
40
0.46249752713583
40
0.46249752713583
40
0.645191851133689
40
0.645191851133689
40
0.830465145084805
40
0.830465145084805
40
0.946099677592179
40
0.946099677592179
40
1
40
1
40
1
40
1
41
1
10
7.33660254037845
20
15.1759383782004
30
0
41
1
10
7.31950254572617
20
15.1969435000064
30
0
41
1
10
7.29606569448346
20
15.2173733040723
30
0
41
1
10
7.24769339962623
20
15.2426068177431
30
0
41
1
10
7.23196248290218
20
15.2494611471717
30
0
41
1
10
7.19538082316863
20
15.2617345707429
30
0
41
1
10
7.1739816779432
20
15.2672766430868
30
0
41
1
10
7.13465169394873
20
15.2736248541653
30
0
41
1
10
7.1180569988925
20
15.2754510872996
30
0
41
1
10
7.09306930322398
20
15.2767486596485
30
0
41
1
10
7.08491758298597
20
15.2769622091386
30
0
41
1
10
7.07679491924313
20
15.2769622091386
30
0
0
SPLINE
5
DF
100
AcDbEntity
8
1
62
256
6
ByLayer
370
-1
48
1
60
0
100
AcDbSpline
70
4
71
3
72
8
73
4
40
0
40
0
40
0
40
0
40
1
40
1
40
1
40
1
41
1
10
15.9401567000286
20
9.31496059706774
30
0
41
1
10
15.9617658372185
20
9.67005734237486
30
0
41
1
10
15.9866264822786
20
10.0245115993356
30
0
41
1
10
16.0145745973509
20
10.3782750112564
30
0
0
SPLINE
5
E0
100
AcDbEntity
8
1
62
256
6
ByLayer
370
-1
48
1
60
0
100
AcDbSpline
70
4
71
3
72
16
73
12
40
0
40
0
40
0
40
0
40
0.462497527135787
40
0.462497527135787
40
0.645191851133657
40
0.645191851133657
40
0.830465145084786
40
0.830465145084786
40
0.946099677592161
40
0.946099677592161
40
1
40
1
40
1
40
1
41
1
10
4.66339745962155
20
-15.1759383782004
30
0
41
1
10
4.68049745427383
20
-15.1969435000064
30
0
41
1
10
4.70393430551653
20
-15.2173733040723
30
0
41
1
10
4.75230660037376
20
-15.2426068177431
30
0
41
1
10
4.76803751709781
20
-15.2494611471717
30
0
41
1
10
4.80461917683135
20
-15.2617345707429
30
0
41
1
10
4.82601832205678
20
-15.2672766430868
30
0
41
1
10
4.86534830605126
20
-15.2736248541653
30
0
41
1
10
4.88194300110749
20
-15.2754510872996
30
0
41
1
10
4.906930696776
20
-15.2767486596485
30
0
41
1
10
4.91508241701403
20
-15.2769622091386
30
0
41
1
10
4.92320508075687
20
-15.2769622091386
30
0
0
SPLINE
5
E1
100
AcDbEntity
8
1
62
256
6
ByLayer
370
-1
48
1
60
0
100
AcDbSpline
70
4
71
3
72
8
73
4
40
0
40
0
40
0
40
0
40
1
40
1
40
1
40
1
41
1
10
16.024801113738
20
16.210836121375
30
0
41
1
10
16.2819366283211
20
16.1382812600147
30
0
41
1
10
16.611113286152
20
16.0453988481445
30
0
41
1
10
16.9561532912272
20
15.9480403413954
30
0
0
SPLINE
5
E2
100
AcDbEntity
8
SK1
62
256
6
ByLayer
370
-1
48
1
60
0
100
AcDbSpline
70
4
71
3
72
22
73
18
40
0
40
0
40
0
40
0
40
0.0395600313571715
40
0.0395600313571715
40
0.0799315093879944
40
0.0799315093879944
40
0.106876580589846
40
0.106876580589846
40
0.13370104854378
40
0.13370104854378
40
0.176352973011115
40
0.176352973011115
40
0.259356921689212
40
0.259356921689212
40
0.548295527674779
40
0.548295527674779
40
1
40
1
40
1
40
1
41
1
10
-0.394976888875291
20
-10.7863556154697
30
0
41
1
10
-0.389702639678646
20
-10.7870422282048
30
0
41
1
10
-0.383949255474249
20
-10.787901693367
30
0
41
1
10
-0.371341349893655
20
-10.7901447377048
30
0
41
1
10
-0.364243586661772
20
-10.7915871586324
30
0
41
1
10
-0.352098900524396
20
-10.7944788307469
30
0
41
1
10
-0.347036906174168
20
-10.7957979077191
30
0
41
1
10
-0.337425084029817
20
-10.798522674748
30
0
41
1
10
-0.33276601646044
20
-10.7999559337413
30
0
41
1
10
-0.321717088695223
20
-10.8035790811787
30
0
41
1
10
-0.315694378191637
20
-10.8057810587444
30
0
41
1
10
-0.300169598666315
20
-10.8118410319123
30
0
41
1
10
-0.292195204420992
20
-10.8154752639726
30
0
41
1
10
-0.261918491650448
20
-10.8302075808718
30
0
41
1
10
-0.249810830339086
20
-10.8386591321433
30
0
41
1
10
-0.22432246996226
20
-10.8569180764323
30
0
41
1
10
-0.214796829338539
20
-10.8650247494481
30
0
41
1
10
-0.208974318378196
20
-10.8707982119589
30
0
0
SPLINE
5
E3
100
AcDbEntity
8
SK1
62
256
6
ByLayer
370
-1
48
1
60
0
100
AcDbSpline
70
4
71
3
72
113
73
109
40
0
40
0
40
0
40
0
40
0.0068017928637107
40
0.014996016554095
40
0.0231902402444794
40
0.0313844639348636
40
0.0477729113156323
40
0.0641613586964009
40
0.0805498060771696
40
0.0969382534579382
40
0.105132477148322
40
0.113326700838707
40
0.121520924529091
40
0.129715148219475
40
0.146103595600244
40
0.154297819290628
40
0.162492042981013
40
0.170686266671397
40
0.178880490361781
40
0.187074714052166
40
0.19526893774255
40
0.203463161432934
40
0.211657385123319
40
0.219851608813703
40
0.228045832504087
40
0.236240056194472
40
0.244434279884856
40
0.25262850357524
40
0.260822727265625
40
0.269016950956009
40
0.277211174646393
40
0.285405398336777
40
0.293599622027162
40
0.301793845717546
40
0.30998806940793
40
0.326376516788699
40
0.342764964169468
40
0.350959187859852
40
0.359153411550236
40
0.367347635240621
40
0.375541858931005
40
0.383736082621389
40
0.391930306311774
40
0.400124530002158
40
0.408318753692542
40
0.424707201073311
40
0.44109564845408
40
0.449289872144464
40
0.457484095834848
40
0.465678319525232
40
0.473872543215617
40
0.482066766906001
40
0.490260990596385
40
0.49845521428677
40
0.506649437977154
40
0.523037885357923
40
0.539426332738691
40
0.547620556429076
40
0.55581478011946
40
0.564009003809844
40
0.572203227500229
40
0.580397451190613
40
0.588591674880997
40
0.596785898571381
40
0.604980122261766
40
0.621368569642535
40
0.637757017023303
40
0.645951240713687
40
0.654145464404072
40
0.662339688094456
40
0.67053391178484
40
0.678728135475225
40
0.686922359165609
40
0.695116582855993
40
0.703310806546378
40
0.711505030236762
40
0.719699253927146
40
0.727893477617531
40
0.736087701307915
40
0.744281924998299
40
0.752476148688684
40
0.760670372379068
40
0.768864596069452
40
0.777058819759836
40
0.785253043450221
40
0.801641490830989
40
0.818029938211758
40
0.834418385592527
40
0.850806832973295
40
0.867195280354064
40
0.875389504044448
40
0.883583727734833
40
0.891777951425217
40
0.899972175115601
40
0.908166398805985
40
0.91636062249637
40
0.924554846186754
40
0.932749069877138
40
0.940943293567523
40
0.949137517257907
40
0.957331740948291
40
0.965525964638676
40
0.97372018832906
40
0.981914412019444
40
0.990108635709829
40
0.994205747555021
40
0.998302859400213
40
1
40
1
40
1
40
1
41
1
10
-1.7
20
11.0168257860607
30
0
41
1
10
-1.7
20
11.0159250073087
30
0
41
1
10
-1.7
20
11.0135340498425
30
0
41
1
10
-1.7
20
11.0084756345047
30
0
41
1
10
-1.7
20
11.0015627517285
30
0
41
1
10
-1.7
20
10.9903135656216
30
0
41
1
10
-1.7
20
10.9724987271428
30
0
41
1
10
-1.7
20
10.9453046871603
30
0
41
1
10
-1.7
20
10.9124599273338
30
0
41
1
10
-1.7
20
10.8805066572373
30
0
41
1
10
-1.7
20
10.8522711554431
30
0
41
1
10
-1.7
20
10.8297709040831
30
0
41
1
10
-1.7
20
10.805964526766
30
0
41
1
10
-1.7
20
10.7725058279894
30
0
41
1
10
-1.7
20
10.7364870109124
30
0
41
1
10
-1.7
20
10.6979846247737
30
0
41
1
10
-1.7
20
10.667871716058
30
0
41
1
10
-1.7
20
10.6365384864303
30
0
41
1
10
-1.7
20
10.6039972898543
30
0
41
1
10
-1.7
20
10.5702601848038
30
0
41
1
10
-1.7
20
10.5353389624728
30
0
41
1
10
-1.7
20
10.4992449887466
30
0
41
1
10
-1.7
20
10.4619889498579
30
0
41
1
10
-1.7
20
10.4235819316408
30
0
41
1
10
-1.7
20
10.3840337022625
30
0
41
1
10
-1.7
20
10.3433544990447
30
0
41
1
10
-1.7
20
10.3015538720295
30
0
41
1
10
-1.7
20
10.2586409327216
30
0
41
1
10
-1.7
20
10.2146249480068
30
0
41
1
10
-1.7
20
10.1695147146772
30
0
41
1
10
-1.7
20
10.1233184687774
30
0
41
1
10
-1.7
20
10.0760448810433
30
0
41
1
10
-1.7
20
10.027701522966
30
0
41
1
10
-1.7
20
9.97829626766935
30
0
41
1
10
-1.7
20
9.91102211065424
30
0
41
1
10
-1.7
20
9.8242999772026
30
0
41
1
10
-1.7
20
9.73413471042332
30
0
41
1
10
-1.7
20
9.65997272044626
30
0
41
1
10
-1.7
20
9.60333356924752
30
0
41
1
10
-1.7
20
9.54568704168656
30
0
41
1
10
-1.7
20
9.48703893408199
30
0
41
1
10
-1.7
20
9.42739551695706
30
0
41
1
10
-1.7
20
9.36676193872179
30
0
41
1
10
-1.7
20
9.3051437774476
30
0
41
1
10
-1.7
20
9.22168704652844
30
0
41
1
10
-1.7
20
9.11491649636679
30
0
41
1
10
-1.7
20
9.0049324875024
30
0
41
1
10
-1.7
20
8.9150475069234
30
0
41
1
10
-1.7
20
8.8466784551658
30
0
41
1
10
-1.7
20
8.77736342146704
30
0
41
1
10
-1.7
20
8.707106481632
30
0
41
1
10
-1.7
20
8.63591216394966
30
0
41
1
10
-1.7
20
8.56378402232568
30
0
41
1
10
-1.7
20
8.49072598449763
30
0
41
1
10
-1.7
20
8.39208806457802
30
0
41
1
10
-1.7
20
8.26646749990718
30
0
41
1
10
-1.7
20
8.13779573224099
30
0
41
1
10
-1.7
20
8.0330544924083
30
0
41
1
10
-1.7
20
7.95358683542918
30
0
41
1
10
-1.7
20
7.87321640404122
30
0
41
1
10
-1.7
20
7.79194600202328
30
0
41
1
10
-1.7
20
7.70977883874548
30
0
41
1
10
-1.7
20
7.62671726605947
30
0
41
1
10
-1.7
20
7.54276403355829
30
0
41
1
10
-1.7
20
7.42964989475425
30
0
41
1
10
-1.7
20
7.28602039903603
30
0
41
1
10
-1.7
20
7.13945164867536
30
0
41
1
10
-1.7
20
7.0204585412456
30
0
41
1
10
-1.7
20
6.93033109954712
30
0
41
1
10
-1.7
20
6.83933016168689
30
0
41
1
10
-1.7
20
6.74745760354551
30
0
41
1
10
-1.7
20
6.6547154979545
30
0
41
1
10
-1.7
20
6.56110537660942
30
0
41
1
10
-1.7
20
6.46662906510221
30
0
41
1
10
-1.7
20
6.37128819193615
30
0
41
1
10
-1.7
20
6.27508414397229
30
0
41
1
10
-1.7
20
6.17801861138651
30
0
41
1
10
-1.7
20
6.08009295106382
30
0
41
1
10
-1.7
20
5.98130844183515
30
0
41
1
10
-1.7
20
5.88166662352432
30
0
41
1
10
-1.7
20
5.7811685540097
30
0
41
1
10
-1.7
20
5.67981554633886
30
0
41
1
10
-1.7
20
5.57760872375084
30
0
41
1
10
-1.7
20
5.47454903301667
30
0
41
1
10
-1.7
20
5.33601329758696
30
0
41
1
10
-1.7
20
5.16068772031301
30
0
41
1
10
-1.7
20
4.94691863630067
30
0
41
1
10
-1.7
20
4.72976236922625
30
0
41
1
10
-1.7
20
4.50922638794765
30
0
41
1
10
-1.7
20
4.32262158144502
30
0
41
1
10
-1.7
20
4.171683851729
30
0
41
1
10
-1.7
20
4.05762856057325
30
0
41
1
10
-1.7
20
3.94273458524899
30
0
41
1
10
-1.7
20
3.82700345953037
30
0
41
1
10
-1.7
20
3.71043651779695
30
0
41
1
10
-1.7
20
3.59303544152357
30
0
41
1
10
-1.7
20
3.47480210546814
30
0
41
1
10
-1.7
20
3.3557387899657
30
0
41
1
10
-1.7
20
3.23584780039647
30
0
41
1
10
-1.7
20
3.11513187517292
30
0
41
1
10
-1.7
20
2.993594380779
30
0
41
1
10
-1.7
20
2.87123918356852
30
0
41
1
10
-1.7
20
2.74807054514892
30
0
41
1
10
-1.7
20
2.62409378657779
30
0
41
1
10
-1.7
20
2.52010006268682
30
0
41
1
10
-1.7
20
2.43652882976181
30
0
41
1
10
-1.7
20
2.38592951909064
30
0
41
1
10
-1.7
20
2.35621966593379
30
0
41
1
10
-1.7
20
2.34751178615289
30
0
0
SPLINE
5
E4
100
AcDbEntity
8
SK1
62
256
6
ByLayer
370
-1
48
1
60
0
100
AcDbSpline
70
4
71
3
72
114
73
110
40
0
40
0
40
0
40
0
40
0.0016971436381055
40
0.005794255321984
40
0.0098913670058624
40
0.0180855903736193
40
0.0262798137413762
40
0.0344740371091331
40
0.04266826047689
40
0.0508624838446469
40
0.0590567072124038
40
0.0672509305801607
40
0.0754451539479176
40
0.0836393773156745
40
0.0918336006834314
40
0.100027824051188
40
0.108222047418945
40
0.116416270786702
40
0.124610494154459
40
0.132804717522216
40
0.140998940889973
40
0.14919316425773
40
0.165581610993244
40
0.181970057728757
40
0.198358504464271
40
0.214746951199785
40
0.222941174567542
40
0.231135397935299
40
0.239329621303056
40
0.247523844670813
40
0.255718068038569
40
0.263912291406326
40
0.272106514774083
40
0.28030073814184
40
0.288494961509597
40
0.296689184877354
40
0.304883408245111
40
0.313077631612868
40
0.321271854980625
40
0.329466078348381
40
0.337660301716138
40
0.345854525083895
40
0.354048748451652
40
0.362242971819409
40
0.378631418554923
40
0.395019865290437
40
0.403214088658194
40
0.411408312025951
40
0.419602535393707
40
0.427796758761464
40
0.435990982129221
40
0.444185205496978
40
0.452379428864735
40
0.460573652232492
40
0.476962098968006
40
0.493350545703519
40
0.501544769071276
40
0.509738992439033
40
0.51793321580679
40
0.526127439174547
40
0.534321662542304
40
0.542515885910061
40
0.550710109277818
40
0.558904332645575
40
0.575292779381088
40
0.591681226116602
40
0.599875449484359
40
0.608069672852116
40
0.616263896219873
40
0.62445811958763
40
0.632652342955387
40
0.640846566323144
40
0.649040789690901
40
0.657235013058658
40
0.673623459794171
40
0.690011906529685
40
0.698206129897442
40
0.706400353265199
40
0.714594576632956
40
0.722788800000713
40
0.73098302336847
40
0.739177246736227
40
0.747371470103983
40
0.75556569347174
40
0.763759916839497
40
0.771954140207254
40
0.780148363575011
40
0.788342586942768
40
0.796536810310525
40
0.804731033678282
40
0.812925257046039
40
0.821119480413795
40
0.829313703781552
40
0.837507927149309
40
0.845702150517066
40
0.853896373884823
40
0.870284820620337
40
0.878479043988094
40
0.886673267355851
40
0.894867490723607
40
0.903061714091364
40
0.919450160826878
40
0.935838607562392
40
0.952227054297906
40
0.96861550103342
40
0.976809724401177
40
0.985003947768933
40
0.99319817113669
40
1
40
1
40
1
40
1
41
1
10
-1.7
20
-2.34751168175015
30
0
41
1
10
-1.7
20
-2.35621957733798
30
0
41
1
10
-1.7
20
-2.38592944625574
30
0
41
1
10
-1.7
20
-2.43652877485601
30
0
41
1
10
-1.7
20
-2.52010001413041
30
0
41
1
10
-1.7
20
-2.62409374349514
30
0
41
1
10
-1.7
20
-2.74807047639385
30
0
41
1
10
-1.7
20
-2.8712390381817
30
0
41
1
10
-1.7
20
-2.99359419383882
30
0
41
1
10
-1.7
20
-3.115131944757
30
0
41
1
10
-1.7
20
-3.23584791746731
30
0
41
1
10
-1.7
20
-3.35573880021465
30
0
41
1
10
-1.7
20
-3.47480199284001
30
0
41
1
10
-1.7
20
-3.59303526241621
30
0
41
1
10
-1.7
20
-3.71043643743553
30
0
41
1
10
-1.7
20
-3.82700351079481
30
0
41
1
10
-1.7
20
-3.94273451640885
30
0
41
1
10
-1.7
20
-4.05762829513469
30
0
41
1
10
-1.7
20
-4.17168365277391
30
0
41
1
10
-1.7
20
-4.28489934734066
30
0
41
1
10
-1.7
20
-4.39727377856164
30
0
41
1
10
-1.7
20
-4.54596815109079
30
0
41
1
10
-1.7
20
-4.7297623506839
30
0
41
1
10
-1.7
20
-4.94691859926491
30
0
41
1
10
-1.7
20
-5.16068767245523
30
0
41
1
10
-1.7
20
-5.33601327110074
30
0
41
1
10
-1.7
20
-5.4745489994917
30
0
41
1
10
-1.7
20
-5.57760868171391
30
0
41
1
10
-1.7
20
-5.67981550565051
30
0
41
1
10
-1.7
20
-5.78116852113124
30
0
41
1
10
-1.7
20
-5.88166659485614
30
0
41
1
10
-1.7
20
-5.98130841102724
30
0
41
1
10
-1.7
20
-6.08009291387742
30
0
41
1
10
-1.7
20
-6.17801857115037
30
0
41
1
10
-1.7
20
-6.27508411030436
30
0
41
1
10
-1.7
20
-6.37128816532112
30
0
41
1
10
-1.7
20
-6.46662903768907
30
0
41
1
10
-1.7
20
-6.56110534348878
30
0
41
1
10
-1.7
20
-6.65471546144812
30
0
41
1
10
-1.7
20
-6.74745756863808
30
0
41
1
10
-1.7
20
-6.83933013294538
30
0
41
1
10
-1.7
20
-6.93033107540649
30
0
41
1
10
-1.7
20
-7.02045851391139
30
0
41
1
10
-1.7
20
-7.13945161440037
30
0
41
1
10
-1.7
20
-7.28602036791514
30
0
41
1
10
-1.7
20
-7.42964987262871
30
0
41
1
10
-1.7
20
-7.54276400792273
30
0
41
1
10
-1.7
20
-7.62671723619306
30
0
41
1
10
-1.7
20
-7.70977880868622
30
0
41
1
10
-1.7
20
-7.79194597495291
30
0
41
1
10
-1.7
20
-7.87321638075602
30
0
41
1
10
-1.7
20
-7.95358681402573
30
0
41
1
10
-1.7
20
-8.0330544688868
30
0
41
1
10
-1.7
20
-8.13779570521024
30
0
41
1
10
-1.7
20
-8.26646747522287
30
0
41
1
10
-1.7
20
-8.39208804491184
30
0
41
1
10
-1.7
20
-8.49072596407868
30
0
41
1
10
-1.7
20
-8.56378400031386
30
0
41
1
10
-1.7
20
-8.63591214139896
30
0
41
1
10
-1.7
20
-8.70710645983874
30
0
41
1
10
-1.7
20
-8.77736340151236
30
0
41
1
10
-1.7
20
-8.84667843706413
30
0
41
1
10
-1.7
20
-8.91504748954583
30
0
41
1
10
-1.7
20
-9.00493246986304
30
0
41
1
10
-1.7
20
-9.11491647650138
30
0
41
1
10
-1.7
20
-9.22168702931728
30
0
41
1
10
-1.7
20
-9.30514376314053
30
0
41
1
10
-1.7
20
-9.36676192571935
30
0
41
1
10
-1.7
20
-9.42739550269755
30
0
41
1
10
-1.7
20
-9.48703891782515
30
0
41
1
10
-1.7
20
-9.54568702498426
30
0
41
1
10
-1.7
20
-9.60333355436057
30
0
41
1
10
-1.7
20
-9.65997270948603
30
0
41
1
10
-1.7
20
-9.73413470277157
30
0
41
1
10
-1.7
20
-9.82429996242755
30
0
41
1
10
-1.7
20
-9.91102209624654
30
0
41
1
10
-1.7
20
-9.9782962601187
30
0
41
1
10
-1.7
20
-10.0277015194443
30
0
41
1
10
-1.7
20
-10.0760448746501
30
0
41
1
10
-1.7
20
-10.1233184572166
30
0
41
1
10
-1.7
20
-10.1695147015167
30
0
41
1
10
-1.7
20
-10.214624938185
30
0
41
1
10
-1.7
20
-10.2586409300894
30
0
41
1
10
-1.7
20
-10.3015538731596
30
0
41
1
10
-1.7
20
-10.3433544952797
30
0
41
1
10
-1.7
20
-10.3840336911891
30
0
41
1
10
-1.7
20
-10.4235819208782
30
0
41
1
10
-1.7
20
-10.4619889454751
30
0
41
1
10
-1.7
20
-10.4992449917908
30
0
41
1
10
-1.7
20
-10.5353389668746
30
0
41
1
10
-1.7
20
-10.5702601801729
30
0
41
1
10
-1.7
20
-10.6039972784095
30
0
41
1
10
-1.7
20
-10.6365384804889
30
0
41
1
10
-1.7
20
-10.6678717210084
30
0
41
1
10
-1.7
20
-10.6979846325427
30
0
41
1
10
-1.7
20
-10.7364870112034
30
0
41
1
10
-1.7
20
-10.7725058156908
30
0
41
1
10
-1.7
20
-10.8059645321906
30
0
41
1
10
-1.7
20
-10.8297709184935
30
0
41
1
10
-1.7
20
-10.8522711614578
30
0
41
1
10
-1.7
20
-10.8805066448562
30
0
41
1
10
-1.7
20
-10.9124599417153
30
0
41
1
10
-1.7
20
-10.9453046900679
30
0
41
1
10
-1.7
20
-10.9724987368511
30
0
41
1
10
-1.7
20
-10.9903135336491
30
0
41
1
10
-1.7
20
-11.0015624988159
30
0
41
1
10
-1.7
20
-11.0084752989365
30
0
41
1
10
-1.7
20
-11.0135338004121
30
0
41
1
10
-1.70000000000002
20
-11.0159248556922
30
0
41
1
10
-1.7
20
-11.0168256818002
30
0
0
SPLINE
5
E5
100
AcDbEntity
8
SK1
62
256
6
ByLayer
370
-1
48
1
60
0
100
AcDbSpline
70
4
71
3
72
282
73
278
40
0
40
0
40
0
40
0
40
0.0005689140671403
40
0.0040614398832124
40
0.0075539656992845
40
0.0110464915153567
40
0.0145390173314288
40
0.0180315431475009
40
0.021524068963573
40
0.0250165947796451
40
0.0320016464117893
40
0.0389866980439335
40
0.0459717496760778
40
0.052956801308222
40
0.0564493271242941
40
0.0599418529403662
40
0.0634343787564383
40
0.0669269045725105
40
0.0739119562046547
40
0.0774044820207268
40
0.0808970078367989
40
0.084389533652871
40
0.0878820594689432
40
0.0913745852850152
40
0.0948671111010874
40
0.0983596369171595
40
0.101852162733232
40
0.105344688549304
40
0.108837214365376
40
0.112329740181448
40
0.11582226599752
40
0.119314791813592
40
0.122807317629664
40
0.126299843445736
40
0.129792369261808
40
0.133284895077881
40
0.136777420893953
40
0.140269946710025
40
0.143762472526097
40
0.150747524158241
40
0.157732575790385
40
0.161225101606457
40
0.16471762742253
40
0.168210153238602
40
0.171702679054674
40
0.175195204870746
40
0.178687730686818
40
0.18218025650289
40
0.185672782318962
40
0.192657833951107
40
0.199642885583251
40
0.203135411399323
40
0.206627937215395
40
0.210120463031467
40
0.213612988847539
40
0.217105514663611
40
0.220598040479683
40
0.224090566295755
40
0.227583092111828
40
0.234568143743972
40
0.241553195376116
40
0.245045721192188
40
0.24853824700826
40
0.252030772824332
40
0.255523298640405
40
0.259015824456477
40
0.262508350272549
40
0.266000876088621
40
0.269493401904693
40
0.276478453536837
40
0.283463505168981
40
0.286956030985054
40
0.290448556801126
40
0.293941082617198
40
0.29743360843327
40
0.300926134249342
40
0.304418660065414
40
0.307911185881486
40
0.311403711697558
40
0.31489623751363
40
0.318388763329703
40
0.321881289145775
40
0.325373814961847
40
0.328866340777919
40
0.332358866593991
40
0.335851392410063
40
0.339343918226135
40
0.342836444042207
40
0.346328969858279
40
0.353314021490424
40
0.360299073122568
40
0.367284124754712
40
0.374269176386856
40
0.381254228019001
40
0.384746753835073
40
0.388239279651145
40
0.391731805467217
40
0.395224331283289
40
0.398716857099361
40
0.402209382915433
40
0.405701908731505
40
0.409194434547577
40
0.41268696036365
40
0.416179486179722
40
0.419672011995794
40
0.423164537811866
40
0.426657063627938
40
0.43014958944401
40
0.433642115260082
40
0.435388378168118
40
0.437134641076155
40
0.440627166892226
40
0.444119692708299
40
0.447612218524371
40
0.451104744340443
40
0.454597270156515
40
0.458089795972587
40
0.461582321788659
40
0.465074847604731
40
0.466821110512767
40
0.468567373420803
40
0.470313636328839
40
0.472059899236876
40
0.473806162144912
40
0.475552425052948
40
0.477298687960984
40
0.47904495086902
40
0.480791213777056
40
0.482537476685092
40
0.484283739593128
40
0.486030002501164
40
0.4877762654092
40
0.489522528317236
40
0.491268791225272
40
0.493015054133308
40
0.494761317041344
40
0.49650757994938
40
0.498253842857416
40
0.500000105765452
40
0.501746368673489
40
0.503492631581525
40
0.505238894489561
40
0.506985157397597
40
0.508731420305633
40
0.510477683213669
40
0.512223946121705
40
0.513970209029741
40
0.515716471937777
40
0.517462734845813
40
0.519208997753849
40
0.520955260661885
40
0.522701523569921
40
0.524447786477957
40
0.526194049385993
40
0.527940312294029
40
0.529686575202065
40
0.531432838110101
40
0.533179101018137
40
0.534925363926174
40
0.538417889742246
40
0.541910415558318
40
0.54540294137439
40
0.548895467190462
40
0.552387993006534
40
0.555880518822606
40
0.559373044638678
40
0.562865570454751
40
0.564611833362787
40
0.566358096270823
40
0.569850622086895
40
0.573343147902967
40
0.576835673719039
40
0.580328199535111
40
0.583820725351183
40
0.587313251167255
40
0.590805776983327
40
0.594298302799399
40
0.597790828615472
40
0.601283354431544
40
0.604775880247616
40
0.608268406063688
40
0.61176093187976
40
0.615253457695832
40
0.618745983511904
40
0.622238509327977
40
0.625731035144049
40
0.632716086776193
40
0.639701138408337
40
0.646686190040481
40
0.653671241672626
40
0.657163767488698
40
0.66065629330477
40
0.664148819120842
40
0.667641344936914
40
0.671133870752986
40
0.674626396569058
40
0.67811892238513
40
0.681611448201202
40
0.685103974017275
40
0.688596499833347
40
0.692089025649419
40
0.695581551465491
40
0.699074077281563
40
0.702566603097635
40
0.706059128913707
40
0.709551654729779
40
0.713044180545851
40
0.716536706361924
40
0.723521757994068
40
0.730506809626212
40
0.733999335442284
40
0.737491861258356
40
0.740984387074428
40
0.7444769128905
40
0.747969438706572
40
0.751461964522645
40
0.754954490338717
40
0.758447016154789
40
0.765432067786933
40
0.772417119419077
40
0.775909645235149
40
0.779402171051221
40
0.782894696867294
40
0.786387222683366
40
0.789879748499438
40
0.79337227431551
40
0.796864800131582
40
0.800357325947654
40
0.807342377579799
40
0.814327429211943
40
0.817819955028015
40
0.821312480844087
40
0.824805006660159
40
0.828297532476231
40
0.831790058292303
40
0.835282584108375
40
0.838775109924447
40
0.84226763574052
40
0.849252687372664
40
0.856237739004808
40
0.85973026482088
40
0.863222790636952
40
0.866715316453024
40
0.870207842269097
40
0.873700368085169
40
0.877192893901241
40
0.880685419717313
40
0.884177945533385
40
0.887670471349457
40
0.891162997165529
40
0.894655522981601
40
0.898148048797673
40
0.901640574613745
40
0.905133100429818
40
0.90862562624589
40
0.912118152061962
40
0.915610677878034
40
0.919103203694106
40
0.922595729510178
40
0.92608825532625
40
0.933073306958395
40
0.936565832774467
40
0.940058358590539
40
0.943550884406611
40
0.947043410222683
40
0.954028461854827
40
0.961013513486972
40
0.967998565119116
40
0.97498361675126
40
0.978476142567332
40
0.981968668383404
40
0.985461194199476
40
0.988953720015548
40
0.99244624583162
40
0.995938771647693
40
0.999431297463765
40
1
40
1
40
1
40
1
41
1
10
-18
20
10.6091545230541
30
0
41
1
10
-18
20
10.6092716855542
30
0
41
1
10
-18
20
10.6100564431883
30
0
41
1
10
-18
20
10.6108321487841
30
0
41
1
10
-18
20
10.6103050545653
30
0
41
1
10
-18
20
10.6082029915013
30
0
41
1
10
-18
20
10.6045523963069
30
0
41
1
10
-18
20
10.599378203272
30
0
41
1
10
-18
20
10.592703758728
30
0
41
1
10
-18
20
10.5818120868309
30
0
41
1
10
-18
20
10.5646169538388
30
0
41
1
10
-18
20
10.5383008597592
30
0
41
1
10
-18
20
10.5064892630525
30
0
41
1
10
-18
20
10.4755678718975
30
0
41
1
10
-18
20
10.4481323745122
30
0
41
1
10
-18
20
10.4263041000347
30
0
41
1
10
-18
20
10.4032013384501
30
0
41
1
10
-18
20
10.3706596194956
30
0
41
1
10
-18
20
10.3358095061466
30
0
41
1
10
-18
20
10.2983352374592
30
0
41
1
10
-18
20
10.2690719430376
30
0
41
1
10
-18
20
10.2386154287957
30
0
41
1
10
-18
20
10.2069776298432
30
0
41
1
10
-18
20
10.1741699954592
30
0
41
1
10
-18
20
10.1402037904431
30
0
41
1
10
-18
20
10.1050900859652
30
0
41
1
10
-18
20
10.0688389854125
30
0
41
1
10
-18
20
10.0314612838791
30
0
41
1
10
-18
20
9.99296651357056
30
0
41
1
10
-18
20
9.95336440120047
30
0
41
1
10
-18
20
9.91266446512716
30
0
41
1
10
-18
20
9.87087543598923
30
0
41
1
10
-18
20
9.82800620980919
30
0
41
1
10
-18
20
9.7840656391997
30
0
41
1
10
-18
20
9.73906158174464
30
0
41
1
10
-18
20
9.69300262436195
30
0
41
1
10
-18
20
9.64589640582304
30
0
41
1
10
-18
20
9.59775041693439
30
0
41
1
10
-18
20
9.53207738577578
30
0
41
1
10
-18
20
9.44765448811151
30
0
41
1
10
-18
20
9.3598674920926
30
0
41
1
10
-18
20
9.28744513847656
30
0
41
1
10
-18
20
9.23221919243571
30
0
41
1
10
-18
20
9.17600808045955
30
0
41
1
10
-18
20
9.11881724129319
30
0
41
1
10
-18
20
9.06065321078685
30
0
41
1
10
-18
20
9.00152153550755
30
0
41
1
10
-18
20
8.94142744136704
30
0
41
1
10
-18
20
8.8599036769107
30
0
41
1
10
-18
20
8.75589867127121
30
0
41
1
10
-18
20
8.64876093189611
30
0
41
1
10
-18
20
8.56095254151674
30
0
41
1
10
-18
20
8.49426810443586
30
0
41
1
10
-18
20
8.42666168347023
30
0
41
1
10
-18
20
8.35813713243078
30
0
41
1
10
-18
20
8.28869946906789
30
0
41
1
10
-18
20
8.21835292520672
30
0
41
1
10
-18
20
8.14710122037499
30
0
41
1
10
-18
20
8.05075300914629
30
0
41
1
10
-18
20
7.92840576311144
30
0
41
1
10
-18
20
7.80309792535269
30
0
41
1
10
-18
20
7.70081044177078
30
0
41
1
10
-18
20
7.62333369313473
30
0
41
1
10
-18
20
7.54498258382409
30
0
41
1
10
-18
20
7.4657598851355
30
0
41
1
10
-18
20
7.3856695958325
30
0
41
1
10
-18
20
7.30471500134038
30
0
41
1
10
-18
20
7.22289886113486
30
0
41
1
10
-18
20
7.11249590401042
30
0
41
1
10
-18
20
6.97274644349409
30
0
41
1
10
-18
20
6.83016814404567
30
0
41
1
10
-18
20
6.71409024311311
30
0
41
1
10
-18
20
6.62633156228856
30
0
41
1
10
-18
20
6.53773585931214
30
0
41
1
10
-18
20
6.44830547511725
30
0
41
1
10
-18
20
6.35804369451674
30
0
41
1
10
-18
20
6.26695324021441
30
0
41
1
10
-18
20
6.17503665947791
30
0
41
1
10
-18
20
6.08229713807037
30
0
41
1
10
-18
20
5.98873702476692
30
0
41
1
10
-18
20
5.89435903702207
30
0
41
1
10
-18
20
5.79916633117398
30
0
41
1
10
-18
20
5.70316110146723
30
0
41
1
10
-18
20
5.60634650403392
30
0
41
1
10
-18
20
5.50872532385608
30
0
41
1
10
-18
20
5.41030024314784
30
0
41
1
10
-18
20
5.31107465945468
30
0
41
1
10
-18
20
5.21105054825134
30
0
41
1
10
-18
20
5.07638404339966
30
0
41
1
10
-18
20
4.9066349784587
30
0
41
1
10
-18
20
4.69948157884701
30
0
41
1
10
-18
20
4.48921424352019
30
0
41
1
10
-18
20
4.27586319348595
30
0
41
1
10
-18
20
4.09581338934953
30
0
41
1
10
-18
20
3.94972228937704
30
0
41
1
10
-18
20
3.83964277700957
30
0
41
1
10
-18
20
3.72882077112345
30
0
41
1
10
-18
20
3.61726252861362
30
0
41
1
10
-18
20
3.5049748957627
30
0
41
1
10
-18
20
3.39196471421937
30
0
41
1
10
-18
20
3.27823925856785
30
0
41
1
10
-18
20
3.16380725793991
30
0
41
1
10
-18
20
3.04867846612532
30
0
41
1
10
-18
20
2.93286234661062
30
0
41
1
10
-18
20
2.81636932516915
30
0
41
1
10
-18
20
2.69921228427648
30
0
41
1
10
-18
20
2.58140420660004
30
0
41
1
10
-18
20
2.46295993427742
30
0
41
1
10
-18
20
2.36395709248046
30
0
41
1
10
-18
20
2.2840420412912
30
0
41
1
10
-18
20
2.20393499577068
30
0
41
1
10
-18
20
2.10398013562451
30
0
41
1
10
-18
20
1.98317122682144
30
0
41
1
10
-18
20
1.86182470164047
30
0
41
1
10
-18
20
1.73996869594836
30
0
41
1
10
-18
20
1.61763140130913
30
0
41
1
10
-18
20
1.49484387929499
30
0
41
1
10
-18
20
1.37164025517353
30
0
41
1
10
-18
20
1.26895275020124
30
0
41
1
10
-18
20
1.18606363592943
30
0
41
1
10
-18
20
1.12406381547396
30
0
41
1
10
-18
20
1.06198977283731
30
0
41
1
10
-18
20
0.999845142204208
30
0
41
1
10
-18
20
0.937636316394475
30
0
41
1
10
-18
20
0.87536723489913
30
0
41
1
10
-18
20
0.813044982640463
30
0
41
1
10
-18
20
0.750672614854494
30
0
41
1
10
-18
20
0.688256683922077
30
0
41
1
10
-18
20
0.625800994862885
30
0
41
1
10
-18
20
0.563310977461924
30
0
41
1
10
-18
20
0.500790536511772
30
0
41
1
10
-18
20
0.43824433367962
30
0
41
1
10
-18
20
0.375676097210004
30
0
41
1
10
-18
20
0.313089809374958
30
0
41
1
10
-18
20
0.250488699287644
30
0
41
1
10
-18
20
0.187876264694836
30
0
41
1
10
-18
20
0.125255374427184
30
0
41
1
10
-18
20
0.0626290839053922
30
0
41
1
10
-18
20
3.20922311E-08
30
0
41
1
10
-18
20
-0.0626290271069365
30
0
41
1
10
-18
20
-0.125255331589216
30
0
41
1
10
-18
20
-0.187876220606341
30
0
41
1
10
-18
20
-0.250488634444707
30
0
41
1
10
-18
20
-0.313089739834197
30
0
41
1
10
-18
20
-0.375676054943824
30
0
41
1
10
-18
20
-0.438244302653686
30
0
41
1
10
-18
20
-0.500790472931612
30
0
41
1
10
-18
20
-0.563310894882505
30
0
41
1
10
-18
20
-0.62580094788143
30
0
41
1
10
-18
20
-0.688256665460784
30
0
41
1
10
-18
20
-0.75067256225924
30
0
41
1
10
-18
20
-0.813044890326779
30
0
41
1
10
-18
20
-0.875367170941672
30
0
41
1
10
-18
20
-0.937636300485195
30
0
41
1
10
-18
20
-0.999845111434894
30
0
41
1
10
-18
20
-1.06198969497243
30
0
41
1
10
-18
20
-1.12406372316545
30
0
41
1
10
-18
20
-1.186063589047
30
0
41
1
10
-18
20
-1.26895273622944
30
0
41
1
10
-18
20
-1.37164017880389
30
0
41
1
10
-18
20
-1.49484382588881
30
0
41
1
10
-18
20
-1.61763137476078
30
0
41
1
10
-18
20
-1.73996860709434
30
0
41
1
10
-18
20
-1.86182467095802
30
0
41
1
10
-18
20
-1.98317119500538
30
0
41
1
10
-18
20
-2.10398004111116
30
0
41
1
10
-18
20
-2.20393495183686
30
0
41
1
10
-18
20
-2.28404204181248
30
0
41
1
10
-18
20
-2.36395705803145
30
0
41
1
10
-18
20
-2.4629597502701
30
0
41
1
10
-18
20
-2.58140376430018
30
0
41
1
10
-18
20
-2.69921210979672
30
0
41
1
10
-18
20
-2.81636991600769
30
0
41
1
10
-18
20
-2.93286301922586
30
0
41
1
10
-18
20
-3.04867826135629
30
0
41
1
10
-18
20
-3.1638065993838
30
0
41
1
10
-18
20
-3.27823874237262
30
0
41
1
10
-18
20
-3.39196474884636
30
0
41
1
10
-18
20
-3.50497537086059
30
0
41
1
10
-18
20
-3.61726245308643
30
0
41
1
10
-18
20
-3.72881992966333
30
0
41
1
10
-18
20
-3.83964235720097
30
0
41
1
10
-18
20
-3.94972277737918
30
0
41
1
10
-18
20
-4.05905436847678
30
0
41
1
10
-18
20
-4.16763243265373
30
0
41
1
10
-18
20
-4.31169460692027
30
0
41
1
10
-18
20
-4.48921431467912
30
0
41
1
10
-18
20
-4.69948150824786
30
0
41
1
10
-18
20
-4.90663494713598
30
0
41
1
10
-18
20
-5.07638402809525
30
0
41
1
10
-18
20
-5.2110504888509
30
0
41
1
10
-18
20
-5.31107460858115
30
0
41
1
10
-18
20
-5.41030022073681
30
0
41
1
10
-18
20
-5.50872530998984
30
0
41
1
10
-18
20
-5.60634647599673
30
0
41
1
10
-18
20
-5.70316105559499
30
0
41
1
10
-18
20
-5.79916628067869
30
0
41
1
10
-18
20
-5.89435900496744
30
0
41
1
10
-18
20
-5.98873701214285
30
0
41
1
10
-18
20
-6.08229711859906
30
0
41
1
10
-18
20
-6.17503662085343
30
0
41
1
10
-18
20
-6.26695319447285
30
0
41
1
10
-18
20
-6.35804365721182
30
0
41
1
10
-18
20
-6.44830545225392
30
0
41
1
10
-18
20
-6.53773584474615
30
0
41
1
10
-18
20
-6.62633153834341
30
0
41
1
10
-18
20
-6.71409020409422
30
0
41
1
10
-18
20
-6.83016810635769
30
0
41
1
10
-18
20
-6.97274642193665
30
0
41
1
10
-18
20
-7.11249588450139
30
0
41
1
10
-18
20
-7.22289882691013
30
0
41
1
10
-18
20
-7.3047149669423
30
0
41
1
10
-18
20
-7.3856695697848
30
0
41
1
10
-18
20
-7.46575986597483
30
0
41
1
10
-18
20
-7.54498256644959
30
0
41
1
10
-18
20
-7.62333367085023
30
0
41
1
10
-18
20
-7.70081041299485
30
0
41
1
10
-18
20
-7.80309789738925
30
0
41
1
10
-18
20
-7.9284057431208
30
0
41
1
10
-18
20
-8.05075299167547
30
0
41
1
10
-18
20
-8.14710119768421
30
0
41
1
10
-18
20
-8.21835290126668
30
0
41
1
10
-18
20
-8.28869944694208
30
0
41
1
10
-18
20
-8.35813711319386
30
0
41
1
10
-18
20
-8.42666166687422
30
0
41
1
10
-18
20
-8.4942680885093
30
0
41
1
10
-18
20
-8.56095252446428
30
0
41
1
10
-18
20
-8.64876091292308
30
0
41
1
10
-18
20
-8.75589865176036
30
0
41
1
10
-18
20
-8.85990366278926
30
0
41
1
10
-18
20
-8.94142742966559
30
0
41
1
10
-18
20
-9.00152152233744
30
0
41
1
10
-18
20
-9.06065319401594
30
0
41
1
10
-18
20
-9.1188172233754
30
0
41
1
10
-18
20
-9.17600806496941
30
0
41
1
10
-18
20
-9.23221918172709
30
0
41
1
10
-18
20
-9.28744513180197
30
0
41
1
10
-18
20
-9.3598674830186
30
0
41
1
10
-18
20
-9.44765447086007
30
0
41
1
10
-18
20
-9.5320773748978
30
0
41
1
10
-18
20
-9.59775041479642
30
0
41
1
10
-18
20
-9.6458964026537
30
0
41
1
10
-18
20
-9.69300261323349
30
0
41
1
10
-18
20
-9.73906156658435
30
0
41
1
10
-18
20
-9.78406562726659
30
0
41
1
10
-18
20
-9.82800620569321
30
0
41
1
10
-18
20
-9.87087543880676
30
0
41
1
10
-18
20
-9.91266446536125
30
0
41
1
10
-18
20
-9.95336439144063
30
0
41
1
10
-18
20
-9.99296649945873
30
0
41
1
10
-18
20
-10.0314612764173
30
0
41
1
10
-18
20
-10.0688389871438
30
0
41
1
10
-18
20
-10.1050900925226
30
0
41
1
10
-18
20
-10.1402037914164
30
0
41
1
10
-18
20
-10.1741699845987
30
0
41
1
10
-18
20
-10.2069776182064
30
0
41
1
10
-18
20
-10.2386154290236
30
0
41
1
10
-18
20
-10.2690719526608
30
0
41
1
10
-18
20
-10.2983352440808
30
0
41
1
10
-18
20
-10.3358095016122
30
0
41
1
10
-18
20
-10.3706596087076
30
0
41
1
10
-18
20
-10.4032013500169
30
0
41
1
10
-18
20
-10.4263041143214
30
0
41
1
10
-18
20
-10.4481323749746
30
0
41
1
10
-18
20
-10.4755678604265
30
0
41
1
10
-18
20
-10.506489279177
30
0
41
1
10
-18
20
-10.5383008623823
30
0
41
1
10
-18
20
-10.5646169600635
30
0
41
1
10
-18
20
-10.5818120325131
30
0
41
1
10
-18
20
-10.592703485268
30
0
41
1
10
-18
20
-10.5993778692674
30
0
41
1
10
-18
20
-10.6045521568697
30
0
41
1
10
-18
20
-10.6082029107285
30
0
41
1
10
-18
20
-10.6103051294408
30
0
41
1
10
-18
20
-10.6108322853176
30
0
41
1
10
-18
20
-10.610056522281
30
0
41
1
10
-18
20
-10.6092717775315
30
0
41
1
10
-18
20
-10.6091546573771
30
0
0
SPLINE
5
E6
100
AcDbEntity
8
SK1
62
256
6
ByLayer
370
-1
48
1
60
0
100
AcDbSpline
70
4
71
3
72
115
73
111
40
0
40
0
40
0
40
0
40
0.0010816361577876
40
0.0051306207589502
40
0.0132285899612752
40
0.0213265591636003
40
0.0294245283659254
40
0.0375224975682505
40
0.0456204667705756
40
0.0537184359729007
40
0.0618164051752258
40
0.0699143743775509
40
0.078012343579876
40
0.0861103127822011
40
0.0942082819845262
40
0.102306251186851
40
0.110404220389176
40
0.118502189591501
40
0.126600158793827
40
0.134698127996152
40
0.142796097198477
40
0.158992035603127
40
0.175187974007777
40
0.191383912412427
40
0.207579850817077
40
0.215677820019403
40
0.223775789221728
40
0.231873758424053
40
0.239971727626378
40
0.248069696828703
40
0.256167666031028
40
0.264265635233353
40
0.272363604435678
40
0.280461573638003
40
0.288559542840328
40
0.296657512042653
40
0.304755481244979
40
0.312853450447304
40
0.320951419649629
40
0.329049388851954
40
0.337147358054279
40
0.345245327256604
40
0.353343296458929
40
0.369539234863579
40
0.385735173268229
40
0.393833142470555
40
0.40193111167288
40
0.410029080875205
40
0.41812705007753
40
0.426225019279855
40
0.43432298848218
40
0.442420957684505
40
0.45051892688683
40
0.46671486529148
40
0.482910803696131
40
0.491008772898456
40
0.499106742100781
40
0.507204711303106
40
0.515302680505431
40
0.523400649707756
40
0.531498618910081
40
0.539596588112406
40
0.547694557314731
40
0.563890495719382
40
0.580086434124032
40
0.588184403326357
40
0.596282372528682
40
0.604380341731007
40
0.612478310933332
40
0.620576280135657
40
0.628674249337982
40
0.636772218540307
40
0.644870187742632
40
0.661066126147283
40
0.677262064551933
40
0.685360033754258
40
0.693458002956583
40
0.701555972158908
40
0.709653941361233
40
0.717751910563558
40
0.725849879765883
40
0.733947848968209
40
0.742045818170534
40
0.750143787372859
40
0.758241756575184
40
0.766339725777509
40
0.774437694979834
40
0.782535664182159
40
0.790633633384484
40
0.798731602586809
40
0.806829571789134
40
0.814927540991459
40
0.823025510193784
40
0.83112347939611
40
0.839221448598435
40
0.855417387003085
40
0.86351535620541
40
0.871613325407735
40
0.87971129461006
40
0.887809263812385
40
0.904005202217036
40
0.920201140621686
40
0.936397079026336
40
0.952593017430986
40
0.960690986633311
40
0.968788955835636
40
0.976886925037961
40
0.984984894240286
40
0.993082863442611
40
1
40
1
40
1
40
1
41
1
10
-1.4950399779393
20
-2.34749772747685
30
0
41
1
10
-1.4950399779393
20
-2.35297422288201
30
0
41
1
10
-1.4950399779393
20
-2.37894311658403
30
0
41
1
10
-1.4950399779393
20
-2.44578140509637
30
0
41
1
10
-1.4950399779393
20
-2.54739957461444
30
0
41
1
10
-1.4950399779393
20
-2.66874292602245
30
0
41
1
10
-1.4950399779393
20
-2.78936021153859
30
0
41
1
10
-1.4950399779393
20
-2.90924160987004
30
0
41
1
10
-1.4950399779393
20
-3.02837828417549
30
0
41
1
10
-1.4950399779393
20
-3.14676167980997
30
0
41
1
10
-1.4950399779393
20
-3.2643857571382
30
0
41
1
10
-1.4950399779393
20
-3.38124473142446
30
0
41
1
10
-1.4950399779393
20
-3.4973327007406
30
0
41
1
10
-1.4950399779393
20
-3.61264412544148
30
0
41
1
10
-1.4950399779393
20
-3.72717407208265
30
0
41
1
10
-1.4950399779393
20
-3.84091862322862
30
0
41
1
10
-1.4950399779393
20
-3.95387458058386
30
0
41
1
10
-1.4950399779393
20
-4.06603800642878
30
0
41
1
10
-1.4950399779393
20
-4.17740500301781
30
0
41
1
10
-1.4950399779393
20
-4.28797249574384
30
0
41
1
10
-1.4950399779393
20
-4.43446210322787
30
0
41
1
10
-1.4950399779393
20
-4.61526986323273
30
0
41
1
10
-1.4950399779393
20
-4.82914716155648
30
0
41
1
10
-1.4950399779393
20
-5.03976742322499
30
0
41
1
10
-1.4950399779393
20
-5.21243879366801
30
0
41
1
10
-1.4950399779393
20
-5.34913288542151
30
0
41
1
10
-1.4950399779393
20
-5.4507477456186
30
0
41
1
10
-1.4950399779393
20
-5.55153561657562
30
0
41
1
10
-1.4950399779393
20
-5.65149504114433
30
0
41
1
10
-1.4950399779393
20
-5.75062380699094
30
0
41
1
10
-1.4950399779393
20
-5.84891995701895
30
0
41
1
10
-1.4950399779393
20
-5.9463816204476
30
0
41
1
10
-1.4950399779393
20
-6.0430064968013
30
0
41
1
10
-1.4950399779393
20
-6.13879286433351
30
0
41
1
10
-1.4950399779393
20
-6.23373849191756
30
0
41
1
10
-1.4950399779393
20
-6.32784120271069
30
0
41
1
10
-1.4950399779393
20
-6.42109916514164
30
0
41
1
10
-1.4950399779393
20
-6.5135100149694
30
0
41
1
10
-1.4950399779393
20
-6.60507157996005
30
0
41
1
10
-1.4950399779393
20
-6.69578175553812
30
0
41
1
10
-1.4950399779393
20
-6.78563788330885
30
0
41
1
10
-1.4950399779393
20
-6.87463786848124
30
0
41
1
10
-1.4950399779393
20
-6.99224343614395
30
0
41
1
10
-1.4950399779393
20
-7.13691288017824
30
0
41
1
10
-1.4950399779393
20
-7.27869561996113
30
0
41
1
10
-1.4950399779393
20
-7.39051932186584
30
0
41
1
10
-1.4950399779393
20
-7.47345537056427
30
0
41
1
10
-1.4950399779393
20
-7.5555140988842
30
0
41
1
10
-1.4950399779393
20
-7.63669274732661
30
0
41
1
10
-1.4950399779393
20
-7.71698851670988
30
0
41
1
10
-1.4950399779393
20
-7.79639781976607
30
0
41
1
10
-1.4950399779393
20
-7.87491786951264
30
0
41
1
10
-1.4950399779393
20
-7.97849120537592
30
0
41
1
10
-1.4950399779393
20
-8.10556186458783
30
0
41
1
10
-1.4950399779393
20
-8.22962444741844
30
0
41
1
10
-1.4950399779393
20
-8.327172542867
30
0
41
1
10
-1.4950399779393
20
-8.39937082766957
30
0
41
1
10
-1.4950399779393
20
-8.47065099138817
30
0
41
1
10
-1.4950399779393
20
-8.54100920456628
30
0
41
1
10
-1.4950399779393
20
-8.61044158988983
30
0
41
1
10
-1.4950399779393
20
-8.67894338472402
30
0
41
1
10
-1.4950399779393
20
-8.74651061840999
30
0
41
1
10
-1.4950399779393
20
-8.83540721332508
30
0
41
1
10
-1.4950399779393
20
-8.94403649561855
30
0
41
1
10
-1.4950399779393
20
-9.04949074686073
30
0
41
1
10
-1.4950399779393
20
-9.13202745573767
30
0
41
1
10
-1.4950399779393
20
-9.19292021412031
30
0
41
1
10
-1.4950399779393
20
-9.25283893648347
30
0
41
1
10
-1.4950399779393
20
-9.31177821550872
30
0
41
1
10
-1.4950399779393
20
-9.36973271501176
30
0
41
1
10
-1.4950399779393
20
-9.42669603797344
30
0
41
1
10
-1.4950399779393
20
-9.48266255671325
30
0
41
1
10
-1.4950399779393
20
-9.55599654096136
30
0
41
1
10
-1.4950399779393
20
-9.64502982606291
30
0
41
1
10
-1.4950399779393
20
-9.73065760658244
30
0
41
1
10
-1.4950399779393
20
-9.79716969120636
30
0
41
1
10
-1.4950399779393
20
-9.84597558117031
30
0
41
1
10
-1.4950399779393
20
-9.89373009862075
30
0
41
1
10
-1.4950399779393
20
-9.94042555998314
30
0
41
1
10
-1.4950399779393
20
-9.9860543664019
30
0
41
1
10
-1.4950399779393
20
-10.0306078864835
30
0
41
1
10
-1.4950399779393
20
-10.0740780611422
30
0
41
1
10
-1.4950399779393
20
-10.1164560590941
30
0
41
1
10
-1.4950399779393
20
-10.1577327882333
30
0
41
1
10
-1.4950399779393
20
-10.1978993278187
30
0
41
1
10
-1.4950399779393
20
-10.2369461506972
30
0
41
1
10
-1.4950399779393
20
-10.2748632577403
30
0
41
1
10
-1.4950399779393
20
-10.3116409871695
30
0
41
1
10
-1.4950399779393
20
-10.3472683849274
30
0
41
1
10
-1.4950399779393
20
-10.3817350419115
30
0
41
1
10
-1.4950399779393
20
-10.4150297473557
30
0
41
1
10
-1.4950399779393
20
-10.4471409666571
30
0
41
1
10
-1.4950399779393
20
-10.4780569204745
30
0
41
1
10
-1.4950399779393
20
-10.5077654424246
30
0
41
1
10
-1.4950399779393
20
-10.5457784712346
30
0
41
1
10
-1.4950399779393
20
-10.5812410164663
30
0
41
1
10
-1.4950399779393
20
-10.6142632847113
30
0
41
1
10
-1.4950399779393
20
-10.6377347714484
30
0
41
1
10
-1.4950399779393
20
-10.659915174236
30
0
41
1
10
-1.4950399779393
20
-10.6877698864739
30
0
41
1
10
-1.4950399779393
20
-10.719232045291
30
0
41
1
10
-1.4950399779393
20
-10.751585043016
30
0
41
1
10
-1.4950399779393
20
-10.7783612166035
30
0
41
1
10
-1.4950399779393
20
-10.7958810461951
30
0
41
1
10
-1.4950399779393
20
-10.8069598479051
30
0
41
1
10
-1.4950399779393
20
-10.8137591702554
30
0
41
1
10
-1.4950399779393
20
-10.8190319435411
30
0
41
1
10
-1.4950399779393
20
-10.8227533881918
30
0
41
1
10
-1.4950399779393
20
-10.8247928640446
30
0
41
1
10
-1.4950399779393
20
-10.8251975938162
30
0
41
1
10
-1.49503997793928
20
-10.8251856485047
30
0
0
SPLINE
5
E7
100
AcDbEntity
8
SK1
62
256
6
ByLayer
370
-1
48
1
60
0
100
AcDbSpline
70
4
71
3
72
114
73
110
40
0
40
0
40
0
40
0
40
0.0069476304976293
40
0.0150453510551146
40
0.0231430716125999
40
0.0312407921700852
40
0.0393385127275705
40
0.0474362332850558
40
0.0636316744000264
40
0.079827115514997
40
0.0960225566299676
40
0.112217997744938
40
0.120315718302424
40
0.128413438859909
40
0.136511159417394
40
0.144608879974879
40
0.16080432108985
40
0.168902041647335
40
0.176999762204821
40
0.185097482762306
40
0.193195203319791
40
0.201292923877276
40
0.209390644434762
40
0.217488364992247
40
0.225586085549732
40
0.233683806107218
40
0.241781526664703
40
0.249879247222188
40
0.257976967779674
40
0.266074688337159
40
0.274172408894644
40
0.282270129452129
40
0.290367850009615
40
0.2984655705671
40
0.306563291124585
40
0.314661011682071
40
0.322758732239556
40
0.338954173354527
40
0.355149614469497
40
0.363247335026982
40
0.371345055584468
40
0.379442776141953
40
0.387540496699438
40
0.395638217256924
40
0.403735937814409
40
0.411833658371894
40
0.41993137892938
40
0.43612682004435
40
0.452322261159321
40
0.460419981716806
40
0.468517702274291
40
0.476615422831777
40
0.484713143389262
40
0.492810863946747
40
0.500908584504233
40
0.509006305061718
40
0.517104025619203
40
0.533299466734174
40
0.549494907849144
40
0.55759262840663
40
0.565690348964115
40
0.5737880695216
40
0.581885790079086
40
0.589983510636571
40
0.598081231194056
40
0.606178951751542
40
0.614276672309027
40
0.630472113423997
40
0.646667554538968
40
0.654765275096453
40
0.662862995653939
40
0.670960716211424
40
0.679058436768909
40
0.687156157326394
40
0.69525387788388
40
0.703351598441365
40
0.71144931899885
40
0.719547039556336
40
0.727644760113821
40
0.735742480671306
40
0.743840201228791
40
0.751937921786277
40
0.760035642343762
40
0.768133362901247
40
0.776231083458733
40
0.784328804016218
40
0.792426524573703
40
0.808621965688674
40
0.824817406803645
40
0.841012847918615
40
0.857208289033586
40
0.873403730148556
40
0.881501450706042
40
0.889599171263527
40
0.897696891821012
40
0.905794612378498
40
0.913892332935983
40
0.921990053493468
40
0.930087774050953
40
0.938185494608439
40
0.946283215165924
40
0.954380935723409
40
0.962478656280895
40
0.97057637683838
40
0.978674097395865
40
0.986771817953351
40
0.994869538510836
40
0.998918398789578
40
1
40
1
40
1
40
1
41
1
10
-1.4950399779393
20
10.8251853681167
30
0
41
1
10
-1.4950399779393
20
10.8251991356917
30
0
41
1
10
-1.4950399779393
20
10.8247955076906
30
0
41
1
10
-1.4950399779393
20
10.8227534746688
30
0
41
1
10
-1.4950399779393
20
10.8190321898994
30
0
41
1
10
-1.4950399779393
20
10.8137595050794
30
0
41
1
10
-1.4950399779393
20
10.8069601105976
30
0
41
1
10
-1.4950399779393
20
10.7958810888031
30
0
41
1
10
-1.4950399779393
20
10.7783612085532
30
0
41
1
10
-1.4950399779393
20
10.7515850402438
30
0
41
1
10
-1.4950399779393
20
10.7192320300799
30
0
41
1
10
-1.4950399779393
20
10.6877698984218
30
0
41
1
10
-1.4950399779393
20
10.659915170864
30
0
41
1
10
-1.4950399779393
20
10.6377347570968
30
0
41
1
10
-1.4950399779393
20
10.6142632763632
30
0
41
1
10
-1.4950399779393
20
10.5812410280458
30
0
41
1
10
-1.4950399779393
20
10.5457784732404
30
0
41
1
10
-1.4950399779393
20
10.5077654352017
30
0
41
1
10
-1.4950399779393
20
10.4780569133
30
0
41
1
10
-1.4950399779393
20
10.4471409696622
30
0
41
1
10
-1.4950399779393
20
10.4150297588919
30
0
41
1
10
-1.4950399779393
20
10.3817350495075
30
0
41
1
10
-1.4950399779393
20
10.3472683821575
30
0
41
1
10
-1.4950399779393
20
10.3116409824532
30
0
41
1
10
-1.4950399779393
20
10.274863259213
30
0
41
1
10
-1.4950399779393
20
10.2369461598887
30
0
41
1
10
-1.4950399779393
20
10.1978993403383
30
0
41
1
10
-1.4950399779393
20
10.1577327948517
30
0
41
1
10
-1.4950399779393
20
10.1164560583904
30
0
41
1
10
-1.4950399779393
20
10.0740780611805
30
0
41
1
10
-1.4950399779393
20
10.0306078935895
30
0
41
1
10
-1.4950399779393
20
9.9860543789782
30
0
41
1
10
-1.4950399779393
20
9.94042557325719
30
0
41
1
10
-1.4950399779393
20
9.89373010726783
30
0
41
1
10
-1.4950399779393
20
9.84597558452433
30
0
41
1
10
-1.4950399779393
20
9.79716969618076
30
0
41
1
10
-1.4950399779393
20
9.73065761931014
30
0
41
1
10
-1.4950399779393
20
9.64502984201664
30
0
41
1
10
-1.4950399779393
20
9.55599654929009
30
0
41
1
10
-1.4950399779393
20
9.48266256563366
30
0
41
1
10
-1.4950399779393
20
9.42669605087167
30
0
41
1
10
-1.4950399779393
20
9.36973273113713
30
0
41
1
10
-1.4950399779393
20
9.31177823255615
30
0
41
1
10
-1.4950399779393
20
9.25283895193832
30
0
41
1
10
-1.4950399779393
20
9.19292022720256
30
0
41
1
10
-1.4950399779393
20
9.13202746880455
30
0
41
1
10
-1.4950399779393
20
9.04949076260129
30
0
41
1
10
-1.4950399779393
20
8.94403651531519
30
0
41
1
10
-1.4950399779393
20
8.83540723159925
30
0
41
1
10
-1.4950399779393
20
8.74651063563283
30
0
41
1
10
-1.4950399779393
20
8.67894340179043
30
0
41
1
10
-1.4950399779393
20
8.61044160824594
30
0
41
1
10
-1.4950399779393
20
8.5410092251428
30
0
41
1
10
-1.4950399779393
20
8.47065101373664
30
0
41
1
10
-1.4950399779393
20
8.39937085059915
30
0
41
1
10
-1.4950399779393
20
8.32717256436729
30
0
41
1
10
-1.4950399779393
20
8.22962446603972
30
0
41
1
10
-1.4950399779393
20
8.10556188703811
30
0
41
1
10
-1.4950399779393
20
7.97849123285059
30
0
41
1
10
-1.4950399779393
20
7.87491789553505
30
0
41
1
10
-1.4950399779393
20
7.79639784158888
30
0
41
1
10
-1.4950399779393
20
7.71698853718178
30
0
41
1
10
-1.4950399779393
20
7.63669277063221
30
0
41
1
10
-1.4950399779393
20
7.55551412703409
30
0
41
1
10
-1.4950399779393
20
7.47345540258758
30
0
41
1
10
-1.4950399779393
20
7.39051935158955
30
0
41
1
10
-1.4950399779393
20
7.27869564084133
30
0
41
1
10
-1.4950399779393
20
7.13691290674728
30
0
41
1
10
-1.4950399779393
20
6.99224347204341
30
0
41
1
10
-1.4950399779393
20
6.87463790137696
30
0
41
1
10
-1.4950399779393
20
6.78563790735643
30
0
41
1
10
-1.4950399779393
20
6.69578177753257
30
0
41
1
10
-1.4950399779393
20
6.60507160913491
30
0
41
1
10
-1.4950399779393
20
6.51351005185586
30
0
41
1
10
-1.4950399779393
20
6.42109920426941
30
0
41
1
10
-1.4950399779393
20
6.32784123546003
30
0
41
1
10
-1.4950399779393
20
6.23373851513244
30
0
41
1
10
-1.4950399779393
20
6.13879288798532
30
0
41
1
10
-1.4950399779393
20
6.04300653314334
30
0
41
1
10
-1.4950399779393
20
5.94638166396857
30
0
41
1
10
-1.4950399779393
20
5.84891999499698
30
0
41
1
10
-1.4950399779393
20
5.75062383535882
30
0
41
1
10
-1.4950399779393
20
5.65149506497363
30
0
41
1
10
-1.4950399779393
20
5.5515356485646
30
0
41
1
10
-1.4950399779393
20
5.45074779186143
30
0
41
1
10
-1.4950399779393
20
5.34913293126229
30
0
41
1
10
-1.4950399779393
20
5.21243881483207
30
0
41
1
10
-1.4950399779393
20
5.03976746321263
30
0
41
1
10
-1.4950399779393
20
4.82914721456726
30
0
41
1
10
-1.4950399779393
20
4.61526983908041
30
0
41
1
10
-1.4950399779393
20
4.39815363484092
30
0
41
1
10
-1.4950399779393
20
4.21466878117025
30
0
41
1
10
-1.4950399779393
20
4.06603787841615
30
0
41
1
10
-1.4950399779393
20
3.9538749194972
30
0
41
1
10
-1.4950399779393
20
3.84091905980895
30
0
41
1
10
-1.4950399779393
20
3.72717408116662
30
0
41
1
10
-1.4950399779393
20
3.61264394142361
30
0
41
1
10
-1.4950399779393
20
3.49733277811788
30
0
41
1
10
-1.4950399779393
20
3.38124503613648
30
0
41
1
10
-1.4950399779393
20
3.26438606521717
30
0
41
1
10
-1.4950399779393
20
3.1467617159237
30
0
41
1
10
-1.4950399779393
20
3.02837792756958
30
0
41
1
10
-1.4950399779393
20
2.90924142661461
30
0
41
1
10
-1.4950399779393
20
2.78936037077261
30
0
41
1
10
-1.4950399779393
20
2.66874317257182
30
0
41
1
10
-1.4950399779393
20
2.54739968477233
30
0
41
1
10
-1.4950399779393
20
2.44578144693816
30
0
41
1
10
-1.4950399779393
20
2.37894315632079
30
0
41
1
10
-1.4950399779393
20
2.35297427447952
30
0
41
1
10
-1.4950399779393
20
2.34749778874223
30
0
0
SPLINE
5
E8
100
AcDbEntity
8
SK1
62
256
6
ByLayer
370
-1
48
1
60
0
100
AcDbSpline
70
4
71
3
72
280
73
276
40
0
40
0
40
0
40
0
40
0.0015538589285789
40
0.0050640565626573
40
0.0085742541967357
40
0.012084451830814
40
0.0155946494648924
40
0.0191048470989707
40
0.022615044733049
40
0.0296354400012057
40
0.0366558352693624
40
0.0436762305375191
40
0.0506966258056757
40
0.0542068234397541
40
0.0577170210738324
40
0.0612272187079107
40
0.0647374163419891
40
0.0717578116101457
40
0.0752680092442241
40
0.0787782068783025
40
0.0822884045123808
40
0.0857986021464591
40
0.0893087997805375
40
0.0928189974146158
40
0.0963291950486942
40
0.0998393926827725
40
0.103349590316851
40
0.106859787950929
40
0.110369985585008
40
0.113880183219086
40
0.117390380853164
40
0.120900578487243
40
0.124410776121321
40
0.127920973755399
40
0.131431171389477
40
0.134941369023556
40
0.138451566657634
40
0.141961764291713
40
0.148982159559869
40
0.156002554828026
40
0.159512752462104
40
0.163022950096183
40
0.166533147730261
40
0.170043345364339
40
0.173553542998418
40
0.177063740632496
40
0.180573938266574
40
0.184084135900653
40
0.191104531168809
40
0.198124926436966
40
0.201635124071044
40
0.205145321705123
40
0.208655519339201
40
0.212165716973279
40
0.215675914607358
40
0.219186112241436
40
0.222696309875514
40
0.226206507509593
40
0.233226902777749
40
0.240247298045906
40
0.243757495679984
40
0.247267693314063
40
0.250777890948141
40
0.254288088582219
40
0.257798286216298
40
0.261308483850376
40
0.264818681484454
40
0.268328879118533
40
0.275349274386689
40
0.282369669654846
40
0.285879867288925
40
0.289390064923003
40
0.292900262557081
40
0.29641046019116
40
0.299920657825238
40
0.303430855459316
40
0.306941053093395
40
0.310451250727473
40
0.313961448361551
40
0.31747164599563
40
0.320981843629708
40
0.324492041263786
40
0.328002238897865
40
0.331512436531943
40
0.335022634166021
40
0.3385328318001
40
0.342043029434178
40
0.345553227068256
40
0.352573622336413
40
0.35959401760457
40
0.366614412872726
40
0.373634808140883
40
0.38065520340904
40
0.384165401043118
40
0.387675598677196
40
0.391185796311275
40
0.394695993945353
40
0.398206191579431
40
0.40171638921351
40
0.405226586847588
40
0.408736784481666
40
0.412246982115745
40
0.415757179749823
40
0.419267377383901
40
0.42277757501798
40
0.426287772652058
40
0.429797970286136
40
0.433308167920215
40
0.435063266737254
40
0.436818365554293
40
0.440328563188371
40
0.44383876082245
40
0.447348958456528
40
0.450859156090607
40
0.454369353724685
40
0.457879551358763
40
0.461389748992842
40
0.46489994662692
40
0.466655045443959
40
0.468410144260998
40
0.470165243078037
40
0.471920341895077
40
0.473675440712116
40
0.475430539529155
40
0.477185638346194
40
0.478940737163233
40
0.480695835980272
40
0.482450934797312
40
0.484206033614351
40
0.48596113243139
40
0.487716231248429
40
0.489471330065468
40
0.491226428882507
40
0.492981527699547
40
0.494736626516586
40
0.496491725333625
40
0.498246824150664
40
0.500001922967703
40
0.501757021784742
40
0.503512120601782
40
0.505267219418821
40
0.50702231823586
40
0.508777417052899
40
0.510532515869938
40
0.512287614686977
40
0.514042713504017
40
0.515797812321056
40
0.517552911138095
40
0.519308009955134
40
0.521063108772173
40
0.522818207589212
40
0.524573306406252
40
0.526328405223291
40
0.52808350404033
40
0.529838602857369
40
0.531593701674408
40
0.533348800491448
40
0.535103899308487
40
0.538614096942565
40
0.542124294576643
40
0.545634492210722
40
0.5491446898448
40
0.552654887478878
40
0.556165085112957
40
0.559675282747035
40
0.563185480381113
40
0.564940579198152
40
0.566695678015192
40
0.57020587564927
40
0.573716073283348
40
0.577226270917427
40
0.580736468551505
40
0.584246666185583
40
0.587756863819662
40
0.59126706145374
40
0.594777259087818
40
0.598287456721897
40
0.601797654355975
40
0.605307851990054
40
0.608818049624132
40
0.61232824725821
40
0.615838444892288
40
0.619348642526367
40
0.622858840160445
40
0.626369037794523
40
0.63338943306268
40
0.640409828330837
40
0.647430223598993
40
0.65445061886715
40
0.657960816501229
40
0.661471014135307
40
0.664981211769385
40
0.668491409403464
40
0.672001607037542
40
0.67551180467162
40
0.679022002305699
40
0.682532199939777
40
0.686042397573855
40
0.689552595207934
40
0.693062792842012
40
0.69657299047609
40
0.700083188110169
40
0.703593385744247
40
0.707103583378325
40
0.710613781012404
40
0.714123978646482
40
0.71763417628056
40
0.724654571548717
40
0.731674966816874
40
0.735185164450952
40
0.73869536208503
40
0.742205559719109
40
0.745715757353187
40
0.749225954987265
40
0.752736152621344
40
0.756246350255422
40
0.7597565478895
40
0.766776943157657
40
0.773797338425814
40
0.777307536059892
40
0.78081773369397
40
0.784327931328049
40
0.787838128962127
40
0.791348326596206
40
0.794858524230284
40
0.798368721864362
40
0.80187891949844
40
0.808899314766597
40
0.815919710034754
40
0.819429907668832
40
0.82294010530291
40
0.826450302936989
40
0.829960500571067
40
0.833470698205146
40
0.836980895839224
40
0.840491093473302
40
0.844001291107381
40
0.851021686375537
40
0.858042081643694
40
0.861552279277772
40
0.865062476911851
40
0.868572674545929
40
0.872082872180007
40
0.875593069814086
40
0.879103267448164
40
0.882613465082242
40
0.886123662716321
40
0.889633860350399
40
0.893144057984477
40
0.896654255618556
40
0.900164453252634
40
0.903674650886712
40
0.907184848520791
40
0.910695046154869
40
0.914205243788947
40
0.917715441423026
40
0.921225639057104
40
0.924735836691182
40
0.928246034325261
40
0.935266429593418
40
0.938776627227496
40
0.942286824861574
40
0.945797022495652
40
0.949307220129731
40
0.956327615397888
40
0.963348010666044
40
0.970368405934201
40
0.977388801202357
40
0.980898998836436
40
0.984409196470514
40
0.987919394104593
40
0.991429591738671
40
0.994939789372749
40
0.998449987006828
40
1
40
1
40
1
40
1
41
1
10
-19
20
10.0329562505533
30
0
41
1
10
-19
20
10.0330937726615
30
0
41
1
10
-19
20
10.0333795946911
30
0
41
1
10
-19
20
10.0329736292638
30
0
41
1
10
-19
20
10.0309830775664
30
0
41
1
10
-19
20
10.0275226633951
30
0
41
1
10
-19
20
10.0226134495803
30
0
41
1
10
-19
20
10.0162751664439
30
0
41
1
10
-19
20
10.0058875348545
30
0
41
1
10
-19
20
9.98956609173456
30
0
41
1
10
-19
20
9.9644877669829
30
0
41
1
10
-19
20
9.93413277211897
30
0
41
1
10
-19
20
9.90466617231215
30
0
41
1
10
-19
20
9.87835855867948
30
0
41
1
10
-19
20
9.85747766874042
30
0
41
1
10
-19
20
9.83536689762977
30
0
41
1
10
-19
20
9.80411797985391
30
0
41
1
10
-19
20
9.77091555985692
30
0
41
1
10
-19
20
9.73489077939223
30
0
41
1
10
-19
20
9.70682531106701
30
0
41
1
10
-19
20
9.67760483131215
30
0
41
1
10
-19
20
9.64724068471727
30
0
41
1
10
-19
20
9.6157434616903
30
0
41
1
10
-19
20
9.58312368489487
30
0
41
1
10
-19
20
9.54939200999823
30
0
41
1
10
-19
20
9.51455771866412
30
0
41
1
10
-19
20
9.47863119608741
30
0
41
1
10
-19
20
9.4416216418046
30
0
41
1
10
-19
20
9.40353806264943
30
0
41
1
10
-19
20
9.36438993231127
30
0
41
1
10
-19
20
9.32418544446557
30
0
41
1
10
-19
20
9.28293297227461
30
0
41
1
10
-19
20
9.24064144704931
30
0
41
1
10
-19
20
9.19731819280184
30
0
41
1
10
-19
20
9.1529716782799
30
0
41
1
10
-19
20
9.10760963710959
30
0
41
1
10
-19
20
9.06123902108874
30
0
41
1
10
-19
20
8.99782333228856
30
0
41
1
10
-19
20
8.91664200511912
30
0
41
1
10
-19
20
8.83220800680829
30
0
41
1
10
-19
20
8.76223827415896
30
0
41
1
10
-19
20
8.70900473105829
30
0
41
1
10
-19
20
8.65481733532434
30
0
41
1
10
-19
20
8.59968102157819
30
0
41
1
10
-19
20
8.5436026997406
30
0
41
1
10
-19
20
8.48658847771898
30
0
41
1
10
-19
20
8.42864308493384
30
0
41
1
10
-19
20
8.34984450729289
30
0
41
1
10
-19
20
8.24973849608213
30
0
41
1
10
-19
20
8.1466135609819
30
0
41
1
10
-19
20
8.06173284490114
30
0
41
1
10
-19
20
7.99742345663478
30
0
41
1
10
-19
20
7.93222591806958
30
0
41
1
10
-19
20
7.86614377003909
30
0
41
1
10
-19
20
7.79918272035923
30
0
41
1
10
-19
20
7.73134795661787
30
0
41
1
10
-19
20
7.66264290479879
30
0
41
1
10
-19
20
7.56952283231723
30
0
41
1
10
-19
20
7.45179046448189
30
0
41
1
10
-19
20
7.33122525294459
30
0
41
1
10
-19
20
7.23239719005699
30
0
41
1
10
-19
20
7.15772731741785
30
0
41
1
10
-19
20
7.08222314311982
30
0
41
1
10
-19
20
7.00588739266459
30
0
41
1
10
-19
20
6.92872517773969
30
0
41
1
10
-19
20
6.8507410999662
30
0
41
1
10
-19
20
6.77193793275302
30
0
41
1
10
-19
20
6.66535732677102
30
0
41
1
10
-19
20
6.5310781219363
30
0
41
1
10
-19
20
6.39412574741868
30
0
41
1
10
-19
20
6.28215784138942
30
0
41
1
10
-19
20
6.19773875078891
30
0
41
1
10
-19
20
6.11253406080701
30
0
41
1
10
-19
20
6.02654676803036
30
0
41
1
10
-19
20
5.93978186598008
30
0
41
1
10
-19
20
5.85224375649918
30
0
41
1
10
-19
20
5.76393600430757
30
0
41
1
10
-19
20
5.67486399066652
30
0
41
1
10
-19
20
5.58503142050256
30
0
41
1
10
-19
20
5.49444245957596
30
0
41
1
10
-19
20
5.40310280117828
30
0
41
1
10
-19
20
5.31101593014734
30
0
41
1
10
-19
20
5.2181872813623
30
0
41
1
10
-19
20
5.12462207475713
30
0
41
1
10
-19
20
5.03032492286113
30
0
41
1
10
-19
20
4.93530242964377
30
0
41
1
10
-19
20
4.83955802089457
30
0
41
1
10
-19
20
4.71034653885877
30
0
41
1
10
-19
20
4.54845950265877
30
0
41
1
10
-19
20
4.35063320532774
30
0
41
1
10
-19
20
4.15007820921215
30
0
41
1
10
-19
20
3.94685681236828
30
0
41
1
10
-19
20
3.77604855813308
30
0
41
1
10
-19
20
3.63679046418028
30
0
41
1
10
-19
20
3.53231619129491
30
0
41
1
10
-19
20
3.42723503898236
30
0
41
1
10
-19
20
3.32155992301486
30
0
41
1
10
-19
20
3.2153054606147
30
0
41
1
10
-19
20
3.10848576848568
30
0
41
1
10
-19
20
3.00111573414051
30
0
41
1
10
-19
20
2.89321317852722
30
0
41
1
10
-19
20
2.78479835655281
30
0
41
1
10
-19
20
2.67589021302877
30
0
41
1
10
-19
20
2.56650912624585
30
0
41
1
10
-19
20
2.45668069003122
30
0
41
1
10
-19
20
2.34643018241178
30
0
41
1
10
-19
20
2.23578586879043
30
0
41
1
10
-19
20
2.14381940674534
30
0
41
1
10
-19
20
2.06905901211775
30
0
41
1
10
-19
20
1.99420804195603
30
0
41
1
10
-19
20
1.90180866816084
30
0
41
1
10
-19
20
1.78992235940532
30
0
41
1
10
-19
20
1.67782006325021
30
0
41
1
10
-19
20
1.56555014993987
30
0
41
1
10
-19
20
1.45315823265884
30
0
41
1
10
-19
20
1.34069259518992
30
0
41
1
10
-19
20
1.22820431977141
30
0
41
1
10
-19
20
1.13522914745167
30
0
41
1
10
-19
20
1.05947688607969
30
0
41
1
10
-19
20
1.00330201206953
30
0
41
1
10
-19
20
0.947161044590956
30
0
41
1
10
-19
20
0.891055246744145
30
0
41
1
10
-19
20
0.834992891996194
30
0
41
1
10
-19
20
0.778974983835127
30
0
41
1
10
-19
20
0.723010172894845
30
0
41
1
10
-19
20
0.667096437512413
30
0
41
1
10
-19
20
0.611239537520476
30
0
41
1
10
-19
20
0.555438256952783
30
0
41
1
10
-19
20
0.499694285660439
30
0
41
1
10
-19
20
0.444005417542485
30
0
41
1
10
-19
20
0.388370253126254
30
0
41
1
10
-19
20
0.332784951295196
30
0
41
1
10
-19
20
0.27724537907406
30
0
41
1
10
-19
20
0.221745399560149
30
0
41
1
10
-19
20
0.166278832055241
30
0
41
1
10
-19
20
0.110837824934066
30
0
41
1
10
-19
20
0.0554145387399103
30
0
41
1
10
-19
20
3.86551449E-08
30
0
41
1
10
-19
20
-0.0554144797882259
30
0
41
1
10
-19
20
-0.110837800625205
30
0
41
1
10
-19
20
-0.166278804490219
30
0
41
1
10
-19
20
-0.221745320409724
30
0
41
1
10
-19
20
-0.277245288582179
30
0
41
1
10
-19
20
-0.332784928641019
30
0
41
1
10
-19
20
-0.388370257726166
30
0
41
1
10
-19
20
-0.444005340907694
30
0
41
1
10
-19
20
-0.499694162742941
30
0
41
1
10
-19
20
-0.555438223077687
30
0
41
1
10
-19
20
-0.611239573198077
30
0
41
1
10
-19
20
-0.667096387172222
30
0
41
1
10
-19
20
-0.72301002513845
30
0
41
1
10
-19
20
-0.778974908352097
30
0
41
1
10
-19
20
-0.834992934518169
30
0
41
1
10
-19
20
-0.891055249962079
30
0
41
1
10
-19
20
-0.947160931144765
30
0
41
1
10
-19
20
-1.00330186501549
30
0
41
1
10
-19
20
-1.05947685359391
30
0
41
1
10
-19
20
-1.13522919275331
30
0
41
1
10
-19
20
-1.22820420682382
30
0
41
1
10
-19
20
-1.34069255012383
30
0
41
1
10
-19
20
-1.45315824122116
30
0
41
1
10
-19
20
-1.56555001007138
30
0
41
1
10
-19
20
-1.67782007270242
30
0
41
1
10
-19
20
-1.78992235147862
30
0
41
1
10
-19
20
-1.90180851379787
30
0
41
1
10
-19
20
-1.99420801826724
30
0
41
1
10
-19
20
-2.0690590907827
30
0
41
1
10
-19
20
-2.14381939218558
30
0
41
1
10
-19
20
-2.23578548610092
30
0
41
1
10
-19
20
-2.34642921347091
30
0
41
1
10
-19
20
-2.45668047453484
30
0
41
1
10
-19
20
-2.56651081363336
30
0
41
1
10
-19
20
-2.67589173582562
30
0
41
1
10
-19
20
-2.7847976980388
30
0
41
1
10
-19
20
-2.89321157705834
30
0
41
1
10
-19
20
-3.00111464897742
30
0
41
1
10
-19
20
-3.1084861044454
30
0
41
1
10
-19
20
-3.21530671882519
30
0
41
1
10
-19
20
-3.32155966873089
30
0
41
1
10
-19
20
-3.42723310824633
30
0
41
1
10
-19
20
-3.53231555384821
30
0
41
1
10
-19
20
-3.63679192068699
30
0
41
1
10
-19
20
-3.74064752046888
30
0
41
1
10
-19
20
-3.84387328825898
30
0
41
1
10
-19
20
-3.98140477206883
30
0
41
1
10
-19
20
-4.15007840683617
30
0
41
1
10
-19
20
-4.35063308740936
30
0
41
1
10
-19
20
-4.548459494648
30
0
41
1
10
-19
20
-4.710346539319
30
0
41
1
10
-19
20
-4.83955792501368
30
0
41
1
10
-19
20
-4.93530236631196
30
0
41
1
10
-19
20
-5.03032492621836
30
0
41
1
10
-19
20
-5.1246220876952
30
0
41
1
10
-19
20
-5.21818725421468
30
0
41
1
10
-19
20
-5.3110158630366
30
0
41
1
10
-19
20
-5.40310273191946
30
0
41
1
10
-19
20
-5.494442439056
30
0
41
1
10
-19
20
-5.58503143754709
30
0
41
1
10
-19
20
-5.67486398126673
30
0
41
1
10
-19
20
-5.76393594987684
30
0
41
1
10
-19
20
-5.85224369296404
30
0
41
1
10
-19
20
-5.93978182754935
30
0
41
1
10
-19
20
-6.02654676214735
30
0
41
1
10
-19
20
-6.11253406622629
30
0
41
1
10
-19
20
-6.19773872711932
30
0
41
1
10
-19
20
-6.28215778589691
30
0
41
1
10
-19
20
-6.39412570491888
30
0
41
1
10
-19
20
-6.53107811386184
30
0
41
1
10
-19
20
-6.66535731095081
30
0
41
1
10
-19
20
-6.77193788641881
30
0
41
1
10
-19
20
-6.85074105917917
30
0
41
1
10
-19
20
-6.9287251573476
30
0
41
1
10
-19
20
-7.00588738465538
30
0
41
1
10
-19
20
-7.0822231340785
30
0
41
1
10
-19
20
-7.15772729389116
30
0
41
1
10
-19
20
-7.23239715387311
30
0
41
1
10
-19
20
-7.33122522366617
30
0
41
1
10
-19
20
-7.45179045110856
30
0
41
1
10
-19
20
-7.5695228179415
30
0
41
1
10
-19
20
-7.66264287890505
30
0
41
1
10
-19
20
-7.73134792995933
30
0
41
1
10
-19
20
-7.7991826988324
30
0
41
1
10
-19
20
-7.86614375440624
30
0
41
1
10
-19
20
-7.9322259062088
30
0
41
1
10
-19
20
-7.99742344377475
30
0
41
1
10
-19
20
-8.06173282830702
30
0
41
1
10
-19
20
-8.14661354012861
30
0
41
1
10
-19
20
-8.24973847707108
30
0
41
1
10
-19
20
-8.34984449752756
30
0
41
1
10
-19
20
-8.4286430769059
30
0
41
1
10
-19
20
-8.48658846431246
30
0
41
1
10
-19
20
-8.54360267942897
30
0
41
1
10
-19
20
-8.59968100131871
30
0
41
1
10
-19
20
-8.65481732154311
30
0
41
1
10
-19
20
-8.70900472624047
30
0
41
1
10
-19
20
-8.76223827352649
30
0
41
1
10
-19
20
-8.83220799572914
30
0
41
1
10
-19
20
-8.91664198437633
30
0
41
1
10
-19
20
-8.99782332638691
30
0
41
1
10
-19
20
-9.06123902658183
30
0
41
1
10
-19
20
-9.10760963443713
30
0
41
1
10
-19
20
-9.15297166047549
30
0
41
1
10
-19
20
-9.19731817256692
30
0
41
1
10
-19
20
-9.24064143684652
30
0
41
1
10
-19
20
-9.2829329762028
30
0
41
1
10
-19
20
-9.32418545496637
30
0
41
1
10
-19
20
-9.36438993128212
30
0
41
1
10
-19
20
-9.4035380444378
30
0
41
1
10
-19
20
-9.44162162340905
30
0
41
1
10
-19
20
-9.47863119327923
30
0
41
1
10
-19
20
-9.51455772901525
30
0
41
1
10
-19
20
-9.54939202150851
30
0
41
1
10
-19
20
-9.58312368103438
30
0
41
1
10
-19
20
-9.61574344204712
30
0
41
1
10
-19
20
-9.6472406728098
30
0
41
1
10
-19
20
-9.67760484023773
30
0
41
1
10
-19
20
-9.70682532727795
30
0
41
1
10
-19
20
-9.7348907843963
30
0
41
1
10
-19
20
-9.77091554851933
30
0
41
1
10
-19
20
-9.8041179711955
30
0
41
1
10
-19
20
-9.83536691785611
30
0
41
1
10
-19
20
-9.85747768285276
30
0
41
1
10
-19
20
-9.8783585513138
30
0
41
1
10
-19
20
-9.90466616212436
30
0
41
1
10
-19
20
-9.93413279070074
30
0
41
1
10
-19
20
-9.96448776920468
30
0
41
1
10
-19
20
-9.9895660930479
30
0
41
1
10
-19
20
-10.0058874490332
30
0
41
1
10
-19
20
-10.0162748640149
30
0
41
1
10
-19
20
-10.0226131177802
30
0
41
1
10
-19
20
-10.0275224425778
30
0
41
1
10
-19
20
-10.0309830121398
30
0
41
1
10
-19
20
-10.0329737078169
30
0
41
1
10
-19
20
-10.033379536575
30
0
41
1
10
-19
20
-10.0330943032851
30
0
41
1
10
-19
20
-10.0329573560131
30
0
0
SPLINE
5
E9
100
AcDbEntity
8
SK1
62
256
6
ByLayer
370
-1
48
1
60
0
100
AcDbSpline
70
4
71
3
72
87
73
83
40
0
40
0
40
0
40
0
40
0.020589517323733
40
0.0422092341815245
40
0.063828951039316
40
0.0746388094682117
40
0.0854486678971075
40
0.0962585263260032
40
0.107068384754899
40
0.117878243183795
40
0.128688101612691
40
0.139497960041586
40
0.150307818470482
40
0.161117676899378
40
0.171927535328274
40
0.182737393757169
40
0.193547252186065
40
0.204357110614961
40
0.215166969043856
40
0.225976827472752
40
0.236786685901648
40
0.247596544330544
40
0.258406402759439
40
0.280026119617231
40
0.301645836475023
40
0.312455694903918
40
0.323265553332814
40
0.33407541176171
40
0.344885270190605
40
0.355695128619501
40
0.366504987048397
40
0.377314845477293
40
0.388124703906188
40
0.40974442076398
40
0.431364137621771
40
0.442173996050667
40
0.452983854479563
40
0.463793712908459
40
0.474603571337354
40
0.48541342976625
40
0.496223288195146
40
0.507033146624042
40
0.517843005052937
40
0.539462721910729
40
0.56108243876852
40
0.571892297197416
40
0.582702155626312
40
0.593512014055208
40
0.604321872484103
40
0.615131730912999
40
0.625941589341895
40
0.636751447770791
40
0.647561306199686
40
0.669181023057478
40
0.690800739915269
40
0.701610598344165
40
0.712420456773061
40
0.723230315201957
40
0.734040173630852
40
0.744850032059748
40
0.755659890488644
40
0.76646974891754
40
0.777279607346435
40
0.788089465775331
40
0.798899324204227
40
0.809709182633123
40
0.820519041062018
40
0.831328899490914
40
0.84213875791981
40
0.852948616348706
40
0.863758474777601
40
0.874568333206497
40
0.885378191635393
40
0.896188050064289
40
0.906997908493184
40
0.928617625350976
40
0.939427483779872
40
0.950237342208767
40
0.961047200637663
40
0.971857059066559
40
0.99347677592435
40
1
40
1
40
1
40
1
41
1
10
-0.394976888875291
20
-4.64126630129056
30
0
41
1
10
-0.394976888875291
20
-4.70975933848587
30
0
41
1
10
-0.394976888875291
20
-4.84919883643008
30
0
41
1
10
-0.394976888875291
20
-5.05691306897958
30
0
41
1
10
-0.394976888875291
20
-5.2299607904209
30
0
41
1
10
-0.394976888875291
20
-5.36691601337117
30
0
41
1
10
-0.394976888875291
20
-5.46873573922787
30
0
41
1
10
-0.394976888875291
20
-5.56972480779478
30
0
41
1
10
-0.394976888875291
20
-5.66988183380954
30
0
41
1
10
-0.394976888875291
20
-5.76920475793781
30
0
41
1
10
-0.394976888875291
20
-5.8676917140148
30
0
41
1
10
-0.394976888875291
20
-5.96534094682289
30
0
41
1
10
-0.394976888875291
20
-6.06215026481468
30
0
41
1
10
-0.394976888875291
20
-6.15811800993771
30
0
41
1
10
-0.394976888875291
20
-6.25324207373163
30
0
41
1
10
-0.394976888875291
20
-6.34752034717769
30
0
41
1
10
-0.394976888875291
20
-6.44095106217856
30
0
41
1
10
-0.394976888875291
20
-6.53353195984096
30
0
41
1
10
-0.394976888875291
20
-6.62526091746003
30
0
41
1
10
-0.394976888875291
20
-6.7161359116314
30
0
41
1
10
-0.394976888875291
20
-6.80615436611964
30
0
41
1
10
-0.394976888875291
20
-6.89531421629039
30
0
41
1
10
-0.394976888875291
20
-7.01311652640493
30
0
41
1
10
-0.394976888875291
20
-7.15805527924184
30
0
41
1
10
-0.394976888875291
20
-7.30009987737762
30
0
41
1
10
-0.394976888875291
20
-7.41210655371302
30
0
41
1
10
-0.394976888875291
20
-7.49518683136168
30
0
41
1
10
-0.394976888875291
20
-7.57738775597255
30
0
41
1
10
-0.394976888875291
20
-7.65870656932981
30
0
41
1
10
-0.394976888875291
20
-7.73914053534185
30
0
41
1
10
-0.394976888875291
20
-7.81868611994122
30
0
41
1
10
-0.394976888875291
20
-7.89734053346649
30
0
41
1
10
-0.394976888875291
20
-8.00107946944797
30
0
41
1
10
-0.394976888875291
20
-8.12837715497497
30
0
41
1
10
-0.394976888875291
20
-8.25266064944725
30
0
41
1
10
-0.394976888875291
20
-8.35036327427801
30
0
41
1
10
-0.394976888875291
20
-8.42268346582151
30
0
41
1
10
-0.394976888875291
20
-8.49408386680085
30
0
41
1
10
-0.394976888875291
20
-8.56456063385824
30
0
41
1
10
-0.394976888875291
20
-8.63410993550619
30
0
41
1
10
-0.394976888875291
20
-8.70272704218718
30
0
41
1
10
-0.394976888875291
20
-8.77040796817133
30
0
41
1
10
-0.394976888875291
20
-8.85944470922473
30
0
41
1
10
-0.394976888875291
20
-8.96826608195681
30
0
41
1
10
-0.394976888875291
20
-9.07390697555735
30
0
41
1
10
-0.394976888875291
20
-9.156574137538
30
0
41
1
10
-0.394976888875291
20
-9.21756975316299
30
0
41
1
10
-0.394976888875291
20
-9.27758983691163
30
0
41
1
10
-0.394976888875291
20
-9.33662895751223
30
0
41
1
10
-0.394976888875291
20
-9.39468180573056
30
0
41
1
10
-0.394976888875291
20
-9.45174200258421
30
0
41
1
10
-0.394976888875291
20
-9.50780389645979
30
0
41
1
10
-0.394976888875291
20
-9.58125528659923
30
0
41
1
10
-0.394976888875291
20
-9.67044907777677
30
0
41
1
10
-0.394976888875291
20
-9.75623202994143
30
0
41
1
10
-0.394976888875291
20
-9.8228521720736
30
0
41
1
10
-0.394976888875291
20
-9.87174304842168
30
0
41
1
10
-0.394976888875291
20
-9.91958105894813
30
0
41
1
10
-0.394976888875291
20
-9.9663584938545
30
0
41
1
10
-0.394976888875291
20
-10.0120677589968
30
0
41
1
10
-0.394976888875291
20
-10.0567002175973
30
0
41
1
10
-0.394976888875291
20
-10.1002477853245
30
0
41
1
10
-0.394976888875291
20
-10.1427016347534
30
0
41
1
10
-0.394976888875291
20
-10.1840526482538
30
0
41
1
10
-0.394976888875291
20
-10.2242918789209
30
0
41
1
10
-0.394976888875291
20
-10.2634097977789
30
0
41
1
10
-0.394976888875291
20
-10.3013963717051
30
0
41
1
10
-0.394976888875291
20
-10.3382419231241
30
0
41
1
10
-0.394976888875291
20
-10.373935478284
30
0
41
1
10
-0.394976888875291
20
-10.4084665881748
30
0
41
1
10
-0.394976888875291
20
-10.4418240218233
30
0
41
1
10
-0.394976888875291
20
-10.4739962096758
30
0
41
1
10
-0.394976888875291
20
-10.5049713318295
30
0
41
1
10
-0.394976888875291
20
-10.5347371933948
30
0
41
1
10
-0.394976888875291
20
-10.5728196085917
30
0
41
1
10
-0.394976888875291
20
-10.6083610274959
30
0
41
1
10
-0.394976888875291
20
-10.6414451810514
30
0
41
1
10
-0.394976888875291
20
-10.664964154205
30
0
41
1
10
-0.394976888875291
20
-10.687189908093
30
0
41
1
10
-0.394976888875291
20
-10.7150986110188
30
0
41
1
10
-0.394976888875291
20
-10.7378232718197
30
0
41
1
10
-0.394976888875291
20
-10.752712173277
30
0
41
1
10
-0.394976888875291
20
-10.7560803012712
30
0
0
SPLINE
5
EA
100
AcDbEntity
8
SK1
62
256
6
ByLayer
370
-1
48
1
60
0
100
AcDbSpline
70
4
71
3
72
87
73
83
40
0
40
0
40
0
40
0
40
0.0065230984147094
40
0.0281428541582031
40
0.0389527320299499
40
0.0497626099016967
40
0.0605724877734435
40
0.0713823656451904
40
0.093002121388684
40
0.103811999260431
40
0.114621877132178
40
0.125431755003924
40
0.136241632875671
40
0.147051510747418
40
0.157861388619165
40
0.168671266490912
40
0.179481144362658
40
0.190291022234405
40
0.201100900106152
40
0.211910777977899
40
0.222720655849646
40
0.233530533721393
40
0.244340411593139
40
0.255150289464886
40
0.265960167336633
40
0.27677004520838
40
0.287579923080127
40
0.298389800951874
40
0.30919967882362
40
0.330819434567114
40
0.352439190310608
40
0.363249068182354
40
0.374058946054101
40
0.384868823925848
40
0.395678701797595
40
0.406488579669342
40
0.417298457541089
40
0.428108335412835
40
0.438918213284582
40
0.460537969028076
40
0.482157724771569
40
0.492967602643316
40
0.503777480515063
40
0.51458735838681
40
0.525397236258557
40
0.536207114130304
40
0.54701699200205
40
0.557826869873797
40
0.568636747745544
40
0.590256503489038
40
0.611876259232531
40
0.622686137104278
40
0.633496014976025
40
0.644305892847772
40
0.655115770719519
40
0.665925648591265
40
0.676735526463012
40
0.687545404334759
40
0.698355282206506
40
0.719975037949999
40
0.741594793693493
40
0.75240467156524
40
0.763214549436987
40
0.774024427308734
40
0.78483430518048
40
0.795644183052227
40
0.806454060923974
40
0.817263938795721
40
0.828073816667468
40
0.838883694539214
40
0.849693572410961
40
0.860503450282708
40
0.871313328154455
40
0.882123206026202
40
0.892933083897949
40
0.903742961769695
40
0.914552839641442
40
0.925362717513189
40
0.936172595384936
40
0.95779235112843
40
0.979412106871923
40
1
40
1
40
1
40
1
41
1
10
-0.394976888875277
20
10.7560800795309
30
0
41
1
10
-0.394976888875277
20
10.7527120189259
30
0
41
1
10
-0.394976888875291
20
10.7378231841424
30
0
41
1
10
-0.394976888875291
20
10.7150986230281
30
0
41
1
10
-0.394976888875291
20
10.6871899043463
30
0
41
1
10
-0.394976888875291
20
10.6649641398451
30
0
41
1
10
-0.394976888875291
20
10.6414451731179
30
0
41
1
10
-0.394976888875291
20
10.6083610391774
30
0
41
1
10
-0.394976888875291
20
10.5728196102718
30
0
41
1
10
-0.394976888875291
20
10.5347371860945
30
0
41
1
10
-0.394976888875291
20
10.5049713249704
30
0
41
1
10
-0.394976888875291
20
10.4739962130972
30
0
41
1
10
-0.394976888875291
20
10.4418240333465
30
0
41
1
10
-0.394976888875291
20
10.4084665953504
30
0
41
1
10
-0.394976888875291
20
10.3739354752827
30
0
41
1
10
-0.394976888875291
20
10.3382419186448
30
0
41
1
10
-0.394976888875291
20
10.3013963735904
30
0
41
1
10
-0.394976888875291
20
10.2634098071932
30
0
41
1
10
-0.394976888875291
20
10.2242918912355
30
0
41
1
10
-0.394976888875291
20
10.1840526544675
30
0
41
1
10
-0.394976888875291
20
10.1427016339893
30
0
41
1
10
-0.394976888875291
20
10.1002477857307
30
0
41
1
10
-0.394976888875291
20
10.0567002250884
30
0
41
1
10
-0.394976888875291
20
10.0120677716559
30
0
41
1
10
-0.394976888875291
20
9.96635850688563
30
0
41
1
10
-0.394976888875291
20
9.9195810672756
30
0
41
1
10
-0.394976888875291
20
9.87174305179948
30
0
41
1
10
-0.394976888875291
20
9.8228521774133
30
0
41
1
10
-0.394976888875291
20
9.75623204290733
30
0
41
1
10
-0.394976888875291
20
9.67044909356338
30
0
41
1
10
-0.394976888875291
20
9.58125529483195
30
0
41
1
10
-0.394976888875291
20
9.50780390566945
30
0
41
1
10
-0.394976888875291
20
9.45174201576441
30
0
41
1
10
-0.394976888875291
20
9.39468182193772
30
0
41
1
10
-0.394976888875291
20
9.33662897444754
30
0
41
1
10
-0.394976888875291
20
9.27758985219697
30
0
41
1
10
-0.394976888875291
20
9.21756976623391
30
0
41
1
10
-0.394976888875291
20
9.15657415078076
30
0
41
1
10
-0.394976888875291
20
9.07390699150645
30
0
41
1
10
-0.394976888875291
20
8.96826610167739
30
0
41
1
10
-0.394976888875291
20
8.85944472740889
30
0
41
1
10
-0.394976888875291
20
8.77040798541609
30
0
41
1
10
-0.394976888875291
20
8.70272705940039
30
0
41
1
10
-0.394976888875291
20
8.63410995408893
30
0
41
1
10
-0.394976888875291
20
8.56456065460728
30
0
41
1
10
-0.394976888875291
20
8.494083889178
30
0
41
1
10
-0.394976888875291
20
8.42268348862098
30
0
41
1
10
-0.394976888875291
20
8.35036329562493
30
0
41
1
10
-0.394976888875291
20
8.25266066821666
30
0
41
1
10
-0.394976888875291
20
8.12837717774204
30
0
41
1
10
-0.394976888875291
20
8.00107949685969
30
0
41
1
10
-0.394976888875291
20
7.89734055913431
30
0
41
1
10
-0.394976888875291
20
7.81868614170455
30
0
41
1
10
-0.394976888875291
20
7.73914055621265
30
0
41
1
10
-0.394976888875291
20
7.65870659316923
30
0
41
1
10
-0.394976888875291
20
7.57738778439318
30
0
41
1
10
-0.394976888875291
20
7.49518686307914
30
0
41
1
10
-0.394976888875291
20
7.41210658285704
30
0
41
1
10
-0.394976888875291
20
7.30009989843438
30
0
41
1
10
-0.394976888875291
20
7.15805530645628
30
0
41
1
10
-0.394976888875291
20
7.01311656207406
30
0
41
1
10
-0.394976888875291
20
6.89531424839751
30
0
41
1
10
-0.394976888875291
20
6.80615439018041
30
0
41
1
10
-0.394976888875291
20
6.71613593458255
30
0
41
1
10
-0.394976888875291
20
6.62526094744771
30
0
41
1
10
-0.394976888875291
20
6.5335319966735
30
0
41
1
10
-0.394976888875291
20
6.44095110045453
30
0
41
1
10
-0.394976888875291
20
6.34752037917039
30
0
41
1
10
-0.394976888875291
20
6.25324209742863
30
0
41
1
10
-0.394976888875291
20
6.15811803500972
30
0
41
1
10
-0.394976888875291
20
6.06215030170887
30
0
41
1
10
-0.394976888875291
20
5.96534098944565
30
0
41
1
10
-0.394976888875291
20
5.86769175097615
30
0
41
1
10
-0.394976888875291
20
5.76920478634827
30
0
41
1
10
-0.394976888875291
20
5.66988185892194
30
0
41
1
10
-0.394976888875291
20
5.56972484101726
30
0
41
1
10
-0.394976888875291
20
5.46873578487436
30
0
41
1
10
-0.394976888875291
20
5.36691605746566
30
0
41
1
10
-0.394976888875291
20
5.22996081233961
30
0
41
1
10
-0.394976888875291
20
5.05691311008314
30
0
41
1
10
-0.394976888875291
20
4.84920429303571
30
0
41
1
10
-0.394976888875291
20
4.70977032131108
30
0
41
1
10
-0.394976888875291
20
4.64126507959355
30
0
0
SPLINE
5
EB
100
AcDbEntity
8
SK1
62
256
6
ByLayer
370
-1
48
1
60
0
100
AcDbSpline
70
4
71
3
72
10
73
6
40
0
40
0
40
0
40
0
40
0.5
40
0.5
40
1
40
1
40
1
40
1
41
1
10
-1.7
20
2.34751178615284
30
0
41
1
10
-1.82829275010134
20
1.59849102282857
30
0
41
1
10
-1.92877517104071
20
0.802936952128817
30
0
41
1
10
-1.92836372452413
20
-0.80821608021509
30
0
41
1
10
-1.82832256560682
20
-1.59831678082259
30
0
41
1
10
-1.69999999999841
20
-2.347511681735
30
0
0
SPLINE
5
EC
100
AcDbEntity
8
1
62
256
6
ByLayer
370
-1
48
1
60
0
100
AcDbSpline
70
4
71
3
72
14
73
10
40
0
40
0
40
0
40
0
40
0.283482543589533
40
0.283482543589533
40
0.5698661649608
40
0.5698661649608
40
0.829080366665775
40
0.829080366665775
40
1
40
1
40
1
40
1
41
1
10
34.9420995744688
20
15.3560533483332
30
0
41
1
10
34.9588348959131
20
15.3270677410521
30
0
41
1
10
34.981205418982
20
15.3001201110893
30
0
41
1
10
35.034893275724
20
15.255341494886
30
0
41
1
10
35.0671722007693
20
15.2369610224576
30
0
41
1
10
35.1334520696267
20
15.2146829014161
30
0
41
1
10
35.1680192269566
20
15.2092976462582
30
0
41
1
10
35.2248531265584
20
15.2107078896384
30
0
41
1
10
35.2477459481684
20
15.2139621274225
30
0
41
1
10
35.2697649974562
20
15.2197963061583
30
0
0
SPLINE
5
ED
100
AcDbEntity
8
SK1
62
256
6
ByLayer
370
-1
48
1
60
0
100
AcDbSpline
70
4
71
3
72
30
73
26
40
0
40
0
40
0
40
0
40
0.360052108286739
40
0.360052108286739
40
0.414182795369029
40
0.414182795369029
40
0.441319094800672
40
0.441319094800672
40
0.451195262960072
40
0.451195262960072
40
0.461224946381245
40
0.461224946381245
40
0.467711236499062
40
0.467711236499062
40
0.474212016079713
40
0.474212016079713
40
0.482847947921514
40
0.482847947921514
40
0.498532582458581
40
0.498532582458581
40
0.552379769925851
40
0.552379769925851
40
0.810349417089643
40
0.810349417089643
40
1
40
1
40
1
40
1
41
1
10
-1.70000000000019
20
-2.3475116817483
30
0
41
1
10
-1.69943534817308
20
-2.21647118487891
30
0
41
1
10
-1.69844614237978
20
-2.08289239857018
30
0
41
1
10
-1.67656862366603
20
-1.93048811627656
30
0
41
1
10
-1.67316038985986
20
-1.91036346359695
30
0
41
1
10
-1.66561843849142
20
-1.88100938605297
30
0
41
1
10
-1.66268553859864
20
-1.87122075315878
30
0
41
1
10
-1.65724625767594
20
-1.85893849976404
30
0
41
1
10
-1.65562897748315
20
-1.85574110436585
30
0
41
1
10
-1.6519311451772
20
-1.84988105484797
30
0
41
1
10
-1.64979259662024
20
-1.84716009843925
30
0
41
1
10
-1.6458510847675
20
-1.84387231659994
30
0
41
1
10
-1.64415793169223
20
-1.84287333682909
30
0
41
1
10
-1.64073072295233
20
-1.84175513669575
30
0
41
1
10
-1.63895837579804
20
-1.84162628990126
30
0
41
1
10
-1.63503521616398
20
-1.84220716119697
30
0
41
1
10
-1.63288581659658
20
-1.84318624425814
30
0
41
1
10
-1.62734818582315
20
-1.84688091511674
30
0
41
1
10
-1.62421744742181
20
-1.85036268886339
30
0
41
1
10
-1.61177945546781
20
-1.86703561073952
30
0
41
1
10
-1.60483242201902
20
-1.8835838297675
30
0
41
1
10
-1.56808403778946
20
-1.97915260079586
30
0
41
1
10
-1.54998962063458
20
-2.0676165097141
30
0
41
1
10
-1.51860078034382
20
-2.21850563673004
30
0
41
1
10
-1.50648423368442
20
-2.28294377267119
30
0
41
1
10
-1.49503997793819
20
-2.34749772746747
30
0
0
SPLINE
5
EE
100
AcDbEntity
8
1
62
256
6
ByLayer
370
-1
48
1
60
0
100
AcDbSpline
70
4
71
3
72
14
73
10
40
0
40
0
40
0
40
0
40
0.283903408666432
40
0.283903408666432
40
0.570234175542287
40
0.570234175542287
40
0.829405958796941
40
0.829405958796941
40
1
40
1
40
1
40
1
41
1
10
36.0726524646319
20
17.6740741740129
30
0
41
1
10
36.0893307771089
20
17.7031497547276
30
0
41
1
10
36.1014022157076
20
17.7360862132346
30
0
41
1
10
36.1131167138047
20
17.8050587929166
30
0
41
1
10
36.1127723924873
20
17.8421977236268
30
0
41
1
10
36.0987028642324
20
17.9106824537551
30
0
41
1
10
36.0859783046909
20
17.9432654632297
30
0
41
1
10
36.0562080556704
20
17.9916434412377
30
0
41
1
10
36.0419165264771
20
18.0097634990562
30
0
41
1
10
36.0258400127666
20
18.0258400127666
30
0
0
SPLINE
5
EF
100
AcDbEntity
8
1
62
256
6
ByLayer
370
-1
48
1
60
0
100
AcDbSpline
70
4
71
3
72
18
73
14
40
0
40
0
40
0
40
0
40
0.212474276129477
40
0.212474276129477
40
0.386603898215953
40
0.386603898215953
40
0.562415227754639
40
0.562415227754639
40
0.715377877558412
40
0.715377877558412
40
0.918235557790063
40
0.918235557790063
40
1
40
1
40
1
40
1
41
1
10
33.6080985235829
20
16.0066768142019
30
0
41
1
10
33.643409844518
20
16.0682356297839
30
0
41
1
10
33.6702128647933
20
16.1374362896439
30
0
41
1
10
33.6974823436443
20
16.2710665771466
30
0
41
1
10
33.7019786558817
20
16.3356434701912
30
0
41
1
10
33.6921162936278
20
16.4650312946918
30
0
41
1
10
33.6772397270636
20
16.5317415672593
30
0
41
1
10
33.6332335657334
20
16.646789398333
30
0
41
1
10
33.6057647715998
20
16.6977909711934
30
0
41
1
10
33.5317295487063
20
16.8028953437349
30
0
41
1
10
33.4807732207353
20
16.8545487131298
30
0
41
1
10
33.4032519652493
20
16.912921473756
30
0
41
1
10
33.3799593828006
20
16.9282970286954
30
0
41
1
10
33.3560533483332
20
16.9420995744688
30
0
0
SPLINE
5
F0
100
AcDbEntity
8
SK1
62
256
6
ByLayer
370
-1
48
1
60
0
100
AcDbSpline
70
4
71
3
72
8
73
4
40
0
40
0
40
0
40
0
40
1
40
1
40
1
40
1
41
1
10
-1.49503997793941
20
-2.34749772747679
30
0
41
1
10
-1.43636647390603
20
-2.67845911204324
30
0
41
1
10
-1.37234124557347
20
-3.00091149187799
30
0
41
1
10
-1.30710678118653
20
-3.31403252781453
30
0
0
SPLINE
5
F1
100
AcDbEntity
8
SK1
62
256
6
ByLayer
370
-1
48
1
60
0
100
AcDbSpline
70
4
71
3
72
24
73
20
40
0
40
0
40
0
40
0
40
0.408376563842919
40
0.408376563842919
40
0.590835889028663
40
0.590835889028663
40
0.775086150017169
40
0.775086150017169
40
0.828531189558963
40
0.828531189558963
40
0.869657835859007
40
0.869657835859007
40
0.900601749045859
40
0.900601749045859
40
0.931618254112826
40
0.931618254112826
40
0.972400059148962
40
0.972400059148962
40
1
40
1
40
1
40
1
41
1
10
-1.30710678118653
20
3.31403271963518
30
0
41
1
10
-1.25598388032309
20
3.55942158652502
30
0
41
1
10
-1.19453871593758
20
3.79878086806582
30
0
41
1
10
-1.07463317102506
20
4.12991464169377
30
0
41
1
10
-1.03315372296909
20
4.23044470813102
30
0
41
1
10
-0.933421287209484
20
4.42439620445134
30
0
41
1
10
-0.87601216435813
20
4.52058411767737
30
0
41
1
10
-0.771196593353352
20
4.62470115719427
30
0
41
1
10
-0.744945905488407
20
4.64699527823979
30
0
41
1
10
-0.692659478740381
20
4.68003423159399
30
0
41
1
10
-0.667470836328533
20
4.69244795089361
30
0
41
1
10
-0.62024854956438
20
4.70666093811084
30
0
41
1
10
-0.598519884659027
20
4.71034447812073
30
0
41
1
10
-0.555414291762958
20
4.71130494933678
30
0
41
1
10
-0.533554485474482
20
4.70857045210869
30
0
41
1
10
-0.486310637142424
20
4.69632743776958
30
0
41
1
10
-0.461171363725498
20
4.68495700384938
30
0
41
1
10
-0.42312766746349
20
4.6623550622588
30
0
41
1
10
-0.408633205232604
20
4.65212577667924
30
0
41
1
10
-0.394976888875291
20
4.64126507959352
30
0
0
SPLINE
5
F2
100
AcDbEntity
8
1
62
256
6
ByLayer
370
-1
48
1
60
0
100
AcDbSpline
70
4
71
3
72
12
73
8
40
0
40
0
40
0
40
0
40
0.495924969245245
40
0.495924969245245
40
0.900362445240935
40
0.900362445240935
40
1
40
1
40
1
40
1
41
1
10
36.1769825068716
20
16.193778802762
30
0
41
1
10
36.1056392898788
20
16.1941971050736
30
0
41
1
10
36.031845486658
20
16.1833296327966
30
0
41
1
10
35.9018096195029
20
16.1409196572704
30
0
41
1
10
35.843429486445
20
16.1129324792115
30
0
41
1
10
35.7763253160935
20
16.0677351788034
30
0
41
1
10
35.7631556949357
20
16.0581739972885
30
0
41
1
10
35.7503145030742
20
16.0481297936075
30
0
0
SPLINE
5
F3
100
AcDbEntity
8
1
62
256
6
ByLayer
370
-1
48
1
60
0
100
AcDbSpline
70
4
71
3
72
16
73
12
40
0
40
0
40
0
40
0
40
0.0570946626180991
40
0.0570946626180991
40
0.280051745717067
40
0.280051745717067
40
0.505470715177357
40
0.505470715177357
40
0.745074291066713
40
0.745074291066713
40
1
40
1
40
1
40
1
41
1
10
33.2197963061583
20
17.2697649974562
30
0
41
1
10
33.2178386883179
20
17.2623766595828
30
0
41
1
10
33.2161699677938
20
17.2549043286785
30
0
41
1
10
33.209483948351
20
17.2182607420483
30
0
41
1
10
33.2086865501444
20
17.1880030548957
30
0
41
1
10
33.2159035563173
20
17.1297747446621
30
0
41
1
10
33.2240840431147
20
17.1010885384785
30
0
41
1
10
33.2483554372377
20
17.0472408808763
30
0
41
1
10
33.2651867053331
20
17.0217272939505
30
0
41
1
10
33.3055917657521
20
16.9767161978894
30
0
41
1
10
33.3299830933271
20
16.9571516688903
30
0
41
1
10
33.3560533483332
20
16.9420995744688
30
0
0
SPLINE
5
F4
100
AcDbEntity
8
1
62
256
6
ByLayer
370
-1
48
1
60
0
100
AcDbSpline
70
4
71
3
72
18
73
14
40
0
40
0
40
0
40
0
40
0.212474032872496
40
0.212474032872496
40
0.386603697879203
40
0.386603697879203
40
0.562415073202751
40
0.562415073202751
40
0.715377731647766
40
0.715377731647766
40
0.918235368779576
40
0.918235368779576
40
1
40
1
40
1
40
1
41
1
10
34.738651413746
20
18.3246976398816
30
0
41
1
10
34.7741358443185
20
18.2632385413757
30
0
41
1
10
34.8205022872866
20
18.2052965652727
30
0
41
1
10
34.9223419265181
20
18.1145808338622
30
0
41
1
10
34.9759178189024
20
18.0782487937065
30
0
41
1
10
35.0927449958011
20
18.0217696561498
30
0
41
1
10
35.1578986994002
20
18.0011160845679
30
0
41
1
10
35.2794814937825
20
17.9813632284678
30
0
41
1
10
35.3373795511277
20
17.9794895264906
30
0
41
1
10
35.4654519876088
20
17.9906963450713
30
0
41
1
10
35.5357140768727
20
18.0088031146557
30
0
41
1
10
35.6251326105774
20
18.0465027274936
30
0
41
1
10
35.6501293240358
20
18.058917238015
30
0
41
1
10
35.6740741740129
20
18.0726524646319
30
0
0
SPLINE
5
F5
100
AcDbEntity
8
1
62
256
6
ByLayer
370
-1
48
1
60
0
100
AcDbSpline
70
4
71
3
72
14
73
10
40
0
40
0
40
0
40
0
40
0.283482543589476
40
0.283482543589476
40
0.569866164960739
40
0.569866164960739
40
0.829080366665751
40
0.829080366665751
40
1
40
1
40
1
40
1
41
1
10
34.738651413746
20
18.3246976398816
30
0
41
1
10
34.7219160923017
20
18.3536832471627
30
0
41
1
10
34.6995455692328
20
18.3806308771255
30
0
41
1
10
34.6458577124908
20
18.4254094933287
30
0
41
1
10
34.6135787874455
20
18.4437899657572
30
0
41
1
10
34.5472989185882
20
18.4660680867986
30
0
41
1
10
34.5127317612583
20
18.4714533419565
30
0
41
1
10
34.4558978616564
20
18.4700430985764
30
0
41
1
10
34.4330050400464
20
18.4667888607923
30
0
41
1
10
34.4109859907586
20
18.4609546820565
30
0
0
SPLINE
5
F6
100
AcDbEntity
8
1
62
256
6
ByLayer
370
-1
48
1
60
0
100
AcDbSpline
70
4
71
3
72
16
73
12
40
0
40
0
40
0
40
0
40
0.0629997311900711
40
0.0629997311900711
40
0.285872777163727
40
0.285872777163727
40
0.511544652680463
40
0.511544652680463
40
0.751675359283784
40
0.751675359283784
40
1
40
1
40
1
40
1
41
1
10
33.6549109754482
20
15.6549109754481
30
0
41
1
10
33.6608705469298
20
15.6489514039664
30
0
41
1
10
33.6670956581277
20
15.6432437367714
30
0
41
1
10
33.6961998039405
20
15.6187893243159
30
0
41
1
10
33.7220629791369
20
15.6031192886885
30
0
41
1
10
33.7761951057379
20
15.5805338206897
30
0
41
1
10
33.8051700552295
20
15.5734214515337
30
0
41
1
10
33.8640071112759
20
15.5678124440119
30
0
41
1
10
33.8945408914246
20
15.5697949365171
30
0
41
1
10
33.9528836028517
20
15.5824347582821
30
0
41
1
10
33.9812269032065
20
15.5934999650103
30
0
41
1
10
34.0066768142019
20
15.6080985235829
30
0
0
SPLINE
5
F7
100
AcDbEntity
8
SK1
62
256
6
ByLayer
370
-1
48
1
60
0
100
AcDbSpline
70
4
71
3
72
26
73
22
40
0
40
0
40
0
40
0
40
0.445565443532363
40
0.445565443532363
40
0.655264383376964
40
0.655264383376964
40
0.828726256262898
40
0.828726256262898
40
0.876154197532178
40
0.876154197532178
40
0.905968249810069
40
0.905968249810069
40
0.926210751072041
40
0.926210751072041
40
0.943172178773616
40
0.943172178773616
40
0.960117844485506
40
0.960117844485506
40
0.984238026671506
40
0.984238026671506
40
1
40
1
40
1
40
1
41
1
10
-0.200000000000216
20
10.8830974324239
30
0
41
1
10
-0.200000000000216
20
10.8819710079772
30
0
41
1
10
-0.203329262474341
20
10.8768357974762
30
0
41
1
10
-0.220508256687154
20
10.8608398006147
30
0
41
1
10
-0.227841696150222
20
10.8544331912715
30
0
41
1
10
-0.248876399316813
20
10.839300022036
30
0
41
1
10
-0.260519040164908
20
10.831234386332
30
0
41
1
10
-0.287682580192112
20
10.8176098223726
30
0
41
1
10
-0.294422106503234
20
10.814425636351
30
0
41
1
10
-0.307975059129362
20
10.8087542809808
30
0
41
1
10
-0.313923536345712
20
10.8064124165897
30
0
41
1
10
-0.325470142016073
20
10.8023264062819
30
0
41
1
10
-0.330674635557642
20
10.8005996536701
30
0
41
1
10
-0.340874762381091
20
10.7975129873952
30
0
41
1
10
-0.345873303925472
20
10.7961109015917
30
0
41
1
10
-0.355778101184384
20
10.7935676582257
30
0
41
1
10
-0.360793362650213
20
10.7923975310653
30
0
41
1
10
-0.372226633464606
20
10.7899641210796
30
0
41
1
10
-0.378545586362165
20
10.7888184755389
30
0
41
1
10
-0.388035310313086
20
10.7873050473985
30
0
41
1
10
-0.391599313536332
20
10.7867953109233
30
0
41
1
10
-0.394976888893865
20
10.7863556111439
30
0
0
SPLINE
5
F8
100
AcDbEntity
8
1
62
256
6
ByLayer
370
-1
48
1
60
0
100
AcDbSpline
70
4
71
3
72
12
73
8
40
0
40
0
40
0
40
0
40
0.422118814263833
40
0.422118814263833
40
0.843213979141233
40
0.843213979141233
40
1
40
1
40
1
40
1
41
1
10
35.6326211946073
20
15.9304364851406
30
0
41
1
10
35.5907574841757
20
15.8769150757031
30
0
41
1
10
35.5572433531787
20
15.8171064449957
30
0
41
1
10
35.5102151304482
20
15.6963885423302
30
0
41
1
10
35.495840108771
20
15.63387329674
30
0
41
1
10
35.4878420289562
20
15.5495450266463
30
0
41
1
10
35.4868384883953
20
15.526571076297
30
0
41
1
10
35.4869721854527
20
15.5037684813432
30
0
0
SPLINE
5
F9
100
AcDbEntity
8
1
62
256
6
ByLayer
370
-1
48
1
60
0
100
AcDbSpline
70
4
71
3
72
16
73
12
40
0
40
0
40
0
40
0
40
0.0570946626181177
40
0.0570946626181177
40
0.280051745717102
40
0.280051745717102
40
0.505470715177405
40
0.505470715177405
40
0.745074291066763
40
0.745074291066763
40
1
40
1
40
1
40
1
41
1
10
36.4609546820565
20
16.4109859907586
30
0
41
1
10
36.4629122998969
20
16.418374328632
30
0
41
1
10
36.464581020421
20
16.4258466595363
30
0
41
1
10
36.4712670398637
20
16.4624902461665
30
0
41
1
10
36.4720644380704
20
16.492747933319
30
0
41
1
10
36.4648474318974
20
16.5509762435527
30
0
41
1
10
36.4566669451
20
16.5796624497363
30
0
41
1
10
36.4323955509771
20
16.6335101073384
30
0
41
1
10
36.4155642828817
20
16.6590236942642
30
0
41
1
10
36.3751592224627
20
16.7040347903254
30
0
41
1
10
36.3507678948877
20
16.7235993193244
30
0
41
1
10
36.3246976398816
20
16.7386514137459
30
0
0
SPLINE
5
FA
100
AcDbEntity
8
1
62
256
6
ByLayer
370
-1
48
1
60
0
100
AcDbSpline
70
4
71
3
72
12
73
8
40
0
40
0
40
0
40
0
40
0.422118813951667
40
0.422118813951667
40
0.843213978772288
40
0.843213978772288
40
1
40
1
40
1
40
1
41
1
10
34.0481297936076
20
17.7503145030742
30
0
41
1
10
34.0899935040083
20
17.8038359124721
30
0
41
1
10
34.1235076349869
20
17.8636445431304
30
0
41
1
10
34.1705358577244
20
17.9843624457384
30
0
41
1
10
34.1849108794144
20
18.0468776913198
30
0
41
1
10
34.1929089592539
20
18.1312059614605
30
0
41
1
10
34.1939124998198
20
18.1541799118642
30
0
41
1
10
34.1937788027621
20
18.1769825068715
30
0
0
SPLINE
5
FB
100
AcDbEntity
8
1
62
256
6
ByLayer
370
-1
48
1
60
0
100
AcDbSpline
70
4
71
3
72
16
73
12
40
0
40
0
40
0
40
0
40
0.0629997311900791
40
0.0629997311900791
40
0.285872777163742
40
0.285872777163742
40
0.511544652680481
40
0.511544652680481
40
0.751675359283809
40
0.751675359283809
40
1
40
1
40
1
40
1
41
1
10
36.0258400127666
20
18.0258400127666
30
0
41
1
10
36.0198804412849
20
18.0317995842483
30
0
41
1
10
36.013655330087
20
18.0375072514434
30
0
41
1
10
35.9845511842743
20
18.0619616638989
30
0
41
1
10
35.9586880090778
20
18.0776316995263
30
0
41
1
10
35.9045558824768
20
18.100217167525
30
0
41
1
10
35.8755809329853
20
18.1073295366811
30
0
41
1
10
35.8167438769389
20
18.1129385442029
30
0
41
1
10
35.7862100967902
20
18.1109560516977
30
0
41
1
10
35.7278673853631
20
18.0983162299326
30
0
41
1
10
35.6995240850083
20
18.0872510232044
30
0
41
1
10
35.6740741740129
20
18.0726524646319
30
0
0
SPLINE
5
FC
100
AcDbEntity
8
SK1
62
256
6
ByLayer
370
-1
48
1
60
0
100
AcDbSpline
70
4
71
3
72
32
73
28
40
0
40
0
40
0
40
0
40
0.356636599161906
40
0.356636599161906
40
0.43891852351592
40
0.43891852351592
40
0.466852578885802
40
0.466852578885802
40
0.491648863255271
40
0.491648863255271
40
0.509433307376993
40
0.509433307376993
40
0.517845551817556
40
0.517845551817556
40
0.524955946811716
40
0.524955946811716
40
0.532136299556503
40
0.532136299556503
40
0.539988715042862
40
0.539988715042862
40
0.553068472451522
40
0.553068472451522
40
0.592506287500258
40
0.592506287500258
40
0.765129517161187
40
0.765129517161187
40
1
40
1
40
1
40
1
41
1
10
-1.4950399779393
20
2.34749778874212
30
0
41
1
10
-1.51674926438412
20
2.22504168094253
30
0
41
1
10
-1.53965959796295
20
2.10198973938301
30
0
41
1
10
-1.57929452892496
20
1.95694389798328
30
0
41
1
10
-1.58728688913916
20
1.92997452960571
30
0
41
1
10
-1.60014685041297
20
1.89558884836046
30
0
41
1
10
-1.60360996173446
20
1.88701586088285
30
0
41
1
10
-1.61080217017806
20
1.87149615869794
30
0
41
1
10
-1.61445737042807
20
1.8644190972937
30
0
41
1
10
-1.62165915554128
20
1.85350876899568
30
0
41
1
10
-1.62497669273341
20
1.84923962381322
30
0
41
1
10
-1.63063349736491
20
1.84456798020818
30
0
41
1
10
-1.63260114583201
20
1.8433090630092
30
0
41
1
10
-1.63644881746124
20
1.84189791662214
30
0
41
1
10
-1.63833413896836
20
1.84160704031282
30
0
41
1
10
-1.6421074918232
20
1.84204241824955
30
0
41
1
10
-1.64404339960068
20
1.84279760818919
30
0
41
1
10
-1.64777693783728
20
1.84528412040601
30
0
41
1
10
-1.64960310807172
20
1.84711345963706
30
0
41
1
10
-1.65393228741361
20
1.85260771701388
30
0
41
1
10
-1.65619857548441
20
1.85674952744043
30
0
41
1
10
-1.6640326486616
20
1.87382005025418
30
0
41
1
10
-1.66775630870622
20
1.88824132138959
30
0
41
1
10
-1.68468176544543
20
1.96436510563876
30
0
41
1
10
-1.68890392552055
20
2.02849690055311
30
0
41
1
10
-1.69788177008901
20
2.17720019173632
30
0
41
1
10
-1.69963442185517
20
2.26267094142099
30
0
41
1
10
-1.69999999999999
20
2.34751178615272
30
0
0
SPLINE
5
FD
100
AcDbEntity
8
1
62
256
6
ByLayer
370
-1
48
1
60
0
100
AcDbSpline
70
4
71
3
72
18
73
14
40
0
40
0
40
0
40
0
40
0.212474032872483
40
0.212474032872483
40
0.386603697879206
40
0.386603697879206
40
0.562415073202763
40
0.562415073202763
40
0.715377731647782
40
0.715377731647782
40
0.918235368779597
40
0.918235368779597
40
1
40
1
40
1
40
1
41
1
10
34.9420995744688
20
15.3560533483332
30
0
41
1
10
34.9066151438963
20
15.4175124468391
30
0
41
1
10
34.8602487009282
20
15.4754544229421
30
0
41
1
10
34.7584090616968
20
15.5661701543526
30
0
41
1
10
34.7048331693124
20
15.6025021945083
30
0
41
1
10
34.5880059924136
20
15.6589813320649
30
0
41
1
10
34.5228522888146
20
15.6796349036469
30
0
41
1
10
34.4012694944322
20
15.6993877597469
30
0
41
1
10
34.3433714370871
20
15.7012614617242
30
0
41
1
10
34.215299000606
20
15.6900546431434
30
0
41
1
10
34.1450369113421
20
15.6719478735591
30
0
41
1
10
34.0556183776373
20
15.6342482607212
30
0
41
1
10
34.030621664179
20
15.6218337501998
30
0
41
1
10
34.0066768142019
20
15.6080985235829
30
0
0
SPLINE
5
FE
100
AcDbEntity
8
1
62
256
6
ByLayer
370
-1
48
1
60
0
100
AcDbSpline
70
4
71
3
72
12
73
8
40
0
40
0
40
0
40
0
40
0.495924969245302
40
0.495924969245302
40
0.900362445266758
40
0.900362445266758
40
1
40
1
40
1
40
1
41
1
10
33.5037684813432
20
17.4869721854527
30
0
41
1
10
33.575111698336
20
17.4865538831411
30
0
41
1
10
33.6489055015568
20
17.4974213554182
30
0
41
1
10
33.7789413687156
20
17.5398313309456
30
0
41
1
10
33.8373215017771
20
17.5678185090068
30
0
41
1
10
33.9044256721279
20
17.6130158094162
30
0
41
1
10
33.9175952932824
20
17.6225769909287
30
0
41
1
10
33.9304364851406
20
17.6326211946072
30
0
0
SPLINE
5
FF
100
AcDbEntity
8
1
62
256
6
ByLayer
370
-1
48
1
60
0
100
AcDbSpline
70
4
71
3
72
16
73
12
40
0
40
0
40
0
40
0
40
0.0621039197213028
40
0.0621039197213028
40
0.282872737560702
40
0.282872737560702
40
0.506396836331541
40
0.506396836331541
40
0.744229103370236
40
0.744229103370236
40
1
40
1
40
1
40
1
41
1
10
35.2697649974562
20
15.2197963061583
30
0
41
1
10
35.27787310653
20
15.2219446349497
30
0
41
1
10
35.2858975857232
20
15.2244457057561
30
0
41
1
10
35.3216322751596
20
15.237295612934
30
0
41
1
10
35.3481822404316
20
15.2517745431142
30
0
41
1
10
35.3949219478045
20
15.2872132207405
30
0
41
1
10
35.4156374155905
20
15.3086837959948
30
0
41
1
10
35.4500659452086
20
15.3567222932267
30
0
41
1
10
35.4637030244129
20
15.3841114906581
30
0
41
1
10
35.4824752820079
20
15.4420242903168
30
0
41
1
10
35.4871507195453
20
15.4733187416342
30
0
41
1
10
35.4869721854527
20
15.5037684813432
30
0
0
SPLINE
5
100
100
AcDbEntity
8
1
62
256
6
ByLayer
370
-1
48
1
60
0
100
AcDbSpline
70
4
71
3
72
14
73
10
40
0
40
0
40
0
40
0
40
0.282377988047947
40
0.282377988047947
40
0.567084253766336
40
0.567084253766336
40
0.824684854618533
40
0.824684854618533
40
1
40
1
40
1
40
1
41
1
10
33.5037684813433
20
17.4869721854527
30
0
41
1
10
33.4701523208056
20
17.4871692850265
30
0
41
1
10
33.4354488182041
20
17.4814215624196
30
0
41
1
10
33.3695079635688
20
17.4575254537704
30
0
41
1
10
33.3373003011454
20
17.4388457095895
30
0
41
1
10
33.2845836430395
20
17.3926616864474
30
0
41
1
10
33.2624958580859
20
17.3654219983885
30
0
41
1
10
33.2347456904834
20
17.3148008532474
30
0
41
1
10
33.2258355734497
20
17.2925580811404
30
0
41
1
10
33.2197963061583
20
17.2697649974562
30
0
0
SPLINE
5
101
100
AcDbEntity
8
SK1
62
256
6
ByLayer
370
-1
48
1
60
0
100
AcDbSpline
70
4
71
3
72
22
73
18
40
0
40
0
40
0
40
0
40
0.0245639900498755
40
0.0245639900498755
40
0.0496318308550454
40
0.0496318308550454
40
0.0663627728408016
40
0.0663627728408016
40
0.0830188311624026
40
0.0830188311624026
40
0.109502469153841
40
0.109502469153841
40
0.161041561866806
40
0.161041561866806
40
0.34045087796751
40
0.34045087796751
40
1
40
1
40
1
40
1
41
1
10
-0.394976888875291
20
4.64126507959352
30
0
41
1
10
-0.38970266587873
20
4.63707055620748
30
0
41
1
10
-0.383949309888493
20
4.63330757597581
30
0
41
1
10
-0.371341458593548
20
4.62763518822399
30
0
41
1
10
-0.364243722574742
20
4.62572404052057
30
0
41
1
10
-0.352099082312236
20
4.62547750923432
30
0
41
1
10
-0.347037112029582
20
4.62618835449879
30
0
41
1
10
-0.337425328060121
20
4.62914446237855
30
0
41
1
10
-0.332766275168396
20
4.63140037203357
30
0
41
1
10
-0.3217174123955
20
4.63845052899637
30
0
41
1
10
-0.315694741777278
20
4.64402202563343
30
0
41
1
10
-0.300170082835322
20
4.66154175044696
30
0
41
1
10
-0.292195743622628
20
4.67485779786532
30
0
41
1
10
-0.261919134875725
20
4.73474950476742
30
0
41
1
10
-0.249811404729869
20
4.78489851705862
30
0
41
1
10
-0.203345284675137
20
5.0129847254702
30
0
41
1
10
-0.20000000000006
20
5.19061666338965
30
0
41
1
10
-0.20000000000006
20
5.36201916428996
30
0
0
SPLINE
5
102
100
AcDbEntity
8
1
62
256
6
ByLayer
370
-1
48
1
60
0
100
AcDbSpline
70
4
71
3
72
16
73
12
40
0
40
0
40
0
40
0
40
0.0621039197212851
40
0.0621039197212851
40
0.2828727375607
40
0.2828727375607
40
0.506396836331542
40
0.506396836331542
40
0.744229103370222
40
0.744229103370222
40
1
40
1
40
1
40
1
41
1
10
34.4109859907586
20
18.4609546820565
30
0
41
1
10
34.4028778816849
20
18.4588063532651
30
0
41
1
10
34.3948534024916
20
18.4563052824587
30
0
41
1
10
34.3591187130552
20
18.4434553752807
30
0
41
1
10
34.3325687477832
20
18.4289764451006
30
0
41
1
10
34.2858290404103
20
18.3935377674742
30
0
41
1
10
34.2651135726243
20
18.37206719222
30
0
41
1
10
34.2306850430062
20
18.324028694988
30
0
41
1
10
34.2170479638019
20
18.2966394975566
30
0
41
1
10
34.1982757062069
20
18.238726697898
30
0
41
1
10
34.1936002686695
20
18.2074322465806
30
0
41
1
10
34.1937788027621
20
18.1769825068715
30
0
0
SPLINE
5
103
100
AcDbEntity
8
1
62
256
6
ByLayer
370
-1
48
1
60
0
100
AcDbSpline
70
4
71
3
72
14
73
10
40
0
40
0
40
0
40
0
40
0.283903408666444
40
0.283903408666444
40
0.570234175542292
40
0.570234175542292
40
0.829405958796938
40
0.829405958796938
40
1
40
1
40
1
40
1
41
1
10
33.6080985235829
20
16.0066768142019
30
0
41
1
10
33.5914202111059
20
15.9776012334872
30
0
41
1
10
33.5793487725072
20
15.9446647749802
30
0
41
1
10
33.5676342744101
20
15.8756921952982
30
0
41
1
10
33.5679785957275
20
15.8385532645879
30
0
41
1
10
33.5820481239824
20
15.7700685344597
30
0
41
1
10
33.5947726835239
20
15.7374855249851
30
0
41
1
10
33.6245429325444
20
15.689107546977
30
0
41
1
10
33.6388344617377
20
15.6709874891586
30
0
41
1
10
33.6549109754482
20
15.6549109754481
30
0
0
SPLINE
5
104
100
AcDbEntity
8
SK1
62
256
6
ByLayer
370
-1
48
1
60
0
100
AcDbSpline
70
4
71
3
72
26
73
22
40
0
40
0
40
0
40
0
40
0.445566590533867
40
0.445566590533867
40
0.655265017644429
40
0.655265017644429
40
0.828725510676232
40
0.828725510676232
40
0.876154403041356
40
0.876154403041356
40
0.905967808629008
40
0.905967808629008
40
0.926210487707145
40
0.926210487707145
40
0.943171934612362
40
0.943171934612362
40
0.960117618490364
40
0.960117618490364
40
0.984237918068801
40
0.984237918068801
40
1
40
1
40
1
40
1
41
1
10
-0.200000000000003
20
-5.3620191612489
30
0
41
1
10
-0.200000000000003
20
-5.24584624080083
30
0
41
1
10
-0.203329327154421
20
-5.12739325570544
30
0
41
1
10
-0.220508378527413
20
-4.95054302716966
30
0
41
1
10
-0.227841766328012
20
-4.89336484437209
30
0
41
1
10
-0.248876465876791
20
-4.78899542518664
30
0
41
1
10
-0.260519103089237
20
-4.74088977224739
30
0
41
1
10
-0.287682522661115
20
-4.68318824223033
30
0
41
1
10
-0.294422177085465
20
-4.67086770501695
30
0
41
1
10
-0.307975229842981
20
-4.65239528283644
30
0
41
1
10
-0.313923584320364
20
-4.64555604634515
30
0
41
1
10
-0.325470047439183
20
-4.63588471512031
30
0
41
1
10
-0.330674572834084
20
-4.63242356449325
30
0
41
1
10
-0.340874729766469
20
-4.62785000237457
30
0
41
1
10
-0.3458732646979
20
-4.62642720846634
30
0
41
1
10
-0.355778046324488
20
-4.62530065114441
30
0
41
1
10
-0.360793298356427
20
-4.62557634523813
30
0
41
1
10
-0.37222657292665
20
-4.62787080761487
30
0
41
1
10
-0.378545535867204
20
-4.63055709110699
30
0
41
1
10
-0.388035283948739
20
-4.6360822290674
30
0
41
1
10
-0.39159930045011
20
-4.63858016383932
30
0
41
1
10
-0.39497688888521
20
-4.64126630129033
30
0
0
SPLINE
5
105
100
AcDbEntity
8
SK1
62
256
6
ByLayer
370
-1
48
1
60
0
100
AcDbSpline
70
4
71
3
72
8
73
4
40
0
40
0
40
0
40
0
40
1
40
1
40
1
40
1
41
1
10
-1.30710678118655
20
3.31403271963521
30
0
41
1
10
-1.37234069530528
20
3.00091128094479
30
0
41
1
10
-1.43636641767525
20
2.67845918809309
30
0
41
1
10
-1.4950399779393
20
2.34749778874226
30
0
0
SPLINE
5
106
100
AcDbEntity
8
1
62
256
6
ByLayer
370
-1
48
1
60
0
100
AcDbSpline
70
4
71
3
72
14
73
10
40
0
40
0
40
0
40
0
40
0.282377988047958
40
0.282377988047958
40
0.567084253766351
40
0.567084253766351
40
0.824684854618541
40
0.824684854618541
40
1
40
1
40
1
40
1
41
1
10
36.1769825068715
20
16.1937788027621
30
0
41
1
10
36.2105986674092
20
16.1935817031883
30
0
41
1
10
36.2453021700107
20
16.1993294257952
30
0
41
1
10
36.311243024646
20
16.2232255344443
30
0
41
1
10
36.3434506870694
20
16.2419052786252
30
0
41
1
10
36.3961673451753
20
16.2880893017674
30
0
41
1
10
36.4182551301289
20
16.3153289898263
30
0
41
1
10
36.4460052977314
20
16.3659501349674
30
0
41
1
10
36.4549154147651
20
16.3881929070744
30
0
41
1
10
36.4609546820565
20
16.4109859907586
30
0
0
SPLINE
5
107
100
AcDbEntity
8
SK1
62
256
6
ByLayer
370
-1
48
1
60
0
100
AcDbSpline
70
4
71
3
72
22
73
18
40
0
40
0
40
0
40
0
40
0.0401187176479352
40
0.0401187176479352
40
0.0809205840693321
40
0.0809205840693321
40
0.110939215438291
40
0.110939215438291
40
0.140811855964671
40
0.140811855964671
40
0.18957721074261
40
0.18957721074261
40
0.310490649824216
40
0.310490649824216
40
0.734284037039096
40
0.734284037039096
40
1
40
1
40
1
40
1
41
1
10
-0.394976888875291
20
-4.64126630128334
30
0
41
1
10
-0.41485124075767
20
-4.65707202833818
30
0
41
1
10
-0.43657681469648
20
-4.67161770815903
30
0
41
1
10
-0.484344234972085
20
-4.69527225619453
30
0
41
1
10
-0.511179996443502
20
-4.70447803201566
30
0
41
1
10
-0.559630211893236
20
-4.71148455325257
30
0
41
1
10
-0.581226521051775
20
-4.71163748110686
30
0
41
1
10
-0.622738196979199
20
-4.70615885554017
30
0
41
1
10
-0.643113978930629
20
-4.7005544858514
30
0
41
1
10
-0.692838639904053
20
-4.68088286984391
30
0
41
1
10
-0.72076225993483
20
-4.66360961664179
30
0
41
1
10
-0.806980143907495
20
-4.59739735467713
30
0
41
1
10
-0.85411153067848
20
-4.53827797672739
30
0
41
1
10
-1.0376233151235
20
-4.26752717334409
30
0
41
1
10
-1.11969019773208
20
-4.02710662395185
30
0
41
1
10
-1.23587986907133
20
-3.63062538504175
30
0
41
1
10
-1.27383836253277
20
-3.47371869693896
30
0
41
1
10
-1.30710678118653
20
-3.3140325278145
30
0
0
SPLINE
5
108
100
AcDbEntity
8
1
62
256
6
ByLayer
370
-1
48
1
60
0
100
AcDbSpline
70
4
71
3
72
18
73
14
40
0
40
0
40
0
40
0
40
0.212474276129479
40
0.212474276129479
40
0.386603898215957
40
0.386603898215957
40
0.562415227754638
40
0.562415227754638
40
0.715377877558403
40
0.715377877558403
40
0.918235557790062
40
0.918235557790062
40
1
40
1
40
1
40
1
41
1
10
36.0726524646319
20
17.6740741740129
30
0
41
1
10
36.0373411436967
20
17.6125153584309
30
0
41
1
10
36.0105381234215
20
17.5433146985709
30
0
41
1
10
35.9832686445705
20
17.4096844110682
30
0
41
1
10
35.9787723323331
20
17.3451075180236
30
0
41
1
10
35.988634694587
20
17.2157196935229
30
0
41
1
10
36.0035112611512
20
17.1490094209555
30
0
41
1
10
36.0475174224813
20
17.0339615898817
30
0
41
1
10
36.074986216615
20
16.9829600170214
30
0
41
1
10
36.1490214395085
20
16.8778556444798
30
0
41
1
10
36.1999777674795
20
16.8262022750849
30
0
41
1
10
36.2774990229655
20
16.7678295144588
30
0
41
1
10
36.3007916054143
20
16.7524539595194
30
0
41
1
10
36.3246976398816
20
16.7386514137459
30
0
0
INSERT
5
13C
100
AcDbEntity
8
2
62
256
6
ByLayer
370
-1
48
1
60
0
100
AcDbBlockReference
2
DimnDraft3D11
10
0
20
0
30
0
41
1
42
1
43
1
50
0
210
0
220
0
230
1
0
LINE
5
4F
100
AcDbEntity
8
1
62
256
6
ByLayer
370
-1
48
1
60
0
100
AcDbLine
10
0.3
20
16
30
0
11
0
21
15.7
31
0
39
0
210
0
220
0
230
1
0
LINE
5
51
100
AcDbEntity
8
1
62
256
6
ByLayer
370
-1
48
1
60
0
100
AcDbLine
10
0
20
-15.7
30
0
11
0.3
21
-16
31
0
39
0
210
0
220
0
230
1
0
LINE
5
52
100
AcDbEntity
8
1
62
256
6
ByLayer
370
-1
48
1
60
0
100
AcDbLine
10
0.3
20
-16
30
0
11
15.920792
21
-16
31
0
39
0
210
0
220
0
230
1
0
LINE
5
53
100
AcDbEntity
8
1
62
256
6
ByLayer
370
-1
48
1
60
0
100
AcDbLine
10
15.920792
20
16
30
0
11
0.3
21
16
31
0
39
0
210
0
220
0
230
1
0
LINE
5
54
100
AcDbEntity
8
1
62
256
6
ByLayer
370
-1
48
1
60
0
100
AcDbLine
10
16.001177
20
-16.3
30
0
11
16.734702
21
-16.3
31
0
39
0
210
0
220
0
230
1
0
LINE
5
55
100
AcDbEntity
8
1
62
256
6
ByLayer
370
-1
48
1
60
0
100
AcDbLine
10
16.024801
20
16.388166
30
0
11
15.920792
21
16
31
0
39
0
210
0
220
0
230
1
0
LINE
5
56
100
AcDbEntity
8
1
62
256
6
ByLayer
370
-1
48
1
60
0
100
AcDbLine
10
15.920792
20
-16
30
0
11
16.001177
21
-16.3
31
0
39
0
210
0
220
0
230
1
0
LINE
5
57
100
AcDbEntity
8
4
62
256
6
ByLayer
370
-1
48
0.05
60
0
100
AcDbLine
10
0
20
0
30
0
11
40
21
0
31
0
39
0
210
0
220
0
230
1
0
LINE
5
59
100
AcDbEntity
8
SK4
62
256
6
ByLayer
370
-1
48
0.05
60
0
100
AcDbLine
10
-24
20
0
30
0
11
40
21
0
31
0
39
0
210
0
220
0
230
1
0
LINE
5
5B
100
AcDbEntity
8
81
62
256
6
ByLayer
370
-1
48
1
60
0
100
AcDbLine
10
40
20
22
30
0
11
50
21
22
31
0
39
0
210
0
220
0
230
1
0
LINE
5
5C
100
AcDbEntity
8
80
62
256
6
ByLayer
370
-1
48
1
60
0
100
AcDbLine
10
0
20
0
30
0
11
-5
21
0
31
0
39
0
210
0
220
0
230
1
0
LINE
5
5D
100
AcDbEntity
8
1
62
256
6
ByLayer
370
-1
48
1
60
0
100
AcDbLine
10
24.495466
20
13.608834
30
0
11
25.626837
21
14.740205
31
0
39
0
210
0
220
0
230
1
0
LINE
5
5E
100
AcDbEntity
8
1
62
256
6
ByLayer
370
-1
48
1
60
0
100
AcDbLine
10
31.630999
20
10.806399
30
0
11
31.609496
21
11.040414
31
0
39
0
210
0
220
0
230
1
0
LINE
5
5F
100
AcDbEntity
8
1
62
256
6
ByLayer
370
-1
48
1
60
0
100
AcDbLine
10
31.853007
20
10.826799
30
0
11
31.831504
21
11.060813
31
0
39
0
210
0
220
0
230
1
0
LINE
5
60
100
AcDbEntity
8
1
62
256
6
ByLayer
370
-1
48
1
60
0
100
AcDbLine
10
20.155308
20
15.045348
30
0
11
23.229811
21
14.177828
31
0
39
0
210
0
220
0
230
1
0
LINE
5
61
100
AcDbEntity
8
1
62
256
6
ByLayer
370
-1
48
1
60
0
100
AcDbLine
10
7.076795
20
-4.755463
30
0
11
4.923205
21
-4.755463
31
0
39
0
210
0
220
0
230
1
0
LINE
5
62
100
AcDbEntity
8
1
62
256
6
ByLayer
370
-1
48
1
60
0
100
AcDbLine
10
0.3
20
-16
30
0
11
0.3
21
16
31
0
39
0
210
0
220
0
230
1
0
LINE
5
63
100
AcDbEntity
8
1
62
256
6
ByLayer
370
-1
48
1
60
0
100
AcDbLine
10
4.923205
20
4.755463
30
0
11
4.923205
21
15.276962
31
0
39
0
210
0
220
0
230
1
0
LINE
5
64
100
AcDbEntity
8
1
62
256
6
ByLayer
370
-1
48
1
60
0
100
AcDbLine
10
32.531557
20
1.563175
30
0
11
30.358986
21
-0.893581
31
0
39
0
210
0
220
0
230
1
0
LINE
5
65
100
AcDbEntity
8
1
62
256
6
ByLayer
370
-1
48
1
60
0
100
AcDbLine
10
37.83273
20
7.557772
30
0
11
38.252711
21
12.358175
31
0
39
0
210
0
220
0
230
1
0
LINE
5
66
100
AcDbEntity
8
1
62
256
6
ByLayer
370
-1
48
1
60
0
100
AcDbLine
10
31.718011
20
5.346413
30
0
11
33.281363
21
5.005926
31
0
39
0
210
0
220
0
230
1
0
LINE
5
67
100
AcDbEntity
8
1
62
256
6
ByLayer
370
-1
48
1
60
0
100
AcDbLine
10
4.923205
20
4.755463
30
0
11
7.076795
21
4.755463
31
0
39
0
210
0
220
0
230
1
0
LINE
5
68
100
AcDbEntity
8
1
62
256
6
ByLayer
370
-1
48
1
60
0
100
AcDbLine
10
30.3581
20
20.252704
30
0
11
21.06349
21
19.439531
31
0
39
0
210
0
220
0
230
1
0
LINE
5
69
100
AcDbEntity
8
1
62
256
6
ByLayer
370
-1
48
1
60
0
100
AcDbLine
10
24.233095
20
15.55721
30
0
11
18.243122
21
17.247376
31
0
39
0
210
0
220
0
230
1
0
LINE
5
6A
100
AcDbEntity
8
1
62
256
6
ByLayer
370
-1
48
1
60
0
100
AcDbLine
10
7.336603
20
5.068619
30
0
11
7.336603
21
15.175938
31
0
39
0
210
0
220
0
230
1
0
LINE
5
6B
100
AcDbEntity
8
1
62
256
6
ByLayer
370
-1
48
1
60
0
100
AcDbLine
10
16.024801
20
16.210836
30
0
11
16.024801
21
15.343712
31
0
39
0
210
0
220
0
230
1
0
LINE
5
6C
100
AcDbEntity
8
1
62
256
6
ByLayer
370
-1
48
1
60
0
100
AcDbLine
10
7.076795
20
-15.276962
30
0
11
7.076795
21
-4.755463
31
0
39
0
210
0
220
0
230
1
0
LINE
5
6D
100
AcDbEntity
8
1
62
256
6
ByLayer
370
-1
48
1
60
0
100
AcDbLine
10
4.923205
20
-15.276962
30
0
11
7.076795
21
-15.276962
31
0
39
0
210
0
220
0
230
1
0
LINE
5
6E
100
AcDbEntity
8
1
62
256
6
ByLayer
370
-1
48
1
60
0
100
AcDbLine
10
32.531557
20
1.563175
30
0
11
37.83273
21
7.557772
31
0
39
0
210
0
220
0
230
1
0
LINE
5
6F
100
AcDbEntity
8
1
62
256
6
ByLayer
370
-1
48
1
60
0
100
AcDbLine
10
19
20
-11.375761
30
0
11
19
21
9.747197
31
0
39
0
210
0
220
0
230
1
0
LINE
5
70
100
AcDbEntity
8
1
62
256
6
ByLayer
370
-1
48
1
60
0
100
AcDbLine
10
15
20
-3.213409
30
0
11
15
21
3.213409
31
0
39
0
210
0
220
0
230
1
0
LINE
5
71
100
AcDbEntity
8
1
62
256
6
ByLayer
370
-1
48
1
60
0
100
AcDbLine
10
4.663397
20
-15.175938
30
0
11
4.663397
21
-5.068619
31
0
39
0
210
0
220
0
230
1
0
LINE
5
72
100
AcDbEntity
8
1
62
256
6
ByLayer
370
-1
48
1
60
0
100
AcDbLine
10
32.531557
20
1.563175
30
0
11
33.281363
21
5.005926
31
0
39
0
210
0
220
0
230
1
0
LINE
5
73
100
AcDbEntity
8
1
62
256
6
ByLayer
370
-1
48
1
60
0
100
AcDbLine
10
15.920792
20
16
30
0
11
15.920792
21
9.156584
31
0
39
0
210
0
220
0
230
1
0
LINE
5
74
100
AcDbEntity
8
1
62
256
6
ByLayer
370
-1
48
1
60
0
100
AcDbLine
10
23.229811
20
14.177828
30
0
11
23.798595
21
14.017337
31
0
39
0
210
0
220
0
230
1
0
LINE
5
75
100
AcDbEntity
8
1
62
256
6
ByLayer
370
-1
48
1
60
0
100
AcDbLine
10
4.923205
20
-15.276962
30
0
11
4.923205
21
-4.755463
31
0
39
0
210
0
220
0
230
1
0
LINE
5
76
100
AcDbEntity
8
1
62
256
6
ByLayer
370
-1
48
1
60
0
100
AcDbLine
10
16.014575
20
10.378275
30
0
11
16.014575
21
15.045348
31
0
39
0
210
0
220
0
230
1
0
LINE
5
77
100
AcDbEntity
8
1
62
256
6
ByLayer
370
-1
48
1
60
0
100
AcDbLine
10
4.663397
20
5.068619
30
0
11
4.663397
21
15.175938
31
0
39
0
210
0
220
0
230
1
0
LINE
5
78
100
AcDbEntity
8
1
62
256
6
ByLayer
370
-1
48
1
60
0
100
AcDbLine
10
0
20
-15.7
30
0
11
0
21
15.7
31
0
39
0
210
0
220
0
230
1
0
LINE
5
79
100
AcDbEntity
8
1
62
256
6
ByLayer
370
-1
48
1
60
0
100
AcDbLine
10
7.336603
20
-15.175938
30
0
11
7.336603
21
-5.068619
31
0
39
0
210
0
220
0
230
1
0
LINE
5
7A
100
AcDbEntity
8
1
62
256
6
ByLayer
370
-1
48
1
60
0
100
AcDbLine
10
21.089331
20
-11.375761
30
0
11
30.021927
21
-1.27473
31
0
39
0
210
0
220
0
230
1
0
LINE
5
7B
100
AcDbEntity
8
1
62
256
6
ByLayer
370
-1
48
1
60
0
100
AcDbLine
10
31.831504
20
11.060813
30
0
11
31.609496
21
11.040414
31
0
39
0
210
0
220
0
230
1
0
LINE
5
7C
100
AcDbEntity
8
1
62
256
6
ByLayer
370
-1
48
1
60
0
100
AcDbLine
10
24.495466
20
13.608834
30
0
11
31.28603
21
6.81827
31
0
39
0
210
0
220
0
230
1
0
LINE
5
7D
100
AcDbEntity
8
1
62
256
6
ByLayer
370
-1
48
1
60
0
100
AcDbLine
10
32.417401
20
7.949641
30
0
11
29.183521
21
11.183521
31
0
39
0
210
0
220
0
230
1
0
LINE
5
7E
100
AcDbEntity
8
1
62
256
6
ByLayer
370
-1
48
1
60
0
100
AcDbLine
10
31.28603
20
6.81827
30
0
11
32.417401
21
7.949641
31
0
39
0
210
0
220
0
230
1
0
LINE
5
7F
100
AcDbEntity
8
1
62
256
6
ByLayer
370
-1
48
1
60
0
100
AcDbLine
10
31.853007
20
10.826799
30
0
11
31.630999
21
10.806399
31
0
39
0
210
0
220
0
230
1
0
LINE
5
80
100
AcDbEntity
8
1
62
256
6
ByLayer
370
-1
48
1
60
0
100
AcDbLine
10
16.024801
20
16.388166
30
0
11
16.024801
21
16.380674
31
0
39
0
210
0
220
0
230
1
0
LINE
5
81
100
AcDbEntity
8
1
62
256
6
ByLayer
370
-1
48
1
60
0
100
AcDbLine
10
15.920792
20
-16
30
0
11
15.920792
21
-9.156584
31
0
39
0
210
0
220
0
230
1
0
LINE
5
82
100
AcDbEntity
8
1
62
256
6
ByLayer
370
-1
48
1
60
0
100
AcDbLine
10
30.358986
20
-0.893581
30
0
11
30.021927
21
-1.27473
31
0
39
0
210
0
220
0
230
1
0
LINE
5
83
100
AcDbEntity
8
1
62
256
6
ByLayer
370
-1
48
1
60
0
100
AcDbLine
10
23.798595
20
14.017337
30
0
11
24.233095
21
15.55721
31
0
39
0
210
0
220
0
230
1
0
LINE
5
84
100
AcDbEntity
8
1
62
256
6
ByLayer
370
-1
48
1
60
0
100
AcDbLine
10
21.089331
20
-11.375761
30
0
11
19
21
-11.375761
31
0
39
0
210
0
220
0
230
1
0
LINE
5
85
100
AcDbEntity
8
1
62
256
6
ByLayer
370
-1
48
1
60
0
100
AcDbLine
10
7.076795
20
4.755463
30
0
11
7.076795
21
15.276962
31
0
39
0
210
0
220
0
230
1
0
LINE
5
86
100
AcDbEntity
8
1
62
256
6
ByLayer
370
-1
48
1
60
0
100
AcDbLine
10
16.001177
20
-16.3
30
0
11
16.001177
21
-9.797435
31
0
39
0
210
0
220
0
230
1
0
LINE
5
87
100
AcDbEntity
8
1
62
256
6
ByLayer
370
-1
48
1
60
0
100
AcDbLine
10
19
20
9.747197
30
0
11
30.021927
21
-1.27473
31
0
39
0
210
0
220
0
230
1
0
LINE
5
88
100
AcDbEntity
8
1
62
256
6
ByLayer
370
-1
48
1
60
0
100
AcDbLine
10
20.155308
20
15.045348
30
0
11
16.014575
21
15.045348
31
0
39
0
210
0
220
0
230
1
0
LINE
5
89
100
AcDbEntity
8
1
62
256
6
ByLayer
370
-1
48
1
60
0
100
AcDbLine
10
16.956153
20
15.94804
30
0
11
20.155308
21
15.045348
31
0
39
0
210
0
220
0
230
1
0
LINE
5
8A
100
AcDbEntity
8
1
62
256
6
ByLayer
370
-1
48
1
60
0
100
AcDbLine
10
31.718011
20
5.346413
30
0
11
30.358986
21
-0.893581
31
0
39
0
210
0
220
0
230
1
0
LINE
5
8B
100
AcDbEntity
8
1
62
256
6
ByLayer
370
-1
48
1
60
0
100
AcDbLine
10
21.089331
20
-11.375761
30
0
11
16.734702
21
-16.3
31
0
39
0
210
0
220
0
230
1
0
LINE
5
8C
100
AcDbEntity
8
1
62
256
6
ByLayer
370
-1
48
1
60
0
100
AcDbLine
10
7.076795
20
15.276962
30
0
11
4.923205
21
15.276962
31
0
39
0
210
0
220
0
230
1
0
LINE
5
8D
100
AcDbEntity
8
1
62
256
6
ByLayer
370
-1
48
1
60
0
100
AcDbLine
10
29.183521
20
11.183521
30
0
11
25.626837
21
14.740205
31
0
39
0
210
0
220
0
230
1
0
LINE
5
8E
100
AcDbEntity
8
SK1
62
256
6
ByLayer
370
-1
48
1
60
0
100
AcDbLine
10
-0.2
20
5.362019
30
0
11
-0.2
21
10.883485
31
0
39
0
210
0
220
0
230
1
0
LINE
5
90
100
AcDbEntity
8
SK1
62
256
6
ByLayer
370
-1
48
1
60
0
100
AcDbLine
10
-0.2
20
-10.883485
30
0
11
-0.2
21
-5.362019
31
0
39
0
210
0
220
0
230
1
0
LINE
5
91
100
AcDbEntity
8
1
62
256
6
ByLayer
370
-1
48
1
60
0
100
AcDbLine
10
30.543978
20
11.683797
30
0
11
38.57275
21
12.386224
31
0
39
0
210
0
220
0
230
1
0
LINE
5
92
100
AcDbEntity
8
SK1
62
256
6
ByLayer
370
-1
48
1
60
0
100
AcDbLine
10
-1.307107
20
-3.314033
30
0
11
-1.307107
21
3.314033
31
0
39
0
210
0
220
0
230
1
0
LINE
5
93
100
AcDbEntity
8
1
62
256
6
ByLayer
370
-1
48
1
60
0
100
AcDbLine
10
39.294527
20
13.108001
30
0
11
39.996954
21
21.136773
31
0
39
0
210
0
220
0
230
1
0
LINE
5
94
100
AcDbEntity
8
1
62
256
6
ByLayer
370
-1
48
1
60
0
100
AcDbLine
10
30.386224
20
20.57275
30
0
11
29.683797
21
12.543978
31
0
39
0
210
0
220
0
230
1
0
LINE
5
95
100
AcDbEntity
8
1
62
256
6
ByLayer
370
-1
48
1
60
0
100
AcDbLine
10
39.136773
20
21.996954
30
0
11
31.108001
21
21.294527
31
0
39
0
210
0
220
0
230
1
0
MTEXT
5
109
100
AcDbEntity
8
SK6
62
256
6
ByLayer
370
-1
48
1
60
0
100
AcDbMText
10
5.272008
20
-28.463937
30
0
210
0
220
0
230
1
1
\W00.758;\fsimplex.shx,bigfont.shx;C3-SCLCR-22040-09HPA 
40
3.5
41
0
44
1.084337
50
0
71
7
72
5
7
DEFAULT
0
DIMENSION
5
14A
100
AcDbEntity
8
2
62
256
6
ByLayer
370
-3
48
1
60
0
100
AcDbDimension
2
DimnDraft3D2
10
25.635478
20
20.815743
30
0
11
24.880369
21
27.285741
31
0
70
34
71
5
72
1
41
1
210
0
220
0
230
1
3
Standard
100
AcDb2LineAngularDimension
13
40
23
24
33
0
14
40
24
36.491868
34
0
15
36.148486
25
21.735512
35
0
16
27.525716
26
33.503052
36
0
40
0
0
DIMENSION
5
15F
100
AcDbEntity
8
SK2
62
256
6
ByLayer
370
-3
48
1
60
0
100
AcDbDimension
2
DimnDraft3D3
10
-28.75
20
16
30
0
11
-28.75
21
-4.784211
31
0
70
32
71
5
72
1
41
1
210
0
220
0
230
1
3
Standard
100
AcDbAlignedDimension
13
-2
23
-16
33
0
14
-2
24
16
34
0
50
90
100
AcDbRotatedDimension
1001
ACAD
1000
DSTYLE
1002
{
1070
    74
1070
     0
1070
   279
1070
     0
1070
   172
1070
     1
1070
   173
1070
     1
1070
   340
1005
10A
1070
    77
1070
     1
1070
    73
1070
     0
1070
   171
1070
     3
1070
   274
1070
     4
1070
   177
1070
     2
1070
   176
1070
     2
1070
   178
1070
     7
1070
    78
1070
     8
1070
    41
1041
3.175
1070
   147
1041
2.25
1070
    42
1041
2.0
1070
    44
1041
2.0
1070
   140
1041
4.5
1070
   343
1005
14B
1070
   344
1005
14B
1002
}
0
DIMENSION
5
16D
100
AcDbEntity
8
2
62
256
6
ByLayer
370
-3
48
1
60
0
100
AcDbDimension
2
DimnDraft3D4
10
67.25
20
22
30
0
11
67.25
21
8.371053
31
0
70
32
71
5
72
1
41
1
210
0
220
0
230
1
3
Standard
100
AcDbAlignedDimension
13
42
23
0
33
0
14
42
24
22
34
0
50
90
100
AcDbRotatedDimension
1001
ACAD
1000
DSTYLE
1002
{
1070
    74
1070
     0
1070
   279
1070
     0
1070
   172
1070
     1
1070
   173
1070
     1
1070
   340
1005
10A
1070
    77
1070
     1
1070
    73
1070
     0
1070
   171
1070
     3
1070
   274
1070
     4
1070
   177
1070
     2
1070
   176
1070
     2
1070
   178
1070
     7
1070
    78
1070
     8
1070
    41
1041
3.175
1070
   147
1041
2.25
1070
    42
1041
2.0
1070
    44
1041
2.0
1070
   140
1041
4.5
1070
   343
1005
14B
1070
   344
1005
14B
1002
}
0
ENDSEC
0
SECTION
2
OBJECTS
0
DICTIONARY
5
19e
330
0
100
AcDbDictionary
280
0
281
1
3
ACAD_GROUP
350
19f
3
ACAD_MLINESTYLE
350
1a0
0
DICTIONARY
5
19f
330
0
100
AcDbDictionary
280
0
281
1
0
DICTIONARY
5
1a0
330
0
100
AcDbDictionary
280
0
281
1
3
Standard
350
18
0
MLINESTYLE
5
18
330
1a0
100
AcDbMlineStyle
2
Standard
70
0
3

62
256
51
90
52
90
71
2
49
-0.5
62
256
6
ByLayer
49
0.5
62
256
6
ByLayer
0
RASTERVARIABLES
5
18c
330

100
AcDbRasterVariables
90
0
70
1
71
1
72
1
0
ENDSEC
0
EOF
