0
SECTION
2
HEADER
9
$ACADVER
1
AC1015
9
$DWGCODEPAGE
3
ANSI_1252
9
$HANDSEED
5
1e7
9
$ANGBASE
50
0
9
$ANGDIR
70
0
9
$ATTMODE
70
1
9
$AUNITS
70
0
9
$AUPREC
70
0
9
$CECOLOR
62
256
9
$CELTSCALE
40
1
9
$CELTYPE
6
ByLayer
9
$CELWEIGHT
370
-1
9
$CLAYER
8
0
9
$CMLJUST
70
0
9
$CMLSCALE
40
1
9
$CMLSTYLE
2
Standard
9
$DIMSTYLE
2
Standard
9
$TEXTSIZE
40
0.2
9
$TEXTSTYLE
7
Standard
9
$LUNITS
70
2
9
$LUPREC
70
4
9
$EXTNAMES
290
1
9
$INSUNITS
70
4
9
$LTSCALE
40
1
9
$LWDISPLAY
290
0
9
$PDMODE
70
0
9
$PDSIZE
40
0
9
$PLINEGEN
70
0
0
ENDSEC
0
SECTION
2
CLASSES
0
CLASS
1
RASTERVARIABLES
2
AcDbRasterVariables
3
ISM
90
0
280
0
281
0
0
ENDSEC
0
SECTION
2
TABLES
0
TABLE
2
VPORT
5
1dd
100
AcDbSymbolTable
0
VPORT
5
1
100
AcDbSymbolTableRecord
100
AcDbViewportTableRecord
2
*Active
70
0
10
0
20
0
11
1
21
1
12
-1
22
1
13
0
23
0
14
0.5
24
0.5
15
10
25
10
16
0
26
0
36
1
17
0
27
0
37
0
0
ENDTAB
0
TABLE
2
LTYPE
5
1de
100
AcDbSymbolTable
0
LTYPE
5
14
100
AcDbSymbolTableRecord
100
AcDbLinetypeTableRecord
70
0
2
ByBlock
3

72
65
73
0
40
0
0
LTYPE
5
15
100
AcDbSymbolTableRecord
100
AcDbLinetypeTableRecord
70
0
2
ByLayer
3

72
65
73
0
40
0
0
LTYPE
5
16
100
AcDbSymbolTableRecord
100
AcDbLinetypeTableRecord
70
0
2
CONTINUOUS
3
Solid line
72
65
73
0
40
0
0
LTYPE
5
3B
100
AcDbSymbolTableRecord
100
AcDbLinetypeTableRecord
70
0
2
DASHED
3
__ __ __ __ __ __ __ __ __
72
65
73
2
40
25.72
49
12.86
74
0
49
-12.86
74
0
0
LTYPE
5
3C
100
AcDbSymbolTableRecord
100
AcDbLinetypeTableRecord
70
0
2
HIDDEN
3
_ _ _ _ _ _ _ _ _ _ _ _ _ _ _
72
65
73
2
40
0.5
49
0.25
74
0
49
-0.25
74
0
0
LTYPE
5
3D
100
AcDbSymbolTableRecord
100
AcDbLinetypeTableRecord
70
0
2
PHANTOM
3
____ _ _ ____ _ _ _____ _ _ ____
72
65
73
6
40
50.5
49
18
74
0
49
-6.5
74
0
49
6.5
74
0
49
-6.5
74
0
49
6.5
74
0
49
-6.5
74
0
0
LTYPE
5
3E
100
AcDbSymbolTableRecord
100
AcDbLinetypeTableRecord
70
0
2
CENTER
3
____ _ ____ _ ____ _ ____
72
65
73
4
40
47.5
49
22
74
0
49
-8.5
74
0
49
8.5
74
0
49
-8.5
74
0
0
LTYPE
5
3F
100
AcDbSymbolTableRecord
100
AcDbLinetypeTableRecord
70
0
2
DOT
3
.........................
72
65
73
2
40
10
49
0
74
0
49
-10
74
0
0
LTYPE
5
40
100
AcDbSymbolTableRecord
100
AcDbLinetypeTableRecord
70
0
2
DASHDOT
3
_._._._._._._._._._._._._._._._.
72
65
73
4
40
70
49
31
74
0
49
-13
74
0
49
13
74
0
49
-13
74
0
0
ENDTAB
0
TABLE
2
LAYER
5
1df
100
AcDbSymbolTable
0
LAYER
5
10
100
AcDbSymbolTableRecord
100
AcDbLayerTableRecord
2
0
70
0
62
7
6
CONTINUOUS
290
1
370
-3
390
0
0
LAYER
5
42
100
AcDbSymbolTableRecord
100
AcDbLayerTableRecord
2
80
70
0
62
-6
6
CONTINUOUS
290
1
370
-3
390
0
0
LAYER
5
44
100
AcDbSymbolTableRecord
100
AcDbLayerTableRecord
2
81
70
0
62
-3
6
CONTINUOUS
290
1
370
-3
390
0
0
LAYER
5
46
100
AcDbSymbolTableRecord
100
AcDbLayerTableRecord
2
2
70
0
62
7
6
CONTINUOUS
290
1
370
-3
390
0
0
LAYER
5
48
100
AcDbSymbolTableRecord
100
AcDbLayerTableRecord
2
1
70
0
62
4
6
CONTINUOUS
290
1
370
-3
390
0
0
LAYER
5
57
100
AcDbSymbolTableRecord
100
AcDbLayerTableRecord
2
4
70
0
62
-2
6
CENTER
290
1
370
-3
390
0
0
LAYER
5
1c9
100
AcDbSymbolTableRecord
100
AcDbLayerTableRecord
2
SK4
70
0
62
2
6
CENTER
290
1
370
-3
390
0
0
LAYER
5
1ca
100
AcDbSymbolTableRecord
100
AcDbLayerTableRecord
2
SK1
70
0
62
4
6
CONTINUOUS
290
1
370
-3
390
0
0
LAYER
5
1cb
100
AcDbSymbolTableRecord
100
AcDbLayerTableRecord
2
SK6
70
0
62
5
6
CONTINUOUS
290
1
370
-3
390
0
0
LAYER
5
1cc
100
AcDbSymbolTableRecord
100
AcDbLayerTableRecord
2
SK2
70
0
62
7
6
CONTINUOUS
290
1
370
-3
390
0
0
ENDTAB
0
TABLE
2
STYLE
5
1e0
100
AcDbSymbolTable
0
STYLE
5
11
100
AcDbSymbolTableRecord
100
AcDbTextStyleTableRecord
2
Standard
3
txt
70
0
71
0
40
0
41
1
42
0
50
0
0
STYLE
5
145
100
AcDbSymbolTableRecord
100
AcDbTextStyleTableRecord
2
DEFAULT
3
simplex.shx
70
0
71
0
40
0
41
1
42
0
50
0
0
STYLE
5
168
100
AcDbSymbolTableRecord
100
AcDbTextStyleTableRecord
2
DWGDirectTextStyle
3
SIMPLEX
70
0
71
0
40
0
41
1
42
0
50
0
0
ENDTAB
0
TABLE
2
DIMSTYLE
5
1e1
100
AcDbSymbolTable
100
AcDbDimStyleTable
0
DIMSTYLE
105
27
100
AcDbSymbolTableRecord
100
AcDbDimStyleTableRecord
2
Standard
70
0
3
<>
41
0.18
42
0.0625
44
0.18
140
0.18
147
0.09
73
0
74
0
77
1
271
2
275
0
278
52
280
0
340
11
0
ENDTAB
0
TABLE
2
VIEW
5
1e2
100
AcDbSymbolTable
0
ENDTAB
0
TABLE
2
UCS
5
1e3
100
AcDbSymbolTable
0
ENDTAB
0
TABLE
2
APPID
5
1e4
100
AcDbSymbolTable
0
APPID
5
12
100
AcDbSymbolTableRecord
100
AcDbRegAppTableRecord
2
ACAD
70
0
0
ENDTAB
0
TABLE
2
BLOCK_RECORD
5
1e5
100
AcDbSymbolTable
0
BLOCK_RECORD
5
1F
100
AcDbSymbolTableRecord
100
AcDbBlockTableRecord
2
*Model_Space
340
0
70
0
0
BLOCK_RECORD
5
1B
100
AcDbSymbolTableRecord
100
AcDbBlockTableRecord
2
*Paper_Space
340
0
70
0
0
BLOCK_RECORD
5
23
100
AcDbSymbolTableRecord
100
AcDbBlockTableRecord
2
*Paper_Space0
340
0
70
0
0
BLOCK_RECORD
5
16A
100
AcDbSymbolTableRecord
100
AcDbBlockTableRecord
2
DimnDraft3D1
340
0
70
0
0
BLOCK_RECORD
5
178
100
AcDbSymbolTableRecord
100
AcDbBlockTableRecord
2
_CLOSED
340
0
70
0
0
BLOCK_RECORD
5
17F
100
AcDbSymbolTableRecord
100
AcDbBlockTableRecord
2
DimnDraft3D2
340
0
70
0
0
BLOCK_RECORD
5
18E
100
AcDbSymbolTableRecord
100
AcDbBlockTableRecord
2
DimnDraft3D3
340
0
70
0
0
BLOCK_RECORD
5
19C
100
AcDbSymbolTableRecord
100
AcDbBlockTableRecord
2
DimnDraft3D4
340
0
70
0
0
ENDTAB
0
ENDSEC
0
SECTION
2
BLOCKS
0
BLOCK
5
20
100
AcDbEntity
8
0
100
AcDbBlockBegin
2
*Model_Space
70
0
10
0
20
0
30
0
3
*Model_Space
0
ENDBLK
5
21
100
AcDbEntity
8
0
100
AcDbBlockEnd
0
BLOCK
5
1C
100
AcDbEntity
8
0
100
AcDbBlockBegin
2
*Paper_Space
70
0
10
0
20
0
30
0
3
*Paper_Space
0
ENDBLK
5
1D
100
AcDbEntity
8
0
100
AcDbBlockEnd
0
BLOCK
5
24
100
AcDbEntity
8
0
100
AcDbBlockBegin
2
*Paper_Space0
70
0
10
0
20
0
30
0
3
*Paper_Space0
0
ENDBLK
5
25
100
AcDbEntity
8
0
100
AcDbBlockEnd
0
BLOCK
5
175
100
AcDbEntity
8
0
100
AcDbBlockBegin
2
DimnDraft3D1
70
0
10
0
20
0
30
0
3
DimnDraft3D1
0
MTEXT
5
16B
100
AcDbEntity
8
2
62
256
6
ByLayer
370
-1
48
1
60
0
100
AcDbMText
10
63.125
20
4.996053
30
0
210
0
220
0
230
1
1
\W01.000;\fsimplex.shx,bigfont.shx;12 
40
4.5
41
0
44
1.084337
50
90
71
7
72
5
7
DEFAULT
0
LINE
5
16C
100
AcDbEntity
8
2
62
256
6
ByLayer
370
-1
48
1
60
0
100
AcDbLine
10
56.5
20
0
30
0
11
67.25
21
0
31
0
39
0
210
0
220
0
230
1
0
LINE
5
16D
100
AcDbEntity
8
2
62
256
6
ByLayer
370
-1
48
1
60
0
100
AcDbLine
10
51.5
20
11.875
30
0
11
67.25
21
11.875
31
0
39
0
210
0
220
0
230
1
0
LINE
5
16E
100
AcDbEntity
8
2
62
256
6
ByLayer
370
-1
48
1
60
0
100
AcDbLine
10
64.25
20
-11.25
30
0
11
64.25
21
23.125
31
0
39
0
210
0
220
0
230
1
0
LINE
5
16F
100
AcDbEntity
8
2
62
256
6
ByLayer
370
-1
48
1
60
0
100
AcDbLine
10
64.25
20
0
30
0
11
64.644957
21
-2.999999
31
0
39
0
210
0
220
0
230
1
0
LINE
5
170
100
AcDbEntity
8
2
62
256
6
ByLayer
370
-1
48
1
60
0
100
AcDbLine
10
64.25
20
0
30
0
11
63.855043
21
-3.000001
31
0
39
0
210
0
220
0
230
1
0
LINE
5
171
100
AcDbEntity
8
2
62
256
6
ByLayer
370
-1
48
1
60
0
100
AcDbLine
10
64.644957
20
-2.999999
30
0
11
63.855043
21
-3.000001
31
0
39
0
210
0
220
0
230
1
0
LINE
5
172
100
AcDbEntity
8
2
62
256
6
ByLayer
370
-1
48
1
60
0
100
AcDbLine
10
64.25
20
11.875
30
0
11
63.855043
21
14.874999
31
0
39
0
210
0
220
0
230
1
0
LINE
5
173
100
AcDbEntity
8
2
62
256
6
ByLayer
370
-1
48
1
60
0
100
AcDbLine
10
64.25
20
11.875
30
0
11
64.644957
21
14.875001
31
0
39
0
210
0
220
0
230
1
0
LINE
5
174
100
AcDbEntity
8
2
62
256
6
ByLayer
370
-1
48
1
60
0
100
AcDbLine
10
63.855043
20
14.874999
30
0
11
64.644957
21
14.875001
31
0
39
0
210
0
220
0
230
1
0
ENDBLK
5
176
100
AcDbEntity
8
0
100
AcDbBlockEnd
0
BLOCK
5
179
100
AcDbEntity
8
0
100
AcDbBlockBegin
2
_CLOSED
70
0
10
0
20
0
30
0
3
_CLOSED
0
LINE
5
17B
100
AcDbEntity
8
0
62
256
6
ByLayer
370
-2
48
1
60
0
100
AcDbLine
10
-1
20
0.166667
30
0
11
0
21
0
31
0
39
0
210
0
220
0
230
1
0
LINE
5
17C
100
AcDbEntity
8
0
62
256
6
ByLayer
370
-2
48
1
60
0
100
AcDbLine
10
0
20
0
30
0
11
-1
21
-0.166667
31
0
39
0
210
0
220
0
230
1
0
LINE
5
17D
100
AcDbEntity
8
0
62
256
6
ByLayer
370
-2
48
1
60
0
100
AcDbLine
10
-1
20
0.166667
30
0
11
-1
21
-0.166667
31
0
39
0
210
0
220
0
230
1
0
LINE
5
17E
100
AcDbEntity
8
0
62
256
6
ByLayer
370
-2
48
1
60
0
100
AcDbLine
10
0
20
0
30
0
11
-1
21
0
31
0
39
0
210
0
220
0
230
1
0
ENDBLK
5
17A
100
AcDbEntity
8
0
100
AcDbBlockEnd
0
BLOCK
5
18B
100
AcDbEntity
8
0
100
AcDbBlockBegin
2
DimnDraft3D2
70
0
10
0
20
0
30
0
3
DimnDraft3D2
0
MTEXT
5
180
100
AcDbEntity
8
SK2
62
256
6
ByLayer
370
-1
48
1
60
0
100
AcDbMText
10
-29.875
20
-3.659211
30
0
210
0
220
0
230
1
1
\W01.000;\fsimplex.shx,bigfont.shx;%%c32 
40
4.5
41
0
44
1.084337
50
90
71
7
72
5
7
DEFAULT
0
LINE
5
182
100
AcDbEntity
8
SK2
62
256
6
ByLayer
370
-1
48
1
60
0
100
AcDbLine
10
-1.5
20
16
30
0
11
-31.75
21
16
31
0
39
0
210
0
220
0
230
1
0
LINE
5
183
100
AcDbEntity
8
SK2
62
256
6
ByLayer
370
-1
48
1
60
0
100
AcDbLine
10
-1.5
20
-16
30
0
11
-31.75
21
-16
31
0
39
0
210
0
220
0
230
1
0
LINE
5
184
100
AcDbEntity
8
SK2
62
256
6
ByLayer
370
-1
48
1
60
0
100
AcDbLine
10
-28.75
20
16
30
0
11
-28.75
21
-16
31
0
39
0
210
0
220
0
230
1
0
LINE
5
185
100
AcDbEntity
8
SK2
62
256
6
ByLayer
370
-1
48
1
60
0
100
AcDbLine
10
-28.75
20
16
30
0
11
-28.355043
21
13.000001
31
0
39
0
210
0
220
0
230
1
0
LINE
5
186
100
AcDbEntity
8
SK2
62
256
6
ByLayer
370
-1
48
1
60
0
100
AcDbLine
10
-28.75
20
16
30
0
11
-29.144957
21
12.999999
31
0
39
0
210
0
220
0
230
1
0
LINE
5
187
100
AcDbEntity
8
SK2
62
256
6
ByLayer
370
-1
48
1
60
0
100
AcDbLine
10
-28.355043
20
13.000001
30
0
11
-29.144957
21
12.999999
31
0
39
0
210
0
220
0
230
1
0
LINE
5
188
100
AcDbEntity
8
SK2
62
256
6
ByLayer
370
-1
48
1
60
0
100
AcDbLine
10
-28.75
20
-16
30
0
11
-29.144957
21
-13.000001
31
0
39
0
210
0
220
0
230
1
0
LINE
5
189
100
AcDbEntity
8
SK2
62
256
6
ByLayer
370
-1
48
1
60
0
100
AcDbLine
10
-28.75
20
-16
30
0
11
-28.355043
21
-12.999999
31
0
39
0
210
0
220
0
230
1
0
LINE
5
18A
100
AcDbEntity
8
SK2
62
256
6
ByLayer
370
-1
48
1
60
0
100
AcDbLine
10
-29.144957
20
-13.000001
30
0
11
-28.355043
21
-12.999999
31
0
39
0
210
0
220
0
230
1
0
ENDBLK
5
18C
100
AcDbEntity
8
0
100
AcDbBlockEnd
0
BLOCK
5
199
100
AcDbEntity
8
0
100
AcDbBlockBegin
2
DimnDraft3D3
70
0
10
0
20
0
30
0
3
DimnDraft3D3
0
MTEXT
5
18F
100
AcDbEntity
8
2
62
256
6
ByLayer
370
-1
48
1
60
0
100
AcDbMText
10
23.496053
20
32.75
30
0
210
0
220
0
230
1
1
\W01.000;\fsimplex.shx,bigfont.shx;50 
40
4.5
41
0
44
1.084337
50
0
71
7
72
5
7
DEFAULT
0
LINE
5
190
100
AcDbEntity
8
2
62
256
6
ByLayer
370
-1
48
1
60
0
100
AcDbLine
10
50
20
13.375
30
0
11
50
21
34.625
31
0
39
0
210
0
220
0
230
1
0
LINE
5
191
100
AcDbEntity
8
2
62
256
6
ByLayer
370
-1
48
1
60
0
100
AcDbLine
10
0
20
1.5
30
0
11
0
21
34.625
31
0
39
0
210
0
220
0
230
1
0
LINE
5
192
100
AcDbEntity
8
2
62
256
6
ByLayer
370
-1
48
1
60
0
100
AcDbLine
10
50
20
31.625
30
0
11
0
21
31.625
31
0
39
0
210
0
220
0
230
1
0
LINE
5
193
100
AcDbEntity
8
2
62
256
6
ByLayer
370
-1
48
1
60
0
100
AcDbLine
10
50
20
31.625
30
0
11
47.000001
21
31.230043
31
0
39
0
210
0
220
0
230
1
0
LINE
5
194
100
AcDbEntity
8
2
62
256
6
ByLayer
370
-1
48
1
60
0
100
AcDbLine
10
50
20
31.625
30
0
11
46.999999
21
32.019957
31
0
39
0
210
0
220
0
230
1
0
LINE
5
195
100
AcDbEntity
8
2
62
256
6
ByLayer
370
-1
48
1
60
0
100
AcDbLine
10
47.000001
20
31.230043
30
0
11
46.999999
21
32.019957
31
0
39
0
210
0
220
0
230
1
0
LINE
5
196
100
AcDbEntity
8
2
62
256
6
ByLayer
370
-1
48
1
60
0
100
AcDbLine
10
0
20
31.625
30
0
11
2.999999
21
32.019957
31
0
39
0
210
0
220
0
230
1
0
LINE
5
197
100
AcDbEntity
8
2
62
256
6
ByLayer
370
-1
48
1
60
0
100
AcDbLine
10
0
20
31.625
30
0
11
3.000001
21
31.230043
31
0
39
0
210
0
220
0
230
1
0
LINE
5
198
100
AcDbEntity
8
2
62
256
6
ByLayer
370
-1
48
1
60
0
100
AcDbLine
10
2.999999
20
32.019957
30
0
11
3.000001
21
31.230043
31
0
39
0
210
0
220
0
230
1
0
ENDBLK
5
19A
100
AcDbEntity
8
0
100
AcDbBlockEnd
0
BLOCK
5
1A7
100
AcDbEntity
8
0
100
AcDbBlockBegin
2
DimnDraft3D4
70
0
10
0
20
0
30
0
3
DimnDraft3D4
0
MTEXT
5
19D
100
AcDbEntity
8
2
62
256
6
ByLayer
370
-1
48
1
60
0
100
AcDbMText
10
31.817849
20
22.75
30
0
210
0
220
0
230
1
1
\W01.000;\fsimplex.shx,bigfont.shx;33 
40
4.5
41
0
44
1.084337
50
0
71
7
72
5
7
DEFAULT
0
LINE
5
19E
100
AcDbEntity
8
2
62
256
6
ByLayer
370
-1
48
1
60
0
100
AcDbLine
10
16.643594
20
13.375
30
0
11
16.643594
21
24.625
31
0
39
0
210
0
220
0
230
1
0
LINE
5
19F
100
AcDbEntity
8
2
62
256
6
ByLayer
370
-1
48
1
60
0
100
AcDbLine
10
50
20
13.375
30
0
11
50
21
24.625
31
0
39
0
210
0
220
0
230
1
0
LINE
5
1A0
100
AcDbEntity
8
2
62
256
6
ByLayer
370
-1
48
1
60
0
100
AcDbLine
10
16.643594
20
21.625
30
0
11
50
21
21.625
31
0
39
0
210
0
220
0
230
1
0
LINE
5
1A1
100
AcDbEntity
8
2
62
256
6
ByLayer
370
-1
48
1
60
0
100
AcDbLine
10
16.643594
20
21.625
30
0
11
19.643592
21
22.019957
31
0
39
0
210
0
220
0
230
1
0
LINE
5
1A2
100
AcDbEntity
8
2
62
256
6
ByLayer
370
-1
48
1
60
0
100
AcDbLine
10
16.643594
20
21.625
30
0
11
19.643595
21
21.230043
31
0
39
0
210
0
220
0
230
1
0
LINE
5
1A3
100
AcDbEntity
8
2
62
256
6
ByLayer
370
-1
48
1
60
0
100
AcDbLine
10
19.643592
20
22.019957
30
0
11
19.643595
21
21.230043
31
0
39
0
210
0
220
0
230
1
0
LINE
5
1A4
100
AcDbEntity
8
2
62
256
6
ByLayer
370
-1
48
1
60
0
100
AcDbLine
10
50
20
21.625
30
0
11
47.000001
21
21.230043
31
0
39
0
210
0
220
0
230
1
0
LINE
5
1A5
100
AcDbEntity
8
2
62
256
6
ByLayer
370
-1
48
1
60
0
100
AcDbLine
10
50
20
21.625
30
0
11
46.999999
21
22.019957
31
0
39
0
210
0
220
0
230
1
0
LINE
5
1A6
100
AcDbEntity
8
2
62
256
6
ByLayer
370
-1
48
1
60
0
100
AcDbLine
10
47.000001
20
21.230043
30
0
11
46.999999
21
22.019957
31
0
39
0
210
0
220
0
230
1
0
ENDBLK
5
1A8
100
AcDbEntity
8
0
100
AcDbBlockEnd
0
ENDSEC
0
SECTION
2
ENTITIES
0
ARC
5
B9
100
AcDbEntity
8
1
62
256
6
ByLayer
370
-1
48
1
60
0
100
AcDbCircle
39
0
10
-17.564386
20
-9.2
30
0
40
1.2
210
0
220
0
230
-1
100
AcDbArc
50
15
51
90
0
ARC
5
BA
100
AcDbEntity
8
1
62
256
6
ByLayer
370
-1
48
1
60
0
100
AcDbCircle
39
0
10
-17.564386
20
9.2
30
0
40
1.2
210
0
220
0
230
-1
100
AcDbArc
50
270
51
345
0
ARC
5
BB
100
AcDbEntity
8
1
62
256
6
ByLayer
370
-1
48
1
60
0
100
AcDbCircle
39
0
10
-36.924316
20
-8.8
30
0
40
0.8
210
0
220
0
230
-1
100
AcDbArc
50
90
51
99.068722
0
ARC
5
BC
100
AcDbEntity
8
1
62
256
6
ByLayer
370
-1
48
1
60
0
100
AcDbCircle
39
0
10
-36.924316
20
8.8
30
0
40
0.8
210
0
220
0
230
-1
100
AcDbArc
50
220
51
270
0
ARC
5
BD
100
AcDbEntity
8
SK1
62
256
6
ByLayer
370
-1
48
1
60
0
100
AcDbCircle
39
0
10
0.6
20
11.8
30
0
40
1
210
0
220
0
230
-1
100
AcDbArc
50
233.130102
51
246.421822
0
ARC
5
BE
100
AcDbEntity
8
SK1
62
256
6
ByLayer
370
-1
48
1
60
0
100
AcDbCircle
39
0
10
0.6
20
-11.8
30
0
40
1
210
0
220
0
230
-1
100
AcDbArc
50
113.578178
51
126.869898
0
ELLIPSE
5
BF
100
AcDbEntity
8
1
62
256
6
ByLayer
370
-1
48
1
60
0
100
AcDbEllipse
10
-0.928203
20
0
30
0
11
-7.49393430382698
21
15.7933993222019
31
0
210
0
220
0
230
1
40
0.341999
41
-2.9801260823921
42
-2.05401345238935
0
ELLIPSE
5
C0
100
AcDbEntity
8
1
62
256
6
ByLayer
370
-1
48
1
60
0
100
AcDbEllipse
10
41.827444
20
13.033728
30
0
11
-1.90943584966609
21
-9.13291896578052
31
0
210
0
220
0
230
1
40
0.163436
41
0.829796625273503
42
0.908895006370328
0
ELLIPSE
5
C1
100
AcDbEntity
8
1
62
256
6
ByLayer
370
-1
48
1
60
0
100
AcDbEllipse
10
-0.928203
20
0
30
0
11
-7.49393430382716
21
-15.7933993222021
31
0
210
0
220
0
230
1
40
0.341999
41
2.05401345238935
42
2.98012608239209
0
ELLIPSE
5
C2
100
AcDbEntity
8
1
62
256
6
ByLayer
370
-1
48
1
60
0
100
AcDbEllipse
10
37.723643
20
4.811673
30
0
11
-1.15729257441899
21
1.01280259159075
31
0
210
0
220
0
230
1
40
0.694577
41
-0.661544906015369
42
2.92752703058694
0
ELLIPSE
5
C3
100
AcDbEntity
8
1
62
256
6
ByLayer
370
-1
48
1
60
0
100
AcDbEllipse
10
12.928203
20
0
30
0
11
-7.49393430382662
21
-15.7933993222013
31
0
210
0
220
0
230
1
40
0.341999
41
-1.08757920120047
42
-0.161466571197699
0
ELLIPSE
5
C4
100
AcDbEntity
8
1
62
256
6
ByLayer
370
-1
48
1
60
0
100
AcDbEllipse
10
44.676864
20
0
30
0
11
-9.58023805916488
21
6.86911748576947
31
0
210
0
220
0
230
1
40
0.430064
41
1.00549010531944
42
1.73712830907697
0
ELLIPSE
5
C5
100
AcDbEntity
8
1
62
256
6
ByLayer
370
-1
48
1
60
0
100
AcDbEllipse
10
41.942345
20
14.797539
30
0
11
-1.90944045765555
21
-9.13296157336647
31
0
210
0
220
0
230
1
40
0.163436
41
0.636103183511998
42
0.65922380838525
0
ELLIPSE
5
C6
100
AcDbEntity
8
1
62
256
6
ByLayer
370
-1
48
1
60
0
100
AcDbEllipse
10
41.261111
20
4.340057
30
0
11
-0.555770108240605
21
2.35434159491126
31
0
210
0
220
0
230
1
40
0.808663
41
-0.551155232269892
42
-0.476135081749194
0
ELLIPSE
5
C7
100
AcDbEntity
8
1
62
256
6
ByLayer
370
-1
48
1
60
0
100
AcDbEllipse
10
41.324155
20
5.307827
30
0
11
1.99576982364838
21
-0.130010811144786
31
0
210
0
220
0
230
1
40
0.965789
41
1.37721476918406
42
1.55377608618342
0
ELLIPSE
5
C8
100
AcDbEntity
8
1
62
256
6
ByLayer
370
-1
48
1
60
0
100
AcDbEllipse
10
41.333764
20
5.455332
30
0
11
1.99576982364838
21
-0.130010811144786
31
0
210
0
220
0
230
1
40
0.965789
41
1.62688451417655
42
-0.348028375719125
0
ELLIPSE
5
C9
100
AcDbEntity
8
1
62
256
6
ByLayer
370
-1
48
1
60
0
100
AcDbEllipse
10
41.296228
20
4.879126
30
0
11
-0.555770175507376
21
2.35434150748868
31
0
210
0
220
0
230
1
40
0.808663
41
-0.378672180258687
42
-0.282443063409175
0
ELLIPSE
5
CA
100
AcDbEntity
8
1
62
256
6
ByLayer
370
-1
48
1
60
0
100
AcDbEllipse
10
44.676864
20
0
30
0
11
-9.56827771203066
21
6.86054180851134
31
0
210
0
220
0
230
1
40
0.430064
41
-0.276550403682843
42
0.984360285207228
0
ELLIPSE
5
CB
100
AcDbEntity
8
1
62
256
6
ByLayer
370
-1
48
1
60
0
100
AcDbEllipse
10
12.928203
20
0
30
0
11
-7.49393430382674
21
15.7933993222016
31
0
210
0
220
0
230
1
40
0.341999
41
0.161466571197709
42
1.08757920120046
0
ELLIPSE
5
CC
100
AcDbEntity
8
1
62
256
6
ByLayer
370
-1
48
1
60
0
100
AcDbEllipse
10
41.285381
20
4.712627
30
0
11
1.99576982364838
21
-0.130010811144786
31
0
210
0
220
0
230
1
40
0.965789
41
1.38129299740107
42
2.94773157264875
0
ELLIPSE
5
CD
100
AcDbEntity
8
1
62
256
6
ByLayer
370
-1
48
1
60
0
100
AcDbEllipse
10
41.324155
20
5.307827
30
0
11
1.99576982364838
21
-0.130010811144786
31
0
210
0
220
0
230
1
40
0.965789
41
-0.278714973744064
42
-0.195154892630985
0
ELLIPSE
5
CE
100
AcDbEntity
8
1
62
256
6
ByLayer
370
-1
48
1
60
0
100
AcDbEllipse
10
46.788579
20
6.010963
30
0
11
1.24735613978024
21
-0.0812567569654917
31
0
210
0
220
0
230
1
40
0.965789
41
-2.14855523771411
42
-1.50796511303728
0
ELLIPSE
5
CF
100
AcDbEntity
8
1
62
256
6
ByLayer
370
-1
48
1
60
0
100
AcDbEllipse
10
46.788579
20
6.010963
30
0
11
1.24735613978024
21
-0.0812567569654917
31
0
210
0
220
0
230
1
40
0.965789
41
-1.50796431293119
42
-0.993037343959657
0
ELLIPSE
5
D0
100
AcDbEntity
8
1
62
256
6
ByLayer
370
-1
48
1
60
0
100
AcDbEllipse
10
46.837467
20
6.761431
30
0
11
1.03281088373803
21
-0.0672805947674275
31
0
210
0
220
0
230
1
40
0.965789
41
1.633628060192
42
2.67996763172868
0
ELLIPSE
5
D1
100
AcDbEntity
8
1
62
256
6
ByLayer
370
-1
48
1
60
0
100
AcDbEllipse
10
46.820609
20
6.502649
30
0
11
-0.746417914044493
21
0.0486240433681493
31
0
210
0
220
0
230
1
40
0.965789
41
-2.03113437916615
42
-0.984794807629445
0
ELLIPSE
5
D2
100
AcDbEntity
8
1
62
256
6
ByLayer
370
-1
48
1
60
0
100
AcDbEllipse
10
46.834674
20
6.718551
30
0
11
0.746417914044493
21
-0.0486240433681501
31
0
210
0
220
0
230
1
40
0.965789
41
-3.11649227210971
42
-3.04102956827568
0
ELLIPSE
5
D3
100
AcDbEntity
8
1
62
256
6
ByLayer
370
-1
48
1
60
0
100
AcDbEllipse
10
46.820609
20
6.502649
30
0
11
0.746417914044493
21
-0.0486240433681501
31
0
210
0
220
0
230
1
40
0.965789
41
-3.04102956827567
42
-2.60022615107763
0
ELLIPSE
5
D4
100
AcDbEntity
8
1
62
256
6
ByLayer
370
-1
48
1
60
0
100
AcDbEllipse
10
46.837467
20
6.761431
30
0
11
1.03281088373803
21
-0.0672805947674275
31
0
210
0
220
0
230
1
40
0.965789
41
-0.461625021861102
42
0.58728848865532
0
ELLIPSE
5
D5
100
AcDbEntity
8
1
62
256
6
ByLayer
370
-1
48
1
60
0
100
AcDbEllipse
10
46.820609
20
6.502649
30
0
11
0.746417914044493
21
-0.0486240433681501
31
0
210
0
220
0
230
1
40
0.965789
41
0.0251003814801733
42
0.100563085314041
0
ELLIPSE
5
D6
100
AcDbEntity
8
1
62
256
6
ByLayer
370
-1
48
1
60
0
100
AcDbEllipse
10
47.405092
20
7.479065
30
0
11
-0.421107432789808
21
0.0274322811515495
31
0
210
0
220
0
230
1
40
0.965789
41
1.11045827442368
42
1.88535800227614
0
ELLIPSE
5
D7
100
AcDbEntity
8
1
62
256
6
ByLayer
370
-1
48
1
60
0
100
AcDbEllipse
10
46.837467
20
6.761431
30
0
11
1.03281088373803
21
-0.0672805947674275
31
0
210
0
220
0
230
1
40
0.965789
41
-1.5079645933978
42
-0.461625021861102
0
ELLIPSE
5
D8
100
AcDbEntity
8
1
62
256
6
ByLayer
370
-1
48
1
60
0
100
AcDbEllipse
10
47.988967
20
6.497551
30
0
11
-0.421107432789808
21
0.0274322811515495
31
0
210
0
220
0
230
1
40
0.965789
41
0.129745055713063
42
0.839917933289044
0
ELLIPSE
5
D9
100
AcDbEntity
8
1
62
256
6
ByLayer
370
-1
48
1
60
0
100
AcDbEllipse
10
46.820609
20
6.502649
30
0
11
-0.746417914044493
21
0.0486240433681493
31
0
210
0
220
0
230
1
40
0.965789
41
-0.984794807629445
42
-0.253993180611329
0
ELLIPSE
5
DA
100
AcDbEntity
8
1
62
256
6
ByLayer
370
-1
48
1
60
0
100
AcDbEllipse
10
46.837467
20
6.761431
30
0
11
1.03281088373803
21
-0.0672805947674275
31
0
210
0
220
0
230
1
40
0.965789
41
-2.55430416493449
42
-1.5079645933978
0
ELLIPSE
5
DB
100
AcDbEntity
8
1
62
256
6
ByLayer
370
-1
48
1
60
0
100
AcDbEllipse
10
46.820609
20
6.502649
30
0
11
-0.746417914044493
21
0.0486240433681493
31
0
210
0
220
0
230
1
40
0.965789
41
2.69792797861603
42
-3.11649227210962
0
ELLIPSE
5
DC
100
AcDbEntity
8
1
62
256
6
ByLayer
370
-1
48
1
60
0
100
AcDbEllipse
10
46.837467
20
6.761431
30
0
11
1.03281088373803
21
-0.0672805947674275
31
0
210
0
220
0
230
1
40
0.965789
41
2.67996763172868
42
-2.55430416493449
0
ELLIPSE
5
DD
100
AcDbEntity
8
1
62
256
6
ByLayer
370
-1
48
1
60
0
100
AcDbEllipse
10
46.236127
20
7.484166
30
0
11
-0.421107432789808
21
0.0274322811515495
31
0
210
0
220
0
230
1
40
0.965789
41
1.38189811810789
42
2.15679784596033
0
ELLIPSE
5
DE
100
AcDbEntity
8
1
62
256
6
ByLayer
370
-1
48
1
60
0
100
AcDbEllipse
10
46.820609
20
7.323686
30
0
11
-0.184608708687475
21
0.0120260000308926
31
0
210
0
220
0
230
1
40
0.965789
41
-2.80603410701861
42
-0.20989507977693
0
ELLIPSE
5
DF
100
AcDbEntity
8
1
62
256
6
ByLayer
370
-1
48
1
60
0
100
AcDbEllipse
10
47.405092
20
7.479065
30
0
11
-0.421107432789808
21
0.0274322811515495
31
0
210
0
220
0
230
1
40
0.965789
41
0.335558546571206
42
1.11045827442368
0
ELLIPSE
5
E0
100
AcDbEntity
8
1
62
256
6
ByLayer
370
-1
48
1
60
0
100
AcDbEllipse
10
47.556262
20
6.910567
30
0
11
-0.184608708687475
21
0.0120260000308926
31
0
210
0
220
0
230
1
40
0.965789
41
-2.3855623289238
42
-1.25623465131362
0
ELLIPSE
5
E1
100
AcDbEntity
8
1
62
256
6
ByLayer
370
-1
48
1
60
0
100
AcDbEllipse
10
45.652252
20
6.507747
30
0
11
-0.421107432789808
21
0.0274322811515495
31
0
210
0
220
0
230
1
40
0.965789
41
2.50944009720271
42
3.13751106467077
0
ELLIPSE
5
E2
100
AcDbEntity
8
1
62
256
6
ByLayer
370
-1
48
1
60
0
100
AcDbEllipse
10
46.084957
20
6.916988
30
0
11
-0.184608708687475
21
0.0120260000308926
31
0
210
0
220
0
230
1
40
0.965789
41
-1.75969453548189
42
-0.755918670242172
0
ELLIPSE
5
E3
100
AcDbEntity
8
1
62
256
6
ByLayer
370
-1
48
1
60
0
100
AcDbEllipse
10
46.820609
20
6.502649
30
0
11
-0.746417914044493
21
0.0486240433681493
31
0
210
0
220
0
230
1
40
0.965789
41
-3.04102956827575
42
-2.03113437916615
0
ELLIPSE
5
E4
100
AcDbEntity
8
1
62
256
6
ByLayer
370
-1
48
1
60
0
100
AcDbEllipse
10
46.834674
20
6.718551
30
0
11
0.746417914044493
21
-0.0486240433681501
31
0
210
0
220
0
230
1
40
0.965789
41
0.0251003814801806
42
0.10056308531404
0
ELLIPSE
5
E5
100
AcDbEntity
8
1
62
256
6
ByLayer
370
-1
48
1
60
0
100
AcDbEllipse
10
46.837467
20
6.761431
30
0
11
1.03281088373803
21
-0.0672805947674275
31
0
210
0
220
0
230
1
40
0.965789
41
0.58728848865532
42
1.633628060192
0
ELLIPSE
5
E6
100
AcDbEntity
8
1
62
256
6
ByLayer
370
-1
48
1
60
0
100
AcDbEllipse
10
46.236127
20
7.484166
30
0
11
-0.421107432789808
21
0.0274322811515495
31
0
210
0
220
0
230
1
40
0.965789
41
2.15679784596033
42
2.9316975738128
0
ELLIPSE
5
E7
100
AcDbEntity
8
1
62
256
6
ByLayer
370
-1
48
1
60
0
100
AcDbEllipse
10
42.964251
20
5.751055
30
0
11
-0.294601118044362
21
0.0191912563599598
31
0
210
0
220
0
230
1
40
0.965789
41
2.6808256113886
42
-1.50796459339744
0
ELLIPSE
5
E8
100
AcDbEntity
8
1
62
256
6
ByLayer
370
-1
48
1
60
0
100
AcDbEllipse
10
41.772944
20
5.414985
30
0
11
-0.20189908291657
21
0.013152350149972
31
0
210
0
220
0
230
1
40
0.965789
41
3.45266274326178E-05
42
1.63362806019191
0
ELLIPSE
5
E9
100
AcDbEntity
8
1
62
256
6
ByLayer
370
-1
48
1
60
0
100
AcDbEllipse
10
49.511549
20
3.756222
30
0
11
-0.294601118044362
21
0.0191912563599598
31
0
210
0
220
0
230
1
40
0.965789
41
-1.50796459339778
42
0.586430508994962
0
ELLIPSE
5
EA
100
AcDbEntity
8
1
62
256
6
ByLayer
370
-1
48
1
60
0
100
AcDbEllipse
10
49.596085
20
1.741776
30
0
11
-0.20189908291657
21
0.013152350149972
31
0
210
0
220
0
230
1
40
0.965789
41
1.63362806019198
42
-3.14159140408447
0
ELLIPSE
5
EB
100
AcDbEntity
8
1
62
256
6
ByLayer
370
-1
48
1
60
0
100
AcDbEllipse
10
49.000276
20
10.930894
30
0
11
-0.20189908291657
21
0.013152350149972
31
0
210
0
220
0
230
1
40
0.965789
41
-2.55516214459369
42
-0.460767042201165
0
ELLIPSE
5
EC
100
AcDbEntity
8
1
62
256
6
ByLayer
370
-1
48
1
60
0
100
AcDbEllipse
10
41.826468
20
6.236619
30
0
11
-0.20189908291657
21
0.013152350149972
31
0
210
0
220
0
230
1
40
0.965789
41
-0.460767042201121
42
1.63362806019191
0
ELLIPSE
5
ED
100
AcDbEntity
8
1
62
256
6
ByLayer
370
-1
48
1
60
0
100
AcDbEllipse
10
48.000553
20
10.223647
30
0
11
-0.294601118044362
21
0.0191912563599598
31
0
210
0
220
0
230
1
40
0.965789
41
0.586430508995414
42
2.68082561138882
0
ELLIPSE
5
EE
100
AcDbEntity
8
1
62
256
6
ByLayer
370
-1
48
1
60
0
100
AcDbEllipse
10
46.825451
20
6.576974
30
0
11
-1.92685733812668
21
0.125521632064854
31
0
210
0
220
0
230
1
40
0.965789
41
0
42
6.28318530717959
0
ELLIPSE
5
EF
100
AcDbEntity
8
1
62
256
6
ByLayer
370
-1
48
1
60
0
100
AcDbEllipse
10
42.910728
20
4.929422
30
0
11
-0.294601118044362
21
0.0191912563599598
31
0
210
0
220
0
230
1
40
0.965789
41
-2.1927021622636
42
-1.50796459339744
0
ELLIPSE
5
F0
100
AcDbEntity
8
1
62
256
6
ByLayer
370
-1
48
1
60
0
100
AcDbEllipse
10
49.649609
20
2.56341
30
0
11
-0.20189908291657
21
0.013152350149972
31
0
210
0
220
0
230
1
40
0.965789
41
1.63362806019201
42
-2.55516214459438
0
ELLIPSE
5
F1
100
AcDbEntity
8
1
62
256
6
ByLayer
370
-1
48
1
60
0
100
AcDbEllipse
10
46.811965
20
6.369949
30
0
11
-1.87103420967036
21
0.121885135448236
31
0
210
0
220
0
230
1
40
0.965789
41
-0.494015458519179
42
-9.80949580443344E-16
0
ELLIPSE
5
F2
100
AcDbEntity
8
1
62
256
6
ByLayer
370
-1
48
1
60
0
100
AcDbEllipse
10
46.811965
20
6.369949
30
0
11
-1.87103420967036
21
0.121885135448236
31
0
210
0
220
0
230
1
40
0.965789
41
0
42
0.208522932883613
0
ELLIPSE
5
F3
100
AcDbEntity
8
1
62
256
6
ByLayer
370
-1
48
1
60
0
100
AcDbEllipse
10
46.811965
20
6.369949
30
0
11
-1.87103420967036
21
0.121885135448236
31
0
210
0
220
0
230
1
40
0.965789
41
2.93306951861819
42
-2.62205183804734
0
ELLIPSE
5
F4
100
AcDbEntity
8
1
62
256
6
ByLayer
370
-1
48
1
60
0
100
AcDbEllipse
10
46.809498
20
6.332073
30
0
11
-1.82090010187886
21
0.11861923978093
31
0
210
0
220
0
230
1
40
0.965789
41
-0.360399959274157
42
-1.00795766943913E-15
0
ELLIPSE
5
F5
100
AcDbEntity
8
1
62
256
6
ByLayer
370
-1
48
1
60
0
100
AcDbEllipse
10
46.809498
20
6.332073
30
0
11
-1.82090010187886
21
0.11861923978093
31
0
210
0
220
0
230
1
40
0.965789
41
0
42
0.368646171447892
0
ELLIPSE
5
F6
100
AcDbEntity
8
1
62
256
6
ByLayer
370
-1
48
1
60
0
100
AcDbEllipse
10
46.809498
20
6.332073
30
0
11
-1.82090010187886
21
0.11861923978093
31
0
210
0
220
0
230
1
40
0.965789
41
2.77294647339727
42
-2.78119326796499
0
ELLIPSE
5
F7
100
AcDbEntity
8
1
62
256
6
ByLayer
370
-1
48
1
60
0
100
AcDbEllipse
10
46.822295
20
6.528527
30
0
11
1.72135147289673
21
-0.112134324612379
31
0
210
0
220
0
230
1
40
0.965789
41
3.14159237916035
42
-1.50796498548413
0
ELLIPSE
5
F8
100
AcDbEntity
8
1
62
256
6
ByLayer
370
-1
48
1
60
0
100
AcDbEllipse
10
46.822295
20
6.528527
30
0
11
1.72135147289673
21
-0.112134324612379
31
0
210
0
220
0
230
1
40
0.965789
41
-1.50796440569711
42
0
0
ELLIPSE
5
F9
100
AcDbEntity
8
1
62
256
6
ByLayer
370
-1
48
1
60
0
100
AcDbEllipse
10
46.837467
20
6.761431
30
0
11
1.29725038537144
21
-0.0845070272441119
31
0
210
0
220
0
230
1
40
0.965789
41
0
42
6.28318530717959
0
ELLIPSE
5
FA
100
AcDbEntity
8
1
62
256
6
ByLayer
370
-1
48
1
60
0
100
AcDbEllipse
10
46.834535
20
6.716422
30
0
11
1.72135147289673
21
-0.112134324612379
31
0
210
0
220
0
230
1
40
0.965789
41
0
42
6.28318530717959
0
POINT
5
41
100
AcDbEntity
8
80
62
256
6
ByLayer
370
-1
48
1
60
0
100
AcDbPoint
10
0
20
0
30
0
39
0
210
0
220
0
230
1
50
360
0
POINT
5
43
100
AcDbEntity
8
81
62
256
6
ByLayer
370
-1
48
1
60
0
100
AcDbPoint
10
50
20
11.875
30
0
39
0
210
0
220
0
230
1
50
360
0
POINT
5
45
100
AcDbEntity
8
2
62
256
6
ByLayer
370
-1
48
1
60
0
100
AcDbPoint
10
50
20
11.875
30
0
39
0
210
0
220
0
230
1
50
360
0
SPLINE
5
FB
100
AcDbEntity
8
SK1
62
256
6
ByLayer
370
-1
48
1
60
0
100
AcDbSpline
70
4
71
2
72
6
73
3
40
0
40
0
40
0
40
1
40
1
40
1
41
1
10
-2.5
20
11.0000000216178
30
0
41
1
10
-10.2501577226355
20
10.805289083207
30
0
41
1
10
-18.0003154452711
20
10.6105781447962
30
0
0
SPLINE
5
FC
100
AcDbEntity
8
SK1
62
256
6
ByLayer
370
-1
48
1
60
0
100
AcDbSpline
70
4
71
2
72
6
73
3
40
0
40
0
40
0
40
1
40
1
40
1
41
1
10
-18.0003154452711
20
-10.6105781038671
30
0
41
1
10
-10.2501577226355
20
-10.8052890415268
30
0
41
1
10
-2.5
20
-10.9999999791865
30
0
0
SPLINE
5
FD
100
AcDbEntity
8
SK1
62
256
6
ByLayer
370
-1
48
1
60
0
100
AcDbSpline
70
4
71
2
72
6
73
3
40
0
40
0
40
0
40
1
40
1
40
1
41
1
10
-2.5
20
-10.9999999791865
30
0
41
1
10
-2.09751251213359
20
-11.0101118658039
30
0
41
1
10
-1.69502502426721
20
-11.0202237524214
30
0
0
SPLINE
5
FE
100
AcDbEntity
8
SK1
62
256
6
ByLayer
370
-1
48
1
60
0
100
AcDbSpline
70
4
71
2
72
6
73
3
40
0
40
0
40
0
40
1
40
1
40
1
41
1
10
-1.69502502426721
20
11.0202237949308
30
0
41
1
10
-2.09751251213359
20
11.0101119082743
30
0
41
1
10
-2.5
20
11.0000000216178
30
0
0
SPLINE
5
FF
100
AcDbEntity
8
SK1
62
256
6
ByLayer
370
-1
48
1
60
0
100
AcDbSpline
70
4
71
2
72
6
73
3
40
0
40
0
40
0
40
1
40
1
40
1
41
1
10
-18.0002077056275
20
10.6083539004405
30
0
41
1
10
-18.5001033313043
20
10.302566364032
30
0
41
1
10
-19
20
9.996785310587
30
0
0
SPLINE
5
100
100
AcDbEntity
8
SK1
62
256
6
ByLayer
370
-1
48
1
60
0
100
AcDbSpline
70
4
71
2
72
6
73
3
40
0
40
0
40
0
40
1
40
1
40
1
41
1
10
-19
20
-9.99570806969172
30
0
41
1
10
-18.5001026802154
20
-10.301383051238
30
0
41
1
10
-18.0002062662752
20
-10.6070648849158
30
0
0
SPLINE
5
101
100
AcDbEntity
8
SK1
62
256
6
ByLayer
370
-1
48
1
60
0
100
AcDbSpline
70
4
71
3
72
32
73
28
40
0
40
0
40
0
40
0
40
0.0223968863387218
40
0.0401579577545516
40
0.046223164035479
40
0.049886001702591
40
0.0503962037786917
40
0.0507525856004145
40
0.0508868903163874
40
0.0509483317579563
40
0.0510089007707294
40
0.0511370747537769
40
0.0512901101484456
40
0.0517121536100396
40
0.0541982527922919
40
0.0720914948326092
40
0.0885828032450079
40
0.111293619885691
40
0.152568994618199
40
0.207441755281711
40
0.277076476224851
40
0.362470030257084
40
0.464104340630992
40
0.581575651298039
40
0.713263562348841
40
0.856138083973631
40
1
40
1
40
1
40
1
41
1
10
-1.5
20
10.8251483838207
30
0
41
1
10
-1.50522456994204
20
10.8249754226906
30
0
41
1
10
-1.51721120639843
20
10.824254491864
30
0
41
1
10
-1.53144596498606
20
10.8208575935162
30
0
41
1
10
-1.54578134102718
20
10.8199098838553
30
0
41
1
10
-1.55247122185253
20
10.8198408655883
30
0
41
1
10
-1.55917518652558
20
10.8211596277348
30
0
41
1
10
-1.56130572508027
20
10.8216912875375
30
0
41
1
10
-1.56295975591399
20
10.8221886048427
30
0
41
1
10
-1.56379976630882
20
10.8224614170466
30
0
41
1
10
-1.56463165950413
20
10.8227438341225
30
0
41
1
10
-1.56571675556864
20
10.8231381915895
30
0
41
1
10
-1.5675266739064
20
10.8238531442719
30
0
41
1
10
-1.5728354478367
20
10.826254171867
30
0
41
1
10
-1.58681099807413
20
10.8355660108272
30
0
41
1
10
-1.59494209582869
20
10.8449183897976
30
0
41
1
10
-1.60552843588908
20
10.8551218047957
30
0
41
1
10
-1.61511532306639
20
10.8619966805653
30
0
41
1
10
-1.62543506690133
20
10.8578508222658
30
0
41
1
10
-1.63564620865503
20
10.8252812693493
30
0
41
1
10
-1.64531627431538
20
10.7443170306418
30
0
41
1
10
-1.65425848580208
20
10.5900411538786
30
0
41
1
10
-1.66244820752632
20
10.334609943609
30
0
41
1
10
-1.66983294981068
20
9.95056894701159
30
0
41
1
10
-1.67639917289381
20
9.41581539717671
30
0
41
1
10
-1.68203753058589
20
8.72975310168067
30
0
41
1
10
-1.6852523714752
20
8.18059175312445
30
0
41
1
10
-1.68667421770536
20
7.8848811548381
30
0
0
SPLINE
5
102
100
AcDbEntity
8
SK1
62
256
6
ByLayer
370
-1
48
1
60
0
100
AcDbSpline
70
4
71
3
72
9
73
5
40
0
40
0
40
0
40
0
40
0.0106922497716314
40
1
40
1
40
1
40
1
41
1
10
-1.57992354736803
20
-10.6808769478805
30
0
41
1
10
-1.57982923343283
20
-10.681063084388
30
0
41
1
10
-1.57099928167085
20
-10.6984359746061
30
0
41
1
10
-1.56028067609407
20
-10.7117536193899
30
0
41
1
10
-1.55776414113512
20
-10.7279086003085
30
0
0
SPLINE
5
103
100
AcDbEntity
8
SK1
62
256
6
ByLayer
370
-1
48
1
60
0
100
AcDbSpline
70
4
71
3
72
18
73
14
40
0
40
0
40
0
40
0
40
0.205392206492943
40
0.392964176841787
40
0.547603672873551
40
0.671671730073644
40
0.768739603939471
40
0.843615370100664
40
0.900556916287912
40
0.942910149129357
40
0.973228492795149
40
0.993429537702352
40
1
40
1
40
1
40
1
41
1
10
-1.68492120168042
20
-10.3603519504625
30
0
41
1
10
-1.68395893837021
20
-10.4733853475235
30
0
41
1
10
-1.68170252090533
20
-10.657267999236
30
0
41
1
10
-1.6777078398068
20
-10.8293650091029
30
0
41
1
10
-1.67308574475771
20
-10.9085165863494
30
0
41
1
10
-1.66799184328076
20
-10.922593780718
30
0
41
1
10
-1.66232750577009
20
-10.8989495970319
30
0
41
1
10
-1.65623729152324
20
-10.8573995093836
30
0
41
1
10
-1.64947650959647
20
-10.8104257614165
30
0
41
1
10
-1.64277671591867
20
-10.7660352590852
30
0
41
1
10
-1.6345967218187
20
-10.7274366566988
30
0
41
1
10
-1.6291198466227
20
-10.7014307381613
30
0
41
1
10
-1.62237870368696
20
-10.6860693858498
30
0
41
1
10
-1.62057810103784
20
-10.6821759214638
30
0
0
SPLINE
5
104
100
AcDbEntity
8
SK1
62
256
6
ByLayer
370
-1
48
1
60
0
100
AcDbSpline
70
4
71
2
72
6
73
3
40
0
40
0
40
0
40
1
40
1
40
1
41
1
10
-0.89827076219018
20
10.7847407283835
30
0
41
1
10
-1.19913538109509
20
10.7847407283835
30
0
41
1
10
-1.5
20
10.7847407283835
30
0
0
SPLINE
5
105
100
AcDbEntity
8
SK1
62
256
6
ByLayer
370
-1
48
1
60
0
100
AcDbSpline
70
4
71
2
72
6
73
3
40
0
40
0
40
0
40
1
40
1
40
1
41
1
10
-1.5
20
-10.7847407263988
30
0
41
1
10
-1.19260811024961
20
-10.7847407263988
30
0
41
1
10
-0.885216220499245
20
-10.7847407263988
30
0
0
SPLINE
5
106
100
AcDbEntity
8
1
62
256
6
ByLayer
370
-1
48
1
60
0
100
AcDbSpline
70
4
71
3
72
11
73
7
40
0
40
0
40
0
40
0
40
0.255284643351797
40
0.564956849325336
40
0.86212054969592
40
1
40
1
40
1
40
1
41
1
10
47.9604495378607
20
5.26980630537187
30
0
41
1
10
47.9221313388156
20
5.21670898511127
30
0
41
1
10
47.8259853583293
20
5.10350105886457
30
0
41
1
10
47.6430705283522
20
4.9511069510055
30
0
41
1
10
47.4542747731076
20
4.84610892453719
30
0
41
1
10
47.3337186420667
20
4.79894809263499
30
0
41
1
10
47.2946515704487
20
4.78553673690749
30
0
0
SPLINE
5
107
100
AcDbEntity
8
1
62
256
6
ByLayer
370
-1
48
1
60
0
100
AcDbSpline
70
4
71
3
72
13
73
9
40
0
40
0
40
0
40
0
40
0.0957336853924317
40
0.310755677814207
40
0.529865621589591
40
0.754998008321557
40
0.988134605646087
40
1
40
1
40
1
40
1
41
1
10
46.2606521886871
20
4.80350613600868
30
0
41
1
10
46.224951120654
20
4.81707856280406
30
0
41
1
10
46.1113678986212
20
4.86530917888237
30
0
41
1
10
45.9329544116995
20
4.96916211080114
30
0
41
1
10
45.7446220963284
20
5.12831059755183
30
0
41
1
10
45.5912153785628
20
5.31440627097237
30
0
41
1
10
45.5139916680878
20
5.4537111645692
30
0
41
1
10
45.4823474312162
20
5.52768522811417
30
0
41
1
10
45.4808347938346
20
5.53127091283471
30
0
0
SPLINE
5
108
100
AcDbEntity
8
1
62
256
6
ByLayer
370
-1
48
1
60
0
100
AcDbSpline
70
4
71
3
72
8
73
4
40
0
40
0
40
0
40
0
40
1
40
1
40
1
40
1
41
1
10
38.7443431880252
20
9.72084272507971
30
0
41
1
10
38.7225681483606
20
9.69727698056039
30
0
41
1
10
38.7018941979482
20
9.67366258237024
30
0
41
1
10
38.6823196249254
20
9.65000415788919
30
0
0
SPLINE
5
109
100
AcDbEntity
8
1
62
256
6
ByLayer
370
-1
48
1
60
0
100
AcDbSpline
70
4
71
3
72
10
73
6
40
0
40
0
40
0
40
0
40
0.461745717818358
40
0.461745717818358
40
1
40
1
40
1
40
1
41
1
10
37.264413228109
20
8.0418834990937
30
0
41
1
10
37.313118714607
20
8.06551731094922
30
0
41
1
10
37.3594695805119
20
8.09423187981216
30
0
41
1
10
37.4520972154809
20
8.16529570954523
30
0
41
1
10
37.497626788895
20
8.20962708531474
30
0
41
1
10
37.5371519027545
20
8.25801012929307
30
0
0
SPLINE
5
10A
100
AcDbEntity
8
1
62
256
6
ByLayer
370
-1
48
1
60
0
100
AcDbSpline
70
4
71
3
72
16
73
12
40
0
40
0
40
0
40
0
40
0.0824510846571696
40
0.0824510846571696
40
0.188383068428396
40
0.188383068428396
40
0.365472907848063
40
0.365472907848063
40
0.68080329161044
40
0.68080329161044
40
1
40
1
40
1
40
1
41
1
10
7.0767949192431
20
4.75546271781752
30
0
41
1
10
7.08910350916454
20
4.75546271781752
30
0
41
1
10
7.10150513750617
20
4.75706222436486
30
0
41
1
10
7.12874362447573
20
4.76394233360952
30
0
41
1
10
7.1435352154983
20
4.77020840137894
30
0
41
1
10
7.17976687435106
20
4.79093881117942
30
0
41
1
10
7.19977756726536
20
4.80829129424839
30
0
41
1
10
7.24784029496976
20
4.86090601671913
30
0
41
1
10
7.27150999874226
20
4.90053819345542
30
0
41
1
10
7.30990356794047
20
4.98223274168734
30
0
41
1
10
7.32479596954559
20
5.02519567059593
30
0
41
1
10
7.33660254037841
20
5.06861858311163
30
0
0
SPLINE
5
10B
100
AcDbEntity
8
1
62
256
6
ByLayer
370
-1
48
1
60
0
100
AcDbSpline
70
4
71
3
72
18
73
14
40
0
40
0
40
0
40
0
40
0.087297310698268
40
0.087297310698268
40
0.542504713769246
40
0.542504713769246
40
0.700049237734301
40
0.700049237734301
40
0.859641035571716
40
0.859641035571716
40
0.970800525640281
40
0.970800525640281
40
1
40
1
40
1
40
1
41
1
10
7.33660254037846
20
15.1759383782004
30
0
41
1
10
7.33335951275453
20
15.1799220163035
30
0
41
1
10
7.32988124523558
20
15.1838732610658
30
0
41
1
10
7.30679603866886
20
15.2080620258526
30
0
41
1
10
7.28070949120794
20
15.2277749876852
30
0
41
1
10
7.22892472751983
20
15.2504441152008
30
0
41
1
10
7.21379801264524
20
15.2559954463097
30
0
41
1
10
7.17940149560854
20
15.2657445103485
30
0
41
1
10
7.15964797354846
20
15.2700240892114
30
0
41
1
10
7.12286471883334
20
15.2749451765724
30
0
41
1
10
7.10646334965821
20
15.2763144731655
30
0
41
1
10
7.08557733679535
20
15.2769004141622
30
0
41
1
10
7.08118372978328
20
15.2769622091385
30
0
41
1
10
7.07679491924313
20
15.2769622091385
30
0
0
SPLINE
5
10C
100
AcDbEntity
8
1
62
256
6
ByLayer
370
-1
48
1
60
0
100
AcDbSpline
70
4
71
3
72
10
73
6
40
0
40
0
40
0
40
0
40
0.150681229842729
40
0.150681229842729
40
1
40
1
40
1
40
1
41
1
10
37.0504115503842
20
0.200486378603756
30
0
41
1
10
37.0443244379252
20
0.209090794872367
30
0
41
1
10
37.0382022966205
20
0.217678017732481
30
0
41
1
10
36.9973249075174
20
0.274559630777446
30
0
41
1
10
36.9614501795655
20
0.32233423256605
30
0
41
1
10
36.9243163482519
20
0.369164414599453
30
0
0
SPLINE
5
10D
100
AcDbEntity
8
1
62
256
6
ByLayer
370
-1
48
1
60
0
100
AcDbSpline
70
4
71
3
72
16
73
12
40
0
40
0
40
0
40
0
40
0.0824510846571602
40
0.0824510846571602
40
0.188383068428385
40
0.188383068428385
40
0.365472907848031
40
0.365472907848031
40
0.680803291610383
40
0.680803291610383
40
1
40
1
40
1
40
1
41
1
10
4.9232050807569
20
15.2769622091385
30
0
41
1
10
4.91089649083546
20
15.2769622091385
30
0
41
1
10
4.89849486249383
20
15.2764645420423
30
0
41
1
10
4.87125637552427
20
15.2743206039304
30
0
41
1
10
4.8564647845017
20
15.2723664954752
30
0
41
1
10
4.82023312564894
20
15.2658799044772
30
0
41
1
10
4.80022243273464
20
15.2604302192603
30
0
41
1
10
4.75215970503024
20
15.2437803206194
30
0
41
1
10
4.72849000125774
20
15.231104729462
30
0
41
1
10
4.69009643205953
20
15.2045789137681
30
0
41
1
10
4.67520403045441
20
15.1904412165636
30
0
41
1
10
4.66339745962156
20
15.1759383782003
30
0
0
SPLINE
5
10E
100
AcDbEntity
8
1
62
256
6
ByLayer
370
-1
48
1
60
0
100
AcDbSpline
70
4
71
3
72
16
73
12
40
0
40
0
40
0
40
0
40
0.234352937534452
40
0.234352937534452
40
0.47190367717651
40
0.47190367717651
40
0.673594166655184
40
0.673594166655184
40
0.861032842954272
40
0.861032842954272
40
1
40
1
40
1
40
1
41
1
10
36.2777439820575
20
7.7234079305415
30
0
41
1
10
36.2411731237738
20
7.75473999873242
30
0
41
1
10
36.2200645724834
20
7.78507909680835
30
0
41
1
10
36.2224950186883
20
7.83942497797276
30
0
41
1
10
36.2473567376479
20
7.86409663726579
30
0
41
1
10
36.3397492902541
20
7.90071501402838
30
0
41
1
10
36.4015916097586
20
7.91456816409593
30
0
41
1
10
36.5461187733732
20
7.9351231866516
30
0
41
1
10
36.6285922331523
20
7.94258661599861
30
0
41
1
10
36.782747100636
20
7.95222919271504
30
0
41
1
10
36.8526731188632
20
7.95534463406213
30
0
41
1
10
36.9243163482518
20
7.95767991689453
30
0
0
SPLINE
5
10F
100
AcDbEntity
8
1
62
256
6
ByLayer
370
-1
48
1
60
0
100
AcDbSpline
70
4
71
3
72
18
73
14
40
0
40
0
40
0
40
0
40
0.0872973106983345
40
0.0872973106983345
40
0.542504713769339
40
0.542504713769339
40
0.700049237734365
40
0.700049237734365
40
0.859641035571757
40
0.859641035571757
40
0.970800525640322
40
0.970800525640322
40
1
40
1
40
1
40
1
41
1
10
7.33660254037846
20
-5.06861858311174
30
0
41
1
10
7.33335951275453
20
-5.05669118210821
30
0
41
1
10
7.32988124523558
20
-5.04481392106408
30
0
41
1
10
7.30679603866886
20
-4.97182102384326
30
0
41
1
10
7.28070949120794
20
-4.91100060572404
30
0
41
1
10
7.2289247275198
20
-4.83986869632048
30
0
41
1
10
7.21379801264521
20
-4.82232975779166
30
0
41
1
10
7.17940149560852
20
-4.79137868546457
30
0
41
1
10
7.15964797354843
20
-4.77770433946466
30
0
41
1
10
7.12286471883334
20
-4.76194246224051
30
0
41
1
10
7.10646334965818
20
-4.75754333105178
30
0
41
1
10
7.08557733679535
20
-4.75566124801017
30
0
41
1
10
7.08118372978325
20
-4.75546271781764
30
0
41
1
10
7.07679491924313
20
-4.75546271781764
30
0
0
SPLINE
5
110
100
AcDbEntity
8
1
62
256
6
ByLayer
370
-1
48
1
60
0
100
AcDbSpline
70
4
71
3
72
16
73
12
40
0
40
0
40
0
40
0
40
0.0824510846571662
40
0.0824510846571662
40
0.188383068428396
40
0.188383068428396
40
0.365472907848055
40
0.365472907848055
40
0.680803291610426
40
0.680803291610426
40
1
40
1
40
1
40
1
41
1
10
7.0767949192431
20
-15.2769622091386
30
0
41
1
10
7.08910350916454
20
-15.2769622091386
30
0
41
1
10
7.10150513750617
20
-15.2764645420423
30
0
41
1
10
7.12874362447573
20
-15.2743206039305
30
0
41
1
10
7.1435352154983
20
-15.2723664954752
30
0
41
1
10
7.17976687435106
20
-15.2658799044773
30
0
41
1
10
7.19977756726536
20
-15.2604302192604
30
0
41
1
10
7.24784029496976
20
-15.2437803206195
30
0
41
1
10
7.27150999874226
20
-15.231104729462
30
0
41
1
10
7.30990356794047
20
-15.2045789137682
30
0
41
1
10
7.32479596954559
20
-15.1904412165637
30
0
41
1
10
7.33660254037841
20
-15.1759383782004
30
0
0
SPLINE
5
111
100
AcDbEntity
8
1
62
256
6
ByLayer
370
-1
48
1
60
0
100
AcDbSpline
70
4
71
3
72
28
73
24
40
0
40
0
40
0
40
0
40
0.0866724631757348
40
0.0866724631757348
40
0.172516114641466
40
0.172516114641466
40
0.300289699830926
40
0.300289699830926
40
0.431707316322543
40
0.431707316322543
40
0.502673311461912
40
0.502673311461912
40
0.573816858219962
40
0.573816858219962
40
0.682853252127781
40
0.682853252127781
40
0.800471135816011
40
0.800471135816011
40
0.899781274177609
40
0.899781274177609
40
0.981852942660717
40
0.981852942660717
40
1
40
1
40
1
40
1
41
1
10
38.7050800348774
20
3.65122606750643
30
0
41
1
10
38.6897785215134
20
3.64290080455771
30
0
41
1
10
38.6823704754736
20
3.65708843408788
30
0
41
1
10
38.6777926566199
20
3.72336713885633
30
0
41
1
10
38.6803396067502
20
3.77553087614786
30
0
41
1
10
38.6902933161219
20
3.93594110645461
30
0
41
1
10
38.6999056912104
20
4.06135965987687
30
0
41
1
10
38.7026747710669
20
4.34334571173417
30
0
41
1
10
38.6968900114392
20
4.50647532958678
30
0
41
1
10
38.6313057677938
20
4.75931235761738
30
0
41
1
10
38.5953942432793
20
4.85011259327402
30
0
41
1
10
38.4942171438965
20
5.01736429777654
30
0
41
1
10
38.4279820908849
20
5.09533738901163
30
0
41
1
10
38.2448204835163
20
5.27030989492565
30
0
41
1
10
38.1181689347629
20
5.36088354873169
30
0
41
1
10
37.8639981266537
20
5.53534916830338
30
0
41
1
10
37.7328170706678
20
5.62038194169662
30
0
41
1
10
37.5208672000418
20
5.77264036908812
30
0
41
1
10
37.4333139890173
20
5.84190205438685
30
0
41
1
10
37.3131870382423
20
5.96390539084101
30
0
41
1
10
37.2727915682444
20
6.01867909996042
30
0
41
1
10
37.2485367260952
20
6.08186494114716
30
0
41
1
10
37.2450829199237
20
6.0933241113288
30
0
41
1
10
37.2426553067942
20
6.10463973754023
30
0
0
SPLINE
5
112
100
AcDbEntity
8
1
62
256
6
ByLayer
370
-1
48
1
60
0
100
AcDbSpline
70
4
71
3
72
10
73
6
40
0
40
0
40
0
40
0
40
0.752875539547927
40
0.752875539547927
40
1
40
1
40
1
40
1
41
1
10
36.9243163482518
20
7.95767991689453
30
0
41
1
10
37.010649927851
20
7.96049404640846
30
0
41
1
10
37.0990568590749
20
7.97717527767159
30
0
41
1
10
37.2104602331042
20
8.01744587442138
30
0
41
1
10
37.2377539364506
20
8.0289473654351
30
0
41
1
10
37.2644132281089
20
8.04188349909384
30
0
0
SPLINE
5
113
100
AcDbEntity
8
1
62
256
6
ByLayer
370
-1
48
1
60
0
100
AcDbSpline
70
4
71
3
72
8
73
4
40
0
40
0
40
0
40
0
40
1
40
1
40
1
40
1
41
1
10
37.537151902747
20
8.25801012930029
30
0
41
1
10
37.9370555553853
20
8.74753575297092
30
0
41
1
10
38.3398428314237
20
9.23486201910464
30
0
41
1
10
38.7443431880252
20
9.72084272507971
30
0
0
SPLINE
5
114
100
AcDbEntity
8
1
62
256
6
ByLayer
370
-1
48
1
60
0
100
AcDbSpline
70
4
71
3
72
16
73
12
40
0
40
0
40
0
40
0
40
0.0824510846571655
40
0.0824510846571655
40
0.188383068428384
40
0.188383068428384
40
0.365472907848039
40
0.365472907848039
40
0.680803291610385
40
0.680803291610385
40
1
40
1
40
1
40
1
41
1
10
4.9232050807569
20
-4.75546271781764
30
0
41
1
10
4.91089649083546
20
-4.75546271781764
30
0
41
1
10
4.89849486249383
20
-4.75706222436497
30
0
41
1
10
4.87125637552427
20
-4.76394233360963
30
0
41
1
10
4.8564647845017
20
-4.77020840137905
30
0
41
1
10
4.82023312564894
20
-4.79093881117953
30
0
41
1
10
4.80022243273464
20
-4.80829129424853
30
0
41
1
10
4.75215970503024
20
-4.86090601671924
30
0
41
1
10
4.72849000125774
20
-4.90053819345553
30
0
41
1
10
4.69009643205953
20
-4.98223274168748
30
0
41
1
10
4.67520403045441
20
-5.02519567059605
30
0
41
1
10
4.66339745962156
20
-5.06861858311177
30
0
0
SPLINE
5
115
100
AcDbEntity
8
1
62
256
6
ByLayer
370
-1
48
1
60
0
100
AcDbSpline
70
4
71
3
72
18
73
14
40
0
40
0
40
0
40
0
40
0.0872973106983417
40
0.0872973106983417
40
0.542504713769245
40
0.542504713769245
40
0.700049237734307
40
0.700049237734307
40
0.859641035571736
40
0.859641035571736
40
0.97080052564029
40
0.97080052564029
40
1
40
1
40
1
40
1
41
1
10
4.66339745962154
20
5.06861858311169
30
0
41
1
10
4.66664048724547
20
5.05669118210812
30
0
41
1
10
4.67011875476442
20
5.04481392106402
30
0
41
1
10
4.69320396133114
20
4.97182102384318
30
0
41
1
10
4.71929050879203
20
4.91100060572398
30
0
41
1
10
4.77107527248015
20
4.83986869632042
30
0
41
1
10
4.78620198735476
20
4.82232975779158
30
0
41
1
10
4.82059850439146
20
4.79137868546448
30
0
41
1
10
4.84035202645154
20
4.77770433946458
30
0
41
1
10
4.87713528116666
20
4.76194246224043
30
0
41
1
10
4.89353665034179
20
4.75754333105169
30
0
41
1
10
4.91442266320465
20
4.75566124801006
30
0
41
1
10
4.91881627021672
20
4.75546271781752
30
0
41
1
10
4.92320508075687
20
4.75546271781752
30
0
0
SPLINE
5
116
100
AcDbEntity
8
1
62
256
6
ByLayer
370
-1
48
1
60
0
100
AcDbSpline
70
4
71
3
72
18
73
14
40
0
40
0
40
0
40
0
40
0.0872973106983429
40
0.0872973106983429
40
0.542504713769251
40
0.542504713769251
40
0.700049237734308
40
0.700049237734308
40
0.859641035571733
40
0.859641035571733
40
0.970800525640285
40
0.970800525640285
40
1
40
1
40
1
40
1
41
1
10
4.66339745962154
20
-15.1759383782004
30
0
41
1
10
4.66664048724547
20
-15.1799220163036
30
0
41
1
10
4.67011875476442
20
-15.1838732610658
30
0
41
1
10
4.69320396133114
20
-15.2080620258527
30
0
41
1
10
4.71929050879203
20
-15.2277749876852
30
0
41
1
10
4.77107527248018
20
-15.2504441152008
30
0
41
1
10
4.78620198735476
20
-15.2559954463097
30
0
41
1
10
4.82059850439146
20
-15.2657445103485
30
0
41
1
10
4.84035202645154
20
-15.2700240892114
30
0
41
1
10
4.87713528116666
20
-15.2749451765724
30
0
41
1
10
4.89353665034179
20
-15.2763144731656
30
0
41
1
10
4.91442266320465
20
-15.2769004141622
30
0
41
1
10
4.91881627021672
20
-15.2769622091386
30
0
41
1
10
4.92320508075687
20
-15.2769622091386
30
0
0
SPLINE
5
117
100
AcDbEntity
8
SK1
62
256
6
ByLayer
370
-1
48
1
60
0
100
AcDbSpline
70
4
71
3
72
16
73
12
40
0
40
0
40
0
40
0
40
0.728793665176563
40
0.728793665176563
40
0.930736545716578
40
0.930736545716578
40
0.980998218008077
40
0.980998218008077
40
0.998363456561501
40
0.998363456561501
40
1
40
1
40
1
40
1
41
1
10
-1.69989009590069
20
10.912317360478
30
0
41
1
10
-1.69920451821673
20
10.8740263951111
30
0
41
1
10
-1.69726521816682
20
10.8323287812115
30
0
41
1
10
-1.67853907532424
20
10.7628347797173
30
0
41
1
10
-1.67397095661659
20
10.7468498525868
30
0
41
1
10
-1.66077432528928
20
10.7213614533972
30
0
41
1
10
-1.65762501801399
20
10.7157991042865
30
0
41
1
10
-1.65185849839088
20
10.7076227829041
30
0
41
1
10
-1.65019504375894
20
10.7054125901193
30
0
41
1
10
-1.64820351311136
20
10.7029989741329
30
0
41
1
10
-1.64803123857539
20
10.7027920046667
30
0
41
1
10
-1.64785721130747
20
10.7025847521311
30
0
0
SPLINE
5
118
100
AcDbEntity
8
1
62
256
6
ByLayer
370
-1
48
1
60
0
100
AcDbSpline
70
4
71
3
72
14
73
10
40
0
40
0
40
0
40
0
40
0.0488763984551937
40
0.0488763984551937
40
0.385924317779964
40
0.385924317779964
40
0.8332117426986
40
0.8332117426986
40
1
40
1
40
1
40
1
41
1
10
47.5820353374607
20
6.68803494585819
30
0
41
1
10
47.5823874009159
20
6.68311507206639
30
0
41
1
10
47.5828361639692
20
6.67822659863694
30
0
41
1
10
47.5870995061836
20
6.64022162042482
30
0
41
1
10
47.5954363371229
20
6.60858912865271
30
0
41
1
10
47.6231270465607
20
6.54277991352637
30
0
41
1
10
47.6455274235824
20
6.50990962167575
30
0
41
1
10
47.6820302867568
20
6.47246982322073
30
0
41
1
10
47.6926698183637
20
6.46293842990573
30
0
41
1
10
47.7038470648827
20
6.45414874416073
30
0
0
SPLINE
5
119
100
AcDbEntity
8
1
62
256
6
ByLayer
370
-1
48
1
60
0
100
AcDbSpline
70
4
71
3
72
18
73
14
40
0
40
0
40
0
40
0
40
0.207610655601373
40
0.207610655601373
40
0.384210677338117
40
0.384210677338117
40
0.562516328114122
40
0.562516328114122
40
0.717620623459243
40
0.717620623459243
40
0.922818488238298
40
0.922818488238298
40
1
40
1
40
1
40
1
41
1
10
46.6581846365868
20
5.87545289398778
30
0
41
1
10
46.6464567088272
20
5.90912025961086
30
0
41
1
10
46.6281988801697
20
5.94274984568696
30
0
41
1
10
46.5824847728441
20
6.001480146402
30
0
41
1
10
46.5562041409163
20
6.02775236547387
30
0
41
1
10
46.4954574047074
20
6.07500625522755
30
0
41
1
10
46.4599399742484
20
6.09659882800855
30
0
41
1
10
46.3908309253924
20
6.12871614785098
30
0
41
1
10
46.356785703334
20
6.14072106320216
30
0
41
1
10
46.2792606821113
20
6.16026522823969
30
0
41
1
10
46.234965527091
20
6.16553825507117
30
0
41
1
10
46.1775048368771
20
6.16517668032674
30
0
41
1
10
46.1619440321402
20
6.16429446711294
30
0
41
1
10
46.1467427956825
20
6.16266232892249
30
0
0
SPLINE
5
11A
100
AcDbEntity
8
1
62
256
6
ByLayer
370
-1
48
1
60
0
100
AcDbSpline
70
4
71
3
72
14
73
10
40
0
40
0
40
0
40
0
40
0.263776671884401
40
0.263776671884401
40
0.553587506064706
40
0.553587506064706
40
0.815939925983204
40
0.815939925983204
40
1
40
1
40
1
40
1
41
1
10
47.0144587965622
20
7.6122388117299
30
0
41
1
10
47.00934410838
20
7.63313304272268
30
0
41
1
10
47.0010016330132
20
7.65360350098391
30
0
41
1
10
46.9772968964408
20
7.69240035836282
30
0
41
1
10
46.9609024854747
20
7.71090386357292
30
0
41
1
10
46.9244437127417
20
7.73850619557902
30
0
41
1
10
46.904300486932
20
7.74871438975975
30
0
41
1
10
46.8684450084779
20
7.75888193383088
30
0
41
1
10
46.852893392954
20
7.76109717574937
30
0
41
1
10
46.8374672861742
20
7.76116449167321
30
0
0
SPLINE
5
11B
100
AcDbEntity
8
1
62
256
6
ByLayer
370
-1
48
1
60
0
100
AcDbSpline
70
4
71
3
72
12
73
8
40
0
40
0
40
0
40
0
40
0.459485808155076
40
0.459485808155076
40
0.841721382595065
40
0.841721382595065
40
1
40
1
40
1
40
1
41
1
10
47.703847064887
20
7.02580006920803
30
0
41
1
10
47.6733199763511
20
6.99057035211118
30
0
41
1
10
47.6465618308717
20
6.95013929567332
30
0
41
1
10
47.6089430238676
20
6.87042821314185
30
0
41
1
10
47.595831318818
20
6.83118162013429
30
0
41
1
10
47.5853146861288
20
6.77540840088147
30
0
41
1
10
47.5831689481901
20
6.75889786434809
30
0
41
1
10
47.5820353374607
20
6.74254475801624
30
0
0
SPLINE
5
11C
100
AcDbEntity
8
1
62
256
6
ByLayer
370
-1
48
1
60
0
100
AcDbSpline
70
4
71
3
72
14
73
10
40
0
40
0
40
0
40
0
40
0.197618050949057
40
0.197618050949057
40
0.495649249901684
40
0.495649249901684
40
0.765003710289585
40
0.765003710289585
40
1
40
1
40
1
40
1
41
1
10
46.6581846365855
20
5.87545289398713
30
0
41
1
10
46.6622766863461
20
5.86370584555104
30
0
41
1
10
46.668147458762
20
5.85208851629199
30
0
41
1
10
46.6870555176505
20
5.82459506871925
30
0
41
1
10
46.7026253073121
20
5.80908478482294
30
0
41
1
10
46.738151717609
20
5.78513499350279
30
0
41
1
10
46.7581142572566
20
5.77582145172818
30
0
41
1
10
46.7978096140565
20
5.76461406957426
30
0
41
1
10
46.8177937329023
20
5.76178388204227
30
0
41
1
10
46.8374672861742
20
5.76169803125484
30
0
0
SPLINE
5
11D
100
AcDbEntity
8
1
62
256
6
ByLayer
370
-1
48
1
60
0
100
AcDbSpline
70
4
71
3
72
18
73
14
40
0
40
0
40
0
40
0
40
0.19320594587953
40
0.19320594587953
40
0.372396640025458
40
0.372396640025458
40
0.553460003940655
40
0.553460003940655
40
0.709164493568119
40
0.709164493568119
40
0.911896175490161
40
0.911896175490161
40
1
40
1
40
1
40
1
41
1
10
46.1467427956825
20
7.33104769921135
30
0
41
1
10
46.1844165632883
20
7.31620260001213
30
0
41
1
10
46.2245990322313
20
7.30654282307884
30
0
41
1
10
46.3034715509644
20
7.30091636281523
30
0
41
1
10
46.3429824122729
20
7.30407347653752
30
0
41
1
10
46.4196420314613
20
7.32414739285156
30
0
41
1
10
46.4578925493286
20
7.34168666603671
30
0
41
1
10
46.520904143268
20
7.38535894611289
30
0
41
1
10
46.5475851243221
20
7.41040630136757
30
0
41
1
10
46.5994765967959
20
7.47373178456283
30
0
41
1
10
46.6228064750005
20
7.5146570756431
30
0
41
1
10
46.6469595737805
20
7.57556473449941
30
0
41
1
10
46.6531557988253
20
7.59457615594948
30
0
41
1
10
46.6581846365875
20
7.61379350887853
30
0
0
SPLINE
5
11E
100
AcDbEntity
8
1
62
256
6
ByLayer
370
-1
48
1
60
0
100
AcDbSpline
70
4
71
3
72
18
73
14
40
0
40
0
40
0
40
0
40
0.193293611183356
40
0.193293611183356
40
0.372472976029554
40
0.372472976029554
40
0.553524092713937
40
0.553524092713937
40
0.709228117232063
40
0.709228117232063
40
0.911978194012447
40
0.911978194012447
40
1
40
1
40
1
40
1
41
1
10
47.0144587965618
20
7.61223881172975
30
0
41
1
10
47.024695055852
20
7.57042223201
30
0
41
1
10
47.040601771547
20
7.52924355095448
30
0
41
1
10
47.0822339831719
20
7.45605909403562
30
0
41
1
10
47.1077396579907
20
7.42282709456742
30
0
41
1
10
47.1677218800427
20
7.36657166712322
30
0
41
1
10
47.2032932060862
20
7.34294845851591
30
0
41
1
10
47.272893920156
20
7.31281968183052
30
0
41
1
10
47.3072537400357
20
7.30395479369562
30
0
41
1
10
47.3851680166561
20
7.29526789548567
30
0
41
1
10
47.4296661317789
20
7.29864419642857
30
0
41
1
10
47.4901144446525
20
7.31277972946478
30
0
41
1
10
47.5082395826284
20
7.31834665271109
30
0
41
1
10
47.5259006374656
20
7.32502937679251
30
0
0
SPLINE
5
11F
100
AcDbEntity
8
1
62
256
6
ByLayer
370
-1
48
1
60
0
100
AcDbSpline
70
4
71
3
72
14
73
10
40
0
40
0
40
0
40
0
40
0.014215121287438
40
0.014215121287438
40
0.353611630535849
40
0.353611630535849
40
0.791542897948672
40
0.791542897948672
40
1
40
1
40
1
40
1
41
1
10
46.0873125420742
20
6.74906737887707
30
0
41
1
10
46.0872128628818
20
6.75055061096751
30
0
41
1
10
46.0871052040575
20
6.75203485080345
30
0
41
1
10
46.084262447005
20
6.78855101926024
30
0
41
1
10
46.0769457021801
20
6.82441597277952
30
0
41
1
10
46.0518729776021
20
6.90226708360061
30
0
41
1
10
46.0314130369461
20
6.9443236116289
30
0
41
1
10
45.9951674824143
20
6.99995088776956
30
0
41
1
10
45.9823862101689
20
7.01716064861023
30
0
41
1
10
45.9687851969904
20
7.03337147359738
30
0
0
SPLINE
5
120
100
AcDbEntity
8
1
62
256
6
ByLayer
370
-1
48
1
60
0
100
AcDbSpline
70
4
71
3
72
14
73
10
40
0
40
0
40
0
40
0
40
0.219838222796395
40
0.219838222796395
40
0.515128902839758
40
0.515128902839758
40
0.7820789473199
40
0.7820789473199
40
1
40
1
40
1
40
1
41
1
10
47.5259006374668
20
6.15664400650326
30
0
41
1
10
47.5418914699863
20
6.15481929620194
30
0
41
1
10
47.5587648172853
20
6.15487838130667
30
0
41
1
10
47.5984781607844
20
6.15987342508856
30
0
41
1
10
47.622060905264
20
6.16662400067958
30
0
41
1
10
47.6638240731817
20
6.18662473867698
30
0
41
1
10
47.6829273227865
20
6.19952951087561
30
0
41
1
10
47.7124069858645
20
6.22729552559659
30
0
41
1
10
47.7240932048326
20
6.24169165662093
30
0
41
1
10
47.7332319344578
20
6.25691308894682
30
0
0
SPLINE
5
121
100
AcDbEntity
8
1
62
256
6
ByLayer
370
-1
48
1
60
0
100
AcDbSpline
70
4
71
3
72
14
73
10
40
0
40
0
40
0
40
0
40
0.318084166587842
40
0.318084166587842
40
0.608562166008052
40
0.608562166008052
40
0.864305967318017
40
0.864305967318017
40
1
40
1
40
1
40
1
41
1
10
47.703847064887
20
7.02580006920803
30
0
41
1
10
47.7206301670124
20
7.04516857004595
30
0
41
1
10
47.73469231094
20
7.0681669531304
30
0
41
1
10
47.7526972966491
20
7.11535249886018
30
0
41
1
10
47.7576474149072
20
7.14002974660573
30
0
41
1
10
47.7580939658778
20
7.1857800842993
30
0
41
1
10
47.7546205363886
20
7.20761256479892
30
0
41
1
10
47.743778709547
20
7.23825457879036
30
0
41
1
10
47.7389597802569
20
7.24854135140936
30
0
41
1
10
47.7332319344578
20
7.25813161893313
30
0
0
SPLINE
5
122
100
AcDbEntity
8
1
62
256
6
ByLayer
370
-1
48
1
60
0
100
AcDbSpline
70
4
71
3
72
16
73
12
40
0
40
0
40
0
40
0
40
0.0634480931511407
40
0.0634480931511407
40
0.287401248858879
40
0.287401248858879
40
0.514143151615016
40
0.514143151615016
40
0.755257540040438
40
0.755257540040438
40
1
40
1
40
1
40
1
41
1
10
45.9417026378906
20
7.26594943398123
30
0
41
1
10
45.9390205958807
20
7.26148223529793
30
0
41
1
10
45.9365355288138
20
7.25686755698953
30
0
41
1
10
45.9262996650561
20
7.23555270510059
30
0
41
1
10
45.9209016347055
20
7.21722855709675
30
0
41
1
10
45.9158274652789
20
7.17988108227024
30
0
41
1
10
45.916144119056
20
7.16037916880859
30
0
41
1
10
45.9221679915491
20
7.1216183745033
30
0
41
1
10
45.9282713567686
20
7.10196555301675
30
0
41
1
10
45.9451476953466
20
7.06555151390998
30
0
41
1
10
45.9561510350018
20
7.04842992447641
30
0
41
1
10
45.9687851969903
20
7.0333714735973
30
0
0
SPLINE
5
123
100
AcDbEntity
8
1
62
256
6
ByLayer
370
-1
48
1
60
0
100
AcDbSpline
70
4
71
3
72
18
73
14
40
0
40
0
40
0
40
0
40
0.0053373074502915
40
0.0053373074502915
40
0.231448760171966
40
0.231448760171966
40
0.457002852552796
40
0.457002852552796
40
0.694240448504107
40
0.694240448504107
40
0.952962655012591
40
0.952962655012591
40
1
40
1
40
1
40
1
41
1
10
46.8374672861742
20
5.76169803125484
30
0
41
1
10
46.8379194379981
20
5.76169605816997
30
0
41
1
10
46.8383715802907
20
5.76169548324822
30
0
41
1
10
46.8577163370844
20
5.76173070786373
30
0
41
1
10
46.876811254494
20
5.76428875010256
30
0
41
1
10
46.912247523704
20
5.77385676495027
30
0
41
1
10
46.9290542915595
20
5.78096750977585
30
0
41
1
10
46.9593353115205
20
5.79887870550203
30
0
41
1
10
46.9729831985719
20
5.81006216854306
30
0
41
1
10
46.9960516086932
20
5.83555376359612
30
0
41
1
10
47.0052844755827
20
5.85036064526187
30
0
41
1
10
47.012515707037
20
5.86828562291149
30
0
41
1
10
47.0135376742165
20
5.87108600031502
30
0
41
1
10
47.0144587965621
20
5.87389819683676
30
0
0
SPLINE
5
124
100
AcDbEntity
8
1
62
256
6
ByLayer
370
-1
48
1
60
0
100
AcDbSpline
70
4
71
3
72
12
73
8
40
0
40
0
40
0
40
0
40
0.404489726079094
40
0.404489726079094
40
0.796334333365818
40
0.796334333365818
40
1
40
1
40
1
40
1
41
1
10
45.9687851969925
20
6.4617201485475
30
0
41
1
10
45.9950194287183
20
6.48263707114251
30
0
41
1
10
46.0183242245544
20
6.50804442535394
30
0
41
1
10
46.0553412850851
20
6.56612702243373
30
0
41
1
10
46.069676073913
20
6.59931808051218
30
0
41
1
10
46.0828585819242
20
6.65437914219879
30
0
41
1
10
46.0859000406978
20
6.6742216293039
30
0
41
1
10
46.0873125420742
20
6.69455756671891
30
0
0
SPLINE
5
125
100
AcDbEntity
8
1
62
256
6
ByLayer
370
-1
48
1
60
0
100
AcDbSpline
70
4
71
3
72
14
73
10
40
0
40
0
40
0
40
0
40
0.279809744297796
40
0.279809744297796
40
0.567613048610884
40
0.567613048610884
40
0.828345652223302
40
0.828345652223302
40
1
40
1
40
1
40
1
41
1
10
46.1467427956825
20
7.33104769921175
30
0
41
1
10
46.1267696739362
20
7.33891797586537
30
0
41
1
10
46.1052689627185
20
7.34344799935749
30
0
41
1
10
46.0619285505459
20
7.34436121151728
30
0
41
1
10
46.0394261358016
20
7.34047969568155
30
0
41
1
10
46.0000614821869
20
7.32458452735076
30
0
41
1
10
45.982291039189
20
7.31309558847789
30
0
41
1
10
45.9576404546501
20
7.28900568914059
30
0
41
1
10
45.9489085735754
20
7.27795161227834
30
0
41
1
10
45.9417026378906
20
7.26594943398123
30
0
0
SPLINE
5
126
100
AcDbEntity
8
1
62
256
6
ByLayer
370
-1
48
1
60
0
100
AcDbSpline
70
4
71
3
72
18
73
14
40
0
40
0
40
0
40
0
40
0.0208791201063698
40
0.0208791201063698
40
0.245857146493305
40
0.245857146493305
40
0.471189609605709
40
0.471189609605709
40
0.708915467328214
40
0.708915467328214
40
0.96863040557343
40
0.96863040557343
40
1
40
1
40
1
40
1
41
1
10
47.7332319344578
20
6.25691308894682
30
0
41
1
10
47.7341184218276
20
6.25838961884327
30
0
41
1
10
47.7349828117501
20
6.25987560956455
30
0
41
1
10
47.7447889910722
20
6.27728629587355
30
0
41
1
10
47.7512208934958
20
6.29441238016983
30
0
41
1
10
47.7581619646765
20
6.32825580682533
30
0
41
1
10
47.7587639436163
20
6.34540419862338
30
0
41
1
10
47.754471074257
20
6.37845653127684
30
0
41
1
10
47.7492375161922
20
6.39465803727981
30
0
41
1
10
47.7333370650147
20
6.42476333092753
30
0
41
1
10
47.7220333530742
20
6.43870335423159
30
0
41
1
10
47.7071689166849
20
6.45147777823749
30
0
41
1
10
47.705522518331
20
6.45283118269657
30
0
41
1
10
47.7038470648826
20
6.45414874416082
30
0
0
SPLINE
5
127
100
AcDbEntity
8
1
62
256
6
ByLayer
370
-1
48
1
60
0
100
AcDbSpline
70
4
71
3
72
16
73
12
40
0
40
0
40
0
40
0
40
0.133194644422949
40
0.133194644422949
40
0.438211863100326
40
0.438211863100326
40
0.714144221154224
40
0.714144221154224
40
0.958760863458159
40
0.958760863458159
40
1
40
1
40
1
40
1
41
1
10
45.9687851969897
20
6.46172014855063
30
0
41
1
10
45.9618836913797
20
6.4562174808859
30
0
41
1
10
45.9554818537233
20
6.45005549424394
30
0
41
1
10
45.9366213662884
20
6.42798617585757
30
0
41
1
10
45.9266089751438
20
6.40918669120933
30
0
41
1
10
45.9164211096753
20
6.36994864905861
30
0
41
1
10
45.9152863676282
20
6.34921466939358
30
0
41
1
10
45.921199810796
20
6.31013801425252
30
0
41
1
10
45.9274446412027
20
6.29122564728391
30
0
41
1
10
45.9382807672795
20
6.27063867920629
30
0
41
1
10
45.9399494599968
20
6.26766629115576
30
0
41
1
10
45.9417026378906
20
6.26473090399492
30
0
0
SPLINE
5
128
100
AcDbEntity
8
1
62
256
6
ByLayer
370
-1
48
1
60
0
100
AcDbSpline
70
4
71
3
72
16
73
12
40
0
40
0
40
0
40
0
40
0.0521257352456927
40
0.0521257352456927
40
0.276951235277287
40
0.276951235277287
40
0.503923548795004
40
0.503923548795004
40
0.744782359657985
40
0.744782359657985
40
1
40
1
40
1
40
1
41
1
10
46.8374672861742
20
7.76116449167321
30
0
41
1
10
46.8330749107139
20
7.76118365897293
30
0
41
1
10
46.8286778822459
20
7.76103218999202
30
0
41
1
10
46.8055475167437
20
7.75933680281952
30
0
41
1
10
46.7867895035552
20
7.75474100165735
30
0
41
1
10
46.752055193485
20
7.74001020929356
30
0
41
1
10
46.7356589082594
20
7.72964888976279
30
0
41
1
10
46.7062702929213
20
7.70418285121585
30
0
41
1
10
46.6931668437603
20
7.68852367853319
30
0
41
1
10
46.6717334340751
20
7.65368591597877
30
0
41
1
10
46.6634605891191
20
7.63395519367131
30
0
41
1
10
46.6581846365875
20
7.61379350887853
30
0
0
SPLINE
5
129
100
AcDbEntity
8
1
62
256
6
ByLayer
370
-1
48
1
60
0
100
AcDbSpline
70
4
71
3
72
16
73
12
40
0
40
0
40
0
40
0
40
0.0966084595564612
40
0.0966084595564612
40
0.320715851551907
40
0.320715851551907
40
0.549451844708919
40
0.549451844708919
40
0.79408116323548
40
0.79408116323548
40
1
40
1
40
1
40
1
41
1
10
47.7332319344578
20
7.25813161893313
30
0
41
1
10
47.7291697106588
20
7.26493309619718
30
0
41
1
10
47.7246277316271
20
7.2714287650526
30
0
41
1
10
47.7082456455001
20
7.29159102303137
30
0
41
1
10
47.6943775878477
20
7.30370515402504
30
0
41
1
10
47.6638499709271
20
7.32251507022818
30
0
41
1
10
47.6467604201279
20
7.3293460152635
30
0
41
1
10
47.6107344347438
20
7.33740639172231
30
0
41
1
10
47.5913074864252
20
7.33833457478636
30
0
41
1
10
47.556590395414
20
7.33454196559694
30
0
41
1
10
47.5408640921732
20
7.33069136244688
30
0
41
1
10
47.5259006374655
20
7.32502937679305
30
0
0
SPLINE
5
12A
100
AcDbEntity
8
1
62
256
6
ByLayer
370
-1
48
1
60
0
100
AcDbSpline
70
4
71
3
72
18
73
14
40
0
40
0
40
0
40
0
40
0.211894648550194
40
0.211894648550194
40
0.387688726614419
40
0.387688726614419
40
0.565137191854258
40
0.565137191854258
40
0.720050775234285
40
0.720050775234285
40
0.925963158268109
40
0.925963158268109
40
1
40
1
40
1
40
1
41
1
10
47.525900637467
20
6.15664400650385
30
0
41
1
10
47.483820614257
20
6.16144574848548
30
0
41
1
10
47.4386865549482
20
6.16068033721433
30
0
41
1
10
47.3551350773357
20
6.14801335251482
30
0
41
1
10
47.3159458613293
20
6.13782296477814
30
0
41
1
10
47.2406534007321
20
6.10913004290404
30
0
41
1
10
47.2035149484002
20
6.09007163876828
30
0
41
1
10
47.1424611363076
20
6.04921053923886
30
0
41
1
10
47.1167039087191
20
6.02759454862661
30
0
41
1
10
47.0664841901428
20
5.97509473770495
30
0
41
1
10
47.0442472197298
20
5.94263113807432
30
0
41
1
10
47.0231746903921
20
5.89794605992341
30
0
41
1
10
47.0184053883668
20
5.88594718446495
30
0
41
1
10
47.0144587965621
20
5.87389819683676
30
0
0
SPLINE
5
12B
100
AcDbEntity
8
1
62
256
6
ByLayer
370
-1
48
1
60
0
100
AcDbSpline
70
4
71
3
72
16
73
12
40
0
40
0
40
0
40
0
40
0.186443275364385
40
0.186443275364385
40
0.411051379260807
40
0.411051379260807
40
0.645061288502824
40
0.645061288502824
40
0.89878408949528
40
0.89878408949528
40
1
40
1
40
1
40
1
41
1
10
45.9417026378906
20
6.26473090399492
30
0
41
1
10
45.9495050083779
20
6.25166721078142
30
0
41
1
10
45.9591070385581
20
6.23920147046428
30
0
41
1
10
45.9829740120072
20
6.21454743431426
30
0
41
1
10
45.9981082074428
20
6.20263481732329
30
0
41
1
10
46.0306970828696
20
6.18304683843019
30
0
41
1
10
46.0486242781479
20
6.17530878203894
30
0
41
1
10
46.0858605396953
20
6.16447534968731
30
0
41
1
10
46.1056211088722
20
6.16167060456675
30
0
41
1
10
46.1319872955376
20
6.16150149991338
30
0
41
1
10
46.1394522496065
20
6.16187955189554
30
0
41
1
10
46.1467427956825
20
6.16266232892247
30
0
0
SPLINE
5
12C
100
AcDbEntity
8
SK1
62
256
6
ByLayer
370
-1
48
1
60
0
100
AcDbSpline
70
4
71
3
72
10
73
6
40
0
40
0
40
0
40
0
40
0.5
40
0.5
40
1
40
1
40
1
40
1
41
1
10
-1.69996579751435
20
2.34399454350793
30
0
41
1
10
-1.82597576019364
20
1.61001532399777
30
0
41
1
10
-1.92804003196062
20
0.809037898581778
30
0
41
1
10
-1.92909522738216
20
-0.795359530273288
30
0
41
1
10
-1.82836818305549
20
-1.5960753900805
30
0
41
1
10
-1.69996579738208
20
-2.34399541728104
30
0
0
SPLINE
5
12D
100
AcDbEntity
8
SK1
62
256
6
ByLayer
370
-1
48
1
60
0
100
AcDbSpline
70
4
71
3
72
34
73
30
40
0
40
0
40
0
40
0
40
0.0112669685476344
40
0.0112669685476344
40
0.0589394571116572
40
0.0589394571116572
40
0.154535986936514
40
0.154535986936514
40
0.250071361964324
40
0.250071361964324
40
0.345575677084997
40
0.345575677084997
40
0.441065554336841
40
0.441065554336841
40
0.536552664117362
40
0.536552664117362
40
0.632047854666968
40
0.632047854666968
40
0.727564602398187
40
0.727564602398187
40
0.823124579528518
40
0.823124579528518
40
0.87079299706182
40
0.87079299706182
40
0.918469321596032
40
0.918469321596032
40
0.966157775290179
40
0.966157775290179
40
1
40
1
40
1
40
1
41
1
10
-1.69993676286353
20
11.0201001927739
30
0
41
1
10
-1.69993832691927
20
11.0201347387088
30
0
41
1
10
-1.69993984120723
20
11.019627451577
30
0
41
1
10
-1.69994751366468
20
11.0142188011048
30
0
41
1
10
-1.69995287995741
20
11.000405024139
30
0
41
1
10
-1.69996695296894
20
10.9332843475555
30
0
41
1
10
-1.69997367173841
20
10.8542029227334
30
0
41
1
10
-1.69998386152667
20
10.6377999041158
30
0
41
1
10
-1.69998734498478
20
10.5001171728846
30
0
41
1
10
-1.69999246905712
20
10.1728975826325
30
0
41
1
10
-1.69999411792992
20
9.98292332235604
30
0
41
1
10
-1.69999643908523
20
9.55552993499316
30
0
41
1
10
-1.6999971168857
20
9.31759782738115
30
0
41
1
10
-1.69999798411865
20
8.79743010432028
30
0
41
1
10
-1.69999817542507
20
8.51459573987518
30
0
41
1
10
-1.69999824461601
20
7.90689005466763
30
0
41
1
10
-1.69999812267855
20
7.58130243438197
30
0
41
1
10
-1.69999744438482
20
6.8897188186929
30
0
41
1
10
-1.69999688682344
20
6.52282614529054
30
0
41
1
10
-1.69999489291331
20
5.74978712553676
30
0
41
1
10
-1.69999345206901
20
5.34244656677163
30
0
41
1
10
-1.69999000494022
20
4.70303852615055
30
0
41
1
10
-1.69998863813785
20
4.48501546085996
30
0
41
1
10
-1.6999853268313
20
4.03938656106379
30
0
41
1
10
-1.69998338085909
20
3.81152710629337
30
0
41
1
10
-1.69997876258688
20
3.34638056322453
30
0
41
1
10
-1.69997608351477
20
3.10876440414407
30
0
41
1
10
-1.69997079701292
20
2.69478121630701
30
0
41
1
10
-1.69996839509747
20
2.52048785703786
30
0
41
1
10
-1.69996579751816
20
2.34399454350842
30
0
0
SPLINE
5
12E
100
AcDbEntity
8
SK1
62
256
6
ByLayer
370
-1
48
1
60
0
100
AcDbSpline
70
4
71
3
72
24
73
20
40
0
40
0
40
0
40
0
40
0.0328018957179906
40
0.0328018957179906
40
0.0580115245090542
40
0.0580115245090542
40
0.0778208389574741
40
0.0778208389574741
40
0.097644311150624
40
0.097644311150624
40
0.124532840317859
40
0.124532840317859
40
0.172338195618674
40
0.172338195618674
40
0.321679294348735
40
0.321679294348735
40
0.940172242825352
40
0.940172242825352
40
1
40
1
40
1
40
1
41
1
10
-0.400000000000006
20
-10.7720903270618
30
0
41
1
10
-0.394111355098602
20
-10.7726946640025
30
0
41
1
10
-0.38763899085788
20
-10.7735074107736
30
0
41
1
10
-0.374999497999255
20
-10.7755463299797
30
0
41
1
10
-0.368988434639903
20
-10.7766582562045
30
0
41
1
10
-0.357779191188428
20
-10.7790947211554
30
0
41
1
10
-0.352573525529323
20
-10.7803510360362
30
0
41
1
10
-0.342444927003157
20
-10.7830631767083
30
0
41
1
10
-0.337408731680881
20
-10.7845489216127
30
0
41
1
10
-0.326477488214351
20
-10.7880399886084
30
0
41
1
10
-0.320718590221389
20
-10.790094933621
30
0
41
1
10
-0.306589885788839
20
-10.7955138573257
30
0
41
1
10
-0.299229318200872
20
-10.7987886768127
30
0
41
1
10
-0.273318263088015
20
-10.8111744132949
30
0
41
1
10
-0.26176150519791
20
-10.8187552826324
30
0
41
1
10
-0.212916331686188
20
-10.8527221106266
30
0
41
1
10
-0.206214896622498
20
-10.8665219361729
30
0
41
1
10
-0.201533413873392
20
-10.8753408303316
30
0
41
1
10
-0.201190372651638
20
-10.8760574791318
30
0
41
1
10
-0.200913816305359
20
-10.8767118969305
30
0
0
SPLINE
5
12F
100
AcDbEntity
8
SK1
62
256
6
ByLayer
370
-1
48
1
60
0
100
AcDbSpline
70
4
71
3
72
26
73
22
40
0
40
0
40
0
40
0
40
0.181670133134577
40
0.181670133134577
40
0.500381742368571
40
0.500381742368571
40
0.662914270274403
40
0.662914270274403
40
0.786141067346557
40
0.786141067346557
40
0.848026423881255
40
0.848026423881255
40
0.876881531207152
40
0.876881531207152
40
0.906127379638037
40
0.906127379638037
40
0.932036983117284
40
0.932036983117284
40
0.970755326487456
40
0.970755326487456
40
1
40
1
40
1
40
1
41
1
10
-0.207639153329268
20
10.8658723660148
30
0
41
1
10
-0.209793339171
20
10.8631095774929
30
0
41
1
10
-0.212493396468147
20
10.8599486976376
30
0
41
1
10
-0.221736537161121
20
10.8500406644013
30
0
41
1
10
-0.229595996987712
20
10.842375997527
30
0
41
1
10
-0.248697987408263
20
10.8277247348159
30
0
41
1
10
-0.256401529113873
20
10.8222273926603
30
0
41
1
10
-0.274672330728549
20
10.8111348764243
30
0
41
1
10
-0.284031111048876
20
10.8058441112873
30
0
41
1
10
-0.303862792072039
20
10.7967411489855
30
0
41
1
10
-0.311673384937649
20
10.793419574543
30
0
41
1
10
-0.325697750675346
20
10.78834194919
30
0
41
1
10
-0.33065907740334
20
10.7866628614953
30
0
41
1
10
-0.341238014585628
20
10.7834040520235
30
0
41
1
10
-0.347013203094093
20
10.7817865260973
30
0
41
1
10
-0.357712157030278
20
10.77910778386
30
0
41
1
10
-0.362775636738405
20
10.7779724373213
30
0
41
1
10
-0.374620388322256
20
10.7755812023392
30
0
41
1
10
-0.381238297735337
20
10.7744865169402
30
0
41
1
10
-0.391758607838909
20
10.773005485568
30
0
41
1
10
-0.396007428966897
20
10.7725001016588
30
0
41
1
10
-0.400000000000091
20
10.7720903551647
30
0
0
SPLINE
5
130
100
AcDbEntity
8
SK1
62
256
6
ByLayer
370
-1
48
1
60
0
100
AcDbSpline
70
4
71
3
72
20
73
16
40
0
40
0
40
0
40
0
40
0.140420538696876
40
0.140420538696876
40
0.283113565135661
40
0.283113565135661
40
0.383003749297675
40
0.383003749297675
40
0.482719595028296
40
0.482719595028296
40
0.629860782986993
40
0.629860782986993
40
0.909835980316099
40
0.909835980316099
40
1
40
1
40
1
40
1
41
1
10
-0.400000000000006
20
10.7720903551641
30
0
41
1
10
-0.420485425404365
20
10.7699879927591
30
0
41
1
10
-0.442853612204175
20
10.7679559042768
30
0
41
1
10
-0.492317942748457
20
10.7644479456746
30
0
41
1
10
-0.520199073627083
20
10.7629489681196
30
0
41
1
10
-0.570414744597741
20
10.7615601980511
30
0
41
1
10
-0.592388657551908
20
10.7613257206405
30
0
41
1
10
-0.63522227612188
20
10.7616521249958
30
0
41
1
10
-0.656551809000547
20
10.762210406105
30
0
41
1
10
-0.705635225108949
20
10.7642598717253
30
0
41
1
10
-0.732559682028807
20
10.7660705901044
30
0
41
1
10
-0.802383167639874
20
10.7718500865204
30
0
41
1
10
-0.840123259759565
20
10.7763551487408
30
0
41
1
10
-0.883850457362342
20
10.7820664301106
30
0
41
1
10
-0.89406634953383
20
10.783434797784
30
0
41
1
10
-0.903940088695094
20
10.7847858831467
30
0
0
SPLINE
5
131
100
AcDbEntity
8
SK1
62
256
6
ByLayer
370
-1
48
1
60
0
100
AcDbSpline
70
4
71
3
72
20
73
16
40
0
40
0
40
0
40
0
40
0.289591250207017
40
0.289591250207017
40
0.445641579471292
40
0.445641579471292
40
0.565150656188392
40
0.565150656188392
40
0.665669956959926
40
0.665669956959926
40
0.765874026691319
40
0.765874026691319
40
0.920609475720822
40
0.920609475720822
40
1
40
1
40
1
40
1
41
1
10
-0.899903122953674
20
-10.7840848927913
30
0
41
1
10
-0.868449172464324
20
-10.7797260979509
30
0
41
1
10
-0.832767748820515
20
-10.775300420935
30
0
41
1
10
-0.767668067718603
20
-10.7688851018166
30
0
41
1
10
-0.742170086684808
20
-10.7667139324169
30
0
41
1
10
-0.692274786497336
20
-10.7636476309374
30
0
41
1
10
-0.668530490600375
20
-10.7625613907743
30
0
41
1
10
-0.62306916607713
20
-10.7614648455063
30
0
41
1
10
-0.601170315114956
20
-10.7613125350673
30
0
41
1
10
-0.558760887240538
20
-10.7617815137992
30
0
41
1
10
-0.537785827568285
20
-10.7623989525676
30
0
41
1
10
-0.488247839736005
20
-10.7646079926068
30
0
41
1
10
-0.460778861773292
20
-10.7665508551728
30
0
41
1
10
-0.423537546807495
20
-10.7697595930047
30
0
41
1
10
-0.411485089493141
20
-10.7709116409693
30
0
41
1
10
-0.400000000000006
20
-10.7720903270618
30
0
0
SPLINE
5
132
100
AcDbEntity
8
SK1
62
256
6
ByLayer
370
-1
48
1
60
0
100
AcDbSpline
70
4
71
3
72
77
73
73
40
0
40
0
40
0
40
0
40
0.0137307202965801
40
0.0280335982065802
40
0.0423364761165802
40
0.0566393540265803
40
0.0709422319365804
40
0.0852451098465804
40
0.0995479877565805
40
0.113850865666581
40
0.128153743576581
40
0.142456621486581
40
0.156759499396581
40
0.171062377306581
40
0.185365255216581
40
0.199668133126581
40
0.213971011036581
40
0.228273888946581
40
0.242576766856581
40
0.256879644766581
40
0.271182522676581
40
0.285485400586581
40
0.299788278496581
40
0.314091156406581
40
0.328394034316581
40
0.342696912226582
40
0.356999790136582
40
0.371302668046582
40
0.385605545956582
40
0.399908423866582
40
0.414211301776582
40
0.428514179686582
40
0.442817057596582
40
0.457119935506582
40
0.471422813416582
40
0.485725691326582
40
0.500028569236582
40
0.514331447146582
40
0.528634325056582
40
0.542937202966582
40
0.557240080876582
40
0.571542958786582
40
0.585845836696583
40
0.600148714606583
40
0.614451592516583
40
0.628754470426583
40
0.643057348336583
40
0.657360226246583
40
0.671663104156583
40
0.685965982066583
40
0.700268859976583
40
0.714571737886583
40
0.728874615796583
40
0.743177493706583
40
0.757480371616583
40
0.771783249526583
40
0.786086127436583
40
0.800389005346583
40
0.814691883256584
40
0.828994761166584
40
0.843297639076584
40
0.857600516986584
40
0.871903394896584
40
0.886206272806584
40
0.900509150716584
40
0.914812028626584
40
0.929114906536584
40
0.943417784446584
40
0.957720662356584
40
0.972023540266584
40
0.986326418176584
40
1
40
1
40
1
40
1
41
1
10
-18.0003154452711
20
10.5149944987008
30
0
41
1
10
-18.0003154452711
20
10.5339393292834
30
0
41
1
10
-18.0003154452711
20
10.5680070257013
30
0
41
1
10
-18.0003154452711
20
10.6020553136752
30
0
41
1
10
-18.0003154452711
20
10.6148401921024
30
0
41
1
10
-18.0003154452711
20
10.6020527865053
30
0
41
1
10
-18.0003154452711
20
10.5599067660982
30
0
41
1
10
-18.0003154452711
20
10.484858493423
30
0
41
1
10
-18.0003154452711
20
10.3737876322681
30
0
41
1
10
-18.0003154452711
20
10.2241542656656
30
0
41
1
10
-18.0003154452711
20
10.0341417476878
30
0
41
1
10
-18.0003154452711
20
9.80276749593034
30
0
41
1
10
-18.0003154452711
20
9.52996627751907
30
0
41
1
10
-18.0003154452711
20
9.21663490521362
30
0
41
1
10
-18.0003154452711
20
8.8646424744737
30
0
41
1
10
-18.0003154452711
20
8.47680090545717
30
0
41
1
10
-18.0003154452711
20
8.0567992885353
30
0
41
1
10
-18.0003154452711
20
7.60910373147829
30
0
41
1
10
-18.0003154452711
20
7.13882469106107
30
0
41
1
10
-18.0003154452711
20
6.65156052719593
30
0
41
1
10
-18.0003154452711
20
6.15321710334797
30
0
41
1
10
-18.0003154452711
20
5.6498182272658
30
0
41
1
10
-18.0003154452711
20
5.14730429921639
30
0
41
1
10
-18.0003154452711
20
4.65133808658862
30
0
41
1
10
-18.0003154452711
20
4.16711263587257
30
0
41
1
10
-18.0003154452711
20
3.69918177457655
30
0
41
1
10
-18.0003154452711
20
3.25130634588356
30
0
41
1
10
-18.0003154452711
20
2.82633530245386
30
0
41
1
10
-18.0003154452711
20
2.4261137374983
30
0
41
1
10
-18.0003154452711
20
2.05143295827557
30
0
41
1
10
-18.0003154452711
20
1.70201461385656
30
0
41
1
10
-18.0003154452711
20
1.37653784078691
30
0
41
1
10
-18.0003154452711
20
1.07270241252968
30
0
41
1
10
-18.0003154452711
20
0.787329494879117
30
0
41
1
10
-18.0003154452711
20
0.5164948882136
30
0
41
1
10
-18.0003154452711
20
0.255688867473765
30
0
41
1
10
-18.0003154452711
20
5.33077298E-08
30
0
41
1
10
-18.0003154452711
20
-0.255689080704769
30
0
41
1
10
-18.0003154452711
20
-0.516494790078411
30
0
41
1
10
-18.0003154452711
20
-0.787329674189039
30
0
41
1
10
-18.0003154452711
20
-1.07270233858418
30
0
41
1
10
-18.0003154452711
20
-1.37653795725913
30
0
41
1
10
-18.0003154452711
20
-1.70201457625086
30
0
41
1
10
-18.0003154452711
20
-2.05143299222624
30
0
41
1
10
-18.0003154452711
20
-2.42611374304263
30
0
41
1
10
-18.0003154452711
20
-2.82633524632604
30
0
41
1
10
-18.0003154452711
20
-3.25130639507444
30
0
41
1
10
-18.0003154452711
20
-3.69918163394095
30
0
41
1
10
-18.0003154452711
20
-4.16711272286926
30
0
41
1
10
-18.0003154452711
20
-4.65133787923756
30
0
41
1
10
-18.0003154452711
20
-5.14730441276672
30
0
41
1
10
-18.0003154452711
20
-5.64981798041566
30
0
41
1
10
-18.0003154452711
20
-6.15322150279795
30
0
41
1
10
-18.0003154452711
20
-6.65154629355717
30
0
41
1
10
-18.0003154452711
20
-7.13882830854649
30
0
41
1
10
-18.0003154452711
20
-7.60910350361911
30
0
41
1
10
-18.0003154452711
20
-8.05679938889131
30
0
41
1
10
-18.0003154452711
20
-8.47680073189244
30
0
41
1
10
-18.0003154452711
20
-8.86464254278607
30
0
41
1
10
-18.0003154452711
20
-9.21663480552891
30
0
41
1
10
-18.0003154452711
20
-9.52996630690072
30
0
41
1
10
-18.0003154452711
20
-9.80276747808841
30
0
41
1
10
-18.0003154452711
20
-10.0341417373043
30
0
41
1
10
-18.0003154452711
20
-10.2241543250414
30
0
41
1
10
-18.0003154452711
20
-10.3737875873693
30
0
41
1
10
-18.0003154452711
20
-10.4848586136426
30
0
41
1
10
-18.0003154452711
20
-10.5599064693696
30
0
41
1
10
-18.0003154452711
20
-10.6020533911088
30
0
41
1
10
-18.0003154452711
20
-10.6148400828081
30
0
41
1
10
-18.0003154452711
20
-10.6020549007945
30
0
41
1
10
-18.0003154452711
20
-10.5680531093257
30
0
41
1
10
-18.0003154452711
20
-10.534078292877
30
0
41
1
10
-18.0003154452711
20
-10.5152309988178
30
0
0
SPLINE
5
133
100
AcDbEntity
8
SK1
62
256
6
ByLayer
370
-1
48
1
60
0
100
AcDbSpline
70
4
71
3
72
79
73
75
40
0
40
0
40
0
40
0
40
0.0064305959485858
40
0.020532581999657
40
0.0346345680507282
40
0.0487365541017994
40
0.0628385401528706
40
0.0769405262039419
40
0.0910425122550131
40
0.105144498306084
40
0.119246484357155
40
0.133348470408227
40
0.147450456459298
40
0.161552442510369
40
0.17565442856144
40
0.189756414612512
40
0.203858400663583
40
0.217960386714654
40
0.232062372765725
40
0.246164358816796
40
0.260266344867868
40
0.274368330918939
40
0.28847031697001
40
0.302572303021081
40
0.316674289072153
40
0.330776275123224
40
0.344878261174295
40
0.358980247225366
40
0.373082233276437
40
0.387184219327509
40
0.40128620537858
40
0.415388191429651
40
0.429490177480722
40
0.443592163531793
40
0.457694149582865
40
0.471796135633936
40
0.485898121685007
40
0.500000107736078
40
0.514102093787149
40
0.528204079838221
40
0.542306065889292
40
0.556408051940363
40
0.570510037991434
40
0.584612024042506
40
0.598714010093577
40
0.612815996144648
40
0.626917982195719
40
0.64101996824679
40
0.655121954297862
40
0.669223940348933
40
0.683325926400004
40
0.697427912451075
40
0.711529898502147
40
0.725631884553218
40
0.739733870604289
40
0.75383585665536
40
0.767937842706431
40
0.782039828757502
40
0.796141814808574
40
0.810243800859645
40
0.824345786910716
40
0.838447772961787
40
0.852549759012859
40
0.86665174506393
40
0.880753731115001
40
0.894855717166072
40
0.908957703217143
40
0.923059689268215
40
0.937161675319286
40
0.951263661370357
40
0.965365647421428
40
0.979467633472499
40
0.993569619523571
40
1
40
1
40
1
40
1
41
1
10
-2.5
20
-10.8686550022965
30
0
41
1
10
-2.5
20
-10.8790746710983
30
0
41
1
10
-2.5
20
-10.9108282721617
30
0
41
1
10
-2.5
20
-10.9553895973621
30
0
41
1
10
-2.5
20
-10.9911639635893
30
0
41
1
10
-2.5
20
-11.004418378241
30
0
41
1
10
-2.5
20
-10.9911623984962
30
0
41
1
10
-2.5
20
-10.9474686304738
30
0
41
1
10
-2.5
20
-10.8696664218331
30
0
41
1
10
-2.5
20
-10.7545189459148
30
0
41
1
10
-2.5
20
-10.5993939502378
30
0
41
1
10
-2.5
20
-10.4024076559292
30
0
41
1
10
-2.5
20
-10.1625416635539
30
0
41
1
10
-2.5
20
-9.87972833820902
30
0
41
1
10
-2.5
20
-9.55489716738788
30
0
41
1
10
-2.5
20
-9.18998633548568
30
0
41
1
10
-2.5
20
-8.7879102308668
30
0
41
1
10
-2.5
20
-8.35249429791335
30
0
41
1
10
-2.5
20
-7.88836739733654
30
0
41
1
10
-2.5
20
-7.40083249722349
30
0
41
1
10
-2.5
20
-6.89566660501004
30
0
41
1
10
-2.5
20
-6.37905265294063
30
0
41
1
10
-2.5
20
-5.85717357325984
30
0
41
1
10
-2.5
20
-5.3362171107967
30
0
41
1
10
-2.5
20
-4.82204796703348
30
0
41
1
10
-2.5
20
-4.32005112408754
30
0
41
1
10
-2.5
20
-3.83494636183181
30
0
41
1
10
-2.5
20
-3.37063352515292
30
0
41
1
10
-2.5
20
-2.93006538818366
30
0
41
1
10
-2.5
20
-2.515155240528
30
0
41
1
10
-2.5
20
-2.1267232238333
30
0
41
1
10
-2.5
20
-1.76448070218825
30
0
41
1
10
-2.5
20
-1.4270586722962
30
0
41
1
10
-2.5
20
-1.11207189529088
30
0
41
1
10
-2.5
20
-0.816225686754592
30
0
41
1
10
-2.5
20
-0.535450813753641
30
0
41
1
10
-2.5
20
-0.265073199113004
30
0
41
1
10
-2.5
20
5.5264195E-08
30
0
41
1
10
-2.5
20
0.265072978056168
30
0
41
1
10
-2.5
20
0.535450915490543
30
0
41
1
10
-2.5
20
0.816225500863794
30
0
41
1
10
-2.5
20
1.11207197195026
30
0
41
1
10
-2.5
20
1.42705855154932
30
0
41
1
10
-2.5
20
1.76448074117411
30
0
41
1
10
-2.5
20
2.12672318863659
30
0
41
1
10
-2.5
20
2.51515523478019
30
0
41
1
10
-2.5
20
2.93006544637146
30
0
41
1
10
-2.5
20
3.37063347415665
30
0
41
1
10
-2.5
20
3.83494650762893
30
0
41
1
10
-2.5
20
4.32005103389795
30
0
41
1
10
-2.5
20
4.82204818199463
30
0
41
1
10
-2.5
20
5.33621699307892
30
0
41
1
10
-2.5
20
5.85717382916968
30
0
41
1
10
-2.5
20
6.37904809202519
30
0
41
1
10
-2.5
20
6.89568136104162
30
0
41
1
10
-2.5
20
7.40082874697168
30
0
41
1
10
-2.5
20
7.88836763355843
30
0
41
1
10
-2.5
20
8.35249419387415
30
0
41
1
10
-2.5
20
8.78791041080157
30
0
41
1
10
-2.5
20
9.18998626466617
30
0
41
1
10
-2.5
20
9.55489727073115
30
0
41
1
10
-2.5
20
9.87972830774902
30
0
41
1
10
-2.5
20
10.1625416820507
30
0
41
1
10
-2.5
20
10.4024076666937
30
0
41
1
10
-2.5
20
10.5993938886828
30
0
41
1
10
-2.5
20
10.7545189924614
30
0
41
1
10
-2.5
20
10.8696662972013
30
0
41
1
10
-2.5
20
10.9474689380927
30
0
41
1
10
-2.5
20
10.991161771703
30
0
41
1
10
-2.5
20
11.0044184915466
30
0
41
1
10
-2.5
20
10.9911643916233
30
0
41
1
10
-2.5
20
10.9553894530377
30
0
41
1
10
-2.5
20
10.9108284078484
30
0
41
1
10
-2.5
20
10.8790752665164
30
0
41
1
10
-2.5
20
10.8686559989823
30
0
0
SPLINE
5
134
100
AcDbEntity
8
SK1
62
256
6
ByLayer
370
-1
48
1
60
0
100
AcDbSpline
70
4
71
3
72
28
73
24
40
0
40
0
40
0
40
0
40
0.0450694524493022
40
0.0450694524493022
40
0.158809158407753
40
0.158809158407753
40
0.272548864366203
40
0.272548864366203
40
0.386288570324653
40
0.386288570324653
40
0.500028276283104
40
0.500028276283104
40
0.556898129262329
40
0.556898129262329
40
0.613767982241554
40
0.613767982241554
40
0.727507688200005
40
0.727507688200005
40
0.841247394158455
40
0.841247394158455
40
0.954987100116906
40
0.954987100116906
40
1
40
1
40
1
40
1
41
1
10
-19
20
9.99701417807333
30
0
41
1
10
-19
20
9.98518859001805
30
0
41
1
10
-19
20
9.93357483441991
30
0
41
1
10
-19
20
9.64867768984556
30
0
41
1
10
-19
20
9.23780993670169
30
0
41
1
10
-19
20
8.14603193018394
30
0
41
1
10
-19
20
7.43345411730721
30
0
41
1
10
-19
20
5.77837410503321
30
0
41
1
10
-19
20
4.80540193943585
30
0
41
1
10
-19
20
2.62104554533028
30
0
41
1
10
-19
20
1.3838947953009
30
0
41
1
10
-19
20
-0.605684496272232
30
0
41
1
10
-19
20
-1.25707690377641
30
0
41
1
10
-19
20
-2.49720593938528
30
0
41
1
10
-19
20
-3.08077873820474
30
0
41
1
10
-19
20
-4.74586814612971
30
0
41
1
10
-19
20
-5.70718288821723
30
0
41
1
10
-19
20
-7.40302719902536
30
0
41
1
10
-19
20
-8.10117106535407
30
0
41
1
10
-19
20
-9.22362511721823
30
0
41
1
10
-19
20
-9.63194777304707
30
0
41
1
10
-19
20
-9.92641590119132
30
0
41
1
10
-19
20
-9.98028520480736
30
0
41
1
10
-19
20
-9.9946328219296
30
0
0
SPLINE
5
135
100
AcDbEntity
8
SK1
62
256
6
ByLayer
370
-1
48
1
60
0
100
AcDbSpline
70
4
71
3
72
33
73
29
40
0
40
0
40
0
40
0
40
0.0262653713612583
40
0.0662589220504461
40
0.106252472739634
40
0.146246023428822
40
0.18623957411801
40
0.226233124807197
40
0.266226675496385
40
0.306220226185573
40
0.346213776874761
40
0.386207327563948
40
0.426200878253136
40
0.466194428942324
40
0.506187979631512
40
0.5461815303207
40
0.586175081009887
40
0.626168631699075
40
0.666162182388263
40
0.706155733077451
40
0.746149283766639
40
0.786142834455826
40
0.826136385145014
40
0.866129935834202
40
0.90612348652339
40
0.946117037212578
40
0.986110587901765
40
1
40
1
40
1
40
1
41
1
10
-1.5
20
10.8197197433149
30
0
41
1
10
-1.5
20
10.8232783440346
30
0
41
1
10
-1.5
20
10.8280024880383
30
0
41
1
10
-1.5
20
10.8164403957515
30
0
41
1
10
-1.5
20
10.7733485034928
30
0
41
1
10
-1.5
20
10.6965241329296
30
0
41
1
10
-1.5
20
10.5827105539549
30
0
41
1
10
-1.5
20
10.4292548370654
30
0
41
1
10
-1.5
20
10.2342567210012
30
0
41
1
10
-1.5
20
9.99668422428968
30
0
41
1
10
-1.5
20
9.71646045325278
30
0
41
1
10
-1.5
20
9.39451028305967
30
0
41
1
10
-1.5
20
9.03277100198562
30
0
41
1
10
-1.5
20
8.63416168408222
30
0
41
1
10
-1.5
20
8.2025147049051
30
0
41
1
10
-1.5
20
7.74247141428037
30
0
41
1
10
-1.5
20
7.25934377839385
30
0
41
1
10
-1.5
20
6.75895136864708
30
0
41
1
10
-1.5
20
6.24743323087412
30
0
41
1
10
-1.5
20
5.73105035715909
30
0
41
1
10
-1.5
20
5.21597569580999
30
0
41
1
10
-1.5
20
4.70809176356334
30
0
41
1
10
-1.5
20
4.21279029060338
30
0
41
1
10
-1.5
20
3.73479561610898
30
0
41
1
10
-1.5
20
3.27800425826317
30
0
41
1
10
-1.5
20
2.84536147075812
30
0
41
1
10
-1.5
20
2.52722557449198
30
0
41
1
10
-1.5
20
2.35274458205822
30
0
41
1
10
-1.5
20
2.30830602436802
30
0
0
SPLINE
5
136
100
AcDbEntity
8
SK1
62
256
6
ByLayer
370
-1
48
1
60
0
100
AcDbSpline
70
4
71
3
72
33
73
29
40
0
40
0
40
0
40
0
40
0.0138893151454045
40
0.053882875456166
40
0.0938764357669274
40
0.133869996077689
40
0.17386355638845
40
0.213857116699212
40
0.253850677009973
40
0.293844237320735
40
0.333837797631496
40
0.373831357942257
40
0.413824918253019
40
0.45381847856378
40
0.493812038874542
40
0.533805599185303
40
0.573799159496064
40
0.613792719806826
40
0.653786280117587
40
0.693779840428349
40
0.73377340073911
40
0.773766961049871
40
0.813760521360633
40
0.853754081671394
40
0.893747641982156
40
0.933741202292917
40
0.973734762603679
40
1
40
1
40
1
40
1
41
1
10
-1.5
20
-2.30830715862382
30
0
41
1
10
-1.5
20
-2.35274536835021
30
0
41
1
10
-1.5
20
-2.52722590203587
30
0
41
1
10
-1.5
20
-2.84536131291168
30
0
41
1
10
-1.5
20
-3.27800431136151
30
0
41
1
10
-1.5
20
-3.73479546756539
30
0
41
1
10
-1.5
20
-4.2127903847566
30
0
41
1
10
-1.5
20
-4.70809154586752
30
0
41
1
10
-1.5
20
-5.21597581842096
30
0
41
1
10
-1.5
20
-5.73105048063846
30
0
41
1
10
-1.5
20
-6.24743659384492
30
0
41
1
10
-1.5
20
-6.75893656128304
30
0
41
1
10
-1.5
20
-7.25934857263886
30
0
41
1
10
-1.5
20
-7.74247092873685
30
0
41
1
10
-1.5
20
-8.20251481389079
30
0
41
1
10
-1.5
20
-8.63416150202502
30
0
41
1
10
-1.5
20
-9.03277107731486
30
0
41
1
10
-1.5
20
-9.39451017773411
30
0
41
1
10
-1.5
20
-9.71646048768639
30
0
41
1
10
-1.5
20
-9.99668420392302
30
0
41
1
10
-1.5
20
-10.2342567136415
30
0
41
1
10
-1.5
20
-10.4292548968257
30
0
41
1
10
-1.5
20
-10.5827105102703
30
0
41
1
10
-1.5
20
-10.6965242483831
30
0
41
1
10
-1.5
20
-10.7733482106365
30
0
41
1
10
-1.5
20
-10.8164410190789
30
0
41
1
10
-1.50000000000003
20
-10.828002445229
30
0
41
1
10
-1.50000000000003
20
-10.8232781217904
30
0
41
1
10
-1.50000000000003
20
-10.8197195245148
30
0
0
SPLINE
5
137
100
AcDbEntity
8
SK1
62
256
6
ByLayer
370
-1
48
1
60
0
100
AcDbSpline
70
4
71
3
72
14
73
10
40
0
40
0
40
0
40
0
40
0.770267584978987
40
0.770267584978987
40
0.910600044132187
40
0.910600044132187
40
0.960849391080031
40
0.960849391080031
40
1
40
1
40
1
40
1
41
1
10
-1.50000000000006
20
-10.7291970110907
30
0
41
1
10
-1.52238821820077
20
-10.710281852142
30
0
41
1
10
-1.54551182698873
20
-10.6896066631374
30
0
41
1
10
-1.58732255241429
20
-10.6788393268745
30
0
41
1
10
-1.59428077326487
20
-10.6776449254147
30
0
41
1
10
-1.60562095811142
20
-10.6782121701821
30
0
41
1
10
-1.60880790601186
20
-10.6785812709992
30
0
41
1
10
-1.61506077222526
20
-10.6799824282564
30
0
41
1
10
-1.6179999109811
20
-10.6808251701727
30
0
41
1
10
-1.62130999483404
20
-10.6821981619033
30
0
0
SPLINE
5
138
100
AcDbEntity
8
SK1
62
256
6
ByLayer
370
-1
48
1
60
0
100
AcDbSpline
70
4
71
3
72
12
73
8
40
0
40
0
40
0
40
0
40
0.0009287637595288
40
0.0009287637595288
40
0.794171473637494
40
0.794171473637494
40
1
40
1
40
1
40
1
41
1
10
-1.67922261518811
20
-10.7661816771271
30
0
41
1
10
-1.67924009281236
20
-10.7662385464827
30
0
41
1
10
-1.67925755692093
20
-10.7662953985458
30
0
41
1
10
-1.69413704527
20
-10.8147555719656
30
0
41
1
10
-1.69697811933358
20
-10.8517553017774
30
0
41
1
10
-1.69942780046679
20
-10.895169971226
30
0
41
1
10
-1.69973873227127
20
-10.9038635732803
30
0
41
1
10
-1.69989009581761
20
-10.912317556169
30
0
0
SPLINE
5
139
100
AcDbEntity
8
SK1
62
256
6
ByLayer
370
-1
48
1
60
0
100
AcDbSpline
70
4
71
3
72
38
73
34
40
0
40
0
40
0
40
0
40
0.0127559062866349
40
0.0127559062866349
40
0.0565949637476945
40
0.0565949637476945
40
0.100419134355067
40
0.100419134355067
40
0.144233875668933
40
0.144233875668933
40
0.232088816388463
40
0.232088816388463
40
0.319891337957139
40
0.319891337957139
40
0.407667150693793
40
0.407667150693793
40
0.49543079086628
40
0.49543079086628
40
0.583192829934177
40
0.583192829934177
40
0.670963334948994
40
0.670963334948994
40
0.758755132125403
40
0.758755132125403
40
0.802563085158452
40
0.802563085158452
40
0.846374767173937
40
0.846374767173937
40
0.93430405677517
40
0.93430405677517
40
0.978131241528969
40
0.978131241528969
40
1
40
1
40
1
40
1
41
1
10
-1.69996579738208
20
-2.34399541728098
30
0
41
1
10
-1.69996686313758
20
-2.41640598367121
30
0
41
1
10
-1.69996789580708
20
-2.48843835386174
30
0
41
1
10
-1.69997232375252
20
-2.80617464221731
30
0
41
1
10
-1.6999753518283
20
-3.04785091887862
30
0
41
1
10
-1.69998060299412
20
-3.52111771354691
30
0
41
1
10
-1.6999828378074
20
-3.75308301404428
30
0
41
1
10
-1.69998665823965
20
-4.20691759809461
30
0
41
1
10
-1.6999882494477
20
-4.42906881485823
30
0
41
1
10
-1.69999228100289
20
-5.08095958549046
30
0
41
1
10
-1.69999399832386
20
-5.49674568755356
30
0
41
1
10
-1.69999640677301
20
-6.28665686269224
30
0
41
1
10
-1.69999709786961
20
-6.66206466504687
30
0
41
1
10
-1.69999798189278
20
-7.3708282640267
30
0
41
1
10
-1.69999817407842
20
-7.70515361426863
30
0
41
1
10
-1.69999824533252
20
-8.3306008255654
30
0
41
1
10
-1.69999812372996
20
-8.6225172182109
30
0
41
1
10
-1.69999745591969
20
-9.16128938563259
30
0
41
1
10
-1.69999690935444
20
-9.40881093991047
30
0
41
1
10
-1.69999497540988
20
-9.85604515063557
30
0
41
1
10
-1.69999358833152
20
-10.0563309819064
30
0
41
1
10
-1.69998919708894
20
-10.4051496355369
30
0
41
1
10
-1.69998618942938
20
-10.5541774341773
30
0
41
1
10
-1.6999795291425
20
-10.7345238916283
30
0
41
1
10
-1.69997694129071
20
-10.7874883912928
30
0
41
1
10
-1.69997082738263
20
-10.8781161933101
30
0
41
1
10
-1.69996728994457
20
-10.9158197893435
30
0
41
1
10
-1.6999548488678
20
-11.0042539179821
30
0
41
1
10
-1.69994408152155
20
-11.0304356299785
30
0
41
1
10
-1.69992230056457
20
-11.0093947140642
30
0
41
1
10
-1.69991408809
20
-10.992312109091
30
0
41
1
10
-1.69990016483658
20
-10.9495682119865
30
0
41
1
10
-1.69989525872387
20
-10.9324755809608
30
0
41
1
10
-1.69989009581744
20
-10.912317556164
30
0
0
SPLINE
5
13A
100
AcDbEntity
8
SK1
62
256
6
ByLayer
370
-1
48
1
60
0
100
AcDbSpline
70
4
71
3
72
32
73
28
40
0
40
0
40
0
40
0
40
0.365927089807649
40
0.365927089807649
40
0.434988381544102
40
0.434988381544102
40
0.459470391973526
40
0.459470391973526
40
0.484523297819611
40
0.484523297819611
40
0.495000485667551
40
0.495000485667551
40
0.505685328487508
40
0.505685328487508
40
0.512277836854413
40
0.512277836854413
40
0.518861441140287
40
0.518861441140287
40
0.528508909357715
40
0.528508909357715
40
0.546991571884285
40
0.546991571884285
40
0.628302439414124
40
0.628302439414124
40
0.950686415613842
40
0.950686415613842
40
1
40
1
40
1
40
1
41
1
10
-1.5
20
2.30830602436802
30
0
41
1
10
-1.52221751736218
20
2.18593578325891
30
0
41
1
10
-1.54522999334367
20
2.06251508992042
30
0
41
1
10
-1.58645530727236
20
1.92421817182063
30
0
41
1
10
-1.59351669828698
20
1.90246957270816
30
0
41
1
10
-1.60499906250121
20
1.87469947052622
30
0
41
1
10
-1.60820035401613
20
1.8675788212021
30
0
41
1
10
-1.61534084307135
20
1.85393197437202
30
0
41
1
10
-1.61929930659136
20
1.84729792851803
30
0
41
1
10
-1.62596752666454
20
1.83957892922561
30
0
41
1
10
-1.62809255235376
20
1.83750162516705
30
0
41
1
10
-1.63273883786326
20
1.83425727265225
30
0
41
1
10
-1.63534521763034
20
1.8330769398703
30
0
41
1
10
-1.63973359946959
20
1.83275236286212
30
0
41
1
10
-1.64148920088587
20
1.83301807905258
30
0
41
1
10
-1.64485340276019
20
1.83436876713788
30
0
41
1
10
-1.64649922195929
20
1.83546324657846
30
0
41
1
10
-1.65020824529174
20
1.83881160526317
30
0
41
1
10
-1.6521827913231
20
1.84139532031719
30
0
41
1
10
-1.65723177402214
20
1.849484045693
30
0
41
1
10
-1.65984043101898
20
1.85563378259269
30
0
41
1
10
-1.67182065388494
20
1.888941134085
30
0
41
1
10
-1.67632598434432
20
1.91870567173245
30
0
41
1
10
-1.69605916878518
20
2.06239070530873
30
0
41
1
10
-1.69829182976605
20
2.17797320288884
30
0
41
1
10
-1.6997878183206
20
2.3091658731316
30
0
41
1
10
-1.69991061150085
20
2.32659131405609
30
0
41
1
10
-1.69996579751822
20
2.34399454350921
30
0
0
SPLINE
5
13B
100
AcDbEntity
8
SK1
62
256
6
ByLayer
370
-1
48
1
60
0
100
AcDbSpline
70
4
71
3
72
22
73
18
40
0
40
0
40
0
40
0
40
0.0449734260287716
40
0.0449734260287716
40
0.0906738274120162
40
0.0906738274120162
40
0.122638717708356
40
0.122638717708356
40
0.154549770731825
40
0.154549770731825
40
0.201552050367308
40
0.201552050367308
40
0.290895290031139
40
0.290895290031139
40
0.598982552652836
40
0.598982552652836
40
1
40
1
40
1
40
1
41
1
10
-0.400000000000034
20
-4.48934893107537
30
0
41
1
10
-0.420456941468217
20
-4.50752512906291
30
0
41
1
10
-0.442793659570242
20
-4.52452287299627
30
0
41
1
10
-0.492193632877758
20
-4.5532875570679
30
0
41
1
10
-0.520039992485408
20
-4.56524258715393
30
0
41
1
10
-0.570193326457115
20
-4.57628050315313
30
0
41
1
10
-0.592133279247633
20
-4.57814021899074
30
0
41
1
10
-0.634912844043129
20
-4.57562166953767
30
0
41
1
10
-0.656221684239426
20
-4.57125895050498
30
0
41
1
10
-0.705207801022823
20
-4.55499593975378
30
0
41
1
10
-0.732067427106074
20
-4.54046143085233
30
0
41
1
10
-0.801682679231504
20
-4.49257590710445
30
0
41
1
10
-0.839313324772718
20
-4.45345948567501
30
0
41
1
10
-0.985377121353196
20
-4.27336869710479
30
0
41
1
10
-1.05621368439083
20
-4.11001095439886
30
0
41
1
10
-1.19814354028304
20
-3.73039497896576
30
0
41
1
10
-1.25757188978818
20
-3.50503116473169
30
0
41
1
10
-1.30710678118658
20
-3.27410007766451
30
0
0
SPLINE
5
13C
100
AcDbEntity
8
SK1
62
256
6
ByLayer
370
-1
48
1
60
0
100
AcDbSpline
70
4
71
3
72
26
73
22
40
0
40
0
40
0
40
0
40
0.449738132477954
40
0.449738132477954
40
0.664402002683401
40
0.664402002683401
40
0.773761220759599
40
0.773761220759599
40
0.856245095717805
40
0.856245095717805
40
0.897662328372347
40
0.897662328372347
40
0.91706495237681
40
0.91706495237681
40
0.936734615560887
40
0.936734615560887
40
0.954124174419597
40
0.954124174419597
40
0.979939143819098
40
0.979939143819098
40
1
40
1
40
1
40
1
41
1
10
-0.200000000000017
20
-5.19704273475742
30
0
41
1
10
-0.200000000000017
20
-5.07975410009703
30
0
41
1
10
-0.203466682130625
20
-4.96017714586688
30
0
41
1
10
-0.221693360550034
20
-4.78102610938947
30
0
41
1
10
-0.229560955902429
20
-4.72253456210919
30
0
41
1
10
-0.248699491321418
20
-4.63442555966748
30
0
41
1
10
-0.256413494564128
20
-4.60458658946615
30
0
41
1
10
-0.274681296242619
20
-4.55329063876354
30
0
41
1
10
-0.284007523646267
20
-4.53119508230068
30
0
41
1
10
-0.303744106160423
20
-4.50098594538659
30
0
41
1
10
-0.311509525681402
20
-4.49116741345233
30
0
41
1
10
-0.325471651806765
20
-4.47968016512067
30
0
41
1
10
-0.330427279763057
20
-4.47641864212306
30
0
41
1
10
-0.341006642070965
20
-4.4716078953679
30
0
41
1
10
-0.346789289837659
20
-4.47005622337582
30
0
41
1
10
-0.357501713211292
20
-4.4692526659862
30
0
41
1
10
-0.362570628376432
20
-4.46973139878193
30
0
41
1
10
-0.374383227259841
20
-4.47254618031181
30
0
41
1
10
-0.380971575520647
20
-4.47565191427904
30
0
41
1
10
-0.391577664442764
20
-4.48234828370349
30
0
41
1
10
-0.395922839313982
20
-4.48572633284783
30
0
41
1
10
-0.400000000000148
20
-4.48934893107318
30
0
0
SPLINE
5
13D
100
AcDbEntity
8
SK1
62
256
6
ByLayer
370
-1
48
1
60
0
100
AcDbSpline
70
4
71
3
72
26
73
22
40
0
40
0
40
0
40
0
40
0.0042434309448905
40
0.0613301591488156
40
0.118416887352741
40
0.175503615556666
40
0.232590343760591
40
0.289677071964516
40
0.346763800168441
40
0.403850528372367
40
0.460937256576292
40
0.518023984780217
40
0.575110712984142
40
0.632197441188068
40
0.689284169391993
40
0.746370897595918
40
0.803457625799843
40
0.860544354003768
40
0.917631082207694
40
0.974717810411619
40
1
40
1
40
1
40
1
41
1
10
-0.400000000000006
20
10.7720903551641
30
0
41
1
10
-0.400000000000006
20
10.7706666069312
30
0
41
1
10
-0.400000000000006
20
10.7496439100427
30
0
41
1
10
-0.400000000000006
20
10.6965241329296
30
0
41
1
10
-0.400000000000006
20
10.5827105539549
30
0
41
1
10
-0.400000000000006
20
10.4292548370654
30
0
41
1
10
-0.400000000000006
20
10.2342567210012
30
0
41
1
10
-0.400000000000006
20
9.99668422428971
30
0
41
1
10
-0.400000000000006
20
9.71646045325278
30
0
41
1
10
-0.400000000000006
20
9.39451028305967
30
0
41
1
10
-0.400000000000034
20
9.03277100198562
30
0
41
1
10
-0.400000000000034
20
8.63416168408222
30
0
41
1
10
-0.400000000000034
20
8.2025147049051
30
0
41
1
10
-0.400000000000034
20
7.74247141428037
30
0
41
1
10
-0.400000000000034
20
7.25934377839385
30
0
41
1
10
-0.400000000000034
20
6.75895136864708
30
0
41
1
10
-0.400000000000034
20
6.24743323087412
30
0
41
1
10
-0.400000000000034
20
5.73105035715909
30
0
41
1
10
-0.400000000000034
20
5.21597569580999
30
0
41
1
10
-0.400000000000034
20
4.80241032436584
30
0
41
1
10
-0.400000000000034
20
4.56250546597264
30
0
41
1
10
-0.400000000000034
20
4.48934914533311
30
0
0
SPLINE
5
13E
100
AcDbEntity
8
SK1
62
256
6
ByLayer
370
-1
48
1
60
0
100
AcDbSpline
70
4
71
3
72
8
73
4
40
0
40
0
40
0
40
0
40
1
40
1
40
1
40
1
41
1
10
-1.5
20
-2.30830715862382
30
0
41
1
10
-1.43992566134759
20
-2.63918814774505
30
0
41
1
10
-1.3741866857074
20
-2.96137434366062
30
0
41
1
10
-1.30710678118675
20
-3.2741000776636
30
0
0
SPLINE
5
13F
100
AcDbEntity
8
SK1
62
256
6
ByLayer
370
-1
48
1
60
0
100
AcDbSpline
70
4
71
3
72
26
73
22
40
0
40
0
40
0
40
0
40
0.0252822053743131
40
0.0823689313925979
40
0.139455657410883
40
0.196542383429167
40
0.253629109447452
40
0.310715835465737
40
0.367802561484022
40
0.424889287502306
40
0.481976013520591
40
0.539062739538876
40
0.596149465557161
40
0.653236191575446
40
0.71032291759373
40
0.767409643612015
40
0.8244963696303
40
0.881583095648585
40
0.938669821666869
40
0.995756547685154
40
1
40
1
40
1
40
1
41
1
10
-0.400000000000034
20
-4.4893489310777
30
0
41
1
10
-0.400000000000034
20
-4.56250527649343
30
0
41
1
10
-0.400000000000034
20
-4.80241012018314
30
0
41
1
10
-0.400000000000034
20
-5.21597581842096
30
0
41
1
10
-0.400000000000034
20
-5.73105048063846
30
0
41
1
10
-0.400000000000034
20
-6.24743659384492
30
0
41
1
10
-0.400000000000034
20
-6.75893656128304
30
0
41
1
10
-0.400000000000034
20
-7.25934857263886
30
0
41
1
10
-0.400000000000034
20
-7.74247092873685
30
0
41
1
10
-0.400000000000034
20
-8.20251481389079
30
0
41
1
10
-0.400000000000034
20
-8.63416150202502
30
0
41
1
10
-0.400000000000034
20
-9.03277107731486
30
0
41
1
10
-0.400000000000006
20
-9.39451017773413
30
0
41
1
10
-0.400000000000006
20
-9.71646048768639
30
0
41
1
10
-0.400000000000006
20
-9.99668420392302
30
0
41
1
10
-0.400000000000006
20
-10.2342567136415
30
0
41
1
10
-0.400000000000006
20
-10.4292548968257
30
0
41
1
10
-0.400000000000006
20
-10.5827105102703
30
0
41
1
10
-0.400000000000006
20
-10.6965242483831
30
0
41
1
10
-0.400000000000006
20
-10.7496437528317
30
0
41
1
10
-0.400000000000006
20
-10.7706665633893
30
0
41
1
10
-0.400000000000006
20
-10.7720903270618
30
0
0
SPLINE
5
140
100
AcDbEntity
8
SK1
62
256
6
ByLayer
370
-1
48
1
60
0
100
AcDbSpline
70
4
71
3
72
24
73
20
40
0
40
0
40
0
40
0
40
0.0288407257317726
40
0.0288407257317726
40
0.0509955919663308
40
0.0509955919663308
40
0.0683898145862107
40
0.0683898145862107
40
0.0857973114187113
40
0.0857973114187113
40
0.109377904005675
40
0.109377904005675
40
0.151277300634704
40
0.151277300634704
40
0.282099488990437
40
0.282099488990437
40
0.823874497013242
40
0.823874497013242
40
1
40
1
40
1
40
1
41
1
10
-0.400000000000034
20
4.48934914533075
30
0
41
1
10
-0.394116473092879
20
4.48412156647126
30
0
41
1
10
-0.387649558798643
20
4.47936666342238
30
0
41
1
10
-0.375020695476763
20
4.47300024936567
30
0
41
1
10
-0.369015733581705
20
4.47088976573133
30
0
41
1
10
-0.357819037006692
20
4.46928378990089
30
0
41
1
10
-0.352620795543117
20
4.4693378300326
30
0
41
1
10
-0.342504208041191
20
4.47118331490236
30
0
41
1
10
-0.337472714781057
20
4.47299443494018
30
0
41
1
10
-0.326559027546438
20
4.47870654294016
30
0
41
1
10
-0.320811012640007
20
4.4831623835409
30
0
41
1
10
-0.3067126689985
20
4.49677058842062
30
0
41
1
10
-0.299366502504768
20
4.50708193062854
30
0
41
1
10
-0.273512837585713
20
4.55030240434653
30
0
41
1
10
-0.261969797101386
20
4.58649632348286
30
0
41
1
10
-0.213168679495254
20
4.76802497148651
30
0
41
1
10
-0.206388298823157
20
4.91574806320796
30
0
41
1
10
-0.200616563362615
20
5.1048724008445
30
0
41
1
10
-0.200000000000358
20
5.15111693550304
30
0
41
1
10
-0.200000000000017
20
5.19704283599549
30
0
0
SPLINE
5
141
100
AcDbEntity
8
SK1
62
256
6
ByLayer
370
-1
48
1
60
0
100
AcDbSpline
70
4
71
3
72
8
73
4
40
0
40
0
40
0
40
0
40
1
40
1
40
1
40
1
41
1
10
-1.30710678118655
20
3.2741000850651
30
0
41
1
10
-1.37418676031891
20
2.96137403161117
30
0
41
1
10
-1.43992527842408
20
2.6391871954711
30
0
41
1
10
-1.5
20
2.30830602436779
30
0
0
SPLINE
5
142
100
AcDbEntity
8
SK1
62
256
6
ByLayer
370
-1
48
1
60
0
100
AcDbSpline
70
4
71
3
72
28
73
24
40
0
40
0
40
0
40
0
40
0.349178244038127
40
0.349178244038127
40
0.441485413895459
40
0.441485413895459
40
0.464418174627259
40
0.464418174627259
40
0.473297759398041
40
0.473297759398041
40
0.482336266147379
40
0.482336266147379
40
0.488860737631369
40
0.488860737631369
40
0.4953513510299
40
0.4953513510299
40
0.506128456733832
40
0.506128456733832
40
0.534013657527057
40
0.534013657527057
40
0.644941898339768
40
0.644941898339768
40
1
40
1
40
1
40
1
41
1
10
-1.69996579738208
20
-2.34399541728098
30
0
41
1
10
-1.69957351800005
20
-2.2202872660603
30
0
41
1
10
-1.6978568428512
20
-2.09468422296274
30
0
41
1
10
-1.67915903600471
20
-1.9362551896819
30
0
41
1
10
-1.67466133865747
20
-1.90240437328657
30
0
41
1
10
-1.6625745330642
20
-1.86273523592695
30
0
41
1
10
-1.65975033602419
20
-1.85482927921262
30
0
41
1
10
-1.65455231119012
20
-1.84507122970734
30
0
41
1
10
-1.65293210062902
20
-1.84245438467247
30
0
41
1
10
-1.64928001329514
20
-1.83786290531623
30
0
41
1
10
-1.64718169695362
20
-1.83585290038428
30
0
41
1
10
-1.64332341703025
20
-1.83361873011964
30
0
41
1
10
-1.64159303361367
20
-1.83304396936836
30
0
41
1
10
-1.6382124463716
20
-1.83273324875088
30
0
41
1
10
-1.63652572409745
20
-1.83298094253604
30
0
41
1
10
-1.63230470511539
20
-1.83441412291407
30
0
41
1
10
-1.62985912301397
20
-1.83609472866004
30
0
41
1
10
-1.62193294237826
20
-1.84325136454726
30
0
41
1
10
-1.61733263266498
20
-1.85052711231805
30
0
41
1
10
-1.59692149956968
20
-1.88783133301965
30
0
41
1
10
-1.58631748354395
20
-1.92357606741402
30
0
41
1
10
-1.54387296204189
20
-2.07163462791979
30
0
41
1
10
-1.52142094847255
20
-2.19032359396863
30
0
41
1
10
-1.5
20
-2.30830715862382
30
0
0
SPLINE
5
143
100
AcDbEntity
8
SK1
62
256
6
ByLayer
370
-1
48
1
60
0
100
AcDbSpline
70
4
71
3
72
24
73
20
40
0
40
0
40
0
40
0
40
0.394887530671275
40
0.394887530671275
40
0.583923275334675
40
0.583923275334675
40
0.775640263639324
40
0.775640263639324
40
0.824781731617119
40
0.824781731617119
40
0.862517656538363
40
0.862517656538363
40
0.89426261244368
40
0.89426261244368
40
0.925906833096296
40
0.925906833096296
40
0.974831011730869
40
0.974831011730869
40
1
40
1
40
1
40
1
41
1
10
-1.30710678118655
20
3.27410008506507
30
0
41
1
10
-1.25832942599462
20
3.50149952651384
30
0
41
1
10
-1.19991064580014
20
3.72346664111421
30
0
41
1
10
-1.08384884657394
20
4.0370771437056
30
0
41
1
10
-1.04153791965376
20
4.13675427692158
30
0
41
1
10
-0.938254289261693
20
4.32801751486153
30
0
41
1
10
-0.878155607060563
20
4.42371753851697
30
0
41
1
10
-0.767111712667401
20
4.51729029260753
30
0
41
1
10
-0.741708507810927
20
4.53512787407632
30
0
41
1
10
-0.691958906630077
20
4.55987158851019
30
0
41
1
10
-0.668248724766471
20
4.56845950218982
30
0
41
1
10
-0.622857383271395
20
4.57708046005288
30
0
41
1
10
-0.600993180994863
20
4.57825352233775
30
0
41
1
10
-0.558658423255935
20
4.57453349365301
30
0
41
1
10
-0.537724143555607
20
4.56966479399497
30
0
41
1
10
-0.488248270422417
20
4.55200346897223
30
0
41
1
10
-0.460806462020542
20
4.53627234602419
30
0
41
1
10
-0.423570034054336
20
4.50937867037399
30
0
41
1
10
-0.411500153524855
20
4.49956715918469
30
0
41
1
10
-0.400000000000034
20
4.48934914533075
30
0
0
LINE
5
47
100
AcDbEntity
8
1
62
256
6
ByLayer
370
-1
48
1
60
0
100
AcDbLine
10
0.3
20
16
30
0
11
0
21
15.7
31
0
39
0
210
0
220
0
230
1
0
LINE
5
49
100
AcDbEntity
8
1
62
256
6
ByLayer
370
-1
48
1
60
0
100
AcDbLine
10
0
20
-15.7
30
0
11
0.3
21
-16
31
0
39
0
210
0
220
0
230
1
0
LINE
5
4A
100
AcDbEntity
8
1
62
256
6
ByLayer
370
-1
48
1
60
0
100
AcDbLine
10
14.5
20
16
30
0
11
0.3
21
16
31
0
39
0
210
0
220
0
230
1
0
LINE
5
4B
100
AcDbEntity
8
1
62
256
6
ByLayer
370
-1
48
1
60
0
100
AcDbLine
10
0.3
20
-16
30
0
11
14.5
21
-16
31
0
39
0
210
0
220
0
230
1
0
LINE
5
4C
100
AcDbEntity
8
1
62
256
6
ByLayer
370
-1
48
1
60
0
100
AcDbLine
10
14.5
20
-16
30
0
11
16.405275
21
-8.889417
31
0
39
0
210
0
220
0
230
1
0
LINE
5
4D
100
AcDbEntity
8
1
62
256
6
ByLayer
370
-1
48
1
60
0
100
AcDbLine
10
16.405275
20
8.889417
30
0
11
14.5
21
16
31
0
39
0
210
0
220
0
230
1
0
LINE
5
4E
100
AcDbEntity
8
1
62
256
6
ByLayer
370
-1
48
1
60
0
100
AcDbLine
10
37.050412
20
-8.01
30
0
11
37.299571
21
-8.01
31
0
39
0
210
0
220
0
230
1
0
LINE
5
4F
100
AcDbEntity
8
1
62
256
6
ByLayer
370
-1
48
1
60
0
100
AcDbLine
10
17.564386
20
-8
30
0
11
36.924316
21
-8
31
0
39
0
210
0
220
0
230
1
0
LINE
5
50
100
AcDbEntity
8
1
62
256
6
ByLayer
370
-1
48
1
60
0
100
AcDbLine
10
36.924316
20
8
30
0
11
17.564386
21
8
31
0
39
0
210
0
220
0
230
1
0
LINE
5
51
100
AcDbEntity
8
1
62
256
6
ByLayer
370
-1
48
1
60
0
100
AcDbLine
10
38.684825
20
9.653514
30
0
11
37.537152
21
8.28577
31
0
39
0
210
0
220
0
230
1
0
LINE
5
52
100
AcDbEntity
8
1
62
256
6
ByLayer
370
-1
48
1
60
0
100
AcDbLine
10
48.543647
20
6.416393
30
0
11
48.555887
21
6.604288
31
0
39
0
210
0
220
0
230
1
0
LINE
5
53
100
AcDbEntity
8
1
62
256
6
ByLayer
370
-1
48
1
60
0
100
AcDbLine
10
45.113184
20
6.828557
30
0
11
45.100944
21
6.640662
31
0
39
0
210
0
220
0
230
1
0
LINE
5
54
100
AcDbEntity
8
1
62
256
6
ByLayer
370
-1
48
1
60
0
100
AcDbLine
10
49.797984
20
1.728624
30
0
11
49.851508
21
2.550258
31
0
39
0
210
0
220
0
230
1
0
LINE
5
55
100
AcDbEntity
8
1
62
256
6
ByLayer
370
-1
48
1
60
0
100
AcDbLine
10
41.624569
20
6.249771
30
0
11
41.571045
21
5.428138
31
0
39
0
210
0
220
0
230
1
0
LINE
5
56
100
AcDbEntity
8
4
62
256
6
ByLayer
370
-1
48
0.05
60
0
100
AcDbLine
10
0
20
0
30
0
11
50
21
0
31
0
39
0
210
0
220
0
230
1
0
LINE
5
58
100
AcDbEntity
8
SK4
62
256
6
ByLayer
370
-1
48
0.05
60
0
100
AcDbLine
10
-24
20
0
30
0
11
55
21
0
31
0
39
0
210
0
220
0
230
1
0
LINE
5
5A
100
AcDbEntity
8
80
62
256
6
ByLayer
370
-1
48
1
60
0
100
AcDbLine
10
0
20
0
30
0
11
-5
21
0
31
0
39
0
210
0
220
0
230
1
0
LINE
5
5B
100
AcDbEntity
8
81
62
256
6
ByLayer
370
-1
48
1
60
0
100
AcDbLine
10
50
20
11.875
30
0
11
55
21
11.875
31
0
39
0
210
0
220
0
230
1
0
LINE
5
5C
100
AcDbEntity
8
1
62
256
6
ByLayer
370
-1
48
1
60
0
100
AcDbLine
10
41.784642
20
6.581123
30
0
11
41.805479
21
6.59242
31
0
39
0
210
0
220
0
230
1
0
LINE
5
5D
100
AcDbEntity
8
1
62
256
6
ByLayer
370
-1
48
1
60
0
100
AcDbLine
10
37.050412
20
-8.01
30
0
11
37.050412
21
0.200486
31
0
39
0
210
0
220
0
230
1
0
LINE
5
5E
100
AcDbEntity
8
1
62
256
6
ByLayer
370
-1
48
1
60
0
100
AcDbLine
10
44.883814
20
9.694052
30
0
11
44.883814
21
9.304637
31
0
39
0
210
0
220
0
230
1
0
LINE
5
5F
100
AcDbEntity
8
1
62
256
6
ByLayer
370
-1
48
1
60
0
100
AcDbLine
10
44.883814
20
9.694052
30
0
11
38.744343
21
9.720843
31
0
39
0
210
0
220
0
230
1
0
LINE
5
60
100
AcDbEntity
8
1
62
256
6
ByLayer
370
-1
48
1
60
0
100
AcDbLine
10
41.639791
20
6.638528
30
0
11
41.926129
21
6.793783
31
0
39
0
210
0
220
0
230
1
0
LINE
5
61
100
AcDbEntity
8
1
62
256
6
ByLayer
370
-1
48
1
60
0
100
AcDbLine
10
37.537152
20
8.28577
30
0
11
37.537152
21
8.25801
31
0
39
0
210
0
220
0
230
1
0
LINE
5
62
100
AcDbEntity
8
1
62
256
6
ByLayer
370
-1
48
1
60
0
100
AcDbLine
10
36.924316
20
8
30
0
11
36.924316
21
7.95768
31
0
39
0
210
0
220
0
230
1
0
LINE
5
63
100
AcDbEntity
8
1
62
256
6
ByLayer
370
-1
48
1
60
0
100
AcDbLine
10
36.924316
20
0.369164
30
0
11
36.924316
21
-8
31
0
39
0
210
0
220
0
230
1
0
LINE
5
64
100
AcDbEntity
8
1
62
256
6
ByLayer
370
-1
48
1
60
0
100
AcDbLine
10
41.293092
20
7.26544
30
0
11
44.853318
21
9.195825
31
0
39
0
210
0
220
0
230
1
0
LINE
5
65
100
AcDbEntity
8
1
62
256
6
ByLayer
370
-1
48
1
60
0
100
AcDbLine
10
7.076795
20
-15.276962
30
0
11
7.076795
21
-4.755463
31
0
39
0
210
0
220
0
230
1
0
LINE
5
66
100
AcDbEntity
8
1
62
256
6
ByLayer
370
-1
48
1
60
0
100
AcDbLine
10
14.5
20
-16
30
0
11
14.5
21
0
31
0
39
0
210
0
220
0
230
1
0
LINE
5
67
100
AcDbEntity
8
1
62
256
6
ByLayer
370
-1
48
1
60
0
100
AcDbLine
10
14.5
20
0
30
0
11
14.5
21
16
31
0
39
0
210
0
220
0
230
1
0
LINE
5
68
100
AcDbEntity
8
1
62
256
6
ByLayer
370
-1
48
1
60
0
100
AcDbLine
10
41.347249
20
7.387081
30
0
11
44.883814
21
9.304637
31
0
39
0
210
0
220
0
230
1
0
LINE
5
69
100
AcDbEntity
8
1
62
256
6
ByLayer
370
-1
48
1
60
0
100
AcDbLine
10
49.760281
20
0.969571
30
0
11
49.760281
21
1.151268
31
0
39
0
210
0
220
0
230
1
0
LINE
5
6A
100
AcDbEntity
8
1
62
256
6
ByLayer
370
-1
48
1
60
0
100
AcDbLine
10
44.853318
20
9.195825
30
0
11
44.951618
21
9.113179
31
0
39
0
210
0
220
0
230
1
0
LINE
5
6B
100
AcDbEntity
8
1
62
256
6
ByLayer
370
-1
48
1
60
0
100
AcDbLine
10
45.257248
20
9.544874
30
0
11
45.257248
21
9.250399
31
0
39
0
210
0
220
0
230
1
0
LINE
5
6C
100
AcDbEntity
8
1
62
256
6
ByLayer
370
-1
48
1
60
0
100
AcDbLine
10
44.951618
20
9.546208
30
0
11
44.951618
21
9.113179
31
0
39
0
210
0
220
0
230
1
0
LINE
5
6D
100
AcDbEntity
8
1
62
256
6
ByLayer
370
-1
48
1
60
0
100
AcDbLine
10
49.721508
20
1.173122
30
0
11
49.721508
21
1.587999
31
0
39
0
210
0
220
0
230
1
0
LINE
5
6E
100
AcDbEntity
8
1
62
256
6
ByLayer
370
-1
48
1
60
0
100
AcDbLine
10
49.721508
20
2.833758
30
0
11
49.721508
21
3.311689
31
0
39
0
210
0
220
0
230
1
0
LINE
5
6F
100
AcDbEntity
8
1
62
256
6
ByLayer
370
-1
48
1
60
0
100
AcDbLine
10
49.76989
20
-2.219183
30
0
11
44.765904
21
-4.542874
31
0
39
0
210
0
220
0
230
1
0
LINE
5
70
100
AcDbEntity
8
1
62
256
6
ByLayer
370
-1
48
1
60
0
100
AcDbLine
10
43.844455
20
-4.970766
30
0
11
43.349639
21
-5.200542
31
0
39
0
210
0
220
0
230
1
0
LINE
5
71
100
AcDbEntity
8
1
62
256
6
ByLayer
370
-1
48
1
60
0
100
AcDbLine
10
4.923205
20
4.755463
30
0
11
4.923205
21
15.276962
31
0
39
0
210
0
220
0
230
1
0
LINE
5
72
100
AcDbEntity
8
1
62
256
6
ByLayer
370
-1
48
1
60
0
100
AcDbLine
10
43.844455
20
-4.970766
30
0
11
38.70508
21
3.651226
31
0
39
0
210
0
220
0
230
1
0
LINE
5
73
100
AcDbEntity
8
1
62
256
6
ByLayer
370
-1
48
1
60
0
100
AcDbLine
10
42.309494
20
7.433581
30
0
11
41.831308
21
7.174305
31
0
39
0
210
0
220
0
230
1
0
LINE
5
74
100
AcDbEntity
8
1
62
256
6
ByLayer
370
-1
48
1
60
0
100
AcDbLine
10
44.765904
20
-4.542874
30
0
11
37.264413
21
8.041883
31
0
39
0
210
0
220
0
230
1
0
LINE
5
75
100
AcDbEntity
8
1
62
256
6
ByLayer
370
-1
48
1
60
0
100
AcDbLine
10
49.760281
20
1.151268
30
0
11
43.257691
21
4.806507
31
0
39
0
210
0
220
0
230
1
0
LINE
5
76
100
AcDbEntity
8
1
62
256
6
ByLayer
370
-1
48
1
60
0
100
AcDbLine
10
17.564386
20
-8
30
0
11
17.564386
21
0
31
0
39
0
210
0
220
0
230
1
0
LINE
5
77
100
AcDbEntity
8
1
62
256
6
ByLayer
370
-1
48
1
60
0
100
AcDbLine
10
17.564386
20
0
30
0
11
17.564386
21
8
31
0
39
0
210
0
220
0
230
1
0
LINE
5
78
100
AcDbEntity
8
1
62
256
6
ByLayer
370
-1
48
1
60
0
100
AcDbLine
10
41.483666
20
7.232826
30
0
11
44.951618
21
9.113179
31
0
39
0
210
0
220
0
230
1
0
LINE
5
79
100
AcDbEntity
8
1
62
256
6
ByLayer
370
-1
48
1
60
0
100
AcDbLine
10
0
20
-15.7
30
0
11
0
21
15.7
31
0
39
0
210
0
220
0
230
1
0
LINE
5
7A
100
AcDbEntity
8
1
62
256
6
ByLayer
370
-1
48
1
60
0
100
AcDbLine
10
37.299571
20
-8.01
30
0
11
43.349639
21
-5.200542
31
0
39
0
210
0
220
0
230
1
0
LINE
5
7B
100
AcDbEntity
8
1
62
256
6
ByLayer
370
-1
48
1
60
0
100
AcDbLine
10
4.923205
20
-15.276962
30
0
11
4.923205
21
-4.755463
31
0
39
0
210
0
220
0
230
1
0
LINE
5
7C
100
AcDbEntity
8
1
62
256
6
ByLayer
370
-1
48
1
60
0
100
AcDbLine
10
4.923205
20
-4.755463
30
0
11
7.076795
21
-4.755463
31
0
39
0
210
0
220
0
230
1
0
LINE
5
7D
100
AcDbEntity
8
1
62
256
6
ByLayer
370
-1
48
1
60
0
100
AcDbLine
10
43.167058
20
4.675755
30
0
11
49.76989
21
0.964167
31
0
39
0
210
0
220
0
230
1
0
LINE
5
7E
100
AcDbEntity
8
1
62
256
6
ByLayer
370
-1
48
1
60
0
100
AcDbLine
10
37.242655
20
6.10464
30
0
11
36.277744
21
7.723408
31
0
39
0
210
0
220
0
230
1
0
LINE
5
7F
100
AcDbEntity
8
1
62
256
6
ByLayer
370
-1
48
1
60
0
100
AcDbLine
10
7.076795
20
4.755463
30
0
11
4.923205
21
4.755463
31
0
39
0
210
0
220
0
230
1
0
LINE
5
80
100
AcDbEntity
8
1
62
256
6
ByLayer
370
-1
48
1
60
0
100
AcDbLine
10
16.405275
20
-8.889417
30
0
11
16.405275
21
8.889417
31
0
39
0
210
0
220
0
230
1
0
LINE
5
81
100
AcDbEntity
8
1
62
256
6
ByLayer
370
-1
48
1
60
0
100
AcDbLine
10
7.076795
20
4.755463
30
0
11
7.076795
21
15.276962
31
0
39
0
210
0
220
0
230
1
0
LINE
5
82
100
AcDbEntity
8
1
62
256
6
ByLayer
370
-1
48
1
60
0
100
AcDbLine
10
7.336603
20
5.068619
30
0
11
7.336603
21
15.175938
31
0
39
0
210
0
220
0
230
1
0
LINE
5
83
100
AcDbEntity
8
1
62
256
6
ByLayer
370
-1
48
1
60
0
100
AcDbLine
10
7.336603
20
-15.175938
30
0
11
7.336603
21
-5.068619
31
0
39
0
210
0
220
0
230
1
0
LINE
5
84
100
AcDbEntity
8
1
62
256
6
ByLayer
370
-1
48
1
60
0
100
AcDbLine
10
44.951618
20
9.546208
30
0
11
44.883814
21
9.564359
31
0
39
0
210
0
220
0
230
1
0
LINE
5
85
100
AcDbEntity
8
1
62
256
6
ByLayer
370
-1
48
1
60
0
100
AcDbLine
10
4.663397
20
5.068619
30
0
11
4.663397
21
15.175938
31
0
39
0
210
0
220
0
230
1
0
LINE
5
86
100
AcDbEntity
8
1
62
256
6
ByLayer
370
-1
48
1
60
0
100
AcDbLine
10
49.76989
20
0.964167
30
0
11
49.76989
21
-2.219183
31
0
39
0
210
0
220
0
230
1
0
LINE
5
87
100
AcDbEntity
8
1
62
256
6
ByLayer
370
-1
48
1
60
0
100
AcDbLine
10
4.663397
20
-15.175938
30
0
11
4.663397
21
-5.068619
31
0
39
0
210
0
220
0
230
1
0
LINE
5
88
100
AcDbEntity
8
1
62
256
6
ByLayer
370
-1
48
1
60
0
100
AcDbLine
10
0.3
20
-16
30
0
11
0.3
21
0
31
0
39
0
210
0
220
0
230
1
0
LINE
5
89
100
AcDbEntity
8
1
62
256
6
ByLayer
370
-1
48
1
60
0
100
AcDbLine
10
0.3
20
0
30
0
11
0.3
21
16
31
0
39
0
210
0
220
0
230
1
0
LINE
5
8A
100
AcDbEntity
8
1
62
256
6
ByLayer
370
-1
48
1
60
0
100
AcDbLine
10
4.923205
20
15.276962
30
0
11
7.076795
21
15.276962
31
0
39
0
210
0
220
0
230
1
0
LINE
5
8B
100
AcDbEntity
8
1
62
256
6
ByLayer
370
-1
48
1
60
0
100
AcDbLine
10
44.765904
20
-4.542874
30
0
11
43.844457
21
-4.970765
31
0
39
0
210
0
220
0
230
1
0
LINE
5
8C
100
AcDbEntity
8
1
62
256
6
ByLayer
370
-1
48
1
60
0
100
AcDbLine
10
44.883814
20
9.304637
30
0
11
44.853318
21
9.195825
31
0
39
0
210
0
220
0
230
1
0
LINE
5
8D
100
AcDbEntity
8
1
62
256
6
ByLayer
370
-1
48
1
60
0
100
AcDbLine
10
7.076795
20
-15.276962
30
0
11
4.923205
21
-15.276962
31
0
39
0
210
0
220
0
230
1
0
LINE
5
8E
100
AcDbEntity
8
1
62
256
6
ByLayer
370
-1
48
1
60
0
100
AcDbLine
10
44.951618
20
9.546208
30
0
11
45.257248
21
9.544874
31
0
39
0
210
0
220
0
230
1
0
LINE
5
8F
100
AcDbEntity
8
1
62
256
6
ByLayer
370
-1
48
1
60
0
100
AcDbLine
10
47.582035
20
6.742545
30
0
11
47.567971
21
6.526643
31
0
39
0
210
0
220
0
230
1
0
LINE
5
90
100
AcDbEntity
8
1
62
256
6
ByLayer
370
-1
48
1
60
0
100
AcDbLine
10
47.567971
20
6.472133
30
0
11
47.582035
21
6.688035
31
0
39
0
210
0
220
0
230
1
0
LINE
5
91
100
AcDbEntity
8
1
62
256
6
ByLayer
370
-1
48
1
60
0
100
AcDbLine
10
46.087313
20
6.694558
30
0
11
46.073248
21
6.478655
31
0
39
0
210
0
220
0
230
1
0
LINE
5
92
100
AcDbEntity
8
1
62
256
6
ByLayer
370
-1
48
1
60
0
100
AcDbLine
10
47.510188
20
7.083833
30
0
11
47.525901
21
7.325029
31
0
39
0
210
0
220
0
230
1
0
LINE
5
93
100
AcDbEntity
8
1
62
256
6
ByLayer
370
-1
48
1
60
0
100
AcDbLine
10
46.998746
20
7.371042
30
0
11
47.014459
21
7.612239
31
0
39
0
210
0
220
0
230
1
0
LINE
5
94
100
AcDbEntity
8
1
62
256
6
ByLayer
370
-1
48
1
60
0
100
AcDbLine
10
46.642472
20
7.372597
30
0
11
46.658185
21
7.613794
31
0
39
0
210
0
220
0
230
1
0
LINE
5
95
100
AcDbEntity
8
1
62
256
6
ByLayer
370
-1
48
1
60
0
100
AcDbLine
10
46.13103
20
7.089851
30
0
11
46.146743
21
7.331048
31
0
39
0
210
0
220
0
230
1
0
LINE
5
96
100
AcDbEntity
8
1
62
256
6
ByLayer
370
-1
48
1
60
0
100
AcDbLine
10
45.955714
20
6.261063
30
0
11
45.968785
21
6.46172
31
0
39
0
210
0
220
0
230
1
0
LINE
5
97
100
AcDbEntity
8
1
62
256
6
ByLayer
370
-1
48
1
60
0
100
AcDbLine
10
47.68814
20
6.213038
30
0
11
47.703847
21
6.454149
31
0
39
0
210
0
220
0
230
1
0
LINE
5
98
100
AcDbEntity
8
SK1
62
256
6
ByLayer
370
-1
48
1
60
0
100
AcDbLine
10
-0.2
20
10.883485
30
0
11
-0.2
21
5.197043
31
0
39
0
210
0
220
0
230
1
0
LINE
5
9A
100
AcDbEntity
8
SK1
62
256
6
ByLayer
370
-1
48
1
60
0
100
AcDbLine
10
-1.307107
20
3.2741
30
0
11
-1.307107
21
-3.2741
31
0
39
0
210
0
220
0
230
1
0
LINE
5
9B
100
AcDbEntity
8
1
62
256
6
ByLayer
370
-1
48
1
60
0
100
AcDbLine
10
42.475801
20
7.711161
30
0
11
41.651273
21
6.3351
31
0
39
0
210
0
220
0
230
1
0
LINE
5
9C
100
AcDbEntity
8
1
62
256
6
ByLayer
370
-1
48
1
60
0
100
AcDbLine
10
49.461311
20
3.270182
30
0
11
49.511549
21
4.041388
31
0
39
0
210
0
220
0
230
1
0
LINE
5
9D
100
AcDbEntity
8
1
62
256
6
ByLayer
370
-1
48
1
60
0
100
AcDbLine
10
43.062416
20
4.612244
30
0
11
43.11594
21
5.433878
31
0
39
0
210
0
220
0
230
1
0
LINE
5
9E
100
AcDbEntity
8
1
62
256
6
ByLayer
370
-1
48
1
60
0
100
AcDbLine
10
47.079858
20
10.259014
30
0
11
47.640969
21
10.256565
31
0
39
0
210
0
220
0
230
1
0
LINE
5
9F
100
AcDbEntity
8
1
62
256
6
ByLayer
370
-1
48
1
60
0
100
AcDbLine
10
47.985802
20
2.148736
30
0
11
48.000553
21
2.375173
31
0
39
0
210
0
220
0
230
1
0
LINE
5
A0
100
AcDbEntity
8
1
62
256
6
ByLayer
370
-1
48
1
60
0
100
AcDbLine
10
43.381744
20
4.736772
30
0
11
43.396495
21
4.963209
31
0
39
0
210
0
220
0
230
1
0
LINE
5
A1
100
AcDbEntity
8
1
62
256
6
ByLayer
370
-1
48
1
60
0
100
AcDbLine
10
49.719445
20
4.04048
30
0
11
49.511549
21
4.041388
31
0
39
0
210
0
220
0
230
1
0
LINE
5
A2
100
AcDbEntity
8
1
62
256
6
ByLayer
370
-1
48
1
60
0
100
AcDbLine
10
50
20
9.644589
30
0
11
49.175472
21
11.027846
31
0
39
0
210
0
220
0
230
1
0
LINE
5
A3
100
AcDbEntity
8
1
62
256
6
ByLayer
370
-1
48
1
60
0
100
AcDbLine
10
49.255913
20
3.614754
30
0
11
49.824805
21
2.660362
31
0
39
0
210
0
220
0
230
1
0
LINE
5
A4
100
AcDbEntity
8
1
62
256
6
ByLayer
370
-1
48
1
60
0
100
AcDbLine
10
49.946476
20
3.687067
30
0
11
49.665921
21
3.218847
31
0
39
0
210
0
220
0
230
1
0
LINE
5
A5
100
AcDbEntity
8
1
62
256
6
ByLayer
370
-1
48
1
60
0
100
AcDbLine
10
50
20
9.644589
30
0
11
50
21
4.508701
31
0
39
0
210
0
220
0
230
1
0
LINE
5
A6
100
AcDbEntity
8
1
62
256
6
ByLayer
370
-1
48
1
60
0
100
AcDbLine
10
42.910728
20
5.214588
30
0
11
42.964251
21
6.036221
31
0
39
0
210
0
220
0
230
1
0
LINE
5
A7
100
AcDbEntity
8
1
62
256
6
ByLayer
370
-1
48
1
60
0
100
AcDbLine
10
42.910728
20
5.214588
30
0
11
41.772944
21
5.219553
31
0
39
0
210
0
220
0
230
1
0
LINE
5
A8
100
AcDbEntity
8
1
62
256
6
ByLayer
370
-1
48
1
60
0
100
AcDbLine
10
42.475801
20
7.711161
30
0
11
47.079858
21
10.259014
31
0
39
0
210
0
220
0
230
1
0
LINE
5
A9
100
AcDbEntity
8
1
62
256
6
ByLayer
370
-1
48
1
60
0
100
AcDbLine
10
50
20
4.508701
30
0
11
49.719445
21
4.04048
31
0
39
0
210
0
220
0
230
1
0
LINE
5
AA
100
AcDbEntity
8
1
62
256
6
ByLayer
370
-1
48
1
60
0
100
AcDbLine
10
43.396495
20
4.963209
30
0
11
48.000553
21
2.375173
31
0
39
0
210
0
220
0
230
1
0
LINE
5
AB
100
AcDbEntity
8
1
62
256
6
ByLayer
370
-1
48
1
60
0
100
AcDbLine
10
49.596085
20
1.546344
30
0
11
49.649609
21
2.367977
31
0
39
0
210
0
220
0
230
1
0
LINE
5
AC
100
AcDbEntity
8
1
62
256
6
ByLayer
370
-1
48
1
60
0
100
AcDbLine
10
47.640969
20
10.256565
30
0
11
47.744916
21
10.082179
31
0
39
0
210
0
220
0
230
1
0
LINE
5
AD
100
AcDbEntity
8
1
62
256
6
ByLayer
370
-1
48
1
60
0
100
AcDbLine
10
49.665921
20
3.218847
30
0
11
49.491451
21
3.219608
31
0
39
0
210
0
220
0
230
1
0
LINE
5
AE
100
AcDbEntity
8
1
62
256
6
ByLayer
370
-1
48
1
60
0
100
AcDbLine
10
41.772944
20
5.219553
30
0
11
41.826468
21
6.041186
31
0
39
0
210
0
220
0
230
1
0
LINE
5
AF
100
AcDbEntity
8
1
62
256
6
ByLayer
370
-1
48
1
60
0
100
AcDbLine
10
49.665921
20
3.218847
30
0
11
49.719445
21
4.04048
31
0
39
0
210
0
220
0
230
1
0
LINE
5
B0
100
AcDbEntity
8
1
62
256
6
ByLayer
370
-1
48
1
60
0
100
AcDbLine
10
48.000553
20
2.375173
30
0
11
49.649609
21
2.367977
31
0
39
0
210
0
220
0
230
1
0
LINE
5
B1
100
AcDbEntity
8
1
62
256
6
ByLayer
370
-1
48
1
60
0
100
AcDbLine
10
42.964251
20
6.036221
30
0
11
41.826468
21
6.041186
31
0
39
0
210
0
220
0
230
1
0
LINE
5
B2
100
AcDbEntity
8
1
62
256
6
ByLayer
370
-1
48
1
60
0
100
AcDbLine
10
43.396495
20
4.963209
30
0
11
43.11594
21
5.433878
31
0
39
0
210
0
220
0
230
1
0
LINE
5
B3
100
AcDbEntity
8
1
62
256
6
ByLayer
370
-1
48
1
60
0
100
AcDbLine
10
49.946476
20
3.687067
30
0
11
50
21
4.508701
31
0
39
0
210
0
220
0
230
1
0
LINE
5
B4
100
AcDbEntity
8
1
62
256
6
ByLayer
370
-1
48
1
60
0
100
AcDbLine
10
43.11594
20
5.433878
30
0
11
43.219888
21
5.607357
31
0
39
0
210
0
220
0
230
1
0
LINE
5
B5
100
AcDbEntity
8
1
62
256
6
ByLayer
370
-1
48
1
60
0
100
AcDbLine
10
43.102128
20
4.545622
30
0
11
43.062416
21
4.612244
31
0
39
0
210
0
220
0
230
1
0
LINE
5
B6
100
AcDbEntity
8
1
62
256
6
ByLayer
370
-1
48
1
60
0
100
AcDbLine
10
48.256189
20
10.079948
30
0
11
48.825081
21
11.029375
31
0
39
0
210
0
220
0
230
1
0
LINE
5
B7
100
AcDbEntity
8
1
62
256
6
ByLayer
370
-1
48
1
60
0
100
AcDbLine
10
49.053211
20
1.548713
30
0
11
49.596085
21
1.546344
31
0
39
0
210
0
220
0
230
1
0
LINE
5
B8
100
AcDbEntity
8
SK1
62
256
6
ByLayer
370
-1
48
1
60
0
100
AcDbLine
10
-0.2
20
-5.197043
30
0
11
-0.2
21
-10.883485
31
0
39
0
210
0
220
0
230
1
0
MTEXT
5
144
100
AcDbEntity
8
SK6
62
256
6
ByLayer
370
-1
48
1
60
0
100
AcDbMText
10
-8.625
20
-26.875
30
0
210
0
220
0
230
1
1
\W00.696;\fsimplex.shx,bigfont.shx;C3-R166.0KF-12050-11 
40
3.5
41
0
44
1.084337
50
0
71
7
72
5
7
DEFAULT
0
DIMENSION
5
177
100
AcDbEntity
8
2
62
256
6
ByLayer
370
-3
48
1
60
0
100
AcDbDimension
2
DimnDraft3D1
10
64.25
20
11.875
30
0
11
64.25
21
3.871053
31
0
70
32
71
5
72
1
41
1
210
0
220
0
230
1
3
Standard
100
AcDbAlignedDimension
13
56.5
23
0
33
0
14
51.5
24
11.875
34
0
50
90
100
AcDbRotatedDimension
1001
ACAD
1000
DSTYLE
1002
{
1070
    74
1070
     0
1070
   279
1070
     0
1070
   172
1070
     1
1070
   173
1070
     1
1070
   340
1005
145
1070
   271
1070
     3
1070
   272
1070
     3
1070
    77
1070
     1
1070
    73
1070
     0
1070
   171
1070
     4
1070
   274
1070
     4
1070
   177
1070
     2
1070
   176
1070
     2
1070
   178
1070
     7
1070
    78
1070
     8
1070
    41
1041
3.0
1070
   147
1041
2.25
1070
    42
1041
1.5
1070
    44
1041
3.0
1070
   140
1041
4.5
1070
   343
1005
178
1070
   344
1005
178
1002
}
0
DIMENSION
5
18D
100
AcDbEntity
8
SK2
62
256
6
ByLayer
370
-3
48
1
60
0
100
AcDbDimension
2
DimnDraft3D2
10
-28.75
20
-16
30
0
11
-28.75
21
-4.784211
31
0
70
32
71
5
72
1
41
1
210
0
220
0
230
1
3
Standard
100
AcDbAlignedDimension
13
-1.5
23
16
33
0
14
-1.5
24
-16
34
0
50
90
100
AcDbRotatedDimension
1001
ACAD
1000
DSTYLE
1002
{
1070
    74
1070
     0
1070
   279
1070
     0
1070
   172
1070
     1
1070
   173
1070
     1
1070
   340
1005
145
1070
   271
1070
     3
1070
   272
1070
     3
1070
    77
1070
     1
1070
    73
1070
     0
1070
   171
1070
     4
1070
   274
1070
     4
1070
   177
1070
     2
1070
   176
1070
     2
1070
   178
1070
     7
1070
    78
1070
     8
1070
    41
1041
3.0
1070
   147
1041
2.25
1070
    42
1041
1.5
1070
    44
1041
3.0
1070
   140
1041
4.5
1070
   343
1005
178
1070
   344
1005
178
1002
}
0
DIMENSION
5
19B
100
AcDbEntity
8
2
62
256
6
ByLayer
370
-3
48
1
60
0
100
AcDbDimension
2
DimnDraft3D3
10
0
20
31.625
30
0
11
22.371053
21
31.625
31
0
70
32
71
5
72
1
41
1
210
0
220
0
230
1
3
Standard
100
AcDbAlignedDimension
13
50
23
13.375
33
0
14
0
24
1.5
34
0
50
0
100
AcDbRotatedDimension
1001
ACAD
1000
DSTYLE
1002
{
1070
   279
1070
     0
1070
   172
1070
     1
1070
   173
1070
     1
1070
   340
1005
145
1070
   271
1070
     3
1070
   272
1070
     3
1070
    77
1070
     1
1070
    73
1070
     0
1070
   171
1070
     4
1070
   274
1070
     4
1070
   177
1070
     2
1070
   176
1070
     2
1070
   178
1070
     7
1070
    78
1070
     8
1070
    41
1041
3.0
1070
   147
1041
2.25
1070
    42
1041
1.5
1070
    44
1041
3.0
1070
   140
1041
4.5
1070
   343
1005
178
1070
   344
1005
178
1002
}
0
DIMENSION
5
1A9
100
AcDbEntity
8
2
62
256
6
ByLayer
370
-3
48
1
60
0
100
AcDbDimension
2
DimnDraft3D4
10
50
20
21.625
30
0
11
30.692849
21
21.625
31
0
70
32
71
5
72
1
41
1
210
0
220
0
230
1
3
Standard
100
AcDbAlignedDimension
13
16.643594
23
13.375
33
0
14
50
24
13.375
34
0
50
0
100
AcDbRotatedDimension
1001
ACAD
1000
DSTYLE
1002
{
1070
   279
1070
     0
1070
   172
1070
     1
1070
   173
1070
     1
1070
   340
1005
145
1070
   271
1070
     3
1070
   272
1070
     3
1070
    77
1070
     1
1070
    73
1070
     0
1070
   171
1070
     4
1070
   274
1070
     4
1070
   177
1070
     2
1070
   176
1070
     2
1070
   178
1070
     7
1070
    78
1070
     8
1070
    41
1041
3.0
1070
   147
1041
2.25
1070
    42
1041
1.5
1070
    44
1041
3.0
1070
   140
1041
4.5
1070
   343
1005
178
1070
   344
1005
178
1002
}
0
ENDSEC
0
SECTION
2
OBJECTS
0
DICTIONARY
5
1da
330
0
100
AcDbDictionary
280
0
281
1
3
ACAD_GROUP
350
1db
3
ACAD_MLINESTYLE
350
1dc
0
DICTIONARY
5
1db
330
0
100
AcDbDictionary
280
0
281
1
0
DICTIONARY
5
1dc
330
0
100
AcDbDictionary
280
0
281
1
3
Standard
350
18
0
MLINESTYLE
5
18
330
1dc
100
AcDbMlineStyle
2
Standard
70
0
3

62
256
51
90
52
90
71
2
49
-0.5
62
256
6
ByLayer
49
0.5
62
256
6
ByLayer
0
RASTERVARIABLES
5
1c8
330

100
AcDbRasterVariables
90
0
70
1
71
1
72
1
0
ENDSEC
0
EOF
