0
SECTION
2
HEADER
9
$ACADVER
1
AC1015
9
$DWGCODEPAGE
3
ANSI_1252
9
$HANDSEED
5
303
9
$ANGBASE
50
0
9
$ANGDIR
70
0
9
$ATTMODE
70
1
9
$AUNITS
70
0
9
$AUPREC
70
0
9
$CECOLOR
62
256
9
$CELTSCALE
40
1
9
$CELTYPE
6
ByLayer
9
$CELWEIGHT
370
18
9
$CLAYER
8
0
9
$CMLJUST
70
0
9
$CMLSCALE
40
1
9
$CMLSTYLE
2
Standard
9
$DIMSTYLE
2
Standard
9
$TEXTSIZE
40
0.2
9
$TEXTSTYLE
7
Standard
9
$LUNITS
70
2
9
$LUPREC
70
4
9
$EXTNAMES
290
1
9
$INSUNITS
70
4
9
$LTSCALE
40
1
9
$LWDISPLAY
290
1
9
$PDMODE
70
0
9
$PDSIZE
40
0
9
$PLINEGEN
70
0
0
ENDSEC
0
SECTION
2
CLASSES
0
CLASS
1
RASTERVARIABLES
2
AcDbRasterVariables
3
ISM
90
0
280
0
281
0
0
ENDSEC
0
SECTION
2
TABLES
0
TABLE
2
VPORT
5
2f9
100
AcDbSymbolTable
0
VPORT
5
1
100
AcDbSymbolTableRecord
100
AcDbViewportTableRecord
2
*Active
70
0
10
0
20
0
11
1
21
1
12
-1
22
1
13
0
23
0
14
0.5
24
0.5
15
10
25
10
16
0
26
0
36
1
17
0
27
0
37
0
0
ENDTAB
0
TABLE
2
LTYPE
5
2fa
100
AcDbSymbolTable
0
LTYPE
5
14
100
AcDbSymbolTableRecord
100
AcDbLinetypeTableRecord
70
0
2
ByBlock
3

72
65
73
0
40
0
0
LTYPE
5
15
100
AcDbSymbolTableRecord
100
AcDbLinetypeTableRecord
70
0
2
ByLayer
3

72
65
73
0
40
0
0
LTYPE
5
16
100
AcDbSymbolTableRecord
100
AcDbLinetypeTableRecord
70
0
2
CONTINUOUS
3
Solid line
72
65
73
0
40
0
0
LTYPE
5
6A
100
AcDbSymbolTableRecord
100
AcDbLinetypeTableRecord
70
0
2
CENTER
3
____ _ ____ _ ____ _ ____
72
65
73
4
40
47.5
49
22
74
0
49
-8.5
74
0
49
8.5
74
0
49
-8.5
74
0
0
LTYPE
5
6B
100
AcDbSymbolTableRecord
100
AcDbLinetypeTableRecord
70
0
2
DASHED
3
__ __ __ __ __ __ __ __ __
72
65
73
2
40
25.72
49
12.86
74
0
49
-12.86
74
0
0
ENDTAB
0
TABLE
2
LAYER
5
2fb
100
AcDbSymbolTable
0
LAYER
5
10
100
AcDbSymbolTableRecord
100
AcDbLayerTableRecord
2
0
70
0
62
7
6
CONTINUOUS
290
1
370
-3
390
0
0
LAYER
5
6D
100
AcDbSymbolTableRecord
100
AcDbLayerTableRecord
2
81
70
0
62
-3
6
CONTINUOUS
290
1
370
-3
390
0
0
LAYER
5
6F
100
AcDbSymbolTableRecord
100
AcDbLayerTableRecord
2
80
70
0
62
-6
6
CONTINUOUS
290
1
370
-3
390
0
0
LAYER
5
71
100
AcDbSymbolTableRecord
100
AcDbLayerTableRecord
2
1
70
0
62
4
6
CONTINUOUS
290
1
370
-3
390
0
0
LAYER
5
240
100
AcDbSymbolTableRecord
100
AcDbLayerTableRecord
2
2
70
0
62
7
6
CONTINUOUS
290
1
370
-3
390
0
0
LAYER
5
2e6
100
AcDbSymbolTableRecord
100
AcDbLayerTableRecord
2
SK1
70
0
62
4
6
CONTINUOUS
290
1
370
-3
390
0
0
LAYER
5
2e7
100
AcDbSymbolTableRecord
100
AcDbLayerTableRecord
2
SK6
70
0
62
5
6
CONTINUOUS
290
1
370
-3
390
0
0
LAYER
5
2e8
100
AcDbSymbolTableRecord
100
AcDbLayerTableRecord
2
SK2
70
0
62
7
6
CONTINUOUS
290
1
370
-3
390
0
0
ENDTAB
0
TABLE
2
STYLE
5
2fc
100
AcDbSymbolTable
0
STYLE
5
11
100
AcDbSymbolTableRecord
100
AcDbTextStyleTableRecord
2
Standard
3
txt
70
0
71
0
40
0
41
1
42
0
50
0
0
STYLE
5
23B
100
AcDbSymbolTableRecord
100
AcDbTextStyleTableRecord
2
iso_b_vert
3
simplex.shx
70
0
71
0
40
0
41
1
42
0
50
0
0
STYLE
5
23C
100
AcDbSymbolTableRecord
100
AcDbTextStyleTableRecord
2
DWGDirectTextStyle
3
simplex
70
0
71
0
40
0
41
1
42
0
50
0
0
ENDTAB
0
TABLE
2
DIMSTYLE
5
2fd
100
AcDbSymbolTable
100
AcDbDimStyleTable
0
DIMSTYLE
105
27
100
AcDbSymbolTableRecord
100
AcDbDimStyleTableRecord
2
Standard
70
0
3
<>
41
0.18
42
0.0625
44
0.18
140
0.18
147
0.09
73
0
74
0
77
1
271
2
275
0
278
52
280
0
340
11
0
ENDTAB
0
TABLE
2
VIEW
5
2fe
100
AcDbSymbolTable
0
ENDTAB
0
TABLE
2
UCS
5
2ff
100
AcDbSymbolTable
0
ENDTAB
0
TABLE
2
APPID
5
300
100
AcDbSymbolTable
0
APPID
5
12
100
AcDbSymbolTableRecord
100
AcDbRegAppTableRecord
2
ACAD
70
0
0
ENDTAB
0
TABLE
2
BLOCK_RECORD
5
301
100
AcDbSymbolTable
0
BLOCK_RECORD
5
1F
100
AcDbSymbolTableRecord
100
AcDbBlockTableRecord
2
*Model_Space
340
0
70
0
0
BLOCK_RECORD
5
1B
100
AcDbSymbolTableRecord
100
AcDbBlockTableRecord
2
*Paper_Space
340
0
70
0
0
BLOCK_RECORD
5
23
100
AcDbSymbolTableRecord
100
AcDbBlockTableRecord
2
*Paper_Space0
340
0
70
0
0
BLOCK_RECORD
5
23E
100
AcDbSymbolTableRecord
100
AcDbBlockTableRecord
2
DimnDraft3D1
340
0
70
0
0
BLOCK_RECORD
5
24D
100
AcDbSymbolTableRecord
100
AcDbBlockTableRecord
2
_CLOSED
340
0
70
0
0
BLOCK_RECORD
5
254
100
AcDbSymbolTableRecord
100
AcDbBlockTableRecord
2
DimnDraft3D2
340
0
70
0
0
BLOCK_RECORD
5
263
100
AcDbSymbolTableRecord
100
AcDbBlockTableRecord
2
DimnDraft3D3
340
0
70
0
0
BLOCK_RECORD
5
271
100
AcDbSymbolTableRecord
100
AcDbBlockTableRecord
2
DimnDraft3D4
340
0
70
0
0
BLOCK_RECORD
5
27F
100
AcDbSymbolTableRecord
100
AcDbBlockTableRecord
2
DimnDraft3D5
340
0
70
0
0
ENDTAB
0
ENDSEC
0
SECTION
2
BLOCKS
0
BLOCK
5
20
100
AcDbEntity
8
0
100
AcDbBlockBegin
2
*Model_Space
70
0
10
0
20
0
30
0
3
*Model_Space
0
ENDBLK
5
21
100
AcDbEntity
8
0
100
AcDbBlockEnd
0
BLOCK
5
1C
100
AcDbEntity
8
0
100
AcDbBlockBegin
2
*Paper_Space
70
0
10
0
20
0
30
0
3
*Paper_Space
0
ENDBLK
5
1D
100
AcDbEntity
8
0
100
AcDbBlockEnd
0
BLOCK
5
24
100
AcDbEntity
8
0
100
AcDbBlockBegin
2
*Paper_Space0
70
0
10
0
20
0
30
0
3
*Paper_Space0
0
ENDBLK
5
25
100
AcDbEntity
8
0
100
AcDbBlockEnd
0
BLOCK
5
24A
100
AcDbEntity
8
0
100
AcDbBlockBegin
2
DimnDraft3D1
70
0
10
0
20
0
30
0
3
DimnDraft3D1
0
MTEXT
5
23F
100
AcDbEntity
8
2
62
256
6
ByLayer
370
18
48
1
60
0
100
AcDbMText
10
79.225
20
9.784211
30
0
210
0
220
0
230
1
1
\W0.6740;22
40
3.5
41
0
44
1.084337
50
90
71
7
72
5
7
iso_b_vert
0
LINE
5
241
100
AcDbEntity
8
2
62
256
6
ByLayer
370
13
48
1
60
0
100
AcDbLine
10
32
20
0
30
0
11
82.1
21
0
31
0
39
0
210
0
220
0
230
1
0
LINE
5
242
100
AcDbEntity
8
2
62
256
6
ByLayer
370
13
48
1
60
0
100
AcDbLine
10
57
20
22
30
0
11
82.1
21
22
31
0
39
0
210
0
220
0
230
1
0
LINE
5
243
100
AcDbEntity
8
2
62
256
6
ByLayer
370
13
48
1
60
0
100
AcDbLine
10
80.1
20
0
30
0
11
80.1
21
22
31
0
39
0
210
0
220
0
230
1
0
LINE
5
244
100
AcDbEntity
8
2
62
256
6
ByLayer
370
13
48
1
60
0
100
AcDbLine
10
80.1
20
0
30
0
11
79.682003
21
3.174998
31
0
39
0
210
0
220
0
230
1
0
LINE
5
245
100
AcDbEntity
8
2
62
256
6
ByLayer
370
13
48
1
60
0
100
AcDbLine
10
80.1
20
0
30
0
11
80.517997
21
3.175002
31
0
39
0
210
0
220
0
230
1
0
LINE
5
246
100
AcDbEntity
8
2
62
256
6
ByLayer
370
13
48
1
60
0
100
AcDbLine
10
79.682003
20
3.174998
30
0
11
80.517997
21
3.175002
31
0
39
0
210
0
220
0
230
1
0
LINE
5
247
100
AcDbEntity
8
2
62
256
6
ByLayer
370
13
48
1
60
0
100
AcDbLine
10
80.1
20
22
30
0
11
80.517997
21
18.825002
31
0
39
0
210
0
220
0
230
1
0
LINE
5
248
100
AcDbEntity
8
2
62
256
6
ByLayer
370
13
48
1
60
0
100
AcDbLine
10
80.1
20
22
30
0
11
79.682003
21
18.824998
31
0
39
0
210
0
220
0
230
1
0
LINE
5
249
100
AcDbEntity
8
2
62
256
6
ByLayer
370
13
48
1
60
0
100
AcDbLine
10
80.517997
20
18.825002
30
0
11
79.682003
21
18.824998
31
0
39
0
210
0
220
0
230
1
0
ENDBLK
5
24B
100
AcDbEntity
8
0
100
AcDbBlockEnd
0
BLOCK
5
24E
100
AcDbEntity
8
0
100
AcDbBlockBegin
2
_CLOSED
70
0
10
0
20
0
30
0
3
_CLOSED
0
LINE
5
250
100
AcDbEntity
8
0
62
256
6
ByLayer
370
-2
48
1
60
0
100
AcDbLine
10
-1
20
0.166667
30
0
11
0
21
0
31
0
39
0
210
0
220
0
230
1
0
LINE
5
251
100
AcDbEntity
8
0
62
256
6
ByLayer
370
-2
48
1
60
0
100
AcDbLine
10
0
20
0
30
0
11
-1
21
-0.166667
31
0
39
0
210
0
220
0
230
1
0
LINE
5
252
100
AcDbEntity
8
0
62
256
6
ByLayer
370
-2
48
1
60
0
100
AcDbLine
10
-1
20
0.166667
30
0
11
-1
21
-0.166667
31
0
39
0
210
0
220
0
230
1
0
LINE
5
253
100
AcDbEntity
8
0
62
256
6
ByLayer
370
-2
48
1
60
0
100
AcDbLine
10
0
20
0
30
0
11
-1
21
0
31
0
39
0
210
0
220
0
230
1
0
ENDBLK
5
24F
100
AcDbEntity
8
0
100
AcDbBlockEnd
0
BLOCK
5
260
100
AcDbEntity
8
0
100
AcDbBlockBegin
2
DimnDraft3D2
70
0
10
0
20
0
30
0
3
DimnDraft3D2
0
MTEXT
5
255
100
AcDbEntity
8
SK2
62
256
6
ByLayer
370
18
48
1
60
0
100
AcDbMText
10
26.284211
20
45.483569
30
0
210
0
220
0
230
1
1
\W0.6740;55
40
3.5
41
0
44
1.084337
50
0
71
7
72
5
7
iso_b_vert
0
LINE
5
257
100
AcDbEntity
8
SK2
62
256
6
ByLayer
370
13
48
1
60
0
100
AcDbLine
10
0
20
2
30
0
11
0
21
46.608569
31
0
39
0
210
0
220
0
230
1
0
LINE
5
258
100
AcDbEntity
8
SK2
62
256
6
ByLayer
370
13
48
1
60
0
100
AcDbLine
10
55
20
24
30
0
11
55
21
46.608569
31
0
39
0
210
0
220
0
230
1
0
LINE
5
259
100
AcDbEntity
8
SK2
62
256
6
ByLayer
370
13
48
1
60
0
100
AcDbLine
10
0
20
44.608569
30
0
11
55
21
44.608569
31
0
39
0
210
0
220
0
230
1
0
LINE
5
25A
100
AcDbEntity
8
SK2
62
256
6
ByLayer
370
13
48
1
60
0
100
AcDbLine
10
0
20
44.608569
30
0
11
3.174998
21
45.026566
31
0
39
0
210
0
220
0
230
1
0
LINE
5
25B
100
AcDbEntity
8
SK2
62
256
6
ByLayer
370
13
48
1
60
0
100
AcDbLine
10
0
20
44.608569
30
0
11
3.175002
21
44.190573
31
0
39
0
210
0
220
0
230
1
0
LINE
5
25C
100
AcDbEntity
8
SK2
62
256
6
ByLayer
370
13
48
1
60
0
100
AcDbLine
10
3.174998
20
45.026566
30
0
11
3.175002
21
44.190573
31
0
39
0
210
0
220
0
230
1
0
LINE
5
25D
100
AcDbEntity
8
SK2
62
256
6
ByLayer
370
13
48
1
60
0
100
AcDbLine
10
55
20
44.608569
30
0
11
51.825002
21
44.190573
31
0
39
0
210
0
220
0
230
1
0
LINE
5
25E
100
AcDbEntity
8
SK2
62
256
6
ByLayer
370
13
48
1
60
0
100
AcDbLine
10
55
20
44.608569
30
0
11
51.824998
21
45.026566
31
0
39
0
210
0
220
0
230
1
0
LINE
5
25F
100
AcDbEntity
8
SK2
62
256
6
ByLayer
370
13
48
1
60
0
100
AcDbLine
10
51.825002
20
44.190573
30
0
11
51.824998
21
45.026566
31
0
39
0
210
0
220
0
230
1
0
ENDBLK
5
261
100
AcDbEntity
8
0
100
AcDbBlockEnd
0
BLOCK
5
26E
100
AcDbEntity
8
0
100
AcDbBlockBegin
2
DimnDraft3D3
70
0
10
0
20
0
30
0
3
DimnDraft3D3
0
MTEXT
5
264
100
AcDbEntity
8
2
62
256
6
ByLayer
370
18
48
1
60
0
100
AcDbMText
10
41.284211
20
-28.225
30
0
210
0
220
0
230
1
1
\W0.6740;25
40
3.5
41
0
44
1.084337
50
0
71
7
72
5
7
iso_b_vert
0
LINE
5
265
100
AcDbEntity
8
2
62
256
6
ByLayer
370
13
48
1
60
0
100
AcDbLine
10
55
20
20
30
0
11
55
21
-31.1
31
0
39
0
210
0
220
0
230
1
0
LINE
5
266
100
AcDbEntity
8
2
62
256
6
ByLayer
370
13
48
1
60
0
100
AcDbLine
10
30
20
-2
30
0
11
30
21
-31.1
31
0
39
0
210
0
220
0
230
1
0
LINE
5
267
100
AcDbEntity
8
2
62
256
6
ByLayer
370
13
48
1
60
0
100
AcDbLine
10
55
20
-29.1
30
0
11
30
21
-29.1
31
0
39
0
210
0
220
0
230
1
0
LINE
5
268
100
AcDbEntity
8
2
62
256
6
ByLayer
370
13
48
1
60
0
100
AcDbLine
10
55
20
-29.1
30
0
11
51.825002
21
-29.517997
31
0
39
0
210
0
220
0
230
1
0
LINE
5
269
100
AcDbEntity
8
2
62
256
6
ByLayer
370
13
48
1
60
0
100
AcDbLine
10
55
20
-29.1
30
0
11
51.824998
21
-28.682003
31
0
39
0
210
0
220
0
230
1
0
LINE
5
26A
100
AcDbEntity
8
2
62
256
6
ByLayer
370
13
48
1
60
0
100
AcDbLine
10
51.825002
20
-29.517997
30
0
11
51.824998
21
-28.682003
31
0
39
0
210
0
220
0
230
1
0
LINE
5
26B
100
AcDbEntity
8
2
62
256
6
ByLayer
370
13
48
1
60
0
100
AcDbLine
10
30
20
-29.1
30
0
11
33.174998
21
-28.682003
31
0
39
0
210
0
220
0
230
1
0
LINE
5
26C
100
AcDbEntity
8
2
62
256
6
ByLayer
370
13
48
1
60
0
100
AcDbLine
10
30
20
-29.1
30
0
11
33.175002
21
-29.517997
31
0
39
0
210
0
220
0
230
1
0
LINE
5
26D
100
AcDbEntity
8
2
62
256
6
ByLayer
370
13
48
1
60
0
100
AcDbLine
10
33.174998
20
-28.682003
30
0
11
33.175002
21
-29.517997
31
0
39
0
210
0
220
0
230
1
0
ENDBLK
5
26F
100
AcDbEntity
8
0
100
AcDbBlockEnd
0
BLOCK
5
27C
100
AcDbEntity
8
0
100
AcDbBlockBegin
2
DimnDraft3D4
70
0
10
0
20
0
30
0
3
DimnDraft3D4
0
MTEXT
5
272
100
AcDbEntity
8
SK2
62
256
6
ByLayer
370
18
48
1
60
0
100
AcDbMText
10
-29.475
20
-1.215789
30
0
210
0
220
0
230
1
1
\W0.6740;32
40
3.5
41
0
44
1.084337
50
90
71
7
72
5
7
iso_b_vert
0
LINE
5
273
100
AcDbEntity
8
SK2
62
256
6
ByLayer
370
13
48
1
60
0
100
AcDbLine
10
-2
20
16
30
0
11
-30.6
21
16
31
0
39
0
210
0
220
0
230
1
0
LINE
5
274
100
AcDbEntity
8
SK2
62
256
6
ByLayer
370
13
48
1
60
0
100
AcDbLine
10
-2
20
-16
30
0
11
-30.6
21
-16
31
0
39
0
210
0
220
0
230
1
0
LINE
5
275
100
AcDbEntity
8
SK2
62
256
6
ByLayer
370
13
48
1
60
0
100
AcDbLine
10
-28.6
20
16
30
0
11
-28.6
21
-16
31
0
39
0
210
0
220
0
230
1
0
LINE
5
276
100
AcDbEntity
8
SK2
62
256
6
ByLayer
370
13
48
1
60
0
100
AcDbLine
10
-28.6
20
16
30
0
11
-28.182003
21
12.825002
31
0
39
0
210
0
220
0
230
1
0
LINE
5
277
100
AcDbEntity
8
SK2
62
256
6
ByLayer
370
13
48
1
60
0
100
AcDbLine
10
-28.6
20
16
30
0
11
-29.017997
21
12.824998
31
0
39
0
210
0
220
0
230
1
0
LINE
5
278
100
AcDbEntity
8
SK2
62
256
6
ByLayer
370
13
48
1
60
0
100
AcDbLine
10
-28.182003
20
12.825002
30
0
11
-29.017997
21
12.824998
31
0
39
0
210
0
220
0
230
1
0
LINE
5
279
100
AcDbEntity
8
SK2
62
256
6
ByLayer
370
13
48
1
60
0
100
AcDbLine
10
-28.6
20
-16
30
0
11
-29.017997
21
-12.825002
31
0
39
0
210
0
220
0
230
1
0
LINE
5
27A
100
AcDbEntity
8
SK2
62
256
6
ByLayer
370
13
48
1
60
0
100
AcDbLine
10
-28.6
20
-16
30
0
11
-28.182003
21
-12.824998
31
0
39
0
210
0
220
0
230
1
0
LINE
5
27B
100
AcDbEntity
8
SK2
62
256
6
ByLayer
370
13
48
1
60
0
100
AcDbLine
10
-29.017997
20
-12.825002
30
0
11
-28.182003
21
-12.824998
31
0
39
0
210
0
220
0
230
1
0
ENDBLK
5
27D
100
AcDbEntity
8
0
100
AcDbBlockEnd
0
BLOCK
5
28A
100
AcDbEntity
8
0
100
AcDbBlockBegin
2
DimnDraft3D5
70
0
10
0
20
0
30
0
3
DimnDraft3D5
0
MTEXT
5
280
100
AcDbEntity
8
2
62
256
6
ByLayer
370
18
48
1
60
0
100
AcDbMText
10
72.225
20
8.054211
30
0
210
0
220
0
230
1
1
\W0.5404;3
40
3.5
41
0
44
1.084337
50
90
71
7
72
5
7
iso_b_vert
0
LINE
5
281
100
AcDbEntity
8
2
62
256
6
ByLayer
370
13
48
1
60
0
100
AcDbLine
10
57
20
22
30
0
11
75.1
21
22
31
0
39
0
210
0
220
0
230
1
0
LINE
5
282
100
AcDbEntity
8
2
62
256
6
ByLayer
370
13
48
1
60
0
100
AcDbLine
10
57
20
19
30
0
11
75.1
21
19
31
0
39
0
210
0
220
0
230
1
0
LINE
5
283
100
AcDbEntity
8
2
62
256
6
ByLayer
370
13
48
1
60
0
100
AcDbLine
10
73.1
20
7.179211
30
0
11
73.1
21
30.75
31
0
39
0
210
0
220
0
230
1
0
LINE
5
284
100
AcDbEntity
8
2
62
256
6
ByLayer
370
13
48
1
60
0
100
AcDbLine
10
73.1
20
22
30
0
11
72.682003
21
25.174998
31
0
39
0
210
0
220
0
230
1
0
LINE
5
285
100
AcDbEntity
8
2
62
256
6
ByLayer
370
13
48
1
60
0
100
AcDbLine
10
73.1
20
22
30
0
11
73.517997
21
25.175002
31
0
39
0
210
0
220
0
230
1
0
LINE
5
286
100
AcDbEntity
8
2
62
256
6
ByLayer
370
13
48
1
60
0
100
AcDbLine
10
72.682003
20
25.174998
30
0
11
73.517997
21
25.175002
31
0
39
0
210
0
220
0
230
1
0
LINE
5
287
100
AcDbEntity
8
2
62
256
6
ByLayer
370
13
48
1
60
0
100
AcDbLine
10
73.1
20
19
30
0
11
73.517997
21
15.825002
31
0
39
0
210
0
220
0
230
1
0
LINE
5
288
100
AcDbEntity
8
2
62
256
6
ByLayer
370
13
48
1
60
0
100
AcDbLine
10
73.1
20
19
30
0
11
72.682003
21
15.824998
31
0
39
0
210
0
220
0
230
1
0
LINE
5
289
100
AcDbEntity
8
2
62
256
6
ByLayer
370
13
48
1
60
0
100
AcDbLine
10
73.517997
20
15.825002
30
0
11
72.682003
21
15.824998
31
0
39
0
210
0
220
0
230
1
0
ENDBLK
5
28B
100
AcDbEntity
8
0
100
AcDbBlockEnd
0
ENDSEC
0
SECTION
2
ENTITIES
0
ARC
5
120
100
AcDbEntity
8
1
62
256
6
ByLayer
370
13
48
1
60
0
100
AcDbCircle
39
0
10
-15.279208
20
17.2
30
0
40
1.2
210
0
220
0
230
-1
100
AcDbArc
50
195
51
270
0
ARC
5
121
100
AcDbEntity
8
1
62
256
6
ByLayer
370
13
48
1
60
0
100
AcDbCircle
39
0
10
-19.045149
20
-14.5
30
0
40
3.99999999999985
210
0
220
0
230
-1
100
AcDbArc
50
22.13074
51
90
0
ARC
5
122
100
AcDbEntity
8
1
62
256
6
ByLayer
370
13
48
1
60
0
100
AcDbCircle
39
0
10
-30
20
17.725
30
0
40
1.6
210
0
220
0
230
-1
100
AcDbArc
50
0
51
0.065385
0
ARC
5
123
100
AcDbEntity
8
1
62
256
6
ByLayer
370
18
48
1
60
0
100
AcDbCircle
39
0
10
45.2
20
19.45
30
0
40
0.2
210
0
220
0
230
1
100
AcDbArc
50
218.681386
51
240
0
ARC
5
124
100
AcDbEntity
8
1
62
256
6
ByLayer
370
18
48
1
60
0
100
AcDbCircle
39
0
10
45.2
20
21.55
30
0
40
0.2
210
0
220
0
230
1
100
AcDbArc
50
120
51
141.318614
0
ELLIPSE
5
125
100
AcDbEntity
8
1
62
256
6
ByLayer
370
13
48
1
60
0
100
AcDbEllipse
10
49.839209
20
20.5
30
0
11
1.26883854643256
21
1.28233778961868E-15
31
0
210
0
220
0
230
-1
40
0.472873
41
1.09923797102105
42
-1.09923797102104
0
ELLIPSE
5
126
100
AcDbEntity
8
1
62
256
6
ByLayer
370
13
48
1
60
0
100
AcDbEllipse
10
-0.928203
20
0
30
0
11
7.49393430382569
21
-15.7933993221997
31
0
210
0
220
0
230
-1
40
0.341999
41
-1.08757920120046
42
-0.161466571197783
0
ELLIPSE
5
127
100
AcDbEntity
8
1
62
256
6
ByLayer
370
13
48
1
60
0
100
AcDbEllipse
10
50.439369
20
20.5
30
0
11
9.64885723402902E-17
21
0.599999999999644
31
0
210
0
220
0
230
-1
40
0.087165
41
-2.6700342978171
42
-0.471558355772691
0
ELLIPSE
5
128
100
AcDbEntity
8
1
62
256
6
ByLayer
370
13
48
1
60
0
100
AcDbEllipse
10
15.13963
20
0
30
0
11
2.573028595742E-15
21
15.9999999999963
31
0
210
0
220
0
230
-1
40
0.008727
41
-2.39986980696689
42
-0.741722846622903
0
ELLIPSE
5
129
100
AcDbEntity
8
1
62
256
6
ByLayer
370
13
48
1
60
0
100
AcDbEllipse
10
-0.928203
20
0
30
0
11
7.4939343038258
21
15.7933993221999
31
0
210
0
220
0
230
-1
40
0.341999
41
0.161466571197767
42
1.08757920120046
0
ELLIPSE
5
12A
100
AcDbEntity
8
1
62
256
6
ByLayer
370
13
48
1
60
0
100
AcDbEllipse
10
12.928203
20
0
30
0
11
7.49393430382431
21
-15.7933993221993
31
0
210
0
220
0
230
-1
40
0.341999
41
2.05401345238926
42
2.980126082392
0
ELLIPSE
5
12B
100
AcDbEntity
8
1
62
256
6
ByLayer
370
13
48
1
60
0
100
AcDbEllipse
10
12.928203
20
0
30
0
11
7.49393430382426
21
15.7933993221992
31
0
210
0
220
0
230
-1
40
0.341999
41
-2.98012608239199
42
-2.05401345238926
0
ELLIPSE
5
12C
100
AcDbEntity
8
1
62
256
6
ByLayer
370
13
48
1
60
0
100
AcDbEllipse
10
54.37413
20
20.5
30
0
11
-7.38495814331257
21
9.04366666501288E-16
31
0
210
0
220
0
230
1
40
0.121869
41
1.16456723893879
42
1.18682389135614
0
ELLIPSE
5
12D
100
AcDbEntity
8
1
62
256
6
ByLayer
370
13
48
1
60
0
100
AcDbEllipse
10
53.458781
20
19.318834
30
0
11
0.0322705528359686
21
0.237820544570188
31
0
210
0
220
0
230
1
40
0.009402
41
0.684082575263742
42
1.50161815253463
0
ELLIPSE
5
12E
100
AcDbEntity
8
1
62
256
6
ByLayer
370
13
48
1
60
0
100
AcDbEllipse
10
52.228622
20
19.440299
30
0
11
-0.0129780832447762
21
0.239648845929397
31
0
210
0
220
0
230
1
40
0.707925
41
-1.55967335367816
42
-0.878821726711969
0
ELLIPSE
5
12F
100
AcDbEntity
8
1
62
256
6
ByLayer
370
13
48
1
60
0
100
AcDbEllipse
10
54.37413
20
20.5
30
0
11
-7.38495814331257
21
9.04366666501288E-16
31
0
210
0
220
0
230
1
40
0.121869
41
-1.18682389135614
42
-1.16456723893881
0
ELLIPSE
5
130
100
AcDbEntity
8
1
62
256
6
ByLayer
370
13
48
1
60
0
100
AcDbEllipse
10
53.458781
20
21.681166
30
0
11
0.0322705528359684
21
-0.237820544570188
31
0
210
0
220
0
230
1
40
0.009402
41
-1.50161815253483
42
-0.684082575267941
0
ELLIPSE
5
131
100
AcDbEntity
8
1
62
256
6
ByLayer
370
13
48
1
60
0
100
AcDbEllipse
10
52.228622
20
21.559701
30
0
11
-0.0129780832447759
21
-0.239648845929397
31
0
210
0
220
0
230
1
40
0.707925
41
0.878821726711969
42
1.55967335367816
0
ELLIPSE
5
132
100
AcDbEntity
8
1
62
256
6
ByLayer
370
13
48
1
60
0
100
AcDbEllipse
10
54.37413
20
20.5
30
0
11
7.34839757056538
21
1.17132098834174E-08
31
0
210
0
220
0
230
-1
40
0.08165
41
1.95476877235812
42
2.00162050076363
0
ELLIPSE
5
133
100
AcDbEntity
8
1
62
256
6
ByLayer
370
13
48
1
60
0
100
AcDbEllipse
10
51.986644
20
20.5
30
0
11
1.63150681154046
21
-5.76574992699449E-10
31
0
210
0
220
0
230
-1
40
0.367758
41
-2.17407423451282
42
-2.00162049253614
0
ELLIPSE
5
134
100
AcDbEntity
8
1
62
256
6
ByLayer
370
13
48
1
60
0
100
AcDbEllipse
10
54.374131
20
20.5
30
0
11
7.34839775515821
21
-2.15689678507132E-08
31
0
210
0
220
0
230
-1
40
0.08165
41
-2.00162050909517
42
-1.95476878169038
0
ELLIPSE
5
135
100
AcDbEntity
8
1
62
256
6
ByLayer
370
13
48
1
60
0
100
AcDbEllipse
10
51.986644
20
20.5
30
0
11
1.6315068087595
21
-2.37352253452803E-10
31
0
210
0
220
0
230
-1
40
0.367758
41
2.00162049166441
42
2.17407423387821
0
ELLIPSE
5
136
100
AcDbEntity
8
1
62
256
6
ByLayer
370
13
48
1
60
0
100
AcDbEllipse
10
52.123829
20
19.438617
30
0
11
0.1082392992065
21
-0.214206101937563
31
0
210
0
220
0
230
1
40
0.678671
41
1.29279293091362
42
1.84879976311947
0
ELLIPSE
5
137
100
AcDbEntity
8
1
62
256
6
ByLayer
370
13
48
1
60
0
100
AcDbEllipse
10
52.123829
20
21.561383
30
0
11
0.1082392992065
21
0.214206101937563
31
0
210
0
220
0
230
1
40
0.678671
41
-1.84879976311947
42
-1.29279293091366
0
ELLIPSE
5
138
100
AcDbEntity
8
1
62
256
6
ByLayer
370
13
48
1
60
0
100
AcDbEllipse
10
51.859452
20
19.678164
30
0
11
0.219354463278089
21
0.119931728245622
31
0
210
0
220
0
230
1
40
0.441633
41
0.600579851753366
42
1.30662817391546
0
ELLIPSE
5
139
100
AcDbEntity
8
1
62
256
6
ByLayer
370
13
48
1
60
0
100
AcDbEllipse
10
51.859452
20
21.321836
30
0
11
-0.219354463278086
21
0.119931728245626
31
0
210
0
220
0
230
1
40
0.441633
41
1.83496447967431
42
2.54101280183638
0
ELLIPSE
5
13A
100
AcDbEntity
8
1
62
256
6
ByLayer
370
13
48
1
60
0
100
AcDbEllipse
10
51.295115
20
19.773103
30
0
11
-0.0433548151255266
21
-0.195244359727577
31
0
210
0
220
0
230
1
40
0.334809
41
-2.68611088405472
42
-1.49658713340602
0
ELLIPSE
5
13B
100
AcDbEntity
8
1
62
256
6
ByLayer
370
13
48
1
60
0
100
AcDbEllipse
10
51.295115
20
21.226897
30
0
11
-0.0433548151255279
21
0.195244359727577
31
0
210
0
220
0
230
1
40
0.334809
41
1.49658713340599
42
2.68611088405472
0
ELLIPSE
5
13C
100
AcDbEntity
8
1
62
256
6
ByLayer
370
13
48
1
60
0
100
AcDbEllipse
10
51.91824
20
20.5
30
0
11
1.6558806773751
21
-3.80697223833473E-10
31
0
210
0
220
0
230
-1
40
0.483127
41
2.00162049159251
42
2.17407423381044
0
ELLIPSE
5
13D
100
AcDbEntity
8
1
62
256
6
ByLayer
370
13
48
1
60
0
100
AcDbEllipse
10
51.91824
20
20.5
30
0
11
1.65588067740149
21
3.735028794718E-10
31
0
210
0
220
0
230
-1
40
0.483127
41
-2.17407423380768
42
-2.00162049159113
0
ELLIPSE
5
13E
100
AcDbEntity
8
1
62
256
6
ByLayer
370
13
48
1
60
0
100
AcDbEllipse
10
52.125564
20
21.561022
30
0
11
0.00742724597932567
21
-0.239885047506431
31
0
210
0
220
0
230
1
40
0.70617
41
0.846393084122536
42
1.4995182195746
0
ELLIPSE
5
13F
100
AcDbEntity
8
1
62
256
6
ByLayer
370
13
48
1
60
0
100
AcDbEllipse
10
52.125564
20
19.438978
30
0
11
0.00742724597932589
21
0.239885047506431
31
0
210
0
220
0
230
1
40
0.70617
41
-1.4995182195746
42
-0.846393084122572
0
ELLIPSE
5
140
100
AcDbEntity
8
1
62
256
6
ByLayer
370
13
48
1
60
0
100
AcDbEllipse
10
51.047188
20
19.841216
30
0
11
-0.0631638165780187
21
-0.189763885592856
31
0
210
0
220
0
230
1
40
0.326425
41
-2.50339446299661
42
-1.46256868006916
0
ELLIPSE
5
141
100
AcDbEntity
8
1
62
256
6
ByLayer
370
13
48
1
60
0
100
AcDbEllipse
10
51.047188
20
21.158784
30
0
11
-0.0631638165785347
21
0.189763885592684
31
0
210
0
220
0
230
1
40
0.326425
41
1.46256868006827
42
2.50339446299227
0
ELLIPSE
5
142
100
AcDbEntity
8
1
62
256
6
ByLayer
370
13
48
1
60
0
100
AcDbEllipse
10
51.850683
20
19.665535
30
0
11
0.195064510201759
21
-0.227925068519783
31
0
210
0
220
0
230
1
40
0.863833
41
1.64869430110505
42
2.31141389753817
0
ELLIPSE
5
143
100
AcDbEntity
8
1
62
256
6
ByLayer
370
13
48
1
60
0
100
AcDbEllipse
10
51.850683
20
21.334465
30
0
11
-0.195064510201764
21
-0.227925068519779
31
0
210
0
220
0
230
1
40
0.863833
41
0.830178756051654
42
1.4928983524847
0
ELLIPSE
5
144
100
AcDbEntity
8
1
62
256
6
ByLayer
370
13
48
1
60
0
100
AcDbEllipse
10
50.950966
20
19.802033
30
0
11
0.182866340278506
21
-0.0809932194269721
31
0
210
0
220
0
230
1
40
0.14582
41
-2.77286095187742
42
-1.88885149068679
0
ELLIPSE
5
145
100
AcDbEntity
8
1
62
256
6
ByLayer
370
13
48
1
60
0
100
AcDbEllipse
10
50.950966
20
21.197967
30
0
11
0.182866340278443
21
0.0809932194271139
31
0
210
0
220
0
230
1
40
0.14582
41
1.88885149068658
42
2.77286095187521
0
ELLIPSE
5
146
100
AcDbEntity
8
1
62
256
6
ByLayer
370
13
48
1
60
0
100
AcDbEllipse
10
51.902412
20
21.206933
30
0
11
-0.299757884748935
21
0.0120503332254432
31
0
210
0
220
0
230
1
40
0.786325
41
1.67791435062297
42
2.25220990045419
0
ELLIPSE
5
147
100
AcDbEntity
8
1
62
256
6
ByLayer
370
13
48
1
60
0
100
AcDbEllipse
10
51.902412
20
19.793067
30
0
11
0.299757884748933
21
0.0120503332254948
31
0
210
0
220
0
230
1
40
0.786325
41
0.889382753135469
42
1.46367830296668
0
ELLIPSE
5
148
100
AcDbEntity
8
1
62
256
6
ByLayer
370
13
48
1
60
0
100
AcDbEllipse
10
50.692326
20
21.625902
30
0
11
0.0570319130279923
21
-0.138734858259803
31
0
210
0
220
0
230
1
40
0.776494
41
-1.87977830526732
42
-1.56980601158793
0
ELLIPSE
5
149
100
AcDbEntity
8
1
62
256
6
ByLayer
370
13
48
1
60
0
100
AcDbEllipse
10
50.692326
20
19.374098
30
0
11
-0.0570319130268966
21
-0.138734858260253
31
0
210
0
220
0
230
1
40
0.776494
41
-1.5717866420084
42
-1.26181434832865
0
ELLIPSE
5
14A
100
AcDbEntity
8
1
62
256
6
ByLayer
370
13
48
1
60
0
100
AcDbEllipse
10
51.08147
20
20.020757
30
0
11
-0.105329348464612
21
0.280901634655301
31
0
210
0
220
0
230
1
40
0.319781
41
-1.09012327608119
42
-0.203695114400057
0
ELLIPSE
5
14B
100
AcDbEntity
8
1
62
256
6
ByLayer
370
13
48
1
60
0
100
AcDbEllipse
10
51.08147
20
20.979243
30
0
11
-0.105329348464631
21
-0.280901634655294
31
0
210
0
220
0
230
1
40
0.319781
41
0.20369511439998
42
1.09012327608115
0
ELLIPSE
5
14C
100
AcDbEntity
8
1
62
256
6
ByLayer
370
13
48
1
60
0
100
AcDbEllipse
10
52.009329
20
20.211428
30
0
11
-0.263738087060282
21
0.142976296755033
31
0
210
0
220
0
230
1
40
0.337339
41
-2.12742665195265
42
-1.51944467242793
0
ELLIPSE
5
14D
100
AcDbEntity
8
1
62
256
6
ByLayer
370
13
48
1
60
0
100
AcDbEllipse
10
52.009329
20
20.788572
30
0
11
-0.26373808706239
21
-0.142976296751144
31
0
210
0
220
0
230
1
40
0.337339
41
1.51944467242558
42
2.12742665190395
0
ELLIPSE
5
14E
100
AcDbEntity
8
1
62
256
6
ByLayer
370
13
48
1
60
0
100
AcDbEllipse
10
50.689927
20
19.374562
30
0
11
4.24912383924225E-17
21
0.15
31
0
210
0
220
0
230
1
40
0.795546
41
1.23482044578598
42
1.5707963267949
0
ELLIPSE
5
14F
100
AcDbEntity
8
1
62
256
6
ByLayer
370
13
48
1
60
0
100
AcDbEllipse
10
50.689927
20
21.625438
30
0
11
4.24912383924225E-17
21
0.15
31
0
210
0
220
0
230
1
40
0.795546
41
1.5707963267949
42
1.90677220780382
0
ELLIPSE
5
150
100
AcDbEntity
8
1
62
256
6
ByLayer
370
13
48
1
60
0
100
AcDbEllipse
10
50.433293
20
19.374562
30
0
11
-2.75536429610035E-17
21
-0.15
31
0
210
0
220
0
230
1
40
0.34202
41
-1.75278811305915
42
-1.5707963267949
0
ELLIPSE
5
151
100
AcDbEntity
8
1
62
256
6
ByLayer
370
13
48
1
60
0
100
AcDbEllipse
10
50.433293
20
21.625438
30
0
11
4.24912383924225E-17
21
0.15
31
0
210
0
220
0
230
1
40
0.34202
41
1.5707963267949
42
1.75278811305915
0
ELLIPSE
5
152
100
AcDbEntity
8
1
62
256
6
ByLayer
370
13
48
1
60
0
100
AcDbEllipse
10
50.939982
20
20.933451
30
0
11
-0.0205626710087509
21
-0.198940133107892
31
0
210
0
220
0
230
1
40
0.702979
41
-1.10867675839074
42
-0.337059544638823
0
ELLIPSE
5
153
100
AcDbEntity
8
1
62
256
6
ByLayer
370
13
48
1
60
0
100
AcDbEllipse
10
50.939982
20
20.066549
30
0
11
-0.0205626710087514
21
0.198940133107892
31
0
210
0
220
0
230
1
40
0.702979
41
0.337059544638716
42
1.10867675839074
0
ELLIPSE
5
154
100
AcDbEntity
8
1
62
256
6
ByLayer
370
13
48
1
60
0
100
AcDbEllipse
10
51.072352
20
20.982663
30
0
11
0.1054031629799
21
0.280873945452106
31
0
210
0
220
0
230
1
40
0.321796
41
-2.93702761420017
42
-2.05551827773605
0
ELLIPSE
5
155
100
AcDbEntity
8
1
62
256
6
ByLayer
370
13
48
1
60
0
100
AcDbEllipse
10
51.072352
20
20.017337
30
0
11
-0.105403162979924
21
0.280873945452097
31
0
210
0
220
0
230
1
40
0.321796
41
-1.0860743758537
42
-0.204565039389442
0
ELLIPSE
5
156
100
AcDbEntity
8
1
62
256
6
ByLayer
370
13
48
1
60
0
100
AcDbEllipse
10
54.147654
20
19.308643
30
0
11
-0.00560126668057228
21
0.239934628204378
31
0
210
0
220
0
230
1
40
0.172043
41
0.73209745514099
42
1.49800588930574
0
ELLIPSE
5
157
100
AcDbEntity
8
1
62
256
6
ByLayer
370
13
48
1
60
0
100
AcDbEllipse
10
54.147654
20
21.691357
30
0
11
-0.00560126668057245
21
-0.239934628204378
31
0
210
0
220
0
230
1
40
0.172043
41
-1.49800588930574
42
-0.732097455141114
0
ELLIPSE
5
158
100
AcDbEntity
8
1
62
256
6
ByLayer
370
13
48
1
60
0
100
AcDbEllipse
10
50.931197
20
20.933936
30
0
11
5.665498452323E-17
21
0.2
31
0
210
0
220
0
230
1
40
0.803713
41
1.90677220780379
42
2.72521072930062
0
ELLIPSE
5
159
100
AcDbEntity
8
1
62
256
6
ByLayer
370
13
48
1
60
0
100
AcDbEllipse
10
50.931197
20
20.066064
30
0
11
5.665498452323E-17
21
0.2
31
0
210
0
220
0
230
1
40
0.803713
41
0.416381924289224
42
1.234820445786
0
ELLIPSE
5
15A
100
AcDbEntity
8
1
62
256
6
ByLayer
370
13
48
1
60
0
100
AcDbEllipse
10
50.533999
20
20.066064
30
0
11
-3.67381906146713E-17
21
-0.2
31
0
210
0
220
0
230
1
40
0.34202
41
-2.72521072930067
42
-1.90677220780379
0
ELLIPSE
5
15B
100
AcDbEntity
8
1
62
256
6
ByLayer
370
13
48
1
60
0
100
AcDbEllipse
10
50.533999
20
20.933936
30
0
11
5.665498452323E-17
21
0.2
31
0
210
0
220
0
230
1
40
0.34202
41
1.90677220780379
42
2.72521072930067
0
ELLIPSE
5
15C
100
AcDbEntity
8
1
62
256
6
ByLayer
370
13
48
1
60
0
100
AcDbEllipse
10
47.308132
20
19.230414
30
0
11
0.998914191574089
21
0.22603230646457
31
0
210
0
220
0
230
-1
40
0.206112
41
-2.2454854156394
42
-1.99506909474243
0
ELLIPSE
5
15D
100
AcDbEntity
8
1
62
256
6
ByLayer
370
13
48
1
60
0
100
AcDbEllipse
10
54.913527
20
19.72831
30
0
11
-0.0833341889559589
21
0.0552757899179428
31
0
210
0
220
0
230
1
40
0.125151
41
-1.63388084261207
42
-1.00888984397362
0
ELLIPSE
5
15E
100
AcDbEntity
8
1
62
256
6
ByLayer
370
13
48
1
60
0
100
AcDbEllipse
10
54.752853
20
19.578833
30
0
11
-0.0533981556875965
21
0.0845496124719871
31
0
210
0
220
0
230
1
40
0.139768
41
-1.57717485146101
42
-0.740023965274873
0
ELLIPSE
5
15F
100
AcDbEntity
8
1
62
256
6
ByLayer
370
13
48
1
60
0
100
AcDbEllipse
10
54.752853
20
21.421167
30
0
11
-0.0533981556875966
21
-0.0845496124719871
31
0
210
0
220
0
230
1
40
0.139768
41
0.740023965275252
42
1.57717485146094
0
ELLIPSE
5
160
100
AcDbEntity
8
1
62
256
6
ByLayer
370
13
48
1
60
0
100
AcDbEllipse
10
54.913527
20
21.27169
30
0
11
-0.0833341889559589
21
-0.0552757899179427
31
0
210
0
220
0
230
1
40
0.125151
41
1.00888984397329
42
1.63388084261207
0
ELLIPSE
5
161
100
AcDbEntity
8
1
62
256
6
ByLayer
370
13
48
1
60
0
100
AcDbEllipse
10
54.258678
20
21.089076
30
0
11
0.014829333617164
21
-0.399725019062444
31
0
210
0
220
0
230
1
40
0.406503
41
1.5557166718563
42
2.33595515067488
0
ELLIPSE
5
162
100
AcDbEntity
8
1
62
256
6
ByLayer
370
13
48
1
60
0
100
AcDbEllipse
10
54.258678
20
19.910924
30
0
11
0.0148293336171642
21
0.399725019062444
31
0
210
0
220
0
230
1
40
0.406503
41
-2.33595515067488
42
-1.55571667185632
0
ELLIPSE
5
163
100
AcDbEntity
8
1
62
256
6
ByLayer
370
13
48
1
60
0
100
AcDbEllipse
10
54.620403
20
19.496743
30
0
11
-0.0518341759381039
21
0.0855173561612945
31
0
210
0
220
0
230
1
40
0.13986
41
-1.57460332353069
42
-0.736311954700989
0
ELLIPSE
5
164
100
AcDbEntity
8
1
62
256
6
ByLayer
370
13
48
1
60
0
100
AcDbEllipse
10
54.523358
20
19.41937
30
0
11
-0.0777628762498878
21
0.0628723713354654
31
0
210
0
220
0
230
1
40
0.13045
41
-1.62182792903084
42
-1.15581636428
0
ELLIPSE
5
165
100
AcDbEntity
8
1
62
256
6
ByLayer
370
13
48
1
60
0
100
AcDbEllipse
10
54.620403
20
21.503257
30
0
11
-0.0518341759381039
21
-0.0855173561612945
31
0
210
0
220
0
230
1
40
0.13986
41
0.736311954700279
42
1.57460332353062
0
ELLIPSE
5
166
100
AcDbEntity
8
1
62
256
6
ByLayer
370
13
48
1
60
0
100
AcDbEllipse
10
54.523358
20
21.58063
30
0
11
-0.0777628762498878
21
-0.0628723713354653
31
0
210
0
220
0
230
1
40
0.13045
41
1.15581636427943
42
1.6218279290307
0
ELLIPSE
5
167
100
AcDbEntity
8
1
62
256
6
ByLayer
370
13
48
1
60
0
100
AcDbEllipse
10
53.758781
20
21.695151
30
0
11
-0.0082466205512047
21
-0.239858277425409
31
0
210
0
220
0
230
1
40
0.002403
41
0.709373157675845
42
1.50102444918783
0
ELLIPSE
5
168
100
AcDbEntity
8
1
62
256
6
ByLayer
370
13
48
1
60
0
100
AcDbEllipse
10
53.758781
20
19.304849
30
0
11
-0.00824662055120453
21
0.239858277425409
31
0
210
0
220
0
230
1
40
0.002403
41
-1.50102444918783
42
-0.709373157675865
0
ELLIPSE
5
169
100
AcDbEntity
8
1
62
256
6
ByLayer
370
13
48
1
60
0
100
AcDbEllipse
10
50.782996
20
22.580141
30
0
11
5.665498452323E-16
21
2
31
0
210
0
220
0
230
1
40
0.34202
41
2.7252107293006
42
2.79252680319093
0
ELLIPSE
5
16A
100
AcDbEntity
8
1
62
256
6
ByLayer
370
13
48
1
60
0
100
AcDbEllipse
10
50.782996
20
18.419859
30
0
11
-3.67381906146713E-16
21
-2
31
0
210
0
220
0
230
1
40
0.34202
41
-2.79252680319093
42
-2.7252107293006
0
ELLIPSE
5
16B
100
AcDbEntity
8
1
62
256
6
ByLayer
370
13
48
1
60
0
100
AcDbEllipse
10
54.935862
20
19.76293
30
0
11
-0.0846493904271157
21
0.0532398412874958
31
0
210
0
220
0
230
1
40
0.065231
41
-1.67414184501559
42
-1.04577954889669
0
ELLIPSE
5
16C
100
AcDbEntity
8
1
62
256
6
ByLayer
370
13
48
1
60
0
100
AcDbEllipse
10
54.935862
20
21.23707
30
0
11
-0.0846493904271157
21
-0.0532398412874957
31
0
210
0
220
0
230
1
40
0.065231
41
1.04577954889681
42
1.67414184501559
0
ELLIPSE
5
16D
100
AcDbEntity
8
1
62
256
6
ByLayer
370
13
48
1
60
0
100
AcDbEllipse
10
50.527689
20
20.5
30
0
11
5.94877337493915E-17
21
0.21
31
0
210
0
220
0
230
1
40
0.34202
41
-2.79252680319093
42
-0.349065850398866
0
ELLIPSE
5
16E
100
AcDbEntity
8
1
62
256
6
ByLayer
370
13
48
1
60
0
100
AcDbEllipse
10
47.308132
20
21.769586
30
0
11
0.979582052700199
21
-0.301726209275541
31
0
210
0
220
0
230
-1
40
0.270086
41
2.05273074528672
42
2.24185105464809
0
ELLIPSE
5
16F
100
AcDbEntity
8
1
62
256
6
ByLayer
370
13
48
1
60
0
100
AcDbEllipse
10
47.308132
20
19.230414
30
0
11
0.979582052563525
21
0.301726209261749
31
0
210
0
220
0
230
-1
40
0.270086
41
-2.24185105461503
42
-2.05273074523319
0
ELLIPSE
5
170
100
AcDbEntity
8
1
62
256
6
ByLayer
370
13
48
1
60
0
100
AcDbEllipse
10
47.308132
20
21.769586
30
0
11
0.998914191600421
21
-0.226032306466483
31
0
210
0
220
0
230
-1
40
0.206112
41
1.99506909475443
42
2.24548541564632
0
ELLIPSE
5
171
100
AcDbEntity
8
1
62
256
6
ByLayer
370
18
48
1
60
0
100
AcDbEllipse
10
54.506337
20
19.026697
30
0
11
0.239997046770866
21
-0.0169489931191445
31
0
210
0
220
0
230
-1
40
0.070266
41
1.44395567250371
42
1.73995037531926
0
ELLIPSE
5
172
100
AcDbEntity
8
1
62
256
6
ByLayer
370
18
48
1
60
0
100
AcDbEllipse
10
55.048748
20
19.76293
30
0
11
1.1330996904646E-16
21
0.4
31
0
210
0
220
0
230
1
40
0.121869
41
1.5707963267949
42
1.64009079051253
0
ELLIPSE
5
173
100
AcDbEntity
8
1
62
256
6
ByLayer
370
18
48
1
60
0
100
AcDbEllipse
10
55.048748
20
21.23707
30
0
11
1.1330996904646E-16
21
0.4
31
0
210
0
220
0
230
1
40
0.121869
41
1.50150186307726
42
1.5707963267949
0
ELLIPSE
5
174
100
AcDbEntity
8
1
62
256
6
ByLayer
370
18
48
1
60
0
100
AcDbEllipse
10
51.542652
20
21.95
30
0
11
0.201946432116473
21
0
31
0
210
0
220
0
230
1
40
0.990362
41
-1.5707963267949
42
-1.04299365512072
0
ELLIPSE
5
175
100
AcDbEntity
8
1
62
256
6
ByLayer
370
18
48
1
60
0
100
AcDbEllipse
10
52.136306
20
19.158691
30
0
11
0.251841921973039
21
-0.0177818623364634
31
0
210
0
220
0
230
-1
40
0.06924
41
0.774400198854847
42
1.56101782180043
0
ELLIPSE
5
176
100
AcDbEntity
8
1
62
256
6
ByLayer
370
18
48
1
60
0
100
AcDbEllipse
10
51.553398
20
19.05
30
0
11
-0.201490790302156
21
2.46746902040712E-17
31
0
210
0
220
0
230
1
40
0.992601
41
-2.09761674342106
42
-1.5707963267949
0
ELLIPSE
5
177
100
AcDbEntity
8
1
62
256
6
ByLayer
370
18
48
1
60
0
100
AcDbEllipse
10
52.136306
20
21.841309
30
0
11
0.25184192196006
21
0.0177818623350125
31
0
210
0
220
0
230
-1
40
0.06924
41
-1.56101782182973
42
-0.774400198844579
0
ELLIPSE
5
178
100
AcDbEntity
8
1
62
256
6
ByLayer
370
18
48
1
60
0
100
AcDbEllipse
10
54.506337
20
21.973303
30
0
11
0.239997044386636
21
0.0169489929575559
31
0
210
0
220
0
230
-1
40
0.070266
41
-1.73995037661121
42
-1.44395567083519
0
ELLIPSE
5
179
100
AcDbEntity
8
1
62
256
6
ByLayer
370
18
48
1
60
0
100
AcDbEllipse
10
51.79757
20
21.634169
30
0
11
0.058624730201206
21
-0.191752852286547
31
0
210
-1.59644179966719E-15
220
4.38574520942052E-19
230
1
40
0.997435
41
2.91526219766618
42
-2.91526219766616
0
ELLIPSE
5
17A
100
AcDbEntity
8
1
62
256
6
ByLayer
370
18
48
1
60
0
100
AcDbEllipse
10
51.809275
20
19.365013
30
0
11
0.00297293931671267
21
0.200467814146891
31
0
210
-1.59612295829283E-15
220
-1.26268957575375E-19
230
1
40
0.997557
41
2.63386280411413
42
3.08674247812914
0
POINT
5
6C
100
AcDbEntity
8
81
62
256
6
ByLayer
370
18
48
1
60
0
100
AcDbPoint
10
55
20
22
30
0
39
0
210
0
220
0
230
1
50
360
0
POINT
5
6E
100
AcDbEntity
8
80
62
256
6
ByLayer
370
18
48
1
60
0
100
AcDbPoint
10
0
20
0
30
0
39
0
210
0
220
0
230
1
50
360
0
SPLINE
5
17B
100
AcDbEntity
8
SK1
62
256
6
ByLayer
370
13
48
1
60
0
100
AcDbSpline
70
4
71
2
72
6
73
3
40
0
40
0
40
0
40
1
40
1
40
1
41
1
10
-18
20
-10.607592753875
30
0
41
1
10
-9.74999999580729
20
-10.8147118141342
30
0
41
1
10
-1.5
20
-11.0218291766808
30
0
0
SPLINE
5
17C
100
AcDbEntity
8
SK1
62
256
6
ByLayer
370
13
48
1
60
0
100
AcDbSpline
70
4
71
2
72
6
73
3
40
0
40
0
40
0
40
1
40
1
40
1
41
1
10
-1.49999999999997
20
11.0218290347139
30
0
41
1
10
-9.74999999580729
20
10.8147116728235
30
0
41
1
10
-18
20
10.6075926131751
30
0
0
SPLINE
5
17D
100
AcDbEntity
8
SK1
62
256
6
ByLayer
370
13
48
1
60
0
100
AcDbSpline
70
4
71
2
72
6
73
3
40
0
40
0
40
0
40
1
40
1
40
1
41
1
10
-18.9999999999999
20
-10.0329645549392
30
0
41
1
10
-18.4999993685751
20
-10.3214765556861
30
0
41
1
10
-18
20
-10.6099829102616
30
0
0
SPLINE
5
17E
100
AcDbEntity
8
SK1
62
256
6
ByLayer
370
13
48
1
60
0
100
AcDbSpline
70
4
71
2
72
6
73
3
40
0
40
0
40
0
40
1
40
1
40
1
41
1
10
-18
20
10.6099827775056
30
0
41
1
10
-18.4999993686076
20
10.3214764228909
30
0
41
1
10
-18.9999999999999
20
10.0329644221717
30
0
0
SPLINE
5
17F
100
AcDbEntity
8
SK1
62
256
6
ByLayer
370
13
48
1
60
0
100
AcDbSpline
70
4
71
3
72
13
73
9
40
0
40
0
40
0
40
0
40
0.239519409344934
40
0.368436717937862
40
0.500075274086334
40
0.631702862900111
40
0.760587757609257
40
1
40
1
40
1
40
1
41
1
10
-1.2950399779393
20
10.8302906518511
30
0
41
1
10
-1.32110811439466
20
10.8298878106463
30
0
41
1
10
-1.35883625148526
20
10.8360574938784
30
0
41
1
10
-1.40627518083028
20
10.859091779441
30
0
41
1
10
-1.4388625927059
20
10.8842489053808
30
0
41
1
10
-1.46563525678502
20
10.9155177526731
30
0
41
1
10
-1.49103252451869
20
10.9617179528093
30
0
41
1
10
-1.49909162766019
20
10.9990755987901
30
0
41
1
10
-1.49999999999997
20
11.0251228679297
30
0
0
SPLINE
5
180
100
AcDbEntity
8
SK1
62
256
6
ByLayer
370
13
48
1
60
0
100
AcDbSpline
70
4
71
3
72
13
73
9
40
0
40
0
40
0
40
0
40
0.23941821624044
40
0.368302331661109
40
0.499928754022114
40
0.631568038325919
40
0.760485869348394
40
1
40
1
40
1
40
1
41
1
10
-1.5
20
-11.0251229634028
30
0
41
1
10
-1.49909191796945
20
-10.9990761096856
30
0
41
1
10
-1.49103287968458
20
-10.9617189548704
30
0
41
1
10
-1.46563532904139
20
-10.9155178559453
30
0
41
1
10
-1.43886232936762
20
-10.8842487422284
30
0
41
1
10
-1.40627519739925
20
-10.8590919385496
30
0
41
1
10
-1.35883704267303
20
-10.8360578591166
30
0
41
1
10
-1.32110848256451
20
-10.8298881386429
30
0
41
1
10
-1.29503997793927
20
-10.8302907478373
30
0
0
SPLINE
5
181
100
AcDbEntity
8
SK1
62
256
6
ByLayer
370
13
48
1
60
0
100
AcDbSpline
70
4
71
3
72
17
73
13
40
0
40
0
40
0
40
0
40
0.0509999718680838
40
0.120748326658609
40
0.260245036239658
40
0.399741745820708
40
0.539238455401757
40
0.678735164982807
40
0.818231874563856
40
0.887980229354381
40
0.957728584144906
40
1
40
1
40
1
40
1
41
1
10
-1.2950399779393
20
10.8302903740133
30
0
41
1
10
-1.2950399779393
20
10.8303490898728
30
0
41
1
10
-1.29503997793927
20
10.8084520138086
30
0
41
1
10
-1.29503997793927
20
10.6595078070701
30
0
41
1
10
-1.2950399779393
20
10.2500351152373
30
0
41
1
10
-1.2950399779393
20
9.47349094524563
30
0
41
1
10
-1.29503997793927
20
8.44264434291844
30
0
41
1
10
-1.2950399779393
20
7.17735249314512
30
0
41
1
10
-1.2950399779393
20
5.93905418532486
30
0
41
1
10
-1.2950399779393
20
4.84051419704483
30
0
41
1
10
-1.2950399779393
20
4.08014769325373
30
0
41
1
10
-1.2950399779393
20
3.58970381899354
30
0
41
1
10
-1.2950399779393
20
3.40161292972343
30
0
0
SPLINE
5
182
100
AcDbEntity
8
SK1
62
256
6
ByLayer
370
13
48
1
60
0
100
AcDbSpline
70
4
71
3
72
24
73
20
40
0
40
0
40
0
40
0
40
0.128387595315424
40
0.128387595315424
40
0.159816787058915
40
0.159816787058915
40
0.19191356433774
40
0.19191356433774
40
0.209621992350304
40
0.209621992350304
40
0.227357368928658
40
0.227357368928658
40
0.25101709503786
40
0.25101709503786
40
0.293042868277132
40
0.293042868277132
40
0.426109841033758
40
0.426109841033758
40
1
40
1
40
1
40
1
41
1
10
-0.19497688887526
20
4.37579881180469
30
0
41
1
10
-0.181376609846751
20
4.35077182852041
30
0
41
1
10
-0.166084452907398
20
4.32613296449404
30
0
41
1
10
-0.140434718547596
20
4.30354219591214
30
0
41
1
10
-0.134934284841819
20
4.29948916182244
30
0
41
1
10
-0.122846025128155
20
4.29329535928463
30
0
41
1
10
-0.116020442370541
20
4.29111917578794
30
0
41
1
10
-0.104884728675927
20
4.29110815705076
30
0
41
1
10
-0.100717557341909
20
4.29180717572171
30
0
41
1
10
-0.0926853821894724
20
4.2947246489735
30
0
41
1
10
-0.0887307273814884
20
4.29697782288554
30
0
41
1
10
-0.0803221045946998
20
4.30341451620873
30
0
41
1
10
-0.0759893926376094
20
4.30805199521816
30
0
41
1
10
-0.0654876521096526
20
4.32177471162345
30
0
41
1
10
-0.0601619056929223
20
4.33174670235783
30
0
41
1
10
-0.041483643476937
20
4.3733520050782
30
0
41
1
10
-0.0338202360856883
20
4.4070091526392
30
0
41
1
10
-0.0008505118823905
20
4.58041352035016
30
0
41
1
10
2.84E-14
20
4.71858084962912
30
0
41
1
10
2.84E-14
20
4.85235826679369
30
0
0
SPLINE
5
183
100
AcDbEntity
8
SK1
62
256
6
ByLayer
370
13
48
1
60
0
100
AcDbSpline
70
4
71
3
72
35
73
31
40
0
40
0
40
0
40
0
40
0.0183913870216445
40
0.0467212608670582
40
0.103381008557885
40
0.160040756248713
40
0.21670050393954
40
0.273360251630368
40
0.330019999321195
40
0.358349873166608
40
0.386679747012022
40
0.415009620857436
40
0.44333949470285
40
0.471669368548263
40
0.48583430547097
40
0.499999242393677
40
0.514164179316384
40
0.528329116239091
40
0.556658990084504
40
0.584988863929918
40
0.613318737775332
40
0.641648611620745
40
0.669978485466159
40
0.726638233156987
40
0.783297980847814
40
0.839957728538641
40
0.896617476229469
40
0.953277223920296
40
0.98160709776571
40
1
40
1
40
1
40
1
41
1
10
-18.9999999999999
20
10.0333172284388
30
0
41
1
10
-18.9999999999999
20
10.0315838813844
30
0
41
1
10
-18.9999999999999
20
10.0100828773411
30
0
41
1
10
-18.9999999999999
20
9.87290376557468
30
0
41
1
10
-19
20
9.4871354620816
30
0
41
1
10
-19
20
8.74970557959296
30
0
41
1
10
-18.9999999999999
20
7.76896293179377
30
0
41
1
10
-18.9999999999999
20
6.56626239951896
30
0
41
1
10
-18.9999999999999
20
5.3968986066003
30
0
41
1
10
-18.9999999999999
20
4.35855354299235
30
0
41
1
10
-18.9999999999999
20
3.54050705744922
30
0
41
1
10
-19
20
2.68380958588833
30
0
41
1
10
-18.9999999999999
20
1.7972819277216
30
0
41
1
10
-18.9999999999999
20
1.05021111926777
30
0
41
1
10
-19
20
0.444753991207904
30
0
41
1
10
-18.9999999999999
20
1.751602667E-07
30
0
41
1
10
-19
20
-0.444754022193024
30
0
41
1
10
-19
20
-1.05021119288864
30
0
41
1
10
-19
20
-1.79728161122441
30
0
41
1
10
-18.9999999999999
20
-2.68380947355124
30
0
41
1
10
-19
20
-3.54050720156601
30
0
41
1
10
-18.9999999999999
20
-4.35855334822492
30
0
41
1
10
-18.9999999999999
20
-5.39689848302669
30
0
41
1
10
-18.9999999999999
20
-6.56626237391905
30
0
41
1
10
-18.9999999999999
20
-7.76896317370662
30
0
41
1
10
-19
20
-8.74970539585968
30
0
41
1
10
-18.9999999999999
20
-9.48713598675059
30
0
41
1
10
-19
20
-9.87290379428873
30
0
41
1
10
-18.9999999999999
20
-10.0100852099408
30
0
41
1
10
-18.9999999999999
20
-10.0315854355689
30
0
41
1
10
-18.9999999999999
20
-10.0333177711167
30
0
0
SPLINE
5
184
100
AcDbEntity
8
SK1
62
256
6
ByLayer
370
13
48
1
60
0
100
AcDbSpline
70
4
71
3
72
12
73
8
40
0
40
0
40
0
40
0
40
0.5
40
0.5
40
0.75
40
0.75
40
1
40
1
40
1
40
1
41
1
10
-1.29503997793927
20
3.40161292972374
30
0
41
1
10
-1.21966153693791
20
3.74094063354167
30
0
41
1
10
-1.13234441385649
20
4.06572173503707
30
0
41
1
10
-0.888424605955834
20
4.51242811202675
30
0
41
1
10
-0.782090355088684
20
4.70587064177849
30
0
41
1
10
-0.381449312601433
20
4.71480920489637
30
0
41
1
10
-0.275877572630833
20
4.52467076184288
30
0
41
1
10
-0.19497688887526
20
4.37579881180471
30
0
0
SPLINE
5
185
100
AcDbEntity
8
SK1
62
256
6
ByLayer
370
13
48
1
60
0
100
AcDbSpline
70
4
71
3
72
35
73
31
40
0
40
0
40
0
40
0
40
0.0158969521290396
40
0.0443712385470684
40
0.101319811383126
40
0.158268384219184
40
0.215216957055242
40
0.272165529891299
40
0.329114102727357
40
0.357588389145386
40
0.386062675563415
40
0.414536961981444
40
0.443011248399473
40
0.471485534817502
40
0.485722678026516
40
0.499959821235531
40
0.514196964444545
40
0.528434107653559
40
0.556908394071588
40
0.585382680489617
40
0.613856966907646
40
0.642331253325675
40
0.670805539743703
40
0.727754112579761
40
0.784702685415819
40
0.841651258251877
40
0.898599831087935
40
0.955548403923992
40
0.984022690342021
40
1
40
1
40
1
40
1
41
1
10
-18
20
10.6092651403051
30
0
41
1
10
-18
20
10.6060349452768
30
0
41
1
10
-18
20
10.5825021055558
30
0
41
1
10
-18
20
10.4427418173596
30
0
41
1
10
-18
20
10.0398013894459
30
0
41
1
10
-18
20
9.27403601894562
30
0
41
1
10
-18
20
8.256996659804
30
0
41
1
10
-18
20
7.00895321986482
30
0
41
1
10
-18
20
5.78965132899589
30
0
41
1
10
-18
20
4.70769937196636
30
0
41
1
10
-18
20
3.8481716606739
30
0
41
1
10
-18
20
2.94117947415643
30
0
41
1
10
-18
20
1.99095585453031
30
0
41
1
10
-18
20
1.17129189084363
30
0
41
1
10
-18
20
0.501599059707416
30
0
41
1
10
-18
20
7.8593871E-08
30
0
41
1
10
-18
20
-0.501599044412416
30
0
41
1
10
-18
20
-1.17129192458168
30
0
41
1
10
-18
20
-1.99095571595882
30
0
41
1
10
-18
20
-2.94117931205889
30
0
41
1
10
-18
20
-3.84817175180623
30
0
41
1
10
-18
20
-4.70769924070151
30
0
41
1
10
-18
20
-5.78965120402765
30
0
41
1
10
-18
20
-7.00895314702168
30
0
41
1
10
-18
20
-8.25699691773568
30
0
41
1
10
-18
20
-9.27403581023771
30
0
41
1
10
-18
20
-10.0398019205168
30
0
41
1
10
-18
20
-10.4427418393662
30
0
41
1
10
-18
20
-10.5826132752329
30
0
41
1
10
-18.0000000000001
20
-10.6061202367978
30
0
41
1
10
-18.0000000000001
20
-10.6093138598274
30
0
0
SPLINE
5
186
100
AcDbEntity
8
SK1
62
256
6
ByLayer
370
13
48
1
60
0
100
AcDbSpline
70
4
71
3
72
28
73
24
40
0
40
0
40
0
40
0
40
0.512389772634334
40
0.512389772634334
40
0.59873191364158
40
0.59873191364158
40
0.676265860997328
40
0.676265860997328
40
0.73214932753422
40
0.73214932753422
40
0.756724770902835
40
0.756724770902835
40
0.781793306260125
40
0.781793306260125
40
0.799361847027505
40
0.799361847027505
40
0.816826010501552
40
0.816826010501552
40
0.846186813770723
40
0.846186813770723
40
0.905539732456023
40
0.905539732456023
40
1
40
1
40
1
40
1
41
1
10
2.84E-14
20
-4.85235750507854
30
0
41
1
10
2.84E-14
20
-4.73258035965063
30
0
41
1
10
-0.0021341972527011
20
-4.60969891010186
30
0
41
1
10
-0.0232786507929461
20
-4.46302637227453
30
0
41
1
10
-0.0269092785202645
20
-4.44166333235884
30
0
41
1
10
-0.0357027926590945
20
-4.40116175451507
30
0
41
1
10
-0.0406406591744428
20
-4.3819143751717
30
0
41
1
10
-0.0520117846028256
20
-4.34944869087846
30
0
41
1
10
-0.0576636066331844
20
-4.33583294590238
30
0
41
1
10
-0.0685385681379955
20
-4.31781684750959
30
0
41
1
10
-0.0722984771588244
20
-4.31246867438298
30
0
41
1
10
-0.0809092003856051
20
-4.30291138711002
30
0
41
1
10
-0.0859393324079463
20
-4.29861365633269
30
0
41
1
10
-0.0951339015149983
20
-4.29362932415097
30
0
41
1
10
-0.0992015134458768
20
-4.29221665297052
30
0
41
1
10
-0.107162338092735
20
-4.29091978708692
30
0
41
1
10
-0.111142011696217
20
-4.29099599703508
30
0
41
1
10
-0.121216352207597
20
-4.2926562994902
30
0
41
1
10
-0.127113045572145
20
-4.29518639800182
30
0
41
1
10
-0.143301351325562
20
-4.30481339036575
30
0
41
1
10
-0.152491885174413
20
-4.3139873237308
30
0
41
1
10
-0.173901568135989
20
-4.33947815148562
30
0
41
1
10
-0.184949910857739
20
-4.35734694302431
30
0
41
1
10
-0.19497688887526
20
-4.37579839097918
30
0
0
SPLINE
5
187
100
AcDbEntity
8
SK1
62
256
6
ByLayer
370
13
48
1
60
0
100
AcDbSpline
70
4
71
3
72
24
73
20
40
0
40
0
40
0
40
0
40
0.0961745797005495
40
0.0961745797005495
40
0.194283388716092
40
0.194283388716092
40
0.224865974099098
40
0.224865974099098
40
0.25592480074768
40
0.25592480074768
40
0.283007420751212
40
0.283007420751212
40
0.322155407812164
40
0.322155407812164
40
0.396635895252516
40
0.396635895252516
40
0.655257204705022
40
0.655257204705022
40
1
40
1
40
1
40
1
41
1
10
-0.19497688887526
20
-4.37579839097918
30
0
41
1
10
-0.22577860339365
20
-4.43247910089627
30
0
41
1
10
-0.260015938127026
20
-4.48781319119934
30
0
41
1
10
-0.341702551245533
20
-4.59153420481013
30
0
41
1
10
-0.390118921162156
20
-4.64237259472074
30
0
41
1
10
-0.473016748626009
20
-4.68771235181509
30
0
41
1
10
-0.49488712906026
20
-4.69691757833229
30
0
41
1
10
-0.541277938015895
20
-4.70885491730439
30
0
41
1
10
-0.566511484960131
20
-4.71148681970925
30
0
41
1
10
-0.612595492696613
20
-4.70858984525552
30
0
41
1
10
-0.634102058640593
20
-4.70407498906437
30
0
41
1
10
-0.682980774672245
20
-4.68755425299949
30
0
41
1
10
-0.709628474198723
20
-4.67305795132489
30
0
41
1
10
-0.778816689934871
20
-4.62544783848224
30
0
41
1
10
-0.816326813882057
20
-4.58672309278174
30
0
41
1
10
-0.962957354385537
20
-4.40775966937696
30
0
41
1
10
-1.03461938473876
20
-4.24573672775702
30
0
41
1
10
-1.18088300049357
20
-3.86444045923335
30
0
41
1
10
-1.24300370483718
20
-3.63586143768174
30
0
41
1
10
-1.29503997793927
20
-3.40161170366483
30
0
0
SPLINE
5
188
100
AcDbEntity
8
SK1
62
256
6
ByLayer
370
13
48
1
60
0
100
AcDbSpline
70
4
71
3
72
17
73
13
40
0
40
0
40
0
40
0
40
0.0666167809013022
40
0.134894810880114
40
0.271450870837739
40
0.408006930795363
40
0.544562990752987
40
0.681119050710612
40
0.817675110668236
40
0.885953140647048
40
0.95423117062586
40
1
40
1
40
1
40
1
41
1
10
-1.49999999999994
20
11.0218284677666
30
0
41
1
10
-1.5
20
11.0305322949325
30
0
41
1
10
-1.49999999999997
20
11.0128510513203
30
0
41
1
10
-1.49999999999997
20
10.8518854777454
30
0
41
1
10
-1.49999999999997
20
10.4366154663299
30
0
41
1
10
-1.49999999999997
20
9.65050521846038
30
0
41
1
10
-1.49999999999994
20
8.60740482444737
30
0
41
1
10
-1.49999999999997
20
7.3268051816427
30
0
41
1
10
-1.49999999999997
20
6.07164774177338
30
0
41
1
10
-1.49999999999997
20
4.9583860399195
30
0
41
1
10
-1.49999999999997
20
4.16680114754945
30
0
41
1
10
-1.49999999999997
20
3.64663976225356
30
0
41
1
10
-1.49999999999997
20
3.43390926803394
30
0
0
SPLINE
5
189
100
AcDbEntity
8
SK1
62
256
6
ByLayer
370
13
48
1
60
0
100
AcDbSpline
70
4
71
3
72
32
73
28
40
0
40
0
40
0
40
0
40
0.234684261975966
40
0.234684261975966
40
0.348361654478537
40
0.348361654478537
40
0.388282873664297
40
0.388282873664297
40
0.428640259988326
40
0.428640259988326
40
0.446531340707856
40
0.446531340707856
40
0.461787044728674
40
0.461787044728674
40
0.472436918419803
40
0.472436918419803
40
0.483126928720907
40
0.483126928720907
40
0.496698906764015
40
0.496698906764015
40
0.520507652639728
40
0.520507652639728
40
0.596306394905668
40
0.596306394905668
40
0.939869450439312
40
0.939869450439312
40
1
40
1
40
1
40
1
41
1
10
-1.3154350650949
20
-3.31204600014965
30
0
41
1
10
-1.32893238660847
20
-3.25421882997409
30
0
41
1
10
-1.34355879628592
20
-3.19678036801628
30
0
41
1
10
-1.36981668623906
20
-3.11480234743343
30
0
41
1
10
-1.37908112666261
20
-3.08844302825824
30
0
41
1
10
-1.3941000015098
20
-3.05524710917501
30
0
41
1
10
-1.39825515114941
20
-3.04683139978434
30
0
41
1
10
-1.40744013157323
20
-3.03092633348928
30
0
41
1
10
-1.41248338751103
20
-3.02331055838138
30
0
41
1
10
-1.42104470873164
20
-3.01444691763055
30
0
41
1
10
-1.4238842877092
20
-3.01200316638352
30
0
41
1
10
-1.42960772890064
20
-3.00866963113558
30
0
41
1
10
-1.43248141686007
20
-3.00758586710063
30
0
41
1
10
-1.43759978369664
20
-3.00725807173097
30
0
41
1
10
-1.43981857045921
20
-3.00757652239224
30
0
41
1
10
-1.4441453737455
20
-3.00926961951723
30
0
41
1
10
-1.44630176453469
20
-3.01067112756502
30
0
41
1
10
-1.45077971941725
20
-3.01469802776788
30
0
41
1
10
-1.45306667342618
20
-3.01758589787693
30
0
41
1
10
-1.45860172249965
20
-3.02614271079241
30
0
41
1
10
-1.46144813218228
20
-3.03239945973141
30
0
41
1
10
-1.47156520005214
20
-3.05873512386799
30
0
41
1
10
-1.47595142428807
20
-3.08032205392576
30
0
41
1
10
-1.49603914243178
20
-3.19664641835459
30
0
41
1
10
-1.49803585788575
20
-3.29188422241208
30
0
41
1
10
-1.49975607766777
20
-3.40131696133909
30
0
41
1
10
-1.499918422939
20
-3.417630543754
30
0
41
1
10
-1.5
20
-3.43390791500559
30
0
0
SPLINE
5
18A
100
AcDbEntity
8
SK1
62
256
6
ByLayer
370
13
48
1
60
0
100
AcDbSpline
70
4
71
3
72
8
73
4
40
0
40
0
40
0
40
0
40
1
40
1
40
1
40
1
41
1
10
-1.29503997793932
20
-3.40161170366451
30
0
41
1
10
-1.30169623417876
20
-3.37164748523216
30
0
41
1
10
-1.30849408485733
20
-3.34178354807577
30
0
41
1
10
-1.31543506509487
20
-3.31204600014976
30
0
0
SPLINE
5
18B
100
AcDbEntity
8
SK1
62
256
6
ByLayer
370
13
48
1
60
0
100
AcDbSpline
70
4
71
3
72
8
73
4
40
0
40
0
40
0
40
0
40
1
40
1
40
1
40
1
41
1
10
-1.31543506509493
20
3.31204737779211
30
0
41
1
10
-1.30849408531827
20
3.34178487516786
30
0
41
1
10
-1.30169623454364
20
3.37164876172554
30
0
41
1
10
-1.29503997793927
20
3.40161292972346
30
0
0
SPLINE
5
18C
100
AcDbEntity
8
SK1
62
256
6
ByLayer
370
13
48
1
60
0
100
AcDbSpline
70
4
71
3
72
24
73
20
40
0
40
0
40
0
40
0
40
0.128390282723035
40
0.128390282723035
40
0.159820685571683
40
0.159820685571683
40
0.191919560201799
40
0.191919560201799
40
0.209629751443212
40
0.209629751443212
40
0.227366395122039
40
0.227366395122039
40
0.251045182235104
40
0.251045182235104
40
0.293121391522148
40
0.293121391522148
40
0.426409855480903
40
0.426409855480903
40
1
40
1
40
1
40
1
41
1
10
-0.19497688887526
20
-10.8215957545436
30
0
41
1
10
-0.181375896166969
20
-10.8243422473105
30
0
41
1
10
-0.166081841895505
20
-10.8279644857847
30
0
41
1
10
-0.14042644464331
20
-10.8375064215378
30
0
41
1
10
-0.134924488238994
20
-10.8396997158019
30
0
41
1
10
-0.122832871486594
20
-10.8450247330174
30
0
41
1
10
-0.11600508453995
20
-10.8482784930316
30
0
41
1
10
-0.104867300913355
20
-10.854230451889
30
0
41
1
10
-0.100699542547091
20
-10.8565852604388
30
0
41
1
10
-0.0926672813064329
20
-10.8614000855954
30
0
41
1
10
-0.0887131267114967
20
-10.8639138269673
30
0
41
1
10
-0.0803023877860767
20
-10.8695389018218
30
0
41
1
10
-0.0759679066296144
20
-10.8726604895891
30
0
41
1
10
-0.0654598680690412
20
-10.8806226953327
30
0
41
1
10
-0.060131481474599
20
-10.8851372207408
30
0
41
1
10
-0.041438586952836
20
-10.9019165369337
30
0
41
1
10
-0.0337743229465843
20
-10.9111229596343
30
0
41
1
10
-0.0008602206671071
20
-10.9533220423455
30
0
41
1
10
0
20
-10.9679034889488
30
0
41
1
10
0
20
-10.9778577586145
30
0
0
SPLINE
5
18D
100
AcDbEntity
8
SK1
62
256
6
ByLayer
370
13
48
1
60
0
100
AcDbSpline
70
4
71
3
72
12
73
8
40
0
40
0
40
0
40
0
40
0.5
40
0.5
40
0.75
40
0.75
40
1
40
1
40
1
40
1
41
1
10
-1.2950399779393
20
-10.8279546620411
30
0
41
1
10
-1.21965219531936
20
-10.8379486625118
30
0
41
1
10
-1.13233363849667
20
-10.8263834256097
30
0
41
1
10
-0.888368938463401
20
-10.7902737230076
30
0
41
1
10
-0.782056939226067
20
-10.7672468480773
30
0
41
1
10
-0.381383282450145
20
-10.7768463845487
30
0
41
1
10
-0.275882860919523
20
-10.8052581480331
30
0
41
1
10
-0.194976888875288
20
-10.8215957545436
30
0
0
SPLINE
5
18E
100
AcDbEntity
8
SK1
62
256
6
ByLayer
370
13
48
1
60
0
100
AcDbSpline
70
4
71
3
72
15
73
11
40
0
40
0
40
0
40
0
40
0.0708105463137579
40
0.231761271238421
40
0.392711996163085
40
0.553662721087749
40
0.714613446012412
40
0.875564170937076
40
0.956039533399408
40
1
40
1
40
1
40
1
41
1
10
-0.194976888875288
20
10.8215956059619
30
0
41
1
10
-0.194976888875288
20
10.7969736791353
30
0
41
1
10
-0.194976888875288
20
10.6769306168182
30
0
41
1
10
-0.194976888875317
20
10.2764909042798
30
0
41
1
10
-0.194976888875288
20
9.49859033133993
30
0
41
1
10
-0.194976888875288
20
8.4660062270415
30
0
41
1
10
-0.19497688887526
20
7.19854383926261
30
0
41
1
10
-0.194976888875288
20
5.95785502441245
30
0
41
1
10
-0.19497688887526
20
4.98207728872012
30
0
41
1
10
-0.19497688887526
20
4.53596278989269
30
0
41
1
10
-0.19497688887526
20
4.37579881180471
30
0
0
SPLINE
5
18F
100
AcDbEntity
8
SK1
62
256
6
ByLayer
370
13
48
1
60
0
100
AcDbSpline
70
4
71
3
72
28
73
24
40
0
40
0
40
0
40
0
40
0.512376218728284
40
0.512376218728284
40
0.598796503464133
40
0.598796503464133
40
0.67646352025559
40
0.67646352025559
40
0.732063551226545
40
0.732063551226545
40
0.75674429724977
40
0.75674429724977
40
0.781926249197071
40
0.781926249197071
40
0.799501894552095
40
0.799501894552095
40
0.816971939099301
40
0.816971939099301
40
0.846412145166974
40
0.846412145166974
40
0.906005120678483
40
0.906005120678483
40
1
40
1
40
1
40
1
41
1
10
2.84E-14
20
10.977857676254
30
0
41
1
10
2.84E-14
20
10.968940912515
30
0
41
1
10
-0.0021336807887167
20
10.9555532512504
30
0
41
1
10
-0.0232748724177156
20
10.9246518484714
30
0
41
1
10
-0.0269083003946093
20
10.9197287260977
30
0
41
1
10
-0.0357145212995249
20
10.9091097226555
30
0
41
1
10
-0.040662796033331
20
10.9035431698626
30
0
41
1
10
-0.0520351547615121
20
10.892344182334
30
0
41
1
10
-0.0576624789276536
20
10.8871325052027
30
0
41
1
10
-0.0685022979990322
20
10.8783230690719
30
0
41
1
10
-0.0722755852240198
20
10.8753918789565
30
0
41
1
10
-0.0809223725233608
20
10.8691153689022
30
0
41
1
10
-0.0859779850563882
20
10.8656564118426
30
0
41
1
10
-0.0952029059710071
20
10.8598435694815
30
0
41
1
10
-0.0992734436415219
20
10.8574159266206
30
0
41
1
10
-0.107237119508596
20
10.8529290307915
30
0
41
1
10
-0.111216792366946
20
10.850816610328
30
0
41
1
10
-0.121305075823273
20
10.8457309056931
30
0
41
1
10
-0.127212828813839
20
10.8430398605585
30
0
41
1
10
-0.143444252916254
20
10.8361482507471
30
0
41
1
10
-0.152658694618765
20
10.8329303827249
30
0
41
1
10
-0.174005802157353
20
10.8262219540922
30
0
41
1
10
-0.184997875213099
20
10.8236106982458
30
0
41
1
10
-0.194976888875288
20
10.8215956059619
30
0
0
SPLINE
5
190
100
AcDbEntity
8
SK1
62
256
6
ByLayer
370
13
48
1
60
0
100
AcDbSpline
70
4
71
3
72
26
73
22
40
0
40
0
40
0
40
0
40
0.309980198123811
40
0.309980198123811
40
0.466121127894558
40
0.466121127894558
40
0.49533993592735
40
0.49533993592735
40
0.508478349918402
40
0.508478349918402
40
0.521870142769774
40
0.521870142769774
40
0.533321486912644
40
0.533321486912644
40
0.546914826761559
40
0.546914826761559
40
0.571024540942424
40
0.571024540942424
40
0.65028382722532
40
0.65028382722532
40
1
40
1
40
1
40
1
41
1
10
-1.5
20
3.43390926803391
30
0
41
1
10
-1.49957809424501
20
3.34972498522026
30
0
41
1
10
-1.49765792801546
20
3.26436078219524
30
0
41
1
10
-1.48532705686966
20
3.13479536440957
30
0
41
1
10
-1.4807641264899
20
3.08989854362895
30
0
41
1
10
-1.46447634382216
20
3.03979293840391
30
0
41
1
10
-1.46141372751509
20
3.03180695978671
30
0
41
1
10
-1.45566120817682
20
3.02143998205963
30
0
41
1
10
-1.45365299428386
20
3.01835783654897
30
0
41
1
10
-1.44914914006586
20
3.01303026786169
30
0
41
1
10
-1.44656555604141
20
3.01074941382328
30
0
41
1
10
-1.44159424050383
20
3.00807571495136
30
0
41
1
10
-1.43917332636696
20
3.00743313813294
30
0
41
1
10
-1.43412760501778
20
3.00729376115277
30
0
41
1
10
-1.43146783274841
20
3.00799377806223
30
0
41
1
10
-1.4246842897754
20
3.01114999104286
30
0
41
1
10
-1.42082982648518
20
3.01451655258882
30
0
41
1
10
-1.40597537013142
20
3.03067342263392
30
0
41
1
10
-1.39753320304308
20
3.04757090687525
30
0
41
1
10
-1.35607798742203
20
3.13969304848754
30
0
41
1
10
-1.33538442090907
20
3.22657761195464
30
0
41
1
10
-1.31543506509431
20
3.31204737779177
30
0
0
SPLINE
5
191
100
AcDbEntity
8
SK1
62
256
6
ByLayer
370
13
48
1
60
0
100
AcDbSpline
70
4
71
3
72
24
73
20
40
0
40
0
40
0
40
0
40
0.0962392347059503
40
0.0962392347059503
40
0.194419571814721
40
0.194419571814721
40
0.224980323085153
40
0.224980323085153
40
0.256016565584774
40
0.256016565584774
40
0.283076636964952
40
0.283076636964952
40
0.322241448517506
40
0.322241448517506
40
0.396807099691051
40
0.396807099691051
40
0.656078947672253
40
0.656078947672253
40
1
40
1
40
1
40
1
41
1
10
-0.194976888875288
20
10.8215956059619
30
0
41
1
10
-0.225800270974929
20
10.8153713475797
30
0
41
1
10
-0.260059369691703
20
10.808546539551
30
0
41
1
10
-0.341803934200726
20
10.7942702716737
30
0
41
1
10
-0.390260016175858
20
10.786425926963
30
0
41
1
10
-0.473222837683949
20
10.7780887432033
30
0
41
1
10
-0.495087626885663
20
10.7762370295384
30
0
41
1
10
-0.541459979791853
20
10.7733404617968
30
0
41
1
10
-0.566679982514415
20
10.7722927243579
30
0
41
1
10
-0.612728669915327
20
10.7714551070537
30
0
41
1
10
-0.634214108805224
20
10.7715049109724
30
0
41
1
10
-0.683080106698611
20
10.7724623164841
30
0
41
1
10
-0.70972997819996
20
10.7737217298433
30
0
41
1
10
-0.778953436207075
20
10.7781755666156
30
0
41
1
10
-0.816482927715782
20
10.7820991609815
30
0
41
1
10
-0.963349723036998
20
10.7994211291878
30
0
41
1
10
-1.0351209592896
20
10.8126881790271
30
0
41
1
10
-1.18120463075795
20
10.8317285533685
30
0
41
1
10
-1.24312046576091
20
10.834837438425
30
0
41
1
10
-1.2950399779393
20
10.8279545871449
30
0
0
SPLINE
5
192
100
AcDbEntity
8
SK1
62
256
6
ByLayer
370
13
48
1
60
0
100
AcDbSpline
70
4
71
3
72
15
73
11
40
0
40
0
40
0
40
0
40
0.0439605062749946
40
0.124435874054446
40
0.285386609613348
40
0.446337345172251
40
0.607288080731153
40
0.768238816290056
40
0.929189551848958
40
1
40
1
40
1
40
1
41
1
10
-0.19497688887526
20
-4.37579839097918
30
0
41
1
10
-0.19497688887526
20
-4.53596249036644
30
0
41
1
10
-0.19497688887526
20
-4.98207705649142
30
0
41
1
10
-0.19497688887526
20
-5.95785489884696
30
0
41
1
10
-0.19497688887526
20
-7.19854374618672
30
0
41
1
10
-0.19497688887526
20
-8.46600649183358
30
0
41
1
10
-0.194976888875288
20
-9.4985901119361
30
0
41
1
10
-0.19497688887526
20
-10.2764914380925
30
0
41
1
10
-0.194976888875288
20
-10.6769305434497
30
0
41
1
10
-0.194976888875288
20
-10.7969738327038
30
0
41
1
10
-0.19497688887526
20
-10.8215957545436
30
0
0
SPLINE
5
193
100
AcDbEntity
8
SK1
62
256
6
ByLayer
370
13
48
1
60
0
100
AcDbSpline
70
4
71
3
72
17
73
13
40
0
40
0
40
0
40
0
40
0.0422810199517721
40
0.112045079023441
40
0.181809138095109
40
0.321337256238446
40
0.460865374381783
40
0.600393492525119
40
0.739921610668456
40
0.879449728811793
40
0.949213787883462
40
1
40
1
40
1
40
1
41
1
10
-1.2950399779393
20
-3.40161170366451
30
0
41
1
10
-1.2950399779393
20
-3.58970302045978
30
0
41
1
10
-1.2950399779393
20
-4.08014737941232
30
0
41
1
10
-1.29503997793927
20
-4.84051408993625
30
0
41
1
10
-1.29503997793927
20
-5.93905405982616
30
0
41
1
10
-1.2950399779393
20
-7.17735240233074
30
0
41
1
10
-1.2950399779393
20
-8.44264460694367
30
0
41
1
10
-1.2950399779393
20
-9.47349072703733
30
0
41
1
10
-1.29503997793927
20
-10.2500356487436
30
0
41
1
10
-1.2950399779393
20
-10.6595078265253
30
0
41
1
10
-1.2950399779393
20
-10.808323474152
30
0
41
1
10
-1.29503997793927
20
-10.830267394071
30
0
41
1
10
-1.29503997793927
20
-10.8302907036485
30
0
0
SPLINE
5
194
100
AcDbEntity
8
SK1
62
256
6
ByLayer
370
13
48
1
60
0
100
AcDbSpline
70
4
71
3
72
17
73
13
40
0
40
0
40
0
40
0
40
0.0457689714851983
40
0.11404707892114
40
0.182325186357081
40
0.318881401228964
40
0.455437616100846
40
0.591993830972729
40
0.728550045844611
40
0.865106260716494
40
0.933384368152435
40
1
40
1
40
1
40
1
41
1
10
-1.5
20
-3.43390791500551
30
0
41
1
10
-1.5
20
-3.64663887345887
30
0
41
1
10
-1.5
20
-4.16680079382428
30
0
41
1
10
-1.5
20
-4.95838595424945
30
0
41
1
10
-1.5
20
-6.07164761580381
30
0
41
1
10
-1.5
20
-7.32680507487896
30
0
41
1
10
-1.5
20
-8.60740509388057
30
0
41
1
10
-1.5
20
-9.65050499182064
30
0
41
1
10
-1.5
20
-10.4366160019974
30
0
41
1
10
-1.50000000000003
20
-10.8518854949361
30
0
41
1
10
-1.5
20
-11.0128506934743
30
0
41
1
10
-1.49999999999997
20
-11.0305320514019
30
0
41
1
10
-1.5
20
-11.0218290118604
30
0
0
SPLINE
5
195
100
AcDbEntity
8
SK1
62
256
6
ByLayer
370
13
48
1
60
0
100
AcDbSpline
70
4
71
3
72
10
73
6
40
0
40
0
40
0
40
0
40
0.5
40
0.5
40
1
40
1
40
1
40
1
41
1
10
-1.5
20
-3.43390791500553
30
0
41
1
10
-1.71692496836991
20
-2.37752637479463
30
0
41
1
10
-1.93485042889157
20
-1.20950788444051
30
0
41
1
10
-1.93573790230045
20
1.20204294304304
30
0
41
1
10
-1.71715856246342
20
2.37639193544291
30
0
41
1
10
-1.49999999999997
20
3.43390926803397
30
0
0
SPLINE
5
196
100
AcDbEntity
8
1
62
256
6
ByLayer
370
13
48
1
60
0
100
AcDbSpline
70
4
71
3
72
16
73
12
40
0
40
0
40
0
40
0
40
0.112904383055193
40
0.112904383055193
40
0.251995806601858
40
0.251995806601858
40
0.471177478614538
40
0.471177478614538
40
0.892334804026422
40
0.892334804026422
40
1
40
1
40
1
40
1
41
1
10
4.92320508075699
20
-15.2769622091383
30
0
41
1
10
4.90636996355755
20
-15.2769622091383
30
0
41
1
10
4.88932551790373
20
-15.276012662156
30
0
41
1
10
4.85400387216052
20
-15.2722082770658
30
0
41
1
10
4.83576156988687
20
-15.2689414463832
30
0
41
1
10
4.7940536368572
20
-15.2589992478794
30
0
41
1
10
4.77256184645853
20
-15.2513160232931
30
0
41
1
10
4.71952959058126
20
-15.2273927985285
30
0
41
1
10
4.69506482950482
20
-15.209252838028
30
0
41
1
10
4.67177931116112
20
-15.1857432227233
30
0
41
1
10
4.66740846582633
20
-15.1808653782143
30
0
41
1
10
4.66339745962162
20
-15.1759383782001
30
0
0
SPLINE
5
197
100
AcDbEntity
8
1
62
256
6
ByLayer
370
13
48
1
60
0
100
AcDbSpline
70
4
71
3
72
8
73
4
40
0
40
0
40
0
40
0
40
1
40
1
40
1
40
1
41
1
10
17.7303125093919
20
21.6750000000004
30
0
41
1
10
17.7302224986457
20
21.6750000000004
30
0
41
1
10
17.8196812469876
20
21.6750000000004
30
0
41
1
10
18.0035233736701
20
21.6750000000004
30
0
0
SPLINE
5
198
100
AcDbEntity
8
1
62
256
6
ByLayer
370
13
48
1
60
0
100
AcDbSpline
70
4
71
3
72
20
73
16
40
0
40
0
40
0
40
0
40
0.0308817847162969
40
0.0308817847162969
40
0.218205606432777
40
0.218205606432777
40
0.399694682647514
40
0.399694682647514
40
0.575367358412385
40
0.575367358412385
40
0.740239813568209
40
0.740239813568209
40
0.901991271510046
40
0.901991271510046
40
1
40
1
40
1
40
1
41
1
10
28.4000010418511
20
17.7268259037361
30
0
41
1
10
28.4000028760944
20
17.7284332104655
30
0
41
1
10
28.4000072793388
20
17.7311048031582
30
0
41
1
10
28.4001682178567
20
17.757265145395
30
0
41
1
10
28.399843210838
20
17.8201319154615
30
0
41
1
10
28.4229569822798
20
18.0111953068982
30
0
41
1
10
28.4472891521033
20
18.1401778451253
30
0
41
1
10
28.5520312564563
20
18.4215534186388
30
0
41
1
10
28.6332017567878
20
18.5764933734716
30
0
41
1
10
28.8527838013669
20
18.8533678987274
30
0
41
1
10
28.9902418227453
20
18.9799056419733
30
0
41
1
10
29.3012238321816
20
19.1758145825327
30
0
41
1
10
29.4778788748122
20
19.2489072839619
30
0
41
1
10
29.7712744965779
20
19.3126227953924
30
0
41
1
10
29.8857206054403
20
19.3250000000005
30
0
41
1
10
30.0000000000008
20
19.3250000000004
30
0
0
SPLINE
5
199
100
AcDbEntity
8
1
62
256
6
ByLayer
370
13
48
1
60
0
100
AcDbSpline
70
4
71
3
72
16
73
12
40
0
40
0
40
0
40
0
40
0.11290438305522
40
0.11290438305522
40
0.251995806601914
40
0.251995806601914
40
0.471177478614597
40
0.471177478614597
40
0.89233480402654
40
0.89233480402654
40
1
40
1
40
1
40
1
41
1
10
4.92320508075699
20
4.75546271781826
30
0
41
1
10
4.90636996355755
20
4.75546271781826
30
0
41
1
10
4.88932551790373
20
4.75851551862735
30
0
41
1
10
4.85400387216052
20
4.77071315953432
30
0
41
1
10
4.83576156988684
20
4.78117073972268
30
0
41
1
10
4.79405363685717
20
4.81283214608513
30
0
41
1
10
4.77256184645847
20
4.83715715133692
30
0
41
1
10
4.71952959058123
20
4.91214630601522
30
0
41
1
10
4.69506482950482
20
4.96811547083774
30
0
41
1
10
4.67177931116112
20
5.03919021254765
30
0
41
1
10
4.66740846582633
20
5.05386666454154
30
0
41
1
10
4.66339745962159
20
5.06861858311245
30
0
0
SPLINE
5
19A
100
AcDbEntity
8
1
62
256
6
ByLayer
370
13
48
1
60
0
100
AcDbSpline
70
4
71
3
72
16
73
12
40
0
40
0
40
0
40
0
40
0.112904383055276
40
0.112904383055276
40
0.25199580660191
40
0.25199580660191
40
0.47117747861443
40
0.47117747861443
40
0.892334804026041
40
0.892334804026041
40
1
40
1
40
1
40
1
41
1
10
7.07679491924313
20
15.2769622091382
30
0
41
1
10
7.09363003644256
20
15.2769622091382
30
0
41
1
10
7.11067448209639
20
15.2760126621559
30
0
41
1
10
7.14599612783957
20
15.2722082770657
30
0
41
1
10
7.16423843011324
20
15.2689414463831
30
0
41
1
10
7.20594636314289
20
15.2589992478793
30
0
41
1
10
7.22743815354158
20
15.251316023293
30
0
41
1
10
7.2804704094188
20
15.2273927985285
30
0
41
1
10
7.30493517049524
20
15.209252838028
30
0
41
1
10
7.32822068883897
20
15.1857432227232
30
0
41
1
10
7.33259153417379
20
15.1808653782142
30
0
41
1
10
7.33660254037852
20
15.1759383782
30
0
0
SPLINE
5
19B
100
AcDbEntity
8
1
62
256
6
ByLayer
370
13
48
1
60
0
100
AcDbSpline
70
4
71
3
72
8
73
4
40
0
40
0
40
0
40
0
40
1
40
1
40
1
40
1
41
1
10
17.2055136575711
20
18.3573750106366
30
0
41
1
10
16.9373440923796
20
17.2253128128457
30
0
41
1
10
16.6794453639242
20
16.0981844597289
30
0
41
1
10
16.4383186059722
20
14.9752044429562
30
0
0
SPLINE
5
19C
100
AcDbEntity
8
1
62
256
6
ByLayer
370
13
48
1
60
0
100
AcDbSpline
70
4
71
3
72
16
73
12
40
0
40
0
40
0
40
0
40
0.462497527135775
40
0.462497527135775
40
0.645191851133638
40
0.645191851133638
40
0.830465145084783
40
0.830465145084783
40
0.946099677592158
40
0.946099677592158
40
1
40
1
40
1
40
1
41
1
10
7.33660254037849
20
-15.1759383782
30
0
41
1
10
7.31950254572621
20
-15.196943500006
30
0
41
1
10
7.29606569448353
20
-15.2173733040719
30
0
41
1
10
7.24769339962631
20
-15.2426068177427
30
0
41
1
10
7.23196248290225
20
-15.2494611471713
30
0
41
1
10
7.1953808231687
20
-15.2617345707426
30
0
41
1
10
7.17398167794329
20
-15.2672766430864
30
0
41
1
10
7.1346516939488
20
-15.2736248541649
30
0
41
1
10
7.11805699889257
20
-15.2754510872993
30
0
41
1
10
7.09306930322404
20
-15.2767486596482
30
0
41
1
10
7.08491758298601
20
-15.2769622091383
30
0
41
1
10
7.07679491924316
20
-15.2769622091383
30
0
0
SPLINE
5
19D
100
AcDbEntity
8
1
62
256
6
ByLayer
370
13
48
1
60
0
100
AcDbSpline
70
4
71
3
72
16
73
12
40
0
40
0
40
0
40
0
40
0.462497527135683
40
0.462497527135683
40
0.645191851133604
40
0.645191851133604
40
0.830465145084778
40
0.830465145084778
40
0.946099677592128
40
0.946099677592128
40
1
40
1
40
1
40
1
41
1
10
7.33660254037849
20
5.06861858311279
30
0
41
1
10
7.31950254572621
20
5.00572719980437
30
0
41
1
10
7.2960656944835
20
4.94318132289598
30
0
41
1
10
7.24769339962629
20
4.86451341532805
30
0
41
1
10
7.23196248290222
20
4.84296870144306
30
0
41
1
10
7.19538082316868
20
4.80415189945737
30
0
41
1
10
7.17398167794326
20
4.78648459402967
30
0
41
1
10
7.13465169394877
20
4.76617783194968
30
0
41
1
10
7.11805699889254
20
4.76031541807728
30
0
41
1
10
7.09306930322401
20
4.75614889828745
30
0
41
1
10
7.08491758298598
20
4.75546271781849
30
0
41
1
10
7.07679491924316
20
4.75546271781849
30
0
0
SPLINE
5
19E
100
AcDbEntity
8
1
62
256
6
ByLayer
370
13
48
1
60
0
100
AcDbSpline
70
4
71
3
72
8
73
4
40
0
40
0
40
0
40
0
40
1
40
1
40
1
40
1
41
1
10
18.0035233736701
20
21.6750000000004
30
0
41
1
10
17.7172055497834
20
20.5467544950288
30
0
41
1
10
17.4487084540744
20
19.4416866745648
30
0
41
1
10
17.2055136575711
20
18.3573750106366
30
0
0
SPLINE
5
19F
100
AcDbEntity
8
1
62
256
6
ByLayer
370
13
48
1
60
0
100
AcDbSpline
70
4
71
3
72
16
73
12
40
0
40
0
40
0
40
0
40
0.462497527135785
40
0.462497527135785
40
0.64519185113367
40
0.64519185113367
40
0.830465145084805
40
0.830465145084805
40
0.946099677592167
40
0.946099677592167
40
1
40
1
40
1
40
1
41
1
10
4.66339745962165
20
15.1759383782001
30
0
41
1
10
4.68049745427393
20
15.1969435000061
30
0
41
1
10
4.70393430551664
20
15.217373304072
30
0
41
1
10
4.75230660037388
20
15.2426068177428
30
0
41
1
10
4.76803751709792
20
15.2494611471714
30
0
41
1
10
4.80461917683147
20
15.2617345707427
30
0
41
1
10
4.82601832205688
20
15.2672766430865
30
0
41
1
10
4.86534830605137
20
15.273624854165
30
0
41
1
10
4.8819430011076
20
15.2754510872993
30
0
41
1
10
4.9069306967761
20
15.2767486596482
30
0
41
1
10
4.91508241701413
20
15.2769622091383
30
0
41
1
10
4.92320508075696
20
15.2769622091383
30
0
0
SPLINE
5
1A0
100
AcDbEntity
8
1
62
256
6
ByLayer
370
13
48
1
60
0
100
AcDbSpline
70
4
71
3
72
8
73
4
40
0
40
0
40
0
40
0
40
1
40
1
40
1
40
1
41
1
10
18.8791527971452
20
21.6750000000004
30
0
41
1
10
18.3001713176488
20
20.5532754971407
30
0
41
1
10
17.7337150135949
20
19.4513223685794
30
0
41
1
10
17.2055136575711
20
18.3573750106366
30
0
0
SPLINE
5
1A1
100
AcDbEntity
8
1
62
256
6
ByLayer
370
13
48
1
60
0
100
AcDbSpline
70
4
71
3
72
8
73
4
40
0
40
0
40
0
40
0
40
1
40
1
40
1
40
1
41
1
10
15.0453016345033
20
-11.7968922990656
30
0
41
1
10
15.049460397088
20
-12.2335302682972
30
0
41
1
10
15.1368685168754
20
-12.6344593603782
30
0
41
1
10
15.3398427259481
20
-12.9931148039815
30
0
0
SPLINE
5
1A2
100
AcDbEntity
8
1
62
256
6
ByLayer
370
13
48
1
60
0
100
AcDbSpline
70
4
71
3
72
10
73
6
40
0
40
0
40
0
40
0
40
0.5
40
0.5
40
1
40
1
40
1
40
1
41
1
10
15.2792076144258
20
12.8776105842305
30
0
41
1
10
15.4176062041892
20
13.1626697806683
30
0
41
1
10
15.6232336230579
20
13.435815483298
30
0
41
1
10
16.076717200746
20
14.092528218657
30
0
41
1
10
16.3343412225491
20
14.4909590411884
30
0
41
1
10
16.4383186059732
20
14.9752044429555
30
0
0
SPLINE
5
1A3
100
AcDbEntity
8
1
62
256
6
ByLayer
370
13
48
1
60
0
100
AcDbSpline
70
4
71
3
72
10
73
6
40
0
40
0
40
0
40
0
40
0.5
40
0.5
40
1
40
1
40
1
40
1
41
1
10
28.4000010418515
20
17.7268259037365
30
0
41
1
10
27.8128251942068
20
17.7395471898959
30
0
41
1
10
27.2142954274875
20
17.8140820774337
30
0
41
1
10
26.1186822297905
20
18.2742285690392
30
0
41
1
10
25.579286690969
20
18.7246520446617
30
0
41
1
10
25.5792866909684
20
19.3249999999994
30
0
0
SPLINE
5
1A4
100
AcDbEntity
8
1
62
256
6
ByLayer
370
13
48
1
60
0
100
AcDbSpline
70
4
71
3
72
16
73
12
40
0
40
0
40
0
40
0
40
0.462497527135729
40
0.462497527135729
40
0.645191851133606
40
0.645191851133606
40
0.830465145084774
40
0.830465145084774
40
0.946099677592109
40
0.946099677592109
40
1
40
1
40
1
40
1
41
1
10
4.66339745962165
20
-5.0686185831126
30
0
41
1
10
4.6804974542739
20
-5.00572719980417
30
0
41
1
10
4.70393430551664
20
-4.94318132289581
30
0
41
1
10
4.75230660037386
20
-4.86451341532785
30
0
41
1
10
4.76803751709789
20
-4.84296870144291
30
0
41
1
10
4.80461917683144
20
-4.8041518994572
30
0
41
1
10
4.82601832205688
20
-4.78648459402956
30
0
41
1
10
4.86534830605137
20
-4.76617783194953
30
0
41
1
10
4.88194300110757
20
-4.76031541807717
30
0
41
1
10
4.9069306967761
20
-4.75614889828731
30
0
41
1
10
4.91508241701413
20
-4.75546271781832
30
0
41
1
10
4.92320508075699
20
-4.75546271781832
30
0
0
SPLINE
5
1A5
100
AcDbEntity
8
1
62
256
6
ByLayer
370
13
48
1
60
0
100
AcDbSpline
70
4
71
3
72
8
73
4
40
0
40
0
40
0
40
0
40
1
40
1
40
1
40
1
41
1
10
15.0453016345033
20
-14.4650938580066
30
0
41
1
10
15.0489629228035
20
-14.0455517739587
30
0
41
1
10
15.1129668354736
20
-13.5509839347962
30
0
41
1
10
15.3398427259481
20
-12.9931148039815
30
0
0
SPLINE
5
1A6
100
AcDbEntity
8
1
62
256
6
ByLayer
370
13
48
1
60
0
100
AcDbSpline
70
4
71
3
72
8
73
4
40
0
40
0
40
0
40
0
40
1
40
1
40
1
40
1
41
1
10
15.2792076144254
20
12.8776105842324
30
0
41
1
10
15.1188888361803
20
12.54740243559
30
0
41
1
10
15.0490204601478
20
12.1873402855166
30
0
41
1
10
15.0453016345033
20
11.7968922990656
30
0
0
SPLINE
5
1A7
100
AcDbEntity
8
1
62
256
6
ByLayer
370
13
48
1
60
0
100
AcDbSpline
70
4
71
3
72
16
73
12
40
0
40
0
40
0
40
0
40
0.112904383055236
40
0.112904383055236
40
0.251995806601827
40
0.251995806601827
40
0.471177478614202
40
0.471177478614202
40
0.892334804025539
40
0.892334804025539
40
1
40
1
40
1
40
1
41
1
10
7.07679491924313
20
-4.75546271781872
30
0
41
1
10
7.09363003644256
20
-4.75546271781869
30
0
41
1
10
7.11067448209639
20
-4.75851551862775
30
0
41
1
10
7.14599612783957
20
-4.77071315953472
30
0
41
1
10
7.16423843011322
20
-4.78117073972305
30
0
41
1
10
7.20594636314286
20
-4.81283214608547
30
0
41
1
10
7.22743815354153
20
-4.83715715133721
30
0
41
1
10
7.28047040941871
20
-4.91214630601536
30
0
41
1
10
7.30493517049518
20
-4.96811547083783
30
0
41
1
10
7.32822068883894
20
-5.03919021254779
30
0
41
1
10
7.33259153417379
20
-5.05386666454183
30
0
41
1
10
7.33660254037855
20
-5.06861858311291
30
0
0
SPLINE
5
1A8
100
AcDbEntity
8
1
62
256
6
ByLayer
370
13
48
1
60
0
100
AcDbSpline
70
4
71
3
72
10
73
6
40
0
40
0
40
0
40
0
40
0.664993946719532
40
0.664993946719532
40
1
40
1
40
1
40
1
41
1
10
52.031795236158
20
19.8512636890429
30
0
41
1
10
52.0544008183665
20
19.8720902707621
30
0
41
1
10
52.071972629713
20
19.8979346022264
30
0
41
1
10
52.0836688596484
20
19.9462106524571
30
0
41
1
10
52.0849134160383
20
19.9643910844477
30
0
41
1
10
52.0838678419132
20
19.9837267156531
30
0
0
SPLINE
5
1A9
100
AcDbEntity
8
1
62
256
6
ByLayer
370
13
48
1
60
0
100
AcDbSpline
70
4
71
3
72
12
73
8
40
0
40
0
40
0
40
0
40
0.274450233641753
40
0.274450233641753
40
0.728710906931613
40
0.728710906931613
40
1
40
1
40
1
40
1
41
1
10
53.1146869282979
20
19.6806157801649
30
0
41
1
10
53.0122143236957
20
19.7110950655739
30
0
41
1
10
52.909497462749
20
19.7414423862556
30
0
41
1
10
52.6439453836002
20
19.8195775859781
30
0
41
1
10
52.4820473482734
20
19.8668707717637
30
0
41
1
10
52.246079380226
20
19.9359480682253
30
0
41
1
10
52.1617198878049
20
19.9605159047957
30
0
41
1
10
52.0838678419132
20
19.9837267156531
30
0
0
SPLINE
5
1AA
100
AcDbEntity
8
1
62
256
6
ByLayer
370
13
48
1
60
0
100
AcDbSpline
70
4
71
3
72
16
73
12
40
0
40
0
40
0
40
0
40
0.0442199247554627
40
0.0442199247554627
40
0.048439955548864
40
0.048439955548864
40
0.216895358525141
40
0.216895358525141
40
0.889245809546153
40
0.889245809546153
40
1
40
1
40
1
40
1
41
1
10
53.8219297662851
20
19.6087044877512
30
0
41
1
10
53.811330078545
20
19.608334754722
30
0
41
1
10
53.8007291289449
20
19.6080034322955
30
0
41
1
10
53.7891179461187
20
19.6075966424935
30
0
41
1
10
53.7881063966876
20
19.6075610752905
30
0
41
1
10
53.7467182945273
20
19.6061009165888
30
0
41
1
10
53.7063476610927
20
19.6042047230043
30
0
41
1
10
53.5067119730517
20
19.5974612869649
30
0
41
1
10
53.3453726295507
20
19.6184074745949
30
0
41
1
10
53.1656324617666
20
19.6658881276012
30
0
41
1
10
53.1400997197492
20
19.6730570406686
30
0
41
1
10
53.1146869282978
20
19.6806157801649
30
0
0
SPLINE
5
1AB
100
AcDbEntity
8
1
62
256
6
ByLayer
370
13
48
1
60
0
100
AcDbSpline
70
4
71
3
72
12
73
8
40
0
40
0
40
0
40
0
40
0.609383607480292
40
0.609383607480292
40
0.614539779329414
40
0.614539779329414
40
1
40
1
40
1
40
1
41
1
10
54.3656057053218
20
19.6297062644869
30
0
41
1
10
54.2600213620048
20
19.6253532523368
30
0
41
1
10
54.1496097970342
20
19.6210237993586
30
0
41
1
10
54.0373081383666
20
19.616752287228
30
0
41
1
10
54.0363601843112
20
19.6167162320912
30
0
41
1
10
53.9647049543389
20
19.613990933076
30
0
41
1
10
53.8932165299022
20
19.6111910771394
30
0
41
1
10
53.8219297662851
20
19.6087044877512
30
0
0
SPLINE
5
1AC
100
AcDbEntity
8
1
62
256
6
ByLayer
370
13
48
1
60
0
100
AcDbSpline
70
4
71
3
72
12
73
8
40
0
40
0
40
0
40
0
40
0.178891096392299
40
0.178891096392299
40
0.986291642516443
40
0.986291642516443
40
1
40
1
40
1
40
1
41
1
10
54.7213895076228
20
19.6463012229624
30
0
41
1
10
54.7003115269679
20
19.6454648819153
30
0
41
1
10
54.6792221384665
20
19.6446218615654
30
0
41
1
10
54.5629014296375
20
19.6399331694938
30
0
41
1
10
54.4679540502601
20
19.6342895071999
30
0
41
1
10
54.3689156735317
20
19.6298457310656
30
0
41
1
10
54.3672607449414
20
19.62977449816
30
0
41
1
10
54.3656057053218
20
19.6297062644869
30
0
0
SPLINE
5
1AD
100
AcDbEntity
8
1
62
256
6
ByLayer
370
13
48
1
60
0
100
AcDbSpline
70
4
71
3
72
8
73
4
40
0
40
0
40
0
40
0
40
1
40
1
40
1
40
1
41
1
10
54.5900286630425
20
19.5649760336645
30
0
41
1
10
54.634090020669
20
19.5916390015714
30
0
41
1
10
54.6778395366007
20
19.6188158201189
30
0
41
1
10
54.7213895076228
20
19.6463012229624
30
0
0
SPLINE
5
1AE
100
AcDbEntity
8
1
62
256
6
ByLayer
370
13
48
1
60
0
100
AcDbSpline
70
4
71
3
72
8
73
4
40
0
40
0
40
0
40
0
40
1
40
1
40
1
40
1
41
1
10
54.1158957172693
20
19.4864557878381
30
0
41
1
10
54.2755545267195
20
19.4869722000561
30
0
41
1
10
54.4354150796997
20
19.5211649492281
30
0
41
1
10
54.5900286630425
20
19.5649760336645
30
0
0
SPLINE
5
1AF
100
AcDbEntity
8
1
62
256
6
ByLayer
370
13
48
1
60
0
100
AcDbSpline
70
4
71
3
72
8
73
4
40
0
40
0
40
0
40
0
40
1
40
1
40
1
40
1
41
1
10
53.7528986418118
20
19.486859468131
30
0
41
1
10
53.8744062234274
20
19.4909096236938
30
0
41
1
10
53.9966210532665
20
19.4860699970741
30
0
41
1
10
54.1158957172706
20
19.4864557878363
30
0
0
SPLINE
5
1B0
100
AcDbEntity
8
1
62
256
6
ByLayer
370
13
48
1
60
0
100
AcDbSpline
70
4
71
3
72
8
73
4
40
0
40
0
40
0
40
0
40
1
40
1
40
1
40
1
41
1
10
53.4823771357602
20
19.5033367230782
30
0
41
1
10
53.5716495580755
20
19.4896351417456
30
0
41
1
10
53.6625883571385
20
19.4838491975204
30
0
41
1
10
53.7528986418103
20
19.4868594681305
30
0
0
SPLINE
5
1B1
100
AcDbEntity
8
1
62
256
6
ByLayer
370
13
48
1
60
0
100
AcDbSpline
70
4
71
3
72
14
73
10
40
0
40
0
40
0
40
0
40
0.102691686735347
40
0.102691686735347
40
0.53816841361549
40
0.53816841361549
40
0.926474667639871
40
0.926474667639871
40
1
40
1
40
1
40
1
41
1
10
52.3509720530678
20
19.6002838115505
30
0
41
1
10
52.380893999408
20
19.6035266946692
30
0
41
1
10
52.4122711139628
20
19.6057316613353
30
0
41
1
10
52.5807977171794
20
19.6124143882119
30
0
41
1
10
52.742161843352
20
19.60209976083
30
0
41
1
10
53.0640413220708
20
19.5675339453461
30
0
41
1
10
53.2272620626366
20
19.5440549552907
30
0
41
1
10
53.4201021624027
20
19.5129580119954
30
0
41
1
10
53.4512578164011
20
19.5081129336275
30
0
41
1
10
53.4823771357602
20
19.5033367230783
30
0
0
SPLINE
5
1B2
100
AcDbEntity
8
1
62
256
6
ByLayer
370
13
48
1
60
0
100
AcDbSpline
70
4
71
3
72
8
73
4
40
0
40
0
40
0
40
0
40
1
40
1
40
1
40
1
41
1
10
52.2573483090604
20
19.5940192745328
30
0
41
1
10
52.2886707932501
20
19.594685622694
30
0
41
1
10
52.3198681643654
20
19.5969128317869
30
0
41
1
10
52.3509720530678
20
19.6002838115505
30
0
0
SPLINE
5
1B3
100
AcDbEntity
8
1
62
256
6
ByLayer
370
13
48
1
60
0
100
AcDbSpline
70
4
71
3
72
10
73
6
40
0
40
0
40
0
40
0
40
0.436659189793396
40
0.436659189793396
40
1
40
1
40
1
40
1
41
1
10
52.0305156049706
20
19.8062711708627
30
0
41
1
10
52.0626760675876
20
19.7744867779833
30
0
41
1
10
52.0951835994714
20
19.7430486867056
30
0
41
1
10
52.1705662077346
20
19.6720330395359
30
0
41
1
10
52.2138220700954
20
19.632825465143
30
0
41
1
10
52.2573483090634
20
19.5940192745321
30
0
0
SPLINE
5
1B4
100
AcDbEntity
8
1
62
256
6
ByLayer
370
13
48
1
60
0
100
AcDbSpline
70
4
71
3
72
10
73
6
40
0
40
0
40
0
40
0
40
0.73561768390405
40
0.73561768390405
40
1
40
1
40
1
40
1
41
1
10
52.0305156049705
20
19.8062711708628
30
0
41
1
10
52.0246851208416
20
19.8120334759776
30
0
41
1
10
52.0191348692196
20
19.8183460122241
30
0
41
1
10
52.01316259116
20
19.8271229889294
30
0
41
1
10
52.0117118978094
20
19.8295047536141
30
0
41
1
10
52.010489557918
20
19.8318540541083
30
0
0
SPLINE
5
1B5
100
AcDbEntity
8
1
62
256
6
ByLayer
370
13
48
1
60
0
100
AcDbSpline
70
4
71
3
72
8
73
4
40
0
40
0
40
0
40
0
40
1
40
1
40
1
40
1
41
1
10
52.010489557921
20
19.8318540541117
30
0
41
1
10
52.0176603296031
20
19.838316647457
30
0
41
1
10
52.0247646325939
20
19.8447863756824
30
0
41
1
10
52.031795236158
20
19.8512636890429
30
0
0
SPLINE
5
1B6
100
AcDbEntity
8
1
62
256
6
ByLayer
370
13
48
1
60
0
100
AcDbSpline
70
4
71
3
72
12
73
8
40
0
40
0
40
0
40
0
40
0.233793069268613
40
0.233793069268613
40
0.849542984529965
40
0.849542984529965
40
1
40
1
40
1
40
1
41
1
10
52.010489557929
20
21.1681459458967
30
0
41
1
10
52.0115678802706
20
21.1702184489942
30
0
41
1
10
52.0128235703367
20
21.1723158151393
30
0
41
1
10
52.0177801949081
20
21.1797891721238
30
0
41
1
10
52.0222297367628
20
21.1851294447461
30
0
41
1
10
52.0281198492317
20
21.19132558331
30
0
41
1
10
52.0293089587678
20
21.1925362929035
30
0
41
1
10
52.0305156049705
20
21.1937288291376
30
0
0
SPLINE
5
1B7
100
AcDbEntity
8
1
62
256
6
ByLayer
370
13
48
1
60
0
100
AcDbSpline
70
4
71
3
72
10
73
6
40
0
40
0
40
0
40
0
40
0.436659189793399
40
0.436659189793399
40
1
40
1
40
1
40
1
41
1
10
52.0305156049706
20
21.1937288291376
30
0
41
1
10
52.0626760675876
20
21.225513222017
30
0
41
1
10
52.0951835994714
20
21.2569513132947
30
0
41
1
10
52.1705662077346
20
21.3279669604644
30
0
41
1
10
52.2138220700954
20
21.3671745348573
30
0
41
1
10
52.2573483090634
20
21.4059807254683
30
0
0
SPLINE
5
1B8
100
AcDbEntity
8
1
62
256
6
ByLayer
370
13
48
1
60
0
100
AcDbSpline
70
4
71
3
72
8
73
4
40
0
40
0
40
0
40
0
40
1
40
1
40
1
40
1
41
1
10
52.2573483090604
20
21.4059807254675
30
0
41
1
10
52.2886707932501
20
21.4053143773064
30
0
41
1
10
52.3198681643654
20
21.4030871682134
30
0
41
1
10
52.3509720530678
20
21.3997161884498
30
0
0
SPLINE
5
1B9
100
AcDbEntity
8
1
62
256
6
ByLayer
370
13
48
1
60
0
100
AcDbSpline
70
4
71
3
72
14
73
10
40
0
40
0
40
0
40
0
40
0.102691686735347
40
0.102691686735347
40
0.53816841361549
40
0.53816841361549
40
0.926474667639871
40
0.926474667639871
40
1
40
1
40
1
40
1
41
1
10
52.3509720530678
20
21.3997161884498
30
0
41
1
10
52.380893999408
20
21.3964733053311
30
0
41
1
10
52.4122711139628
20
21.394268338665
30
0
41
1
10
52.5807977171794
20
21.3875856117884
30
0
41
1
10
52.742161843352
20
21.3979002391703
30
0
41
1
10
53.0640413220708
20
21.4324660546542
30
0
41
1
10
53.2272620626366
20
21.4559450447096
30
0
41
1
10
53.4201021624027
20
21.4870419880049
30
0
41
1
10
53.4512578164011
20
21.4918870663728
30
0
41
1
10
53.4823771357602
20
21.496663276922
30
0
0
SPLINE
5
1BA
100
AcDbEntity
8
1
62
256
6
ByLayer
370
13
48
1
60
0
100
AcDbSpline
70
4
71
3
72
8
73
4
40
0
40
0
40
0
40
0
40
1
40
1
40
1
40
1
41
1
10
53.4823771357602
20
21.4966632769221
30
0
41
1
10
53.5716495580755
20
21.5103648582547
30
0
41
1
10
53.6625883571385
20
21.5161508024799
30
0
41
1
10
53.7528986418103
20
21.5131405318698
30
0
0
SPLINE
5
1BB
100
AcDbEntity
8
1
62
256
6
ByLayer
370
13
48
1
60
0
100
AcDbSpline
70
4
71
3
72
8
73
4
40
0
40
0
40
0
40
0
40
1
40
1
40
1
40
1
41
1
10
53.7528986418118
20
21.5131405318694
30
0
41
1
10
53.8744062234274
20
21.5090903763065
30
0
41
1
10
53.9966210532665
20
21.5139300029262
30
0
41
1
10
54.1158957172706
20
21.5135442121641
30
0
0
SPLINE
5
1BC
100
AcDbEntity
8
1
62
256
6
ByLayer
370
13
48
1
60
0
100
AcDbSpline
70
4
71
3
72
8
73
4
40
0
40
0
40
0
40
0
40
1
40
1
40
1
40
1
41
1
10
54.1158957172693
20
21.5135442121622
30
0
41
1
10
54.2755545267195
20
21.5130277999442
30
0
41
1
10
54.4354150796997
20
21.4788350507722
30
0
41
1
10
54.5900286630425
20
21.4350239663358
30
0
0
SPLINE
5
1BD
100
AcDbEntity
8
1
62
256
6
ByLayer
370
13
48
1
60
0
100
AcDbSpline
70
4
71
3
72
8
73
4
40
0
40
0
40
0
40
0
40
1
40
1
40
1
40
1
41
1
10
54.5900286630425
20
21.4350239663358
30
0
41
1
10
54.634090020669
20
21.408360998429
30
0
41
1
10
54.6778395366007
20
21.3811841798814
30
0
41
1
10
54.7213895076228
20
21.3536987770379
30
0
0
SPLINE
5
1BE
100
AcDbEntity
8
1
62
256
6
ByLayer
370
13
48
1
60
0
100
AcDbSpline
70
4
71
3
72
12
73
8
40
0
40
0
40
0
40
0
40
0.178891096392299
40
0.178891096392299
40
0.986291642516443
40
0.986291642516443
40
1
40
1
40
1
40
1
41
1
10
54.7213895076228
20
21.3536987770379
30
0
41
1
10
54.7003115269679
20
21.354535118085
30
0
41
1
10
54.6792221384665
20
21.355378138435
30
0
41
1
10
54.5629014296375
20
21.3600668305065
30
0
41
1
10
54.4679540502601
20
21.3657104928004
30
0
41
1
10
54.3689156735317
20
21.3701542689347
30
0
41
1
10
54.3672607449414
20
21.3702255018403
30
0
41
1
10
54.3656057053218
20
21.3702937355135
30
0
0
SPLINE
5
1BF
100
AcDbEntity
8
1
62
256
6
ByLayer
370
13
48
1
60
0
100
AcDbSpline
70
4
71
3
72
12
73
8
40
0
40
0
40
0
40
0
40
0.609383607480292
40
0.609383607480292
40
0.614539779329414
40
0.614539779329414
40
1
40
1
40
1
40
1
41
1
10
54.3656057053218
20
21.3702937355135
30
0
41
1
10
54.2600213620048
20
21.3746467476635
30
0
41
1
10
54.1496097970342
20
21.3789762006417
30
0
41
1
10
54.0373081383666
20
21.3832477127723
30
0
41
1
10
54.0363601843112
20
21.3832837679091
30
0
41
1
10
53.9647049543389
20
21.3860090669243
30
0
41
1
10
53.8932165299022
20
21.3888089228609
30
0
41
1
10
53.8219297662851
20
21.3912955122491
30
0
0
SPLINE
5
1C0
100
AcDbEntity
8
1
62
256
6
ByLayer
370
13
48
1
60
0
100
AcDbSpline
70
4
71
3
72
16
73
12
40
0
40
0
40
0
40
0
40
0.0442199247554627
40
0.0442199247554627
40
0.048439955548864
40
0.048439955548864
40
0.216895358525141
40
0.216895358525141
40
0.889245809546153
40
0.889245809546153
40
1
40
1
40
1
40
1
41
1
10
53.8219297662851
20
21.3912955122491
30
0
41
1
10
53.811330078545
20
21.3916652452783
30
0
41
1
10
53.8007291289449
20
21.3919965677048
30
0
41
1
10
53.7891179461187
20
21.3924033575068
30
0
41
1
10
53.7881063966876
20
21.3924389247099
30
0
41
1
10
53.7467182945273
20
21.3938990834116
30
0
41
1
10
53.7063476610927
20
21.395795276996
30
0
41
1
10
53.5067119730517
20
21.4025387130354
30
0
41
1
10
53.3453726295507
20
21.3815925254054
30
0
41
1
10
53.1656324617666
20
21.3341118723991
30
0
41
1
10
53.1400997197492
20
21.3269429593317
30
0
41
1
10
53.1146869282978
20
21.3193842198355
30
0
0
SPLINE
5
1C1
100
AcDbEntity
8
1
62
256
6
ByLayer
370
13
48
1
60
0
100
AcDbSpline
70
4
71
3
72
12
73
8
40
0
40
0
40
0
40
0
40
0.274450233641753
40
0.274450233641753
40
0.728710906931611
40
0.728710906931611
40
1
40
1
40
1
40
1
41
1
10
53.1146869282979
20
21.3193842198355
30
0
41
1
10
53.0122143236957
20
21.2889049344264
30
0
41
1
10
52.909497462749
20
21.2585576137447
30
0
41
1
10
52.6439453836002
20
21.1804224140222
30
0
41
1
10
52.4820473482734
20
21.1331292282366
30
0
41
1
10
52.246079380226
20
21.0640519317751
30
0
41
1
10
52.1617198878049
20
21.0394840952046
30
0
41
1
10
52.0838678419132
20
21.0162732843472
30
0
0
SPLINE
5
1C2
100
AcDbEntity
8
1
62
256
6
ByLayer
370
13
48
1
60
0
100
AcDbSpline
70
4
71
3
72
10
73
6
40
0
40
0
40
0
40
0
40
0.659159716151023
40
0.659159716151023
40
1
40
1
40
1
40
1
41
1
10
52.0838678419132
20
21.0162732843472
30
0
41
1
10
52.0859020371366
20
21.0538913237541
30
0
41
1
10
52.0777349617728
20
21.0862591638259
30
0
41
1
10
52.0536893544428
20
21.1257793063448
30
0
41
1
10
52.0434984870353
20
21.1379540754667
30
0
41
1
10
52.031795236158
20
21.1487363109574
30
0
0
SPLINE
5
1C3
100
AcDbEntity
8
1
62
256
6
ByLayer
370
13
48
1
60
0
100
AcDbSpline
70
4
71
3
72
8
73
4
40
0
40
0
40
0
40
0
40
1
40
1
40
1
40
1
41
1
10
52.031795236158
20
21.1487363109574
30
0
41
1
10
52.0247646325939
20
21.1552136243179
30
0
41
1
10
52.0176603296031
20
21.1616833525433
30
0
41
1
10
52.010489557921
20
21.1681459458886
30
0
0
SPLINE
5
1C4
100
AcDbEntity
8
1
62
256
6
ByLayer
370
13
48
1
60
0
100
AcDbSpline
70
4
71
3
72
8
73
4
40
0
40
0
40
0
40
0
40
1
40
1
40
1
40
1
41
1
10
52.1169741247547
20
19.4351553007841
30
0
41
1
10
52.0355486668608
20
19.5045506803842
30
0
41
1
10
51.9571073551694
20
19.5774794580058
30
0
41
1
10
51.8804455603128
20
19.6521038046523
30
0
0
SPLINE
5
1C5
100
AcDbEntity
8
1
62
256
6
ByLayer
370
13
48
1
60
0
100
AcDbSpline
70
4
71
3
72
8
73
4
40
0
40
0
40
0
40
0
40
1
40
1
40
1
40
1
41
1
10
52.1169741247547
20
21.5648446992162
30
0
41
1
10
52.0355486668608
20
21.4954493196161
30
0
41
1
10
51.9571073551694
20
21.4225205419945
30
0
41
1
10
51.8804455603128
20
21.347896195348
30
0
0
SPLINE
5
1C6
100
AcDbEntity
8
1
62
256
6
ByLayer
370
13
48
1
60
0
100
AcDbSpline
70
4
71
3
72
12
73
8
40
0
40
0
40
0
40
0
40
0.46817896742225
40
0.46817896742225
40
0.899165978787896
40
0.899165978787896
40
1
40
1
40
1
40
1
41
1
10
53.4587805434612
20
19.335575814649
30
0
41
1
10
53.2775060355049
20
19.3640995117536
30
0
41
1
10
53.0936117660434
20
19.3988817297962
30
0
41
1
10
52.7658158689767
20
19.442534637271
30
0
41
1
10
52.6153724323278
20
19.4566016801374
30
0
41
1
10
52.4560286247614
20
19.4553474778724
30
0
41
1
10
52.4264524991724
20
19.4542479039908
30
0
41
1
10
52.3981203716814
20
19.4521519715688
30
0
0
SPLINE
5
1C7
100
AcDbEntity
8
1
62
256
6
ByLayer
370
13
48
1
60
0
100
AcDbSpline
70
4
71
3
72
12
73
8
40
0
40
0
40
0
40
0
40
0.46817896742225
40
0.46817896742225
40
0.899165978787896
40
0.899165978787896
40
1
40
1
40
1
40
1
41
1
10
53.4587805434612
20
21.6644241853513
30
0
41
1
10
53.2775060355049
20
21.6359004882467
30
0
41
1
10
53.0936117660434
20
21.6011182702041
30
0
41
1
10
52.7658158689767
20
21.5574653627293
30
0
41
1
10
52.6153724323278
20
21.5433983198629
30
0
41
1
10
52.4560286247614
20
21.544652522128
30
0
41
1
10
52.4264524991724
20
21.5457520960096
30
0
41
1
10
52.3981203716814
20
21.5478480284315
30
0
0
SPLINE
5
1C8
100
AcDbEntity
8
1
62
256
6
ByLayer
370
13
48
1
60
0
100
AcDbSpline
70
4
71
3
72
10
73
6
40
0
40
0
40
0
40
0
40
0.132191617121101
40
0.132191617121101
40
1
40
1
40
1
40
1
41
1
10
52.2573483090604
20
19.5940192745328
30
0
41
1
10
52.2564468305522
20
19.5930540593423
30
0
41
1
10
52.25552642843
20
19.5920633630372
30
0
41
1
10
52.2484541077129
20
19.5844123395129
30
0
41
1
10
52.2414978788605
20
19.5766708062934
30
0
41
1
10
52.2339180002563
20
19.568041391005
30
0
0
SPLINE
5
1C9
100
AcDbEntity
8
1
62
256
6
ByLayer
370
13
48
1
60
0
100
AcDbSpline
70
4
71
3
72
14
73
10
40
0
40
0
40
0
40
0
40
0.447953066725052
40
0.447953066725052
40
0.912809598186729
40
0.912809598186729
40
0.983423615312508
40
0.983423615312508
40
1
40
1
40
1
40
1
41
1
10
52.2339180002563
20
19.5680413910044
30
0
41
1
10
52.2203040290403
20
19.5525423813542
30
0
41
1
10
52.20401541129
20
19.5340092486584
30
0
41
1
10
52.1683740707567
20
19.493494920298
30
0
41
1
10
52.1483538761323
20
19.4707568272157
30
0
41
1
10
52.1253006224606
20
19.4446003070775
30
0
41
1
10
52.1222095971504
20
19.4410937049566
30
0
41
1
10
52.1184037038144
20
19.4367767596908
30
0
41
1
10
52.1176888999301
20
19.4359660277506
30
0
41
1
10
52.1169741247485
20
19.4351553007852
30
0
0
SPLINE
5
1CA
100
AcDbEntity
8
1
62
256
6
ByLayer
370
13
48
1
60
0
100
AcDbSpline
70
4
71
3
72
14
73
10
40
0
40
0
40
0
40
0
40
0.447953066725053
40
0.447953066725053
40
0.912809598186729
40
0.912809598186729
40
0.983423615312508
40
0.983423615312508
40
1
40
1
40
1
40
1
41
1
10
52.2339180002563
20
21.4319586089959
30
0
41
1
10
52.2203040290403
20
21.4474576186461
30
0
41
1
10
52.20401541129
20
21.465990751342
30
0
41
1
10
52.1683740707567
20
21.5065050797024
30
0
41
1
10
52.1483538761323
20
21.5292431727846
30
0
41
1
10
52.1253006224606
20
21.5553996929228
30
0
41
1
10
52.1222095971504
20
21.5589062950437
30
0
41
1
10
52.1184037038144
20
21.5632232403096
30
0
41
1
10
52.1176888999301
20
21.5640339722497
30
0
41
1
10
52.1169741247485
20
21.5648446992151
30
0
0
SPLINE
5
1CB
100
AcDbEntity
8
1
62
256
6
ByLayer
370
13
48
1
60
0
100
AcDbSpline
70
4
71
3
72
10
73
6
40
0
40
0
40
0
40
0
40
0.132191617121101
40
0.132191617121101
40
1
40
1
40
1
40
1
41
1
10
52.2573483090604
20
21.4059807254675
30
0
41
1
10
52.2564468305522
20
21.406945940658
30
0
41
1
10
52.25552642843
20
21.4079366369631
30
0
41
1
10
52.2484541077129
20
21.4155876604874
30
0
41
1
10
52.2414978788606
20
21.4233291937069
30
0
41
1
10
52.2339180002563
20
21.4319586089953
30
0
0
SPLINE
5
1CC
100
AcDbEntity
8
1
62
256
6
ByLayer
370
13
48
1
60
0
100
AcDbSpline
70
4
71
3
72
12
73
8
40
0
40
0
40
0
40
0
40
0.559278359968975
40
0.559278359968975
40
0.982064699130975
40
0.982064699130975
40
1
40
1
40
1
40
1
41
1
10
51.8655988415542
20
19.8029923765778
30
0
41
1
10
51.8639058993618
20
19.8351919378457
30
0
41
1
10
51.8615176185073
20
19.8643669124821
30
0
41
1
10
51.8565061637905
20
19.9053649538649
30
0
41
1
10
51.8540306406306
20
19.9201075402843
30
0
41
1
10
51.8512781291035
20
19.9314807870884
30
0
41
1
10
51.8511665651817
20
19.9319338947937
30
0
41
1
10
51.8510546870628
20
19.9323804861464
30
0
0
SPLINE
5
1CD
100
AcDbEntity
8
1
62
256
6
ByLayer
370
13
48
1
60
0
100
AcDbSpline
70
4
71
3
72
10
73
6
40
0
40
0
40
0
40
0
40
0.709641074204652
40
0.709641074204652
40
1
40
1
40
1
40
1
41
1
10
51.8804455603128
20
19.6521038046523
30
0
41
1
10
51.8753414889782
20
19.6889680114081
30
0
41
1
10
51.8711861437205
20
19.7266058234466
30
0
41
1
10
51.8672412502849
20
19.775607097515
30
0
41
1
10
51.8663022439904
20
19.7896137450133
30
0
41
1
10
51.8655988415525
20
19.8029923765779
30
0
0
SPLINE
5
1CE
100
AcDbEntity
8
1
62
256
6
ByLayer
370
13
48
1
60
0
100
AcDbSpline
70
4
71
3
72
12
73
8
40
0
40
0
40
0
40
0
40
0.135507654329451
40
0.135507654329451
40
0.742115377580087
40
0.742115377580087
40
1
40
1
40
1
40
1
41
1
10
51.8804455603128
20
21.347896195348
30
0
41
1
10
51.8794577311546
20
21.3407615892773
30
0
41
1
10
51.8785068164279
20
21.333617327018
30
0
41
1
10
51.8735694178171
20
21.2949649545598
30
0
41
1
10
51.8702919601627
20
21.2632943509396
30
0
41
1
10
51.8670296012879
20
21.2212005106125
30
0
41
1
10
51.8662219824782
20
21.2088596904497
30
0
41
1
10
51.8655988415537
20
21.1970076234225
30
0
0
SPLINE
5
1CF
100
AcDbEntity
8
1
62
256
6
ByLayer
370
13
48
1
60
0
100
AcDbSpline
70
4
71
3
72
14
73
10
40
0
40
0
40
0
40
0
40
0.0177509856471946
40
0.0177509856471946
40
0.340726860481444
40
0.340726860481444
40
0.792711195890233
40
0.792711195890233
40
1
40
1
40
1
40
1
41
1
10
51.8510546870628
20
21.0676195138539
30
0
41
1
10
51.8511665651504
20
21.0680661052064
30
0
41
1
10
51.8512781289784
20
21.0685192129111
30
0
41
1
10
51.8534062656342
20
21.0773125699557
30
0
41
1
10
51.855323964045
20
21.0878473759762
30
0
41
1
10
51.8595178404373
20
21.1174589617603
30
0
41
1
10
51.8616827821098
20
21.1386293781373
30
0
41
1
10
51.8642384176627
20
21.173346877728
30
0
41
1
10
51.8649648606851
20
21.1849493819013
30
0
41
1
10
51.8655988415542
20
21.1970076234225
30
0
0
SPLINE
5
1D0
100
AcDbEntity
8
1
62
256
6
ByLayer
370
13
48
1
60
0
100
AcDbSpline
70
4
71
3
72
18
73
14
40
0
40
0
40
0
40
0
40
0.10212592206704
40
0.10212592206704
40
0.219798180864097
40
0.219798180864097
40
0.395678331134856
40
0.395678331134856
40
0.733655817510089
40
0.733655817510089
40
0.802063348489368
40
0.802063348489368
40
1
40
1
40
1
40
1
41
1
10
51.4559779585026
20
19.673244322549
30
0
41
1
10
51.4564416368177
20
19.6865239527803
30
0
41
1
10
51.45608929913
20
19.6998830474288
30
0
41
1
10
51.4536446728814
20
19.7281153692781
30
0
41
1
10
51.4512850832915
20
19.7430478935574
30
0
41
1
10
51.4431564052165
20
19.7787984413756
30
0
41
1
10
51.4362096466949
20
19.7992266547456
30
0
41
1
10
51.4118798067114
20
19.8534664406785
30
0
41
1
10
51.3902866995539
20
19.8838481801351
30
0
41
1
10
51.3616240935597
20
19.9128060666674
30
0
41
1
10
51.356622989345
20
19.9175054135443
30
0
41
1
10
51.3368310070575
20
19.9348358845034
30
0
41
1
10
51.3212866355731
20
19.9457808537068
30
0
41
1
10
51.3052940680712
20
19.9548268776212
30
0
0
SPLINE
5
1D1
100
AcDbEntity
8
1
62
256
6
ByLayer
370
13
48
1
60
0
100
AcDbSpline
70
4
71
3
72
14
73
10
40
0
40
0
40
0
40
0
40
0.447954004797037
40
0.447954004797037
40
0.912810038934036
40
0.912810038934036
40
0.983423779130199
40
0.983423779130199
40
1
40
1
40
1
40
1
41
1
10
52.2933275812136
20
19.450469544051
30
0
41
1
10
52.2727755286919
20
19.4486846039726
30
0
41
1
10
52.2481939779357
20
19.4465497899248
30
0
41
1
10
52.1944355442363
20
19.4418813816639
30
0
41
1
10
52.1642532997473
20
19.4392604960657
30
0
41
1
10
52.1295181484127
20
19.4362444697482
30
0
41
1
10
52.1248611889835
20
19.4358401137151
30
0
41
1
10
52.1191276857054
20
19.4353422883021
30
0
41
1
10
52.1180508939063
20
19.435248793671
30
0
41
1
10
52.1169741247543
20
19.4351553007841
30
0
0
SPLINE
5
1D2
100
AcDbEntity
8
1
62
256
6
ByLayer
370
13
48
1
60
0
100
AcDbSpline
70
4
71
3
72
14
73
10
40
0
40
0
40
0
40
0
40
0.447954004797037
40
0.447954004797037
40
0.912810038934036
40
0.912810038934036
40
0.983423779130199
40
0.983423779130199
40
1
40
1
40
1
40
1
41
1
10
52.2933275812136
20
21.5495304559494
30
0
41
1
10
52.2727755286919
20
21.5513153960277
30
0
41
1
10
52.2481939779357
20
21.5534502100755
30
0
41
1
10
52.1944355442363
20
21.5581186183365
30
0
41
1
10
52.1642532997473
20
21.5607395039347
30
0
41
1
10
52.1295181484127
20
21.5637555302522
30
0
41
1
10
52.1248611889835
20
21.5641598862852
30
0
41
1
10
52.1191276857054
20
21.5646577116982
30
0
41
1
10
52.1180508939063
20
21.5647512063293
30
0
41
1
10
52.1169741247543
20
21.5648446992162
30
0
0
SPLINE
5
1D3
100
AcDbEntity
8
1
62
256
6
ByLayer
370
13
48
1
60
0
100
AcDbSpline
70
4
71
3
72
12
73
8
40
0
40
0
40
0
40
0
40
0.356479833160399
40
0.356479833160399
40
0.824168720346733
40
0.824168720346733
40
1
40
1
40
1
40
1
41
1
10
51.864378753796
20
21.0563103127402
30
0
41
1
10
51.8767763033464
20
21.0497973135486
30
0
41
1
10
51.8880463981536
20
21.0422012362095
30
0
41
1
10
51.9095864832785
20
21.0216848911679
30
0
41
1
10
51.9185295226104
20
21.0075051064432
30
0
41
1
10
51.9240732667399
20
20.984799559925
30
0
41
1
10
51.9249217874922
20
20.9781840176503
30
0
41
1
10
51.9250392603486
20
20.9712889523049
30
0
0
SPLINE
5
1D4
100
AcDbEntity
8
1
62
256
6
ByLayer
370
13
48
1
60
0
100
AcDbSpline
70
4
71
3
72
12
73
8
40
0
40
0
40
0
40
0
40
0.443558069836982
40
0.443558069836982
40
0.507222026557664
40
0.507222026557664
40
1
40
1
40
1
40
1
41
1
10
51.9250392603487
20
20.9712889523048
30
0
41
1
10
51.925625933741
20
20.9368541773397
30
0
41
1
10
51.9334575781989
20
20.8959258149455
30
0
41
1
10
51.9513800260717
20
20.8473840694134
30
0
41
1
10
51.9538277204396
20
20.841159344948
30
0
41
1
10
51.976282853545
20
20.7873965381698
30
0
41
1
10
52.006340828125
20
20.7374991266034
30
0
41
1
10
52.0439598709927
20
20.692381484215
30
0
0
SPLINE
5
1D5
100
AcDbEntity
8
1
62
256
6
ByLayer
370
13
48
1
60
0
100
AcDbSpline
70
4
71
3
72
18
73
14
40
0
40
0
40
0
40
0
40
0.262962488711577
40
0.262962488711577
40
0.43136352889061
40
0.43136352889061
40
0.488169625072958
40
0.488169625072958
40
0.652801403480982
40
0.652801403480982
40
0.712254155913291
40
0.712254155913291
40
1
40
1
40
1
40
1
41
1
10
52.0439598709927
20
20.692381484215
30
0
41
1
10
52.0671201854563
20
20.6646046269141
30
0
41
1
10
52.0885389915201
20
20.6338433449176
30
0
41
1
10
52.113950371308
20
20.5779105161368
30
0
41
1
10
52.1214580237961
20
20.5542075721609
30
0
41
1
10
52.1259784141927
20
20.5217121666596
30
0
41
1
10
52.1266641796623
20
20.5133436996628
30
0
41
1
10
52.1274106952604
20
20.4810784942357
30
0
41
1
10
52.12374714007
20
20.4567706575811
30
0
41
1
10
52.1143596854291
20
20.4258342117684
30
0
41
1
10
52.1114227244077
20
20.4176956184358
30
0
41
1
10
52.0925277493289
20
20.3718861575126
30
0
41
1
10
52.0692256559174
20
20.3379205267351
30
0
41
1
10
52.0439598709998
20
20.3076185157939
30
0
0
SPLINE
5
1D6
100
AcDbEntity
8
1
62
256
6
ByLayer
370
13
48
1
60
0
100
AcDbSpline
70
4
71
3
72
12
73
8
40
0
40
0
40
0
40
0
40
0.0695374380305743
40
0.0695374380305743
40
0.564718845075643
40
0.564718845075643
40
1
40
1
40
1
40
1
41
1
10
52.0439598709998
20
20.3076185157939
30
0
41
1
10
52.0385610813285
20
20.301143585994
30
0
41
1
10
52.0333230650435
20
20.2945890364699
30
0
41
1
10
51.9927993674551
20
20.2416736918415
30
0
41
1
10
51.9653523725795
20
20.1912111459126
30
0
41
1
10
51.9331669750442
20
20.1025882328154
30
0
41
1
10
51.9256153955241
20
20.062527282378
30
0
41
1
10
51.9250392603487
20
20.0287110476955
30
0
0
SPLINE
5
1D7
100
AcDbEntity
8
1
62
256
6
ByLayer
370
13
48
1
60
0
100
AcDbSpline
70
4
71
3
72
10
73
6
40
0
40
0
40
0
40
0
40
0.323499890762715
40
0.323499890762715
40
1
40
1
40
1
40
1
41
1
10
51.9250392603487
20
20.0287110476955
30
0
41
1
10
51.9248229895013
20
20.0160170376033
30
0
41
1
10
51.9221009308091
20
20.0042534733333
30
0
41
1
10
51.9072698303882
20
19.9723139254818
30
0
41
1
10
51.8876680100065
20
19.9559245975749
30
0
41
1
10
51.864378753796
20
19.9436896872601
30
0
0
SPLINE
5
1D8
100
AcDbEntity
8
1
62
256
6
ByLayer
370
13
48
1
60
0
100
AcDbSpline
70
4
71
3
72
12
73
8
40
0
40
0
40
0
40
0
40
0.833271550695841
40
0.833271550695841
40
0.924873187913958
40
0.924873187913958
40
1
40
1
40
1
40
1
41
1
10
51.0610166945645
20
20.0059117968519
30
0
41
1
10
51.0544754484441
20
20.0404291002038
30
0
41
1
10
51.0449923927373
20
20.0831033206702
30
0
41
1
10
51.040181068922
20
20.1364330658113
30
0
41
1
10
51.0397613475273
20
20.1418526944415
30
0
41
1
10
51.0391308505303
20
20.1518368338207
30
0
41
1
10
51.0388959908553
20
20.1563811081074
30
0
41
1
10
51.0387159227923
20
20.1609670367571
30
0
0
SPLINE
5
1D9
100
AcDbEntity
8
1
62
256
6
ByLayer
370
13
48
1
60
0
100
AcDbSpline
70
4
71
3
72
8
73
4
40
0
40
0
40
0
40
0
40
1
40
1
40
1
40
1
41
1
10
51.0387159227923
20
20.1609670367571
30
0
41
1
10
51.0599873122029
20
20.1671057584705
30
0
41
1
10
51.0815114137464
20
20.1728477880507
30
0
41
1
10
51.1032105368037
20
20.1782243746424
30
0
0
SPLINE
5
1DA
100
AcDbEntity
8
1
62
256
6
ByLayer
370
13
48
1
60
0
100
AcDbSpline
70
4
71
3
72
8
73
4
40
0
40
0
40
0
40
0
40
1
40
1
40
1
40
1
41
1
10
51.1032105368034
20
20.1782243746441
30
0
41
1
10
51.1062783445422
20
20.1789845129185
30
0
41
1
10
51.1093468504694
20
20.1797445572485
30
0
41
1
10
51.1124160421627
20
20.180504508933
30
0
0
SPLINE
5
1DB
100
AcDbEntity
8
1
62
256
6
ByLayer
370
13
48
1
60
0
100
AcDbSpline
70
4
71
3
72
26
73
22
40
0
40
0
40
0
40
0
40
0.0783346115779722
40
0.0783346115779722
40
0.229067417424992
40
0.229067417424992
40
0.361148737487712
40
0.361148737487712
40
0.451044286208709
40
0.451044286208709
40
0.480076288213215
40
0.480076288213215
40
0.580804987892491
40
0.580804987892491
40
0.598553408472289
40
0.598553408472289
40
0.721865021031447
40
0.721865021031447
40
0.852573440596253
40
0.852573440596253
40
1
40
1
40
1
40
1
41
1
10
51.1124160421627
20
20.180504508933
30
0
41
1
10
51.1363716105935
20
20.1864360623841
30
0
41
1
10
51.1598327503349
20
20.1938413293572
30
0
41
1
10
51.2253859658396
20
20.2200991703922
30
0
41
1
10
51.2659116446279
20
20.2436989501764
30
0
41
1
10
51.3301656555827
20
20.3006515673919
30
0
41
1
10
51.3562012292316
20
20.3333707503137
30
0
41
1
10
51.3871009177855
20
20.3957730532856
30
0
41
1
10
51.3963228169934
20
20.4237818841852
30
0
41
1
10
51.4026526489823
20
20.4618523884058
30
0
41
1
10
51.4037565534503
20
20.4713529332157
30
0
41
1
10
51.406535622122
20
20.5133512575902
30
0
41
1
10
51.4029896944569
20
20.5469005497513
30
0
41
1
10
51.3928135335291
20
20.5834393763357
30
0
41
1
10
51.3911033398723
20
20.5889415381172
30
0
41
1
10
51.3765578244499
20
20.6313208818074
30
0
41
1
10
51.3563208175635
20
20.6654000053894
30
0
41
1
10
51.3056247831178
20
20.7243019219485
30
0
41
1
10
51.2738519252939
20
20.749585285851
30
0
41
1
10
51.2004676930902
20
20.7920558754542
30
0
41
1
10
51.1571805456305
20
20.8084115109147
30
0
41
1
10
51.1124160421627
20
20.8194954910674
30
0
0
SPLINE
5
1DC
100
AcDbEntity
8
1
62
256
6
ByLayer
370
13
48
1
60
0
100
AcDbSpline
70
4
71
3
72
8
73
4
40
0
40
0
40
0
40
0
40
1
40
1
40
1
40
1
41
1
10
51.1124160421627
20
20.8194954910674
30
0
41
1
10
51.1093468504694
20
20.8202554427518
30
0
41
1
10
51.1062783445422
20
20.8210154870819
30
0
41
1
10
51.1032105368034
20
20.8217756253562
30
0
0
SPLINE
5
1DD
100
AcDbEntity
8
1
62
256
6
ByLayer
370
13
48
1
60
0
100
AcDbSpline
70
4
71
3
72
8
73
4
40
0
40
0
40
0
40
0
40
1
40
1
40
1
40
1
41
1
10
51.1032105368034
20
20.8217756253562
30
0
41
1
10
51.081511413746
20
20.827152211948
30
0
41
1
10
51.0599873122031
20
20.8328942415316
30
0
41
1
10
51.0387159227924
20
20.839032963245
30
0
0
SPLINE
5
1DE
100
AcDbEntity
8
1
62
256
6
ByLayer
370
13
48
1
60
0
100
AcDbSpline
70
4
71
3
72
10
73
6
40
0
40
0
40
0
40
0
40
0.0748872813144652
40
0.0748872813144652
40
1
40
1
40
1
40
1
41
1
10
51.0387159227923
20
20.8390329632432
30
0
41
1
10
51.0388959908553
20
20.843618891893
30
0
41
1
10
51.0391308505303
20
20.8481631661796
30
0
41
1
10
51.0428644178648
20
20.9072855043128
30
0
41
1
10
51.0537561749332
20
20.9557753872121
30
0
41
1
10
51.0610166945642
20
20.994088203147
30
0
0
SPLINE
5
1DF
100
AcDbEntity
8
1
62
256
6
ByLayer
370
13
48
1
60
0
100
AcDbSpline
70
4
71
3
72
20
73
16
40
0
40
0
40
0
40
0
40
0.114266316237489
40
0.114266316237489
40
0.331231960429442
40
0.331231960429442
40
0.599155656755157
40
0.599155656755157
40
0.722874848940947
40
0.722874848940947
40
0.871512516236653
40
0.871512516236653
40
0.967654963824484
40
0.967654963824484
40
1
40
1
40
1
40
1
41
1
10
51.3052940680729
20
21.0451731223786
30
0
41
1
10
51.3145383163395
20
21.0504020320506
30
0
41
1
10
51.3236231348746
20
21.0562590824212
30
0
41
1
10
51.3492280670811
20
21.0750317848486
30
0
41
1
10
51.365276744252
20
21.0896836944639
30
0
41
1
10
51.3980286906964
20
21.127572881605
30
0
41
1
10
51.4143711478298
20
21.1524681722381
30
0
41
1
10
51.4331414661541
20
21.1937696378456
30
0
41
1
10
51.4383907764822
20
21.2077143366656
30
0
41
1
10
51.447858461063
20
21.2396537849837
30
0
41
1
10
51.4517121178798
20
21.2581176853741
30
0
41
1
10
51.4553663096761
20
21.2891794188244
30
0
41
1
10
51.4561297476895
20
21.3016546428685
30
0
41
1
10
51.456190626378
20
21.3183324966694
30
0
41
1
10
51.4561249332387
20
21.3225463580114
30
0
41
1
10
51.4559779585028
20
21.3267556774513
30
0
0
SPLINE
5
1E0
100
AcDbEntity
8
1
62
256
6
ByLayer
370
13
48
1
60
0
100
AcDbSpline
70
4
71
3
72
16
73
12
40
0
40
0
40
0
40
0
40
0.249954056036558
40
0.249954056036558
40
0.699484194384015
40
0.699484194384015
40
0.851133931227642
40
0.851133931227642
40
0.935108677236773
40
0.935108677236773
40
1
40
1
40
1
40
1
41
1
10
51.2267110292774
20
19.7731025034956
30
0
41
1
10
51.2427048966234
20
19.7695509993049
30
0
41
1
10
51.2585947536485
20
19.765368094731
30
0
41
1
10
51.3021970348682
20
19.7514325134005
30
0
41
1
10
51.3302297071817
20
19.7402285923955
30
0
41
1
10
51.3625570510524
20
19.716780680513
30
0
41
1
10
51.3704121947256
20
19.7099349375488
30
0
41
1
10
51.3801629147231
20
19.6971788507783
30
0
41
1
10
51.3831940821262
20
19.6920922468391
30
0
41
1
10
51.3866841498694
20
19.6823701932968
30
0
41
1
10
51.3875739298375
20
19.6777799550586
30
0
41
1
10
51.3875739298375
20
19.673244322549
30
0
0
SPLINE
5
1E1
100
AcDbEntity
8
1
62
256
6
ByLayer
370
13
48
1
60
0
100
AcDbSpline
70
4
71
3
72
20
73
16
40
0
40
0
40
0
40
0
40
0.0199906994069362
40
0.0199906994069362
40
0.0825919577440876
40
0.0825919577440876
40
0.195169299288357
40
0.195169299288357
40
0.306011529795777
40
0.306011529795777
40
0.591177675589546
40
0.591177675589546
40
0.85412822131223
40
0.85412822131223
40
1
40
1
40
1
40
1
41
1
10
51.3875739298376
20
21.3267556774513
30
0
41
1
10
51.3875739298376
20
21.32534415265
30
0
41
1
10
51.3874914943693
20
21.3239301267547
30
0
41
1
10
51.3868329759386
20
21.3181971297721
30
0
41
1
10
51.3855574593884
20
21.3139281508099
30
0
41
1
10
51.3806296077618
20
21.3029621411125
30
0
41
1
10
51.3758782533064
20
21.2967136404375
30
0
41
1
10
51.3654630806491
20
21.2858548958315
30
0
41
1
10
51.359676381482
20
21.2810825901768
30
0
41
1
10
51.3382455610535
20
21.2657169261785
30
0
41
1
10
51.3211325656859
20
21.2573387132873
30
0
41
1
10
51.2877211729543
20
21.2437524351855
30
0
41
1
10
51.2712362948113
20
21.2383806493531
30
0
41
1
10
51.2453568251732
20
21.2312641952957
30
0
41
1
10
51.2360536989462
20
21.2289720748271
30
0
41
1
10
51.2267110292773
20
21.2268974965047
30
0
0
SPLINE
5
1E2
100
AcDbEntity
8
1
62
256
6
ByLayer
370
13
48
1
60
0
100
AcDbSpline
70
4
71
3
72
14
73
10
40
0
40
0
40
0
40
0
40
0.0177534078899156
40
0.0177534078899156
40
0.340744812432132
40
0.340744812432132
40
0.785966596962005
40
0.785966596962005
40
1
40
1
40
1
40
1
41
1
10
51.8510546870628
20
21.0676195138539
30
0
41
1
10
51.8520935591131
20
21.0678806818585
30
0
41
1
10
51.8531321595046
20
21.0681483436311
30
0
41
1
10
51.8729966272013
20
21.0733948442476
30
0
41
1
10
51.8917885884791
20
21.0805600597552
30
0
41
1
10
51.9347600859257
20
21.1021773103045
30
0
41
1
10
51.9587945413717
20
21.1186148980202
30
0
41
1
10
51.9910000960522
20
21.1473261862982
30
0
41
1
10
52.0010527060187
20
21.1574417207901
30
0
41
1
10
52.010489557929
20
21.1681459458967
30
0
0
SPLINE
5
1E3
100
AcDbEntity
8
1
62
256
6
ByLayer
370
13
48
1
60
0
100
AcDbSpline
70
4
71
3
72
12
73
8
40
0
40
0
40
0
40
0
40
0.559301985460886
40
0.559301985460886
40
0.982067221682947
40
0.982067221682947
40
1
40
1
40
1
40
1
41
1
10
52.010489557929
20
19.8318540541037
30
0
41
1
10
51.9860762799805
20
19.8595460455894
30
0
41
1
10
51.9571861880885
20
19.8834538917284
30
0
41
1
10
51.9034740589433
20
19.9147487114068
30
0
41
1
10
51.8788250511787
20
19.9250657825143
30
0
41
1
10
51.8531321595027
20
19.9318516563681
30
0
41
1
10
51.8520935591125
20
19.9321193181415
30
0
41
1
10
51.8510546870628
20
19.9323804861463
30
0
0
SPLINE
5
1E4
100
AcDbEntity
8
1
62
256
6
ByLayer
370
13
48
1
60
0
100
AcDbSpline
70
4
71
3
72
8
73
4
40
0
40
0
40
0
40
0
40
1
40
1
40
1
40
1
41
1
10
50.6639115680548
20
19.3660827624788
30
0
41
1
10
50.7472851478713
20
19.5048655326217
30
0
41
1
10
50.8165691639539
20
19.6530340750565
30
0
41
1
10
50.8825621452742
20
19.8020329056188
30
0
0
SPLINE
5
1E5
100
AcDbEntity
8
1
62
256
6
ByLayer
370
13
48
1
60
0
100
AcDbSpline
70
4
71
3
72
16
73
12
40
0
40
0
40
0
40
0
40
0.0745951303882249
40
0.0745951303882249
40
0.27553513169183
40
0.27553513169183
40
0.501427420118119
40
0.501427420118119
40
0.725494997757322
40
0.725494997757322
40
1
40
1
40
1
40
1
41
1
10
50.8825621452742
20
19.8020329056188
30
0
41
1
10
50.8837736749442
20
19.8047682950559
30
0
41
1
10
50.8851163296951
20
19.8074427921251
30
0
41
1
10
50.8905147865576
20
19.8169232641778
30
0
41
1
10
50.895461783055
20
19.8232894575224
30
0
41
1
10
50.9076198241713
20
19.8344368670452
30
0
41
1
10
50.915234293716
20
19.8390758328059
30
0
41
1
10
50.9312051191359
20
19.8449689810757
30
0
41
1
10
50.9397662566658
20
19.8463599008623
30
0
41
1
10
50.9585207140202
20
19.8464357990778
30
0
41
1
10
50.9689309570328
20
19.8444954541416
30
0
41
1
10
50.9787842780358
20
19.8412157291369
30
0
0
SPLINE
5
1E6
100
AcDbEntity
8
1
62
256
6
ByLayer
370
13
48
1
60
0
100
AcDbSpline
70
4
71
3
72
16
73
12
40
0
40
0
40
0
40
0
40
0.108772443208259
40
0.108772443208259
40
0.369799377627614
40
0.369799377627614
40
0.571154122074464
40
0.571154122074464
40
0.786314444449857
40
0.786314444449857
40
1
40
1
40
1
40
1
41
1
10
50.9787842780346
20
21.1587842708626
30
0
41
1
10
50.974842530994
20
21.1574722415147
30
0
41
1
10
50.9708295616293
20
21.1563772864692
30
0
41
1
10
50.9571495011343
20
21.1535438589736
30
0
41
1
10
50.9470910912765
20
21.1529839150792
30
0
41
1
10
50.9298590002818
20
21.1554934049089
30
0
41
1
10
50.922392509228
20
21.1578140053035
30
0
41
1
10
50.9083165495633
20
21.1651350048513
30
0
41
1
10
50.901614556307
20
21.1704198216311
30
0
41
1
10
50.8905405846473
20
21.1828976860826
30
0
41
1
10
50.8859929686991
20
21.1902209876348
30
0
41
1
10
50.8825621452759
20
21.1979670943826
30
0
0
SPLINE
5
1E7
100
AcDbEntity
8
1
62
256
6
ByLayer
370
13
48
1
60
0
100
AcDbSpline
70
4
71
3
72
8
73
4
40
0
40
0
40
0
40
0
40
1
40
1
40
1
40
1
41
1
10
50.8825621452734
20
21.1979670943801
30
0
41
1
10
50.8165691639541
20
21.3469659249403
30
0
41
1
10
50.747285147872
20
21.4951344673728
30
0
41
1
10
50.6639115680571
20
21.6339172375139
30
0
0
SPLINE
5
1E8
100
AcDbEntity
8
1
62
256
6
ByLayer
370
13
48
1
60
0
100
AcDbSpline
70
4
71
3
72
10
73
6
40
0
40
0
40
0
40
0
40
0.140418403423082
40
0.140418403423082
40
1
40
1
40
1
40
1
41
1
10
52.2950622867786
20
19.450830550066
30
0
41
1
10
52.2949786281127
20
19.4508331402795
30
0
41
1
10
52.2948949964083
20
19.4508333443652
30
0
41
1
10
52.2943060068435
20
19.4508168280186
30
0
41
1
10
52.293796745917
20
19.4507066152636
30
0
41
1
10
52.2933275812036
20
19.4504695442554
30
0
0
SPLINE
5
1E9
100
AcDbEntity
8
1
62
256
6
ByLayer
370
13
48
1
60
0
100
AcDbSpline
70
4
71
3
72
10
73
6
40
0
40
0
40
0
40
0
40
0.140418403423082
40
0.140418403423082
40
1
40
1
40
1
40
1
41
1
10
52.2950622867786
20
21.5491694499343
30
0
41
1
10
52.2949786281127
20
21.5491668597208
30
0
41
1
10
52.2948949964083
20
21.5491666556351
30
0
41
1
10
52.2943060068435
20
21.5491831719817
30
0
41
1
10
52.293796745917
20
21.5492933847367
30
0
41
1
10
52.2933275812036
20
21.5495304557449
30
0
0
SPLINE
5
1EA
100
AcDbEntity
8
1
62
256
6
ByLayer
370
13
48
1
60
0
100
AcDbSpline
70
4
71
3
72
8
73
4
40
0
40
0
40
0
40
0
40
1
40
1
40
1
40
1
41
1
10
52.3981203716814
20
19.4521519715688
30
0
41
1
10
52.3638409048776
20
19.450295581349
30
0
41
1
10
52.3294607622627
20
19.4497655152029
30
0
41
1
10
52.2950622867787
20
19.450830550066
30
0
0
SPLINE
5
1EB
100
AcDbEntity
8
1
62
256
6
ByLayer
370
13
48
1
60
0
100
AcDbSpline
70
4
71
3
72
8
73
4
40
0
40
0
40
0
40
0
40
1
40
1
40
1
40
1
41
1
10
52.3981203716814
20
21.5478480284315
30
0
41
1
10
52.3638409048776
20
21.5497044186513
30
0
41
1
10
52.3294607622627
20
21.5502344847975
30
0
41
1
10
52.2950622867787
20
21.5491694499343
30
0
0
SPLINE
5
1EC
100
AcDbEntity
8
1
62
256
6
ByLayer
370
13
48
1
60
0
100
AcDbSpline
70
4
71
3
72
8
73
4
40
0
40
0
40
0
40
0
40
1
40
1
40
1
40
1
41
1
10
51.864378753796
20
19.9436896872601
30
0
41
1
10
51.8599671112989
20
19.9399140828982
30
0
41
1
10
51.8555251065502
20
19.9361444422626
30
0
41
1
10
51.8510546870628
20
19.9323804861463
30
0
0
SPLINE
5
1ED
100
AcDbEntity
8
1
62
256
6
ByLayer
370
13
48
1
60
0
100
AcDbSpline
70
4
71
3
72
8
73
4
40
0
40
0
40
0
40
0
40
1
40
1
40
1
40
1
41
1
10
51.8510546870628
20
21.067619513854
30
0
41
1
10
51.8555251065502
20
21.0638555577377
30
0
41
1
10
51.8599671112989
20
21.0600859171021
30
0
41
1
10
51.864378753796
20
21.0563103127402
30
0
0
SPLINE
5
1EE
100
AcDbEntity
8
1
62
256
6
ByLayer
370
13
48
1
60
0
100
AcDbSpline
70
4
71
3
72
12
73
8
40
0
40
0
40
0
40
0
40
0.473871515909109
40
0.473871515909109
40
0.928528687587425
40
0.928528687587425
40
1
40
1
40
1
40
1
41
1
10
52.18962014135
20
20.7885722263196
30
0
41
1
10
52.1605769079864
20
20.8270214794386
30
0
41
1
10
52.138076503972
20
20.8679291362364
30
0
41
1
10
52.1054858788087
20
20.9414716164868
30
0
41
1
10
52.0944900899473
20
20.9751866513817
30
0
41
1
10
52.0859581625812
20
21.0077405523204
30
0
41
1
10
52.084884631021
20
21.0120832781517
30
0
41
1
10
52.0838678419132
20
21.0162732843472
30
0
0
SPLINE
5
1EF
100
AcDbEntity
8
1
62
256
6
ByLayer
370
13
48
1
60
0
100
AcDbSpline
70
4
71
3
72
12
73
8
40
0
40
0
40
0
40
0
40
0.152393412067187
40
0.152393412067187
40
0.68049007519868
40
0.68049007519868
40
1
40
1
40
1
40
1
41
1
10
52.1896201413456
20
20.7885722263146
30
0
41
1
10
52.2346105972805
20
20.7975263045545
30
0
41
1
10
52.2812734171468
20
20.8070165700637
30
0
41
1
10
52.4939294786754
20
20.8510824448217
30
0
41
1
10
52.6774173301441
20
20.8911680904637
30
0
41
1
10
52.978376870561
20
20.9601006649955
30
0
41
1
10
53.0952214954585
20
20.9876055334767
30
0
41
1
10
53.2112677608007
20
21.0158410745109
30
0
0
SPLINE
5
1F0
100
AcDbEntity
8
1
62
256
6
ByLayer
370
13
48
1
60
0
100
AcDbSpline
70
4
71
3
72
12
73
8
40
0
40
0
40
0
40
0
40
0.453713856043948
40
0.453713856043948
40
0.935255270278036
40
0.935255270278036
40
1
40
1
40
1
40
1
41
1
10
52.0838678419132
20
19.9837267156532
30
0
41
1
10
52.0902549278144
20
20.0100467551686
30
0
41
1
10
52.0997841086873
20
20.0423144614419
30
0
41
1
10
52.1293410835708
20
20.1145400013948
30
0
41
1
10
52.1503116579037
20
20.1558187317627
30
0
41
1
10
52.1817069341031
20
20.2007419109995
30
0
41
1
10
52.1855997151617
20
20.2061052814426
30
0
41
1
10
52.1896201413555
20
20.211427773688
30
0
0
SPLINE
5
1F1
100
AcDbEntity
8
1
62
256
6
ByLayer
370
13
48
1
60
0
100
AcDbSpline
70
4
71
3
72
12
73
8
40
0
40
0
40
0
40
0
40
0.152393412053729
40
0.152393412053729
40
0.680490075193607
40
0.680490075193607
40
1
40
1
40
1
40
1
41
1
10
52.1896201413597
20
20.2114277736829
30
0
41
1
10
52.2346105972902
20
20.2024736954438
30
0
41
1
10
52.2812734171517
20
20.1929834299356
30
0
41
1
10
52.4939294786754
20
20.1489175551787
30
0
41
1
10
52.6774173301441
20
20.1088319095366
30
0
41
1
10
52.978376870561
20
20.0398993350048
30
0
41
1
10
53.0952214954585
20
20.0123944665236
30
0
41
1
10
53.2112677608007
20
19.9841589254894
30
0
0
SPLINE
5
1F2
100
AcDbEntity
8
1
62
256
6
ByLayer
370
13
48
1
60
0
100
AcDbSpline
70
4
71
3
72
16
73
12
40
0
40
0
40
0
40
0
40
0.257384746008501
40
0.257384746008501
40
0.483485531381172
40
0.483485531381172
40
0.71945910330869
40
0.71945910330869
40
0.925748185145375
40
0.925748185145375
40
1
40
1
40
1
40
1
41
1
10
51.0610166945645
20
20.0059117968519
30
0
41
1
10
51.0316687367362
20
20.0084138467548
30
0
41
1
10
51.0016686457385
20
20.0069683264854
30
0
41
1
10
50.9476222628196
20
19.9969744188348
30
0
41
1
10
50.9228412392242
20
19.9892230637996
30
0
41
1
10
50.8759336807441
20
19.9678219851449
30
0
41
1
10
50.8535298246701
20
19.9537231001812
30
0
41
1
10
50.8168300974003
20
19.9226862580084
30
0
41
1
10
50.8015959942175
20
19.9060947908694
30
0
41
1
10
50.7843415664157
20
19.8815849727748
30
0
41
1
10
50.7800684610182
20
19.8748615219033
30
0
41
1
10
50.7761342837701
20
19.8679710346714
30
0
0
SPLINE
5
1F3
100
AcDbEntity
8
1
62
256
6
ByLayer
370
13
48
1
60
0
100
AcDbSpline
70
4
71
3
72
16
73
12
40
0
40
0
40
0
40
0
40
0.215940694014332
40
0.215940694014332
40
0.440749342864023
40
0.440749342864023
40
0.6480631149087
40
0.6480631149087
40
0.900502256755734
40
0.900502256755734
40
1
40
1
40
1
40
1
41
1
10
50.7761342837701
20
21.1320289653275
30
0
41
1
10
50.7874887091377
20
21.1121423364116
30
0
41
1
10
50.8017703058923
20
21.0935638401864
30
0
41
1
10
50.8355311178213
20
21.0600806071033
30
0
41
1
10
50.8554935542141
20
21.0450642385113
30
0
41
1
10
50.8971485157203
20
21.0215249129443
30
0
41
1
10
50.9188925805651
20
21.0124103522791
30
0
41
1
10
50.9687388690062
20
20.9978535484767
30
0
41
1
10
50.9977360562636
20
20.9934778794566
30
0
41
1
10
51.0380565109323
20
20.9927292966026
30
0
41
1
10
51.0495709364866
20
20.9931123990364
30
0
41
1
10
51.0610166945642
20
20.994088203147
30
0
0
SPLINE
5
1F4
100
AcDbEntity
8
1
62
256
6
ByLayer
370
13
48
1
60
0
100
AcDbSpline
70
4
71
3
72
14
73
10
40
0
40
0
40
0
40
0
40
0.0140696667047013
40
0.0140696667047013
40
0.158297294424887
40
0.158297294424887
40
0.557403345933072
40
0.557403345933072
40
1
40
1
40
1
40
1
41
1
10
51.0387159227632
20
20.8390329632412
30
0
41
1
10
51.0375460584102
20
20.8388697931994
30
0
41
1
10
51.0363754680049
20
20.8387106629966
30
0
41
1
10
51.0230171191251
20
20.8369343237185
30
0
41
1
10
51.010745606981
20
20.8357030729082
30
0
41
1
10
50.9650925286651
20
20.8325609740112
30
0
41
1
10
50.9314247709742
20
20.8331854341252
30
0
41
1
10
50.8656728605842
20
20.8402964457493
30
0
41
1
10
50.8330791217041
20
20.8475289890552
30
0
41
1
10
50.8056329534176
20
20.8576935565737
30
0
0
SPLINE
5
1F5
100
AcDbEntity
8
1
62
256
6
ByLayer
370
13
48
1
60
0
100
AcDbSpline
70
4
71
3
72
8
73
4
40
0
40
0
40
0
40
0
40
1
40
1
40
1
40
1
41
1
10
50.8056329534174
20
20.8576935565951
30
0
41
1
10
50.796339183532
20
20.8611354633304
30
0
41
1
10
50.7875722949159
20
20.8645951739493
30
0
41
1
10
50.7794417210372
20
20.8679978802814
30
0
0
SPLINE
5
1F6
100
AcDbEntity
8
1
62
256
6
ByLayer
370
13
48
1
60
0
100
AcDbSpline
70
4
71
3
72
10
73
6
40
0
40
0
40
0
40
0
40
0.782589980152529
40
0.782589980152529
40
1
40
1
40
1
40
1
41
1
10
50.7761342837701
20
21.1320289653275
30
0
41
1
10
50.7750264075113
20
21.0721131959132
30
0
41
1
10
50.7733409185196
20
21.0027716116345
30
0
41
1
10
50.7768419616687
20
20.9097017149475
30
0
41
1
10
50.7779402791544
20
20.8889750972197
30
0
41
1
10
50.7794417210385
20
20.8679978802835
30
0
0
SPLINE
5
1F7
100
AcDbEntity
8
1
62
256
6
ByLayer
370
13
48
1
60
0
100
AcDbSpline
70
4
71
3
72
10
73
6
40
0
40
0
40
0
40
0
40
0.217410019846355
40
0.217410019846355
40
1
40
1
40
1
40
1
41
1
10
50.7794417210371
20
20.1320021197181
30
0
41
1
10
50.777940279153
20
20.1110249027819
30
0
41
1
10
50.7768419616687
20
20.0902982850529
30
0
41
1
10
50.7733409185196
20
19.9972283883652
30
0
41
1
10
50.7750264075113
20
19.927886804086
30
0
41
1
10
50.7761342837701
20
19.8679710346713
30
0
0
SPLINE
5
1F8
100
AcDbEntity
8
1
62
256
6
ByLayer
370
13
48
1
60
0
100
AcDbSpline
70
4
71
3
72
8
73
4
40
0
40
0
40
0
40
0
40
1
40
1
40
1
40
1
41
1
10
50.7794417210371
20
20.1320021197181
30
0
41
1
10
50.7875722949159
20
20.1354048260502
30
0
41
1
10
50.796339183532
20
20.1388645366699
30
0
41
1
10
50.8056329534174
20
20.1423064434052
30
0
0
SPLINE
5
1F9
100
AcDbEntity
8
1
62
256
6
ByLayer
370
13
48
1
60
0
100
AcDbSpline
70
4
71
3
72
14
73
10
40
0
40
0
40
0
40
0
40
0.362290872375782
40
0.362290872375782
40
0.75921727113372
40
0.75921727113372
40
0.985981513552925
40
0.985981513552925
40
1
40
1
40
1
40
1
41
1
10
50.8056329534176
20
20.1423064434267
30
0
41
1
10
50.8281812464505
20
20.1506571044212
30
0
41
1
10
50.8541207849953
20
20.1570263758704
30
0
41
1
10
50.9118571823038
20
20.1655169866086
30
0
41
1
10
50.9447419197083
20
20.1672933991345
30
0
41
1
10
50.9968158183065
20
20.1655643617065
30
0
41
1
10
51.0161285437686
20
20.1639816912565
30
0
41
1
10
51.0363754679909
20
20.1612893369913
30
0
41
1
10
51.0375460583942
20
20.1611302068003
30
0
41
1
10
51.0387159227443
20
20.160967036763
30
0
0
SPLINE
5
1FA
100
AcDbEntity
8
1
62
256
6
ByLayer
370
13
48
1
60
0
100
AcDbSpline
70
4
71
3
72
12
73
8
40
0
40
0
40
0
40
0
40
0.027753964396557
40
0.027753964396557
40
0.667826589987148
40
0.667826589987148
40
1
40
1
40
1
40
1
41
1
10
50.6639115680571
20
21.6339172375139
30
0
41
1
10
50.6630224938299
20
21.6334053128851
30
0
41
1
10
50.6621362973345
20
21.6328934632915
30
0
41
1
10
50.641139438886
20
21.6207199071672
30
0
41
1
10
50.6223677783528
20
21.6088525752807
30
0
41
1
10
50.5985834198732
20
21.5922216916318
30
0
41
1
10
50.5911418620728
20
21.5866795266791
30
0
41
1
10
50.5846560826641
20
21.5814799390647
30
0
0
SPLINE
5
1FB
100
AcDbEntity
8
1
62
256
6
ByLayer
370
13
48
1
60
0
100
AcDbSpline
70
4
71
3
72
10
73
6
40
0
40
0
40
0
40
0
40
0.820434354426583
40
0.820434354426583
40
1
40
1
40
1
40
1
41
1
10
50.5772670677278
20
21.5759843313461
30
0
41
1
10
50.6373176229178
20
21.4572675818096
30
0
41
1
10
50.6907218307757
20
21.3351837494845
30
0
41
1
10
50.7537878651402
20
21.1858122906328
30
0
41
1
10
50.7650067820629
20
21.1589382774984
30
0
41
1
10
50.7761342837705
20
21.1320289653278
30
0
0
SPLINE
5
1FC
100
AcDbEntity
8
1
62
256
6
ByLayer
370
13
48
1
60
0
100
AcDbSpline
70
4
71
3
72
8
73
4
40
0
40
0
40
0
40
0
40
1
40
1
40
1
40
1
41
1
10
50.5846560826641
20
21.5814799390647
30
0
41
1
10
50.5821308679729
20
21.5794554984846
30
0
41
1
10
50.5796628452491
20
21.5776198014662
30
0
41
1
10
50.5772670677278
20
21.5759843313461
30
0
0
SPLINE
5
1FD
100
AcDbEntity
8
1
62
256
6
ByLayer
370
13
48
1
60
0
100
AcDbSpline
70
4
71
3
72
12
73
8
40
0
40
0
40
0
40
0
40
0.0278313206712517
40
0.0278313206712517
40
0.611473023609022
40
0.611473023609022
40
1
40
1
40
1
40
1
41
1
10
50.6639115680654
20
19.3660827624966
30
0
41
1
10
50.6630224938381
20
19.3665946871225
30
0
41
1
10
50.6621362973421
20
19.3671065367122
30
0
41
1
10
50.6428803330612
20
19.3782707573777
30
0
41
1
10
50.6256423082254
20
19.3890812470148
30
0
41
1
10
50.6010972420243
20
19.4059177097568
30
0
41
1
10
50.5922210960019
20
19.4124552617534
30
0
41
1
10
50.584656082664
20
19.4185200609358
30
0
0
SPLINE
5
1FE
100
AcDbEntity
8
1
62
256
6
ByLayer
370
13
48
1
60
0
100
AcDbSpline
70
4
71
3
72
8
73
4
40
0
40
0
40
0
40
0
40
1
40
1
40
1
40
1
41
1
10
50.584656082664
20
19.4185200609358
30
0
41
1
10
50.5821308679728
20
19.4205445015158
30
0
41
1
10
50.5796628452491
20
19.4223801985342
30
0
41
1
10
50.5772670677278
20
19.4240156686542
30
0
0
SPLINE
5
1FF
100
AcDbEntity
8
1
62
256
6
ByLayer
370
13
48
1
60
0
100
AcDbSpline
70
4
71
3
72
10
73
6
40
0
40
0
40
0
40
0
40
0.819881036339605
40
0.819881036339605
40
1
40
1
40
1
40
1
41
1
10
50.7761342837701
20
19.8679710346713
30
0
41
1
10
50.7253430321445
20
19.7451440352745
30
0
41
1
10
50.6729973133248
20
19.6228064698028
30
0
41
1
10
50.6032770273131
20
19.4763577903355
30
0
41
1
10
50.5904566776892
20
19.4500908251171
30
0
41
1
10
50.5772670677279
20
19.4240156686542
30
0
0
SPLINE
5
200
100
AcDbEntity
8
1
62
256
6
ByLayer
370
13
48
1
60
0
100
AcDbSpline
70
4
71
3
72
12
73
8
40
0
40
0
40
0
40
0
40
0.0277499781510944
40
0.0277499781510944
40
0.667808133384293
40
0.667808133384293
40
1
40
1
40
1
40
1
41
1
10
50.663911568057
20
21.6339172375139
30
0
41
1
10
50.6629034320477
20
21.6338388200702
30
0
41
1
10
50.6618982158727
20
21.6337604048594
30
0
41
1
10
50.6380665525594
20
21.6318956322486
30
0
41
1
10
50.61651808857
20
21.6300806513407
30
0
41
1
10
50.5888224267558
20
21.6275408471304
30
0
41
1
10
50.580073554872
20
21.6266951287326
30
0
41
1
10
50.5723583203581
20
21.6259022231319
30
0
0
SPLINE
5
201
100
AcDbEntity
8
1
62
256
6
ByLayer
370
13
48
1
60
0
100
AcDbSpline
70
4
71
3
72
12
73
8
40
0
40
0
40
0
40
0
40
0.0278272716373759
40
0.0278272716373759
40
0.611453167879501
40
0.611453167879501
40
1
40
1
40
1
40
1
41
1
10
50.6639115680571
20
19.3660827624864
30
0
41
1
10
50.6629034319402
20
19.3661611783508
30
0
41
1
10
50.6618982154425
20
19.3662395888239
30
0
41
1
10
50.6400426145075
20
19.3679497737469
30
0
41
1
10
50.6202762805606
20
19.3696033404848
30
0
41
1
10
50.5917749645618
20
19.372175216829
30
0
41
1
10
50.5813573467758
20
19.3731729341518
30
0
41
1
10
50.5723583203581
20
19.3740977768684
30
0
0
SPLINE
5
202
100
AcDbEntity
8
1
62
256
6
ByLayer
370
13
48
1
60
0
100
AcDbSpline
70
4
71
3
72
26
73
22
40
0
40
0
40
0
40
0
40
0.102035501666901
40
0.102035501666901
40
0.129284389714829
40
0.129284389714829
40
0.254161410871578
40
0.254161410871578
40
0.386333886983898
40
0.386333886983898
40
0.523125606178389
40
0.523125606178389
40
0.658908540792033
40
0.658908540792033
40
0.795133361230144
40
0.795133361230144
40
0.895568684120736
40
0.895568684120736
40
0.931575554525879
40
0.931575554525879
40
1
40
1
40
1
40
1
41
1
10
50.9964890019635
20
20.6973354503652
30
0
41
1
10
51.0131393767335
20
20.6920158765306
30
0
41
1
10
51.0291034127914
20
20.6843449067293
30
0
41
1
10
51.0463800184522
20
20.6721279626761
30
0
41
1
10
51.04992822141
20
20.6693689521748
30
0
41
1
10
51.0686371526018
20
20.6534299623417
30
0
41
1
10
51.0810099307051
20
20.637401709413
30
0
41
1
10
51.1005417637305
20
20.6011260790161
30
0
41
1
10
51.1077186636934
20
20.5801138895917
30
0
41
1
10
51.116817379671
20
20.5357350472805
30
0
41
1
10
51.1186673668159
20
20.5116744656626
30
0
41
1
10
51.1168386014334
20
20.4648707988775
30
0
41
1
10
51.1131780830523
20
20.4414781392257
30
0
41
1
10
51.1002714091329
20
20.3983407554104
30
0
41
1
10
51.0908281262292
20
20.3779715024794
30
0
41
1
10
51.068731185536
20
20.347496703375
30
0
41
1
10
51.0572851116735
20
20.3358032034335
30
0
41
1
10
51.0391386222023
20
20.3226853626636
30
0
41
1
10
51.0340445533438
20
20.3194433721893
30
0
41
1
10
51.0187059419968
20
20.3108943974577
30
0
41
1
10
51.0077600338148
20
20.3062654947762
30
0
41
1
10
50.9964890019635
20
20.3026645496351
30
0
0
SPLINE
5
203
100
AcDbEntity
8
1
62
256
6
ByLayer
370
13
48
1
60
0
100
AcDbSpline
70
4
71
3
72
14
73
10
40
0
40
0
40
0
40
0
40
0.27475847941734
40
0.27475847941734
40
0.512436463803127
40
0.512436463803127
40
0.749993769781322
40
0.749993769781322
40
1
40
1
40
1
40
1
41
1
10
52.1896201413547
20
20.2114277736886
30
0
41
1
10
52.2118015893238
20
20.2595648572766
30
0
41
1
10
52.2306589366166
20
20.3110895546408
30
0
41
1
10
52.253462576975
20
20.4108959818219
30
0
41
1
10
52.2590594822313
20
20.4594449099431
30
0
41
1
10
52.2578279543455
20
20.555474774046
30
0
41
1
10
52.2510126304754
20
20.6037525640155
30
0
41
1
10
52.2272786525577
20
20.6980754040383
30
0
41
1
10
52.2098376614737
20
20.744697162013
30
0
41
1
10
52.1896201413508
20
20.7885722263202
30
0
0
SPLINE
5
204
100
AcDbEntity
8
1
62
256
6
ByLayer
370
13
48
1
60
0
100
AcDbSpline
70
4
71
3
72
8
73
4
40
0
40
0
40
0
40
0
40
1
40
1
40
1
40
1
41
1
10
50.5705951003268
20
19.3745620718648
30
0
41
1
10
50.5711929686634
20
19.3745620718648
30
0
41
1
10
50.5717967952489
20
19.3744118730188
30
0
41
1
10
50.5723583203562
20
19.3740977768831
30
0
0
SPLINE
5
205
100
AcDbEntity
8
1
62
256
6
ByLayer
370
13
48
1
60
0
100
AcDbSpline
70
4
71
3
72
8
73
4
40
0
40
0
40
0
40
0
40
1
40
1
40
1
40
1
41
1
10
50.5723583203562
20
21.6259022231306
30
0
41
1
10
50.5717967952486
20
21.6255881269942
30
0
41
1
10
50.5711929686638
20
21.6254379281355
30
0
41
1
10
50.5705951003268
20
21.6254379281355
30
0
0
SPLINE
5
206
100
AcDbEntity
8
1
62
256
6
ByLayer
370
13
48
1
60
0
100
AcDbSpline
70
4
71
3
72
10
73
6
40
0
40
0
40
0
40
0
40
0.84896187346875
40
0.84896187346875
40
1
40
1
40
1
40
1
41
1
10
54.9256851850747
20
21.2647657471105
30
0
41
1
10
54.8912977154034
20
21.3166085502538
30
0
41
1
10
54.843874742716
20
21.3600641980189
30
0
41
1
10
54.7838155264512
20
21.4020697721385
30
0
41
1
10
54.7744787017949
20
21.408263707778
30
0
41
1
10
54.7650107000385
20
21.4142433192399
30
0
0
SPLINE
5
207
100
AcDbEntity
8
1
62
256
6
ByLayer
370
13
48
1
60
0
100
AcDbSpline
70
4
71
3
72
8
73
4
40
0
40
0
40
0
40
0
40
1
40
1
40
1
40
1
41
1
10
54.7650107000385
20
21.4142433192399
30
0
41
1
10
54.7210937227593
20
21.441979526675
30
0
41
1
10
54.6769798114244
20
21.4694091746338
30
0
41
1
10
54.6325607479569
20
21.4963326630826
30
0
0
SPLINE
5
208
100
AcDbEntity
8
1
62
256
6
ByLayer
370
13
48
1
60
0
100
AcDbSpline
70
4
71
3
72
10
73
6
40
0
40
0
40
0
40
0
40
0.657586553479613
40
0.657586553479613
40
1
40
1
40
1
40
1
41
1
10
54.6325607479569
20
21.4963326630826
30
0
41
1
10
54.6092305437702
20
21.5104736744839
30
0
41
1
10
54.5864384919003
20
21.5257970940436
30
0
41
1
10
54.5548281900598
20
21.5527058945894
30
0
41
1
10
54.5444660370968
20
21.5626353341108
30
0
41
1
10
54.535515563742
20
21.5737056108808
30
0
0
SPLINE
5
209
100
AcDbEntity
8
1
62
256
6
ByLayer
370
13
48
1
60
0
100
AcDbSpline
70
4
71
3
72
10
73
6
40
0
40
0
40
0
40
0
40
0.657586553479614
40
0.657586553479614
40
1
40
1
40
1
40
1
41
1
10
54.6325607479569
20
19.5036673369177
30
0
41
1
10
54.6092305437702
20
19.4895263255165
30
0
41
1
10
54.5864384919003
20
19.4742029059568
30
0
41
1
10
54.5548281900598
20
19.447294105411
30
0
41
1
10
54.5444660370968
20
19.4373646658895
30
0
41
1
10
54.535515563742
20
19.4262943891195
30
0
0
SPLINE
5
20A
100
AcDbEntity
8
1
62
256
6
ByLayer
370
13
48
1
60
0
100
AcDbSpline
70
4
71
3
72
8
73
4
40
0
40
0
40
0
40
0
40
1
40
1
40
1
40
1
41
1
10
54.7650107000385
20
19.5857566807605
30
0
41
1
10
54.7210937227593
20
19.5580204733253
30
0
41
1
10
54.6769798114244
20
19.5305908253665
30
0
41
1
10
54.6325607479569
20
19.5036673369177
30
0
0
SPLINE
5
20B
100
AcDbEntity
8
1
62
256
6
ByLayer
370
13
48
1
60
0
100
AcDbSpline
70
4
71
3
72
10
73
6
40
0
40
0
40
0
40
0
40
0.84896187346875
40
0.84896187346875
40
1
40
1
40
1
40
1
41
1
10
54.9256851850747
20
19.7352342528898
30
0
41
1
10
54.8912977154034
20
19.6833914497465
30
0
41
1
10
54.843874742716
20
19.6399358019814
30
0
41
1
10
54.7838155264512
20
19.5979302278619
30
0
41
1
10
54.7744787017949
20
19.5917362922224
30
0
41
1
10
54.7650107000385
20
19.5857566807605
30
0
0
SPLINE
5
20C
100
AcDbEntity
8
1
62
256
6
ByLayer
370
13
48
1
60
0
100
AcDbSpline
70
4
71
3
72
14
73
10
40
0
40
0
40
0
40
0
40
0.0140322366304758
40
0.0140322366304758
40
0.158091565624719
40
0.158091565624719
40
0.557043656612004
40
0.557043656612004
40
1
40
1
40
1
40
1
41
1
10
51.0387159228241
20
20.8390329632515
30
0
41
1
10
51.0379360645915
20
20.8382722303592
30
0
41
1
10
51.0371559091054
20
20.8375149462293
30
0
41
1
10
51.028231668599
20
20.8289164348867
30
0
41
1
10
51.0199670064645
20
20.8214961540123
30
0
41
1
10
50.9889415558847
20
20.7956326020391
30
0
41
1
10
50.965536858211
20
20.7801946929805
30
0
41
1
10
50.9187541033904
20
20.7575108553182
30
0
41
1
10
50.8949133424734
20
20.7509900929663
30
0
41
1
10
50.8743263124385
20
20.7504858645477
30
0
0
SPLINE
5
20D
100
AcDbEntity
8
1
62
256
6
ByLayer
370
13
48
1
60
0
100
AcDbSpline
70
4
71
3
72
14
73
10
40
0
40
0
40
0
40
0
40
0.362636115875106
40
0.362636115875106
40
0.759502173372961
40
0.759502173372961
40
0.986017775516147
40
0.986017775516147
40
1
40
1
40
1
40
1
41
1
10
50.8743263124385
20
20.2495141354526
30
0
41
1
10
50.8912406290798
20
20.2490998610712
30
0
41
1
10
50.9102969105352
20
20.2446666712415
30
0
41
1
10
50.9517568775429
20
20.2275878894303
30
0
41
1
10
50.9748386743135
20
20.2139874052553
30
0
41
1
10
51.0105592323138
20
20.1867736414942
30
0
41
1
10
51.023626747303
20
20.1755204096801
30
0
41
1
10
51.0371559091053
20
20.162485053771
30
0
41
1
10
51.0379360645914
20
20.1617277696411
30
0
41
1
10
51.0387159228241
20
20.1609670367489
30
0
0
SPLINE
5
20E
100
AcDbEntity
8
1
62
256
6
ByLayer
370
13
48
1
60
0
100
AcDbSpline
70
4
71
3
72
8
73
4
40
0
40
0
40
0
40
0
40
1
40
1
40
1
40
1
41
1
10
50.8743263124397
20
20.7504858645453
30
0
41
1
10
50.9107270135584
20
20.7324713206333
30
0
41
1
10
50.9486103280918
20
20.715880115889
30
0
41
1
10
50.9875073723822
20
20.7007556517985
30
0
0
SPLINE
5
20F
100
AcDbEntity
8
1
62
256
6
ByLayer
370
13
48
1
60
0
100
AcDbSpline
70
4
71
3
72
10
73
6
40
0
40
0
40
0
40
0
40
0.638823417468865
40
0.638823417468865
40
1
40
1
40
1
40
1
41
1
10
54.5900286630425
20
19.5649760336645
30
0
41
1
10
54.566841990865
20
19.5452893420746
30
0
41
1
10
54.5449724664755
20
19.5234977123014
30
0
41
1
10
54.5161775948407
20
19.4849801270105
30
0
41
1
10
54.5068123576004
20
19.4700017043652
30
0
41
1
10
54.4995116901682
20
19.4540020401827
30
0
0
SPLINE
5
210
100
AcDbEntity
8
1
62
256
6
ByLayer
370
13
48
1
60
0
100
AcDbSpline
70
4
71
3
72
16
73
12
40
0
40
0
40
0
40
0
40
0.0355702320992689
40
0.0355702320992689
40
0.09050817101665
40
0.09050817101665
40
0.198049233530909
40
0.198049233530909
40
0.436780146594192
40
0.436780146594192
40
1
40
1
40
1
40
1
41
1
10
54.4647600217562
20
19.3736779644136
30
0
41
1
10
54.4651586810188
20
19.3746447403763
30
0
41
1
10
54.4655584542085
20
19.3756110788681
30
0
41
1
10
54.4665771815565
20
19.3780731450459
30
0
41
1
10
54.4671970808021
20
19.3795684910596
30
0
41
1
10
54.4690334070427
20
19.3839887990457
30
0
41
1
10
54.4702528942053
20
19.3869122037451
30
0
41
1
10
54.4741930527674
20
19.3963101614073
30
0
41
1
10
54.4769343827304
20
19.4027719402658
30
0
41
1
10
54.4861946238307
20
19.4243405639443
30
0
41
1
10
54.4928248586495
20
19.4393476185492
30
0
41
1
10
54.4995116901682
20
19.4540020401827
30
0
0
SPLINE
5
211
100
AcDbEntity
8
1
62
256
6
ByLayer
370
13
48
1
60
0
100
AcDbSpline
70
4
71
3
72
8
73
4
40
0
40
0
40
0
40
0
40
1
40
1
40
1
40
1
41
1
10
54.4647600217523
20
19.3736779644117
30
0
41
1
10
54.3478492133727
20
19.3429264091242
30
0
41
1
10
54.2265101800571
20
19.3279427131974
30
0
41
1
10
54.1060768987951
20
19.3251312018678
30
0
0
SPLINE
5
212
100
AcDbEntity
8
1
62
256
6
ByLayer
370
13
48
1
60
0
100
AcDbSpline
70
4
71
3
72
16
73
12
40
0
40
0
40
0
40
0
40
0.0355702320992689
40
0.0355702320992689
40
0.09050817101665
40
0.09050817101665
40
0.198049233530909
40
0.198049233530909
40
0.436780146594192
40
0.436780146594192
40
1
40
1
40
1
40
1
41
1
10
54.4647600217562
20
21.6263220355867
30
0
41
1
10
54.4651586810188
20
21.625355259624
30
0
41
1
10
54.4655584542085
20
21.6243889211322
30
0
41
1
10
54.4665771815565
20
21.6219268549545
30
0
41
1
10
54.4671970808021
20
21.6204315089407
30
0
41
1
10
54.4690334070427
20
21.6160112009547
30
0
41
1
10
54.4702528942053
20
21.6130877962552
30
0
41
1
10
54.4741930527674
20
21.6036898385931
30
0
41
1
10
54.4769343827304
20
21.5972280597345
30
0
41
1
10
54.4861946238307
20
21.575659436056
30
0
41
1
10
54.4928248586495
20
21.5606523814511
30
0
41
1
10
54.4995116901682
20
21.5459979598176
30
0
0
SPLINE
5
213
100
AcDbEntity
8
1
62
256
6
ByLayer
370
13
48
1
60
0
100
AcDbSpline
70
4
71
3
72
8
73
4
40
0
40
0
40
0
40
0
40
1
40
1
40
1
40
1
41
1
10
50.9875073723822
20
20.2992443482018
30
0
41
1
10
50.9486103280918
20
20.2841198841113
30
0
41
1
10
50.9107270135584
20
20.2675286793671
30
0
41
1
10
50.8743263124397
20
20.249514135455
30
0
0
SPLINE
5
214
100
AcDbEntity
8
1
62
256
6
ByLayer
370
13
48
1
60
0
100
AcDbSpline
70
4
71
3
72
10
73
6
40
0
40
0
40
0
40
0
40
0.638823417468865
40
0.638823417468865
40
1
40
1
40
1
40
1
41
1
10
54.5900286630425
20
21.4350239663358
30
0
41
1
10
54.566841990865
20
21.4547106579258
30
0
41
1
10
54.5449724664755
20
21.4765022876989
30
0
41
1
10
54.5161775948407
20
21.5150198729898
30
0
41
1
10
54.5068123576004
20
21.5299982956351
30
0
41
1
10
54.4995116901682
20
21.5459979598176
30
0
0
SPLINE
5
215
100
AcDbEntity
8
1
62
256
6
ByLayer
370
13
48
1
60
0
100
AcDbSpline
70
4
71
3
72
8
73
4
40
0
40
0
40
0
40
0
40
1
40
1
40
1
40
1
41
1
10
50.9875073723822
20
20.7007556517985
30
0
41
1
10
50.990499776207
20
20.6996155679646
30
0
41
1
10
50.9934936621595
20
20.6984755003692
30
0
41
1
10
50.9964890019635
20
20.6973354503652
30
0
0
SPLINE
5
216
100
AcDbEntity
8
1
62
256
6
ByLayer
370
13
48
1
60
0
100
AcDbSpline
70
4
71
3
72
8
73
4
40
0
40
0
40
0
40
0
40
1
40
1
40
1
40
1
41
1
10
54.4647600217523
20
21.6263220355886
30
0
41
1
10
54.3478492133727
20
21.6570735908762
30
0
41
1
10
54.2265101800571
20
21.672057286803
30
0
41
1
10
54.1060768987951
20
21.6748687981326
30
0
0
SPLINE
5
217
100
AcDbEntity
8
1
62
256
6
ByLayer
370
13
48
1
60
0
100
AcDbSpline
70
4
71
3
72
8
73
4
40
0
40
0
40
0
40
0
40
1
40
1
40
1
40
1
41
1
10
50.9964890019635
20
20.3026645496351
30
0
41
1
10
50.9934936621595
20
20.3015244996311
30
0
41
1
10
50.990499776207
20
20.3003844320357
30
0
41
1
10
50.9875073723822
20
20.2992443482018
30
0
0
SPLINE
5
218
100
AcDbEntity
8
1
62
256
6
ByLayer
370
13
48
1
60
0
100
AcDbSpline
70
4
71
3
72
8
73
4
40
0
40
0
40
0
40
0
40
1
40
1
40
1
40
1
41
1
10
50.8661840397672
20
20.7510243555529
30
0
41
1
10
50.8686096513477
20
20.7510243555529
30
0
41
1
10
50.8713428169146
20
20.7508483599021
30
0
41
1
10
50.8743263124381
20
20.7504858645477
30
0
0
SPLINE
5
219
100
AcDbEntity
8
1
62
256
6
ByLayer
370
13
48
1
60
0
100
AcDbSpline
70
4
71
3
72
8
73
4
40
0
40
0
40
0
40
0
40
1
40
1
40
1
40
1
41
1
10
50.8743263124385
20
20.2495141354526
30
0
41
1
10
50.871342816915
20
20.2491516400982
30
0
41
1
10
50.8686096513474
20
20.2489756444473
30
0
41
1
10
50.8661840397669
20
20.2489756444473
30
0
0
SPLINE
5
21A
100
AcDbEntity
8
1
62
256
6
ByLayer
370
13
48
1
60
0
100
AcDbSpline
70
4
71
3
72
16
73
12
40
0
40
0
40
0
40
0
40
0.0355303527441481
40
0.0355303527441481
40
0.0917680599187357
40
0.0917680599187357
40
0.200182520092063
40
0.200182520092063
40
0.439533504711995
40
0.439533504711995
40
1
40
1
40
1
40
1
41
1
10
54.4647600217523
20
19.3736779644117
30
0
41
1
10
54.4655855998636
20
19.3743116919937
30
0
41
1
10
54.4664120929671
20
19.3749449260107
30
0
41
1
10
54.4685507889317
20
19.3765828455442
30
0
41
1
10
54.4698640688781
20
19.3775871593143
30
0
41
1
10
54.4737129338245
20
19.3805260228998
30
0
41
1
10
54.4762525536656
20
19.382459481592
30
0
41
1
10
54.4844114693382
20
19.3886507387097
30
0
41
1
10
54.4900517136001
20
19.3928990594863
30
0
41
1
10
54.5089188273347
20
19.4069955282562
30
0
41
1
10
54.5222466489562
20
19.4167682610636
30
0
41
1
10
54.535515563742
20
19.4262943891195
30
0
0
SPLINE
5
21B
100
AcDbEntity
8
1
62
256
6
ByLayer
370
13
48
1
60
0
100
AcDbSpline
70
4
71
3
72
16
73
12
40
0
40
0
40
0
40
0
40
0.0355303527441481
40
0.0355303527441481
40
0.0917680599187357
40
0.0917680599187357
40
0.200182520092063
40
0.200182520092063
40
0.439533504711995
40
0.439533504711995
40
1
40
1
40
1
40
1
41
1
10
54.4647600217523
20
21.6263220355886
30
0
41
1
10
54.4655855998636
20
21.6256883080066
30
0
41
1
10
54.4664120929671
20
21.6250550739896
30
0
41
1
10
54.4685507889317
20
21.6234171544561
30
0
41
1
10
54.4698640688781
20
21.622412840686
30
0
41
1
10
54.4737129338245
20
21.6194739771006
30
0
41
1
10
54.4762525536656
20
21.6175405184083
30
0
41
1
10
54.4844114693382
20
21.6113492612906
30
0
41
1
10
54.4900517136001
20
21.607100940514
30
0
41
1
10
54.5089188273347
20
21.5930044717441
30
0
41
1
10
54.5222466489562
20
21.5832317389367
30
0
41
1
10
54.535515563742
20
21.5737056108808
30
0
0
SPLINE
5
21C
100
AcDbEntity
8
1
62
256
6
ByLayer
370
13
48
1
60
0
100
AcDbSpline
70
4
71
3
72
10
73
6
40
0
40
0
40
0
40
0
40
0.155061591761428
40
0.155061591761428
40
1
40
1
40
1
40
1
41
1
10
54.7213895076228
20
21.3536987770379
30
0
41
1
10
54.7304066184318
20
21.3488929319822
30
0
41
1
10
54.7393274149502
20
21.3439019696704
30
0
41
1
10
54.7954797246052
20
21.3107807762728
30
0
41
1
10
54.8409287471059
20
21.2765179393008
30
0
41
1
10
54.8749811562301
20
21.2334129109397
30
0
0
SPLINE
5
21D
100
AcDbEntity
8
1
62
256
6
ByLayer
370
13
48
1
60
0
100
AcDbSpline
70
4
71
3
72
8
73
4
40
0
40
0
40
0
40
0
40
1
40
1
40
1
40
1
41
1
10
54.1060768987951
20
21.6748687981326
30
0
41
1
10
53.9916360304014
20
21.6776921713634
30
0
41
1
10
53.8749005955276
20
21.6739389632709
30
0
41
1
10
53.7587805434612
20
21.6784092273825
30
0
0
SPLINE
5
21E
100
AcDbEntity
8
1
62
256
6
ByLayer
370
13
48
1
60
0
100
AcDbSpline
70
4
71
3
72
8
73
4
40
0
40
0
40
0
40
0
40
1
40
1
40
1
40
1
41
1
10
54.1060768987951
20
19.3251312018678
30
0
41
1
10
53.9916360304014
20
19.3223078286369
30
0
41
1
10
53.8749005955276
20
19.3260610367294
30
0
41
1
10
53.7587805434612
20
19.3215907726178
30
0
0
SPLINE
5
21F
100
AcDbEntity
8
1
62
256
6
ByLayer
370
13
48
1
60
0
100
AcDbSpline
70
4
71
3
72
10
73
6
40
0
40
0
40
0
40
0
40
0.155061591761428
40
0.155061591761428
40
1
40
1
40
1
40
1
41
1
10
54.7213895076228
20
19.6463012229624
30
0
41
1
10
54.7304066184318
20
19.6511070680181
30
0
41
1
10
54.7393274149502
20
19.65609803033
30
0
41
1
10
54.7954797246052
20
19.6892192237276
30
0
41
1
10
54.8409287471059
20
19.7234820606996
30
0
41
1
10
54.8749811562301
20
19.7665870890606
30
0
0
SPLINE
5
220
100
AcDbEntity
8
1
62
256
6
ByLayer
370
13
48
1
60
0
100
AcDbSpline
70
4
71
3
72
12
73
8
40
0
40
0
40
0
40
0
40
0.0075770979405842
40
0.0075770979405842
40
0.524912447401083
40
0.524912447401083
40
1
40
1
40
1
40
1
41
1
10
54.4213727254144
20
21.0890756224232
30
0
41
1
10
54.422693884863
20
21.0891246359032
30
0
41
1
10
54.4240151186687
20
21.089171304774
30
0
41
1
10
54.5154638182289
20
21.0922377930211
30
0
41
1
10
54.605673527038
20
21.0874737396074
30
0
41
1
10
54.7786115881781
20
21.0834174108897
30
0
41
1
10
54.8613940232687
20
21.0810975498717
30
0
41
1
10
54.9441651422333
20
21.0783896186558
30
0
0
SPLINE
5
221
100
AcDbEntity
8
1
62
256
6
ByLayer
370
13
48
1
60
0
100
AcDbSpline
70
4
71
3
72
12
73
8
40
0
40
0
40
0
40
0
40
0.0075770979405842
40
0.0075770979405842
40
0.524912447401083
40
0.524912447401083
40
1
40
1
40
1
40
1
41
1
10
54.4213727254144
20
19.9109243775772
30
0
41
1
10
54.422693884863
20
19.9108753640972
30
0
41
1
10
54.4240151186687
20
19.9108286952263
30
0
41
1
10
54.5154638182289
20
19.9077622069792
30
0
41
1
10
54.605673527038
20
19.9125262603929
30
0
41
1
10
54.7786115881781
20
19.9165825891107
30
0
41
1
10
54.8613940232687
20
19.9189024501286
30
0
41
1
10
54.9441651422333
20
19.9216103813446
30
0
0
SPLINE
5
222
100
AcDbEntity
8
1
62
256
6
ByLayer
370
13
48
1
60
0
100
AcDbSpline
70
4
71
3
72
8
73
4
40
0
40
0
40
0
40
0
40
1
40
1
40
1
40
1
41
1
10
54.8749811562301
20
21.2334129109397
30
0
41
1
10
54.8822263780104
20
21.2242415924235
30
0
41
1
10
54.8893737130963
20
21.2149553332381
30
0
41
1
10
54.8964383490931
20
21.205606790462
30
0
0
SPLINE
5
223
100
AcDbEntity
8
1
62
256
6
ByLayer
370
13
48
1
60
0
100
AcDbSpline
70
4
71
3
72
10
73
6
40
0
40
0
40
0
40
0
40
0.596085739020476
40
0.596085739020476
40
1
40
1
40
1
40
1
41
1
10
54.8964383490931
20
21.205606790462
30
0
41
1
10
54.9128939358856
20
21.1838313221849
30
0
41
1
10
54.9267245821227
20
21.159402900591
30
0
41
1
10
54.94081187438
20
21.1157305199561
30
0
41
1
10
54.944038381206
20
21.0969809852594
30
0
41
1
10
54.9441651422481
20
21.0783896186605
30
0
0
SPLINE
5
224
100
AcDbEntity
8
1
62
256
6
ByLayer
370
13
48
1
60
0
100
AcDbSpline
70
4
71
3
72
10
73
6
40
0
40
0
40
0
40
0
40
0.596085739020476
40
0.596085739020476
40
1
40
1
40
1
40
1
41
1
10
54.8964383490931
20
19.7943932095384
30
0
41
1
10
54.9128939358856
20
19.8161686778154
30
0
41
1
10
54.9267245821227
20
19.8405970994093
30
0
41
1
10
54.94081187438
20
19.8842694800442
30
0
41
1
10
54.944038381206
20
19.9030190147409
30
0
41
1
10
54.9441651422481
20
19.9216103813398
30
0
0
SPLINE
5
225
100
AcDbEntity
8
1
62
256
6
ByLayer
370
13
48
1
60
0
100
AcDbSpline
70
4
71
3
72
8
73
4
40
0
40
0
40
0
40
0
40
1
40
1
40
1
40
1
41
1
10
54.8749811562301
20
19.7665870890606
30
0
41
1
10
54.8822263780104
20
19.7757584075769
30
0
41
1
10
54.8893737130963
20
19.7850446667622
30
0
41
1
10
54.8964383490931
20
19.7943932095384
30
0
0
SPLINE
5
226
100
AcDbEntity
8
1
62
256
6
ByLayer
370
13
48
1
60
0
100
AcDbSpline
70
4
71
3
72
8
73
4
40
0
40
0
40
0
40
0
40
1
40
1
40
1
40
1
41
1
10
53.7587805434612
20
19.3215907726178
30
0
41
1
10
53.6587308196864
20
19.3181509409094
30
0
41
1
10
53.5579761895169
20
19.3221156724947
30
0
41
1
10
53.4587805434612
20
19.335575814649
30
0
0
SPLINE
5
227
100
AcDbEntity
8
1
62
256
6
ByLayer
370
13
48
1
60
0
100
AcDbSpline
70
4
71
3
72
8
73
4
40
0
40
0
40
0
40
0
40
1
40
1
40
1
40
1
41
1
10
53.7587805434612
20
21.6784092273825
30
0
41
1
10
53.6587308196864
20
21.681849059091
30
0
41
1
10
53.5579761895169
20
21.6778843275056
30
0
41
1
10
53.4587805434612
20
21.6644241853513
30
0
0
SPLINE
5
228
100
AcDbEntity
8
1
62
256
6
ByLayer
370
13
48
1
60
0
100
AcDbSpline
70
4
71
3
72
16
73
12
40
0
40
0
40
0
40
0
40
0.113631665737173
40
0.113631665737173
40
0.758132216188134
40
0.758132216188134
40
0.942823120099093
40
0.942823120099093
40
0.947778003019258
40
0.947778003019258
40
1
40
1
40
1
40
1
41
1
10
53.2112677608007
20
19.9841589254894
30
0
41
1
10
53.2332807942052
20
19.9771548566285
30
0
41
1
10
53.2554088133188
20
19.970502208857
30
0
41
1
10
53.4026697940168
20
19.9288144307205
30
0
41
1
10
53.5333481685155
20
19.9060720412511
30
0
41
1
10
53.7009734748332
20
19.9075565740164
30
0
41
1
10
53.7386296238165
20
19.9093628094537
30
0
41
1
10
53.7773004835499
20
19.9107409642211
30
0
41
1
10
53.7783108496887
20
19.9107769815545
30
0
41
1
10
53.7899699703881
20
19.9111926247612
30
0
41
1
10
53.80061882194
20
19.9115695381273
30
0
41
1
10
53.8112677608007
20
19.9119439585292
30
0
0
SPLINE
5
229
100
AcDbEntity
8
1
62
256
6
ByLayer
370
13
48
1
60
0
100
AcDbSpline
70
4
71
3
72
16
73
12
40
0
40
0
40
0
40
0
40
0.113631665737173
40
0.113631665737173
40
0.758132216188134
40
0.758132216188134
40
0.942823120099093
40
0.942823120099093
40
0.947778003019258
40
0.947778003019258
40
1
40
1
40
1
40
1
41
1
10
53.2112677608007
20
21.0158410745109
30
0
41
1
10
53.2332807942052
20
21.0228451433719
30
0
41
1
10
53.2554088133188
20
21.0294977911433
30
0
41
1
10
53.4026697940168
20
21.0711855692798
30
0
41
1
10
53.5333481685155
20
21.0939279587492
30
0
41
1
10
53.7009734748332
20
21.0924434259839
30
0
41
1
10
53.7386296238165
20
21.0906371905467
30
0
41
1
10
53.7773004835499
20
21.0892590357792
30
0
41
1
10
53.7783108496887
20
21.0892230184458
30
0
41
1
10
53.7899699703881
20
21.0888073752391
30
0
41
1
10
53.80061882194
20
21.0884304618731
30
0
41
1
10
53.8112677608007
20
21.0880560414711
30
0
0
SPLINE
5
22A
100
AcDbEntity
8
1
62
256
6
ByLayer
370
13
48
1
60
0
100
AcDbSpline
70
4
71
3
72
10
73
6
40
0
40
0
40
0
40
0
40
0.411878619131049
40
0.411878619131049
40
1
40
1
40
1
40
1
41
1
10
54.9970257408783
20
19.9216103813444
30
0
41
1
10
54.9970257408783
20
19.8985018754405
30
0
41
1
10
54.9938567437525
20
19.8752198575114
30
0
41
1
10
54.9795589487909
20
19.8211524463558
30
0
41
1
10
54.9654981180153
20
19.7906737309444
30
0
41
1
10
54.9480487400853
20
19.7629298615152
30
0
0
SPLINE
5
22B
100
AcDbEntity
8
1
62
256
6
ByLayer
370
13
48
1
60
0
100
AcDbSpline
70
4
71
3
72
10
73
6
40
0
40
0
40
0
40
0
40
0.411878619131049
40
0.411878619131049
40
1
40
1
40
1
40
1
41
1
10
54.9970257408783
20
21.0783896186559
30
0
41
1
10
54.9970257408783
20
21.1014981245598
30
0
41
1
10
54.9938567437525
20
21.1247801424889
30
0
41
1
10
54.9795589487909
20
21.1788475536445
30
0
41
1
10
54.9654981180153
20
21.2093262690559
30
0
41
1
10
54.9480487400853
20
21.2370701384852
30
0
0
SPLINE
5
22C
100
AcDbEntity
8
1
62
256
6
ByLayer
370
13
48
1
60
0
100
AcDbSpline
70
4
71
3
72
8
73
4
40
0
40
0
40
0
40
0
40
1
40
1
40
1
40
1
41
1
10
54.9480487400851
20
19.7629298615152
30
0
41
1
10
54.9406964490065
20
19.753577963493
30
0
41
1
10
54.9332455329699
20
19.7443294855103
30
0
41
1
10
54.9256851850747
20
19.7352342528898
30
0
0
SPLINE
5
22D
100
AcDbEntity
8
1
62
256
6
ByLayer
370
13
48
1
60
0
100
AcDbSpline
70
4
71
3
72
8
73
4
40
0
40
0
40
0
40
0
40
1
40
1
40
1
40
1
41
1
10
54.9480487400851
20
21.2370701384851
30
0
41
1
10
54.9406964490065
20
21.2464220365073
30
0
41
1
10
54.9332455329699
20
21.25567051449
30
0
41
1
10
54.9256851850747
20
21.2647657471106
30
0
0
SPLINE
5
22E
100
AcDbEntity
8
1
62
256
6
ByLayer
370
13
48
1
60
0
100
AcDbSpline
70
4
71
3
72
12
73
8
40
0
40
0
40
0
40
0
40
0.390105015408732
40
0.390105015408732
40
0.395238792462735
40
0.395238792462735
40
1
40
1
40
1
40
1
41
1
10
53.8112677608007
20
21.0880560414711
30
0
41
1
10
53.8930131894969
20
21.0859482964437
30
0
41
1
10
53.975069491157
20
21.0855375442185
30
0
41
1
10
54.0568134956408
20
21.0852520424258
30
0
41
1
10
54.0578786372164
20
21.0852484357167
30
0
41
1
10
54.1833815366521
20
21.0848368638385
30
0
41
1
10
54.306145891386
20
21.0859407825705
30
0
41
1
10
54.4213727254144
20
21.0890756224232
30
0
0
SPLINE
5
22F
100
AcDbEntity
8
1
62
256
6
ByLayer
370
13
48
1
60
0
100
AcDbSpline
70
4
71
3
72
12
73
8
40
0
40
0
40
0
40
0
40
0.390105015408732
40
0.390105015408732
40
0.395238792462735
40
0.395238792462735
40
1
40
1
40
1
40
1
41
1
10
53.8112677608007
20
19.9119439585292
30
0
41
1
10
53.8930131894969
20
19.9140517035567
30
0
41
1
10
53.975069491157
20
19.9144624557819
30
0
41
1
10
54.0568134956408
20
19.9147479575745
30
0
41
1
10
54.0578786372164
20
19.9147515642836
30
0
41
1
10
54.1833815366521
20
19.9151631361618
30
0
41
1
10
54.306145891386
20
19.9140592174298
30
0
41
1
10
54.4213727254144
20
19.9109243775772
30
0
0
SPLINE
5
230
100
AcDbEntity
8
1
62
256
6
ByLayer
370
18
48
1
60
0
100
AcDbSpline
70
4
71
3
72
16
73
12
40
0
40
0
40
0
40
0
40
0.210601603648632
40
0.210601603648632
40
0.421213120937357
40
0.421213120937357
40
0.631488126460197
40
0.631488126460197
40
0.839116239420829
40
0.839116239420829
40
1
40
1
40
1
40
1
41
1
10
55.0046912194301
20
21.8055562538531
30
0
41
1
10
55.0048851041009
20
21.8284783623568
30
0
41
1
10
55.0011366843306
20
21.8517152848399
30
0
41
1
10
54.9864049129777
20
21.8949753647062
30
0
41
1
10
54.9752157349576
20
21.9155997347471
30
0
41
1
10
54.9470242400575
20
21.9513452122233
30
0
41
1
10
54.92963219728
20
21.9669744061748
30
0
41
1
10
54.8913444393929
20
21.9908763407797
30
0
41
1
10
54.8699543211539
20
21.999570036314
30
0
41
1
10
54.8309045828753
20
22.0079407305391
30
0
41
1
10
54.8131262908524
20
22.0092818527201
30
0
41
1
10
54.7956316353027
20
22.0082037976608
30
0
0
SPLINE
5
231
100
AcDbEntity
8
1
62
256
6
ByLayer
370
18
48
1
60
0
100
AcDbSpline
70
4
71
3
72
10
73
6
40
0
40
0
40
0
40
0
40
0.584711417492912
40
0.584711417492912
40
1
40
1
40
1
40
1
41
1
10
46.6351939284819
20
19.2500000000002
30
0
41
1
10
46.6376165600086
20
19.2500000000002
30
0
41
1
10
46.6400566535847
20
19.2500000000002
30
0
41
1
10
46.6442589248979
20
19.2500000000002
30
0
41
1
10
46.6460127381757
20
19.2500000000002
30
0
41
1
10
46.6477750315741
20
19.2500000000002
30
0
0
SPLINE
5
232
100
AcDbEntity
8
1
62
256
6
ByLayer
370
18
48
1
60
0
100
AcDbSpline
70
4
71
3
72
16
73
12
40
0
40
0
40
0
40
0
40
0.202092460849674
40
0.202092460849674
40
0.404032245588857
40
0.404032245588857
40
0.608298678109005
40
0.608298678109005
40
0.816163444624768
40
0.816163444624768
40
1
40
1
40
1
40
1
41
1
10
54.7956316353027
20
18.9917962023395
30
0
41
1
10
54.8174897444443
20
18.9904492626939
30
0
41
1
10
54.8398491383954
20
18.9929140846626
30
0
41
1
10
54.8818390291393
20
19.0049642526357
30
0
41
1
10
54.9020457535964
20
19.0147039661699
30
0
41
1
10
54.9378824730738
20
19.0400724179087
30
0
41
1
10
54.9539463831898
20
19.0561077473292
30
0
41
1
10
54.9798894042432
20
19.0924035125335
30
0
41
1
10
54.9900129368111
20
19.1132286035612
30
0
41
1
10
55.0020260177163
20
19.1540842965976
30
0
41
1
10
55.0048610089749
20
19.1743702955194
30
0
41
1
10
55.0046912194301
20
19.1944437461472
30
0
0
SPLINE
5
233
100
AcDbEntity
8
1
62
256
6
ByLayer
370
18
48
1
60
0
100
AcDbSpline
70
4
71
3
72
10
73
6
40
0
40
0
40
0
40
0
40
0.629562107774395
40
0.629562107774395
40
1
40
1
40
1
40
1
41
1
10
45.2
20
19.2500000000002
30
0
41
1
10
45.1782969300918
20
19.2500000000002
30
0
41
1
10
45.156172793229
20
19.2536410631935
30
0
41
1
10
45.1231987911384
20
19.2648782131052
30
0
41
1
10
45.1112516429095
20
19.2702987801804
30
0
41
1
10
45.0999999999999
20
19.276794919243
30
0
0
SPLINE
5
234
100
AcDbEntity
8
1
62
256
6
ByLayer
370
18
48
1
60
0
100
AcDbSpline
70
4
71
3
72
10
73
6
40
0
40
0
40
0
40
0
40
0.62956174027551
40
0.62956174027551
40
1
40
1
40
1
40
1
41
1
10
45.1
20
21.7232050807571
30
0
41
1
10
45.118944038489
20
21.7341424264782
30
0
41
1
10
45.1400004695306
20
21.7420308411128
30
0
41
1
10
45.1741148019193
20
21.7487405286445
30
0
41
1
10
45.1871096425299
20
21.7500000000002
30
0
41
1
10
45.2
20
21.7500000000002
30
0
0
SPLINE
5
235
100
AcDbEntity
8
1
62
256
6
ByLayer
370
18
48
1
60
0
100
AcDbSpline
70
4
71
3
72
10
73
6
40
0
40
0
40
0
40
0
40
0.76746257010027
40
0.76746257010027
40
1
40
1
40
1
40
1
41
1
10
46.6477750315741
20
21.7500000000002
30
0
41
1
10
46.6445183560327
20
21.7500000000002
30
0
41
1
10
46.6412905642182
20
21.7500000000002
30
0
41
1
10
46.637123695827
20
21.7500000000002
30
0
41
1
10
46.6361574346187
20
21.7500000000002
30
0
41
1
10
46.6351939284819
20
21.7500000000002
30
0
0
SPLINE
5
236
100
AcDbEntity
8
1
62
256
6
ByLayer
370
18
48
1
60
0
100
AcDbSpline
70
4
71
3
72
14
73
10
40
0
40
0
40
0
40
0
40
0.209562190252725
40
0.209562190252725
40
0.419048660097219
40
0.419048660097219
40
0.628042586344193
40
0.628042586344193
40
1
40
1
40
1
40
1
41
1
10
53.4587805434612
20
21.9097853116086
30
0
41
1
10
53.3766126081606
20
21.9040112672196
30
0
41
1
10
53.294096633241
20
21.898691675714
30
0
41
1
10
53.1317767669575
20
21.8891850947953
30
0
41
1
10
53.0514176992139
20
21.8849652769823
30
0
41
1
10
52.89577107806
20
21.8777765091769
30
0
41
1
10
52.8199400027966
20
21.8747800931394
30
0
41
1
10
52.619734627046
20
21.8683061296881
30
0
41
1
10
52.5007351939601
20
21.8661821282842
30
0
41
1
10
52.3981203716825
20
21.8661997365009
30
0
0
SPLINE
5
237
100
AcDbEntity
8
1
62
256
6
ByLayer
370
18
48
1
60
0
100
AcDbSpline
70
4
71
3
72
8
73
4
40
0
40
0
40
0
40
0
40
1
40
1
40
1
40
1
41
1
10
54.1060768987951
20
21.9574120129641
30
0
41
1
10
53.9917418362529
20
21.9479573909198
30
0
41
1
10
53.8750917668497
20
21.9390400260504
30
0
41
1
10
53.7587805434612
20
21.9308666897687
30
0
0
SPLINE
5
238
100
AcDbEntity
8
1
62
256
6
ByLayer
370
18
48
1
60
0
100
AcDbSpline
70
4
71
3
72
14
73
10
40
0
40
0
40
0
40
0
40
0.208995027535852
40
0.208995027535852
40
0.417850725206471
40
0.417850725206471
40
0.626704295977397
40
0.626704295977397
40
1
40
1
40
1
40
1
41
1
10
52.3981203716814
20
19.1338002634984
30
0
41
1
10
52.4562077150716
20
19.133810231011
30
0
41
1
10
52.5193237323134
20
19.133144046403
30
0
41
1
10
52.6529850333382
20
19.1304855473309
30
0
41
1
10
52.7239830856551
20
19.1284850037929
30
0
41
1
10
52.8714347232615
20
19.1232230123532
30
0
41
1
10
52.9483929364638
20
19.1199435787732
30
0
41
1
10
53.1664550970089
20
19.1092372119779
30
0
41
1
10
53.3134966889726
20
19.1004239679823
30
0
41
1
10
53.4587805434602
20
19.0902146883923
30
0
0
SPLINE
5
239
100
AcDbEntity
8
1
62
256
6
ByLayer
370
18
48
1
60
0
100
AcDbSpline
70
4
71
3
72
8
73
4
40
0
40
0
40
0
40
0
40
1
40
1
40
1
40
1
41
1
10
53.7587805434612
20
19.0691333102316
30
0
41
1
10
53.8750917668497
20
19.0609599739499
30
0
41
1
10
53.9917418362529
20
19.0520426090805
30
0
41
1
10
54.1060768987951
20
19.0425879870362
30
0
0
LINE
5
70
100
AcDbEntity
8
1
62
256
6
ByLayer
370
13
48
1
60
0
100
AcDbLine
10
0.3
20
16
30
0
11
0
21
15.7
31
0
39
0
210
0
220
0
230
1
0
LINE
5
72
100
AcDbEntity
8
1
62
256
6
ByLayer
370
13
48
1
60
0
100
AcDbLine
10
0
20
-15.7
30
0
11
0.3
21
-16
31
0
39
0
210
0
220
0
230
1
0
LINE
5
73
100
AcDbEntity
8
1
62
256
6
ByLayer
370
13
48
1
60
0
100
AcDbLine
10
17.720612
20
21.675
30
0
11
16.438319
21
16.889417
31
0
39
0
210
0
220
0
230
1
0
LINE
5
74
100
AcDbEntity
8
1
62
256
6
ByLayer
370
13
48
1
60
0
100
AcDbLine
10
0.3
20
-16
30
0
11
15.031907
21
-16
31
0
39
0
210
0
220
0
230
1
0
LINE
5
75
100
AcDbEntity
8
1
62
256
6
ByLayer
370
13
48
1
60
0
100
AcDbLine
10
15.279208
20
16
30
0
11
0.3
21
16
31
0
39
0
210
0
220
0
230
1
0
LINE
5
76
100
AcDbEntity
8
80
62
256
6
ByLayer
370
18
48
1
60
0
100
AcDbLine
10
0
20
0
30
0
11
-5
21
0
31
0
39
0
210
0
220
0
230
1
0
LINE
5
77
100
AcDbEntity
8
81
62
256
6
ByLayer
370
18
48
1
60
0
100
AcDbLine
10
55
20
22
30
0
11
60
21
22
31
0
39
0
210
0
220
0
230
1
0
LINE
5
78
100
AcDbEntity
8
SK1
62
256
6
ByLayer
370
13
48
1
60
0
100
AcDbLine
10
-1.29504
20
10.827955
30
0
11
-1.29504
21
10.830291
31
0
39
0
210
0
220
0
230
1
0
LINE
5
7A
100
AcDbEntity
8
SK1
62
256
6
ByLayer
370
13
48
1
60
0
100
AcDbLine
10
-1.315435
20
-3.312046
30
0
11
-1.315435
21
3.312047
31
0
39
0
210
0
220
0
230
1
0
LINE
5
7B
100
AcDbEntity
8
SK1
62
256
6
ByLayer
370
13
48
1
60
0
100
AcDbLine
10
-1.29504
20
-10.830291
30
0
11
-1.29504
21
-10.827955
31
0
39
0
210
0
220
0
230
1
0
LINE
5
7C
100
AcDbEntity
8
1
62
256
6
ByLayer
370
13
48
1
60
0
100
AcDbLine
10
0.3
20
16
30
0
11
0.3
21
-16
31
0
39
0
210
0
220
0
230
1
0
LINE
5
7D
100
AcDbEntity
8
1
62
256
6
ByLayer
370
13
48
1
60
0
100
AcDbLine
10
7.336603
20
-15.175938
30
0
11
7.336603
21
-5.068619
31
0
39
0
210
0
220
0
230
1
0
LINE
5
7E
100
AcDbEntity
8
1
62
256
6
ByLayer
370
13
48
1
60
0
100
AcDbLine
10
46.290738
20
19.325
30
0
11
50.35928
21
19.325
31
0
39
0
210
0
220
0
230
1
0
LINE
5
7F
100
AcDbEntity
8
1
62
256
6
ByLayer
370
13
48
1
60
0
100
AcDbLine
10
4.923205
20
15.276962
30
0
11
7.076795
21
15.276962
31
0
39
0
210
0
220
0
230
1
0
LINE
5
80
100
AcDbEntity
8
1
62
256
6
ByLayer
370
13
48
1
60
0
100
AcDbLine
10
19.045149
20
-10.5
30
0
11
19.045149
21
21.675
31
0
39
0
210
0
220
0
230
1
0
LINE
5
81
100
AcDbEntity
8
1
62
256
6
ByLayer
370
13
48
1
60
0
100
AcDbLine
10
25.579287
20
21.675
30
0
11
19.045149
21
21.675
31
0
39
0
210
0
220
0
230
1
0
LINE
5
82
100
AcDbEntity
8
1
62
256
6
ByLayer
370
13
48
1
60
0
100
AcDbLine
10
41.290738
20
19.325
30
0
11
46.290738
21
19.325
31
0
39
0
210
0
220
0
230
1
0
LINE
5
83
100
AcDbEntity
8
1
62
256
6
ByLayer
370
13
48
1
60
0
100
AcDbLine
10
7.076795
20
-15.276962
30
0
11
4.923205
21
-15.276962
31
0
39
0
210
0
220
0
230
1
0
LINE
5
84
100
AcDbEntity
8
1
62
256
6
ByLayer
370
13
48
1
60
0
100
AcDbLine
10
15.031907
20
-16
30
0
11
15.045302
21
-14.465094
31
0
39
0
210
0
220
0
230
1
0
LINE
5
85
100
AcDbEntity
8
1
62
256
6
ByLayer
370
13
48
1
60
0
100
AcDbLine
10
46.290738
20
19.325
30
0
11
46.290738
21
21.675
31
0
39
0
210
0
220
0
230
1
0
LINE
5
86
100
AcDbEntity
8
1
62
256
6
ByLayer
370
13
48
1
60
0
100
AcDbLine
10
50.415611
20
19.508431
30
0
11
50.415611
21
19.965483
31
0
39
0
210
0
220
0
230
1
0
LINE
5
87
100
AcDbEntity
8
1
62
256
6
ByLayer
370
13
48
1
60
0
100
AcDbLine
10
7.076795
20
-15.276962
30
0
11
7.076795
21
-4.755463
31
0
39
0
210
0
220
0
230
1
0
LINE
5
88
100
AcDbEntity
8
1
62
256
6
ByLayer
370
13
48
1
60
0
100
AcDbLine
10
41.290738
20
21.675
30
0
11
46.290738
21
21.675
31
0
39
0
210
0
220
0
230
1
0
LINE
5
89
100
AcDbEntity
8
1
62
256
6
ByLayer
370
13
48
1
60
0
100
AcDbLine
10
4.923205
20
4.755463
30
0
11
4.923205
21
15.276962
31
0
39
0
210
0
220
0
230
1
0
LINE
5
8A
100
AcDbEntity
8
1
62
256
6
ByLayer
370
13
48
1
60
0
100
AcDbLine
10
50.415611
20
21.034517
30
0
11
50.415611
21
21.491569
31
0
39
0
210
0
220
0
230
1
0
LINE
5
8B
100
AcDbEntity
8
1
62
256
6
ByLayer
370
13
48
1
60
0
100
AcDbLine
10
28.4
20
17.725
30
0
11
28.4
21
0
31
0
39
0
210
0
220
0
230
1
0
LINE
5
8C
100
AcDbEntity
8
1
62
256
6
ByLayer
370
13
48
1
60
0
100
AcDbLine
10
7.076795
20
4.755463
30
0
11
4.923205
21
4.755463
31
0
39
0
210
0
220
0
230
1
0
LINE
5
8D
100
AcDbEntity
8
1
62
256
6
ByLayer
370
13
48
1
60
0
100
AcDbLine
10
41.290738
20
19.325
30
0
11
33.6
21
19.325
31
0
39
0
210
0
220
0
230
1
0
LINE
5
8E
100
AcDbEntity
8
1
62
256
6
ByLayer
370
13
48
1
60
0
100
AcDbLine
10
25.579287
20
21.675
30
0
11
25.579287
21
19.325
31
0
39
0
210
0
220
0
230
1
0
LINE
5
8F
100
AcDbEntity
8
1
62
256
6
ByLayer
370
13
48
1
60
0
100
AcDbLine
10
7.076795
20
4.755463
30
0
11
7.076795
21
15.276962
31
0
39
0
210
0
220
0
230
1
0
LINE
5
90
100
AcDbEntity
8
1
62
256
6
ByLayer
370
13
48
1
60
0
100
AcDbLine
10
26.548567
20
-10.5
30
0
11
28.4
21
0
31
0
39
0
210
0
220
0
230
1
0
LINE
5
91
100
AcDbEntity
8
1
62
256
6
ByLayer
370
13
48
1
60
0
100
AcDbLine
10
18.003523
20
21.675
30
0
11
18.879153
21
21.675
31
0
39
0
210
0
220
0
230
1
0
LINE
5
92
100
AcDbEntity
8
1
62
256
6
ByLayer
370
13
48
1
60
0
100
AcDbLine
10
46.290738
20
21.675
30
0
11
50.35928
21
21.675
31
0
39
0
210
0
220
0
230
1
0
LINE
5
93
100
AcDbEntity
8
1
62
256
6
ByLayer
370
13
48
1
60
0
100
AcDbLine
10
41.290738
20
21.675
30
0
11
41.290738
21
19.325
31
0
39
0
210
0
220
0
230
1
0
LINE
5
94
100
AcDbEntity
8
1
62
256
6
ByLayer
370
13
48
1
60
0
100
AcDbLine
10
4.923205
20
-4.755463
30
0
11
7.076795
21
-4.755463
31
0
39
0
210
0
220
0
230
1
0
LINE
5
95
100
AcDbEntity
8
1
62
256
6
ByLayer
370
13
48
1
60
0
100
AcDbLine
10
19.045149
20
-10.5
30
0
11
26.548567
21
-10.5
31
0
39
0
210
0
220
0
230
1
0
LINE
5
96
100
AcDbEntity
8
1
62
256
6
ByLayer
370
13
48
1
60
0
100
AcDbLine
10
33.6
20
21.675
30
0
11
41.290738
21
21.675
31
0
39
0
210
0
220
0
230
1
0
LINE
5
97
100
AcDbEntity
8
1
62
256
6
ByLayer
370
13
48
1
60
0
100
AcDbLine
10
4.663397
20
5.068619
30
0
11
4.663397
21
15.175938
31
0
39
0
210
0
220
0
230
1
0
LINE
5
98
100
AcDbEntity
8
1
62
256
6
ByLayer
370
13
48
1
60
0
100
AcDbLine
10
4.923205
20
-15.276962
30
0
11
4.923205
21
-4.755463
31
0
39
0
210
0
220
0
230
1
0
LINE
5
99
100
AcDbEntity
8
1
62
256
6
ByLayer
370
13
48
1
60
0
100
AcDbLine
10
15.045302
20
11.796892
30
0
11
15.045302
21
-11.796892
31
0
39
0
210
0
220
0
230
1
0
LINE
5
9A
100
AcDbEntity
8
1
62
256
6
ByLayer
370
13
48
1
60
0
100
AcDbLine
10
33.6
20
19.325
30
0
11
33.6
21
21.675
31
0
39
0
210
0
220
0
230
1
0
LINE
5
9B
100
AcDbEntity
8
1
62
256
6
ByLayer
370
13
48
1
60
0
100
AcDbLine
10
7.336603
20
5.068619
30
0
11
7.336603
21
15.175938
31
0
39
0
210
0
220
0
230
1
0
LINE
5
9C
100
AcDbEntity
8
1
62
256
6
ByLayer
370
13
48
1
60
0
100
AcDbLine
10
33.6
20
19.325
30
0
11
30
21
19.325
31
0
39
0
210
0
220
0
230
1
0
LINE
5
9D
100
AcDbEntity
8
1
62
256
6
ByLayer
370
13
48
1
60
0
100
AcDbLine
10
4.663397
20
-15.175938
30
0
11
4.663397
21
-5.068619
31
0
39
0
210
0
220
0
230
1
0
LINE
5
9E
100
AcDbEntity
8
1
62
256
6
ByLayer
370
13
48
1
60
0
100
AcDbLine
10
25.579287
20
21.675
30
0
11
33.6
21
21.675
31
0
39
0
210
0
220
0
230
1
0
LINE
5
9F
100
AcDbEntity
8
1
62
256
6
ByLayer
370
13
48
1
60
0
100
AcDbLine
10
16.438319
20
16.889417
30
0
11
16.438319
21
14.975204
31
0
39
0
210
0
220
0
230
1
0
LINE
5
A0
100
AcDbEntity
8
1
62
256
6
ByLayer
370
13
48
1
60
0
100
AcDbLine
10
18.879153
20
21.675
30
0
11
19.045149
21
21.675
31
0
39
0
210
0
220
0
230
1
0
LINE
5
A1
100
AcDbEntity
8
1
62
256
6
ByLayer
370
13
48
1
60
0
100
AcDbLine
10
30
20
19.325
30
0
11
25.579287
21
19.325
31
0
39
0
210
0
220
0
230
1
0
LINE
5
A2
100
AcDbEntity
8
1
62
256
6
ByLayer
370
13
48
1
60
0
100
AcDbLine
10
50.35928
20
21.675
30
0
11
50.415611
21
21.491569
31
0
39
0
210
0
220
0
230
1
0
LINE
5
A3
100
AcDbEntity
8
1
62
256
6
ByLayer
370
13
48
1
60
0
100
AcDbLine
10
50.415611
20
19.508431
30
0
11
50.35928
21
19.325
31
0
39
0
210
0
220
0
230
1
0
LINE
5
A4
100
AcDbEntity
8
1
62
256
6
ByLayer
370
13
48
1
60
0
100
AcDbLine
10
0
20
15.7
30
0
11
0
21
-15.7
31
0
39
0
210
0
220
0
230
1
0
LINE
5
A5
100
AcDbEntity
8
1
62
256
6
ByLayer
370
13
48
1
60
0
100
AcDbLine
10
15.279208
20
16
30
0
11
15.279208
21
12.877611
31
0
39
0
210
0
220
0
230
1
0
LINE
5
A6
100
AcDbEntity
8
1
62
256
6
ByLayer
370
13
48
1
60
0
100
AcDbLine
10
45.665685
20
19.325003
30
0
11
45.665685
21
19.25
31
0
39
0
210
0
220
0
230
1
0
LINE
5
A7
100
AcDbEntity
8
1
62
256
6
ByLayer
370
13
48
1
60
0
100
AcDbLine
10
51.455978
20
19.25
30
0
11
51.455978
21
19.673244
31
0
39
0
210
0
220
0
230
1
0
LINE
5
A8
100
AcDbEntity
8
1
62
256
6
ByLayer
370
13
48
1
60
0
100
AcDbLine
10
51.607676
20
19.665535
30
0
11
51.880446
21
19.652104
31
0
39
0
210
0
220
0
230
1
0
LINE
5
A9
100
AcDbEntity
8
1
62
256
6
ByLayer
370
13
48
1
60
0
100
AcDbLine
10
52.137538
20
19.141081
30
0
11
52.116974
21
19.435155
31
0
39
0
210
0
220
0
230
1
0
LINE
5
AA
100
AcDbEntity
8
1
62
256
6
ByLayer
370
13
48
1
60
0
100
AcDbLine
10
52.137538
20
21.858919
30
0
11
52.116974
21
21.564845
31
0
39
0
210
0
220
0
230
1
0
LINE
5
AB
100
AcDbEntity
8
1
62
256
6
ByLayer
370
13
48
1
60
0
100
AcDbLine
10
51.880446
20
21.347896
30
0
11
51.607676
21
21.334465
31
0
39
0
210
0
220
0
230
1
0
LINE
5
AC
100
AcDbEntity
8
1
62
256
6
ByLayer
370
13
48
1
60
0
100
AcDbLine
10
51.455978
20
21.326756
30
0
11
51.455978
21
21.75
31
0
39
0
210
0
220
0
230
1
0
LINE
5
AD
100
AcDbEntity
8
1
62
256
6
ByLayer
370
13
48
1
60
0
100
AcDbLine
10
52.39812
20
19.452152
30
0
11
52.39812
21
19.1338
31
0
39
0
210
0
220
0
230
1
0
LINE
5
AE
100
AcDbEntity
8
1
62
256
6
ByLayer
370
13
48
1
60
0
100
AcDbLine
10
53.458781
20
19.335576
30
0
11
53.458781
21
19.090215
31
0
39
0
210
0
220
0
230
1
0
LINE
5
AF
100
AcDbEntity
8
1
62
256
6
ByLayer
370
13
48
1
60
0
100
AcDbLine
10
53.458781
20
21.664424
30
0
11
53.458781
21
21.909785
31
0
39
0
210
0
220
0
230
1
0
LINE
5
B0
100
AcDbEntity
8
1
62
256
6
ByLayer
370
13
48
1
60
0
100
AcDbLine
10
52.39812
20
21.547848
30
0
11
52.39812
21
21.8662
31
0
39
0
210
0
220
0
230
1
0
LINE
5
B1
100
AcDbEntity
8
1
62
256
6
ByLayer
370
13
48
1
60
0
100
AcDbLine
10
51.880446
20
19.652104
30
0
11
52.030516
21
19.806271
31
0
39
0
210
0
220
0
230
1
0
LINE
5
B2
100
AcDbEntity
8
1
62
256
6
ByLayer
370
13
48
1
60
0
100
AcDbLine
10
52.030516
20
21.193729
30
0
11
51.880446
21
21.347896
31
0
39
0
210
0
220
0
230
1
0
LINE
5
B3
100
AcDbEntity
8
1
62
256
6
ByLayer
370
13
48
1
60
0
100
AcDbLine
10
51.607676
20
19.665535
30
0
11
51.621372
21
19.94369
31
0
39
0
210
0
220
0
230
1
0
LINE
5
B4
100
AcDbEntity
8
1
62
256
6
ByLayer
370
13
48
1
60
0
100
AcDbLine
10
51.851055
20
19.93238
30
0
11
51.621372
21
19.94369
31
0
39
0
210
0
220
0
230
1
0
LINE
5
B5
100
AcDbEntity
8
1
62
256
6
ByLayer
370
13
48
1
60
0
100
AcDbLine
10
51.621372
20
21.05631
30
0
11
51.851055
21
21.06762
31
0
39
0
210
0
220
0
230
1
0
LINE
5
B6
100
AcDbEntity
8
1
62
256
6
ByLayer
370
13
48
1
60
0
100
AcDbLine
10
51.621372
20
21.05631
30
0
11
51.607676
21
21.334465
31
0
39
0
210
0
220
0
230
1
0
LINE
5
B7
100
AcDbEntity
8
1
62
256
6
ByLayer
370
13
48
1
60
0
100
AcDbLine
10
52.293328
20
19.45047
30
0
11
52.315472
21
19.133786
31
0
39
0
210
0
220
0
230
1
0
LINE
5
B8
100
AcDbEntity
8
1
62
256
6
ByLayer
370
13
48
1
60
0
100
AcDbLine
10
52.293328
20
21.54953
30
0
11
52.315472
21
21.866214
31
0
39
0
210
0
220
0
230
1
0
LINE
5
B9
100
AcDbEntity
8
1
62
256
6
ByLayer
370
13
48
1
60
0
100
AcDbLine
10
51.864379
20
21.05631
30
0
11
51.621372
21
21.05631
31
0
39
0
210
0
220
0
230
1
0
LINE
5
BA
100
AcDbEntity
8
1
62
256
6
ByLayer
370
13
48
1
60
0
100
AcDbLine
10
51.864379
20
19.94369
30
0
11
51.621372
21
19.94369
31
0
39
0
210
0
220
0
230
1
0
LINE
5
BB
100
AcDbEntity
8
1
62
256
6
ByLayer
370
13
48
1
60
0
100
AcDbLine
10
51.387574
20
19.673244
30
0
11
51.455978
21
19.673244
31
0
39
0
210
0
220
0
230
1
0
LINE
5
BC
100
AcDbEntity
8
1
62
256
6
ByLayer
370
13
48
1
60
0
100
AcDbLine
10
51.387574
20
21.326756
30
0
11
51.455978
21
21.326756
31
0
39
0
210
0
220
0
230
1
0
LINE
5
BD
100
AcDbEntity
8
1
62
256
6
ByLayer
370
13
48
1
60
0
100
AcDbLine
10
51.387574
20
21.75
30
0
11
51.387574
21
21.326756
31
0
39
0
210
0
220
0
230
1
0
LINE
5
BE
100
AcDbEntity
8
1
62
256
6
ByLayer
370
13
48
1
60
0
100
AcDbLine
10
51.387574
20
19.673244
30
0
11
51.387574
21
19.25
31
0
39
0
210
0
220
0
230
1
0
LINE
5
BF
100
AcDbEntity
8
1
62
256
6
ByLayer
370
13
48
1
60
0
100
AcDbLine
10
50.663912
20
19.25
30
0
11
50.663912
21
19.366083
31
0
39
0
210
0
220
0
230
1
0
LINE
5
C0
100
AcDbEntity
8
1
62
256
6
ByLayer
370
13
48
1
60
0
100
AcDbLine
10
50.663912
20
21.633917
30
0
11
50.663912
21
21.75
31
0
39
0
210
0
220
0
230
1
0
LINE
5
C1
100
AcDbEntity
8
1
62
256
6
ByLayer
370
13
48
1
60
0
100
AcDbLine
10
53.114687
20
21.319384
30
0
11
53.211268
21
21.015841
31
0
39
0
210
0
220
0
230
1
0
LINE
5
C2
100
AcDbEntity
8
1
62
256
6
ByLayer
370
13
48
1
60
0
100
AcDbLine
10
53.114687
20
19.680616
30
0
11
53.211268
21
19.984159
31
0
39
0
210
0
220
0
230
1
0
LINE
5
C3
100
AcDbEntity
8
1
62
256
6
ByLayer
370
13
48
1
60
0
100
AcDbLine
10
50.46942
20
20.867998
30
0
11
50.779442
21
20.867998
31
0
39
0
210
0
220
0
230
1
0
LINE
5
C4
100
AcDbEntity
8
1
62
256
6
ByLayer
370
13
48
1
60
0
100
AcDbLine
10
50.415611
20
21.31851
30
0
11
50.46942
21
20.867998
31
0
39
0
210
0
220
0
230
1
0
LINE
5
C5
100
AcDbEntity
8
1
62
256
6
ByLayer
370
13
48
1
60
0
100
AcDbLine
10
50.577267
20
21.575984
30
0
11
50.384859
21
21.575984
31
0
39
0
210
0
220
0
230
1
0
LINE
5
C6
100
AcDbEntity
8
1
62
256
6
ByLayer
370
13
48
1
60
0
100
AcDbLine
10
50.577267
20
19.424016
30
0
11
50.384859
21
19.424016
31
0
39
0
210
0
220
0
230
1
0
LINE
5
C7
100
AcDbEntity
8
1
62
256
6
ByLayer
370
13
48
1
60
0
100
AcDbLine
10
50.415611
20
19.68149
30
0
11
50.46942
21
20.132002
31
0
39
0
210
0
220
0
230
1
0
LINE
5
C8
100
AcDbEntity
8
1
62
256
6
ByLayer
370
13
48
1
60
0
100
AcDbLine
10
50.46942
20
20.132002
30
0
11
50.779442
21
20.132002
31
0
39
0
210
0
220
0
230
1
0
LINE
5
C9
100
AcDbEntity
8
1
62
256
6
ByLayer
370
13
48
1
60
0
100
AcDbLine
10
50.572358
20
21.75
30
0
11
50.572358
21
21.625902
31
0
39
0
210
0
220
0
230
1
0
LINE
5
CA
100
AcDbEntity
8
1
62
256
6
ByLayer
370
13
48
1
60
0
100
AcDbLine
10
50.572358
20
19.374098
30
0
11
50.572358
21
19.25
31
0
39
0
210
0
220
0
230
1
0
LINE
5
CB
100
AcDbEntity
8
1
62
256
6
ByLayer
370
13
48
1
60
0
100
AcDbLine
10
53.211268
20
21.015841
30
0
11
53.211268
21
19.984159
31
0
39
0
210
0
220
0
230
1
0
LINE
5
CC
100
AcDbEntity
8
1
62
256
6
ByLayer
370
13
48
1
60
0
100
AcDbLine
10
50.38199
20
19.25
30
0
11
50.38199
21
19.374562
31
0
39
0
210
0
220
0
230
1
0
LINE
5
CD
100
AcDbEntity
8
1
62
256
6
ByLayer
370
13
48
1
60
0
100
AcDbLine
10
50.38199
20
19.374562
30
0
11
50.570595
21
19.374562
31
0
39
0
210
0
220
0
230
1
0
LINE
5
CE
100
AcDbEntity
8
1
62
256
6
ByLayer
370
13
48
1
60
0
100
AcDbLine
10
50.38199
20
21.625438
30
0
11
50.570595
21
21.625438
31
0
39
0
210
0
220
0
230
1
0
LINE
5
CF
100
AcDbEntity
8
1
62
256
6
ByLayer
370
13
48
1
60
0
100
AcDbLine
10
50.38199
20
21.75
30
0
11
50.38199
21
21.625438
31
0
39
0
210
0
220
0
230
1
0
LINE
5
D0
100
AcDbEntity
8
1
62
256
6
ByLayer
370
13
48
1
60
0
100
AcDbLine
10
55.000117
20
21.264766
30
0
11
54.925685
21
21.264766
31
0
39
0
210
0
220
0
230
1
0
LINE
5
D1
100
AcDbEntity
8
1
62
256
6
ByLayer
370
13
48
1
60
0
100
AcDbLine
10
54.535516
20
21.573706
30
0
11
54.535516
21
21.992175
31
0
39
0
210
0
220
0
230
1
0
LINE
5
D2
100
AcDbEntity
8
1
62
256
6
ByLayer
370
13
48
1
60
0
100
AcDbLine
10
54.535516
20
19.426294
30
0
11
54.535516
21
19.007825
31
0
39
0
210
0
220
0
230
1
0
LINE
5
D3
100
AcDbEntity
8
1
62
256
6
ByLayer
370
13
48
1
60
0
100
AcDbLine
10
55.000117
20
19.735234
30
0
11
54.925685
21
19.735234
31
0
39
0
210
0
220
0
230
1
0
LINE
5
D4
100
AcDbEntity
8
1
62
256
6
ByLayer
370
13
48
1
60
0
100
AcDbLine
10
54.46476
20
19.012928
30
0
11
54.46476
21
19.373678
31
0
39
0
210
0
220
0
230
1
0
LINE
5
D5
100
AcDbEntity
8
1
62
256
6
ByLayer
370
13
48
1
60
0
100
AcDbLine
10
54.106077
20
19.325131
30
0
11
54.106077
21
19.042588
31
0
39
0
210
0
220
0
230
1
0
LINE
5
D6
100
AcDbEntity
8
1
62
256
6
ByLayer
370
13
48
1
60
0
100
AcDbLine
10
54.46476
20
21.987072
30
0
11
54.46476
21
21.626322
31
0
39
0
210
0
220
0
230
1
0
LINE
5
D7
100
AcDbEntity
8
1
62
256
6
ByLayer
370
13
48
1
60
0
100
AcDbLine
10
54.106077
20
21.674869
30
0
11
54.106077
21
21.957412
31
0
39
0
210
0
220
0
230
1
0
LINE
5
D8
100
AcDbEntity
8
1
62
256
6
ByLayer
370
13
48
1
60
0
100
AcDbLine
10
50.506333
20
20.248976
30
0
11
50.866184
21
20.248976
31
0
39
0
210
0
220
0
230
1
0
LINE
5
D9
100
AcDbEntity
8
1
62
256
6
ByLayer
370
13
48
1
60
0
100
AcDbLine
10
50.506333
20
20.751024
30
0
11
50.866184
21
20.751024
31
0
39
0
210
0
220
0
230
1
0
LINE
5
DA
100
AcDbEntity
8
1
62
256
6
ByLayer
370
13
48
1
60
0
100
AcDbLine
10
53.758781
20
19.321591
30
0
11
53.758781
21
19.069133
31
0
39
0
210
0
220
0
230
1
0
LINE
5
DB
100
AcDbEntity
8
1
62
256
6
ByLayer
370
13
48
1
60
0
100
AcDbLine
10
53.758781
20
21.678409
30
0
11
53.758781
21
21.930867
31
0
39
0
210
0
220
0
230
1
0
LINE
5
DC
100
AcDbEntity
8
1
62
256
6
ByLayer
370
13
48
1
60
0
100
AcDbLine
10
45.1
20
21.723205
30
0
11
45.1
21
21.674965
31
0
39
0
210
0
220
0
230
1
0
LINE
5
DD
100
AcDbEntity
8
1
62
256
6
ByLayer
370
13
48
1
60
0
100
AcDbLine
10
45.1
20
19.325035
30
0
11
45.1
21
19.276795
31
0
39
0
210
0
220
0
230
1
0
LINE
5
DE
100
AcDbEntity
8
1
62
256
6
ByLayer
370
13
48
1
60
0
100
AcDbLine
10
50.374468
20
21.625438
30
0
11
50.38199
21
21.625438
31
0
39
0
210
0
220
0
230
1
0
LINE
5
DF
100
AcDbEntity
8
1
62
256
6
ByLayer
370
13
48
1
60
0
100
AcDbLine
10
46.966112
20
21.675001
30
0
11
46.966112
21
21.75
31
0
39
0
210
0
220
0
230
1
0
LINE
5
E0
100
AcDbEntity
8
1
62
256
6
ByLayer
370
13
48
1
60
0
100
AcDbLine
10
46.966112
20
19.324999
30
0
11
46.966112
21
19.25
31
0
39
0
210
0
220
0
230
1
0
LINE
5
E1
100
AcDbEntity
8
1
62
256
6
ByLayer
370
13
48
1
60
0
100
AcDbLine
10
50.374468
20
19.374562
30
0
11
50.38199
21
19.374562
31
0
39
0
210
0
220
0
230
1
0
LINE
5
E2
100
AcDbEntity
8
1
62
256
6
ByLayer
370
13
48
1
60
0
100
AcDbLine
10
50.398005
20
20.867998
30
0
11
50.46942
21
20.867998
31
0
39
0
210
0
220
0
230
1
0
LINE
5
E3
100
AcDbEntity
8
1
62
256
6
ByLayer
370
13
48
1
60
0
100
AcDbLine
10
50.398005
20
20.132002
30
0
11
50.46942
21
20.132002
31
0
39
0
210
0
220
0
230
1
0
LINE
5
E4
100
AcDbEntity
8
1
62
256
6
ByLayer
370
13
48
1
60
0
100
AcDbLine
10
50.54904
20
20.700756
30
0
11
50.987507
21
20.700756
31
0
39
0
210
0
220
0
230
1
0
LINE
5
E5
100
AcDbEntity
8
1
62
256
6
ByLayer
370
13
48
1
60
0
100
AcDbLine
10
50.54904
20
20.299244
30
0
11
50.987507
21
20.299244
31
0
39
0
210
0
220
0
230
1
0
LINE
5
E6
100
AcDbEntity
8
1
62
256
6
ByLayer
370
13
48
1
60
0
100
AcDbLine
10
53.82193
20
19.608704
30
0
11
53.811268
21
19.911944
31
0
39
0
210
0
220
0
230
1
0
LINE
5
E7
100
AcDbEntity
8
1
62
256
6
ByLayer
370
13
48
1
60
0
100
AcDbLine
10
53.82193
20
21.391296
30
0
11
53.811268
21
21.088056
31
0
39
0
210
0
220
0
230
1
0
LINE
5
E8
100
AcDbEntity
8
1
62
256
6
ByLayer
370
13
48
1
60
0
100
AcDbLine
10
54.944165
20
19.92161
30
0
11
54.997026
21
19.92161
31
0
39
0
210
0
220
0
230
1
0
LINE
5
E9
100
AcDbEntity
8
1
62
256
6
ByLayer
370
13
48
1
60
0
100
AcDbLine
10
54.944165
20
21.07839
30
0
11
54.997026
21
21.07839
31
0
39
0
210
0
220
0
230
1
0
LINE
5
EA
100
AcDbEntity
8
1
62
256
6
ByLayer
370
13
48
1
60
0
100
AcDbLine
10
54.948049
20
19.76293
30
0
11
55
21
19.76293
31
0
39
0
210
0
220
0
230
1
0
LINE
5
EB
100
AcDbEntity
8
1
62
256
6
ByLayer
370
13
48
1
60
0
100
AcDbLine
10
54.997026
20
19.92161
30
0
11
54.997026
21
21.07839
31
0
39
0
210
0
220
0
230
1
0
LINE
5
EC
100
AcDbEntity
8
1
62
256
6
ByLayer
370
13
48
1
60
0
100
AcDbLine
10
54.948049
20
21.23707
30
0
11
55
21
21.23707
31
0
39
0
210
0
220
0
230
1
0
LINE
5
ED
100
AcDbEntity
8
1
62
256
6
ByLayer
370
13
48
1
60
0
100
AcDbLine
10
50.552254
20
20.697335
30
0
11
50.996489
21
20.697335
31
0
39
0
210
0
220
0
230
1
0
LINE
5
EE
100
AcDbEntity
8
1
62
256
6
ByLayer
370
13
48
1
60
0
100
AcDbLine
10
50.552254
20
20.302665
30
0
11
50.996489
21
20.302665
31
0
39
0
210
0
220
0
230
1
0
LINE
5
EF
100
AcDbEntity
8
1
62
256
6
ByLayer
370
13
48
1
60
0
100
AcDbLine
10
54.944165
20
21.07839
30
0
11
54.944165
21
19.92161
31
0
39
0
210
0
220
0
230
1
0
LINE
5
F0
100
AcDbEntity
8
1
62
256
6
ByLayer
370
13
48
1
60
0
100
AcDbLine
10
50.54904
20
20.700756
30
0
11
50.552254
21
20.697335
31
0
39
0
210
0
220
0
230
1
0
LINE
5
F1
100
AcDbEntity
8
1
62
256
6
ByLayer
370
13
48
1
60
0
100
AcDbLine
10
54.421373
20
21.089076
30
0
11
54.421373
21
19.910924
31
0
39
0
210
0
220
0
230
1
0
LINE
5
F2
100
AcDbEntity
8
1
62
256
6
ByLayer
370
13
48
1
60
0
100
AcDbLine
10
50.54904
20
20.299244
30
0
11
50.552254
21
20.302665
31
0
39
0
210
0
220
0
230
1
0
LINE
5
F3
100
AcDbEntity
8
1
62
256
6
ByLayer
370
13
48
1
60
0
100
AcDbLine
10
53.811268
20
21.088056
30
0
11
53.811268
21
19.911944
31
0
39
0
210
0
220
0
230
1
0
LINE
5
F4
100
AcDbEntity
8
1
62
256
6
ByLayer
370
13
48
1
60
0
100
AcDbLine
10
50.391842
20
20.751024
30
0
11
50.506333
21
20.751024
31
0
39
0
210
0
220
0
230
1
0
LINE
5
F5
100
AcDbEntity
8
1
62
256
6
ByLayer
370
13
48
1
60
0
100
AcDbLine
10
50.390074
20
20.299244
30
0
11
50.54904
21
20.299244
31
0
39
0
210
0
220
0
230
1
0
LINE
5
F6
100
AcDbEntity
8
1
62
256
6
ByLayer
370
13
48
1
60
0
100
AcDbLine
10
50.391842
20
20.248976
30
0
11
50.506333
21
20.248976
31
0
39
0
210
0
220
0
230
1
0
LINE
5
F7
100
AcDbEntity
8
1
62
256
6
ByLayer
370
13
48
1
60
0
100
AcDbLine
10
46.589581
20
21.75
30
0
11
46.545758
21
21.674998
31
0
39
0
210
0
220
0
230
1
0
LINE
5
F8
100
AcDbEntity
8
1
62
256
6
ByLayer
370
13
48
1
60
0
100
AcDbLine
10
50.389954
20
20.302665
30
0
11
50.552254
21
20.302665
31
0
39
0
210
0
220
0
230
1
0
LINE
5
F9
100
AcDbEntity
8
1
62
256
6
ByLayer
370
13
48
1
60
0
100
AcDbLine
10
50.390074
20
20.700756
30
0
11
50.54904
21
20.700756
31
0
39
0
210
0
220
0
230
1
0
LINE
5
FA
100
AcDbEntity
8
1
62
256
6
ByLayer
370
13
48
1
60
0
100
AcDbLine
10
50.389954
20
20.697335
30
0
11
50.552254
21
20.697335
31
0
39
0
210
0
220
0
230
1
0
LINE
5
FB
100
AcDbEntity
8
1
62
256
6
ByLayer
370
13
48
1
60
0
100
AcDbLine
10
46.589581
20
19.25
30
0
11
46.545758
21
19.325002
31
0
39
0
210
0
220
0
230
1
0
LINE
5
FC
100
AcDbEntity
8
1
62
256
6
ByLayer
370
13
48
1
60
0
100
AcDbLine
10
45.665685
20
21.674997
30
0
11
45.665685
21
21.75
31
0
39
0
210
0
220
0
230
1
0
LINE
5
FD
100
AcDbEntity
8
1
62
256
6
ByLayer
370
18
48
1
60
0
100
AcDbLine
10
55.000117
20
21.264766
30
0
11
55.004691
21
21.805556
31
0
39
0
210
0
220
0
230
1
0
LINE
5
FE
100
AcDbEntity
8
1
62
256
6
ByLayer
370
18
48
1
60
0
100
AcDbLine
10
55
20
19.76293
30
0
11
55
21
21.23707
31
0
39
0
210
0
220
0
230
1
0
LINE
5
FF
100
AcDbEntity
8
1
62
256
6
ByLayer
370
18
48
1
60
0
100
AcDbLine
10
51.69752
20
21.807909
30
0
11
51.64436
21
21.777217
31
0
39
0
210
0
220
0
230
1
0
LINE
5
100
100
AcDbEntity
8
1
62
256
6
ByLayer
370
18
48
1
60
0
100
AcDbLine
10
45.2
20
19.25
30
0
11
45.665685
21
19.25
31
0
39
0
210
0
220
0
230
1
0
LINE
5
101
100
AcDbEntity
8
1
62
256
6
ByLayer
370
18
48
1
60
0
100
AcDbLine
10
46.589581
20
21.75
30
0
11
45.665685
21
21.75
31
0
39
0
210
0
220
0
230
1
0
LINE
5
102
100
AcDbEntity
8
1
62
256
6
ByLayer
370
18
48
1
60
0
100
AcDbLine
10
50.663912
20
19.25
30
0
11
51.387574
21
19.25
31
0
39
0
210
0
220
0
230
1
0
LINE
5
103
100
AcDbEntity
8
1
62
256
6
ByLayer
370
18
48
1
60
0
100
AcDbLine
10
45.665685
20
19.25
30
0
11
46.589581
21
19.25
31
0
39
0
210
0
220
0
230
1
0
LINE
5
104
100
AcDbEntity
8
1
62
256
6
ByLayer
370
18
48
1
60
0
100
AcDbLine
10
52.39812
20
21.8662
30
0
11
52.315472
21
21.866214
31
0
39
0
210
0
220
0
230
1
0
LINE
5
105
100
AcDbEntity
8
1
62
256
6
ByLayer
370
18
48
1
60
0
100
AcDbLine
10
51.795343
20
19.165009
30
0
11
52.137538
21
19.141081
31
0
39
0
210
0
220
0
230
1
0
LINE
5
106
100
AcDbEntity
8
1
62
256
6
ByLayer
370
18
48
1
60
0
100
AcDbLine
10
46.966112
20
21.75
30
0
11
46.647775
21
21.75
31
0
39
0
210
0
220
0
230
1
0
LINE
5
107
100
AcDbEntity
8
1
62
256
6
ByLayer
370
18
48
1
60
0
100
AcDbLine
10
54.535516
20
19.007825
30
0
11
54.795632
21
18.991796
31
0
39
0
210
0
220
0
230
1
0
LINE
5
108
100
AcDbEntity
8
1
62
256
6
ByLayer
370
18
48
1
60
0
100
AcDbLine
10
46.966112
20
19.25
30
0
11
50.38199
21
19.25
31
0
39
0
210
0
220
0
230
1
0
LINE
5
109
100
AcDbEntity
8
1
62
256
6
ByLayer
370
18
48
1
60
0
100
AcDbLine
10
51.387574
20
21.75
30
0
11
50.663912
21
21.75
31
0
39
0
210
0
220
0
230
1
0
LINE
5
10A
100
AcDbEntity
8
1
62
256
6
ByLayer
370
18
48
1
60
0
100
AcDbLine
10
54.46476
20
21.987072
30
0
11
54.106077
21
21.957412
31
0
39
0
210
0
220
0
230
1
0
LINE
5
10B
100
AcDbEntity
8
1
62
256
6
ByLayer
370
18
48
1
60
0
100
AcDbLine
10
50.38199
20
21.75
30
0
11
46.966112
21
21.75
31
0
39
0
210
0
220
0
230
1
0
LINE
5
10C
100
AcDbEntity
8
1
62
256
6
ByLayer
370
18
48
1
60
0
100
AcDbLine
10
51.553398
20
19.25
30
0
11
51.455978
21
19.25
31
0
39
0
210
0
220
0
230
1
0
LINE
5
10D
100
AcDbEntity
8
1
62
256
6
ByLayer
370
18
48
1
60
0
100
AcDbLine
10
46.647775
20
19.25
30
0
11
46.966112
21
19.25
31
0
39
0
210
0
220
0
230
1
0
LINE
5
10E
100
AcDbEntity
8
1
62
256
6
ByLayer
370
18
48
1
60
0
100
AcDbLine
10
51.455978
20
21.75
30
0
11
51.387574
21
21.75
31
0
39
0
210
0
220
0
230
1
0
LINE
5
10F
100
AcDbEntity
8
1
62
256
6
ByLayer
370
18
48
1
60
0
100
AcDbLine
10
54.795632
20
22.008204
30
0
11
54.535516
21
21.992175
31
0
39
0
210
0
220
0
230
1
0
LINE
5
110
100
AcDbEntity
8
1
62
256
6
ByLayer
370
18
48
1
60
0
100
AcDbLine
10
53.458781
20
19.090215
30
0
11
53.758781
21
19.069133
31
0
39
0
210
0
220
0
230
1
0
LINE
5
111
100
AcDbEntity
8
1
62
256
6
ByLayer
370
18
48
1
60
0
100
AcDbLine
10
51.654705
20
19.222882
30
0
11
51.709449
21
19.191276
31
0
39
0
210
0
220
0
230
1
0
LINE
5
112
100
AcDbEntity
8
1
62
256
6
ByLayer
370
18
48
1
60
0
100
AcDbLine
10
51.387574
20
19.25
30
0
11
51.455978
21
19.25
31
0
39
0
210
0
220
0
230
1
0
LINE
5
113
100
AcDbEntity
8
1
62
256
6
ByLayer
370
18
48
1
60
0
100
AcDbLine
10
54.106077
20
19.042588
30
0
11
54.46476
21
19.012928
31
0
39
0
210
0
220
0
230
1
0
LINE
5
114
100
AcDbEntity
8
1
62
256
6
ByLayer
370
18
48
1
60
0
100
AcDbLine
10
52.315472
20
19.133786
30
0
11
52.39812
21
19.1338
31
0
39
0
210
0
220
0
230
1
0
LINE
5
115
100
AcDbEntity
8
1
62
256
6
ByLayer
370
18
48
1
60
0
100
AcDbLine
10
50.572358
20
21.75
30
0
11
50.38199
21
21.75
31
0
39
0
210
0
220
0
230
1
0
LINE
5
116
100
AcDbEntity
8
1
62
256
6
ByLayer
370
18
48
1
60
0
100
AcDbLine
10
46.589581
20
19.25
30
0
11
46.635194
21
19.25
31
0
39
0
210
0
220
0
230
1
0
LINE
5
117
100
AcDbEntity
8
1
62
256
6
ByLayer
370
18
48
1
60
0
100
AcDbLine
10
53.758781
20
21.930867
30
0
11
53.458781
21
21.909785
31
0
39
0
210
0
220
0
230
1
0
LINE
5
118
100
AcDbEntity
8
1
62
256
6
ByLayer
370
18
48
1
60
0
100
AcDbLine
10
52.137538
20
21.858919
30
0
11
51.78336
21
21.834153
31
0
39
0
210
0
220
0
230
1
0
LINE
5
119
100
AcDbEntity
8
1
62
256
6
ByLayer
370
18
48
1
60
0
100
AcDbLine
10
50.663912
20
21.75
30
0
11
50.572358
21
21.75
31
0
39
0
210
0
220
0
230
1
0
LINE
5
11A
100
AcDbEntity
8
1
62
256
6
ByLayer
370
18
48
1
60
0
100
AcDbLine
10
50.572358
20
19.25
30
0
11
50.663912
21
19.25
31
0
39
0
210
0
220
0
230
1
0
LINE
5
11B
100
AcDbEntity
8
1
62
256
6
ByLayer
370
18
48
1
60
0
100
AcDbLine
10
46.635194
20
21.75
30
0
11
46.589581
21
21.75
31
0
39
0
210
0
220
0
230
1
0
LINE
5
11C
100
AcDbEntity
8
1
62
256
6
ByLayer
370
18
48
1
60
0
100
AcDbLine
10
55.004691
20
19.194444
30
0
11
55.000117
21
19.735234
31
0
39
0
210
0
220
0
230
1
0
LINE
5
11D
100
AcDbEntity
8
1
62
256
6
ByLayer
370
18
48
1
60
0
100
AcDbLine
10
51.455978
20
21.75
30
0
11
51.542652
21
21.75
31
0
39
0
210
0
220
0
230
1
0
LINE
5
11E
100
AcDbEntity
8
1
62
256
6
ByLayer
370
18
48
1
60
0
100
AcDbLine
10
50.38199
20
19.25
30
0
11
50.572358
21
19.25
31
0
39
0
210
0
220
0
230
1
0
LINE
5
11F
100
AcDbEntity
8
1
62
256
6
ByLayer
370
18
48
1
60
0
100
AcDbLine
10
45.665685
20
21.75
30
0
11
45.2
21
21.75
31
0
39
0
210
0
220
0
230
1
0
MTEXT
5
23A
100
AcDbEntity
8
SK6
62
256
6
ByLayer
370
18
48
1
60
0
100
AcDbMText
10
-13.625
20
-47.870715
30
0
210
0
220
0
230
1
1
\W0.7800;C3-QD-RFG25C22055A
40
3.5
41
0
44
1.084337
50
0
71
7
72
5
7
iso_b_vert
0
DIMENSION
5
24C
100
AcDbEntity
8
2
62
256
6
ByLayer
370
13
48
1
60
0
100
AcDbDimension
2
DimnDraft3D1
10
80.1
20
22
30
0
11
80.1
21
8.909211
31
0
70
32
71
5
72
1
41
1
210
0
220
0
230
1
3
Standard
100
AcDbAlignedDimension
13
32
23
0
33
0
14
57
24
22
34
0
50
90
100
AcDbRotatedDimension
1001
ACAD
1000
DSTYLE
1002
{
1070
    74
1070
     0
1070
   279
1070
     0
1070
   172
1070
     1
1070
   173
1070
     1
1070
   340
1005
23B
1070
   271
1070
     1
1070
    77
1070
     1
1070
    73
1070
     0
1070
   171
1070
     3
1070
   274
1070
     4
1070
   177
1070
     2
1070
   176
1070
     2
1070
   178
1070
     7
1070
    78
1070
     8
1070
    41
1041
3.175
1070
   147
1041
1.75
1070
    42
1041
2.0
1070
    44
1041
2.0
1070
   140
1041
3.5
1070
   343
1005
24D
1070
   344
1005
24D
1002
}
0
DIMENSION
5
262
100
AcDbEntity
8
SK2
62
256
6
ByLayer
370
13
48
1
60
0
100
AcDbDimension
2
DimnDraft3D2
10
55
20
44.608569
30
0
11
25.409211
21
44.608569
31
0
70
32
71
5
72
1
41
1
210
0
220
0
230
1
3
Standard
100
AcDbAlignedDimension
13
0
23
2
33
0
14
55
24
24
34
0
50
0
100
AcDbRotatedDimension
1001
ACAD
1000
DSTYLE
1002
{
1070
   279
1070
     0
1070
   172
1070
     1
1070
   173
1070
     1
1070
   340
1005
23B
1070
   271
1070
     1
1070
    77
1070
     1
1070
    73
1070
     0
1070
   171
1070
     3
1070
   274
1070
     4
1070
   177
1070
     2
1070
   176
1070
     2
1070
   178
1070
     7
1070
    78
1070
     8
1070
    41
1041
3.175
1070
   147
1041
1.75
1070
    42
1041
2.0
1070
    44
1041
2.0
1070
   140
1041
3.5
1070
   343
1005
24D
1070
   344
1005
24D
1002
}
0
DIMENSION
5
270
100
AcDbEntity
8
2
62
256
6
ByLayer
370
13
48
1
60
0
100
AcDbDimension
2
DimnDraft3D3
10
30
20
-29.1
30
0
11
40.409211
21
-29.1
31
0
70
32
71
5
72
1
41
1
210
0
220
0
230
1
3
Standard
100
AcDbAlignedDimension
13
55
23
20
33
0
14
30
24
-2
34
0
50
0
100
AcDbRotatedDimension
1001
ACAD
1000
DSTYLE
1002
{
1070
   279
1070
     0
1070
   172
1070
     1
1070
   173
1070
     1
1070
   340
1005
23B
1070
   271
1070
     1
1070
    77
1070
     1
1070
    73
1070
     0
1070
   171
1070
     3
1070
   274
1070
     4
1070
   177
1070
     2
1070
   176
1070
     2
1070
   178
1070
     7
1070
    78
1070
     8
1070
    41
1041
3.175
1070
   147
1041
1.75
1070
    42
1041
2.0
1070
    44
1041
2.0
1070
   140
1041
3.5
1070
   343
1005
24D
1070
   344
1005
24D
1002
}
0
DIMENSION
5
27E
100
AcDbEntity
8
SK2
62
256
6
ByLayer
370
13
48
1
60
0
100
AcDbDimension
2
DimnDraft3D4
10
-28.6
20
-16
30
0
11
-28.6
21
-2.090789
31
0
70
32
71
5
72
1
41
1
210
0
220
0
230
1
3
Standard
100
AcDbAlignedDimension
13
-2
23
16
33
0
14
-2
24
-16
34
0
50
90
100
AcDbRotatedDimension
1001
ACAD
1000
DSTYLE
1002
{
1070
    74
1070
     0
1070
   279
1070
     0
1070
   172
1070
     1
1070
   173
1070
     1
1070
   340
1005
23B
1070
   271
1070
     1
1070
    77
1070
     1
1070
    73
1070
     0
1070
   171
1070
     3
1070
   274
1070
     4
1070
   177
1070
     2
1070
   176
1070
     2
1070
   178
1070
     7
1070
    78
1070
     8
1070
    41
1041
3.175
1070
   147
1041
1.75
1070
    42
1041
2.0
1070
    44
1041
2.0
1070
   140
1041
3.5
1070
   343
1005
24D
1070
   344
1005
24D
1002
}
0
DIMENSION
5
28C
100
AcDbEntity
8
2
62
256
6
ByLayer
370
13
48
1
60
0
100
AcDbDimension
2
DimnDraft3D5
10
73.1
20
19
30
0
11
73.1
21
7.179211
31
0
70
32
71
5
72
1
41
1
210
0
220
0
230
1
3
Standard
100
AcDbAlignedDimension
13
57
23
22
33
0
14
57
24
19
34
0
50
90
100
AcDbRotatedDimension
1001
ACAD
1000
DSTYLE
1002
{
1070
    74
1070
     0
1070
   279
1070
     0
1070
   172
1070
     1
1070
   173
1070
     1
1070
   340
1005
23B
1070
   271
1070
     1
1070
    77
1070
     1
1070
    73
1070
     0
1070
   171
1070
     3
1070
   274
1070
     4
1070
   177
1070
     2
1070
   176
1070
     2
1070
   178
1070
     7
1070
    78
1070
     8
1070
    41
1041
3.175
1070
   147
1041
1.75
1070
    42
1041
2.0
1070
    44
1041
2.0
1070
   140
1041
3.5
1070
   343
1005
24D
1070
   344
1005
24D
1002
}
0
ENDSEC
0
SECTION
2
OBJECTS
0
DICTIONARY
5
2f6
330
0
100
AcDbDictionary
280
0
281
1
3
ACAD_GROUP
350
2f7
3
ACAD_MLINESTYLE
350
2f8
0
DICTIONARY
5
2f7
330
0
100
AcDbDictionary
280
0
281
1
0
DICTIONARY
5
2f8
330
0
100
AcDbDictionary
280
0
281
1
3
Standard
350
18
0
MLINESTYLE
5
18
330
2f8
100
AcDbMlineStyle
2
Standard
70
0
3

62
256
51
90
52
90
71
2
49
-0.5
62
256
6
ByLayer
49
0.5
62
256
6
ByLayer
0
RASTERVARIABLES
5
2e5
330

100
AcDbRasterVariables
90
0
70
1
71
1
72
1
0
ENDSEC
0
EOF
