0
SECTION
2
HEADER
9
$ACADVER
1
AC1015
9
$DWGCODEPAGE
3
ANSI_1252
9
$HANDSEED
5
2eb
9
$ANGBASE
50
0
9
$ANGDIR
70
0
9
$ATTMODE
70
1
9
$AUNITS
70
0
9
$AUPREC
70
0
9
$CECOLOR
62
256
9
$CELTSCALE
40
1
9
$CELTYPE
6
ByLayer
9
$CELWEIGHT
370
18
9
$CLAYER
8
0
9
$CMLJUST
70
0
9
$CMLSCALE
40
1
9
$CMLSTYLE
2
Standard
9
$DIMSTYLE
2
Standard
9
$TEXTSIZE
40
0.2
9
$TEXTSTYLE
7
Standard
9
$LUNITS
70
2
9
$LUPREC
70
4
9
$EXTNAMES
290
1
9
$INSUNITS
70
4
9
$LTSCALE
40
1
9
$LWDISPLAY
290
1
9
$PDMODE
70
0
9
$PDSIZE
40
0
9
$PLINEGEN
70
0
0
ENDSEC
0
SECTION
2
CLASSES
0
CLASS
1
RASTERVARIABLES
2
AcDbRasterVariables
3
ISM
90
0
280
0
281
0
0
ENDSEC
0
SECTION
2
TABLES
0
TABLE
2
VPORT
5
2e1
100
AcDbSymbolTable
0
VPORT
5
1
100
AcDbSymbolTableRecord
100
AcDbViewportTableRecord
2
*Active
70
0
10
0
20
0
11
1
21
1
12
-1
22
1
13
0
23
0
14
0.5
24
0.5
15
10
25
10
16
0
26
0
36
1
17
0
27
0
37
0
0
ENDTAB
0
TABLE
2
LTYPE
5
2e2
100
AcDbSymbolTable
0
LTYPE
5
14
100
AcDbSymbolTableRecord
100
AcDbLinetypeTableRecord
70
0
2
ByBlock
3

72
65
73
0
40
0
0
LTYPE
5
15
100
AcDbSymbolTableRecord
100
AcDbLinetypeTableRecord
70
0
2
ByLayer
3

72
65
73
0
40
0
0
LTYPE
5
16
100
AcDbSymbolTableRecord
100
AcDbLinetypeTableRecord
70
0
2
CONTINUOUS
3
Solid line
72
65
73
0
40
0
0
LTYPE
5
6A
100
AcDbSymbolTableRecord
100
AcDbLinetypeTableRecord
70
0
2
CENTER
3
____ _ ____ _ ____ _ ____
72
65
73
4
40
47.5
49
22
74
0
49
-8.5
74
0
49
8.5
74
0
49
-8.5
74
0
0
LTYPE
5
6B
100
AcDbSymbolTableRecord
100
AcDbLinetypeTableRecord
70
0
2
DASHED
3
__ __ __ __ __ __ __ __ __
72
65
73
2
40
25.72
49
12.86
74
0
49
-12.86
74
0
0
ENDTAB
0
TABLE
2
LAYER
5
2e3
100
AcDbSymbolTable
0
LAYER
5
10
100
AcDbSymbolTableRecord
100
AcDbLayerTableRecord
2
0
70
0
62
7
6
CONTINUOUS
290
1
370
-3
390
0
0
LAYER
5
6D
100
AcDbSymbolTableRecord
100
AcDbLayerTableRecord
2
81
70
0
62
-3
6
CONTINUOUS
290
1
370
-3
390
0
0
LAYER
5
6F
100
AcDbSymbolTableRecord
100
AcDbLayerTableRecord
2
80
70
0
62
-6
6
CONTINUOUS
290
1
370
-3
390
0
0
LAYER
5
71
100
AcDbSymbolTableRecord
100
AcDbLayerTableRecord
2
1
70
0
62
4
6
CONTINUOUS
290
1
370
-3
390
0
0
LAYER
5
228
100
AcDbSymbolTableRecord
100
AcDbLayerTableRecord
2
2
70
0
62
7
6
CONTINUOUS
290
1
370
-3
390
0
0
LAYER
5
2ce
100
AcDbSymbolTableRecord
100
AcDbLayerTableRecord
2
SK1
70
0
62
4
6
CONTINUOUS
290
1
370
-3
390
0
0
LAYER
5
2cf
100
AcDbSymbolTableRecord
100
AcDbLayerTableRecord
2
SK6
70
0
62
5
6
CONTINUOUS
290
1
370
-3
390
0
0
LAYER
5
2d0
100
AcDbSymbolTableRecord
100
AcDbLayerTableRecord
2
SK2
70
0
62
7
6
CONTINUOUS
290
1
370
-3
390
0
0
ENDTAB
0
TABLE
2
STYLE
5
2e4
100
AcDbSymbolTable
0
STYLE
5
11
100
AcDbSymbolTableRecord
100
AcDbTextStyleTableRecord
2
Standard
3
txt
70
0
71
0
40
0
41
1
42
0
50
0
0
STYLE
5
223
100
AcDbSymbolTableRecord
100
AcDbTextStyleTableRecord
2
iso_b_vert
3
simplex.shx
70
0
71
0
40
0
41
1
42
0
50
0
0
STYLE
5
224
100
AcDbSymbolTableRecord
100
AcDbTextStyleTableRecord
2
DWGDirectTextStyle
3
simplex
70
0
71
0
40
0
41
1
42
0
50
0
0
ENDTAB
0
TABLE
2
DIMSTYLE
5
2e5
100
AcDbSymbolTable
100
AcDbDimStyleTable
0
DIMSTYLE
105
27
100
AcDbSymbolTableRecord
100
AcDbDimStyleTableRecord
2
Standard
70
0
3
<>
41
0.18
42
0.0625
44
0.18
140
0.18
147
0.09
73
0
74
0
77
1
271
2
275
0
278
52
280
0
340
11
0
ENDTAB
0
TABLE
2
VIEW
5
2e6
100
AcDbSymbolTable
0
ENDTAB
0
TABLE
2
UCS
5
2e7
100
AcDbSymbolTable
0
ENDTAB
0
TABLE
2
APPID
5
2e8
100
AcDbSymbolTable
0
APPID
5
12
100
AcDbSymbolTableRecord
100
AcDbRegAppTableRecord
2
ACAD
70
0
0
ENDTAB
0
TABLE
2
BLOCK_RECORD
5
2e9
100
AcDbSymbolTable
0
BLOCK_RECORD
5
1F
100
AcDbSymbolTableRecord
100
AcDbBlockTableRecord
2
*Model_Space
340
0
70
0
0
BLOCK_RECORD
5
1B
100
AcDbSymbolTableRecord
100
AcDbBlockTableRecord
2
*Paper_Space
340
0
70
0
0
BLOCK_RECORD
5
23
100
AcDbSymbolTableRecord
100
AcDbBlockTableRecord
2
*Paper_Space0
340
0
70
0
0
BLOCK_RECORD
5
226
100
AcDbSymbolTableRecord
100
AcDbBlockTableRecord
2
DimnDraft3D1
340
0
70
0
0
BLOCK_RECORD
5
235
100
AcDbSymbolTableRecord
100
AcDbBlockTableRecord
2
_CLOSED
340
0
70
0
0
BLOCK_RECORD
5
23C
100
AcDbSymbolTableRecord
100
AcDbBlockTableRecord
2
DimnDraft3D2
340
0
70
0
0
BLOCK_RECORD
5
24B
100
AcDbSymbolTableRecord
100
AcDbBlockTableRecord
2
DimnDraft3D3
340
0
70
0
0
BLOCK_RECORD
5
259
100
AcDbSymbolTableRecord
100
AcDbBlockTableRecord
2
DimnDraft3D4
340
0
70
0
0
BLOCK_RECORD
5
267
100
AcDbSymbolTableRecord
100
AcDbBlockTableRecord
2
DimnDraft3D5
340
0
70
0
0
ENDTAB
0
ENDSEC
0
SECTION
2
BLOCKS
0
BLOCK
5
20
100
AcDbEntity
8
0
100
AcDbBlockBegin
2
*Model_Space
70
0
10
0
20
0
30
0
3
*Model_Space
0
ENDBLK
5
21
100
AcDbEntity
8
0
100
AcDbBlockEnd
0
BLOCK
5
1C
100
AcDbEntity
8
0
100
AcDbBlockBegin
2
*Paper_Space
70
0
10
0
20
0
30
0
3
*Paper_Space
0
ENDBLK
5
1D
100
AcDbEntity
8
0
100
AcDbBlockEnd
0
BLOCK
5
24
100
AcDbEntity
8
0
100
AcDbBlockBegin
2
*Paper_Space0
70
0
10
0
20
0
30
0
3
*Paper_Space0
0
ENDBLK
5
25
100
AcDbEntity
8
0
100
AcDbBlockEnd
0
BLOCK
5
232
100
AcDbEntity
8
0
100
AcDbBlockBegin
2
DimnDraft3D1
70
0
10
0
20
0
30
0
3
DimnDraft3D1
0
MTEXT
5
227
100
AcDbEntity
8
2
62
256
6
ByLayer
370
18
48
1
60
0
100
AcDbMText
10
79.225
20
9.784211
30
0
210
0
220
0
230
1
1
\W0.6740;22
40
3.5
41
0
44
1.084337
50
90
71
7
72
5
7
iso_b_vert
0
LINE
5
229
100
AcDbEntity
8
2
62
256
6
ByLayer
370
13
48
1
60
0
100
AcDbLine
10
32
20
0
30
0
11
82.1
21
0
31
0
39
0
210
0
220
0
230
1
0
LINE
5
22A
100
AcDbEntity
8
2
62
256
6
ByLayer
370
13
48
1
60
0
100
AcDbLine
10
57
20
22
30
0
11
82.1
21
22
31
0
39
0
210
0
220
0
230
1
0
LINE
5
22B
100
AcDbEntity
8
2
62
256
6
ByLayer
370
13
48
1
60
0
100
AcDbLine
10
80.1
20
0
30
0
11
80.1
21
22
31
0
39
0
210
0
220
0
230
1
0
LINE
5
22C
100
AcDbEntity
8
2
62
256
6
ByLayer
370
13
48
1
60
0
100
AcDbLine
10
80.1
20
0
30
0
11
79.682003
21
3.174998
31
0
39
0
210
0
220
0
230
1
0
LINE
5
22D
100
AcDbEntity
8
2
62
256
6
ByLayer
370
13
48
1
60
0
100
AcDbLine
10
80.1
20
0
30
0
11
80.517997
21
3.175002
31
0
39
0
210
0
220
0
230
1
0
LINE
5
22E
100
AcDbEntity
8
2
62
256
6
ByLayer
370
13
48
1
60
0
100
AcDbLine
10
79.682003
20
3.174998
30
0
11
80.517997
21
3.175002
31
0
39
0
210
0
220
0
230
1
0
LINE
5
22F
100
AcDbEntity
8
2
62
256
6
ByLayer
370
13
48
1
60
0
100
AcDbLine
10
80.1
20
22
30
0
11
80.517997
21
18.825002
31
0
39
0
210
0
220
0
230
1
0
LINE
5
230
100
AcDbEntity
8
2
62
256
6
ByLayer
370
13
48
1
60
0
100
AcDbLine
10
80.1
20
22
30
0
11
79.682003
21
18.824998
31
0
39
0
210
0
220
0
230
1
0
LINE
5
231
100
AcDbEntity
8
2
62
256
6
ByLayer
370
13
48
1
60
0
100
AcDbLine
10
80.517997
20
18.825002
30
0
11
79.682003
21
18.824998
31
0
39
0
210
0
220
0
230
1
0
ENDBLK
5
233
100
AcDbEntity
8
0
100
AcDbBlockEnd
0
BLOCK
5
236
100
AcDbEntity
8
0
100
AcDbBlockBegin
2
_CLOSED
70
0
10
0
20
0
30
0
3
_CLOSED
0
LINE
5
238
100
AcDbEntity
8
0
62
256
6
ByLayer
370
-2
48
1
60
0
100
AcDbLine
10
-1
20
0.166667
30
0
11
0
21
0
31
0
39
0
210
0
220
0
230
1
0
LINE
5
239
100
AcDbEntity
8
0
62
256
6
ByLayer
370
-2
48
1
60
0
100
AcDbLine
10
0
20
0
30
0
11
-1
21
-0.166667
31
0
39
0
210
0
220
0
230
1
0
LINE
5
23A
100
AcDbEntity
8
0
62
256
6
ByLayer
370
-2
48
1
60
0
100
AcDbLine
10
-1
20
0.166667
30
0
11
-1
21
-0.166667
31
0
39
0
210
0
220
0
230
1
0
LINE
5
23B
100
AcDbEntity
8
0
62
256
6
ByLayer
370
-2
48
1
60
0
100
AcDbLine
10
0
20
0
30
0
11
-1
21
0
31
0
39
0
210
0
220
0
230
1
0
ENDBLK
5
237
100
AcDbEntity
8
0
100
AcDbBlockEnd
0
BLOCK
5
248
100
AcDbEntity
8
0
100
AcDbBlockBegin
2
DimnDraft3D2
70
0
10
0
20
0
30
0
3
DimnDraft3D2
0
MTEXT
5
23D
100
AcDbEntity
8
SK2
62
256
6
ByLayer
370
18
48
1
60
0
100
AcDbMText
10
26.284211
20
45.475889
30
0
210
0
220
0
230
1
1
\W0.6740;55
40
3.5
41
0
44
1.084337
50
0
71
7
72
5
7
iso_b_vert
0
LINE
5
23F
100
AcDbEntity
8
SK2
62
256
6
ByLayer
370
13
48
1
60
0
100
AcDbLine
10
0
20
2
30
0
11
0
21
46.600889
31
0
39
0
210
0
220
0
230
1
0
LINE
5
240
100
AcDbEntity
8
SK2
62
256
6
ByLayer
370
13
48
1
60
0
100
AcDbLine
10
55
20
24
30
0
11
55
21
46.600889
31
0
39
0
210
0
220
0
230
1
0
LINE
5
241
100
AcDbEntity
8
SK2
62
256
6
ByLayer
370
13
48
1
60
0
100
AcDbLine
10
0
20
44.600889
30
0
11
55
21
44.600889
31
0
39
0
210
0
220
0
230
1
0
LINE
5
242
100
AcDbEntity
8
SK2
62
256
6
ByLayer
370
13
48
1
60
0
100
AcDbLine
10
0
20
44.600889
30
0
11
3.174998
21
45.018886
31
0
39
0
210
0
220
0
230
1
0
LINE
5
243
100
AcDbEntity
8
SK2
62
256
6
ByLayer
370
13
48
1
60
0
100
AcDbLine
10
0
20
44.600889
30
0
11
3.175002
21
44.182892
31
0
39
0
210
0
220
0
230
1
0
LINE
5
244
100
AcDbEntity
8
SK2
62
256
6
ByLayer
370
13
48
1
60
0
100
AcDbLine
10
3.174998
20
45.018886
30
0
11
3.175002
21
44.182892
31
0
39
0
210
0
220
0
230
1
0
LINE
5
245
100
AcDbEntity
8
SK2
62
256
6
ByLayer
370
13
48
1
60
0
100
AcDbLine
10
55
20
44.600889
30
0
11
51.825002
21
44.182892
31
0
39
0
210
0
220
0
230
1
0
LINE
5
246
100
AcDbEntity
8
SK2
62
256
6
ByLayer
370
13
48
1
60
0
100
AcDbLine
10
55
20
44.600889
30
0
11
51.824998
21
45.018886
31
0
39
0
210
0
220
0
230
1
0
LINE
5
247
100
AcDbEntity
8
SK2
62
256
6
ByLayer
370
13
48
1
60
0
100
AcDbLine
10
51.825002
20
44.182892
30
0
11
51.824998
21
45.018886
31
0
39
0
210
0
220
0
230
1
0
ENDBLK
5
249
100
AcDbEntity
8
0
100
AcDbBlockEnd
0
BLOCK
5
256
100
AcDbEntity
8
0
100
AcDbBlockBegin
2
DimnDraft3D3
70
0
10
0
20
0
30
0
3
DimnDraft3D3
0
MTEXT
5
24C
100
AcDbEntity
8
2
62
256
6
ByLayer
370
18
48
1
60
0
100
AcDbMText
10
41.284211
20
-28.225
30
0
210
0
220
0
230
1
1
\W0.6740;25
40
3.5
41
0
44
1.084337
50
0
71
7
72
5
7
iso_b_vert
0
LINE
5
24D
100
AcDbEntity
8
2
62
256
6
ByLayer
370
13
48
1
60
0
100
AcDbLine
10
55
20
20
30
0
11
55
21
-31.1
31
0
39
0
210
0
220
0
230
1
0
LINE
5
24E
100
AcDbEntity
8
2
62
256
6
ByLayer
370
13
48
1
60
0
100
AcDbLine
10
30
20
-2
30
0
11
30
21
-31.1
31
0
39
0
210
0
220
0
230
1
0
LINE
5
24F
100
AcDbEntity
8
2
62
256
6
ByLayer
370
13
48
1
60
0
100
AcDbLine
10
55
20
-29.1
30
0
11
30
21
-29.1
31
0
39
0
210
0
220
0
230
1
0
LINE
5
250
100
AcDbEntity
8
2
62
256
6
ByLayer
370
13
48
1
60
0
100
AcDbLine
10
55
20
-29.1
30
0
11
51.825002
21
-29.517997
31
0
39
0
210
0
220
0
230
1
0
LINE
5
251
100
AcDbEntity
8
2
62
256
6
ByLayer
370
13
48
1
60
0
100
AcDbLine
10
55
20
-29.1
30
0
11
51.824998
21
-28.682003
31
0
39
0
210
0
220
0
230
1
0
LINE
5
252
100
AcDbEntity
8
2
62
256
6
ByLayer
370
13
48
1
60
0
100
AcDbLine
10
51.825002
20
-29.517997
30
0
11
51.824998
21
-28.682003
31
0
39
0
210
0
220
0
230
1
0
LINE
5
253
100
AcDbEntity
8
2
62
256
6
ByLayer
370
13
48
1
60
0
100
AcDbLine
10
30
20
-29.1
30
0
11
33.174998
21
-28.682003
31
0
39
0
210
0
220
0
230
1
0
LINE
5
254
100
AcDbEntity
8
2
62
256
6
ByLayer
370
13
48
1
60
0
100
AcDbLine
10
30
20
-29.1
30
0
11
33.175002
21
-29.517997
31
0
39
0
210
0
220
0
230
1
0
LINE
5
255
100
AcDbEntity
8
2
62
256
6
ByLayer
370
13
48
1
60
0
100
AcDbLine
10
33.174998
20
-28.682003
30
0
11
33.175002
21
-29.517997
31
0
39
0
210
0
220
0
230
1
0
ENDBLK
5
257
100
AcDbEntity
8
0
100
AcDbBlockEnd
0
BLOCK
5
264
100
AcDbEntity
8
0
100
AcDbBlockBegin
2
DimnDraft3D4
70
0
10
0
20
0
30
0
3
DimnDraft3D4
0
MTEXT
5
25A
100
AcDbEntity
8
SK2
62
256
6
ByLayer
370
18
48
1
60
0
100
AcDbMText
10
-29.475
20
-1.215789
30
0
210
0
220
0
230
1
1
\W0.6740;32
40
3.5
41
0
44
1.084337
50
90
71
7
72
5
7
iso_b_vert
0
LINE
5
25B
100
AcDbEntity
8
SK2
62
256
6
ByLayer
370
13
48
1
60
0
100
AcDbLine
10
-2
20
16
30
0
11
-30.6
21
16
31
0
39
0
210
0
220
0
230
1
0
LINE
5
25C
100
AcDbEntity
8
SK2
62
256
6
ByLayer
370
13
48
1
60
0
100
AcDbLine
10
-2
20
-16
30
0
11
-30.6
21
-16
31
0
39
0
210
0
220
0
230
1
0
LINE
5
25D
100
AcDbEntity
8
SK2
62
256
6
ByLayer
370
13
48
1
60
0
100
AcDbLine
10
-28.6
20
16
30
0
11
-28.6
21
-16
31
0
39
0
210
0
220
0
230
1
0
LINE
5
25E
100
AcDbEntity
8
SK2
62
256
6
ByLayer
370
13
48
1
60
0
100
AcDbLine
10
-28.6
20
16
30
0
11
-28.182003
21
12.825002
31
0
39
0
210
0
220
0
230
1
0
LINE
5
25F
100
AcDbEntity
8
SK2
62
256
6
ByLayer
370
13
48
1
60
0
100
AcDbLine
10
-28.6
20
16
30
0
11
-29.017997
21
12.824998
31
0
39
0
210
0
220
0
230
1
0
LINE
5
260
100
AcDbEntity
8
SK2
62
256
6
ByLayer
370
13
48
1
60
0
100
AcDbLine
10
-28.182003
20
12.825002
30
0
11
-29.017997
21
12.824998
31
0
39
0
210
0
220
0
230
1
0
LINE
5
261
100
AcDbEntity
8
SK2
62
256
6
ByLayer
370
13
48
1
60
0
100
AcDbLine
10
-28.6
20
-16
30
0
11
-29.017997
21
-12.825002
31
0
39
0
210
0
220
0
230
1
0
LINE
5
262
100
AcDbEntity
8
SK2
62
256
6
ByLayer
370
13
48
1
60
0
100
AcDbLine
10
-28.6
20
-16
30
0
11
-28.182003
21
-12.824998
31
0
39
0
210
0
220
0
230
1
0
LINE
5
263
100
AcDbEntity
8
SK2
62
256
6
ByLayer
370
13
48
1
60
0
100
AcDbLine
10
-29.017997
20
-12.825002
30
0
11
-28.182003
21
-12.824998
31
0
39
0
210
0
220
0
230
1
0
ENDBLK
5
265
100
AcDbEntity
8
0
100
AcDbBlockEnd
0
BLOCK
5
272
100
AcDbEntity
8
0
100
AcDbBlockBegin
2
DimnDraft3D5
70
0
10
0
20
0
30
0
3
DimnDraft3D5
0
MTEXT
5
268
100
AcDbEntity
8
2
62
256
6
ByLayer
370
18
48
1
60
0
100
AcDbMText
10
72.225
20
4.52
30
0
210
0
220
0
230
1
1
\W0.7121;2.5
40
3.5
41
0
44
1.084337
50
90
71
7
72
5
7
iso_b_vert
0
LINE
5
269
100
AcDbEntity
8
2
62
256
6
ByLayer
370
13
48
1
60
0
100
AcDbLine
10
57
20
22
30
0
11
75.1
21
22
31
0
39
0
210
0
220
0
230
1
0
LINE
5
26A
100
AcDbEntity
8
2
62
256
6
ByLayer
370
13
48
1
60
0
100
AcDbLine
10
57
20
19.5
30
0
11
75.1
21
19.5
31
0
39
0
210
0
220
0
230
1
0
LINE
5
26B
100
AcDbEntity
8
2
62
256
6
ByLayer
370
13
48
1
60
0
100
AcDbLine
10
73.1
20
3.645
30
0
11
73.1
21
30.75
31
0
39
0
210
0
220
0
230
1
0
LINE
5
26C
100
AcDbEntity
8
2
62
256
6
ByLayer
370
13
48
1
60
0
100
AcDbLine
10
73.1
20
22
30
0
11
72.682003
21
25.174998
31
0
39
0
210
0
220
0
230
1
0
LINE
5
26D
100
AcDbEntity
8
2
62
256
6
ByLayer
370
13
48
1
60
0
100
AcDbLine
10
73.1
20
22
30
0
11
73.517997
21
25.175002
31
0
39
0
210
0
220
0
230
1
0
LINE
5
26E
100
AcDbEntity
8
2
62
256
6
ByLayer
370
13
48
1
60
0
100
AcDbLine
10
72.682003
20
25.174998
30
0
11
73.517997
21
25.175002
31
0
39
0
210
0
220
0
230
1
0
LINE
5
26F
100
AcDbEntity
8
2
62
256
6
ByLayer
370
13
48
1
60
0
100
AcDbLine
10
73.1
20
19.5
30
0
11
73.517997
21
16.325002
31
0
39
0
210
0
220
0
230
1
0
LINE
5
270
100
AcDbEntity
8
2
62
256
6
ByLayer
370
13
48
1
60
0
100
AcDbLine
10
73.1
20
19.5
30
0
11
72.682003
21
16.324998
31
0
39
0
210
0
220
0
230
1
0
LINE
5
271
100
AcDbEntity
8
2
62
256
6
ByLayer
370
13
48
1
60
0
100
AcDbLine
10
73.517997
20
16.325002
30
0
11
72.682003
21
16.324998
31
0
39
0
210
0
220
0
230
1
0
ENDBLK
5
273
100
AcDbEntity
8
0
100
AcDbBlockEnd
0
ENDSEC
0
SECTION
2
ENTITIES
0
ARC
5
10F
100
AcDbEntity
8
1
62
256
6
ByLayer
370
13
48
1
60
0
100
AcDbCircle
39
0
10
-15.279208
20
17.2
30
0
40
1.2
210
0
220
0
230
-1
100
AcDbArc
50
195
51
270
0
ARC
5
110
100
AcDbEntity
8
1
62
256
6
ByLayer
370
13
48
1
60
0
100
AcDbCircle
39
0
10
-19.045149
20
-14.5
30
0
40
3.99999999999991
210
0
220
0
230
-1
100
AcDbArc
50
22.13074
51
90
0
ARC
5
111
100
AcDbEntity
8
1
62
256
6
ByLayer
370
13
48
1
60
0
100
AcDbCircle
39
0
10
-30
20
18.15
30
0
40
1.6
210
0
220
0
230
-1
100
AcDbArc
50
0
51
0.065385
0
ELLIPSE
5
112
100
AcDbEntity
8
1
62
256
6
ByLayer
370
13
48
1
60
0
100
AcDbEllipse
10
-0.928203
20
0
30
0
11
7.49393430382576
21
-15.7933993221998
31
0
210
0
220
0
230
-1
40
0.341999
41
-1.08757920120046
42
-0.161466571197786
0
ELLIPSE
5
113
100
AcDbEntity
8
1
62
256
6
ByLayer
370
13
48
1
60
0
100
AcDbEllipse
10
49.839209
20
20.75
30
0
11
1.26883854643256
21
1.28233778961868E-15
31
0
210
0
220
0
230
-1
40
0.472873
41
1.09923797102104
42
-1.09923797102104
0
ELLIPSE
5
114
100
AcDbEntity
8
1
62
256
6
ByLayer
370
13
48
1
60
0
100
AcDbEllipse
10
15.13963
20
0
30
0
11
2.573028595742E-15
21
15.9999999999963
31
0
210
0
220
0
230
-1
40
0.008727
41
-2.39986980696689
42
-0.741722846622903
0
ELLIPSE
5
115
100
AcDbEntity
8
1
62
256
6
ByLayer
370
13
48
1
60
0
100
AcDbEllipse
10
50.439369
20
20.75
30
0
11
9.64885723402904E-17
21
0.599999999999645
31
0
210
0
220
0
230
-1
40
0.087165
41
-2.6700342978171
42
-0.471558355772691
0
ELLIPSE
5
116
100
AcDbEntity
8
1
62
256
6
ByLayer
370
13
48
1
60
0
100
AcDbEllipse
10
12.928203
20
0
30
0
11
7.49393430382463
21
15.7933993221997
31
0
210
0
220
0
230
-1
40
0.341999
41
-2.980126082392
42
-2.05401345238928
0
ELLIPSE
5
117
100
AcDbEntity
8
1
62
256
6
ByLayer
370
13
48
1
60
0
100
AcDbEllipse
10
-0.928203
20
0
30
0
11
7.49393430382714
21
15.7933993222015
31
0
210
0
220
0
230
-1
40
0.341999
41
0.16146657119776
42
1.08757920120038
0
ELLIPSE
5
118
100
AcDbEntity
8
1
62
256
6
ByLayer
370
13
48
1
60
0
100
AcDbEllipse
10
12.928203
20
0
30
0
11
7.49393430382497
21
-15.7933993222001
31
0
210
0
220
0
230
-1
40
0.341999
41
2.05401345238929
42
2.98012608239201
0
ELLIPSE
5
119
100
AcDbEntity
8
1
62
256
6
ByLayer
370
13
48
1
60
0
100
AcDbEllipse
10
53.558781
20
21.79974
30
0
11
0.01872883045826
21
-0.23926811511287
31
0
210
0
220
0
230
1
40
0.005457
41
-1.50119639836403
42
-0.689493843879781
0
ELLIPSE
5
11A
100
AcDbEntity
8
1
62
256
6
ByLayer
370
13
48
1
60
0
100
AcDbEllipse
10
52.328622
20
21.695286
30
0
11
-0.014072025804004
21
-0.239587099172246
31
0
210
0
220
0
230
1
40
0.707947
41
0.878776813451949
42
1.56290533331172
0
ELLIPSE
5
11B
100
AcDbEntity
8
1
62
256
6
ByLayer
370
13
48
1
60
0
100
AcDbEllipse
10
53.558781
20
19.70026
30
0
11
0.01872883045826
21
0.23926811511287
31
0
210
0
220
0
230
1
40
0.005457
41
0.689493843876124
42
1.50119639836406
0
ELLIPSE
5
11C
100
AcDbEntity
8
1
62
256
6
ByLayer
370
13
48
1
60
0
100
AcDbEllipse
10
52.328622
20
19.804714
30
0
11
-0.0140720258040037
21
0.239587099172246
31
0
210
0
220
0
230
1
40
0.707947
41
-1.56290533331172
42
-0.878776813451913
0
ELLIPSE
5
11D
100
AcDbEntity
8
1
62
256
6
ByLayer
370
13
48
1
60
0
100
AcDbEllipse
10
51.43649
20
19.991414
30
0
11
0.0157922723746895
21
-0.299835837393978
31
0
210
0
220
0
230
-1
40
0.9154
41
-2.66737195206595
42
-1.47753833587262
0
ELLIPSE
5
11E
100
AcDbEntity
8
1
62
256
6
ByLayer
370
13
48
1
60
0
100
AcDbEllipse
10
51.43649
20
21.508586
30
0
11
0.0157922723827521
21
0.29983583739178
31
0
210
0
220
0
230
-1
40
0.9154
41
1.47753833584214
42
2.6673719520416
0
ELLIPSE
5
11F
100
AcDbEntity
8
1
62
256
6
ByLayer
370
13
48
1
60
0
100
AcDbEllipse
10
52.225674
20
19.802415
30
0
11
0.108797387019834
21
-0.213923183824607
31
0
210
0
220
0
230
1
40
0.678268
41
1.29102409435773
42
1.85056859826453
0
ELLIPSE
5
120
100
AcDbEntity
8
1
62
256
6
ByLayer
370
13
48
1
60
0
100
AcDbEllipse
10
52.225674
20
21.697585
30
0
11
0.108797387019834
21
0.213923183824607
31
0
210
0
220
0
230
1
40
0.678268
41
-1.85056859826453
42
-1.29102409435773
0
ELLIPSE
5
121
100
AcDbEntity
8
1
62
256
6
ByLayer
370
13
48
1
60
0
100
AcDbEllipse
10
52.015335
20
19.988477
30
0
11
0.218929773670482
21
0.120705236839962
31
0
210
0
220
0
230
1
40
0.451067
41
0.609381009277194
42
1.29921470224115
0
ELLIPSE
5
122
100
AcDbEntity
8
1
62
256
6
ByLayer
370
13
48
1
60
0
100
AcDbEllipse
10
52.015335
20
21.511523
30
0
11
-0.218929773670479
21
0.120705236839969
31
0
210
0
220
0
230
1
40
0.451067
41
1.84237795134858
42
2.5322116443126
0
ELLIPSE
5
123
100
AcDbEntity
8
1
62
256
6
ByLayer
370
13
48
1
60
0
100
AcDbEllipse
10
51.970529
20
20.75
30
0
11
1.42452172481159
21
1.43967728990788E-15
31
0
210
0
220
0
230
-1
40
0.350995
41
-2.25836112864252
42
-1.95476876223406
0
ELLIPSE
5
124
100
AcDbEntity
8
1
62
256
6
ByLayer
370
13
48
1
60
0
100
AcDbEllipse
10
51.970529
20
20.75
30
0
11
1.42452172502598
21
1.43967729012455E-15
31
0
210
0
220
0
230
-1
40
0.350995
41
1.95476876222321
42
2.2583611285794
0
ELLIPSE
5
125
100
AcDbEntity
8
1
62
256
6
ByLayer
370
13
48
1
60
0
100
AcDbEllipse
10
51.368086
20
21.508586
30
0
11
0.274689327592697
21
0.0155897448652677
31
0
210
0
220
0
230
-1
40
0.363396
41
0.0206212699775395
42
1.21045488617706
0
ELLIPSE
5
126
100
AcDbEntity
8
1
62
256
6
ByLayer
370
13
48
1
60
0
100
AcDbEllipse
10
51.538645
20
21.420672
30
0
11
-0.0383160393775672
21
0.196295392524676
31
0
210
0
220
0
230
1
40
0.336408
41
1.50522506223046
42
2.73571394704433
0
ELLIPSE
5
127
100
AcDbEntity
8
1
62
256
6
ByLayer
370
13
48
1
60
0
100
AcDbEllipse
10
51.368086
20
19.991414
30
0
11
0.274689327593301
21
-0.0155897448651641
31
0
210
0
220
0
230
-1
40
0.363396
41
-1.21045488617534
42
-0.0206212699772461
0
ELLIPSE
5
128
100
AcDbEntity
8
1
62
256
6
ByLayer
370
13
48
1
60
0
100
AcDbEllipse
10
51.538645
20
20.079328
30
0
11
-0.0383160393775681
21
-0.196295392524676
31
0
210
0
220
0
230
1
40
0.336408
41
-2.73571394704422
42
-1.5052250622305
0
ELLIPSE
5
129
100
AcDbEntity
8
1
62
256
6
ByLayer
370
13
48
1
60
0
100
AcDbEllipse
10
51.902124
20
20.75
30
0
11
1.44889559345649
21
1.46431047348387E-15
31
0
210
0
220
0
230
-1
40
0.483127
41
-2.25836112865237
42
-1.95476876223529
0
ELLIPSE
5
12A
100
AcDbEntity
8
1
62
256
6
ByLayer
370
13
48
1
60
0
100
AcDbEllipse
10
51.902124
20
20.75
30
0
11
1.44889559342705
21
1.46431047345411E-15
31
0
210
0
220
0
230
-1
40
0.483127
41
1.95476876223459
42
2.25836112865822
0
ELLIPSE
5
12B
100
AcDbEntity
8
1
62
256
6
ByLayer
370
13
48
1
60
0
100
AcDbEllipse
10
52.227398
20
21.697216
30
0
11
0.00548700145360587
21
-0.239937268499598
31
0
210
0
220
0
230
1
40
0.706448
41
0.849098397829149
42
1.50523037236394
0
ELLIPSE
5
12C
100
AcDbEntity
8
1
62
256
6
ByLayer
370
13
48
1
60
0
100
AcDbEllipse
10
52.227398
20
19.802784
30
0
11
0.00548700145360604
21
0.239937268499598
31
0
210
0
220
0
230
1
40
0.706448
41
-1.50523037236394
42
-0.849098397829113
0
ELLIPSE
5
12D
100
AcDbEntity
8
1
62
256
6
ByLayer
370
13
48
1
60
0
100
AcDbEllipse
10
51.427763
20
21.399029
30
0
11
-0.0383160393775672
21
0.196295392524676
31
0
210
0
220
0
230
1
40
0.336408
41
1.5052250622305
42
2.73571394704439
0
ELLIPSE
5
12E
100
AcDbEntity
8
1
62
256
6
ByLayer
370
13
48
1
60
0
100
AcDbEllipse
10
51.427763
20
20.100971
30
0
11
-0.0383160393775681
21
-0.196295392524676
31
0
210
0
220
0
230
1
40
0.336408
41
-2.73571394704433
42
-1.5052250622305
0
ELLIPSE
5
12F
100
AcDbEntity
8
1
62
256
6
ByLayer
370
13
48
1
60
0
100
AcDbEllipse
10
52.04569
20
20.008253
30
0
11
-0.199155198215831
21
0.224359548545662
31
0
210
0
220
0
230
1
40
0.867907
41
-1.48925493040502
42
-0.845841420110084
0
ELLIPSE
5
130
100
AcDbEntity
8
1
62
256
6
ByLayer
370
13
48
1
60
0
100
AcDbEllipse
10
51.050977
20
20.209044
30
0
11
-0.073759863887595
21
-0.185901808703636
31
0
210
0
220
0
230
1
40
0.32047
41
-2.41409938327883
42
-1.44432262990159
0
ELLIPSE
5
131
100
AcDbEntity
8
1
62
256
6
ByLayer
370
13
48
1
60
0
100
AcDbEllipse
10
51.050977
20
21.290956
30
0
11
-0.0737598638875999
21
0.185901808703635
31
0
210
0
220
0
230
1
40
0.32047
41
1.44432262990149
42
2.41409938327899
0
ELLIPSE
5
132
100
AcDbEntity
8
1
62
256
6
ByLayer
370
13
48
1
60
0
100
AcDbEllipse
10
52.04569
20
21.491747
30
0
11
-0.199155198215836
21
-0.224359548545657
31
0
210
0
220
0
230
1
40
0.867907
41
0.845841420110093
42
1.48925493040509
0
ELLIPSE
5
133
100
AcDbEntity
8
1
62
256
6
ByLayer
370
13
48
1
60
0
100
AcDbEllipse
10
53.248298
20
20.36998
30
0
11
-0.11829996020908
21
-0.382106162492219
31
0
210
0
220
0
230
1
40
0.046276
41
-1.55647013370578
42
-0.635362849071728
0
ELLIPSE
5
134
100
AcDbEntity
8
1
62
256
6
ByLayer
370
13
48
1
60
0
100
AcDbEllipse
10
53.248298
20
21.13002
30
0
11
-0.11829996020908
21
0.382106162492219
31
0
210
0
220
0
230
1
40
0.046276
41
0.635362849071738
42
1.55647013370581
0
ELLIPSE
5
135
100
AcDbEntity
8
1
62
256
6
ByLayer
370
13
48
1
60
0
100
AcDbEllipse
10
50.957016
20
20.177976
30
0
11
0.179591653469728
21
-0.0880161235456843
31
0
210
0
220
0
230
1
40
0.15816
41
-2.6766625399629
42
-1.88296142475573
0
ELLIPSE
5
136
100
AcDbEntity
8
1
62
256
6
ByLayer
370
13
48
1
60
0
100
AcDbEllipse
10
50.957016
20
21.322024
30
0
11
0.179591653469724
21
0.088016123545693
31
0
210
0
220
0
230
1
40
0.15816
41
1.8829614247557
42
2.67666253996279
0
ELLIPSE
5
137
100
AcDbEntity
8
1
62
256
6
ByLayer
370
13
48
1
60
0
100
AcDbEllipse
10
52.092262
20
21.372657
30
0
11
-0.299347745291831
21
0.0197718837923224
31
0
210
0
220
0
230
1
40
0.777951
41
1.69879303455142
42
2.22934227679634
0
ELLIPSE
5
138
100
AcDbEntity
8
1
62
256
6
ByLayer
370
13
48
1
60
0
100
AcDbEllipse
10
52.092262
20
20.127343
30
0
11
-0.299347745291887
21
-0.0197718837914809
31
0
210
0
220
0
230
1
40
0.777951
41
-2.22934227679353
42
-1.69879303454922
0
ELLIPSE
5
139
100
AcDbEntity
8
1
62
256
6
ByLayer
370
13
48
1
60
0
100
AcDbEllipse
10
51.094521
20
20.270757
30
0
11
-0.108483181757181
21
0.279698765238315
31
0
210
0
220
0
230
1
40
0.360955
41
-1.02016075382498
42
-0.199709661794649
0
ELLIPSE
5
13A
100
AcDbEntity
8
1
62
256
6
ByLayer
370
13
48
1
60
0
100
AcDbEllipse
10
51.094521
20
21.229243
30
0
11
-0.108483181757197
21
-0.279698765238309
31
0
210
0
220
0
230
1
40
0.360955
41
0.19970966179475
42
1.02016075382498
0
ELLIPSE
5
13B
100
AcDbEntity
8
1
62
256
6
ByLayer
370
13
48
1
60
0
100
AcDbEllipse
10
50.746868
20
21.625983
30
0
11
0.0582979366851085
21
-0.138207635745132
31
0
210
0
220
0
230
1
40
0.750326
41
-1.87731940571838
42
-1.57180531127307
0
ELLIPSE
5
13C
100
AcDbEntity
8
1
62
256
6
ByLayer
370
13
48
1
60
0
100
AcDbEllipse
10
50.95842
20
20.317393
30
0
11
-0.0312161822556663
21
0.197548854629383
31
0
210
0
220
0
230
1
40
0.644886
41
0.296340224814686
42
1.02563059493707
0
ELLIPSE
5
13D
100
AcDbEntity
8
1
62
256
6
ByLayer
370
13
48
1
60
0
100
AcDbEllipse
10
50.95842
20
21.182607
30
0
11
-0.031216182255666
21
-0.197548854629383
31
0
210
0
220
0
230
1
40
0.644886
41
-1.02563059493705
42
-0.296340224814581
0
ELLIPSE
5
13E
100
AcDbEntity
8
1
62
256
6
ByLayer
370
13
48
1
60
0
100
AcDbEllipse
10
50.746868
20
19.874017
30
0
11
-0.0582979366828939
21
-0.138207635746066
31
0
210
0
220
0
230
1
40
0.750326
41
-1.56978734232572
42
-1.26427324788344
0
ELLIPSE
5
13F
100
AcDbEntity
8
1
62
256
6
ByLayer
370
13
48
1
60
0
100
AcDbEllipse
10
51.08571
20
21.232663
30
0
11
-0.10863468183397
21
-0.279639957629149
31
0
210
0
220
0
230
1
40
0.363718
41
0.200467310718441
42
1.01550685106547
0
ELLIPSE
5
140
100
AcDbEntity
8
1
62
256
6
ByLayer
370
13
48
1
60
0
100
AcDbEllipse
10
51.08571
20
20.267337
30
0
11
-0.108634681833984
21
0.279639957629143
31
0
210
0
220
0
230
1
40
0.363718
41
-1.01550685106551
42
-0.200467310718377
0
ELLIPSE
5
141
100
AcDbEntity
8
1
62
256
6
ByLayer
370
13
48
1
60
0
100
AcDbEllipse
10
52.173143
20
20.935403
30
0
11
-0.27643120211388
21
-0.11655809923757
31
0
210
0
220
0
230
1
40
0.259655
41
1.58999251460062
42
2.12275416956029
0
ELLIPSE
5
142
100
AcDbEntity
8
1
62
256
6
ByLayer
370
13
48
1
60
0
100
AcDbEllipse
10
54.147654
20
21.800449
30
0
11
-0.00522684702752689
21
-0.239943076728942
31
0
210
0
220
0
230
1
40
0.172153
41
-1.49827444467687
42
-0.73075990712236
0
ELLIPSE
5
143
100
AcDbEntity
8
1
62
256
6
ByLayer
370
13
48
1
60
0
100
AcDbEllipse
10
54.147654
20
19.699551
30
0
11
-0.00522684702752667
21
0.239943076728942
31
0
210
0
220
0
230
1
40
0.172153
41
0.73075990712236
42
1.49827444467687
0
ELLIPSE
5
144
100
AcDbEntity
8
1
62
256
6
ByLayer
370
13
48
1
60
0
100
AcDbEllipse
10
52.173143
20
20.564597
30
0
11
-0.276431202115174
21
0.116558099234502
31
0
210
0
220
0
230
1
40
0.259655
41
-2.12275416956324
42
-1.58999251460351
0
ELLIPSE
5
145
100
AcDbEntity
8
1
62
256
6
ByLayer
370
13
48
1
60
0
100
AcDbEllipse
10
50.744099
20
19.874562
30
0
11
4.24912383924225E-17
21
0.15
31
0
210
0
220
0
230
1
40
0.772149
41
1.23482044578598
42
1.5707963267949
0
ELLIPSE
5
146
100
AcDbEntity
8
1
62
256
6
ByLayer
370
13
48
1
60
0
100
AcDbEllipse
10
50.744099
20
21.625438
30
0
11
4.24912383924225E-17
21
0.15
31
0
210
0
220
0
230
1
40
0.772149
41
1.5707963267949
42
1.90677220780382
0
ELLIPSE
5
147
100
AcDbEntity
8
1
62
256
6
ByLayer
370
13
48
1
60
0
100
AcDbEllipse
10
50.943122
20
20.316064
30
0
11
5.665498452323E-17
21
0.2
31
0
210
0
220
0
230
1
40
0.817574
41
0.416381924289158
42
1.234820445786
0
ELLIPSE
5
148
100
AcDbEntity
8
1
62
256
6
ByLayer
370
13
48
1
60
0
100
AcDbEllipse
10
50.533999
20
21.183936
30
0
11
5.665498452323E-17
21
0.2
31
0
210
0
220
0
230
1
40
0.34202
41
1.90677220780379
42
2.72521072930067
0
ELLIPSE
5
149
100
AcDbEntity
8
1
62
256
6
ByLayer
370
13
48
1
60
0
100
AcDbEllipse
10
54.7528
20
19.968957
30
0
11
-0.053394885983678
21
0.0845516773978496
31
0
210
0
220
0
230
1
40
0.139768
41
-1.57716944641307
42
-0.739917285382686
0
ELLIPSE
5
14A
100
AcDbEntity
8
1
62
256
6
ByLayer
370
13
48
1
60
0
100
AcDbEllipse
10
54.913536
20
20.118497
30
0
11
-0.0833383062250993
21
0.0552695821906731
31
0
210
0
220
0
230
1
40
0.125147
41
-1.6338901649751
42
-1.00886584004883
0
ELLIPSE
5
14B
100
AcDbEntity
8
1
62
256
6
ByLayer
370
13
48
1
60
0
100
AcDbEllipse
10
50.943122
20
21.183936
30
0
11
5.665498452323E-17
21
0.2
31
0
210
0
220
0
230
1
40
0.817574
41
1.90677220780379
42
2.72521072930064
0
ELLIPSE
5
14C
100
AcDbEntity
8
1
62
256
6
ByLayer
370
13
48
1
60
0
100
AcDbEllipse
10
50.533999
20
20.316064
30
0
11
-3.67381906146713E-17
21
-0.2
31
0
210
0
220
0
230
1
40
0.34202
41
-2.72521072930067
42
-1.90677220780379
0
ELLIPSE
5
14D
100
AcDbEntity
8
1
62
256
6
ByLayer
370
13
48
1
60
0
100
AcDbEllipse
10
54.7528
20
21.531043
30
0
11
-0.053394885983678
21
-0.0845516773978496
31
0
210
0
220
0
230
1
40
0.139768
41
0.739917285383018
42
1.57716944641314
0
ELLIPSE
5
14E
100
AcDbEntity
8
1
62
256
6
ByLayer
370
13
48
1
60
0
100
AcDbEllipse
10
54.913536
20
21.381503
30
0
11
-0.0833383062250994
21
-0.0552695821906731
31
0
210
0
220
0
230
1
40
0.125147
41
1.00886584004889
42
1.6338901649751
0
ELLIPSE
5
14F
100
AcDbEntity
8
1
62
256
6
ByLayer
370
13
48
1
60
0
100
AcDbEllipse
10
54.258678
20
21.198773
30
0
11
0.0150020396796469
21
-0.399718574506427
31
0
210
0
220
0
230
1
40
0.406498
41
1.55554103694364
42
2.33646244174224
0
ELLIPSE
5
150
100
AcDbEntity
8
1
62
256
6
ByLayer
370
13
48
1
60
0
100
AcDbEllipse
10
54.258678
20
20.301227
30
0
11
0.0150020396796473
21
0.399718574506427
31
0
210
0
220
0
230
1
40
0.406498
41
-2.33646244174222
42
-1.55554103694364
0
ELLIPSE
5
151
100
AcDbEntity
8
1
62
256
6
ByLayer
370
13
48
1
60
0
100
AcDbEllipse
10
54.523358
20
19.809726
30
0
11
-0.0777352233758327
21
0.0629065580580387
31
0
210
0
220
0
230
1
40
0.130472
41
-1.62177056438514
42
-1.15591732835921
0
ELLIPSE
5
152
100
AcDbEntity
8
1
62
256
6
ByLayer
370
13
48
1
60
0
100
AcDbEllipse
10
54.620468
20
19.887003
30
0
11
-0.0517697807122172
21
0.0855563545565667
31
0
210
0
220
0
230
1
40
0.139863
41
-1.57449803098188
42
-0.736209352900906
0
ELLIPSE
5
153
100
AcDbEntity
8
1
62
256
6
ByLayer
370
13
48
1
60
0
100
AcDbEllipse
10
54.523358
20
21.690274
30
0
11
-0.0777352233758327
21
-0.0629065580580387
31
0
210
0
220
0
230
1
40
0.130472
41
1.15591732835951
42
1.62177056438507
0
ELLIPSE
5
154
100
AcDbEntity
8
1
62
256
6
ByLayer
370
13
48
1
60
0
100
AcDbEllipse
10
54.620468
20
21.612997
30
0
11
-0.0517697807122172
21
-0.0855563545565667
31
0
210
0
220
0
230
1
40
0.139863
41
0.736209352900527
42
1.57449803098188
0
ELLIPSE
5
155
100
AcDbEntity
8
1
62
256
6
ByLayer
370
13
48
1
60
0
100
AcDbEllipse
10
53.758781
20
19.696407
30
0
11
-0.00794321942284761
21
0.239868516619419
31
0
210
0
220
0
230
1
40
0.002314
41
-1.50102146588883
42
-0.706533322290504
0
ELLIPSE
5
156
100
AcDbEntity
8
1
62
256
6
ByLayer
370
13
48
1
60
0
100
AcDbEllipse
10
53.758781
20
21.803593
30
0
11
-0.00794321942284783
21
-0.239868516619419
31
0
210
0
220
0
230
1
40
0.002314
41
0.706533322290485
42
1.50102146588795
0
ELLIPSE
5
157
100
AcDbEntity
8
1
62
256
6
ByLayer
370
13
48
1
60
0
100
AcDbEllipse
10
50.782996
20
22.830141
30
0
11
5.66549845232303E-16
21
2.00000000000001
31
0
210
0
220
0
230
1
40
0.34202
41
2.7252107293006
42
2.79252680319093
0
ELLIPSE
5
158
100
AcDbEntity
8
1
62
256
6
ByLayer
370
13
48
1
60
0
100
AcDbEllipse
10
50.782996
20
18.669859
30
0
11
-3.67381906146715E-16
21
-2.00000000000001
31
0
210
0
220
0
230
1
40
0.34202
41
-2.79252680319093
42
-2.7252107293006
0
ELLIPSE
5
159
100
AcDbEntity
8
1
62
256
6
ByLayer
370
13
48
1
60
0
100
AcDbEllipse
10
50.527689
20
20.75
30
0
11
5.94877337493915E-17
21
0.21
31
0
210
0
220
0
230
1
40
0.34202
41
-2.79252680319093
42
-0.349065850398866
0
ELLIPSE
5
15A
100
AcDbEntity
8
1
62
256
6
ByLayer
370
13
48
1
60
0
100
AcDbEllipse
10
54.935867
20
20.153117
30
0
11
-0.0846523861242153
21
0.053235077941868
31
0
210
0
220
0
230
1
40
0.065225
41
-1.674145515436
42
-1.04575763084716
0
ELLIPSE
5
15B
100
AcDbEntity
8
1
62
256
6
ByLayer
370
13
48
1
60
0
100
AcDbEllipse
10
54.935867
20
21.346883
30
0
11
-0.0846523861242153
21
-0.053235077941868
31
0
210
0
220
0
230
1
40
0.065225
41
1.04575763084772
42
1.67414551543607
0
ELLIPSE
5
15C
100
AcDbEntity
8
1
62
256
6
ByLayer
370
18
48
1
60
0
100
AcDbEllipse
10
52.229028
20
21.84703
30
0
11
0.251841921959134
21
0.0177818623349066
31
0
210
0
220
0
230
-1
40
0.06924
41
-1.56101782183209
42
-0.774400198844199
0
ELLIPSE
5
15D
100
AcDbEntity
8
1
62
256
6
ByLayer
370
18
48
1
60
0
100
AcDbEllipse
10
55.048748
20
20.153117
30
0
11
1.1330996904646E-16
21
0.4
31
0
210
0
220
0
230
1
40
0.121869
41
1.5707963267949
42
1.64009079051255
0
ELLIPSE
5
15E
100
AcDbEntity
8
1
62
256
6
ByLayer
370
18
48
1
60
0
100
AcDbEllipse
10
55.048748
20
21.346883
30
0
11
1.1330996904646E-16
21
0.4
31
0
210
0
220
0
230
1
40
0.121869
41
1.50150186307724
42
1.5707963267949
0
ELLIPSE
5
15F
100
AcDbEntity
8
1
62
256
6
ByLayer
370
18
48
1
60
0
100
AcDbEllipse
10
51.763694
20
21.95
30
0
11
0.201946432116473
21
0
31
0
210
0
220
0
230
1
40
0.990362
41
-1.5707963267949
42
-1.04299365512072
0
ELLIPSE
5
160
100
AcDbEntity
8
1
62
256
6
ByLayer
370
18
48
1
60
0
100
AcDbEllipse
10
54.506337
20
21.971995
30
0
11
0.239997045450386
21
0.0169489930278172
31
0
210
0
220
0
230
-1
40
0.070266
41
-1.73995037614357
42
-1.44395567168754
0
ELLIPSE
5
161
100
AcDbEntity
8
1
62
256
6
ByLayer
370
18
48
1
60
0
100
AcDbEllipse
10
52.229028
20
19.65297
30
0
11
0.251841922000885
21
-0.017781862339861
31
0
210
0
220
0
230
-1
40
0.06924
41
0.774400198842694
42
1.56101782171365
0
ELLIPSE
5
162
100
AcDbEntity
8
1
62
256
6
ByLayer
370
18
48
1
60
0
100
AcDbEllipse
10
52.04757
20
21.650887
30
0
11
0.0586247302012056
21
-0.191752852286547
31
0
210
-1.56326331346004E-15
220
1.05822557188231E-17
230
1
40
0.997435
41
2.91526219766618
42
-2.91526219766616
0
ELLIPSE
5
163
100
AcDbEntity
8
1
62
256
6
ByLayer
370
18
48
1
60
0
100
AcDbEllipse
10
54.506337
20
19.528005
30
0
11
0.239997044408888
21
-0.0169489929599056
31
0
210
0
220
0
230
-1
40
0.070266
41
1.44395567080125
42
1.73995037654928
0
ELLIPSE
5
164
100
AcDbEntity
8
1
62
256
6
ByLayer
370
18
48
1
60
0
100
AcDbEllipse
10
52.059275
20
19.848294
30
0
11
0.0029729393167071
21
0.200467814146891
31
0
210
-1.59613097713202E-15
220
-6.66986070676025E-19
230
1
40
0.997557
41
2.6338628041141
42
3.08674247812913
0
ELLIPSE
5
165
100
AcDbEntity
8
1
62
256
6
ByLayer
370
18
48
1
60
0
100
AcDbEllipse
10
51.77444
20
19.55
30
0
11
-0.201490790302156
21
2.46746902040712E-17
31
0
210
0
220
0
230
1
40
0.992601
41
-2.09761674342106
42
-1.5707963267949
0
POINT
5
6C
100
AcDbEntity
8
81
62
256
6
ByLayer
370
18
48
1
60
0
100
AcDbPoint
10
55
20
22
30
0
39
0
210
0
220
0
230
1
50
360
0
POINT
5
6E
100
AcDbEntity
8
80
62
256
6
ByLayer
370
18
48
1
60
0
100
AcDbPoint
10
0
20
0
30
0
39
0
210
0
220
0
230
1
50
360
0
SPLINE
5
166
100
AcDbEntity
8
SK1
62
256
6
ByLayer
370
13
48
1
60
0
100
AcDbSpline
70
4
71
2
72
6
73
3
40
0
40
0
40
0
40
1
40
1
40
1
41
1
10
-18
20
-10.607592753875
30
0
41
1
10
-9.74999999580729
20
-10.8147118141342
30
0
41
1
10
-1.49999999999997
20
-11.0218291766808
30
0
0
SPLINE
5
167
100
AcDbEntity
8
SK1
62
256
6
ByLayer
370
13
48
1
60
0
100
AcDbSpline
70
4
71
2
72
6
73
3
40
0
40
0
40
0
40
1
40
1
40
1
41
1
10
-1.49999999999997
20
11.021829034714
30
0
41
1
10
-9.74999999580731
20
10.8147116728235
30
0
41
1
10
-18
20
10.6075926131751
30
0
0
SPLINE
5
168
100
AcDbEntity
8
SK1
62
256
6
ByLayer
370
13
48
1
60
0
100
AcDbSpline
70
4
71
2
72
6
73
3
40
0
40
0
40
0
40
1
40
1
40
1
41
1
10
-19
20
-10.0329645549392
30
0
41
1
10
-18.4999993685751
20
-10.3214765556861
30
0
41
1
10
-18
20
-10.6099829102616
30
0
0
SPLINE
5
169
100
AcDbEntity
8
SK1
62
256
6
ByLayer
370
13
48
1
60
0
100
AcDbSpline
70
4
71
2
72
6
73
3
40
0
40
0
40
0
40
1
40
1
40
1
41
1
10
-18
20
10.6099827775056
30
0
41
1
10
-18.4999993686076
20
10.3214764228909
30
0
41
1
10
-19
20
10.0329644221717
30
0
0
SPLINE
5
16A
100
AcDbEntity
8
SK1
62
256
6
ByLayer
370
13
48
1
60
0
100
AcDbSpline
70
4
71
3
72
13
73
9
40
0
40
0
40
0
40
0
40
0.239519409344965
40
0.368436717937887
40
0.500075274086353
40
0.631702862900132
40
0.760587757609275
40
1
40
1
40
1
40
1
41
1
10
-1.29503997793927
20
10.8302906518511
30
0
41
1
10
-1.32110811439466
20
10.8298878106463
30
0
41
1
10
-1.35883625148526
20
10.8360574938784
30
0
41
1
10
-1.40627518083028
20
10.859091779441
30
0
41
1
10
-1.4388625927059
20
10.8842489053808
30
0
41
1
10
-1.46563525678502
20
10.9155177526731
30
0
41
1
10
-1.49103252451872
20
10.9617179528093
30
0
41
1
10
-1.49909162766019
20
10.9990755987901
30
0
41
1
10
-1.5
20
11.0251228679297
30
0
0
SPLINE
5
16B
100
AcDbEntity
8
SK1
62
256
6
ByLayer
370
13
48
1
60
0
100
AcDbSpline
70
4
71
3
72
13
73
9
40
0
40
0
40
0
40
0
40
0.23941821624041
40
0.36830233166106
40
0.499928754022071
40
0.631568038325886
40
0.760485869348367
40
1
40
1
40
1
40
1
41
1
10
-1.49999999999997
20
-11.0251229634028
30
0
41
1
10
-1.49909191796945
20
-10.9990761096856
30
0
41
1
10
-1.49103287968458
20
-10.9617189548704
30
0
41
1
10
-1.46563532904136
20
-10.9155178559453
30
0
41
1
10
-1.4388623293676
20
-10.8842487422285
30
0
41
1
10
-1.40627519739922
20
-10.8590919385496
30
0
41
1
10
-1.35883704267303
20
-10.8360578591166
30
0
41
1
10
-1.32110848256451
20
-10.8298881386429
30
0
41
1
10
-1.29503997793927
20
-10.8302907478373
30
0
0
SPLINE
5
16C
100
AcDbEntity
8
SK1
62
256
6
ByLayer
370
13
48
1
60
0
100
AcDbSpline
70
4
71
3
72
24
73
20
40
0
40
0
40
0
40
0
40
0.0961745797005831
40
0.0961745797005831
40
0.194283388716155
40
0.194283388716155
40
0.224865974099142
40
0.224865974099142
40
0.255924800747719
40
0.255924800747719
40
0.283007420751246
40
0.283007420751246
40
0.322155407812189
40
0.322155407812189
40
0.396635895252563
40
0.396635895252563
40
0.65525720470513
40
0.65525720470513
40
1
40
1
40
1
40
1
41
1
10
-0.19497688887526
20
-4.37579839097916
30
0
41
1
10
-0.22577860339365
20
-4.4324791008963
30
0
41
1
10
-0.260015938127054
20
-4.48781319119936
30
0
41
1
10
-0.341702551245618
20
-4.59153420481019
30
0
41
1
10
-0.390118921162241
20
-4.64237259472083
30
0
41
1
10
-0.473016748626122
20
-4.68771235181515
30
0
41
1
10
-0.494887129060345
20
-4.69691757833235
30
0
41
1
10
-0.54127793801598
20
-4.70885491730442
30
0
41
1
10
-0.566511484960216
20
-4.71148681970925
30
0
41
1
10
-0.612595492696698
20
-4.70858984525546
30
0
41
1
10
-0.634102058640678
20
-4.70407498906431
30
0
41
1
10
-0.682980774672302
20
-4.68755425299943
30
0
41
1
10
-0.70962847419878
20
-4.67305795132486
30
0
41
1
10
-0.778816689934899
20
-4.62544783848222
30
0
41
1
10
-0.816326813882114
20
-4.58672309278168
30
0
41
1
10
-0.962957354385594
20
-4.40775966937687
30
0
41
1
10
-1.03461938473885
20
-4.24573672775691
30
0
41
1
10
-1.18088300049359
20
-3.86444045923329
30
0
41
1
10
-1.24300370483718
20
-3.63586143768177
30
0
41
1
10
-1.29503997793927
20
-3.40161170366497
30
0
0
SPLINE
5
16D
100
AcDbEntity
8
SK1
62
256
6
ByLayer
370
13
48
1
60
0
100
AcDbSpline
70
4
71
3
72
10
73
6
40
0
40
0
40
0
40
0
40
0.5
40
0.5
40
1
40
1
40
1
40
1
41
1
10
-1.49999999999997
20
-3.43390791500573
30
0
41
1
10
-1.71692496836991
20
-2.3775263747948
30
0
41
1
10
-1.93485042889159
20
-1.20950788444065
30
0
41
1
10
-1.93573790230047
20
1.20204294304298
30
0
41
1
10
-1.71715856246342
20
2.37639193544291
30
0
41
1
10
-1.5
20
3.43390926803403
30
0
0
SPLINE
5
16E
100
AcDbEntity
8
SK1
62
256
6
ByLayer
370
13
48
1
60
0
100
AcDbSpline
70
4
71
3
72
24
73
20
40
0
40
0
40
0
40
0
40
0.0962392347059629
40
0.0962392347059629
40
0.194419571814749
40
0.194419571814749
40
0.224980323085173
40
0.224980323085173
40
0.256016565584803
40
0.256016565584803
40
0.283076636964975
40
0.283076636964975
40
0.322241448517515
40
0.322241448517515
40
0.396807099691057
40
0.396807099691057
40
0.656078947672228
40
0.656078947672228
40
1
40
1
40
1
40
1
41
1
10
-0.194976888875288
20
10.8215956059619
30
0
41
1
10
-0.225800270974929
20
10.8153713475797
30
0
41
1
10
-0.260059369691703
20
10.808546539551
30
0
41
1
10
-0.341803934200726
20
10.7942702716737
30
0
41
1
10
-0.390260016175858
20
10.786425926963
30
0
41
1
10
-0.473222837683949
20
10.7780887432033
30
0
41
1
10
-0.495087626885663
20
10.7762370295384
30
0
41
1
10
-0.541459979791853
20
10.7733404617968
30
0
41
1
10
-0.566679982514444
20
10.7722927243579
30
0
41
1
10
-0.612728669915327
20
10.7714551070537
30
0
41
1
10
-0.634214108805224
20
10.7715049109724
30
0
41
1
10
-0.683080106698611
20
10.7724623164841
30
0
41
1
10
-0.70972997819996
20
10.7737217298433
30
0
41
1
10
-0.778953436207075
20
10.7781755666156
30
0
41
1
10
-0.816482927715754
20
10.7820991609815
30
0
41
1
10
-0.963349723036941
20
10.7994211291878
30
0
41
1
10
-1.03512095928957
20
10.8126881790271
30
0
41
1
10
-1.18120463075795
20
10.8317285533685
30
0
41
1
10
-1.24312046576091
20
10.834837438425
30
0
41
1
10
-1.29503997793927
20
10.8279545871449
30
0
0
SPLINE
5
16F
100
AcDbEntity
8
SK1
62
256
6
ByLayer
370
13
48
1
60
0
100
AcDbSpline
70
4
71
3
72
12
73
8
40
0
40
0
40
0
40
0
40
0.5
40
0.5
40
0.75
40
0.75
40
1
40
1
40
1
40
1
41
1
10
-1.29503997793927
20
-10.8279546620411
30
0
41
1
10
-1.21965219531933
20
-10.8379486625118
30
0
41
1
10
-1.13233363849665
20
-10.8263834256098
30
0
41
1
10
-0.888368938463373
20
-10.7902737230076
30
0
41
1
10
-0.78205693922601
20
-10.7672468480773
30
0
41
1
10
-0.381383282450145
20
-10.7768463845487
30
0
41
1
10
-0.275882860919495
20
-10.8052581480331
30
0
41
1
10
-0.19497688887526
20
-10.8215957545436
30
0
0
SPLINE
5
170
100
AcDbEntity
8
SK1
62
256
6
ByLayer
370
13
48
1
60
0
100
AcDbSpline
70
4
71
3
72
24
73
20
40
0
40
0
40
0
40
0
40
0.128390282722865
40
0.128390282722865
40
0.159820685571236
40
0.159820685571236
40
0.1919195602011
40
0.1919195602011
40
0.209629751442464
40
0.209629751442464
40
0.227366395121296
40
0.227366395121296
40
0.25104518223428
40
0.25104518223428
40
0.293121391520845
40
0.293121391520845
40
0.426409855477353
40
0.426409855477353
40
1
40
1
40
1
40
1
41
1
10
-0.19497688887526
20
-10.8215957545436
30
0
41
1
10
-0.181375896166969
20
-10.8243422473105
30
0
41
1
10
-0.166081841895505
20
-10.8279644857847
30
0
41
1
10
-0.140426444643339
20
-10.8375064215378
30
0
41
1
10
-0.134924488239108
20
-10.8396997158019
30
0
41
1
10
-0.122832871486793
20
-10.8450247330173
30
0
41
1
10
-0.116005084540149
20
-10.8482784930315
30
0
41
1
10
-0.104867300913639
20
-10.8542304518889
30
0
41
1
10
-0.100699542547375
20
-10.8565852604387
30
0
41
1
10
-0.0926672813067171
20
-10.8614000855953
30
0
41
1
10
-0.088713126711724
20
-10.8639138269671
30
0
41
1
10
-0.0803023877863041
20
-10.8695389018216
30
0
41
1
10
-0.0759679066298702
20
-10.8726604895889
30
0
41
1
10
-0.0654598680693255
20
-10.8806226953325
30
0
41
1
10
-0.0601314814749117
20
-10.8851372207405
30
0
41
1
10
-0.0414385869532907
20
-10.9019165369333
30
0
41
1
10
-0.0337743229470391
20
-10.9111229596337
30
0
41
1
10
-0.0008602206669934
20
-10.9533220423454
30
0
41
1
10
0
20
-10.9679034889487
30
0
41
1
10
0
20
-10.9778577586145
30
0
0
SPLINE
5
171
100
AcDbEntity
8
SK1
62
256
6
ByLayer
370
13
48
1
60
0
100
AcDbSpline
70
4
71
3
72
28
73
24
40
0
40
0
40
0
40
0
40
0.512376218728437
40
0.512376218728437
40
0.598796503464051
40
0.598796503464051
40
0.676463520255395
40
0.676463520255395
40
0.732063551226698
40
0.732063551226698
40
0.7567442972498
40
0.7567442972498
40
0.781926249196948
40
0.781926249196948
40
0.799501894551974
40
0.799501894551974
40
0.816971939099189
40
0.816971939099189
40
0.846412145166701
40
0.846412145166701
40
0.90600512067789
40
0.90600512067789
40
1
40
1
40
1
40
1
41
1
10
2.84E-14
20
10.977857676254
30
0
41
1
10
2.84E-14
20
10.968940912515
30
0
41
1
10
-0.0021336807887451
20
10.9555532512504
30
0
41
1
10
-0.0232748724177725
20
10.9246518484713
30
0
41
1
10
-0.0269083003946378
20
10.9197287260978
30
0
41
1
10
-0.0357145212995249
20
10.9091097226555
30
0
41
1
10
-0.0406627960333026
20
10.9035431698626
30
0
41
1
10
-0.0520351547614837
20
10.892344182334
30
0
41
1
10
-0.0576624789276536
20
10.8871325052027
30
0
41
1
10
-0.068502297999089
20
10.8783230690718
30
0
41
1
10
-0.0722755852240482
20
10.8753918789564
30
0
41
1
10
-0.0809223725233608
20
10.8691153689022
30
0
41
1
10
-0.0859779850563314
20
10.8656564118427
30
0
41
1
10
-0.0952029059709218
20
10.8598435694816
30
0
41
1
10
-0.0992734436414082
20
10.8574159266206
30
0
41
1
10
-0.107237119508511
20
10.8529290307915
30
0
41
1
10
-0.111216792366889
20
10.850816610328
30
0
41
1
10
-0.121305075823187
20
10.8457309056932
30
0
41
1
10
-0.127212828813697
20
10.8430398605585
30
0
41
1
10
-0.143444252916026
20
10.8361482507472
30
0
41
1
10
-0.152658694618566
20
10.832930382725
30
0
41
1
10
-0.174005802157211
20
10.8262219540922
30
0
41
1
10
-0.184997875213014
20
10.8236106982458
30
0
41
1
10
-0.194976888875288
20
10.8215956059619
30
0
0
SPLINE
5
172
100
AcDbEntity
8
SK1
62
256
6
ByLayer
370
13
48
1
60
0
100
AcDbSpline
70
4
71
3
72
17
73
13
40
0
40
0
40
0
40
0
40
0.045768971479685
40
0.114047078907425
40
0.182325186335166
40
0.318881401190646
40
0.455437616046127
40
0.591993830901607
40
0.728550045757088
40
0.865106260612569
40
0.933384368040309
40
1
40
1
40
1
40
1
41
1
10
-1.49999999999997
20
-3.43390791500571
30
0
41
1
10
-1.49999999999997
20
-3.64663887345898
30
0
41
1
10
-1.49999999999997
20
-4.16680079382434
30
0
41
1
10
-1.49999999999997
20
-4.95838595424942
30
0
41
1
10
-1.49999999999997
20
-6.07164761580381
30
0
41
1
10
-1.5
20
-7.32680507487893
30
0
41
1
10
-1.49999999999997
20
-8.60740509388054
30
0
41
1
10
-1.49999999999997
20
-9.65050499182064
30
0
41
1
10
-1.49999999999997
20
-10.4366160019974
30
0
41
1
10
-1.5
20
-10.8518854949361
30
0
41
1
10
-1.49999999999994
20
-11.0128506935455
30
0
41
1
10
-1.49999999999994
20
-11.0305320514334
30
0
41
1
10
-1.49999999999997
20
-11.0218290118133
30
0
0
SPLINE
5
173
100
AcDbEntity
8
SK1
62
256
6
ByLayer
370
13
48
1
60
0
100
AcDbSpline
70
4
71
3
72
17
73
13
40
0
40
0
40
0
40
0
40
0.0666167807338098
40
0.134894810724874
40
0.271450870707003
40
0.408006930689132
40
0.544562990671261
40
0.68111905065339
40
0.817675110635519
40
0.885953140626583
40
0.954231170617648
40
1
40
1
40
1
40
1
41
1
10
-1.49999999999997
20
11.021828467837
30
0
41
1
10
-1.49999999999997
20
11.0305322948855
30
0
41
1
10
-1.49999999999997
20
11.0128510512139
30
0
41
1
10
-1.49999999999997
20
10.8518854777454
30
0
41
1
10
-1.49999999999997
20
10.4366154663299
30
0
41
1
10
-1.49999999999997
20
9.65050521846041
30
0
41
1
10
-1.49999999999997
20
8.6074048244474
30
0
41
1
10
-1.49999999999997
20
7.32680518164273
30
0
41
1
10
-1.49999999999994
20
6.07164774177338
30
0
41
1
10
-1.49999999999997
20
4.95838603991953
30
0
41
1
10
-1.49999999999997
20
4.16680114754948
30
0
41
1
10
-1.49999999999997
20
3.64663976225361
30
0
41
1
10
-1.49999999999997
20
3.43390926803397
30
0
0
SPLINE
5
174
100
AcDbEntity
8
SK1
62
256
6
ByLayer
370
13
48
1
60
0
100
AcDbSpline
70
4
71
3
72
15
73
11
40
0
40
0
40
0
40
0
40
0.0439605062749932
40
0.124435874054444
40
0.285386609613346
40
0.446337345172247
40
0.607288080731149
40
0.768238816290051
40
0.929189551848952
40
1
40
1
40
1
40
1
41
1
10
-0.19497688887526
20
-4.37579839097916
30
0
41
1
10
-0.19497688887526
20
-4.53596249036642
30
0
41
1
10
-0.19497688887526
20
-4.98207705649136
30
0
41
1
10
-0.19497688887526
20
-5.95785489884696
30
0
41
1
10
-0.19497688887526
20
-7.19854374618669
30
0
41
1
10
-0.19497688887526
20
-8.46600649183353
30
0
41
1
10
-0.19497688887526
20
-9.4985901119361
30
0
41
1
10
-0.194976888875232
20
-10.2764914380925
30
0
41
1
10
-0.19497688887526
20
-10.6769305434497
30
0
41
1
10
-0.19497688887526
20
-10.7969738327038
30
0
41
1
10
-0.19497688887526
20
-10.8215957545436
30
0
0
SPLINE
5
175
100
AcDbEntity
8
SK1
62
256
6
ByLayer
370
13
48
1
60
0
100
AcDbSpline
70
4
71
3
72
12
73
8
40
0
40
0
40
0
40
0
40
0.5
40
0.5
40
0.75
40
0.75
40
1
40
1
40
1
40
1
41
1
10
-1.29503997793927
20
3.40161292972383
30
0
41
1
10
-1.21966153693791
20
3.74094063354181
30
0
41
1
10
-1.13234441385652
20
4.06572173503699
30
0
41
1
10
-0.88842460595589
20
4.5124281120267
30
0
41
1
10
-0.782090355088712
20
4.70587064177846
30
0
41
1
10
-0.38144931260149
20
4.7148092048964
30
0
41
1
10
-0.275877572630833
20
4.52467076184291
30
0
41
1
10
-0.19497688887526
20
4.37579881180474
30
0
0
SPLINE
5
176
100
AcDbEntity
8
SK1
62
256
6
ByLayer
370
13
48
1
60
0
100
AcDbSpline
70
4
71
3
72
8
73
4
40
0
40
0
40
0
40
0
40
1
40
1
40
1
40
1
41
1
10
-1.29503997793927
20
-3.40161170366494
30
0
41
1
10
-1.30169623417874
20
-3.37164748523247
30
0
41
1
10
-1.3084940848573
20
-3.34178354807597
30
0
41
1
10
-1.3154350650949
20
-3.31204600014982
30
0
0
SPLINE
5
177
100
AcDbEntity
8
SK1
62
256
6
ByLayer
370
13
48
1
60
0
100
AcDbSpline
70
4
71
3
72
26
73
22
40
0
40
0
40
0
40
0
40
0.309980198123918
40
0.309980198123918
40
0.46612112789472
40
0.46612112789472
40
0.49533993592753
40
0.49533993592753
40
0.508478349918604
40
0.508478349918604
40
0.521870142769938
40
0.521870142769938
40
0.533321486912806
40
0.533321486912806
40
0.546914826761706
40
0.546914826761706
40
0.571024540942517
40
0.571024540942517
40
0.650283827225141
40
0.650283827225141
40
1
40
1
40
1
40
1
41
1
10
-1.5
20
3.43390926803397
30
0
41
1
10
-1.49957809424501
20
3.34972498522029
30
0
41
1
10
-1.49765792801546
20
3.26436078219527
30
0
41
1
10
-1.48532705686964
20
3.13479536440963
30
0
41
1
10
-1.48076412648987
20
3.08989854362898
30
0
41
1
10
-1.46447634382213
20
3.03979293840396
30
0
41
1
10
-1.46141372751509
20
3.03180695978676
30
0
41
1
10
-1.45566120817679
20
3.02143998205966
30
0
41
1
10
-1.45365299428383
20
3.01835783654906
30
0
41
1
10
-1.4491491400658
20
3.01303026786181
30
0
41
1
10
-1.44656555604138
20
3.01074941382333
30
0
41
1
10
-1.44159424050383
20
3.00807571495145
30
0
41
1
10
-1.4391733263669
20
3.007433138133
30
0
41
1
10
-1.43412760501775
20
3.00729376115282
30
0
41
1
10
-1.43146783274841
20
3.0079937780624
30
0
41
1
10
-1.42468428977543
20
3.01114999104297
30
0
41
1
10
-1.4208298264852
20
3.01451655258884
30
0
41
1
10
-1.40597537013147
20
3.03067342263392
30
0
41
1
10
-1.39753320304314
20
3.04757090687519
30
0
41
1
10
-1.35607798742203
20
3.13969304848743
30
0
41
1
10
-1.33538442090907
20
3.22657761195455
30
0
41
1
10
-1.31543506509431
20
3.31204737779174
30
0
0
SPLINE
5
178
100
AcDbEntity
8
SK1
62
256
6
ByLayer
370
13
48
1
60
0
100
AcDbSpline
70
4
71
3
72
28
73
24
40
0
40
0
40
0
40
0
40
0.51238977263432
40
0.51238977263432
40
0.598731913641441
40
0.598731913641441
40
0.676265860997004
40
0.676265860997004
40
0.732149327534335
40
0.732149327534335
40
0.756724770902791
40
0.756724770902791
40
0.781793306259952
40
0.781793306259952
40
0.799361847027308
40
0.799361847027308
40
0.816826010501399
40
0.816826010501399
40
0.846186813770459
40
0.846186813770459
40
0.905539732455287
40
0.905539732455287
40
1
40
1
40
1
40
1
41
1
10
2.84E-14
20
-4.85235750507863
30
0
41
1
10
2.84E-14
20
-4.73258035965068
30
0
41
1
10
-0.0021341972527296
20
-4.60969891010188
30
0
41
1
10
-0.0232786507929745
20
-4.46302637227458
30
0
41
1
10
-0.0269092785202929
20
-4.44166333235893
30
0
41
1
10
-0.0357027926591229
20
-4.40116175451524
30
0
41
1
10
-0.0406406591744144
20
-4.3819143751719
30
0
41
1
10
-0.0520117846028256
20
-4.34944869087858
30
0
41
1
10
-0.0576636066332128
20
-4.33583294590238
30
0
41
1
10
-0.0685385681380524
20
-4.31781684750953
30
0
41
1
10
-0.0722984771588244
20
-4.31246867438293
30
0
41
1
10
-0.0809092003855483
20
-4.30291138710999
30
0
41
1
10
-0.0859393324079178
20
-4.29861365633275
30
0
41
1
10
-0.0951339015149131
20
-4.29362932415103
30
0
41
1
10
-0.0992015134457915
20
-4.29221665297061
30
0
41
1
10
-0.10716233809265
20
-4.29091978708698
30
0
41
1
10
-0.11114201169616
20
-4.29099599703511
30
0
41
1
10
-0.12121635220754
20
-4.2926562994902
30
0
41
1
10
-0.127113045572031
20
-4.29518639800179
30
0
41
1
10
-0.143301351325334
20
-4.30481339036561
30
0
41
1
10
-0.152491885174214
20
-4.31398732373057
30
0
41
1
10
-0.173901568135875
20
-4.33947815148534
30
0
41
1
10
-0.184949910857654
20
-4.35734694302417
30
0
41
1
10
-0.19497688887526
20
-4.37579839097918
30
0
0
SPLINE
5
179
100
AcDbEntity
8
SK1
62
256
6
ByLayer
370
13
48
1
60
0
100
AcDbSpline
70
4
71
3
72
17
73
13
40
0
40
0
40
0
40
0
40
0.0509999855106605
40
0.120748339298503
40
0.260245046874188
40
0.399741754449872
40
0.539238462025557
40
0.678735169601242
40
0.818231877176927
40
0.88798023096477
40
0.957728584752612
40
1
40
1
40
1
40
1
41
1
10
-1.29503997793927
20
10.8302903739636
30
0
41
1
10
-1.29503997793927
20
10.8303490950868
30
0
41
1
10
-1.29503997793927
20
10.8084520220361
30
0
41
1
10
-1.29503997793927
20
10.6595078070701
30
0
41
1
10
-1.29503997793927
20
10.2500351152373
30
0
41
1
10
-1.29503997793927
20
9.47349094524563
30
0
41
1
10
-1.29503997793927
20
8.44264434291844
30
0
41
1
10
-1.29503997793927
20
7.17735249314515
30
0
41
1
10
-1.29503997793924
20
5.93905418532489
30
0
41
1
10
-1.29503997793927
20
4.84051419704483
30
0
41
1
10
-1.29503997793927
20
4.08014769325385
30
0
41
1
10
-1.29503997793927
20
3.58970381899377
30
0
41
1
10
-1.29503997793927
20
3.4016129297238
30
0
0
SPLINE
5
17A
100
AcDbEntity
8
SK1
62
256
6
ByLayer
370
13
48
1
60
0
100
AcDbSpline
70
4
71
3
72
32
73
28
40
0
40
0
40
0
40
0
40
0.234684261975775
40
0.234684261975775
40
0.348361654478263
40
0.348361654478263
40
0.388282873663969
40
0.388282873663969
40
0.42864025998754
40
0.42864025998754
40
0.446531340707553
40
0.446531340707553
40
0.461787044728312
40
0.461787044728312
40
0.472436918419526
40
0.472436918419526
40
0.483126928720688
40
0.483126928720688
40
0.496698906763739
40
0.496698906763739
40
0.520507652639534
40
0.520507652639534
40
0.596306394905639
40
0.596306394905639
40
0.93986945044065
40
0.93986945044065
40
1
40
1
40
1
40
1
41
1
10
-1.3154350650949
20
-3.31204600014962
30
0
41
1
10
-1.32893238660847
20
-3.25421882997409
30
0
41
1
10
-1.34355879628586
20
-3.19678036801631
30
0
41
1
10
-1.36981668623901
20
-3.11480234743351
30
0
41
1
10
-1.37908112666261
20
-3.08844302825832
30
0
41
1
10
-1.39410000150977
20
-3.05524710917516
30
0
41
1
10
-1.39825515114939
20
-3.04683139978448
30
0
41
1
10
-1.40744013157311
20
-3.0309263334895
30
0
41
1
10
-1.41248338751086
20
-3.02331055838172
30
0
41
1
10
-1.42104470873147
20
-3.01444691763083
30
0
41
1
10
-1.42388428770909
20
-3.01200316638369
30
0
41
1
10
-1.42960772890058
20
-3.00866963113572
30
0
41
1
10
-1.43248141685996
20
-3.00758586710066
30
0
41
1
10
-1.43759978369653
20
-3.00725807173097
30
0
41
1
10
-1.43981857045915
20
-3.00757652239236
30
0
41
1
10
-1.44414537374547
20
-3.00926961951734
30
0
41
1
10
-1.44630176453469
20
-3.0106711275651
30
0
41
1
10
-1.45077971941725
20
-3.01469802776796
30
0
41
1
10
-1.45306667342615
20
-3.01758589787698
30
0
41
1
10
-1.45860172249962
20
-3.02614271079247
30
0
41
1
10
-1.46144813218226
20
-3.03239945973149
30
0
41
1
10
-1.47156520005211
20
-3.05873512386813
30
0
41
1
10
-1.4759514242881
20
-3.08032205392595
30
0
41
1
10
-1.49603914243184
20
-3.19664641835519
30
0
41
1
10
-1.49803585788575
20
-3.29188422241302
30
0
41
1
10
-1.49975607766777
20
-3.40131696134
30
0
41
1
10
-1.49991842293898
20
-3.41763054375454
30
0
41
1
10
-1.49999999999997
20
-3.43390791500573
30
0
0
SPLINE
5
17B
100
AcDbEntity
8
SK1
62
256
6
ByLayer
370
13
48
1
60
0
100
AcDbSpline
70
4
71
3
72
35
73
31
40
0
40
0
40
0
40
0
40
0.0158969515769224
40
0.0443712380115312
40
0.101319810880749
40
0.158268383749966
40
0.215216956619184
40
0.272165529488401
40
0.329114102357619
40
0.357588388792227
40
0.386062675226836
40
0.414536961661445
40
0.443011248096054
40
0.471485534530662
40
0.485722677747967
40
0.499959820965271
40
0.514196964182576
40
0.52843410739988
40
0.556908393834489
40
0.585382680269097
40
0.613856966703706
40
0.642331253138315
40
0.670805539572924
40
0.727754112442141
40
0.784702685311359
40
0.841651258180576
40
0.898599831049794
40
0.955548403919011
40
0.98402269035362
40
1
40
1
40
1
40
1
41
1
10
-18
20
10.6092651399628
30
0
41
1
10
-18
20
10.6060349446813
30
0
41
1
10
-18
20
10.5825021047814
30
0
41
1
10
-18
20
10.4427418173596
30
0
41
1
10
-18
20
10.0398013894459
30
0
41
1
10
-18
20
9.27403601894568
30
0
41
1
10
-18
20
8.25699665980406
30
0
41
1
10
-18
20
7.00895321986476
30
0
41
1
10
-18
20
5.78965132899594
30
0
41
1
10
-18
20
4.70769937196644
30
0
41
1
10
-18
20
3.84817166067387
30
0
41
1
10
-18
20
2.94117947415637
30
0
41
1
10
-18
20
1.99095585453043
30
0
41
1
10
-18
20
1.17129189084363
30
0
41
1
10
-18
20
0.501599059707416
30
0
41
1
10
-18
20
7.85940415E-08
30
0
41
1
10
-18
20
-0.501599044412444
30
0
41
1
10
-18
20
-1.17129192458168
30
0
41
1
10
-18
20
-1.99095571595882
30
0
41
1
10
-18
20
-2.94117931205886
30
0
41
1
10
-18
20
-3.84817175180621
30
0
41
1
10
-18
20
-4.70769924070143
30
0
41
1
10
-18
20
-5.78965120402765
30
0
41
1
10
-18
20
-7.00895314702166
30
0
41
1
10
-18
20
-8.25699691773565
30
0
41
1
10
-18
20
-9.27403581023771
30
0
41
1
10
-18
20
-10.0398019205168
30
0
41
1
10
-18
20
-10.4427418393662
30
0
41
1
10
-18
20
-10.582613275204
30
0
41
1
10
-18
20
-10.6061202367757
30
0
41
1
10
-18
20
-10.6093138598149
30
0
0
SPLINE
5
17C
100
AcDbEntity
8
SK1
62
256
6
ByLayer
370
13
48
1
60
0
100
AcDbSpline
70
4
71
3
72
24
73
20
40
0
40
0
40
0
40
0
40
0.128387595315522
40
0.128387595315522
40
0.159816787058991
40
0.159816787058991
40
0.191913564337787
40
0.191913564337787
40
0.209621992350364
40
0.209621992350364
40
0.227357368928763
40
0.227357368928763
40
0.251017095037952
40
0.251017095037952
40
0.293042868277306
40
0.293042868277306
40
0.426109841034357
40
0.426109841034357
40
1
40
1
40
1
40
1
41
1
10
-0.194976888875288
20
4.37579881180474
30
0
41
1
10
-0.181376609846751
20
4.35077182852044
30
0
41
1
10
-0.166084452907398
20
4.32613296449406
30
0
41
1
10
-0.140434718547596
20
4.30354219591217
30
0
41
1
10
-0.134934284841847
20
4.29948916182246
30
0
41
1
10
-0.122846025128183
20
4.29329535928468
30
0
41
1
10
-0.116020442370569
20
4.291119175788
30
0
41
1
10
-0.104884728675984
20
4.29110815705081
30
0
41
1
10
-0.100717557341937
20
4.29180717572174
30
0
41
1
10
-0.0926853821895008
20
4.29472464897353
30
0
41
1
10
-0.0887307273815168
20
4.29697782288562
30
0
41
1
10
-0.0803221045947282
20
4.30341451620882
30
0
41
1
10
-0.0759893926376094
20
4.30805199521819
30
0
41
1
10
-0.0654876521096242
20
4.3217747116235
30
0
41
1
10
-0.0601619056929223
20
4.33174670235792
30
0
41
1
10
-0.0414836434768802
20
4.3733520050784
30
0
41
1
10
-0.0338202360856599
20
4.40700915263955
30
0
41
1
10
-0.0008505118824189
20
4.58041352035048
30
0
41
1
10
0
20
4.71858084962929
30
0
41
1
10
2.84E-14
20
4.85235826679374
30
0
0
SPLINE
5
17D
100
AcDbEntity
8
SK1
62
256
6
ByLayer
370
13
48
1
60
0
100
AcDbSpline
70
4
71
3
72
15
73
11
40
0
40
0
40
0
40
0
40
0.0708105463137564
40
0.23176127123842
40
0.392711996163084
40
0.553662721087748
40
0.714613446012412
40
0.875564170937076
40
0.956039533399408
40
1
40
1
40
1
40
1
41
1
10
-0.194976888875288
20
10.8215956059619
30
0
41
1
10
-0.19497688887526
20
10.7969736791353
30
0
41
1
10
-0.19497688887526
20
10.6769306168182
30
0
41
1
10
-0.194976888875288
20
10.2764909042798
30
0
41
1
10
-0.194976888875288
20
9.49859033133993
30
0
41
1
10
-0.194976888875288
20
8.46600622704153
30
0
41
1
10
-0.19497688887526
20
7.19854383926264
30
0
41
1
10
-0.19497688887526
20
5.95785502441245
30
0
41
1
10
-0.194976888875288
20
4.98207728872012
30
0
41
1
10
-0.194976888875288
20
4.53596278989269
30
0
41
1
10
-0.194976888875288
20
4.37579881180474
30
0
0
SPLINE
5
17E
100
AcDbEntity
8
SK1
62
256
6
ByLayer
370
13
48
1
60
0
100
AcDbSpline
70
4
71
3
72
35
73
31
40
0
40
0
40
0
40
0
40
0.0183913881270424
40
0.046721261939945
40
0.10338100956575
40
0.160040757191555
40
0.21670050481736
40
0.273360252443165
40
0.33002000006897
40
0.358349873881873
40
0.386679747694775
40
0.415009621507678
40
0.443339495320581
40
0.471669369133483
40
0.485834306039934
40
0.499999242946386
40
0.514164179852837
40
0.528329116759288
40
0.556658990572191
40
0.584988864385093
40
0.613318738197996
40
0.641648612010898
40
0.669978485823801
40
0.726638233449606
40
0.783297981075411
40
0.839957728701216
40
0.896617476327021
40
0.953277223952827
40
0.981607097765729
40
1
40
1
40
1
40
1
41
1
10
-19
20
10.0333172287573
30
0
41
1
10
-19
20
10.0315838824213
30
0
41
1
10
-19
20
10.0100828788358
30
0
41
1
10
-19
20
9.87290376557468
30
0
41
1
10
-19
20
9.4871354620816
30
0
41
1
10
-19
20
8.74970557959301
30
0
41
1
10
-19
20
7.76896293179379
30
0
41
1
10
-19
20
6.56626239951893
30
0
41
1
10
-19
20
5.39689860660039
30
0
41
1
10
-19
20
4.35855354299247
30
0
41
1
10
-19
20
3.54050705744919
30
0
41
1
10
-19
20
2.68380958588827
30
0
41
1
10
-19
20
1.79728192772171
30
0
41
1
10
-19
20
1.05021111926774
30
0
41
1
10
-19
20
0.444753991207932
30
0
41
1
10
-19
20
1.751604373E-07
30
0
41
1
10
-19
20
-0.444754022193052
30
0
41
1
10
-19
20
-1.05021119288867
30
0
41
1
10
-19
20
-1.79728161122441
30
0
41
1
10
-19
20
-2.68380947355124
30
0
41
1
10
-19
20
-3.54050720156599
30
0
41
1
10
-19
20
-4.35855334822486
30
0
41
1
10
-19
20
-5.39689848302669
30
0
41
1
10
-19
20
-6.56626237391907
30
0
41
1
10
-19
20
-7.7689631737066
30
0
41
1
10
-19
20
-8.74970539585971
30
0
41
1
10
-19
20
-9.48713598675059
30
0
41
1
10
-19
20
-9.87290379428873
30
0
41
1
10
-19
20
-10.0100852099688
30
0
41
1
10
-19
20
-10.0315854355883
30
0
41
1
10
-19
20
-10.0333177711227
30
0
0
SPLINE
5
17F
100
AcDbEntity
8
SK1
62
256
6
ByLayer
370
13
48
1
60
0
100
AcDbSpline
70
4
71
3
72
17
73
13
40
0
40
0
40
0
40
0
40
0.0422810201514963
40
0.112045079552769
40
0.181809138954041
40
0.321337257756586
40
0.46086537655913
40
0.600393495361675
40
0.739921614164219
40
0.879449732966764
40
0.949213792368036
40
1
40
1
40
1
40
1
41
1
10
-1.29503997793927
20
-3.40161170366494
30
0
41
1
10
-1.29503997793927
20
-3.58970302046006
30
0
41
1
10
-1.29503997793927
20
-4.08014737941247
30
0
41
1
10
-1.29503997793927
20
-4.84051408993619
30
0
41
1
10
-1.29503997793927
20
-5.93905405982616
30
0
41
1
10
-1.29503997793927
20
-7.17735240233074
30
0
41
1
10
-1.29503997793927
20
-8.44264460694365
30
0
41
1
10
-1.29503997793927
20
-9.47349072703733
30
0
41
1
10
-1.29503997793924
20
-10.2500356487436
30
0
41
1
10
-1.2950399779393
20
-10.6595078265253
30
0
41
1
10
-1.29503997793924
20
-10.8083234714486
30
0
41
1
10
-1.29503997793924
20
-10.8302673923511
30
0
41
1
10
-1.29503997793924
20
-10.830290703642
30
0
0
SPLINE
5
180
100
AcDbEntity
8
SK1
62
256
6
ByLayer
370
13
48
1
60
0
100
AcDbSpline
70
4
71
3
72
8
73
4
40
0
40
0
40
0
40
0
40
1
40
1
40
1
40
1
41
1
10
-1.3154350650949
20
3.31204737779214
30
0
41
1
10
-1.30849408531822
20
3.34178487516797
30
0
41
1
10
-1.30169623454367
20
3.37164876172577
30
0
41
1
10
-1.29503997793927
20
3.4016129297238
30
0
0
SPLINE
5
181
100
AcDbEntity
8
1
62
256
6
ByLayer
370
13
48
1
60
0
100
AcDbSpline
70
4
71
3
72
20
73
16
40
0
40
0
40
0
40
0
40
0.0308817847162937
40
0.0308817847162937
40
0.218205606432775
40
0.218205606432775
40
0.399694682647513
40
0.399694682647513
40
0.575367358412384
40
0.575367358412384
40
0.740239813568207
40
0.740239813568207
40
0.901991271510045
40
0.901991271510045
40
1
40
1
40
1
40
1
41
1
10
28.4000010418511
20
18.1518259037361
30
0
41
1
10
28.4000028760944
20
18.1534332104655
30
0
41
1
10
28.4000072793388
20
18.1561048031582
30
0
41
1
10
28.4001682178567
20
18.182265145395
30
0
41
1
10
28.399843210838
20
18.2451319154615
30
0
41
1
10
28.4229569822798
20
18.4361953068982
30
0
41
1
10
28.4472891521033
20
18.5651778451253
30
0
41
1
10
28.5520312564563
20
18.8465534186388
30
0
41
1
10
28.6332017567878
20
19.0014933734716
30
0
41
1
10
28.8527838013669
20
19.2783678987274
30
0
41
1
10
28.9902418227453
20
19.4049056419733
30
0
41
1
10
29.3012238321816
20
19.6008145825327
30
0
41
1
10
29.4778788748122
20
19.6739072839619
30
0
41
1
10
29.7712744965779
20
19.7376227953924
30
0
41
1
10
29.8857206054403
20
19.7500000000005
30
0
41
1
10
30.0000000000008
20
19.7500000000004
30
0
0
SPLINE
5
182
100
AcDbEntity
8
1
62
256
6
ByLayer
370
13
48
1
60
0
100
AcDbSpline
70
4
71
3
72
16
73
12
40
0
40
0
40
0
40
0
40
0.462497527135793
40
0.462497527135793
40
0.645191851133649
40
0.645191851133649
40
0.83046514508478
40
0.83046514508478
40
0.946099677592159
40
0.946099677592159
40
1
40
1
40
1
40
1
41
1
10
4.66339745962165
20
15.1759383782001
30
0
41
1
10
4.68049745427393
20
15.1969435000061
30
0
41
1
10
4.70393430551664
20
15.217373304072
30
0
41
1
10
4.75230660037386
20
15.2426068177428
30
0
41
1
10
4.76803751709789
20
15.2494611471714
30
0
41
1
10
4.80461917683144
20
15.2617345707427
30
0
41
1
10
4.82601832205688
20
15.2672766430865
30
0
41
1
10
4.86534830605135
20
15.273624854165
30
0
41
1
10
4.88194300110757
20
15.2754510872993
30
0
41
1
10
4.90693069677607
20
15.2767486596482
30
0
41
1
10
4.91508241701411
20
15.2769622091383
30
0
41
1
10
4.92320508075696
20
15.2769622091383
30
0
0
SPLINE
5
183
100
AcDbEntity
8
1
62
256
6
ByLayer
370
13
48
1
60
0
100
AcDbSpline
70
4
71
3
72
16
73
12
40
0
40
0
40
0
40
0
40
0.462497527135769
40
0.462497527135769
40
0.645191851133664
40
0.645191851133664
40
0.830465145084796
40
0.830465145084796
40
0.94609967759218
40
0.94609967759218
40
1
40
1
40
1
40
1
41
1
10
7.33660254037846
20
5.06861858311279
30
0
41
1
10
7.31950254572618
20
5.00572719980437
30
0
41
1
10
7.2960656944835
20
4.94318132289601
30
0
41
1
10
7.24769339962626
20
4.86451341532805
30
0
41
1
10
7.23196248290222
20
4.84296870144308
30
0
41
1
10
7.19538082316865
20
4.80415189945739
30
0
41
1
10
7.17398167794323
20
4.7864845940297
30
0
41
1
10
7.13465169394874
20
4.76617783194968
30
0
41
1
10
7.11805699889251
20
4.76031541807734
30
0
41
1
10
7.09306930322398
20
4.75614889828751
30
0
41
1
10
7.08491758298598
20
4.75546271781852
30
0
41
1
10
7.07679491924313
20
4.75546271781852
30
0
0
SPLINE
5
184
100
AcDbEntity
8
1
62
256
6
ByLayer
370
13
48
1
60
0
100
AcDbSpline
70
4
71
3
72
8
73
4
40
0
40
0
40
0
40
0
40
1
40
1
40
1
40
1
41
1
10
15.0453016345034
20
-14.4650938580066
30
0
41
1
10
15.0489629228035
20
-14.0455517739587
30
0
41
1
10
15.1129668354736
20
-13.5509839347962
30
0
41
1
10
15.3398427259481
20
-12.9931148039815
30
0
0
SPLINE
5
185
100
AcDbEntity
8
1
62
256
6
ByLayer
370
13
48
1
60
0
100
AcDbSpline
70
4
71
3
72
8
73
4
40
0
40
0
40
0
40
0
40
1
40
1
40
1
40
1
41
1
10
15.2792076144254
20
12.8776105842324
30
0
41
1
10
15.1188888361803
20
12.54740243559
30
0
41
1
10
15.0490204601478
20
12.1873402855165
30
0
41
1
10
15.0453016345033
20
11.7968922990656
30
0
0
SPLINE
5
186
100
AcDbEntity
8
1
62
256
6
ByLayer
370
13
48
1
60
0
100
AcDbSpline
70
4
71
3
72
16
73
12
40
0
40
0
40
0
40
0
40
0.112904383055218
40
0.112904383055218
40
0.251995806601948
40
0.251995806601948
40
0.471177478614691
40
0.471177478614691
40
0.892334804026736
40
0.892334804026736
40
1
40
1
40
1
40
1
41
1
10
4.92320508075696
20
-15.2769622091383
30
0
41
1
10
4.90636996355752
20
-15.2769622091383
30
0
41
1
10
4.88932551790367
20
-15.276012662156
30
0
41
1
10
4.85400387216046
20
-15.2722082770658
30
0
41
1
10
4.83576156988681
20
-15.2689414463833
30
0
41
1
10
4.79405363685711
20
-15.2589992478794
30
0
41
1
10
4.77256184645844
20
-15.2513160232931
30
0
41
1
10
4.7195295905812
20
-15.2273927985285
30
0
41
1
10
4.69506482950476
20
-15.209252838028
30
0
41
1
10
4.67177931116106
20
-15.1857432227232
30
0
41
1
10
4.6674084658263
20
-15.1808653782143
30
0
41
1
10
4.66339745962159
20
-15.1759383782001
30
0
0
SPLINE
5
187
100
AcDbEntity
8
1
62
256
6
ByLayer
370
13
48
1
60
0
100
AcDbSpline
70
4
71
3
72
16
73
12
40
0
40
0
40
0
40
0
40
0.112904383055233
40
0.112904383055233
40
0.251995806601834
40
0.251995806601834
40
0.471177478614345
40
0.471177478614345
40
0.892334804025818
40
0.892334804025818
40
1
40
1
40
1
40
1
41
1
10
7.07679491924313
20
15.2769622091382
30
0
41
1
10
7.09363003644253
20
15.2769622091382
30
0
41
1
10
7.11067448209636
20
15.2760126621559
30
0
41
1
10
7.14599612783954
20
15.2722082770657
30
0
41
1
10
7.16423843011322
20
15.2689414463831
30
0
41
1
10
7.20594636314286
20
15.2589992478793
30
0
41
1
10
7.22743815354156
20
15.251316023293
30
0
41
1
10
7.28047040941874
20
15.2273927985285
30
0
41
1
10
7.30493517049521
20
15.209252838028
30
0
41
1
10
7.32822068883894
20
15.1857432227232
30
0
41
1
10
7.33259153417376
20
15.1808653782142
30
0
41
1
10
7.33660254037852
20
15.1759383781999
30
0
0
SPLINE
5
188
100
AcDbEntity
8
1
62
256
6
ByLayer
370
13
48
1
60
0
100
AcDbSpline
70
4
71
3
72
8
73
4
40
0
40
0
40
0
40
0
40
1
40
1
40
1
40
1
41
1
10
17.7502902179615
20
21.7500000000004
30
0
41
1
10
17.7501388173489
20
21.7500000000004
30
0
41
1
10
17.839295772462
20
21.7500000000004
30
0
41
1
10
18.022574832969
20
21.7500000000004
30
0
0
SPLINE
5
189
100
AcDbEntity
8
1
62
256
6
ByLayer
370
13
48
1
60
0
100
AcDbSpline
70
4
71
3
72
8
73
4
40
0
40
0
40
0
40
0
40
1
40
1
40
1
40
1
41
1
10
18.9178682238919
20
21.7500000000004
30
0
41
1
10
18.3256695824798
20
20.602892698991
30
0
41
1
10
17.7457348950513
20
19.4762165067941
30
0
41
1
10
17.2055136575711
20
18.3573750106366
30
0
0
SPLINE
5
18A
100
AcDbEntity
8
1
62
256
6
ByLayer
370
13
48
1
60
0
100
AcDbSpline
70
4
71
3
72
16
73
12
40
0
40
0
40
0
40
0
40
0.462497527135708
40
0.462497527135708
40
0.645191851133601
40
0.645191851133601
40
0.830465145084739
40
0.830465145084739
40
0.946099677592097
40
0.946099677592097
40
1
40
1
40
1
40
1
41
1
10
4.66339745962162
20
-5.06861858311257
30
0
41
1
10
4.6804974542739
20
-5.00572719980417
30
0
41
1
10
4.70393430551661
20
-4.94318132289581
30
0
41
1
10
4.7523066003738
20
-4.86451341532785
30
0
41
1
10
4.76803751709787
20
-4.84296870144289
30
0
41
1
10
4.80461917683141
20
-4.8041518994572
30
0
41
1
10
4.82601832205683
20
-4.7864845940295
30
0
41
1
10
4.86534830605129
20
-4.76617783194948
30
0
41
1
10
4.88194300110752
20
-4.76031541807711
30
0
41
1
10
4.90693069677604
20
-4.75614889828728
30
0
41
1
10
4.91508241701408
20
-4.75546271781829
30
0
41
1
10
4.92320508075693
20
-4.75546271781826
30
0
0
SPLINE
5
18B
100
AcDbEntity
8
1
62
256
6
ByLayer
370
13
48
1
60
0
100
AcDbSpline
70
4
71
3
72
16
73
12
40
0
40
0
40
0
40
0
40
0.112904383055193
40
0.112904383055193
40
0.251995806601897
40
0.251995806601897
40
0.471177478614576
40
0.471177478614576
40
0.892334804026602
40
0.892334804026602
40
1
40
1
40
1
40
1
41
1
10
4.92320508075696
20
4.75546271781821
30
0
41
1
10
4.90636996355755
20
4.75546271781821
30
0
41
1
10
4.8893255179037
20
4.75851551862729
30
0
41
1
10
4.85400387216049
20
4.77071315953427
30
0
41
1
10
4.83576156988684
20
4.78117073972265
30
0
41
1
10
4.79405363685717
20
4.8128321460851
30
0
41
1
10
4.77256184645847
20
4.8371571513369
30
0
41
1
10
4.71952959058123
20
4.91214630601519
30
0
41
1
10
4.69506482950479
20
4.96811547083774
30
0
41
1
10
4.67177931116109
20
5.03919021254762
30
0
41
1
10
4.66740846582633
20
5.05386666454152
30
0
41
1
10
4.66339745962159
20
5.06861858311242
30
0
0
SPLINE
5
18C
100
AcDbEntity
8
1
62
256
6
ByLayer
370
13
48
1
60
0
100
AcDbSpline
70
4
71
3
72
16
73
12
40
0
40
0
40
0
40
0
40
0.112904383055197
40
0.112904383055197
40
0.251995806601772
40
0.251995806601772
40
0.471177478614227
40
0.471177478614227
40
0.892334804025597
40
0.892334804025597
40
1
40
1
40
1
40
1
41
1
10
7.07679491924313
20
-4.75546271781872
30
0
41
1
10
7.09363003644253
20
-4.75546271781872
30
0
41
1
10
7.11067448209633
20
-4.75851551862778
30
0
41
1
10
7.14599612783951
20
-4.77071315953472
30
0
41
1
10
7.16423843011319
20
-4.78117073972308
30
0
41
1
10
7.2059463631428
20
-4.81283214608547
30
0
41
1
10
7.2274381535415
20
-4.83715715133724
30
0
41
1
10
7.28047040941871
20
-4.91214630601539
30
0
41
1
10
7.30493517049518
20
-4.96811547083786
30
0
41
1
10
7.32822068883891
20
-5.03919021254782
30
0
41
1
10
7.33259153417376
20
-5.05386666454186
30
0
41
1
10
7.33660254037849
20
-5.06861858311294
30
0
0
SPLINE
5
18D
100
AcDbEntity
8
1
62
256
6
ByLayer
370
13
48
1
60
0
100
AcDbSpline
70
4
71
3
72
8
73
4
40
0
40
0
40
0
40
0
40
1
40
1
40
1
40
1
41
1
10
18.022574832969
20
21.7500000000004
30
0
41
1
10
17.7292245774885
20
20.596283498734
30
0
41
1
10
17.4542186515904
20
19.4662545169818
30
0
41
1
10
17.2055136575711
20
18.3573750106366
30
0
0
SPLINE
5
18E
100
AcDbEntity
8
1
62
256
6
ByLayer
370
13
48
1
60
0
100
AcDbSpline
70
4
71
3
72
10
73
6
40
0
40
0
40
0
40
0
40
0.5
40
0.5
40
1
40
1
40
1
40
1
41
1
10
28.4000010418515
20
18.1518259037365
30
0
41
1
10
27.8128251942068
20
18.1645471898959
30
0
41
1
10
27.2142954274875
20
18.2390820774336
30
0
41
1
10
26.1186822297905
20
18.6992285690392
30
0
41
1
10
25.579286690969
20
19.1496520446618
30
0
41
1
10
25.5792866909684
20
19.7499999999995
30
0
0
SPLINE
5
18F
100
AcDbEntity
8
1
62
256
6
ByLayer
370
13
48
1
60
0
100
AcDbSpline
70
4
71
3
72
8
73
4
40
0
40
0
40
0
40
0
40
1
40
1
40
1
40
1
41
1
10
17.2055136575711
20
18.3573750106366
30
0
41
1
10
16.9373440923796
20
17.2253128128457
30
0
41
1
10
16.6794453639242
20
16.0981844597289
30
0
41
1
10
16.4383186059722
20
14.9752044429562
30
0
0
SPLINE
5
190
100
AcDbEntity
8
1
62
256
6
ByLayer
370
13
48
1
60
0
100
AcDbSpline
70
4
71
3
72
8
73
4
40
0
40
0
40
0
40
0
40
1
40
1
40
1
40
1
41
1
10
15.0453016345033
20
-11.7968922990656
30
0
41
1
10
15.049460397088
20
-12.2335302682972
30
0
41
1
10
15.1368685168754
20
-12.6344593603782
30
0
41
1
10
15.3398427259481
20
-12.9931148039815
30
0
0
SPLINE
5
191
100
AcDbEntity
8
1
62
256
6
ByLayer
370
13
48
1
60
0
100
AcDbSpline
70
4
71
3
72
10
73
6
40
0
40
0
40
0
40
0
40
0.5
40
0.5
40
1
40
1
40
1
40
1
41
1
10
15.2792076144258
20
12.8776105842305
30
0
41
1
10
15.4176062041892
20
13.1626697806683
30
0
41
1
10
15.6232336230579
20
13.435815483298
30
0
41
1
10
16.076717200746
20
14.092528218657
30
0
41
1
10
16.3343412225491
20
14.4909590411884
30
0
41
1
10
16.4383186059732
20
14.9752044429555
30
0
0
SPLINE
5
192
100
AcDbEntity
8
1
62
256
6
ByLayer
370
13
48
1
60
0
100
AcDbSpline
70
4
71
3
72
16
73
12
40
0
40
0
40
0
40
0
40
0.462497527135866
40
0.462497527135866
40
0.645191851133766
40
0.645191851133766
40
0.830465145084885
40
0.830465145084885
40
0.946099677592263
40
0.946099677592263
40
1
40
1
40
1
40
1
41
1
10
7.33660254037846
20
-15.1759383782
30
0
41
1
10
7.31950254572618
20
-15.196943500006
30
0
41
1
10
7.2960656944835
20
-15.2173733040719
30
0
41
1
10
7.24769339962626
20
-15.2426068177427
30
0
41
1
10
7.23196248290219
20
-15.2494611471713
30
0
41
1
10
7.19538082316865
20
-15.2617345707426
30
0
41
1
10
7.17398167794323
20
-15.2672766430864
30
0
41
1
10
7.13465169394874
20
-15.2736248541649
30
0
41
1
10
7.11805699889248
20
-15.2754510872993
30
0
41
1
10
7.09306930322398
20
-15.2767486596482
30
0
41
1
10
7.08491758298598
20
-15.2769622091383
30
0
41
1
10
7.07679491924316
20
-15.2769622091383
30
0
0
SPLINE
5
193
100
AcDbEntity
8
1
62
256
6
ByLayer
370
13
48
1
60
0
100
AcDbSpline
70
4
71
3
72
12
73
8
40
0
40
0
40
0
40
0
40
0.103790018033927
40
0.103790018033927
40
0.424238012362856
40
0.424238012362856
40
1
40
1
40
1
40
1
41
1
10
53.8112677608007
20
21.1973018020992
30
0
41
1
10
53.8330673288143
20
21.1967526622875
30
0
41
1
10
53.8548777846228
20
21.196445109219
30
0
41
1
10
53.9437817615811
20
21.1952589051786
30
0
41
1
10
54.0108617198121
20
21.1947522515657
30
0
41
1
10
54.195202236924
20
21.194501852401
30
0
41
1
10
54.3116787067388
20
21.1957540417849
30
0
41
1
10
54.4213727254144
20
21.1987731616329
30
0
0
SPLINE
5
194
100
AcDbEntity
8
1
62
256
6
ByLayer
370
13
48
1
60
0
100
AcDbSpline
70
4
71
3
72
16
73
12
40
0
40
0
40
0
40
0
40
0.0007084940797618
40
0.0007084940797618
40
0.283937687189524
40
0.283937687189524
40
0.567818407080674
40
0.567818407080674
40
0.999291505920235
40
0.999291505920235
40
1
40
1
40
1
40
1
41
1
10
53.2289221872924
20
21.1300199051645
30
0
41
1
10
53.2289416274202
20
21.1300245087562
30
0
41
1
10
53.2289610676156
20
21.1300291120394
30
0
41
1
10
53.2367519568992
20
21.1318740107656
30
0
41
1
10
53.2445252383641
20
21.133718267554
30
0
41
1
10
53.2600911151086
20
21.1374190554783
30
0
41
1
10
53.2678840471777
20
21.1392757600463
30
0
41
1
10
53.2875212263735
20
21.1439641260417
30
0
41
1
10
53.2993665335015
20
21.1468010035234
30
0
41
1
10
53.311228866792
20
21.149649936487
30
0
41
1
10
53.3112483137594
20
21.149654607189
30
0
41
1
10
53.3112677608007
20
21.1496592775834
30
0
0
SPLINE
5
195
100
AcDbEntity
8
1
62
256
6
ByLayer
370
13
48
1
60
0
100
AcDbSpline
70
4
71
3
72
16
73
12
40
0
40
0
40
0
40
0
40
0.0007084940797618
40
0.0007084940797618
40
0.283937687189524
40
0.283937687189524
40
0.567818407080674
40
0.567818407080674
40
0.999291505920235
40
0.999291505920235
40
1
40
1
40
1
40
1
41
1
10
53.2289221872924
20
20.3699800948358
30
0
41
1
10
53.228941627443
20
20.3699754913861
30
0
41
1
10
53.2289610676156
20
20.3699708879609
30
0
41
1
10
53.2367519568992
20
20.3681259892348
30
0
41
1
10
53.2445252383641
20
20.3662817324464
30
0
41
1
10
53.2600911151086
20
20.362580944522
30
0
41
1
10
53.2678840471777
20
20.3607242399541
30
0
41
1
10
53.2875212263735
20
20.3560358739586
30
0
41
1
10
53.2993665335015
20
20.3531989964769
30
0
41
1
10
53.311228866792
20
20.3503500635133
30
0
41
1
10
53.3112483137939
20
20.3503453929548
30
0
41
1
10
53.3112677608007
20
20.3503407224169
30
0
0
SPLINE
5
196
100
AcDbEntity
8
1
62
256
6
ByLayer
370
13
48
1
60
0
100
AcDbSpline
70
4
71
3
72
8
73
4
40
0
40
0
40
0
40
0
40
1
40
1
40
1
40
1
41
1
10
53.2289221872924
20
20.7500000000002
30
0
41
1
10
53.2563707117952
20
20.7500000000002
30
0
41
1
10
53.283819236298
20
20.7500000000002
30
0
41
1
10
53.3112677608007
20
20.7500000000002
30
0
0
SPLINE
5
197
100
AcDbEntity
8
1
62
256
6
ByLayer
370
13
48
1
60
0
100
AcDbSpline
70
4
71
3
72
10
73
6
40
0
40
0
40
0
40
0
40
0.709896843428722
40
0.709896843428722
40
1
40
1
40
1
40
1
41
1
10
52.1845849620887
20
20.1178815712803
30
0
41
1
10
52.1786971522085
20
20.1235270424692
30
0
41
1
10
52.1730792764886
20
20.1297109086789
30
0
41
1
10
52.1667433148842
20
20.1386685714841
30
0
41
1
10
52.1650681599822
20
20.1413446836673
30
0
41
1
10
52.163694842982
20
20.1439775324801
30
0
0
SPLINE
5
198
100
AcDbEntity
8
1
62
256
6
ByLayer
370
13
48
1
60
0
100
AcDbSpline
70
4
71
3
72
8
73
4
40
0
40
0
40
0
40
0
40
1
40
1
40
1
40
1
41
1
10
52.1636948430067
20
20.1439775324787
30
0
41
1
10
52.1842500998041
20
20.1622050341327
30
0
41
1
10
52.2046122793279
20
20.1801516799872
30
0
41
1
10
52.2235446149629
20
20.1988011441018
30
0
0
SPLINE
5
199
100
AcDbEntity
8
1
62
256
6
ByLayer
370
13
48
1
60
0
100
AcDbSpline
70
4
71
3
72
10
73
6
40
0
40
0
40
0
40
0
40
0.644331995687774
40
0.644331995687774
40
1
40
1
40
1
40
1
41
1
10
52.2235446149629
20
20.1988011441018
30
0
41
1
10
52.2423417535848
20
20.2173174312068
30
0
41
1
10
52.2543614792979
20
20.2426664323787
30
0
41
1
10
52.2635582436184
20
20.2874869366522
30
0
41
1
10
52.2646514454073
20
20.3049921021341
30
0
41
1
10
52.2632877280426
20
20.3236213331365
30
0
0
SPLINE
5
19A
100
AcDbEntity
8
1
62
256
6
ByLayer
370
13
48
1
60
0
100
AcDbSpline
70
4
71
3
72
12
73
8
40
0
40
0
40
0
40
0
40
0.0568772518374145
40
0.0568772518374145
40
0.598921195001007
40
0.598921195001007
40
1
40
1
40
1
40
1
41
1
10
53.1425891010003
20
20.0656884508255
30
0
41
1
10
53.1245515992802
20
20.0710330361349
30
0
41
1
10
53.1065274742932
20
20.0763652369551
30
0
41
1
10
52.9189632613311
20
20.1317806137133
30
0
41
1
10
52.7497242492963
20
20.181273102405
30
0
41
1
10
52.4764510412474
20
20.2611394687536
30
0
41
1
10
52.365133916484
20
20.2936801937209
30
0
41
1
10
52.2632877280431
20
20.3236213331378
30
0
0
SPLINE
5
19B
100
AcDbEntity
8
1
62
256
6
ByLayer
370
13
48
1
60
0
100
AcDbSpline
70
4
71
3
72
12
73
8
40
0
40
0
40
0
40
0
40
0.432851996086571
40
0.432851996086571
40
0.716418616561771
40
0.716418616561771
40
1
40
1
40
1
40
1
41
1
10
53.2151325614844
20
20.04418180398
30
0
41
1
10
53.2046568328337
20
20.0472814144913
30
0
41
1
10
53.1941840602842
20
20.0503851861555
30
0
41
1
10
53.1768579385476
20
20.0555244159994
30
0
41
1
10
53.170001810704
20
20.0575598149152
30
0
41
1
10
53.1562928218783
20
20.0616267951899
30
0
41
1
10
53.1494397680902
20
20.0636585702325
30
0
41
1
10
53.1425891010003
20
20.0656884508255
30
0
0
SPLINE
5
19C
100
AcDbEntity
8
1
62
256
6
ByLayer
370
13
48
1
60
0
100
AcDbSpline
70
4
71
3
72
14
73
10
40
0
40
0
40
0
40
0
40
0.0559482231425851
40
0.0559482231425851
40
0.255082555375332
40
0.255082555375332
40
0.91736630964965
40
0.91736630964965
40
1
40
1
40
1
40
1
41
1
10
53.8217062023472
20
19.9988182475306
30
0
41
1
10
53.8102710337184
20
19.9984229628602
30
0
41
1
10
53.7988345011548
20
19.9980661951255
30
0
41
1
10
53.746704106935
20
19.9961582372692
30
0
41
1
10
53.7060132231142
20
19.9942271407747
30
0
41
1
10
53.5310688272088
20
19.9885267267974
30
0
41
1
10
53.3936591146985
20
19.9936263797221
30
0
41
1
10
53.2478771051644
20
20.0346264634836
30
0
41
1
10
53.2314856310115
20
20.0393431767218
30
0
41
1
10
53.2151325614844
20
20.04418180398
30
0
0
SPLINE
5
19D
100
AcDbEntity
8
1
62
256
6
ByLayer
370
13
48
1
60
0
100
AcDbSpline
70
4
71
3
72
12
73
8
40
0
40
0
40
0
40
0
40
0.580466676309606
40
0.580466676309606
40
0.902092447109163
40
0.902092447109163
40
1
40
1
40
1
40
1
41
1
10
54.36542001724
20
20.01981853492
30
0
41
1
10
54.2648041446478
20
20.015550846422
30
0
41
1
10
54.1598849325172
20
20.0115189616652
30
0
41
1
10
53.9950542118574
20
20.0052471378386
30
0
41
1
10
53.9355659682511
20
20.0029171252551
30
0
41
1
10
53.8579762169911
20
20.0000992025574
30
0
41
1
10
53.8398403518264
20
19.9994450989163
30
0
41
1
10
53.8217062023472
20
19.9988182475306
30
0
0
SPLINE
5
19E
100
AcDbEntity
8
1
62
256
6
ByLayer
370
13
48
1
60
0
100
AcDbSpline
70
4
71
3
72
14
73
10
40
0
40
0
40
0
40
0
40
0.0740326958458219
40
0.0740326958458219
40
0.743257125695834
40
0.743257125695834
40
0.939124438646558
40
0.939124438646558
40
1
40
1
40
1
40
1
41
1
10
54.7213347612452
20
20.03643256335
30
0
41
1
10
54.7126059855914
20
20.036082693168
30
0
41
1
10
54.7038751248009
20
20.0357314918052
30
0
41
1
10
54.6162008436678
20
20.0321930467652
30
0
41
1
10
54.5369961926742
20
20.0287622149464
30
0
41
1
10
54.4347137397946
20
20.0247732146058
30
0
41
1
10
54.4110630969842
20
20.0223341881503
30
0
41
1
10
54.3801088915617
20
20.0205021830746
30
0
41
1
10
54.3727654069311
20
20.0201300944612
30
0
41
1
10
54.36542001724
20
20.01981853492
30
0
0
SPLINE
5
19F
100
AcDbEntity
8
1
62
256
6
ByLayer
370
13
48
1
60
0
100
AcDbSpline
70
4
71
3
72
8
73
4
40
0
40
0
40
0
40
0
40
1
40
1
40
1
40
1
41
1
10
54.5901406592839
20
19.95526372543
30
0
41
1
10
54.6341557915993
20
19.9818582443896
30
0
41
1
10
54.6778467711874
20
20.0089882934674
30
0
41
1
10
54.7213347612452
20
20.0364325633499
30
0
0
SPLINE
5
1A0
100
AcDbEntity
8
1
62
256
6
ByLayer
370
13
48
1
60
0
100
AcDbSpline
70
4
71
3
72
8
73
4
40
0
40
0
40
0
40
0
40
1
40
1
40
1
40
1
41
1
10
54.1161920011118
20
19.8776285352278
30
0
41
1
10
54.2757348334776
20
19.8777932494957
30
0
41
1
10
54.4355792331503
20
19.9116214637951
30
0
41
1
10
54.5901406592828
20
19.9552637254293
30
0
0
SPLINE
5
1A1
100
AcDbEntity
8
1
62
256
6
ByLayer
370
13
48
1
60
0
100
AcDbSpline
70
4
71
3
72
8
73
4
40
0
40
0
40
0
40
0
40
1
40
1
40
1
40
1
41
1
10
53.7530991918524
20
19.8788671584134
30
0
41
1
10
53.8746599531637
20
19.8826009416683
30
0
41
1
10
53.9968950955519
20
19.87750537142
30
0
41
1
10
54.1161920011129
20
19.877628535226
30
0
0
SPLINE
5
1A2
100
AcDbEntity
8
1
62
256
6
ByLayer
370
13
48
1
60
0
100
AcDbSpline
70
4
71
3
72
8
73
4
40
0
40
0
40
0
40
0
40
1
40
1
40
1
40
1
41
1
10
53.572400536749
20
19.884937158356
30
0
41
1
10
53.6323837831873
20
19.8792030514027
30
0
41
1
10
53.6928500715066
20
19.8770165846406
30
0
41
1
10
53.7530991918524
20
19.8788671584133
30
0
0
SPLINE
5
1A3
100
AcDbEntity
8
1
62
256
6
ByLayer
370
13
48
1
60
0
100
AcDbSpline
70
4
71
3
72
12
73
8
40
0
40
0
40
0
40
0
40
0.140444200279774
40
0.140444200279774
40
0.578672846880988
40
0.578672846880988
40
1
40
1
40
1
40
1
41
1
10
52.4502390423
20
19.9652634993767
30
0
41
1
10
52.4907683260285
20
19.9699122798023
30
0
41
1
10
52.5340049971857
20
19.9726580540268
30
0
41
1
10
52.7188333798473
20
19.9773436177575
30
0
41
1
10
52.8828017897204
20
19.9660056652956
30
0
41
1
10
53.2193415913498
20
19.9292160884798
30
0
41
1
10
53.3971452699764
20
19.9016907104471
30
0
41
1
10
53.572400536749
20
19.884937158356
30
0
0
SPLINE
5
1A4
100
AcDbEntity
8
1
62
256
6
ByLayer
370
13
48
1
60
0
100
AcDbSpline
70
4
71
3
72
8
73
4
40
0
40
0
40
0
40
0
40
1
40
1
40
1
40
1
41
1
10
52.3582665042272
20
19.9583908545865
30
0
41
1
10
52.3890156099214
20
19.9593812276681
30
0
41
1
10
52.4196882286926
20
19.9617592670978
30
0
41
1
10
52.4502390423
20
19.9652634993767
30
0
0
SPLINE
5
1A5
100
AcDbEntity
8
1
62
256
6
ByLayer
370
13
48
1
60
0
100
AcDbSpline
70
4
71
3
72
10
73
6
40
0
40
0
40
0
40
0
40
0.258944711528363
40
0.258944711528363
40
1
40
1
40
1
40
1
41
1
10
52.1845849620887
20
20.1178815712803
30
0
41
1
10
52.1992773003269
20
20.1037939607921
30
0
41
1
10
52.2140493078695
20
20.0897889892152
30
0
41
1
10
52.2714142308745
20
20.036040192463
30
0
41
1
10
52.3146891560261
20
19.996988956998
30
0
41
1
10
52.358266504227
20
19.9583908545863
30
0
0
SPLINE
5
1A6
100
AcDbEntity
8
1
62
256
6
ByLayer
370
13
48
1
60
0
100
AcDbSpline
70
4
71
3
72
10
73
6
40
0
40
0
40
0
40
0
40
0.649009211321481
40
0.649009211321481
40
1
40
1
40
1
40
1
41
1
10
52.2632877280426
20
21.1763786668635
30
0
41
1
10
52.2657560063979
20
21.2100968909234
30
0
41
1
10
52.2599458432007
20
21.2401231563406
30
0
41
1
10
52.2416692657146
20
21.2784699031434
30
0
41
1
10
52.2338663110395
20
21.2910313781878
30
0
41
1
10
52.2235446149629
20
21.3011988558986
30
0
0
SPLINE
5
1A7
100
AcDbEntity
8
1
62
256
6
ByLayer
370
13
48
1
60
0
100
AcDbSpline
70
4
71
3
72
8
73
4
40
0
40
0
40
0
40
0
40
1
40
1
40
1
40
1
41
1
10
52.2235446149629
20
21.3011988558986
30
0
41
1
10
52.204612279328
20
21.3198483200131
30
0
41
1
10
52.1842500998041
20
21.3377949658676
30
0
41
1
10
52.1636948430067
20
21.3560224675217
30
0
0
SPLINE
5
1A8
100
AcDbEntity
8
1
62
256
6
ByLayer
370
13
48
1
60
0
100
AcDbSpline
70
4
71
3
72
12
73
8
40
0
40
0
40
0
40
0
40
0.276452079067817
40
0.276452079067817
40
0.899464630432222
40
0.899464630432222
40
1
40
1
40
1
40
1
41
1
10
52.1636948430209
20
21.3560224675357
30
0
41
1
10
52.1650009626682
20
21.3585264892342
30
0
41
1
10
52.1665799094947
20
21.3610694515513
30
0
41
1
10
52.1722215249124
20
21.3691382817805
30
0
41
1
10
52.177018376239
20
21.3746049046792
30
0
41
1
10
52.1829057388043
20
21.3804918673116
30
0
41
1
10
52.183741236606
20
21.3813094304676
30
0
41
1
10
52.1845849620887
20
21.38211842872
30
0
0
SPLINE
5
1A9
100
AcDbEntity
8
1
62
256
6
ByLayer
370
13
48
1
60
0
100
AcDbSpline
70
4
71
3
72
10
73
6
40
0
40
0
40
0
40
0
40
0.258944711528364
40
0.258944711528364
40
1
40
1
40
1
40
1
41
1
10
52.1845849620887
20
21.38211842872
30
0
41
1
10
52.1992773003269
20
21.3962060392082
30
0
41
1
10
52.2140493078695
20
21.4102110107852
30
0
41
1
10
52.2714142308745
20
21.4639598075373
30
0
41
1
10
52.3146891560261
20
21.5030110430023
30
0
41
1
10
52.358266504227
20
21.541609145414
30
0
0
SPLINE
5
1AA
100
AcDbEntity
8
1
62
256
6
ByLayer
370
13
48
1
60
0
100
AcDbSpline
70
4
71
3
72
8
73
4
40
0
40
0
40
0
40
0
40
1
40
1
40
1
40
1
41
1
10
52.3582665042272
20
21.5416091454138
30
0
41
1
10
52.3890156099214
20
21.5406187723322
30
0
41
1
10
52.4196882286926
20
21.5382407329026
30
0
41
1
10
52.4502390423
20
21.5347365006236
30
0
0
SPLINE
5
1AB
100
AcDbEntity
8
1
62
256
6
ByLayer
370
13
48
1
60
0
100
AcDbSpline
70
4
71
3
72
12
73
8
40
0
40
0
40
0
40
0
40
0.140444200279774
40
0.140444200279774
40
0.578672846880988
40
0.578672846880988
40
1
40
1
40
1
40
1
41
1
10
52.4502390423
20
21.5347365006236
30
0
41
1
10
52.4907683260285
20
21.530087720198
30
0
41
1
10
52.5340049971857
20
21.5273419459735
30
0
41
1
10
52.7188333798473
20
21.5226563822428
30
0
41
1
10
52.8828017897204
20
21.5339943347047
30
0
41
1
10
53.2193415913498
20
21.5707839115205
30
0
41
1
10
53.3971452699764
20
21.5983092895532
30
0
41
1
10
53.572400536749
20
21.6150628416444
30
0
0
SPLINE
5
1AC
100
AcDbEntity
8
1
62
256
6
ByLayer
370
13
48
1
60
0
100
AcDbSpline
70
4
71
3
72
8
73
4
40
0
40
0
40
0
40
0
40
1
40
1
40
1
40
1
41
1
10
53.572400536749
20
21.6150628416444
30
0
41
1
10
53.6323837831873
20
21.6207969485976
30
0
41
1
10
53.6928500715066
20
21.6229834153598
30
0
41
1
10
53.7530991918524
20
21.621132841587
30
0
0
SPLINE
5
1AD
100
AcDbEntity
8
1
62
256
6
ByLayer
370
13
48
1
60
0
100
AcDbSpline
70
4
71
3
72
8
73
4
40
0
40
0
40
0
40
0
40
1
40
1
40
1
40
1
41
1
10
53.7530991918524
20
21.621132841587
30
0
41
1
10
53.8746599531637
20
21.617399058332
30
0
41
1
10
53.9968950955519
20
21.6224946285804
30
0
41
1
10
54.1161920011129
20
21.6223714647744
30
0
0
SPLINE
5
1AE
100
AcDbEntity
8
1
62
256
6
ByLayer
370
13
48
1
60
0
100
AcDbSpline
70
4
71
3
72
8
73
4
40
0
40
0
40
0
40
0
40
1
40
1
40
1
40
1
41
1
10
54.1161920011118
20
21.6223714647726
30
0
41
1
10
54.2757348334776
20
21.6222067505047
30
0
41
1
10
54.4355792331503
20
21.5883785362052
30
0
41
1
10
54.5901406592828
20
21.544736274571
30
0
0
SPLINE
5
1AF
100
AcDbEntity
8
1
62
256
6
ByLayer
370
13
48
1
60
0
100
AcDbSpline
70
4
71
3
72
8
73
4
40
0
40
0
40
0
40
0
40
1
40
1
40
1
40
1
41
1
10
54.5901406592839
20
21.5447362745703
30
0
41
1
10
54.6341557915993
20
21.5181417556107
30
0
41
1
10
54.6778467711874
20
21.4910117065329
30
0
41
1
10
54.7213347612452
20
21.4635674366504
30
0
0
SPLINE
5
1B0
100
AcDbEntity
8
1
62
256
6
ByLayer
370
13
48
1
60
0
100
AcDbSpline
70
4
71
3
72
14
73
10
40
0
40
0
40
0
40
0
40
0.0740326958458219
40
0.0740326958458219
40
0.743257125695834
40
0.743257125695834
40
0.939124438646558
40
0.939124438646558
40
1
40
1
40
1
40
1
41
1
10
54.7213347612452
20
21.4635674366503
30
0
41
1
10
54.7126059855914
20
21.4639173068323
30
0
41
1
10
54.7038751248009
20
21.4642685081952
30
0
41
1
10
54.6162008436678
20
21.4678069532351
30
0
41
1
10
54.5369961926742
20
21.4712377850539
30
0
41
1
10
54.4347137397946
20
21.4752267853945
30
0
41
1
10
54.4110630969842
20
21.47766581185
30
0
41
1
10
54.3801088915617
20
21.4794978169257
30
0
41
1
10
54.3727654069311
20
21.4798699055392
30
0
41
1
10
54.36542001724
20
21.4801814650803
30
0
0
SPLINE
5
1B1
100
AcDbEntity
8
1
62
256
6
ByLayer
370
13
48
1
60
0
100
AcDbSpline
70
4
71
3
72
12
73
8
40
0
40
0
40
0
40
0
40
0.580466676309606
40
0.580466676309606
40
0.902092447109163
40
0.902092447109163
40
1
40
1
40
1
40
1
41
1
10
54.36542001724
20
21.4801814650803
30
0
41
1
10
54.2648041446478
20
21.4844491535783
30
0
41
1
10
54.1598849325172
20
21.4884810383351
30
0
41
1
10
53.9950542118574
20
21.4947528621617
30
0
41
1
10
53.9355659682511
20
21.4970828747452
30
0
41
1
10
53.8579762169911
20
21.499900797443
30
0
41
1
10
53.8398403518264
20
21.5005549010841
30
0
41
1
10
53.8217062023472
20
21.5011817524697
30
0
0
SPLINE
5
1B2
100
AcDbEntity
8
1
62
256
6
ByLayer
370
13
48
1
60
0
100
AcDbSpline
70
4
71
3
72
14
73
10
40
0
40
0
40
0
40
0
40
0.0559482231425851
40
0.0559482231425851
40
0.255082555375332
40
0.255082555375332
40
0.91736630964965
40
0.91736630964965
40
1
40
1
40
1
40
1
41
1
10
53.8217062023472
20
21.5011817524697
30
0
41
1
10
53.8102710337184
20
21.5015770371401
30
0
41
1
10
53.7988345011548
20
21.5019338048748
30
0
41
1
10
53.746704106935
20
21.5038417627311
30
0
41
1
10
53.7060132231142
20
21.5057728592256
30
0
41
1
10
53.5310688272088
20
21.5114732732029
30
0
41
1
10
53.3936591146985
20
21.5063736202782
30
0
41
1
10
53.2478771051644
20
21.4653735365167
30
0
41
1
10
53.2314856310115
20
21.4606568232786
30
0
41
1
10
53.2151325614844
20
21.4558181960204
30
0
0
SPLINE
5
1B3
100
AcDbEntity
8
1
62
256
6
ByLayer
370
13
48
1
60
0
100
AcDbSpline
70
4
71
3
72
12
73
8
40
0
40
0
40
0
40
0
40
0.432851996086571
40
0.432851996086571
40
0.716418616561771
40
0.716418616561771
40
1
40
1
40
1
40
1
41
1
10
53.2151325614844
20
21.4558181960204
30
0
41
1
10
53.2046568328337
20
21.4527185855091
30
0
41
1
10
53.1941840602842
20
21.4496148138449
30
0
41
1
10
53.1768579385476
20
21.4444755840009
30
0
41
1
10
53.170001810704
20
21.4424401850851
30
0
41
1
10
53.1562928218783
20
21.4383732048104
30
0
41
1
10
53.1494397680902
20
21.4363414297678
30
0
41
1
10
53.1425891010003
20
21.4343115491748
30
0
0
SPLINE
5
1B4
100
AcDbEntity
8
1
62
256
6
ByLayer
370
13
48
1
60
0
100
AcDbSpline
70
4
71
3
72
12
73
8
40
0
40
0
40
0
40
0
40
0.0568772518374259
40
0.0568772518374259
40
0.598921195001127
40
0.598921195001127
40
1
40
1
40
1
40
1
41
1
10
53.1425891010003
20
21.4343115491748
30
0
41
1
10
53.1245515992802
20
21.4289669638655
30
0
41
1
10
53.1065274742932
20
21.4236347630453
30
0
41
1
10
52.9189632613311
20
21.368219386287
30
0
41
1
10
52.7497242492963
20
21.3187268975953
30
0
41
1
10
52.4764510412475
20
21.2388605312467
30
0
41
1
10
52.365133916484
20
21.2063198062794
30
0
41
1
10
52.2632877280433
20
21.1763786668626
30
0
0
SPLINE
5
1B5
100
AcDbEntity
8
1
62
256
6
ByLayer
370
13
48
1
60
0
100
AcDbSpline
70
4
71
3
72
8
73
4
40
0
40
0
40
0
40
0
40
1
40
1
40
1
40
1
41
1
10
52.2188209596174
20
19.7989312476693
30
0
41
1
10
52.1566840705691
20
19.8513390916012
30
0
41
1
10
52.0964721480718
20
19.9060446878576
30
0
41
1
10
52.0373478591962
20
19.9618290364791
30
0
0
SPLINE
5
1B6
100
AcDbEntity
8
1
62
256
6
ByLayer
370
13
48
1
60
0
100
AcDbSpline
70
4
71
3
72
8
73
4
40
0
40
0
40
0
40
0
40
1
40
1
40
1
40
1
41
1
10
52.2188209596174
20
21.701068752331
30
0
41
1
10
52.1566840705691
20
21.6486609083992
30
0
41
1
10
52.0964721480718
20
21.5939553121427
30
0
41
1
10
52.0373478591962
20
21.5381709635212
30
0
0
SPLINE
5
1B7
100
AcDbEntity
8
1
62
256
6
ByLayer
370
13
48
1
60
0
100
AcDbSpline
70
4
71
3
72
12
73
8
40
0
40
0
40
0
40
0
40
0.430493117721161
40
0.430493117721161
40
0.862618336992714
40
0.862618336992714
40
1
40
1
40
1
40
1
41
1
10
53.5587805434612
20
19.7170020526138
30
0
41
1
10
53.3906987623659
20
19.7322586791771
30
0
41
1
10
53.2215883462255
20
19.761477549844
30
0
41
1
10
52.9044434955373
20
19.8045426337662
30
0
41
1
10
52.751699988043
20
19.8196759165172
30
0
41
1
10
52.5772887625654
20
19.8208304126001
30
0
41
1
10
52.5365461454505
20
19.8196133329968
30
0
41
1
10
52.4981203716814
20
19.8165665220431
30
0
0
SPLINE
5
1B8
100
AcDbEntity
8
1
62
256
6
ByLayer
370
13
48
1
60
0
100
AcDbSpline
70
4
71
3
72
12
73
8
40
0
40
0
40
0
40
0
40
0.430493117721161
40
0.430493117721161
40
0.862618336992714
40
0.862618336992714
40
1
40
1
40
1
40
1
41
1
10
53.5587805434612
20
21.7829979473865
30
0
41
1
10
53.3906987623659
20
21.7677413208233
30
0
41
1
10
53.2215883462255
20
21.7385224501563
30
0
41
1
10
52.9044434955373
20
21.6954573662341
30
0
41
1
10
52.751699988043
20
21.6803240834831
30
0
41
1
10
52.5772887625654
20
21.6791695874002
30
0
41
1
10
52.5365461454505
20
21.6803866670035
30
0
41
1
10
52.4981203716814
20
21.6834334779572
30
0
0
SPLINE
5
1B9
100
AcDbEntity
8
1
62
256
6
ByLayer
370
13
48
1
60
0
100
AcDbSpline
70
4
71
3
72
12
73
8
40
0
40
0
40
0
40
0
40
0.018287446984155
40
0.018287446984155
40
0.429383149668921
40
0.429383149668921
40
1
40
1
40
1
40
1
41
1
10
52.0074254881241
20
20.2421318880841
30
0
41
1
10
52.007536236287
20
20.2416851693171
30
0
41
1
10
52.0076466703323
20
20.2412319287796
30
0
41
1
10
52.0102522277265
20
20.2303520411383
30
0
41
1
10
52.012595462443
20
20.2164505571556
30
0
41
1
10
52.0175084652176
20
20.1768731582731
30
0
41
1
10
52.0199051952736
20
20.1479860915464
30
0
41
1
10
52.0216132026687
20
20.1159896144026
30
0
0
SPLINE
5
1BA
100
AcDbEntity
8
1
62
256
6
ByLayer
370
13
48
1
60
0
100
AcDbSpline
70
4
71
3
72
10
73
6
40
0
40
0
40
0
40
0
40
0.318891167720856
40
0.318891167720856
40
1
40
1
40
1
40
1
41
1
10
52.0216132026687
20
20.1159896144026
30
0
41
1
10
52.0224098521601
20
20.1010658048067
30
0
41
1
10
52.0235152334821
20
20.0853260611655
30
0
41
1
10
52.0278307781878
20
20.0350175354301
30
0
41
1
10
52.0321174721148
20
19.9980494056681
30
0
41
1
10
52.0373478591962
20
19.9618290364791
30
0
0
SPLINE
5
1BB
100
AcDbEntity
8
1
62
256
6
ByLayer
370
13
48
1
60
0
100
AcDbSpline
70
4
71
3
72
12
73
8
40
0
40
0
40
0
40
0
40
0.089550281954247
40
0.089550281954247
40
0.695495664143286
40
0.695495664143286
40
1
40
1
40
1
40
1
41
1
10
52.0373478591962
20
21.5381709635212
30
0
41
1
10
52.0366504824215
20
21.5333416375362
30
0
41
1
10
52.0359706281935
20
21.528508375167
30
0
41
1
10
52.0308928344149
20
21.4914217801422
30
0
41
1
10
52.0272652946379
20
21.4588731646894
30
0
41
1
10
52.0234116552874
20
21.4131929125643
30
0
41
1
10
52.0223723977324
20
21.3982325531869
30
0
41
1
10
52.0216132026687
20
21.3840103855978
30
0
0
SPLINE
5
1BC
100
AcDbEntity
8
1
62
256
6
ByLayer
370
13
48
1
60
0
100
AcDbSpline
70
4
71
3
72
14
73
10
40
0
40
0
40
0
40
0
40
0.209495302841087
40
0.209495302841087
40
0.672464390491942
40
0.672464390491942
40
0.981903526404807
40
0.981903526404807
40
1
40
1
40
1
40
1
41
1
10
52.0216132026687
20
21.3840103855978
30
0
41
1
10
52.0209795101629
20
21.3721392849022
30
0
41
1
10
52.0202559987988
20
21.3607268649118
30
0
41
1
10
52.0176940629878
20
21.3262907871192
30
0
41
1
10
52.0155182997218
20
21.305281746407
30
0
41
1
10
52.0114230927657
20
21.2768494975822
30
0
41
1
10
52.0096341492853
20
21.2670670768219
30
0
41
1
10
52.0076466700101
20
21.2587680712186
30
0
41
1
10
52.0075362362064
20
21.2583148306827
30
0
41
1
10
52.0074254881241
20
21.2578681119163
30
0
0
SPLINE
5
1BD
100
AcDbEntity
8
1
62
256
6
ByLayer
370
13
48
1
60
0
100
AcDbSpline
70
4
71
3
72
8
73
4
40
0
40
0
40
0
40
0
40
1
40
1
40
1
40
1
41
1
10
52.3582665042275
20
19.9583908545865
30
0
41
1
10
52.3515452911909
20
19.9511114609843
30
0
41
1
10
52.3437211106933
20
19.942343684882
30
0
41
1
10
52.3350869923574
20
19.9324111325016
30
0
0
SPLINE
5
1BE
100
AcDbEntity
8
1
62
256
6
ByLayer
370
13
48
1
60
0
100
AcDbSpline
70
4
71
3
72
14
73
10
40
0
40
0
40
0
40
0
40
0.448208770210974
40
0.448208770210974
40
0.913122348259776
40
0.913122348259776
40
0.983427664880478
40
0.983427664880478
40
1
40
1
40
1
40
1
41
1
10
52.3350869923623
20
19.9324111324974
30
0
41
1
10
52.3215455531755
20
19.916833276241
30
0
41
1
10
52.305341588264
20
19.8982042041622
30
0
41
1
10
52.2698920668223
20
19.8574907140643
30
0
41
1
10
52.2499835745949
20
19.834646894383
30
0
41
1
10
52.2270726024478
20
19.8083866357202
30
0
41
1
10
52.2240126344075
20
19.8048798963977
30
0
41
1
10
52.2202420283414
20
19.8005594503263
30
0
41
1
10
52.2195314790725
20
19.7997453469457
30
0
41
1
10
52.2188209596159
20
19.7989312476705
30
0
0
SPLINE
5
1BF
100
AcDbEntity
8
1
62
256
6
ByLayer
370
13
48
1
60
0
100
AcDbSpline
70
4
71
3
72
8
73
4
40
0
40
0
40
0
40
0
40
1
40
1
40
1
40
1
41
1
10
52.3582665042275
20
21.5416091454138
30
0
41
1
10
52.3515452911909
20
21.548888539016
30
0
41
1
10
52.3437211106933
20
21.5576563151184
30
0
41
1
10
52.3350869923574
20
21.5675888674988
30
0
0
SPLINE
5
1C0
100
AcDbEntity
8
1
62
256
6
ByLayer
370
13
48
1
60
0
100
AcDbSpline
70
4
71
3
72
14
73
10
40
0
40
0
40
0
40
0
40
0.448208770210974
40
0.448208770210974
40
0.913122348259776
40
0.913122348259776
40
0.983427664880478
40
0.983427664880478
40
1
40
1
40
1
40
1
41
1
10
52.3350869923623
20
21.567588867503
30
0
41
1
10
52.3215455531755
20
21.5831667237593
30
0
41
1
10
52.305341588264
20
21.6017957958381
30
0
41
1
10
52.2698920668223
20
21.642509285936
30
0
41
1
10
52.2499835745949
20
21.6653531056173
30
0
41
1
10
52.2270726024478
20
21.6916133642801
30
0
41
1
10
52.2240126344075
20
21.6951201036027
30
0
41
1
10
52.2202420283414
20
21.6994405496741
30
0
41
1
10
52.2195314790725
20
21.7002546530547
30
0
41
1
10
52.2188209596159
20
21.7010687523298
30
0
0
SPLINE
5
1C1
100
AcDbEntity
8
1
62
256
6
ByLayer
370
13
48
1
60
0
100
AcDbSpline
70
4
71
3
72
14
73
10
40
0
40
0
40
0
40
0
40
0.448209783482341
40
0.448209783482341
40
0.913122824433937
40
0.913122824433937
40
0.983427843025058
40
0.983427843025058
40
1
40
1
40
1
40
1
41
1
10
52.3951729104533
20
21.6857329776881
30
0
41
1
10
52.374609447368
20
21.6875214535566
30
0
41
1
10
52.3500116922507
20
21.6896607121604
30
0
41
1
10
52.2962303412136
20
21.69433772627
30
0
41
1
10
52.2660425013691
20
21.6969627985365
30
0
41
1
10
52.2313234526432
20
21.6999816647646
30
0
41
1
10
52.2266868400137
20
21.7003848197663
30
0
41
1
10
52.2209739567193
20
21.7008815513282
30
0
41
1
10
52.2198974468538
20
21.7009751526929
30
0
41
1
10
52.2188209596193
20
21.7010687523309
30
0
0
SPLINE
5
1C2
100
AcDbEntity
8
1
62
256
6
ByLayer
370
13
48
1
60
0
100
AcDbSpline
70
4
71
3
72
14
73
10
40
0
40
0
40
0
40
0
40
0.448209783482341
40
0.448209783482341
40
0.913122824433937
40
0.913122824433937
40
0.983427843025058
40
0.983427843025058
40
1
40
1
40
1
40
1
41
1
10
52.3951729104533
20
19.8142670223122
30
0
41
1
10
52.374609447368
20
19.8124785464437
30
0
41
1
10
52.3500116922507
20
19.8103392878399
30
0
41
1
10
52.2962303412136
20
19.8056622737303
30
0
41
1
10
52.2660425013691
20
19.8030372014639
30
0
41
1
10
52.2313234526432
20
19.8000183352358
30
0
41
1
10
52.2266868400137
20
19.799615180234
30
0
41
1
10
52.2209739567193
20
19.7991184486721
30
0
41
1
10
52.2198974468538
20
19.7990248473074
30
0
41
1
10
52.2188209596193
20
19.7989312476694
30
0
0
SPLINE
5
1C3
100
AcDbEntity
8
1
62
256
6
ByLayer
370
13
48
1
60
0
100
AcDbSpline
70
4
71
3
72
12
73
8
40
0
40
0
40
0
40
0
40
0.37350315843554
40
0.37350315843554
40
0.795694705497851
40
0.795694705497851
40
1
40
1
40
1
40
1
41
1
10
52.059385679813
20
21.2135919272835
30
0
41
1
10
52.0710534635609
20
21.2077094237194
30
0
41
1
10
52.0816831597664
20
21.200777039896
30
0
41
1
10
52.1006200088992
20
21.1833431146052
30
0
41
1
10
52.1085333602959
20
21.172262434472
30
0
41
1
10
52.1143528017274
20
21.1530639163963
30
0
41
1
10
52.1153239472322
20
21.1462800079993
30
0
41
1
10
52.1152169044538
20
21.1391609008842
30
0
0
SPLINE
5
1C4
100
AcDbEntity
8
1
62
256
6
ByLayer
370
13
48
1
60
0
100
AcDbSpline
70
4
71
3
72
12
73
8
40
0
40
0
40
0
40
0
40
0.0542763744367155
40
0.0542763744367155
40
0.496521492455521
40
0.496521492455521
40
1
40
1
40
1
40
1
41
1
10
52.1152169044538
20
21.1391609008842
30
0
41
1
10
52.1151561390061
20
21.1351195658478
30
0
41
1
10
52.1151785928066
20
21.130984374649
30
0
41
1
10
52.1161679483259
20
21.0929378924049
30
0
41
1
10
52.1229550923539
20
21.052662892713
30
0
41
1
10
52.1518066817856
20
20.963492323734
30
0
41
1
10
52.1764269684705
20
20.9125220075446
30
0
41
1
10
52.2087083957605
20
20.8658769688697
30
0
0
SPLINE
5
1C5
100
AcDbEntity
8
1
62
256
6
ByLayer
370
13
48
1
60
0
100
AcDbSpline
70
4
71
3
72
16
73
12
40
0
40
0
40
0
40
0
40
0.298315131809684
40
0.298315131809684
40
0.533632825549725
40
0.533632825549725
40
0.64077898617517
40
0.64077898617517
40
0.930881665385067
40
0.930881665385067
40
1
40
1
40
1
40
1
41
1
10
52.2087083957605
20
20.8658769688697
30
0
41
1
10
52.2224586946462
20
20.8460084786201
30
0
41
1
10
52.2344062486955
20
20.8239245844791
30
0
41
1
10
52.2474662168349
20
20.7815688121135
30
0
41
1
10
52.2502777390208
20
20.7613761541583
30
0
41
1
10
52.2488025034954
20
20.7326040662136
30
0
41
1
10
52.2475581030794
20
20.7235217293732
30
0
41
1
10
52.2404854878039
20
20.6910283934651
30
0
41
1
10
52.230331619189
20
20.668547227232
30
0
41
1
10
52.2150440331609
20
20.6435404238132
30
0
41
1
10
52.2119321889307
20
20.6387812501048
30
0
41
1
10
52.2087083957605
20
20.6341230311307
30
0
0
SPLINE
5
1C6
100
AcDbEntity
8
1
62
256
6
ByLayer
370
13
48
1
60
0
100
AcDbSpline
70
4
71
3
72
12
73
8
40
0
40
0
40
0
40
0
40
0.072400628024118
40
0.072400628024118
40
0.542681200842481
40
0.542681200842481
40
1
40
1
40
1
40
1
41
1
10
52.2087083957605
20
20.6341230311307
30
0
41
1
10
52.2039784382181
20
20.6272884803993
30
0
41
1
10
52.1994173867098
20
20.6203815841777
30
0
41
1
10
52.1670358688112
20
20.5689985768556
30
0
41
1
10
52.1459582481575
20
20.5215463143502
30
0
41
1
10
52.120221996636
20
20.4349389325463
30
0
41
1
10
52.1147143497318
20
20.3942625673011
30
0
41
1
10
52.1152169044538
20
20.360839099116
30
0
0
SPLINE
5
1C7
100
AcDbEntity
8
1
62
256
6
ByLayer
370
13
48
1
60
0
100
AcDbSpline
70
4
71
3
72
10
73
6
40
0
40
0
40
0
40
0
40
0.334030053675942
40
0.334030053675942
40
1
40
1
40
1
40
1
41
1
10
52.1152169044538
20
20.360839099116
30
0
41
1
10
52.1153918659961
20
20.3492029104786
30
0
41
1
10
52.1126261589639
20
20.3384604046385
30
0
41
1
10
52.0979583359749
20
20.3106649203775
30
0
41
1
10
52.0800208663975
20
20.2968116387455
30
0
41
1
10
52.059385679813
20
20.2864080727168
30
0
0
SPLINE
5
1C8
100
AcDbEntity
8
1
62
256
6
ByLayer
370
13
48
1
60
0
100
AcDbSpline
70
4
71
3
72
8
73
4
40
0
40
0
40
0
40
0
40
1
40
1
40
1
40
1
41
1
10
51.0664455980651
20
20.3636030895923
30
0
41
1
10
51.0610646480121
20
20.3841052019822
30
0
41
1
10
51.0558908241366
20
20.4071603280152
30
0
41
1
10
51.0526147090177
20
20.4321565969598
30
0
0
SPLINE
5
1C9
100
AcDbEntity
8
1
62
256
6
ByLayer
370
13
48
1
60
0
100
AcDbSpline
70
4
71
3
72
8
73
4
40
0
40
0
40
0
40
0
40
1
40
1
40
1
40
1
41
1
10
51.0526147090177
20
20.4321565969598
30
0
41
1
10
51.0731026391489
20
20.4379283179316
30
0
41
1
10
51.0938876855838
20
20.4433092032795
30
0
41
1
10
51.1148664719513
20
20.4483353512242
30
0
0
SPLINE
5
1CA
100
AcDbEntity
8
1
62
256
6
ByLayer
370
13
48
1
60
0
100
AcDbSpline
70
4
71
3
72
8
73
4
40
0
40
0
40
0
40
0
40
1
40
1
40
1
40
1
41
1
10
51.1148664719505
20
20.4483353512289
30
0
41
1
10
51.1178417098662
20
20.4490481658633
30
0
41
1
10
51.1208179657885
20
20.4497607058444
30
0
41
1
10
51.1237952140209
20
20.4504729771247
30
0
0
SPLINE
5
1CB
100
AcDbEntity
8
1
62
256
6
ByLayer
370
13
48
1
60
0
100
AcDbSpline
70
4
71
3
72
28
73
24
40
0
40
0
40
0
40
0
40
0.0824331628013926
40
0.0824331628013926
40
0.235485992714892
40
0.235485992714892
40
0.365353750303328
40
0.365353750303328
40
0.450881865339947
40
0.450881865339947
40
0.480850336949852
40
0.480850336949852
40
0.574325592928214
40
0.574325592928214
40
0.597106041801673
40
0.597106041801673
40
0.701976945932075
40
0.701976945932075
40
0.720205522192435
40
0.720205522192435
40
0.850377367168771
40
0.850377367168771
40
1
40
1
40
1
40
1
41
1
10
51.1237952140209
20
20.4504729771247
30
0
41
1
10
51.1477910775769
20
20.4562137024933
30
0
41
1
10
51.1712519946268
20
20.4634339451532
30
0
41
1
10
51.2351496262034
20
20.4886510869011
30
0
41
1
10
51.2740994363458
20
20.5110189582396
30
0
41
1
10
51.3349325388923
20
20.5647054831587
30
0
41
1
10
51.3592944515773
20
20.5950323208523
30
0
41
1
10
51.3879457247085
20
20.6525330980396
30
0
41
1
10
51.3964642542704
20
20.6778747010287
30
0
41
1
10
51.4026326894441
20
20.7131515380253
30
0
41
1
10
51.4037700606155
20
20.7225251950688
30
0
41
1
10
51.4063614612622
20
20.7607668250071
30
0
41
1
10
51.4034520633988
20
20.7905629023472
30
0
41
1
10
51.3943898978955
20
20.8250133988993
30
0
41
1
10
51.3923244016579
20
20.8317672501219
30
0
41
1
10
51.3795450947273
20
20.8684270694998
30
0
41
1
10
51.3637586656491
20
20.8962675286687
30
0
41
1
10
51.3414347991991
20
20.924446416352
30
0
41
1
10
51.337982466813
20
20.9285665771152
30
0
41
1
10
51.3094104165165
20
20.9608841930438
30
0
41
1
10
51.2792041383534
20
20.9842375307649
30
0
41
1
10
51.208915041613
20
21.0238767329481
30
0
41
1
10
51.1671153730992
20
21.0391631893085
30
0
41
1
10
51.123795214021
20
21.0495270228757
30
0
0
SPLINE
5
1CC
100
AcDbEntity
8
1
62
256
6
ByLayer
370
13
48
1
60
0
100
AcDbSpline
70
4
71
3
72
8
73
4
40
0
40
0
40
0
40
0
40
1
40
1
40
1
40
1
41
1
10
51.123795214021
20
21.0495270228757
30
0
41
1
10
51.1208179657885
20
21.0502392941559
30
0
41
1
10
51.1178417098662
20
21.050951834137
30
0
41
1
10
51.1148664719505
20
21.0516646487715
30
0
0
SPLINE
5
1CD
100
AcDbEntity
8
1
62
256
6
ByLayer
370
13
48
1
60
0
100
AcDbSpline
70
4
71
3
72
8
73
4
40
0
40
0
40
0
40
0
40
1
40
1
40
1
40
1
41
1
10
51.1148664719505
20
21.0516646487715
30
0
41
1
10
51.093887685583
20
21.0566907967161
30
0
41
1
10
51.073102639149
20
21.0620716820735
30
0
41
1
10
51.0526147090178
20
21.0678434030453
30
0
0
SPLINE
5
1CE
100
AcDbEntity
8
1
62
256
6
ByLayer
370
13
48
1
60
0
100
AcDbSpline
70
4
71
3
72
10
73
6
40
0
40
0
40
0
40
0
40
0.151242748517103
40
0.151242748517103
40
1
40
1
40
1
40
1
41
1
10
51.0526147090177
20
21.0678434030405
30
0
41
1
10
51.0531149923946
20
21.0716604904698
30
0
41
1
10
51.0536590318522
20
21.0754307463968
30
0
41
1
10
51.0574716522986
20
21.099811371729
30
0
41
1
10
51.0618827558909
20
21.1190118943509
30
0
41
1
10
51.066445598065
20
21.1363969104079
30
0
0
SPLINE
5
1CF
100
AcDbEntity
8
1
62
256
6
ByLayer
370
13
48
1
60
0
100
AcDbSpline
70
4
71
3
72
14
73
10
40
0
40
0
40
0
40
0
40
0.0180992437321471
40
0.0180992437321471
40
0.327555555031554
40
0.327555555031554
40
0.783089016631575
40
0.783089016631575
40
1
40
1
40
1
40
1
41
1
10
52.0074254881241
20
21.2578681119163
30
0
41
1
10
52.0084604407255
20
21.258131969115
30
0
41
1
10
52.0094951241647
20
21.2584023241465
30
0
41
1
10
52.0281664148288
20
21.2634011585197
30
0
41
1
10
52.0457666302326
20
21.2700605890148
30
0
41
1
10
52.0877311305171
20
21.2907466267472
30
0
41
1
10
52.1118879593938
20
21.3070227106345
30
0
41
1
10
52.1442130974434
20
21.3354853466015
30
0
41
1
10
52.1542531544874
20
21.3454586974447
30
0
41
1
10
52.1636948430209
20
21.3560224675357
30
0
0
SPLINE
5
1D0
100
AcDbEntity
8
1
62
256
6
ByLayer
370
13
48
1
60
0
100
AcDbSpline
70
4
71
3
72
12
73
8
40
0
40
0
40
0
40
0
40
0.0182847240742239
40
0.0182847240742239
40
0.429358008400497
40
0.429358008400497
40
1
40
1
40
1
40
1
41
1
10
52.0074254881188
20
20.2421318880775
30
0
41
1
10
52.0084604407251
20
20.2418680308808
30
0
41
1
10
52.0094951241747
20
20.2415976758549
30
0
41
1
10
52.0339733233843
20
20.2350441672397
30
0
41
1
10
52.0574007313324
20
20.2253048616071
30
0
41
1
10
52.1101056255246
20
20.1951449416862
30
0
41
1
10
52.1391079375758
20
20.1714864272398
30
0
41
1
10
52.1636948430209
20
20.1439775324647
30
0
0
SPLINE
5
1D1
100
AcDbEntity
8
1
62
256
6
ByLayer
370
13
48
1
60
0
100
AcDbSpline
70
4
71
3
72
16
73
12
40
0
40
0
40
0
40
0
40
0.266114531305344
40
0.266114531305344
40
0.459598281789052
40
0.459598281789052
40
0.654681344527544
40
0.654681344527544
40
0.849490422247785
40
0.849490422247785
40
1
40
1
40
1
40
1
41
1
10
50.982572519129
20
21.2909556745711
30
0
41
1
10
50.9735711562898
20
21.2873842230481
30
0
41
1
10
50.9640769969269
20
21.2848481182356
30
0
41
1
10
50.9475300168957
20
21.2833831783886
30
0
41
1
10
50.9404025170202
20
21.2836718093884
30
0
41
1
10
50.9266373127103
20
21.2865563606966
30
0
41
1
10
50.9198551395321
20
21.2892285790341
30
0
41
1
10
50.9077423483697
20
21.2968160414451
30
0
41
1
10
50.9022610792339
20
21.3018177214126
30
0
41
1
10
50.8941824291229
20
21.3119514009933
30
0
41
1
10
50.8911392395859
20
21.3168679891546
30
0
41
1
10
50.8886123585658
20
21.3220239392494
30
0
0
SPLINE
5
1D2
100
AcDbEntity
8
1
62
256
6
ByLayer
370
13
48
1
60
0
100
AcDbSpline
70
4
71
3
72
8
73
4
40
0
40
0
40
0
40
0
40
1
40
1
40
1
40
1
41
1
10
50.8886123585655
20
21.3220239392492
30
0
41
1
10
50.8362826886598
20
21.4287995113296
30
0
41
1
10
50.7808772994326
20
21.5343067771636
30
0
41
1
10
50.7172833606159
20
21.6339172375139
30
0
0
SPLINE
5
1D3
100
AcDbEntity
8
1
62
256
6
ByLayer
370
13
48
1
60
0
100
AcDbSpline
70
4
71
3
72
8
73
4
40
0
40
0
40
0
40
0
40
1
40
1
40
1
40
1
41
1
10
50.7172833606115
20
19.8660827624727
30
0
41
1
10
50.7808772994311
20
19.9656932228266
30
0
41
1
10
50.8362826886577
20
20.0712004886665
30
0
41
1
10
50.8886123585655
20
20.1779760607511
30
0
0
SPLINE
5
1D4
100
AcDbEntity
8
1
62
256
6
ByLayer
370
13
48
1
60
0
100
AcDbSpline
70
4
71
3
72
16
73
12
40
0
40
0
40
0
40
0
40
0.0863584761048735
40
0.0863584761048735
40
0.277083676707827
40
0.277083676707827
40
0.497685001356078
40
0.497685001356078
40
0.715930577764417
40
0.715930577764417
40
1
40
1
40
1
40
1
41
1
10
50.8886123585655
20
20.1779760607511
30
0
41
1
10
50.8900705944436
20
20.1809515041351
30
0
41
1
10
50.8916961209683
20
20.1838420565615
30
0
41
1
10
50.8974070451895
20
20.1926430876768
30
0
41
1
10
50.9022173965362
20
20.1981526787154
30
0
41
1
10
50.913997985107
20
20.2077308865676
30
0
41
1
10
50.9213908281853
20
20.2115696222147
30
0
41
1
10
50.9366464624699
20
20.2159642446957
30
0
41
1
10
50.944705300207
20
20.2166539790172
30
0
41
1
10
50.9627947729502
20
20.2154888489834
30
0
41
1
10
50.9729718531551
20
20.212853561178
30
0
41
1
10
50.982572519129
20
20.2090443254292
30
0
0
SPLINE
5
1D5
100
AcDbEntity
8
1
62
256
6
ByLayer
370
13
48
1
60
0
100
AcDbSpline
70
4
71
3
72
8
73
4
40
0
40
0
40
0
40
0
40
1
40
1
40
1
40
1
41
1
10
52.0074254881232
20
21.257868111919
30
0
41
1
10
52.0252541290505
20
21.243211249672
30
0
41
1
10
52.042634420939
20
21.2284613647693
30
0
41
1
10
52.059385679813
20
21.2135919272835
30
0
0
SPLINE
5
1D6
100
AcDbEntity
8
1
62
256
6
ByLayer
370
13
48
1
60
0
100
AcDbSpline
70
4
71
3
72
8
73
4
40
0
40
0
40
0
40
0
40
1
40
1
40
1
40
1
41
1
10
52.3968964503546
20
19.8146362034182
30
0
41
1
10
52.396310722828
20
19.8146495981185
30
0
41
1
10
52.3957150920117
20
19.8145427665704
30
0
41
1
10
52.3951729104351
20
19.8142670230875
30
0
0
SPLINE
5
1D7
100
AcDbEntity
8
1
62
256
6
ByLayer
370
13
48
1
60
0
100
AcDbSpline
70
4
71
3
72
8
73
4
40
0
40
0
40
0
40
0
40
1
40
1
40
1
40
1
41
1
10
52.059385679813
20
20.2864080727168
30
0
41
1
10
52.042634420939
20
20.2715386352311
30
0
41
1
10
52.0252541290505
20
20.2567887503283
30
0
41
1
10
52.0074254881232
20
20.2421318880813
30
0
0
SPLINE
5
1D8
100
AcDbEntity
8
1
62
256
6
ByLayer
370
13
48
1
60
0
100
AcDbSpline
70
4
71
3
72
8
73
4
40
0
40
0
40
0
40
0
40
1
40
1
40
1
40
1
41
1
10
52.4981203716814
20
19.8165665220431
30
0
41
1
10
52.4644516713931
20
19.8145890081416
30
0
41
1
10
52.4306859121295
20
19.8138634896709
30
0
41
1
10
52.3968964503549
20
19.8146362034182
30
0
0
SPLINE
5
1D9
100
AcDbEntity
8
1
62
256
6
ByLayer
370
13
48
1
60
0
100
AcDbSpline
70
4
71
3
72
8
73
4
40
0
40
0
40
0
40
0
40
1
40
1
40
1
40
1
41
1
10
52.4981203716814
20
21.6834334779572
30
0
41
1
10
52.4644516713931
20
21.6854109918588
30
0
41
1
10
52.4306859121295
20
21.6861365103294
30
0
41
1
10
52.3968964503549
20
21.6853637965821
30
0
0
SPLINE
5
1DA
100
AcDbEntity
8
1
62
256
6
ByLayer
370
13
48
1
60
0
100
AcDbSpline
70
4
71
3
72
8
73
4
40
0
40
0
40
0
40
0
40
1
40
1
40
1
40
1
41
1
10
52.3968964503546
20
21.6853637965821
30
0
41
1
10
52.396310722828
20
21.6853504018818
30
0
41
1
10
52.3957150920117
20
21.68545723343
30
0
41
1
10
52.3951729104351
20
21.6857329769129
30
0
0
SPLINE
5
1DB
100
AcDbEntity
8
1
62
256
6
ByLayer
370
13
48
1
60
0
100
AcDbSpline
70
4
71
3
72
12
73
8
40
0
40
0
40
0
40
0
40
0.4751334286001
40
0.4751334286001
40
0.932572567163114
40
0.932572567163114
40
1
40
1
40
1
40
1
41
1
10
52.2632877280429
20
20.3236213331363
30
0
41
1
10
52.268170611684
20
20.3516100967
30
0
41
1
10
52.2754113106086
20
20.3868917686077
30
0
41
1
10
52.2979694230474
20
20.4633230189921
30
0
41
1
10
52.3132711544946
20
20.5051902838905
30
0
41
1
10
52.3372384178264
20
20.5523706808449
30
0
41
1
10
52.3404835236959
20
20.558497376113
30
0
41
1
10
52.3438616980138
20
20.5645968498052
30
0
0
SPLINE
5
1DC
100
AcDbEntity
8
1
62
256
6
ByLayer
370
13
48
1
60
0
100
AcDbSpline
70
4
71
3
72
12
73
8
40
0
40
0
40
0
40
0
40
0.317065405549387
40
0.317065405549387
40
0.935122454125188
40
0.935122454125188
40
1
40
1
40
1
40
1
41
1
10
52.3438616980199
20
20.5645968498002
30
0
41
1
10
52.4265429048384
20
20.5479748316268
30
0
41
1
10
52.5144360245087
20
20.5296902749479
30
0
41
1
10
52.782412259695
20
20.4724847340407
30
0
41
1
10
52.9751745905629
20
20.4294908108076
30
0
41
1
10
53.1879205279658
20
20.3796604576708
30
0
41
1
10
53.2084174418277
20
20.3748346492131
30
0
41
1
10
53.2289221872924
20
20.3699800948358
30
0
0
SPLINE
5
1DD
100
AcDbEntity
8
1
62
256
6
ByLayer
370
13
48
1
60
0
100
AcDbSpline
70
4
71
3
72
12
73
8
40
0
40
0
40
0
40
0
40
0.485156157749666
40
0.485156157749666
40
0.94199112372415
40
0.94199112372415
40
1
40
1
40
1
40
1
41
1
10
52.3438616980129
20
20.9354031501965
30
0
41
1
10
52.3199171752548
20
20.9786362616031
30
0
41
1
10
52.302462416397
20
21.023648470523
30
0
41
1
10
52.2781770476215
20
21.1021405161354
30
0
41
1
10
52.2704660180375
20
21.1371829011121
30
0
41
1
10
52.2645310175682
20
21.169343694007
30
0
41
1
10
52.2638924892731
20
21.1729121662617
30
0
41
1
10
52.2632877280431
20
21.1763786668637
30
0
0
SPLINE
5
1DE
100
AcDbEntity
8
1
62
256
6
ByLayer
370
13
48
1
60
0
100
AcDbSpline
70
4
71
3
72
12
73
8
40
0
40
0
40
0
40
0
40
0.317065405549387
40
0.317065405549387
40
0.935122454125188
40
0.935122454125188
40
1
40
1
40
1
40
1
41
1
10
52.3438616980199
20
20.9354031502001
30
0
41
1
10
52.4265429048384
20
20.9520251683735
30
0
41
1
10
52.5144360245087
20
20.9703097250524
30
0
41
1
10
52.782412259695
20
21.0275152659596
30
0
41
1
10
52.9751745905629
20
21.0705091891928
30
0
41
1
10
53.1879205279658
20
21.1203395423296
30
0
41
1
10
53.2084174418277
20
21.1251653507872
30
0
41
1
10
53.2289221872924
20
21.1300199051645
30
0
0
SPLINE
5
1DF
100
AcDbEntity
8
1
62
256
6
ByLayer
370
13
48
1
60
0
100
AcDbSpline
70
4
71
3
72
16
73
12
40
0
40
0
40
0
40
0
40
0.261377990657867
40
0.261377990657867
40
0.481934515979472
40
0.481934515979472
40
0.715311182526725
40
0.715311182526725
40
0.913572471675964
40
0.913572471675964
40
1
40
1
40
1
40
1
41
1
10
51.0664455980651
20
20.3636030895923
30
0
41
1
10
51.0382650854168
20
20.3658575539514
30
0
41
1
10
51.0094822102569
20
20.3646817515882
30
0
41
1
10
50.9583119591351
20
20.3562126668469
30
0
41
1
10
50.9352599904951
20
20.3498359117629
30
0
41
1
10
50.8908020800965
20
20.3319643788756
30
0
41
1
10
50.8691978826307
20
20.3200358096573
30
0
41
1
10
50.8336106141681
20
20.2937637515208
30
0
41
1
10
50.8187432156444
20
20.2798828132198
30
0
41
1
10
50.8003266032142
20
20.2580201354299
30
0
41
1
10
50.7950841229876
20
20.251081459137
30
0
41
1
10
50.7902464010371
20
20.2439141898037
30
0
0
SPLINE
5
1E0
100
AcDbEntity
8
1
62
256
6
ByLayer
370
13
48
1
60
0
100
AcDbSpline
70
4
71
3
72
16
73
12
40
0
40
0
40
0
40
0
40
0.151923161221768
40
0.151923161221768
40
0.356831087868239
40
0.356831087868239
40
0.562343627100699
40
0.562343627100699
40
0.755962877954035
40
0.755962877954035
40
1
40
1
40
1
40
1
41
1
10
50.7902464010371
20
21.2560858101966
30
0
41
1
10
50.7987219344628
20
21.2435289846024
30
0
41
1
10
50.8084607018454
20
21.2316577056384
30
0
41
1
10
50.8337693949216
20
21.2060228191642
30
0
41
1
10
50.8503767517156
20
21.1928538450244
30
0
41
1
10
50.8864721144675
20
21.170475625246
30
0
41
1
10
50.9062083156533
20
21.1611247325626
30
0
41
1
10
50.9462120188595
20
21.1471048458741
30
0
41
1
10
50.9666130313181
20
21.1421118357469
30
0
41
1
10
51.0132843685345
20
21.135173332448
30
0
41
1
10
51.0401191697389
20
21.1342907743306
30
0
41
1
10
51.066445598065
20
21.136396910408
30
0
0
SPLINE
5
1E1
100
AcDbEntity
8
1
62
256
6
ByLayer
370
13
48
1
60
0
100
AcDbSpline
70
4
71
3
72
10
73
6
40
0
40
0
40
0
40
0
40
0.416310615910619
40
0.416310615910619
40
1
40
1
40
1
40
1
41
1
10
50.7887490202787
20
20.3820021197181
30
0
41
1
10
50.7881183420048
20
20.3616879792262
30
0
41
1
10
50.7879133394439
20
20.3417314123945
30
0
41
1
10
50.7882249830662
20
20.295125506904
30
0
41
1
10
50.7890616222185
20
20.2688584127848
30
0
41
1
10
50.7902464010371
20
20.2439141898037
30
0
0
SPLINE
5
1E2
100
AcDbEntity
8
1
62
256
6
ByLayer
370
13
48
1
60
0
100
AcDbSpline
70
4
71
3
72
8
73
4
40
0
40
0
40
0
40
0
40
1
40
1
40
1
40
1
41
1
10
50.7887490202787
20
20.3820021197181
30
0
41
1
10
50.8019833816743
20
20.3887712790239
30
0
41
1
10
50.8170039201152
20
20.3957822993846
30
0
41
1
10
50.8333034256004
20
20.4026214880426
30
0
0
SPLINE
5
1E3
100
AcDbEntity
8
1
62
256
6
ByLayer
370
13
48
1
60
0
100
AcDbSpline
70
4
71
3
72
14
73
10
40
0
40
0
40
0
40
0
40
0.374928384423448
40
0.374928384423448
40
0.811710849728661
40
0.811710849728661
40
0.984903138272893
40
0.984903138272893
40
1
40
1
40
1
40
1
41
1
10
50.8333034255967
20
20.4026214880389
30
0
41
1
10
50.8561224099593
20
20.4121962164971
30
0
41
1
10
50.8818640226197
20
20.4198570130987
30
0
41
1
10
50.9403666129891
20
20.4313762205394
30
0
41
1
10
50.9743985825837
20
20.4345660854553
30
0
41
1
10
51.0218660913331
20
20.4342697252597
30
0
41
1
10
51.0355336219256
20
20.4336461559148
30
0
41
1
10
51.0502708355023
20
20.4323717685445
30
0
41
1
10
51.0514431034481
20
20.4322664085422
30
0
41
1
10
51.0526147090185
20
20.4321565969601
30
0
0
SPLINE
5
1E4
100
AcDbEntity
8
1
62
256
6
ByLayer
370
13
48
1
60
0
100
AcDbSpline
70
4
71
3
72
14
73
10
40
0
40
0
40
0
40
0
40
0.437747259254554
40
0.437747259254554
40
0.876374424145627
40
0.876374424145627
40
0.984868425798996
40
0.984868425798996
40
1
40
1
40
1
40
1
41
1
10
50.8333034255967
20
21.0973785119615
30
0
41
1
10
50.8598845893819
20
21.0862251923687
30
0
41
1
10
50.8905059503584
20
21.0776627181582
30
0
41
1
10
50.9548008624908
20
21.0669887063208
30
0
41
1
10
50.9893598844024
20
21.0647446589913
30
0
41
1
10
51.0320199308042
20
21.0662698214386
30
0
41
1
10
51.040577126936
20
21.0667899766272
30
0
41
1
10
51.0502708354997
20
21.0676282314979
30
0
41
1
10
51.0514431034473
20
21.0677335914687
30
0
41
1
10
51.0526147090185
20
21.0678434030402
30
0
0
SPLINE
5
1E5
100
AcDbEntity
8
1
62
256
6
ByLayer
370
13
48
1
60
0
100
AcDbSpline
70
4
71
3
72
8
73
4
40
0
40
0
40
0
40
0
40
1
40
1
40
1
40
1
41
1
10
50.7887490202787
20
21.1179978802823
30
0
41
1
10
50.8019833816743
20
21.1112287209764
30
0
41
1
10
50.8170039201152
20
21.1042177006157
30
0
41
1
10
50.8333034256004
20
21.0973785119577
30
0
0
SPLINE
5
1E6
100
AcDbEntity
8
1
62
256
6
ByLayer
370
13
48
1
60
0
100
AcDbSpline
70
4
71
3
72
10
73
6
40
0
40
0
40
0
40
0
40
0.583689384089929
40
0.583689384089929
40
1
40
1
40
1
40
1
41
1
10
50.7902464010371
20
21.2560858101966
30
0
41
1
10
50.7890616222185
20
21.2311415872155
30
0
41
1
10
50.7882249830662
20
21.2048744930963
30
0
41
1
10
50.7879133394439
20
21.1582685876059
30
0
41
1
10
50.7881183420067
20
21.1383120207761
30
0
41
1
10
50.7887490202805
20
21.1179978802843
30
0
0
SPLINE
5
1E7
100
AcDbEntity
8
1
62
256
6
ByLayer
370
13
48
1
60
0
100
AcDbSpline
70
4
71
3
72
12
73
8
40
0
40
0
40
0
40
0
40
0.0293465478546648
40
0.0293465478546648
40
0.716199296865611
40
0.716199296865611
40
1
40
1
40
1
40
1
41
1
10
50.7172833606159
20
21.6339172375139
30
0
41
1
10
50.7164151126999
20
21.6333880477088
30
0
41
1
10
50.7155496765877
20
21.6328589381976
30
0
41
1
10
50.6947885333711
20
21.6201172448753
30
0
41
1
10
50.6762446429395
20
21.6076860493394
30
0
41
1
10
50.6544391961912
20
21.5914831342279
30
0
41
1
10
50.6484807608144
20
21.586825601592
30
0
41
1
10
50.6431084369488
20
21.5823796559064
30
0
0
SPLINE
5
1E8
100
AcDbEntity
8
1
62
256
6
ByLayer
370
13
48
1
60
0
100
AcDbSpline
70
4
71
3
72
8
73
4
40
0
40
0
40
0
40
0
40
1
40
1
40
1
40
1
41
1
10
50.6347524090111
20
21.5759843313461
30
0
41
1
10
50.6914003240086
20
21.4719070175356
30
0
41
1
10
50.7417769804953
20
21.3643116460176
30
0
41
1
10
50.7902464010371
20
21.2560858101966
30
0
0
SPLINE
5
1E9
100
AcDbEntity
8
1
62
256
6
ByLayer
370
13
48
1
60
0
100
AcDbSpline
70
4
71
3
72
8
73
4
40
0
40
0
40
0
40
0
40
1
40
1
40
1
40
1
41
1
10
50.6431084369488
20
21.5823796559064
30
0
41
1
10
50.6402587641266
20
21.5800213672229
30
0
41
1
10
50.6374665445716
20
21.5778845453612
30
0
41
1
10
50.6347524090111
20
21.5759843313461
30
0
0
SPLINE
5
1EA
100
AcDbEntity
8
1
62
256
6
ByLayer
370
13
48
1
60
0
100
AcDbSpline
70
4
71
3
72
12
73
8
40
0
40
0
40
0
40
0
40
0.0294712126629231
40
0.0294712126629231
40
0.622158766529877
40
0.622158766529877
40
1
40
1
40
1
40
1
41
1
10
50.7172833606159
20
19.8660827624863
30
0
41
1
10
50.7164151127001
20
19.8666119522929
30
0
41
1
10
50.7155496765894
20
19.8671410618078
30
0
41
1
10
50.6974755734967
20
19.8782336435414
30
0
41
1
10
50.6812985888191
20
19.8889407817579
30
0
41
1
10
50.6583964628079
20
19.905451366143
30
0
41
1
10
50.6502306848161
20
19.9117262230452
30
0
41
1
10
50.6431084369487
20
19.917620344094
30
0
0
SPLINE
5
1EB
100
AcDbEntity
8
1
62
256
6
ByLayer
370
13
48
1
60
0
100
AcDbSpline
70
4
71
3
72
8
73
4
40
0
40
0
40
0
40
0
40
1
40
1
40
1
40
1
41
1
10
50.6431084369444
20
19.9176203440839
30
0
41
1
10
50.6402587641224
20
19.9199786327673
30
0
41
1
10
50.6374665445714
20
19.9221154546393
30
0
41
1
10
50.6347524090111
20
19.9240156686542
30
0
0
SPLINE
5
1EC
100
AcDbEntity
8
1
62
256
6
ByLayer
370
13
48
1
60
0
100
AcDbSpline
70
4
71
3
72
8
73
4
40
0
40
0
40
0
40
0
40
1
40
1
40
1
40
1
41
1
10
50.7902464010371
20
20.2439141898037
30
0
41
1
10
50.7417769804954
20
20.1356883539827
30
0
41
1
10
50.6914003240087
20
20.0280929824647
30
0
41
1
10
50.6347524090111
20
19.9240156686542
30
0
0
SPLINE
5
1ED
100
AcDbEntity
8
1
62
256
6
ByLayer
370
13
48
1
60
0
100
AcDbSpline
70
4
71
3
72
26
73
22
40
0
40
0
40
0
40
0
40
0.0827515238844934
40
0.0827515238844934
40
0.12581559206367
40
0.12581559206367
40
0.250670450127126
40
0.250670450127126
40
0.38565988459967
40
0.38565988459967
40
0.523243120522087
40
0.523243120522087
40
0.658177082710726
40
0.658177082710726
40
0.794420311219042
40
0.794420311219042
40
0.893778828576378
40
0.893778828576378
40
0.931785368228296
40
0.931785368228296
40
1
40
1
40
1
40
1
41
1
10
51.0082223121694
20
20.9473354503652
30
0
41
1
10
51.0214322023478
20
20.9427720963305
30
0
41
1
10
51.0338393291367
20
20.9365896158335
30
0
41
1
10
51.0501644631609
20
20.9252889499231
30
0
41
1
10
51.0554067929996
20
20.9210263990613
30
0
41
1
10
51.0741182154141
20
20.9034095946136
30
0
41
1
10
51.0849906535054
20
20.8876447930737
30
0
41
1
10
51.1024421427666
20
20.8515451025304
30
0
41
1
10
51.1088810701151
20
20.8303595141144
30
0
41
1
10
51.1169546526535
20
20.7857355967921
30
0
41
1
10
51.1185900386567
20
20.7616020007158
30
0
41
1
10
51.1169724550515
20
20.7150166401699
30
0
41
1
10
51.1137934005018
20
20.6918867193593
30
0
41
1
10
51.102625611521
20
20.6492301637872
30
0
41
1
10
51.0944617984534
20
20.6291141274303
30
0
41
1
10
51.0752524001787
20
20.5989445523606
30
0
41
1
10
51.0653654595556
20
20.5873548876064
30
0
41
1
10
51.0489068076275
20
20.5738073635621
30
0
41
1
10
51.0440023231556
20
20.5702823146802
30
0
41
1
10
51.0295383953429
20
20.5613059020664
30
0
41
1
10
51.0191535387159
20
20.5564407397541
30
0
41
1
10
51.0082223121694
20
20.5526645496351
30
0
0
SPLINE
5
1EE
100
AcDbEntity
8
1
62
256
6
ByLayer
370
13
48
1
60
0
100
AcDbSpline
70
4
71
3
72
12
73
8
40
0
40
0
40
0
40
0
40
0.0293420255455753
40
0.0293420255455753
40
0.716180168206404
40
0.716180168206404
40
1
40
1
40
1
40
1
41
1
10
50.7172833606158
20
21.6339172375139
30
0
41
1
10
50.7162857859541
20
21.6338356004969
30
0
41
1
10
50.7152910702585
20
21.6337539703258
30
0
41
1
10
50.6914121035416
20
21.6317882020652
30
0
41
1
10
50.6698109573742
20
21.6298735124067
30
0
41
1
10
50.6439993417919
20
21.6273815158013
30
0
41
1
10
50.636886377975
20
21.6266656215297
30
0
41
1
10
50.6304097099877
20
21.6259826339723
30
0
0
SPLINE
5
1EF
100
AcDbEntity
8
1
62
256
6
ByLayer
370
13
48
1
60
0
100
AcDbSpline
70
4
71
3
72
14
73
10
40
0
40
0
40
0
40
0
40
0.375382008196676
40
0.375382008196676
40
0.812033352237096
40
0.812033352237096
40
0.984956163702167
40
0.984956163702167
40
1
40
1
40
1
40
1
41
1
10
50.8913621168403
20
20.5004526982968
30
0
41
1
10
50.9090719196109
20
20.5013163455653
30
0
41
1
10
50.9286858369908
20
20.49847805654
30
0
41
1
10
50.9723411561591
20
20.4846920765785
30
0
41
1
10
50.9971677204448
20
20.4723111202342
30
0
41
1
10
51.0310180351575
20
20.4493117538476
30
0
41
1
10
51.0406668461475
20
20.4420526375946
30
0
41
1
10
51.0509791789014
20
20.4335250737663
30
0
41
1
10
51.0517970365625
20
20.432842749168
30
0
41
1
10
51.0526147090192
20
20.4321565969638
30
0
0
SPLINE
5
1F0
100
AcDbEntity
8
1
62
256
6
ByLayer
370
13
48
1
60
0
100
AcDbSpline
70
4
71
3
72
14
73
10
40
0
40
0
40
0
40
0
40
0.438226381079498
40
0.438226381079498
40
0.876606497754705
40
0.876606497754705
40
0.984922379464605
40
0.984922379464605
40
1
40
1
40
1
40
1
41
1
10
50.8913621168403
20
20.9995473017035
30
0
41
1
10
50.9119904710235
20
20.9985413265397
30
0
41
1
10
50.9352526901998
20
21.0025916152332
30
0
41
1
10
50.9829208610343
20
21.0202028482761
30
0
41
1
10
51.0079577365152
20
21.0340019869653
30
0
41
1
10
51.0381767807406
20
21.0561714015671
30
0
41
1
10
51.0441974945511
20
21.0608669568703
30
0
41
1
10
51.0509791789019
20
21.0664749262336
30
0
41
1
10
51.0517970365626
20
21.0671572508322
30
0
41
1
10
51.0526147090192
20
21.0678434030365
30
0
0
SPLINE
5
1F1
100
AcDbEntity
8
1
62
256
6
ByLayer
370
13
48
1
60
0
100
AcDbSpline
70
4
71
3
72
12
73
8
40
0
40
0
40
0
40
0
40
0.0294665749521175
40
0.0294665749521175
40
0.622136526669372
40
0.622136526669372
40
1
40
1
40
1
40
1
41
1
10
50.7172833606161
20
19.8660827624864
30
0
41
1
10
50.7162857859714
20
19.8661643997327
30
0
41
1
10
50.7152910703256
20
19.8662460305916
30
0
41
1
10
50.6945028901904
20
19.8679573537702
30
0
41
1
10
50.6756947131271
20
19.8696068887843
30
0
41
1
10
50.6487161066196
20
19.8721472603601
30
0
41
1
10
50.638995974047
20
19.8731119140998
30
0
41
1
10
50.6304097099877
20
19.874017366028
30
0
0
SPLINE
5
1F2
100
AcDbEntity
8
1
62
256
6
ByLayer
370
13
48
1
60
0
100
AcDbSpline
70
4
71
3
72
8
73
4
40
0
40
0
40
0
40
0
40
1
40
1
40
1
40
1
41
1
10
50.8913621168403
20
20.9995473017035
30
0
41
1
10
50.9259374584494
20
20.9819166301835
30
0
41
1
10
50.9621644089747
20
20.9656245154673
30
0
41
1
10
50.9995036654583
20
20.9507556517985
30
0
0
SPLINE
5
1F3
100
AcDbEntity
8
1
62
256
6
ByLayer
370
13
48
1
60
0
100
AcDbSpline
70
4
71
3
72
8
73
4
40
0
40
0
40
0
40
0
40
1
40
1
40
1
40
1
41
1
10
50.9995036654583
20
20.5492443482018
30
0
41
1
10
50.9621644089747
20
20.534375484533
30
0
41
1
10
50.9259374584494
20
20.5180833698169
30
0
41
1
10
50.8913621168403
20
20.5004526982968
30
0
0
SPLINE
5
1F4
100
AcDbEntity
8
1
62
256
6
ByLayer
370
13
48
1
60
0
100
AcDbSpline
70
4
71
3
72
10
73
6
40
0
40
0
40
0
40
0
40
0.848569790661836
40
0.848569790661836
40
1
40
1
40
1
40
1
41
1
10
54.9256934551194
20
21.3745788312227
30
0
41
1
10
54.8913120258512
20
21.4264209108484
30
0
41
1
10
54.8438979962596
20
21.4698795395595
30
0
41
1
10
54.7838192549264
20
21.5119087603841
30
0
41
1
10
54.774454665912
20
21.5181215620121
30
0
41
1
10
54.7649581024897
20
21.5241186981633
30
0
0
SPLINE
5
1F5
100
AcDbEntity
8
1
62
256
6
ByLayer
370
13
48
1
60
0
100
AcDbSpline
70
4
71
3
72
8
73
4
40
0
40
0
40
0
40
0
40
1
40
1
40
1
40
1
41
1
10
54.7649581024897
20
21.5241186981633
30
0
41
1
10
54.7210882094167
20
21.5518227959511
30
0
41
1
10
54.6770162605411
20
21.5792127140155
30
0
41
1
10
54.6326256850655
20
21.6060732595585
30
0
0
SPLINE
5
1F6
100
AcDbEntity
8
1
62
256
6
ByLayer
370
13
48
1
60
0
100
AcDbSpline
70
4
71
3
72
10
73
6
40
0
40
0
40
0
40
0
40
0.654900204513161
40
0.654900204513161
40
1
40
1
40
1
40
1
41
1
10
54.6326256850655
20
21.6060732595585
30
0
41
1
10
54.6093808214963
20
21.6201386261332
30
0
41
1
10
54.5866679047492
20
21.6353717983153
30
0
41
1
10
54.5550034980856
20
21.6622122939029
30
0
41
1
10
54.5445398484844
20
21.6721988227361
30
0
41
1
10
54.535515563742
20
21.6833503594267
30
0
0
SPLINE
5
1F7
100
AcDbEntity
8
1
62
256
6
ByLayer
370
13
48
1
60
0
100
AcDbSpline
70
4
71
3
72
10
73
6
40
0
40
0
40
0
40
0
40
0.654900204513161
40
0.654900204513161
40
1
40
1
40
1
40
1
41
1
10
54.6326256850655
20
19.8939267404418
30
0
41
1
10
54.6093808214963
20
19.8798613738672
30
0
41
1
10
54.5866679047492
20
19.864628201685
30
0
41
1
10
54.5550034980856
20
19.8377877060974
30
0
41
1
10
54.5445398484844
20
19.8278011772642
30
0
41
1
10
54.535515563742
20
19.8166496405736
30
0
0
SPLINE
5
1F8
100
AcDbEntity
8
1
62
256
6
ByLayer
370
13
48
1
60
0
100
AcDbSpline
70
4
71
3
72
8
73
4
40
0
40
0
40
0
40
0
40
1
40
1
40
1
40
1
41
1
10
54.7649581024897
20
19.975881301837
30
0
41
1
10
54.7210882094167
20
19.9481772040492
30
0
41
1
10
54.6770162605411
20
19.9207872859848
30
0
41
1
10
54.6326256850655
20
19.8939267404418
30
0
0
SPLINE
5
1F9
100
AcDbEntity
8
1
62
256
6
ByLayer
370
13
48
1
60
0
100
AcDbSpline
70
4
71
3
72
10
73
6
40
0
40
0
40
0
40
0
40
0.848569790661836
40
0.848569790661836
40
1
40
1
40
1
40
1
41
1
10
54.9256934551194
20
20.1254211687776
30
0
41
1
10
54.8913120258512
20
20.0735790891519
30
0
41
1
10
54.8438979962596
20
20.0301204604409
30
0
41
1
10
54.7838192549264
20
19.9880912396162
30
0
41
1
10
54.774454665912
20
19.9818784379882
30
0
41
1
10
54.7649581024897
20
19.975881301837
30
0
0
SPLINE
5
1FA
100
AcDbEntity
8
1
62
256
6
ByLayer
370
13
48
1
60
0
100
AcDbSpline
70
4
71
3
72
8
73
4
40
0
40
0
40
0
40
0
40
1
40
1
40
1
40
1
41
1
10
54.4647600217523
20
21.735975939378
30
0
41
1
10
54.3478211015788
20
21.7665185658308
30
0
41
1
10
54.226489880715
20
21.7813372267109
30
0
41
1
10
54.1060768987951
20
21.7839602664968
30
0
0
SPLINE
5
1FB
100
AcDbEntity
8
1
62
256
6
ByLayer
370
13
48
1
60
0
100
AcDbSpline
70
4
71
3
72
10
73
6
40
0
40
0
40
0
40
0
40
0.635943996638209
40
0.635943996638209
40
1
40
1
40
1
40
1
41
1
10
54.5901406592828
20
19.9552637254293
30
0
41
1
10
54.5670478691557
20
19.9356793338434
30
0
41
1
10
54.5452589478458
20
19.9140127111219
30
0
41
1
10
54.5163860503718
20
19.8755597344631
30
0
41
1
10
54.5069119843145
20
19.8604826588818
30
0
41
1
10
54.4995357068632
20
19.8443639435978
30
0
0
SPLINE
5
1FC
100
AcDbEntity
8
1
62
256
6
ByLayer
370
13
48
1
60
0
100
AcDbSpline
70
4
71
3
72
16
73
12
40
0
40
0
40
0
40
0
40
0.0355583019934282
40
0.0355583019934282
40
0.0904281096557084
40
0.0904281096557084
40
0.198001345750339
40
0.198001345750339
40
0.437176612921005
40
0.437176612921005
40
1
40
1
40
1
40
1
41
1
10
54.4647600217524
20
21.7359759393781
30
0
41
1
10
54.4651593706654
20
21.7350095259848
30
0
41
1
10
54.4655599456349
20
21.7340435966875
30
0
41
1
10
54.4665795843354
20
21.7315837044207
30
0
41
1
10
54.4671995476743
20
21.7300901041745
30
0
41
1
10
54.4690371309082
20
21.7256701246159
30
0
41
1
10
54.4702570500455
20
21.7227449890973
30
0
41
1
10
54.47419943455
20
21.7133299785712
30
0
41
1
10
54.4769367796375
20
21.7068505766711
30
0
41
1
10
54.4861842955318
20
21.685268793858
30
0
41
1
10
54.4928353954249
20
21.6702776439931
30
0
41
1
10
54.4995357068632
20
21.6556360564025
30
0
0
SPLINE
5
1FD
100
AcDbEntity
8
1
62
256
6
ByLayer
370
13
48
1
60
0
100
AcDbSpline
70
4
71
3
72
10
73
6
40
0
40
0
40
0
40
0
40
0.635943996638209
40
0.635943996638209
40
1
40
1
40
1
40
1
41
1
10
54.5901406592828
20
21.544736274571
30
0
41
1
10
54.5670478691557
20
21.564320666157
30
0
41
1
10
54.5452589478458
20
21.5859872888784
30
0
41
1
10
54.5163860503718
20
21.6244402655372
30
0
41
1
10
54.5069119843145
20
21.6395173411185
30
0
41
1
10
54.4995357068632
20
21.6556360564025
30
0
0
SPLINE
5
1FE
100
AcDbEntity
8
1
62
256
6
ByLayer
370
13
48
1
60
0
100
AcDbSpline
70
4
71
3
72
16
73
12
40
0
40
0
40
0
40
0
40
0.0355583019934282
40
0.0355583019934282
40
0.0904281096557084
40
0.0904281096557084
40
0.198001345750339
40
0.198001345750339
40
0.437176612921005
40
0.437176612921005
40
1
40
1
40
1
40
1
41
1
10
54.4647600217524
20
19.7640240606223
30
0
41
1
10
54.4651593706654
20
19.7649904740155
30
0
41
1
10
54.4655599456349
20
19.7659564033128
30
0
41
1
10
54.4665795843354
20
19.7684162955796
30
0
41
1
10
54.4671995476743
20
19.7699098958259
30
0
41
1
10
54.4690371309082
20
19.7743298753844
30
0
41
1
10
54.4702570500455
20
19.7772550109031
30
0
41
1
10
54.47419943455
20
19.7866700214292
30
0
41
1
10
54.4769367796375
20
19.7931494233293
30
0
41
1
10
54.4861842955318
20
19.8147312061423
30
0
41
1
10
54.4928353954249
20
19.8297223560072
30
0
41
1
10
54.4995357068632
20
19.8443639435978
30
0
0
SPLINE
5
1FF
100
AcDbEntity
8
1
62
256
6
ByLayer
370
13
48
1
60
0
100
AcDbSpline
70
4
71
3
72
8
73
4
40
0
40
0
40
0
40
0
40
1
40
1
40
1
40
1
41
1
10
54.4647600217523
20
19.7640240606223
30
0
41
1
10
54.3478211015788
20
19.7334814341695
30
0
41
1
10
54.226489880715
20
19.7186627732894
30
0
41
1
10
54.1060768987951
20
19.7160397335035
30
0
0
SPLINE
5
200
100
AcDbEntity
8
1
62
256
6
ByLayer
370
13
48
1
60
0
100
AcDbSpline
70
4
71
3
72
12
73
8
40
0
40
0
40
0
40
0
40
0.351723890194534
40
0.351723890194534
40
0.712129136736367
40
0.712129136736367
40
1
40
1
40
1
40
1
41
1
10
52.3438616980132
20
20.5645968498055
30
0
41
1
10
52.3585427486301
20
20.6055590066456
30
0
41
1
10
52.3694774148618
20
20.6491737600136
30
0
41
1
10
52.3795833503618
20
20.738700954918
30
0
41
1
10
52.3783942316414
20
20.7855343000978
30
0
41
1
10
52.3654620411648
20
20.8664197112452
30
0
41
1
10
52.3559204052135
20
20.9017576933054
30
0
41
1
10
52.3438616980127
20
20.9354031501963
30
0
0
SPLINE
5
201
100
AcDbEntity
8
1
62
256
6
ByLayer
370
13
48
1
60
0
100
AcDbSpline
70
4
71
3
72
8
73
4
40
0
40
0
40
0
40
0
40
1
40
1
40
1
40
1
41
1
10
50.9995036654583
20
20.9507556517985
30
0
41
1
10
51.0024077881538
20
20.9496154590188
30
0
41
1
10
51.005314019696
20
20.9484753916643
30
0
41
1
10
51.0082223121694
20
20.9473354503652
30
0
0
SPLINE
5
202
100
AcDbEntity
8
1
62
256
6
ByLayer
370
13
48
1
60
0
100
AcDbSpline
70
4
71
3
72
8
73
4
40
0
40
0
40
0
40
0
40
1
40
1
40
1
40
1
41
1
10
51.0082223121694
20
20.5526645496351
30
0
41
1
10
51.005314019696
20
20.551524608336
30
0
41
1
10
51.0024077881538
20
20.5503845409815
30
0
41
1
10
50.9995036654583
20
20.5492443482018
30
0
0
SPLINE
5
203
100
AcDbEntity
8
1
62
256
6
ByLayer
370
13
48
1
60
0
100
AcDbSpline
70
4
71
3
72
8
73
4
40
0
40
0
40
0
40
0
40
1
40
1
40
1
40
1
41
1
10
50.6282766666318
20
19.8745620718587
30
0
41
1
10
50.6289998534677
20
19.8745620718592
30
0
41
1
10
50.6297316666812
20
19.8743886368036
30
0
41
1
10
50.6304097099816
20
19.8740173660708
30
0
0
SPLINE
5
204
100
AcDbEntity
8
1
62
256
6
ByLayer
370
13
48
1
60
0
100
AcDbSpline
70
4
71
3
72
8
73
4
40
0
40
0
40
0
40
0
40
1
40
1
40
1
40
1
41
1
10
50.6304097099816
20
21.6259826339683
30
0
41
1
10
50.6297316666801
20
21.625611363233
30
0
41
1
10
50.6289998534693
20
21.6254379281355
30
0
41
1
10
50.6282766666318
20
21.6254379281355
30
0
0
SPLINE
5
205
100
AcDbEntity
8
1
62
256
6
ByLayer
370
13
48
1
60
0
100
AcDbSpline
70
4
71
3
72
8
73
4
40
0
40
0
40
0
40
0
40
1
40
1
40
1
40
1
41
1
10
50.8769872801694
20
21.0010243555531
30
0
41
1
10
50.8809941941598
20
21.0010243555531
30
0
41
1
10
50.8858744381613
20
21.0005428625353
30
0
41
1
10
50.8913621168403
20
20.9995473017035
30
0
0
SPLINE
5
206
100
AcDbEntity
8
1
62
256
6
ByLayer
370
13
48
1
60
0
100
AcDbSpline
70
4
71
3
72
8
73
4
40
0
40
0
40
0
40
0
40
1
40
1
40
1
40
1
41
1
10
50.8913621168403
20
20.5004526982968
30
0
41
1
10
50.8858744381611
20
20.499457137465
30
0
41
1
10
50.8809941941611
20
20.4989756444511
30
0
41
1
10
50.8769872801707
20
20.4989756444512
30
0
0
SPLINE
5
207
100
AcDbEntity
8
1
62
256
6
ByLayer
370
13
48
1
60
0
100
AcDbSpline
70
4
71
3
72
10
73
6
40
0
40
0
40
0
40
0
40
0.155458310972556
40
0.155458310972556
40
1
40
1
40
1
40
1
41
1
10
54.7213347612452
20
20.03643256335
30
0
41
1
10
54.7303785370381
20
20.0412526423936
30
0
41
1
10
54.7393254653622
20
20.0462589001993
30
0
41
1
10
54.7954964008332
20
20.0794008739116
30
0
41
1
10
54.8409371698566
20
20.1136672950256
30
0
41
1
10
54.8749845771854
20
20.1567717961471
30
0
0
SPLINE
5
208
100
AcDbEntity
8
1
62
256
6
ByLayer
370
13
48
1
60
0
100
AcDbSpline
70
4
71
3
72
10
73
6
40
0
40
0
40
0
40
0
40
0.155458310972556
40
0.155458310972556
40
1
40
1
40
1
40
1
41
1
10
54.7213347612452
20
21.4635674366503
30
0
41
1
10
54.7303785370381
20
21.4587473576067
30
0
41
1
10
54.7393254653622
20
21.4537410998011
30
0
41
1
10
54.7954964008332
20
21.4205991260887
30
0
41
1
10
54.8409371698566
20
21.3863327049748
30
0
41
1
10
54.8749845771854
20
21.3432282038532
30
0
0
SPLINE
5
209
100
AcDbEntity
8
1
62
256
6
ByLayer
370
13
48
1
60
0
100
AcDbSpline
70
4
71
3
72
16
73
12
40
0
40
0
40
0
40
0
40
0.0355250902269691
40
0.0355250902269691
40
0.0916529298118417
40
0.0916529298118417
40
0.199749877619611
40
0.199749877619611
40
0.438904840271112
40
0.438904840271112
40
1
40
1
40
1
40
1
41
1
10
54.4647600217524
20
21.735975939378
30
0
41
1
10
54.4655860030917
20
21.7353429112801
30
0
41
1
10
54.4664129457398
20
21.7347104386634
30
0
41
1
10
54.4685502103392
20
21.7330759752779
30
0
41
1
10
54.4698615812701
20
21.7320743237783
30
0
41
1
10
54.4737020316477
20
21.7291446752621
30
0
41
1
10
54.4762348060014
20
21.727217337541
30
0
41
1
10
54.4843821111612
20
21.7210347420711
30
0
41
1
10
54.490015337342
20
21.7167859705249
30
0
41
1
10
54.5088835392968
20
21.7026672861952
30
0
41
1
10
54.5222269173127
20
21.6928820354326
30
0
41
1
10
54.535515563742
20
21.6833503594267
30
0
0
SPLINE
5
20A
100
AcDbEntity
8
1
62
256
6
ByLayer
370
13
48
1
60
0
100
AcDbSpline
70
4
71
3
72
16
73
12
40
0
40
0
40
0
40
0
40
0.0355250902269691
40
0.0355250902269691
40
0.0916529298118418
40
0.0916529298118418
40
0.199749877619611
40
0.199749877619611
40
0.438904840271112
40
0.438904840271112
40
1
40
1
40
1
40
1
41
1
10
54.4647600217524
20
19.7640240606223
30
0
41
1
10
54.4655860030917
20
19.7646570887202
30
0
41
1
10
54.4664129457398
20
19.7652895613369
30
0
41
1
10
54.4685502103392
20
19.7669240247224
30
0
41
1
10
54.4698615812701
20
19.767925676222
30
0
41
1
10
54.4737020316477
20
19.7708553247382
30
0
41
1
10
54.4762348060014
20
19.7727826624593
30
0
41
1
10
54.4843821111612
20
19.7789652579292
30
0
41
1
10
54.490015337342
20
19.7832140294755
30
0
41
1
10
54.5088835392968
20
19.7973327138051
30
0
41
1
10
54.5222269173127
20
19.8071179645678
30
0
41
1
10
54.535515563742
20
19.8166496405736
30
0
0
SPLINE
5
20B
100
AcDbEntity
8
1
62
256
6
ByLayer
370
13
48
1
60
0
100
AcDbSpline
70
4
71
3
72
14
73
10
40
0
40
0
40
0
40
0
40
0.0334466877100648
40
0.0334466877100648
40
0.147634490130718
40
0.147634490130718
40
0.594775924699149
40
0.594775924699149
40
1
40
1
40
1
40
1
41
1
10
54.4213727254144
20
20.3012268383674
30
0
41
1
10
54.4272002143374
20
20.3010081239377
30
0
41
1
10
54.4330293219699
20
20.3008357728981
30
0
41
1
10
54.4587574615068
20
20.3002879967077
30
0
41
1
10
54.4786653670228
20
20.3006118961268
30
0
41
1
10
54.5764941455489
20
20.3022964155666
30
0
41
1
10
54.6544227194233
20
20.3037473756648
30
0
41
1
10
54.8029558192713
20
20.3074307938799
30
0
41
1
10
54.873564429311
20
20.3094777376859
30
0
41
1
10
54.9441651422593
20
20.3117942298743
30
0
0
SPLINE
5
20C
100
AcDbEntity
8
1
62
256
6
ByLayer
370
13
48
1
60
0
100
AcDbSpline
70
4
71
3
72
8
73
4
40
0
40
0
40
0
40
0
40
1
40
1
40
1
40
1
41
1
10
54.1060768987951
20
21.7839602664968
30
0
41
1
10
53.9916344595783
20
21.7865836088791
30
0
41
1
10
53.874906152167
20
21.7825454757714
30
0
41
1
10
53.7587805434612
20
21.7868512967866
30
0
0
SPLINE
5
20D
100
AcDbEntity
8
1
62
256
6
ByLayer
370
13
48
1
60
0
100
AcDbSpline
70
4
71
3
72
8
73
4
40
0
40
0
40
0
40
0
40
1
40
1
40
1
40
1
41
1
10
54.8749845771854
20
21.3432282038532
30
0
41
1
10
54.8822290280935
20
21.3340566261386
30
0
41
1
10
54.889375686801
20
21.3247702002573
30
0
41
1
10
54.8964397360486
20
21.3154215696971
30
0
0
SPLINE
5
20E
100
AcDbEntity
8
1
62
256
6
ByLayer
370
13
48
1
60
0
100
AcDbSpline
70
4
71
3
72
8
73
4
40
0
40
0
40
0
40
0
40
1
40
1
40
1
40
1
41
1
10
54.1060768987951
20
19.7160397335035
30
0
41
1
10
53.9916344595783
20
19.7134163911212
30
0
41
1
10
53.874906152167
20
19.7174545242289
30
0
41
1
10
53.7587805434612
20
19.7131487032137
30
0
0
SPLINE
5
20F
100
AcDbEntity
8
1
62
256
6
ByLayer
370
13
48
1
60
0
100
AcDbSpline
70
4
71
3
72
14
73
10
40
0
40
0
40
0
40
0
40
0.0334466877100648
40
0.0334466877100648
40
0.147634490130718
40
0.147634490130718
40
0.594775924699149
40
0.594775924699149
40
1
40
1
40
1
40
1
41
1
10
54.4213727254144
20
21.1987731616329
30
0
41
1
10
54.4272002143374
20
21.1989918760626
30
0
41
1
10
54.4330293219699
20
21.1991642271022
30
0
41
1
10
54.4587574615068
20
21.1997120032927
30
0
41
1
10
54.4786653670228
20
21.1993881038736
30
0
41
1
10
54.5764941455489
20
21.1977035844337
30
0
41
1
10
54.6544227194233
20
21.1962526243355
30
0
41
1
10
54.8029558192713
20
21.1925692061205
30
0
41
1
10
54.873564429311
20
21.1905222623144
30
0
41
1
10
54.9441651422593
20
21.188205770126
30
0
0
SPLINE
5
210
100
AcDbEntity
8
1
62
256
6
ByLayer
370
13
48
1
60
0
100
AcDbSpline
70
4
71
3
72
12
73
8
40
0
40
0
40
0
40
0
40
0.447676549458682
40
0.447676549458682
40
0.911865963480885
40
0.911865963480885
40
1
40
1
40
1
40
1
41
1
10
54.8964397360486
20
20.1845784303032
30
0
41
1
10
54.9088546309063
20
20.2010084212897
30
0
41
1
10
54.9197349842376
20
20.2188401430058
30
0
41
1
10
54.9363651532997
20
20.2572402852768
30
0
41
1
10
54.9420103553973
20
20.2783360680556
30
0
41
1
10
54.9439641163249
20
20.3036065135329
30
0
41
1
10
54.9441371532748
20
20.3077011298412
30
0
41
1
10
54.9441651422481
20
20.3117942298752
30
0
0
SPLINE
5
211
100
AcDbEntity
8
1
62
256
6
ByLayer
370
13
48
1
60
0
100
AcDbSpline
70
4
71
3
72
12
73
8
40
0
40
0
40
0
40
0
40
0.447676549458682
40
0.447676549458682
40
0.911865963480885
40
0.911865963480885
40
1
40
1
40
1
40
1
41
1
10
54.8964397360486
20
21.3154215696971
30
0
41
1
10
54.9088546309063
20
21.2989915787107
30
0
41
1
10
54.9197349842376
20
21.2811598569945
30
0
41
1
10
54.9363651532997
20
21.2427597147235
30
0
41
1
10
54.9420103553973
20
21.2216639319448
30
0
41
1
10
54.9439641163249
20
21.1963934864674
30
0
41
1
10
54.9441371532748
20
21.1922988701591
30
0
41
1
10
54.9441651422481
20
21.1882057701251
30
0
0
SPLINE
5
212
100
AcDbEntity
8
1
62
256
6
ByLayer
370
13
48
1
60
0
100
AcDbSpline
70
4
71
3
72
8
73
4
40
0
40
0
40
0
40
0
40
1
40
1
40
1
40
1
41
1
10
54.8749845771854
20
20.1567717961471
30
0
41
1
10
54.8822290280935
20
20.1659433738617
30
0
41
1
10
54.889375686801
20
20.1752297997431
30
0
41
1
10
54.8964397360486
20
20.1845784303032
30
0
0
SPLINE
5
213
100
AcDbEntity
8
1
62
256
6
ByLayer
370
13
48
1
60
0
100
AcDbSpline
70
4
71
3
72
8
73
4
40
0
40
0
40
0
40
0
40
1
40
1
40
1
40
1
41
1
10
53.7587805434612
20
21.7868512967866
30
0
41
1
10
53.6921381523133
20
21.7890581522055
30
0
41
1
10
53.6252553140706
20
21.7882012930471
30
0
41
1
10
53.5587805434612
20
21.7829979473865
30
0
0
SPLINE
5
214
100
AcDbEntity
8
1
62
256
6
ByLayer
370
13
48
1
60
0
100
AcDbSpline
70
4
71
3
72
8
73
4
40
0
40
0
40
0
40
0
40
1
40
1
40
1
40
1
41
1
10
53.7587805434612
20
19.7131487032137
30
0
41
1
10
53.6921381523133
20
19.7109418477948
30
0
41
1
10
53.6252553140706
20
19.7117987069532
30
0
41
1
10
53.5587805434612
20
19.7170020526138
30
0
0
SPLINE
5
215
100
AcDbEntity
8
1
62
256
6
ByLayer
370
13
48
1
60
0
100
AcDbSpline
70
4
71
3
72
12
73
8
40
0
40
0
40
0
40
0
40
0.708579779368488
40
0.708579779368488
40
0.932133973697437
40
0.932133973697437
40
1
40
1
40
1
40
1
41
1
10
53.3112677608007
20
21.1496592775834
30
0
41
1
10
53.4244377716514
20
21.185195141132
30
0
41
1
10
53.544655374949
20
21.2026720353229
30
0
41
1
10
53.7011317076579
20
21.2016161859685
30
0
41
1
10
53.738967387079
20
21.1998214338273
30
0
41
1
10
53.7882933798859
20
21.1981016447285
30
0
41
1
10
53.7997803862394
20
21.1976963996623
30
0
41
1
10
53.8112677608007
20
21.1973018020992
30
0
0
SPLINE
5
216
100
AcDbEntity
8
1
62
256
6
ByLayer
370
13
48
1
60
0
100
AcDbSpline
70
4
71
3
72
12
73
8
40
0
40
0
40
0
40
0
40
0.708579779368488
40
0.708579779368488
40
0.932133973697437
40
0.932133973697437
40
1
40
1
40
1
40
1
41
1
10
53.3112677608007
20
20.3503407224169
30
0
41
1
10
53.4244377716514
20
20.3148048588683
30
0
41
1
10
53.544655374949
20
20.2973279646774
30
0
41
1
10
53.7011317076579
20
20.2983838140318
30
0
41
1
10
53.738967387079
20
20.300178566173
30
0
41
1
10
53.7882933798859
20
20.3018983552718
30
0
41
1
10
53.7997803862394
20
20.302303600338
30
0
41
1
10
53.8112677608007
20
20.3026981979011
30
0
0
SPLINE
5
217
100
AcDbEntity
8
1
62
256
6
ByLayer
370
13
48
1
60
0
100
AcDbSpline
70
4
71
3
72
10
73
6
40
0
40
0
40
0
40
0
40
0.561541747824135
40
0.561541747824135
40
1
40
1
40
1
40
1
41
1
10
54.9970257409066
20
20.3117942298743
30
0
41
1
10
54.9970257409067
20
20.2804886444405
30
0
41
1
10
54.9911036869238
20
20.2488062260183
30
0
41
1
10
54.9723010966289
20
20.1961734591549
30
0
41
1
10
54.9611390447479
20
20.1739244194544
30
0
41
1
10
54.9480538087948
20
20.1531167774025
30
0
0
SPLINE
5
218
100
AcDbEntity
8
1
62
256
6
ByLayer
370
13
48
1
60
0
100
AcDbSpline
70
4
71
3
72
10
73
6
40
0
40
0
40
0
40
0
40
0.561541747824135
40
0.561541747824135
40
1
40
1
40
1
40
1
41
1
10
54.9970257409066
20
21.188205770126
30
0
41
1
10
54.9970257409067
20
21.2195113555598
30
0
41
1
10
54.9911036869238
20
21.2511937739821
30
0
41
1
10
54.9723010966289
20
21.3038265408454
30
0
41
1
10
54.9611390447479
20
21.3260755805459
30
0
41
1
10
54.9480538087948
20
21.3468832225978
30
0
0
SPLINE
5
219
100
AcDbEntity
8
1
62
256
6
ByLayer
370
13
48
1
60
0
100
AcDbSpline
70
4
71
3
72
8
73
4
40
0
40
0
40
0
40
0
40
1
40
1
40
1
40
1
41
1
10
54.9480538087933
20
20.1531167774031
30
0
41
1
10
54.9407025010737
20
20.1437649625673
30
0
41
1
10
54.9332526545728
20
20.1345164868045
30
0
41
1
10
54.9256934551194
20
20.1254211687776
30
0
0
SPLINE
5
21A
100
AcDbEntity
8
1
62
256
6
ByLayer
370
13
48
1
60
0
100
AcDbSpline
70
4
71
3
72
8
73
4
40
0
40
0
40
0
40
0
40
1
40
1
40
1
40
1
41
1
10
54.9480538087933
20
21.3468832225973
30
0
41
1
10
54.9407025010737
20
21.356235037433
30
0
41
1
10
54.9332526545728
20
21.3654835131958
30
0
41
1
10
54.9256934551194
20
21.3745788312227
30
0
0
SPLINE
5
21B
100
AcDbEntity
8
1
62
256
6
ByLayer
370
13
48
1
60
0
100
AcDbSpline
70
4
71
3
72
12
73
8
40
0
40
0
40
0
40
0
40
0.103790018033927
40
0.103790018033927
40
0.424238012362856
40
0.424238012362856
40
1
40
1
40
1
40
1
41
1
10
53.8112677608007
20
20.3026981979011
30
0
41
1
10
53.8330673288143
20
20.3032473377128
30
0
41
1
10
53.8548777846228
20
20.3035548907813
30
0
41
1
10
53.9437817615811
20
20.3047410948218
30
0
41
1
10
54.0108617198121
20
20.3052477484346
30
0
41
1
10
54.195202236924
20
20.3054981475993
30
0
41
1
10
54.3116787067388
20
20.3042459582154
30
0
41
1
10
54.4213727254144
20
20.3012268383674
30
0
0
SPLINE
5
21C
100
AcDbEntity
8
1
62
256
6
ByLayer
370
18
48
1
60
0
100
AcDbSpline
70
4
71
3
72
14
73
10
40
0
40
0
40
0
40
0
40
0.208995027535852
40
0.208995027535852
40
0.417850725206471
40
0.417850725206471
40
0.626704295977396
40
0.626704295977396
40
1
40
1
40
1
40
1
41
1
10
52.4981203716814
20
19.6280805989456
30
0
41
1
10
52.5562077150717
20
19.6280905664582
30
0
41
1
10
52.6193237323134
20
19.6274243818502
30
0
41
1
10
52.7529850333382
20
19.6247658827781
30
0
41
1
10
52.8239830856551
20
19.6227653392402
30
0
41
1
10
52.9714347232615
20
19.6175033478004
30
0
41
1
10
53.0483929364638
20
19.6142239142204
30
0
41
1
10
53.2664550970089
20
19.6035175474251
30
0
41
1
10
53.4134966889726
20
19.5947043034295
30
0
41
1
10
53.5587805434602
20
19.5844950238395
30
0
0
SPLINE
5
21D
100
AcDbEntity
8
1
62
256
6
ByLayer
370
18
48
1
60
0
100
AcDbSpline
70
4
71
3
72
8
73
4
40
0
40
0
40
0
40
0
40
1
40
1
40
1
40
1
41
1
10
53.7587805434612
20
19.5704407717322
30
0
41
1
10
53.8750917668497
20
19.5622674354505
30
0
41
1
10
53.9917418362529
20
19.5533500705811
30
0
41
1
10
54.1060768987951
20
19.5438954485368
30
0
0
SPLINE
5
21E
100
AcDbEntity
8
1
62
256
6
ByLayer
370
18
48
1
60
0
100
AcDbSpline
70
4
71
3
72
16
73
12
40
0
40
0
40
0
40
0
40
0.202092460849677
40
0.202092460849677
40
0.40403224558886
40
0.40403224558886
40
0.608298678109016
40
0.608298678109016
40
0.816163444624776
40
0.816163444624776
40
1
40
1
40
1
40
1
41
1
10
54.6892494524131
20
19.4996591430351
30
0
41
1
10
54.7220366161256
20
19.4976387335667
30
0
41
1
10
54.7555757070522
20
19.5013359665197
30
0
41
1
10
54.818560543168
20
19.5194112184794
30
0
41
1
10
54.8488706298537
20
19.5340207887806
30
0
41
1
10
54.9026257090698
20
19.5720734663888
30
0
41
1
10
54.9267215742437
20
19.5961264605197
30
0
41
1
10
54.9656361058238
20
19.6505701083261
30
0
41
1
10
54.9808214046757
20
19.6818077448676
30
0
41
1
10
54.9988410260335
20
19.7430912844222
30
0
41
1
10
55.0030935129214
20
19.7735202828049
30
0
41
1
10
55.0028388286042
20
19.8036304587466
30
0
0
SPLINE
5
21F
100
AcDbEntity
8
1
62
256
6
ByLayer
370
18
48
1
60
0
100
AcDbSpline
70
4
71
3
72
16
73
12
40
0
40
0
40
0
40
0
40
0.21060160365595
40
0.21060160365595
40
0.421213120944743
40
0.421213120944743
40
0.631488126466471
40
0.631488126466471
40
0.839116239426997
40
0.839116239426997
40
1
40
1
40
1
40
1
41
1
10
55.0028388286042
20
21.6963695412537
30
0
41
1
10
55.0031296556105
20
21.7307527040105
30
0
41
1
10
54.997507025955
20
21.7656080877361
30
0
41
1
10
54.9754093689247
20
21.8304982075364
30
0
41
1
10
54.9586256018935
20
21.8614347625977
30
0
41
1
10
54.9163383595428
20
21.9150529788113
30
0
41
1
10
54.8902502953765
20
21.9384967697382
30
0
41
1
10
54.8328186585456
20
21.9743496716449
30
0
41
1
10
54.8007334811871
20
21.9873902149459
30
0
41
1
10
54.74215887377
20
21.9999462562828
30
0
41
1
10
54.7154914357367
20
22.0019579395541
30
0
41
1
10
54.6892494524131
20
22.0003408569653
30
0
0
SPLINE
5
220
100
AcDbEntity
8
1
62
256
6
ByLayer
370
18
48
1
60
0
100
AcDbSpline
70
4
71
3
72
14
73
10
40
0
40
0
40
0
40
0
40
0.209562190252725
40
0.209562190252725
40
0.419048660097218
40
0.419048660097218
40
0.628042586344193
40
0.628042586344193
40
1
40
1
40
1
40
1
41
1
10
53.5587805434612
20
21.9155049761614
30
0
41
1
10
53.4766126081606
20
21.9097309317724
30
0
41
1
10
53.394096633241
20
21.9044113402667
30
0
41
1
10
53.2317767669575
20
21.8949047593481
30
0
41
1
10
53.1514176992139
20
21.8906849415351
30
0
41
1
10
52.99577107806
20
21.8834961737297
30
0
41
1
10
52.9199400027966
20
21.8804997576921
30
0
41
1
10
52.719734627046
20
21.8740257942409
30
0
41
1
10
52.6007351939601
20
21.871901792837
30
0
41
1
10
52.4981203716825
20
21.8719194010537
30
0
0
SPLINE
5
221
100
AcDbEntity
8
1
62
256
6
ByLayer
370
18
48
1
60
0
100
AcDbSpline
70
4
71
3
72
8
73
4
40
0
40
0
40
0
40
0
40
1
40
1
40
1
40
1
41
1
10
54.1060768987951
20
21.9561045514635
30
0
41
1
10
53.9917418362529
20
21.9466499294193
30
0
41
1
10
53.8750917668497
20
21.9377325645498
30
0
41
1
10
53.7587805434612
20
21.9295592282681
30
0
0
LINE
5
70
100
AcDbEntity
8
1
62
256
6
ByLayer
370
13
48
1
60
0
100
AcDbLine
10
0.3
20
16
30
0
11
0
21
15.7
31
0
39
0
210
0
220
0
230
1
0
LINE
5
72
100
AcDbEntity
8
1
62
256
6
ByLayer
370
13
48
1
60
0
100
AcDbLine
10
0
20
-15.7
30
0
11
0.3
21
-16
31
0
39
0
210
0
220
0
230
1
0
LINE
5
73
100
AcDbEntity
8
1
62
256
6
ByLayer
370
13
48
1
60
0
100
AcDbLine
10
17.740708
20
21.75
30
0
11
16.438319
21
16.889417
31
0
39
0
210
0
220
0
230
1
0
LINE
5
74
100
AcDbEntity
8
1
62
256
6
ByLayer
370
13
48
1
60
0
100
AcDbLine
10
0.3
20
-16
30
0
11
15.031907
21
-16
31
0
39
0
210
0
220
0
230
1
0
LINE
5
75
100
AcDbEntity
8
1
62
256
6
ByLayer
370
13
48
1
60
0
100
AcDbLine
10
15.279208
20
16
30
0
11
0.3
21
16
31
0
39
0
210
0
220
0
230
1
0
LINE
5
76
100
AcDbEntity
8
80
62
256
6
ByLayer
370
18
48
1
60
0
100
AcDbLine
10
0
20
0
30
0
11
-5
21
0
31
0
39
0
210
0
220
0
230
1
0
LINE
5
77
100
AcDbEntity
8
81
62
256
6
ByLayer
370
18
48
1
60
0
100
AcDbLine
10
55
20
22
30
0
11
60
21
22
31
0
39
0
210
0
220
0
230
1
0
LINE
5
78
100
AcDbEntity
8
SK1
62
256
6
ByLayer
370
13
48
1
60
0
100
AcDbLine
10
-1.29504
20
10.827955
30
0
11
-1.29504
21
10.830291
31
0
39
0
210
0
220
0
230
1
0
LINE
5
7A
100
AcDbEntity
8
SK1
62
256
6
ByLayer
370
13
48
1
60
0
100
AcDbLine
10
-1.29504
20
-10.830291
30
0
11
-1.29504
21
-10.827955
31
0
39
0
210
0
220
0
230
1
0
LINE
5
7B
100
AcDbEntity
8
SK1
62
256
6
ByLayer
370
13
48
1
60
0
100
AcDbLine
10
-1.315435
20
-3.312046
30
0
11
-1.315435
21
3.312047
31
0
39
0
210
0
220
0
230
1
0
LINE
5
7C
100
AcDbEntity
8
1
62
256
6
ByLayer
370
13
48
1
60
0
100
AcDbLine
10
41.290738
20
21.75
30
0
11
41.290738
21
19.75
31
0
39
0
210
0
220
0
230
1
0
LINE
5
7D
100
AcDbEntity
8
1
62
256
6
ByLayer
370
13
48
1
60
0
100
AcDbLine
10
41.290738
20
21.75
30
0
11
46.290738
21
21.75
31
0
39
0
210
0
220
0
230
1
0
LINE
5
7E
100
AcDbEntity
8
1
62
256
6
ByLayer
370
13
48
1
60
0
100
AcDbLine
10
15.045302
20
11.796892
30
0
11
15.045302
21
-11.796892
31
0
39
0
210
0
220
0
230
1
0
LINE
5
7F
100
AcDbEntity
8
1
62
256
6
ByLayer
370
13
48
1
60
0
100
AcDbLine
10
4.663397
20
-15.175938
30
0
11
4.663397
21
-5.068619
31
0
39
0
210
0
220
0
230
1
0
LINE
5
80
100
AcDbEntity
8
1
62
256
6
ByLayer
370
13
48
1
60
0
100
AcDbLine
10
25.579287
20
21.75
30
0
11
33.6
21
21.75
31
0
39
0
210
0
220
0
230
1
0
LINE
5
81
100
AcDbEntity
8
1
62
256
6
ByLayer
370
13
48
1
60
0
100
AcDbLine
10
7.076795
20
-15.276962
30
0
11
4.923205
21
-15.276962
31
0
39
0
210
0
220
0
230
1
0
LINE
5
82
100
AcDbEntity
8
1
62
256
6
ByLayer
370
13
48
1
60
0
100
AcDbLine
10
46.290738
20
21.75
30
0
11
50.413022
21
21.75
31
0
39
0
210
0
220
0
230
1
0
LINE
5
83
100
AcDbEntity
8
1
62
256
6
ByLayer
370
13
48
1
60
0
100
AcDbLine
10
33.6
20
19.75
30
0
11
30
21
19.75
31
0
39
0
210
0
220
0
230
1
0
LINE
5
84
100
AcDbEntity
8
1
62
256
6
ByLayer
370
13
48
1
60
0
100
AcDbLine
10
18.022575
20
21.75
30
0
11
18.917868
21
21.75
31
0
39
0
210
0
220
0
230
1
0
LINE
5
85
100
AcDbEntity
8
1
62
256
6
ByLayer
370
13
48
1
60
0
100
AcDbLine
10
50.415611
20
21.284517
30
0
11
50.415611
21
21.741569
31
0
39
0
210
0
220
0
230
1
0
LINE
5
86
100
AcDbEntity
8
1
62
256
6
ByLayer
370
13
48
1
60
0
100
AcDbLine
10
50.415611
20
19.758431
30
0
11
50.415611
21
20.215483
31
0
39
0
210
0
220
0
230
1
0
LINE
5
87
100
AcDbEntity
8
1
62
256
6
ByLayer
370
13
48
1
60
0
100
AcDbLine
10
4.923205
20
-4.755463
30
0
11
7.076795
21
-4.755463
31
0
39
0
210
0
220
0
230
1
0
LINE
5
88
100
AcDbEntity
8
1
62
256
6
ByLayer
370
13
48
1
60
0
100
AcDbLine
10
33.6
20
21.75
30
0
11
41.290738
21
21.75
31
0
39
0
210
0
220
0
230
1
0
LINE
5
89
100
AcDbEntity
8
1
62
256
6
ByLayer
370
13
48
1
60
0
100
AcDbLine
10
0.3
20
16
30
0
11
0.3
21
-16
31
0
39
0
210
0
220
0
230
1
0
LINE
5
8A
100
AcDbEntity
8
1
62
256
6
ByLayer
370
13
48
1
60
0
100
AcDbLine
10
33.6
20
19.75
30
0
11
33.6
21
21.75
31
0
39
0
210
0
220
0
230
1
0
LINE
5
8B
100
AcDbEntity
8
1
62
256
6
ByLayer
370
13
48
1
60
0
100
AcDbLine
10
25.579287
20
21.75
30
0
11
25.579287
21
19.75
31
0
39
0
210
0
220
0
230
1
0
LINE
5
8C
100
AcDbEntity
8
1
62
256
6
ByLayer
370
13
48
1
60
0
100
AcDbLine
10
26.548567
20
-10.5
30
0
11
28.4
21
0
31
0
39
0
210
0
220
0
230
1
0
LINE
5
8D
100
AcDbEntity
8
1
62
256
6
ByLayer
370
13
48
1
60
0
100
AcDbLine
10
7.076795
20
4.755463
30
0
11
4.923205
21
4.755463
31
0
39
0
210
0
220
0
230
1
0
LINE
5
8E
100
AcDbEntity
8
1
62
256
6
ByLayer
370
13
48
1
60
0
100
AcDbLine
10
7.076795
20
-15.276962
30
0
11
7.076795
21
-4.755463
31
0
39
0
210
0
220
0
230
1
0
LINE
5
8F
100
AcDbEntity
8
1
62
256
6
ByLayer
370
13
48
1
60
0
100
AcDbLine
10
19.045149
20
-10.5
30
0
11
19.045149
21
21.75
31
0
39
0
210
0
220
0
230
1
0
LINE
5
90
100
AcDbEntity
8
1
62
256
6
ByLayer
370
13
48
1
60
0
100
AcDbLine
10
50.413022
20
21.75
30
0
11
50.415611
21
21.741569
31
0
39
0
210
0
220
0
230
1
0
LINE
5
91
100
AcDbEntity
8
1
62
256
6
ByLayer
370
13
48
1
60
0
100
AcDbLine
10
41.290738
20
19.75
30
0
11
33.6
21
19.75
31
0
39
0
210
0
220
0
230
1
0
LINE
5
92
100
AcDbEntity
8
1
62
256
6
ByLayer
370
13
48
1
60
0
100
AcDbLine
10
15.279208
20
16
30
0
11
15.279208
21
12.877611
31
0
39
0
210
0
220
0
230
1
0
LINE
5
93
100
AcDbEntity
8
1
62
256
6
ByLayer
370
13
48
1
60
0
100
AcDbLine
10
15.031907
20
-16
30
0
11
15.045302
21
-14.465094
31
0
39
0
210
0
220
0
230
1
0
LINE
5
94
100
AcDbEntity
8
1
62
256
6
ByLayer
370
13
48
1
60
0
100
AcDbLine
10
16.438319
20
16.889417
30
0
11
16.438319
21
14.975204
31
0
39
0
210
0
220
0
230
1
0
LINE
5
95
100
AcDbEntity
8
1
62
256
6
ByLayer
370
13
48
1
60
0
100
AcDbLine
10
7.336603
20
5.068619
30
0
11
7.336603
21
15.175938
31
0
39
0
210
0
220
0
230
1
0
LINE
5
96
100
AcDbEntity
8
1
62
256
6
ByLayer
370
13
48
1
60
0
100
AcDbLine
10
46.290738
20
19.75
30
0
11
46.290738
21
21.75
31
0
39
0
210
0
220
0
230
1
0
LINE
5
97
100
AcDbEntity
8
1
62
256
6
ByLayer
370
13
48
1
60
0
100
AcDbLine
10
0
20
15.7
30
0
11
0
21
-15.7
31
0
39
0
210
0
220
0
230
1
0
LINE
5
98
100
AcDbEntity
8
1
62
256
6
ByLayer
370
13
48
1
60
0
100
AcDbLine
10
7.076795
20
4.755463
30
0
11
7.076795
21
15.276962
31
0
39
0
210
0
220
0
230
1
0
LINE
5
99
100
AcDbEntity
8
1
62
256
6
ByLayer
370
13
48
1
60
0
100
AcDbLine
10
4.923205
20
4.755463
30
0
11
4.923205
21
15.276962
31
0
39
0
210
0
220
0
230
1
0
LINE
5
9A
100
AcDbEntity
8
1
62
256
6
ByLayer
370
13
48
1
60
0
100
AcDbLine
10
4.923205
20
15.276962
30
0
11
7.076795
21
15.276962
31
0
39
0
210
0
220
0
230
1
0
LINE
5
9B
100
AcDbEntity
8
1
62
256
6
ByLayer
370
13
48
1
60
0
100
AcDbLine
10
4.923205
20
-15.276962
30
0
11
4.923205
21
-4.755463
31
0
39
0
210
0
220
0
230
1
0
LINE
5
9C
100
AcDbEntity
8
1
62
256
6
ByLayer
370
13
48
1
60
0
100
AcDbLine
10
4.663397
20
5.068619
30
0
11
4.663397
21
15.175938
31
0
39
0
210
0
220
0
230
1
0
LINE
5
9D
100
AcDbEntity
8
1
62
256
6
ByLayer
370
13
48
1
60
0
100
AcDbLine
10
19.045149
20
-10.5
30
0
11
26.548567
21
-10.5
31
0
39
0
210
0
220
0
230
1
0
LINE
5
9E
100
AcDbEntity
8
1
62
256
6
ByLayer
370
13
48
1
60
0
100
AcDbLine
10
7.336603
20
-15.175938
30
0
11
7.336603
21
-5.068619
31
0
39
0
210
0
220
0
230
1
0
LINE
5
9F
100
AcDbEntity
8
1
62
256
6
ByLayer
370
13
48
1
60
0
100
AcDbLine
10
46.290738
20
19.75
30
0
11
50.413022
21
19.75
31
0
39
0
210
0
220
0
230
1
0
LINE
5
A0
100
AcDbEntity
8
1
62
256
6
ByLayer
370
13
48
1
60
0
100
AcDbLine
10
41.290738
20
19.75
30
0
11
46.290738
21
19.75
31
0
39
0
210
0
220
0
230
1
0
LINE
5
A1
100
AcDbEntity
8
1
62
256
6
ByLayer
370
13
48
1
60
0
100
AcDbLine
10
18.917868
20
21.75
30
0
11
19.045149
21
21.75
31
0
39
0
210
0
220
0
230
1
0
LINE
5
A2
100
AcDbEntity
8
1
62
256
6
ByLayer
370
13
48
1
60
0
100
AcDbLine
10
30
20
19.75
30
0
11
25.579287
21
19.75
31
0
39
0
210
0
220
0
230
1
0
LINE
5
A3
100
AcDbEntity
8
1
62
256
6
ByLayer
370
13
48
1
60
0
100
AcDbLine
10
28.4
20
18.15
30
0
11
28.4
21
0
31
0
39
0
210
0
220
0
230
1
0
LINE
5
A4
100
AcDbEntity
8
1
62
256
6
ByLayer
370
13
48
1
60
0
100
AcDbLine
10
50.415611
20
19.758431
30
0
11
50.413022
21
19.75
31
0
39
0
210
0
220
0
230
1
0
LINE
5
A5
100
AcDbEntity
8
1
62
256
6
ByLayer
370
13
48
1
60
0
100
AcDbLine
10
25.579287
20
21.75
30
0
11
19.045149
21
21.75
31
0
39
0
210
0
220
0
230
1
0
LINE
5
A6
100
AcDbEntity
8
1
62
256
6
ByLayer
370
13
48
1
60
0
100
AcDbLine
10
50.390074
20
20.950756
30
0
11
50.54904
21
20.950756
31
0
39
0
210
0
220
0
230
1
0
LINE
5
A7
100
AcDbEntity
8
1
62
256
6
ByLayer
370
13
48
1
60
0
100
AcDbLine
10
53.311268
20
21.149659
30
0
11
53.311268
21
20.75
31
0
39
0
210
0
220
0
230
1
0
LINE
5
A8
100
AcDbEntity
8
1
62
256
6
ByLayer
370
13
48
1
60
0
100
AcDbLine
10
53.311268
20
20.350341
30
0
11
53.311268
21
20.75
31
0
39
0
210
0
220
0
230
1
0
LINE
5
A9
100
AcDbEntity
8
1
62
256
6
ByLayer
370
13
48
1
60
0
100
AcDbLine
10
50.398005
20
21.117998
30
0
11
50.46942
21
21.117998
31
0
39
0
210
0
220
0
230
1
0
LINE
5
AA
100
AcDbEntity
8
1
62
256
6
ByLayer
370
13
48
1
60
0
100
AcDbLine
10
50.389954
20
20.552665
30
0
11
50.552254
21
20.552665
31
0
39
0
210
0
220
0
230
1
0
LINE
5
AB
100
AcDbEntity
8
1
62
256
6
ByLayer
370
13
48
1
60
0
100
AcDbLine
10
50.389954
20
20.947335
30
0
11
50.552254
21
20.947335
31
0
39
0
210
0
220
0
230
1
0
LINE
5
AC
100
AcDbEntity
8
1
62
256
6
ByLayer
370
13
48
1
60
0
100
AcDbLine
10
50.391842
20
21.001024
30
0
11
50.506333
21
21.001024
31
0
39
0
210
0
220
0
230
1
0
LINE
5
AD
100
AcDbEntity
8
1
62
256
6
ByLayer
370
13
48
1
60
0
100
AcDbLine
10
51.711238
20
19.75
30
0
11
51.711238
21
19.977886
31
0
39
0
210
0
220
0
230
1
0
LINE
5
AE
100
AcDbEntity
8
1
62
256
6
ByLayer
370
13
48
1
60
0
100
AcDbLine
10
51.711238
20
19.977886
30
0
11
52.037348
21
19.961829
31
0
39
0
210
0
220
0
230
1
0
LINE
5
AF
100
AcDbEntity
8
1
62
256
6
ByLayer
370
13
48
1
60
0
100
AcDbLine
10
52.230259
20
19.63536
30
0
11
52.218821
21
19.798931
31
0
39
0
210
0
220
0
230
1
0
LINE
5
B0
100
AcDbEntity
8
1
62
256
6
ByLayer
370
13
48
1
60
0
100
AcDbLine
10
52.230259
20
21.86464
30
0
11
52.218821
21
21.701069
31
0
39
0
210
0
220
0
230
1
0
LINE
5
B1
100
AcDbEntity
8
1
62
256
6
ByLayer
370
13
48
1
60
0
100
AcDbLine
10
52.037348
20
21.538171
30
0
11
51.711238
21
21.522114
31
0
39
0
210
0
220
0
230
1
0
LINE
5
B2
100
AcDbEntity
8
1
62
256
6
ByLayer
370
13
48
1
60
0
100
AcDbLine
10
51.711238
20
21.522114
30
0
11
51.711238
21
21.75
31
0
39
0
210
0
220
0
230
1
0
LINE
5
B3
100
AcDbEntity
8
1
62
256
6
ByLayer
370
13
48
1
60
0
100
AcDbLine
10
52.49812
20
19.816567
30
0
11
52.49812
21
19.628081
31
0
39
0
210
0
220
0
230
1
0
LINE
5
B4
100
AcDbEntity
8
1
62
256
6
ByLayer
370
13
48
1
60
0
100
AcDbLine
10
53.558781
20
19.717002
30
0
11
53.558781
21
19.584495
31
0
39
0
210
0
220
0
230
1
0
LINE
5
B5
100
AcDbEntity
8
1
62
256
6
ByLayer
370
13
48
1
60
0
100
AcDbLine
10
53.558781
20
21.782998
30
0
11
53.558781
21
21.915505
31
0
39
0
210
0
220
0
230
1
0
LINE
5
B6
100
AcDbEntity
8
1
62
256
6
ByLayer
370
13
48
1
60
0
100
AcDbLine
10
52.49812
20
21.683433
30
0
11
52.49812
21
21.871919
31
0
39
0
210
0
220
0
230
1
0
LINE
5
B7
100
AcDbEntity
8
1
62
256
6
ByLayer
370
13
48
1
60
0
100
AcDbLine
10
52.007425
20
20.242132
30
0
11
51.547776
21
20.264764
31
0
39
0
210
0
220
0
230
1
0
LINE
5
B8
100
AcDbEntity
8
1
62
256
6
ByLayer
370
13
48
1
60
0
100
AcDbLine
10
51.547776
20
21.235236
30
0
11
52.007425
21
21.257868
31
0
39
0
210
0
220
0
230
1
0
LINE
5
B9
100
AcDbEntity
8
1
62
256
6
ByLayer
370
13
48
1
60
0
100
AcDbLine
10
52.037348
20
19.961829
30
0
11
52.184585
21
20.117882
31
0
39
0
210
0
220
0
230
1
0
LINE
5
BA
100
AcDbEntity
8
1
62
256
6
ByLayer
370
13
48
1
60
0
100
AcDbLine
10
52.395173
20
21.685733
30
0
11
52.408193
21
21.871935
31
0
39
0
210
0
220
0
230
1
0
LINE
5
BB
100
AcDbEntity
8
1
62
256
6
ByLayer
370
13
48
1
60
0
100
AcDbLine
10
52.184585
20
21.382118
30
0
11
52.037348
21
21.538171
31
0
39
0
210
0
220
0
230
1
0
LINE
5
BC
100
AcDbEntity
8
1
62
256
6
ByLayer
370
13
48
1
60
0
100
AcDbLine
10
52.395173
20
19.814267
30
0
11
52.408193
21
19.628065
31
0
39
0
210
0
220
0
230
1
0
LINE
5
BD
100
AcDbEntity
8
1
62
256
6
ByLayer
370
13
48
1
60
0
100
AcDbLine
10
52.059386
20
21.213592
30
0
11
51.436893
21
21.213592
31
0
39
0
210
0
220
0
230
1
0
LINE
5
BE
100
AcDbEntity
8
1
62
256
6
ByLayer
370
13
48
1
60
0
100
AcDbLine
10
52.059386
20
20.286408
30
0
11
51.436893
21
20.286408
31
0
39
0
210
0
220
0
230
1
0
LINE
5
BF
100
AcDbEntity
8
1
62
256
6
ByLayer
370
13
48
1
60
0
100
AcDbLine
10
51.642833
20
21.522114
30
0
11
51.711238
21
21.522114
31
0
39
0
210
0
220
0
230
1
0
LINE
5
C0
100
AcDbEntity
8
1
62
256
6
ByLayer
370
13
48
1
60
0
100
AcDbLine
10
51.642833
20
19.977886
30
0
11
51.711238
21
19.977886
31
0
39
0
210
0
220
0
230
1
0
LINE
5
C1
100
AcDbEntity
8
1
62
256
6
ByLayer
370
13
48
1
60
0
100
AcDbLine
10
51.642833
20
21.75
30
0
11
51.642833
21
21.522114
31
0
39
0
210
0
220
0
230
1
0
LINE
5
C2
100
AcDbEntity
8
1
62
256
6
ByLayer
370
13
48
1
60
0
100
AcDbLine
10
51.642833
20
19.977886
30
0
11
51.642833
21
19.75
31
0
39
0
210
0
220
0
230
1
0
LINE
5
C3
100
AcDbEntity
8
1
62
256
6
ByLayer
370
13
48
1
60
0
100
AcDbLine
10
51.470241
20
21.420672
30
0
11
51.359359
21
21.399029
31
0
39
0
210
0
220
0
230
1
0
LINE
5
C4
100
AcDbEntity
8
1
62
256
6
ByLayer
370
13
48
1
60
0
100
AcDbLine
10
50.717283
20
21.633917
30
0
11
50.717283
21
21.75
31
0
39
0
210
0
220
0
230
1
0
LINE
5
C5
100
AcDbEntity
8
1
62
256
6
ByLayer
370
13
48
1
60
0
100
AcDbLine
10
50.717283
20
19.75
30
0
11
50.717283
21
19.866083
31
0
39
0
210
0
220
0
230
1
0
LINE
5
C6
100
AcDbEntity
8
1
62
256
6
ByLayer
370
13
48
1
60
0
100
AcDbLine
10
51.359359
20
20.100971
30
0
11
51.470241
21
20.079328
31
0
39
0
210
0
220
0
230
1
0
LINE
5
C7
100
AcDbEntity
8
1
62
256
6
ByLayer
370
13
48
1
60
0
100
AcDbLine
10
51.547776
20
20.264764
30
0
11
51.436893
21
20.286408
31
0
39
0
210
0
220
0
230
1
0
LINE
5
C8
100
AcDbEntity
8
1
62
256
6
ByLayer
370
13
48
1
60
0
100
AcDbLine
10
51.436893
20
21.213592
30
0
11
51.547776
21
21.235236
31
0
39
0
210
0
220
0
230
1
0
LINE
5
C9
100
AcDbEntity
8
1
62
256
6
ByLayer
370
13
48
1
60
0
100
AcDbLine
10
53.811268
20
21.197302
30
0
11
53.811268
21
20.302698
31
0
39
0
210
0
220
0
230
1
0
LINE
5
CA
100
AcDbEntity
8
1
62
256
6
ByLayer
370
13
48
1
60
0
100
AcDbLine
10
50.391842
20
20.498976
30
0
11
50.506333
21
20.498976
31
0
39
0
210
0
220
0
230
1
0
LINE
5
CB
100
AcDbEntity
8
1
62
256
6
ByLayer
370
13
48
1
60
0
100
AcDbLine
10
50.63041
20
21.75
30
0
11
50.63041
21
21.625983
31
0
39
0
210
0
220
0
230
1
0
LINE
5
CC
100
AcDbEntity
8
1
62
256
6
ByLayer
370
13
48
1
60
0
100
AcDbLine
10
50.63041
20
19.874017
30
0
11
50.63041
21
19.75
31
0
39
0
210
0
220
0
230
1
0
LINE
5
CD
100
AcDbEntity
8
1
62
256
6
ByLayer
370
13
48
1
60
0
100
AcDbLine
10
50.46942
20
21.117998
30
0
11
50.788749
21
21.117998
31
0
39
0
210
0
220
0
230
1
0
LINE
5
CE
100
AcDbEntity
8
1
62
256
6
ByLayer
370
13
48
1
60
0
100
AcDbLine
10
50.415612
20
21.568506
30
0
11
50.46942
21
21.117998
31
0
39
0
210
0
220
0
230
1
0
LINE
5
CF
100
AcDbEntity
8
1
62
256
6
ByLayer
370
13
48
1
60
0
100
AcDbLine
10
50.634752
20
21.575984
30
0
11
50.414718
21
21.575984
31
0
39
0
210
0
220
0
230
1
0
LINE
5
D0
100
AcDbEntity
8
1
62
256
6
ByLayer
370
13
48
1
60
0
100
AcDbLine
10
50.634752
20
19.924016
30
0
11
50.414718
21
19.924016
31
0
39
0
210
0
220
0
230
1
0
LINE
5
D1
100
AcDbEntity
8
1
62
256
6
ByLayer
370
13
48
1
60
0
100
AcDbLine
10
50.415612
20
19.931494
30
0
11
50.46942
21
20.382002
31
0
39
0
210
0
220
0
230
1
0
LINE
5
D2
100
AcDbEntity
8
1
62
256
6
ByLayer
370
13
48
1
60
0
100
AcDbLine
10
50.46942
20
20.382002
30
0
11
50.788749
21
20.382002
31
0
39
0
210
0
220
0
230
1
0
LINE
5
D3
100
AcDbEntity
8
1
62
256
6
ByLayer
370
13
48
1
60
0
100
AcDbLine
10
55.000117
20
21.374579
30
0
11
54.925693
21
21.374579
31
0
39
0
210
0
220
0
230
1
0
LINE
5
D4
100
AcDbEntity
8
1
62
256
6
ByLayer
370
13
48
1
60
0
100
AcDbLine
10
54.535516
20
21.68335
30
0
11
54.535516
21
21.990867
31
0
39
0
210
0
220
0
230
1
0
LINE
5
D5
100
AcDbEntity
8
1
62
256
6
ByLayer
370
13
48
1
60
0
100
AcDbLine
10
54.535516
20
19.81665
30
0
11
54.535516
21
19.509133
31
0
39
0
210
0
220
0
230
1
0
LINE
5
D6
100
AcDbEntity
8
1
62
256
6
ByLayer
370
13
48
1
60
0
100
AcDbLine
10
55.000117
20
20.125421
30
0
11
54.925693
21
20.125421
31
0
39
0
210
0
220
0
230
1
0
LINE
5
D7
100
AcDbEntity
8
1
62
256
6
ByLayer
370
13
48
1
60
0
100
AcDbLine
10
53.228922
20
21.13002
30
0
11
53.228922
21
20.75
31
0
39
0
210
0
220
0
230
1
0
LINE
5
D8
100
AcDbEntity
8
1
62
256
6
ByLayer
370
13
48
1
60
0
100
AcDbLine
10
53.228922
20
20.36998
30
0
11
53.228922
21
20.75
31
0
39
0
210
0
220
0
230
1
0
LINE
5
D9
100
AcDbEntity
8
1
62
256
6
ByLayer
370
13
48
1
60
0
100
AcDbLine
10
50.41185
20
21.625438
30
0
11
50.628277
21
21.625438
31
0
39
0
210
0
220
0
230
1
0
LINE
5
DA
100
AcDbEntity
8
1
62
256
6
ByLayer
370
13
48
1
60
0
100
AcDbLine
10
54.106077
20
19.71604
30
0
11
54.106077
21
19.543895
31
0
39
0
210
0
220
0
230
1
0
LINE
5
DB
100
AcDbEntity
8
1
62
256
6
ByLayer
370
13
48
1
60
0
100
AcDbLine
10
50.41185
20
19.874562
30
0
11
50.628277
21
19.874562
31
0
39
0
210
0
220
0
230
1
0
LINE
5
DC
100
AcDbEntity
8
1
62
256
6
ByLayer
370
13
48
1
60
0
100
AcDbLine
10
54.106077
20
21.78396
30
0
11
54.106077
21
21.956105
31
0
39
0
210
0
220
0
230
1
0
LINE
5
DD
100
AcDbEntity
8
1
62
256
6
ByLayer
370
13
48
1
60
0
100
AcDbLine
10
54.46476
20
19.514235
30
0
11
54.46476
21
19.764024
31
0
39
0
210
0
220
0
230
1
0
LINE
5
DE
100
AcDbEntity
8
1
62
256
6
ByLayer
370
13
48
1
60
0
100
AcDbLine
10
54.46476
20
21.985765
30
0
11
54.46476
21
21.735976
31
0
39
0
210
0
220
0
230
1
0
LINE
5
DF
100
AcDbEntity
8
1
62
256
6
ByLayer
370
13
48
1
60
0
100
AcDbLine
10
50.506333
20
21.001024
30
0
11
50.876987
21
21.001024
31
0
39
0
210
0
220
0
230
1
0
LINE
5
E0
100
AcDbEntity
8
1
62
256
6
ByLayer
370
13
48
1
60
0
100
AcDbLine
10
50.506333
20
20.498976
30
0
11
50.876987
21
20.498976
31
0
39
0
210
0
220
0
230
1
0
LINE
5
E1
100
AcDbEntity
8
1
62
256
6
ByLayer
370
13
48
1
60
0
100
AcDbLine
10
53.758781
20
19.713149
30
0
11
53.758781
21
19.570441
31
0
39
0
210
0
220
0
230
1
0
LINE
5
E2
100
AcDbEntity
8
1
62
256
6
ByLayer
370
13
48
1
60
0
100
AcDbLine
10
53.758781
20
21.786851
30
0
11
53.758781
21
21.929559
31
0
39
0
210
0
220
0
230
1
0
LINE
5
E3
100
AcDbEntity
8
1
62
256
6
ByLayer
370
13
48
1
60
0
100
AcDbLine
10
50.54904
20
20.950756
30
0
11
50.999504
21
20.950756
31
0
39
0
210
0
220
0
230
1
0
LINE
5
E4
100
AcDbEntity
8
1
62
256
6
ByLayer
370
13
48
1
60
0
100
AcDbLine
10
50.54904
20
20.549244
30
0
11
50.999504
21
20.549244
31
0
39
0
210
0
220
0
230
1
0
LINE
5
E5
100
AcDbEntity
8
1
62
256
6
ByLayer
370
13
48
1
60
0
100
AcDbLine
10
50.552254
20
20.552665
30
0
11
51.008222
21
20.552665
31
0
39
0
210
0
220
0
230
1
0
LINE
5
E6
100
AcDbEntity
8
1
62
256
6
ByLayer
370
13
48
1
60
0
100
AcDbLine
10
50.552254
20
20.947335
30
0
11
51.008222
21
20.947335
31
0
39
0
210
0
220
0
230
1
0
LINE
5
E7
100
AcDbEntity
8
1
62
256
6
ByLayer
370
13
48
1
60
0
100
AcDbLine
10
53.311268
20
21.149659
30
0
11
53.215133
21
21.455818
31
0
39
0
210
0
220
0
230
1
0
LINE
5
E8
100
AcDbEntity
8
1
62
256
6
ByLayer
370
13
48
1
60
0
100
AcDbLine
10
53.821706
20
21.501182
30
0
11
53.811268
21
21.197302
31
0
39
0
210
0
220
0
230
1
0
LINE
5
E9
100
AcDbEntity
8
1
62
256
6
ByLayer
370
13
48
1
60
0
100
AcDbLine
10
53.311268
20
20.350341
30
0
11
53.215133
21
20.044182
31
0
39
0
210
0
220
0
230
1
0
LINE
5
EA
100
AcDbEntity
8
1
62
256
6
ByLayer
370
13
48
1
60
0
100
AcDbLine
10
53.821706
20
19.998818
30
0
11
53.811268
21
20.302698
31
0
39
0
210
0
220
0
230
1
0
LINE
5
EB
100
AcDbEntity
8
1
62
256
6
ByLayer
370
13
48
1
60
0
100
AcDbLine
10
54.944165
20
20.311794
30
0
11
54.997026
21
20.311794
31
0
39
0
210
0
220
0
230
1
0
LINE
5
EC
100
AcDbEntity
8
1
62
256
6
ByLayer
370
13
48
1
60
0
100
AcDbLine
10
54.948054
20
20.153117
30
0
11
55
21
20.153117
31
0
39
0
210
0
220
0
230
1
0
LINE
5
ED
100
AcDbEntity
8
1
62
256
6
ByLayer
370
13
48
1
60
0
100
AcDbLine
10
54.997026
20
20.311794
30
0
11
54.997026
21
21.188206
31
0
39
0
210
0
220
0
230
1
0
LINE
5
EE
100
AcDbEntity
8
1
62
256
6
ByLayer
370
13
48
1
60
0
100
AcDbLine
10
50.390074
20
20.549244
30
0
11
50.54904
21
20.549244
31
0
39
0
210
0
220
0
230
1
0
LINE
5
EF
100
AcDbEntity
8
1
62
256
6
ByLayer
370
13
48
1
60
0
100
AcDbLine
10
54.948054
20
21.346883
30
0
11
55
21
21.346883
31
0
39
0
210
0
220
0
230
1
0
LINE
5
F0
100
AcDbEntity
8
1
62
256
6
ByLayer
370
13
48
1
60
0
100
AcDbLine
10
54.944165
20
21.188206
30
0
11
54.997026
21
21.188206
31
0
39
0
210
0
220
0
230
1
0
LINE
5
F1
100
AcDbEntity
8
1
62
256
6
ByLayer
370
13
48
1
60
0
100
AcDbLine
10
50.398005
20
20.382002
30
0
11
50.46942
21
20.382002
31
0
39
0
210
0
220
0
230
1
0
LINE
5
F2
100
AcDbEntity
8
1
62
256
6
ByLayer
370
13
48
1
60
0
100
AcDbLine
10
50.54904
20
20.549244
30
0
11
50.552254
21
20.552665
31
0
39
0
210
0
220
0
230
1
0
LINE
5
F3
100
AcDbEntity
8
1
62
256
6
ByLayer
370
13
48
1
60
0
100
AcDbLine
10
50.54904
20
20.950756
30
0
11
50.552254
21
20.947335
31
0
39
0
210
0
220
0
230
1
0
LINE
5
F4
100
AcDbEntity
8
1
62
256
6
ByLayer
370
13
48
1
60
0
100
AcDbLine
10
54.944165
20
21.188206
30
0
11
54.944165
21
20.311794
31
0
39
0
210
0
220
0
230
1
0
LINE
5
F5
100
AcDbEntity
8
1
62
256
6
ByLayer
370
13
48
1
60
0
100
AcDbLine
10
54.421373
20
21.198773
30
0
11
54.421373
21
20.301227
31
0
39
0
210
0
220
0
230
1
0
LINE
5
F6
100
AcDbEntity
8
1
62
256
6
ByLayer
370
18
48
1
60
0
100
AcDbLine
10
50.717283
20
21.75
30
0
11
50.63041
21
21.75
31
0
39
0
210
0
220
0
230
1
0
LINE
5
F7
100
AcDbEntity
8
1
62
256
6
ByLayer
370
18
48
1
60
0
100
AcDbLine
10
51.711238
20
21.75
30
0
11
51.642833
21
21.75
31
0
39
0
210
0
220
0
230
1
0
LINE
5
F8
100
AcDbEntity
8
1
62
256
6
ByLayer
370
18
48
1
60
0
100
AcDbLine
10
51.875747
20
19.722882
30
0
11
51.959449
21
19.674557
31
0
39
0
210
0
220
0
230
1
0
LINE
5
F9
100
AcDbEntity
8
1
62
256
6
ByLayer
370
18
48
1
60
0
100
AcDbLine
10
52.045343
20
19.64829
30
0
11
52.230259
21
19.63536
31
0
39
0
210
0
220
0
230
1
0
LINE
5
FA
100
AcDbEntity
8
1
62
256
6
ByLayer
370
18
48
1
60
0
100
AcDbLine
10
52.49812
20
21.871919
30
0
11
52.408193
21
21.871935
31
0
39
0
210
0
220
0
230
1
0
LINE
5
FB
100
AcDbEntity
8
1
62
256
6
ByLayer
370
18
48
1
60
0
100
AcDbLine
10
53.558781
20
19.584495
30
0
11
53.758781
21
19.570441
31
0
39
0
210
0
220
0
230
1
0
LINE
5
FC
100
AcDbEntity
8
1
62
256
6
ByLayer
370
18
48
1
60
0
100
AcDbLine
10
52.408193
20
19.628065
30
0
11
52.49812
21
19.628081
31
0
39
0
210
0
220
0
230
1
0
LINE
5
FD
100
AcDbEntity
8
1
62
256
6
ByLayer
370
18
48
1
60
0
100
AcDbLine
10
51.94752
20
21.824628
30
0
11
51.865402
21
21.777217
31
0
39
0
210
0
220
0
230
1
0
LINE
5
FE
100
AcDbEntity
8
1
62
256
6
ByLayer
370
18
48
1
60
0
100
AcDbLine
10
50.63041
20
21.75
30
0
11
50.41185
21
21.75
31
0
39
0
210
0
220
0
230
1
0
LINE
5
FF
100
AcDbEntity
8
1
62
256
6
ByLayer
370
18
48
1
60
0
100
AcDbLine
10
54.689249
20
22.000341
30
0
11
54.535516
21
21.990867
31
0
39
0
210
0
220
0
230
1
0
LINE
5
100
100
AcDbEntity
8
1
62
256
6
ByLayer
370
18
48
1
60
0
100
AcDbLine
10
50.717283
20
19.75
30
0
11
51.642833
21
19.75
31
0
39
0
210
0
220
0
230
1
0
LINE
5
101
100
AcDbEntity
8
1
62
256
6
ByLayer
370
18
48
1
60
0
100
AcDbLine
10
55.000117
20
21.374579
30
0
11
55.002839
21
21.69637
31
0
39
0
210
0
220
0
230
1
0
LINE
5
102
100
AcDbEntity
8
1
62
256
6
ByLayer
370
18
48
1
60
0
100
AcDbLine
10
50.63041
20
19.75
30
0
11
50.717283
21
19.75
31
0
39
0
210
0
220
0
230
1
0
LINE
5
103
100
AcDbEntity
8
1
62
256
6
ByLayer
370
18
48
1
60
0
100
AcDbLine
10
53.758781
20
21.929559
30
0
11
53.558781
21
21.915505
31
0
39
0
210
0
220
0
230
1
0
LINE
5
104
100
AcDbEntity
8
1
62
256
6
ByLayer
370
18
48
1
60
0
100
AcDbLine
10
54.106077
20
19.543895
30
0
11
54.46476
21
19.514235
31
0
39
0
210
0
220
0
230
1
0
LINE
5
105
100
AcDbEntity
8
1
62
256
6
ByLayer
370
18
48
1
60
0
100
AcDbLine
10
51.711238
20
21.75
30
0
11
51.763694
21
21.75
31
0
39
0
210
0
220
0
230
1
0
LINE
5
106
100
AcDbEntity
8
1
62
256
6
ByLayer
370
18
48
1
60
0
100
AcDbLine
10
55.002839
20
19.80363
30
0
11
55.000117
21
20.125421
31
0
39
0
210
0
220
0
230
1
0
LINE
5
107
100
AcDbEntity
8
1
62
256
6
ByLayer
370
18
48
1
60
0
100
AcDbLine
10
52.230259
20
21.86464
30
0
11
52.03336
21
21.850872
31
0
39
0
210
0
220
0
230
1
0
LINE
5
108
100
AcDbEntity
8
1
62
256
6
ByLayer
370
18
48
1
60
0
100
AcDbLine
10
51.642833
20
21.75
30
0
11
50.717283
21
21.75
31
0
39
0
210
0
220
0
230
1
0
LINE
5
109
100
AcDbEntity
8
1
62
256
6
ByLayer
370
18
48
1
60
0
100
AcDbLine
10
54.46476
20
21.985765
30
0
11
54.106077
21
21.956105
31
0
39
0
210
0
220
0
230
1
0
LINE
5
10A
100
AcDbEntity
8
1
62
256
6
ByLayer
370
18
48
1
60
0
100
AcDbLine
10
51.642833
20
19.75
30
0
11
51.711238
21
19.75
31
0
39
0
210
0
220
0
230
1
0
LINE
5
10B
100
AcDbEntity
8
1
62
256
6
ByLayer
370
18
48
1
60
0
100
AcDbLine
10
50.41185
20
19.75
30
0
11
50.63041
21
19.75
31
0
39
0
210
0
220
0
230
1
0
LINE
5
10C
100
AcDbEntity
8
1
62
256
6
ByLayer
370
18
48
1
60
0
100
AcDbLine
10
55
20
20.153117
30
0
11
55
21
21.346883
31
0
39
0
210
0
220
0
230
1
0
LINE
5
10D
100
AcDbEntity
8
1
62
256
6
ByLayer
370
18
48
1
60
0
100
AcDbLine
10
54.535516
20
19.509133
30
0
11
54.689249
21
19.499659
31
0
39
0
210
0
220
0
230
1
0
LINE
5
10E
100
AcDbEntity
8
1
62
256
6
ByLayer
370
18
48
1
60
0
100
AcDbLine
10
51.77444
20
19.75
30
0
11
51.711238
21
19.75
31
0
39
0
210
0
220
0
230
1
0
MTEXT
5
222
100
AcDbEntity
8
SK6
62
256
6
ByLayer
370
18
48
1
60
0
100
AcDbMText
10
-13.625
20
-47.874555
30
0
210
0
220
0
230
1
1
\W0.7810;C3-QD-RFF25C22055A
40
3.5
41
0
44
1.084337
50
0
71
7
72
5
7
iso_b_vert
0
DIMENSION
5
234
100
AcDbEntity
8
2
62
256
6
ByLayer
370
13
48
1
60
0
100
AcDbDimension
2
DimnDraft3D1
10
80.1
20
22
30
0
11
80.1
21
8.909211
31
0
70
32
71
5
72
1
41
1
210
0
220
0
230
1
3
Standard
100
AcDbAlignedDimension
13
32
23
0
33
0
14
57
24
22
34
0
50
90
100
AcDbRotatedDimension
1001
ACAD
1000
DSTYLE
1002
{
1070
    74
1070
     0
1070
   279
1070
     0
1070
   172
1070
     1
1070
   173
1070
     1
1070
   340
1005
223
1070
   271
1070
     1
1070
    77
1070
     1
1070
    73
1070
     0
1070
   171
1070
     3
1070
   274
1070
     4
1070
   177
1070
     2
1070
   176
1070
     2
1070
   178
1070
     7
1070
    78
1070
     8
1070
    41
1041
3.175
1070
   147
1041
1.75
1070
    42
1041
2.0
1070
    44
1041
2.0
1070
   140
1041
3.5
1070
   343
1005
235
1070
   344
1005
235
1002
}
0
DIMENSION
5
24A
100
AcDbEntity
8
SK2
62
256
6
ByLayer
370
13
48
1
60
0
100
AcDbDimension
2
DimnDraft3D2
10
55
20
44.600889
30
0
11
25.409211
21
44.600889
31
0
70
32
71
5
72
1
41
1
210
0
220
0
230
1
3
Standard
100
AcDbAlignedDimension
13
0
23
2
33
0
14
55
24
24
34
0
50
0
100
AcDbRotatedDimension
1001
ACAD
1000
DSTYLE
1002
{
1070
   279
1070
     0
1070
   172
1070
     1
1070
   173
1070
     1
1070
   340
1005
223
1070
   271
1070
     1
1070
    77
1070
     1
1070
    73
1070
     0
1070
   171
1070
     3
1070
   274
1070
     4
1070
   177
1070
     2
1070
   176
1070
     2
1070
   178
1070
     7
1070
    78
1070
     8
1070
    41
1041
3.175
1070
   147
1041
1.75
1070
    42
1041
2.0
1070
    44
1041
2.0
1070
   140
1041
3.5
1070
   343
1005
235
1070
   344
1005
235
1002
}
0
DIMENSION
5
258
100
AcDbEntity
8
2
62
256
6
ByLayer
370
13
48
1
60
0
100
AcDbDimension
2
DimnDraft3D3
10
30
20
-29.1
30
0
11
40.409211
21
-29.1
31
0
70
32
71
5
72
1
41
1
210
0
220
0
230
1
3
Standard
100
AcDbAlignedDimension
13
55
23
20
33
0
14
30
24
-2
34
0
50
0
100
AcDbRotatedDimension
1001
ACAD
1000
DSTYLE
1002
{
1070
   279
1070
     0
1070
   172
1070
     1
1070
   173
1070
     1
1070
   340
1005
223
1070
   271
1070
     1
1070
    77
1070
     1
1070
    73
1070
     0
1070
   171
1070
     3
1070
   274
1070
     4
1070
   177
1070
     2
1070
   176
1070
     2
1070
   178
1070
     7
1070
    78
1070
     8
1070
    41
1041
3.175
1070
   147
1041
1.75
1070
    42
1041
2.0
1070
    44
1041
2.0
1070
   140
1041
3.5
1070
   343
1005
235
1070
   344
1005
235
1002
}
0
DIMENSION
5
266
100
AcDbEntity
8
SK2
62
256
6
ByLayer
370
13
48
1
60
0
100
AcDbDimension
2
DimnDraft3D4
10
-28.6
20
-16
30
0
11
-28.6
21
-2.090789
31
0
70
32
71
5
72
1
41
1
210
0
220
0
230
1
3
Standard
100
AcDbAlignedDimension
13
-2
23
16
33
0
14
-2
24
-16
34
0
50
90
100
AcDbRotatedDimension
1001
ACAD
1000
DSTYLE
1002
{
1070
    74
1070
     0
1070
   279
1070
     0
1070
   172
1070
     1
1070
   173
1070
     1
1070
   340
1005
223
1070
   271
1070
     1
1070
    77
1070
     1
1070
    73
1070
     0
1070
   171
1070
     3
1070
   274
1070
     4
1070
   177
1070
     2
1070
   176
1070
     2
1070
   178
1070
     7
1070
    78
1070
     8
1070
    41
1041
3.175
1070
   147
1041
1.75
1070
    42
1041
2.0
1070
    44
1041
2.0
1070
   140
1041
3.5
1070
   343
1005
235
1070
   344
1005
235
1002
}
0
DIMENSION
5
274
100
AcDbEntity
8
2
62
256
6
ByLayer
370
13
48
1
60
0
100
AcDbDimension
2
DimnDraft3D5
10
73.1
20
19.5
30
0
11
73.1
21
3.645
31
0
70
32
71
5
72
1
41
1
210
0
220
0
230
1
3
Standard
100
AcDbAlignedDimension
13
57
23
22
33
0
14
57
24
19.5
34
0
50
90
100
AcDbRotatedDimension
1001
ACAD
1000
DSTYLE
1002
{
1070
    74
1070
     0
1070
   279
1070
     0
1070
   172
1070
     1
1070
   173
1070
     1
1070
   340
1005
223
1070
   271
1070
     1
1070
    77
1070
     1
1070
    73
1070
     0
1070
   171
1070
     3
1070
   274
1070
     4
1070
   177
1070
     2
1070
   176
1070
     2
1070
   178
1070
     7
1070
    78
1070
     8
1070
    41
1041
3.175
1070
   147
1041
1.75
1070
    42
1041
2.0
1070
    44
1041
2.0
1070
   140
1041
3.5
1070
   343
1005
235
1070
   344
1005
235
1002
}
0
ENDSEC
0
SECTION
2
OBJECTS
0
DICTIONARY
5
2de
330
0
100
AcDbDictionary
280
0
281
1
3
ACAD_GROUP
350
2df
3
ACAD_MLINESTYLE
350
2e0
0
DICTIONARY
5
2df
330
0
100
AcDbDictionary
280
0
281
1
0
DICTIONARY
5
2e0
330
0
100
AcDbDictionary
280
0
281
1
3
Standard
350
18
0
MLINESTYLE
5
18
330
2e0
100
AcDbMlineStyle
2
Standard
70
0
3

62
256
51
90
52
90
71
2
49
-0.5
62
256
6
ByLayer
49
0.5
62
256
6
ByLayer
0
RASTERVARIABLES
5
2cd
330

100
AcDbRasterVariables
90
0
70
1
71
1
72
1
0
ENDSEC
0
EOF
