0
SECTION
2
HEADER
9
$ACADVER
1
AC1015
9
$DWGCODEPAGE
3
ANSI_1252
9
$HANDSEED
5
312
9
$ANGBASE
50
0
9
$ANGDIR
70
0
9
$ATTMODE
70
1
9
$AUNITS
70
0
9
$AUPREC
70
0
9
$CECOLOR
62
256
9
$CELTSCALE
40
1
9
$CELTYPE
6
ByLayer
9
$CELWEIGHT
370
18
9
$CLAYER
8
0
9
$CMLJUST
70
0
9
$CMLSCALE
40
1
9
$CMLSTYLE
2
Standard
9
$DIMSTYLE
2
Standard
9
$TEXTSIZE
40
0.2
9
$TEXTSTYLE
7
Standard
9
$LUNITS
70
2
9
$LUPREC
70
4
9
$EXTNAMES
290
1
9
$INSUNITS
70
4
9
$LTSCALE
40
1
9
$LWDISPLAY
290
1
9
$PDMODE
70
0
9
$PDSIZE
40
0
9
$PLINEGEN
70
0
0
ENDSEC
0
SECTION
2
CLASSES
0
CLASS
1
RASTERVARIABLES
2
AcDbRasterVariables
3
ISM
90
0
280
0
281
0
0
ENDSEC
0
SECTION
2
TABLES
0
TABLE
2
VPORT
5
308
100
AcDbSymbolTable
0
VPORT
5
1
100
AcDbSymbolTableRecord
100
AcDbViewportTableRecord
2
*Active
70
0
10
0
20
0
11
1
21
1
12
-1
22
1
13
0
23
0
14
0.5
24
0.5
15
10
25
10
16
0
26
0
36
1
17
0
27
0
37
0
0
ENDTAB
0
TABLE
2
LTYPE
5
309
100
AcDbSymbolTable
0
LTYPE
5
14
100
AcDbSymbolTableRecord
100
AcDbLinetypeTableRecord
70
0
2
ByBlock
3

72
65
73
0
40
0
0
LTYPE
5
15
100
AcDbSymbolTableRecord
100
AcDbLinetypeTableRecord
70
0
2
ByLayer
3

72
65
73
0
40
0
0
LTYPE
5
16
100
AcDbSymbolTableRecord
100
AcDbLinetypeTableRecord
70
0
2
CONTINUOUS
3
Solid line
72
65
73
0
40
0
0
LTYPE
5
6A
100
AcDbSymbolTableRecord
100
AcDbLinetypeTableRecord
70
0
2
CENTER
3
____ _ ____ _ ____ _ ____
72
65
73
4
40
47.5
49
22
74
0
49
-8.5
74
0
49
8.5
74
0
49
-8.5
74
0
0
LTYPE
5
6B
100
AcDbSymbolTableRecord
100
AcDbLinetypeTableRecord
70
0
2
DASHED
3
__ __ __ __ __ __ __ __ __
72
65
73
2
40
25.72
49
12.86
74
0
49
-12.86
74
0
0
ENDTAB
0
TABLE
2
LAYER
5
30a
100
AcDbSymbolTable
0
LAYER
5
10
100
AcDbSymbolTableRecord
100
AcDbLayerTableRecord
2
0
70
0
62
7
6
CONTINUOUS
290
1
370
-3
390
0
0
LAYER
5
6D
100
AcDbSymbolTableRecord
100
AcDbLayerTableRecord
2
81
70
0
62
-3
6
CONTINUOUS
290
1
370
-3
390
0
0
LAYER
5
6F
100
AcDbSymbolTableRecord
100
AcDbLayerTableRecord
2
80
70
0
62
-6
6
CONTINUOUS
290
1
370
-3
390
0
0
LAYER
5
71
100
AcDbSymbolTableRecord
100
AcDbLayerTableRecord
2
1
70
0
62
4
6
CONTINUOUS
290
1
370
-3
390
0
0
LAYER
5
24F
100
AcDbSymbolTableRecord
100
AcDbLayerTableRecord
2
2
70
0
62
7
6
CONTINUOUS
290
1
370
-3
390
0
0
LAYER
5
2f5
100
AcDbSymbolTableRecord
100
AcDbLayerTableRecord
2
SK1
70
0
62
4
6
CONTINUOUS
290
1
370
-3
390
0
0
LAYER
5
2f6
100
AcDbSymbolTableRecord
100
AcDbLayerTableRecord
2
SK6
70
0
62
5
6
CONTINUOUS
290
1
370
-3
390
0
0
LAYER
5
2f7
100
AcDbSymbolTableRecord
100
AcDbLayerTableRecord
2
SK2
70
0
62
7
6
CONTINUOUS
290
1
370
-3
390
0
0
ENDTAB
0
TABLE
2
STYLE
5
30b
100
AcDbSymbolTable
0
STYLE
5
11
100
AcDbSymbolTableRecord
100
AcDbTextStyleTableRecord
2
Standard
3
txt
70
0
71
0
40
0
41
1
42
0
50
0
0
STYLE
5
24A
100
AcDbSymbolTableRecord
100
AcDbTextStyleTableRecord
2
iso_b_vert
3
simplex.shx
70
0
71
0
40
0
41
1
42
0
50
0
0
STYLE
5
24B
100
AcDbSymbolTableRecord
100
AcDbTextStyleTableRecord
2
DWGDirectTextStyle
3
simplex
70
0
71
0
40
0
41
1
42
0
50
0
0
ENDTAB
0
TABLE
2
DIMSTYLE
5
30c
100
AcDbSymbolTable
100
AcDbDimStyleTable
0
DIMSTYLE
105
27
100
AcDbSymbolTableRecord
100
AcDbDimStyleTableRecord
2
Standard
70
0
3
<>
41
0.18
42
0.0625
44
0.18
140
0.18
147
0.09
73
0
74
0
77
1
271
2
275
0
278
52
280
0
340
11
0
ENDTAB
0
TABLE
2
VIEW
5
30d
100
AcDbSymbolTable
0
ENDTAB
0
TABLE
2
UCS
5
30e
100
AcDbSymbolTable
0
ENDTAB
0
TABLE
2
APPID
5
30f
100
AcDbSymbolTable
0
APPID
5
12
100
AcDbSymbolTableRecord
100
AcDbRegAppTableRecord
2
ACAD
70
0
0
ENDTAB
0
TABLE
2
BLOCK_RECORD
5
310
100
AcDbSymbolTable
0
BLOCK_RECORD
5
1F
100
AcDbSymbolTableRecord
100
AcDbBlockTableRecord
2
*Model_Space
340
0
70
0
0
BLOCK_RECORD
5
1B
100
AcDbSymbolTableRecord
100
AcDbBlockTableRecord
2
*Paper_Space
340
0
70
0
0
BLOCK_RECORD
5
23
100
AcDbSymbolTableRecord
100
AcDbBlockTableRecord
2
*Paper_Space0
340
0
70
0
0
BLOCK_RECORD
5
24D
100
AcDbSymbolTableRecord
100
AcDbBlockTableRecord
2
DimnDraft3D1
340
0
70
0
0
BLOCK_RECORD
5
25C
100
AcDbSymbolTableRecord
100
AcDbBlockTableRecord
2
_CLOSED
340
0
70
0
0
BLOCK_RECORD
5
263
100
AcDbSymbolTableRecord
100
AcDbBlockTableRecord
2
DimnDraft3D2
340
0
70
0
0
BLOCK_RECORD
5
272
100
AcDbSymbolTableRecord
100
AcDbBlockTableRecord
2
DimnDraft3D3
340
0
70
0
0
BLOCK_RECORD
5
280
100
AcDbSymbolTableRecord
100
AcDbBlockTableRecord
2
DimnDraft3D4
340
0
70
0
0
BLOCK_RECORD
5
28E
100
AcDbSymbolTableRecord
100
AcDbBlockTableRecord
2
DimnDraft3D5
340
0
70
0
0
ENDTAB
0
ENDSEC
0
SECTION
2
BLOCKS
0
BLOCK
5
20
100
AcDbEntity
8
0
100
AcDbBlockBegin
2
*Model_Space
70
0
10
0
20
0
30
0
3
*Model_Space
0
ENDBLK
5
21
100
AcDbEntity
8
0
100
AcDbBlockEnd
0
BLOCK
5
1C
100
AcDbEntity
8
0
100
AcDbBlockBegin
2
*Paper_Space
70
0
10
0
20
0
30
0
3
*Paper_Space
0
ENDBLK
5
1D
100
AcDbEntity
8
0
100
AcDbBlockEnd
0
BLOCK
5
24
100
AcDbEntity
8
0
100
AcDbBlockBegin
2
*Paper_Space0
70
0
10
0
20
0
30
0
3
*Paper_Space0
0
ENDBLK
5
25
100
AcDbEntity
8
0
100
AcDbBlockEnd
0
BLOCK
5
259
100
AcDbEntity
8
0
100
AcDbBlockBegin
2
DimnDraft3D1
70
0
10
0
20
0
30
0
3
DimnDraft3D1
0
MTEXT
5
24E
100
AcDbEntity
8
2
62
256
6
ByLayer
370
18
48
1
60
0
100
AcDbMText
10
79.225
20
9.784211
30
0
210
0
220
0
230
1
1
\W0.6740;22
40
3.5
41
0
44
1.084337
50
90
71
7
72
5
7
iso_b_vert
0
LINE
5
250
100
AcDbEntity
8
2
62
256
6
ByLayer
370
13
48
1
60
0
100
AcDbLine
10
35
20
0
30
0
11
82.1
21
0
31
0
39
0
210
0
220
0
230
1
0
LINE
5
251
100
AcDbEntity
8
2
62
256
6
ByLayer
370
13
48
1
60
0
100
AcDbLine
10
57
20
22
30
0
11
82.1
21
22
31
0
39
0
210
0
220
0
230
1
0
LINE
5
252
100
AcDbEntity
8
2
62
256
6
ByLayer
370
13
48
1
60
0
100
AcDbLine
10
80.1
20
0
30
0
11
80.1
21
22
31
0
39
0
210
0
220
0
230
1
0
LINE
5
253
100
AcDbEntity
8
2
62
256
6
ByLayer
370
13
48
1
60
0
100
AcDbLine
10
80.1
20
0
30
0
11
79.682003
21
3.174998
31
0
39
0
210
0
220
0
230
1
0
LINE
5
254
100
AcDbEntity
8
2
62
256
6
ByLayer
370
13
48
1
60
0
100
AcDbLine
10
80.1
20
0
30
0
11
80.517997
21
3.175002
31
0
39
0
210
0
220
0
230
1
0
LINE
5
255
100
AcDbEntity
8
2
62
256
6
ByLayer
370
13
48
1
60
0
100
AcDbLine
10
79.682003
20
3.174998
30
0
11
80.517997
21
3.175002
31
0
39
0
210
0
220
0
230
1
0
LINE
5
256
100
AcDbEntity
8
2
62
256
6
ByLayer
370
13
48
1
60
0
100
AcDbLine
10
80.1
20
22
30
0
11
80.517997
21
18.825002
31
0
39
0
210
0
220
0
230
1
0
LINE
5
257
100
AcDbEntity
8
2
62
256
6
ByLayer
370
13
48
1
60
0
100
AcDbLine
10
80.1
20
22
30
0
11
79.682003
21
18.824998
31
0
39
0
210
0
220
0
230
1
0
LINE
5
258
100
AcDbEntity
8
2
62
256
6
ByLayer
370
13
48
1
60
0
100
AcDbLine
10
80.517997
20
18.825002
30
0
11
79.682003
21
18.824998
31
0
39
0
210
0
220
0
230
1
0
ENDBLK
5
25A
100
AcDbEntity
8
0
100
AcDbBlockEnd
0
BLOCK
5
25D
100
AcDbEntity
8
0
100
AcDbBlockBegin
2
_CLOSED
70
0
10
0
20
0
30
0
3
_CLOSED
0
LINE
5
25F
100
AcDbEntity
8
0
62
256
6
ByLayer
370
-2
48
1
60
0
100
AcDbLine
10
-1
20
0.166667
30
0
11
0
21
0
31
0
39
0
210
0
220
0
230
1
0
LINE
5
260
100
AcDbEntity
8
0
62
256
6
ByLayer
370
-2
48
1
60
0
100
AcDbLine
10
0
20
0
30
0
11
-1
21
-0.166667
31
0
39
0
210
0
220
0
230
1
0
LINE
5
261
100
AcDbEntity
8
0
62
256
6
ByLayer
370
-2
48
1
60
0
100
AcDbLine
10
-1
20
0.166667
30
0
11
-1
21
-0.166667
31
0
39
0
210
0
220
0
230
1
0
LINE
5
262
100
AcDbEntity
8
0
62
256
6
ByLayer
370
-2
48
1
60
0
100
AcDbLine
10
0
20
0
30
0
11
-1
21
0
31
0
39
0
210
0
220
0
230
1
0
ENDBLK
5
25E
100
AcDbEntity
8
0
100
AcDbBlockEnd
0
BLOCK
5
26F
100
AcDbEntity
8
0
100
AcDbBlockBegin
2
DimnDraft3D2
70
0
10
0
20
0
30
0
3
DimnDraft3D2
0
MTEXT
5
264
100
AcDbEntity
8
SK2
62
256
6
ByLayer
370
18
48
1
60
0
100
AcDbMText
10
26.284211
20
45.475049
30
0
210
0
220
0
230
1
1
\W0.6740;55
40
3.5
41
0
44
1.084337
50
0
71
7
72
5
7
iso_b_vert
0
LINE
5
266
100
AcDbEntity
8
SK2
62
256
6
ByLayer
370
13
48
1
60
0
100
AcDbLine
10
0
20
2
30
0
11
0
21
46.600049
31
0
39
0
210
0
220
0
230
1
0
LINE
5
267
100
AcDbEntity
8
SK2
62
256
6
ByLayer
370
13
48
1
60
0
100
AcDbLine
10
55
20
24
30
0
11
55
21
46.600049
31
0
39
0
210
0
220
0
230
1
0
LINE
5
268
100
AcDbEntity
8
SK2
62
256
6
ByLayer
370
13
48
1
60
0
100
AcDbLine
10
0
20
44.600049
30
0
11
55
21
44.600049
31
0
39
0
210
0
220
0
230
1
0
LINE
5
269
100
AcDbEntity
8
SK2
62
256
6
ByLayer
370
13
48
1
60
0
100
AcDbLine
10
0
20
44.600049
30
0
11
3.174998
21
45.018045
31
0
39
0
210
0
220
0
230
1
0
LINE
5
26A
100
AcDbEntity
8
SK2
62
256
6
ByLayer
370
13
48
1
60
0
100
AcDbLine
10
0
20
44.600049
30
0
11
3.175002
21
44.182052
31
0
39
0
210
0
220
0
230
1
0
LINE
5
26B
100
AcDbEntity
8
SK2
62
256
6
ByLayer
370
13
48
1
60
0
100
AcDbLine
10
3.174998
20
45.018045
30
0
11
3.175002
21
44.182052
31
0
39
0
210
0
220
0
230
1
0
LINE
5
26C
100
AcDbEntity
8
SK2
62
256
6
ByLayer
370
13
48
1
60
0
100
AcDbLine
10
55
20
44.600049
30
0
11
51.825002
21
44.182052
31
0
39
0
210
0
220
0
230
1
0
LINE
5
26D
100
AcDbEntity
8
SK2
62
256
6
ByLayer
370
13
48
1
60
0
100
AcDbLine
10
55
20
44.600049
30
0
11
51.824998
21
45.018045
31
0
39
0
210
0
220
0
230
1
0
LINE
5
26E
100
AcDbEntity
8
SK2
62
256
6
ByLayer
370
13
48
1
60
0
100
AcDbLine
10
51.825002
20
44.182052
30
0
11
51.824998
21
45.018045
31
0
39
0
210
0
220
0
230
1
0
ENDBLK
5
270
100
AcDbEntity
8
0
100
AcDbBlockEnd
0
BLOCK
5
27D
100
AcDbEntity
8
0
100
AcDbBlockBegin
2
DimnDraft3D3
70
0
10
0
20
0
30
0
3
DimnDraft3D3
0
MTEXT
5
273
100
AcDbEntity
8
2
62
256
6
ByLayer
370
18
48
1
60
0
100
AcDbMText
10
42.784211
20
-28.225
30
0
210
0
220
0
230
1
1
\W0.6740;22
40
3.5
41
0
44
1.084337
50
0
71
7
72
5
7
iso_b_vert
0
LINE
5
274
100
AcDbEntity
8
2
62
256
6
ByLayer
370
13
48
1
60
0
100
AcDbLine
10
55
20
20
30
0
11
55
21
-31.1
31
0
39
0
210
0
220
0
230
1
0
LINE
5
275
100
AcDbEntity
8
2
62
256
6
ByLayer
370
13
48
1
60
0
100
AcDbLine
10
33
20
-2
30
0
11
33
21
-31.1
31
0
39
0
210
0
220
0
230
1
0
LINE
5
276
100
AcDbEntity
8
2
62
256
6
ByLayer
370
13
48
1
60
0
100
AcDbLine
10
55
20
-29.1
30
0
11
33
21
-29.1
31
0
39
0
210
0
220
0
230
1
0
LINE
5
277
100
AcDbEntity
8
2
62
256
6
ByLayer
370
13
48
1
60
0
100
AcDbLine
10
55
20
-29.1
30
0
11
51.825002
21
-29.517997
31
0
39
0
210
0
220
0
230
1
0
LINE
5
278
100
AcDbEntity
8
2
62
256
6
ByLayer
370
13
48
1
60
0
100
AcDbLine
10
55
20
-29.1
30
0
11
51.824998
21
-28.682003
31
0
39
0
210
0
220
0
230
1
0
LINE
5
279
100
AcDbEntity
8
2
62
256
6
ByLayer
370
13
48
1
60
0
100
AcDbLine
10
51.825002
20
-29.517997
30
0
11
51.824998
21
-28.682003
31
0
39
0
210
0
220
0
230
1
0
LINE
5
27A
100
AcDbEntity
8
2
62
256
6
ByLayer
370
13
48
1
60
0
100
AcDbLine
10
33
20
-29.1
30
0
11
36.174998
21
-28.682003
31
0
39
0
210
0
220
0
230
1
0
LINE
5
27B
100
AcDbEntity
8
2
62
256
6
ByLayer
370
13
48
1
60
0
100
AcDbLine
10
33
20
-29.1
30
0
11
36.175002
21
-29.517997
31
0
39
0
210
0
220
0
230
1
0
LINE
5
27C
100
AcDbEntity
8
2
62
256
6
ByLayer
370
13
48
1
60
0
100
AcDbLine
10
36.174998
20
-28.682003
30
0
11
36.175002
21
-29.517997
31
0
39
0
210
0
220
0
230
1
0
ENDBLK
5
27E
100
AcDbEntity
8
0
100
AcDbBlockEnd
0
BLOCK
5
28B
100
AcDbEntity
8
0
100
AcDbBlockBegin
2
DimnDraft3D4
70
0
10
0
20
0
30
0
3
DimnDraft3D4
0
MTEXT
5
281
100
AcDbEntity
8
SK2
62
256
6
ByLayer
370
18
48
1
60
0
100
AcDbMText
10
-29.475
20
-1.215789
30
0
210
0
220
0
230
1
1
\W0.6740;32
40
3.5
41
0
44
1.084337
50
90
71
7
72
5
7
iso_b_vert
0
LINE
5
282
100
AcDbEntity
8
SK2
62
256
6
ByLayer
370
13
48
1
60
0
100
AcDbLine
10
-2
20
16
30
0
11
-30.6
21
16
31
0
39
0
210
0
220
0
230
1
0
LINE
5
283
100
AcDbEntity
8
SK2
62
256
6
ByLayer
370
13
48
1
60
0
100
AcDbLine
10
-2
20
-16
30
0
11
-30.6
21
-16
31
0
39
0
210
0
220
0
230
1
0
LINE
5
284
100
AcDbEntity
8
SK2
62
256
6
ByLayer
370
13
48
1
60
0
100
AcDbLine
10
-28.6
20
16
30
0
11
-28.6
21
-16
31
0
39
0
210
0
220
0
230
1
0
LINE
5
285
100
AcDbEntity
8
SK2
62
256
6
ByLayer
370
13
48
1
60
0
100
AcDbLine
10
-28.6
20
16
30
0
11
-28.182003
21
12.825002
31
0
39
0
210
0
220
0
230
1
0
LINE
5
286
100
AcDbEntity
8
SK2
62
256
6
ByLayer
370
13
48
1
60
0
100
AcDbLine
10
-28.6
20
16
30
0
11
-29.017997
21
12.824998
31
0
39
0
210
0
220
0
230
1
0
LINE
5
287
100
AcDbEntity
8
SK2
62
256
6
ByLayer
370
13
48
1
60
0
100
AcDbLine
10
-28.182003
20
12.825002
30
0
11
-29.017997
21
12.824998
31
0
39
0
210
0
220
0
230
1
0
LINE
5
288
100
AcDbEntity
8
SK2
62
256
6
ByLayer
370
13
48
1
60
0
100
AcDbLine
10
-28.6
20
-16
30
0
11
-29.017997
21
-12.825002
31
0
39
0
210
0
220
0
230
1
0
LINE
5
289
100
AcDbEntity
8
SK2
62
256
6
ByLayer
370
13
48
1
60
0
100
AcDbLine
10
-28.6
20
-16
30
0
11
-28.182003
21
-12.824998
31
0
39
0
210
0
220
0
230
1
0
LINE
5
28A
100
AcDbEntity
8
SK2
62
256
6
ByLayer
370
13
48
1
60
0
100
AcDbLine
10
-29.017997
20
-12.825002
30
0
11
-28.182003
21
-12.824998
31
0
39
0
210
0
220
0
230
1
0
ENDBLK
5
28C
100
AcDbEntity
8
0
100
AcDbBlockEnd
0
BLOCK
5
299
100
AcDbEntity
8
0
100
AcDbBlockBegin
2
DimnDraft3D5
70
0
10
0
20
0
30
0
3
DimnDraft3D5
0
MTEXT
5
28F
100
AcDbEntity
8
2
62
256
6
ByLayer
370
18
48
1
60
0
100
AcDbMText
10
72.225
20
9.054211
30
0
210
0
220
0
230
1
1
\W0.5404;2
40
3.5
41
0
44
1.084337
50
90
71
7
72
5
7
iso_b_vert
0
LINE
5
290
100
AcDbEntity
8
2
62
256
6
ByLayer
370
13
48
1
60
0
100
AcDbLine
10
57
20
22
30
0
11
75.1
21
22
31
0
39
0
210
0
220
0
230
1
0
LINE
5
291
100
AcDbEntity
8
2
62
256
6
ByLayer
370
13
48
1
60
0
100
AcDbLine
10
57
20
20
30
0
11
75.1
21
20
31
0
39
0
210
0
220
0
230
1
0
LINE
5
292
100
AcDbEntity
8
2
62
256
6
ByLayer
370
13
48
1
60
0
100
AcDbLine
10
73.1
20
8.179211
30
0
11
73.1
21
30.75
31
0
39
0
210
0
220
0
230
1
0
LINE
5
293
100
AcDbEntity
8
2
62
256
6
ByLayer
370
13
48
1
60
0
100
AcDbLine
10
73.1
20
22
30
0
11
72.682003
21
25.174998
31
0
39
0
210
0
220
0
230
1
0
LINE
5
294
100
AcDbEntity
8
2
62
256
6
ByLayer
370
13
48
1
60
0
100
AcDbLine
10
73.1
20
22
30
0
11
73.517997
21
25.175002
31
0
39
0
210
0
220
0
230
1
0
LINE
5
295
100
AcDbEntity
8
2
62
256
6
ByLayer
370
13
48
1
60
0
100
AcDbLine
10
72.682003
20
25.174998
30
0
11
73.517997
21
25.175002
31
0
39
0
210
0
220
0
230
1
0
LINE
5
296
100
AcDbEntity
8
2
62
256
6
ByLayer
370
13
48
1
60
0
100
AcDbLine
10
73.1
20
20
30
0
11
73.517997
21
16.825002
31
0
39
0
210
0
220
0
230
1
0
LINE
5
297
100
AcDbEntity
8
2
62
256
6
ByLayer
370
13
48
1
60
0
100
AcDbLine
10
73.1
20
20
30
0
11
72.682003
21
16.824998
31
0
39
0
210
0
220
0
230
1
0
LINE
5
298
100
AcDbEntity
8
2
62
256
6
ByLayer
370
13
48
1
60
0
100
AcDbLine
10
73.517997
20
16.825002
30
0
11
72.682003
21
16.824998
31
0
39
0
210
0
220
0
230
1
0
ENDBLK
5
29A
100
AcDbEntity
8
0
100
AcDbBlockEnd
0
ENDSEC
0
SECTION
2
ENTITIES
0
ARC
5
12D
100
AcDbEntity
8
1
62
256
6
ByLayer
370
13
48
1
60
0
100
AcDbCircle
39
0
10
-15.279208
20
17.2
30
0
40
1.2
210
0
220
0
230
-1
100
AcDbArc
50
195
51
270
0
ARC
5
12E
100
AcDbEntity
8
1
62
256
6
ByLayer
370
13
48
1
60
0
100
AcDbCircle
39
0
10
-19.046351
20
-14.5
30
0
40
3.99999999999996
210
0
220
0
230
-1
100
AcDbArc
50
21.246739
51
90
0
ELLIPSE
5
12F
100
AcDbEntity
8
1
62
256
6
ByLayer
370
13
48
1
60
0
100
AcDbEllipse
10
15.13963
20
0
30
0
11
2.5730285957429E-15
21
16.0000000000019
31
0
210
0
220
0
230
-1
40
0.008727
41
-2.41147811567538
42
-0.73011453791446
0
ELLIPSE
5
130
100
AcDbEntity
8
1
62
256
6
ByLayer
370
13
48
1
60
0
100
AcDbEllipse
10
-0.928203
20
0
30
0
11
7.49393430382659
21
-15.7933993222009
31
0
210
0
220
0
230
-1
40
0.341999
41
-1.08757920120041
42
-0.161466571197773
0
ELLIPSE
5
131
100
AcDbEntity
8
1
62
256
6
ByLayer
370
13
48
1
60
0
100
AcDbEllipse
10
12.928203
20
0
30
0
11
7.49393430382483
21
-15.7933993221997
31
0
210
0
220
0
230
-1
40
0.341999
41
2.05401345238929
42
2.980126082392
0
ELLIPSE
5
132
100
AcDbEntity
8
1
62
256
6
ByLayer
370
13
48
1
60
0
100
AcDbEllipse
10
12.928203
20
0
30
0
11
7.49393430382398
21
15.7933993221988
31
0
210
0
220
0
230
-1
40
0.341999
41
-2.980126082392
42
-2.05401345238924
0
ELLIPSE
5
133
100
AcDbEntity
8
1
62
256
6
ByLayer
370
13
48
1
60
0
100
AcDbEllipse
10
-0.928203
20
0
30
0
11
7.49393430382462
21
15.7933993221985
31
0
210
0
220
0
230
-1
40
0.341999
41
0.161466571197787
42
1.08757920120052
0
ELLIPSE
5
134
100
AcDbEntity
8
1
62
256
6
ByLayer
370
13
48
1
60
0
100
AcDbEllipse
10
49.949555
20
21
30
0
11
0.826981509160074
21
8.35779810988124E-16
31
0
210
0
220
0
230
-1
40
0.483687
41
0.972104549866842
42
-0.97210454986669
0
ELLIPSE
5
135
100
AcDbEntity
8
1
62
256
6
ByLayer
370
13
48
1
60
0
100
AcDbEllipse
10
50.435258
20
21
30
0
11
6.43257148936189E-17
21
0.400000000000335
31
0
210
0
220
0
230
-1
40
0.087156
41
-2.54290087666049
42
-0.598691776929439
0
ELLIPSE
5
136
100
AcDbEntity
8
1
62
256
6
ByLayer
370
13
48
1
60
0
100
AcDbEllipse
10
47.074248
20
20.130414
30
0
11
0.998914194468512
21
0.226032306718839
31
0
210
0
220
0
230
-1
40
0.206112
41
-2.07998265450547
42
-1.8732573519053
0
ELLIPSE
5
137
100
AcDbEntity
8
1
62
256
6
ByLayer
370
13
48
1
60
0
100
AcDbEllipse
10
54.37413
20
21
30
0
11
-6.1541317860938
21
7.53638888751072E-16
31
0
210
0
220
0
230
1
40
0.121869
41
1.12302990717099
42
1.18682389135614
0
ELLIPSE
5
138
100
AcDbEntity
8
1
62
256
6
ByLayer
370
13
48
1
60
0
100
AcDbEllipse
10
54.37413
20
21
30
0
11
-6.1541317860938
21
7.53638888751072E-16
31
0
210
0
220
0
230
1
40
0.121869
41
-1.18682389135615
42
-1.12302990717099
0
ELLIPSE
5
139
100
AcDbEntity
8
1
62
256
6
ByLayer
370
13
48
1
60
0
100
AcDbEllipse
10
54.37413
20
21
30
0
11
6.11757101780345
21
-1.66380863697947E-09
31
0
210
0
220
0
230
-1
40
0.073559
41
-2.06016834922268
42
-1.95476876432299
0
ELLIPSE
5
13A
100
AcDbEntity
8
1
62
256
6
ByLayer
370
13
48
1
60
0
100
AcDbEllipse
10
54.37413
20
21
30
0
11
6.11757102160972
21
1.8463022014572E-09
31
0
210
0
220
0
230
-1
40
0.073559
41
1.95476876455253
42
2.06016834939641
0
ELLIPSE
5
13B
100
AcDbEntity
8
1
62
256
6
ByLayer
370
13
48
1
60
0
100
AcDbEllipse
10
52.073627
20
21
30
0
11
1.2236301072105
21
1.23664837532155E-15
31
0
210
0
220
0
230
-1
40
0.367758
41
-2.41547853523041
42
-2.06016834764537
0
ELLIPSE
5
13C
100
AcDbEntity
8
1
62
256
6
ByLayer
370
13
48
1
60
0
100
AcDbEllipse
10
51.786071
20
21
30
0
11
0.89972952251623
21
0.0397735691407966
31
0
210
0
220
0
230
-1
40
0.498193
41
-1.09832268588588
42
-1.00525798458804
0
ELLIPSE
5
13D
100
AcDbEntity
8
1
62
256
6
ByLayer
370
13
48
1
60
0
100
AcDbEllipse
10
51.786071
20
21
30
0
11
0.899729527483276
21
-0.0397735716542821
31
0
210
0
220
0
230
-1
40
0.498193
41
1.00525798174745
42
1.09832268261577
0
ELLIPSE
5
13E
100
AcDbEntity
8
1
62
256
6
ByLayer
370
13
48
1
60
0
100
AcDbEllipse
10
52.073627
20
21
30
0
11
1.22363010720673
21
1.23664837531774E-15
31
0
210
0
220
0
230
-1
40
0.367758
41
2.06016834764479
42
2.4154785352261
0
ELLIPSE
5
13F
100
AcDbEntity
8
1
62
256
6
ByLayer
370
13
48
1
60
0
100
AcDbEllipse
10
52.308716
20
21.647616
30
0
11
0.0309022559561243
21
-0.238002207083931
31
0
210
0
220
0
230
1
40
0.697921
41
0.776305432118382
42
1.43060367190734
0
ELLIPSE
5
140
100
AcDbEntity
8
1
62
256
6
ByLayer
370
13
48
1
60
0
100
AcDbEllipse
10
53.533781
20
20.11922
30
0
11
0.0220590948837
21
0.238984092217269
31
0
210
0
220
0
230
1
40
0.006427
41
0.704838524415454
42
1.50127915029113
0
ELLIPSE
5
141
100
AcDbEntity
8
1
62
256
6
ByLayer
370
13
48
1
60
0
100
AcDbEllipse
10
53.533781
20
21.88078
30
0
11
0.0220590948836999
21
-0.238984092217269
31
0
210
0
220
0
230
1
40
0.006427
41
-1.50127915029113
42
-0.704838524415435
0
ELLIPSE
5
142
100
AcDbEntity
8
1
62
256
6
ByLayer
370
13
48
1
60
0
100
AcDbEllipse
10
52.308716
20
20.352384
30
0
11
-0.0309022559569112
21
-0.238002207083828
31
0
210
0
220
0
230
1
40
0.697921
41
1.71098898168883
42
2.36528722147377
0
ELLIPSE
5
143
100
AcDbEntity
8
1
62
256
6
ByLayer
370
13
48
1
60
0
100
AcDbEllipse
10
52.152761
20
20.300476
30
0
11
0.10209648341447
21
-0.282092729566714
31
0
210
0
220
0
230
1
40
0.694069
41
1.37564748435105
42
2.59886419488537
0
ELLIPSE
5
144
100
AcDbEntity
8
1
62
256
6
ByLayer
370
13
48
1
60
0
100
AcDbEllipse
10
52.152761
20
21.699524
30
0
11
-0.102096483414469
21
-0.282092729566714
31
0
210
0
220
0
230
1
40
0.694069
41
0.542728458704468
42
1.76594516923874
0
ELLIPSE
5
145
100
AcDbEntity
8
1
62
256
6
ByLayer
370
13
48
1
60
0
100
AcDbEllipse
10
51.48984
20
21.529577
30
0
11
0.0373781701033243
21
-0.145268277334479
31
0
210
0
220
0
230
1
40
0.332441
41
-1.6561270901124
42
-0.517494909403416
0
ELLIPSE
5
146
100
AcDbEntity
8
1
62
256
6
ByLayer
370
13
48
1
60
0
100
AcDbEllipse
10
51.48984
20
20.470423
30
0
11
0.0373781701033242
21
0.145268277334479
31
0
210
0
220
0
230
1
40
0.332441
41
0.517494909403245
42
1.6561270901124
0
ELLIPSE
5
147
100
AcDbEntity
8
1
62
256
6
ByLayer
370
13
48
1
60
0
100
AcDbEllipse
10
52.022324
20
21
30
0
11
1.24191050865342
21
1.25512326296235E-15
31
0
210
0
220
0
230
-1
40
0.483127
41
2.06016834764099
42
2.41547853524432
0
ELLIPSE
5
148
100
AcDbEntity
8
1
62
256
6
ByLayer
370
13
48
1
60
0
100
AcDbEllipse
10
52.022324
20
21
30
0
11
1.24191050875904
21
1.25512326306909E-15
31
0
210
0
220
0
230
-1
40
0.483127
41
-2.41547853521869
42
-2.06016834764718
0
ELLIPSE
5
149
100
AcDbEntity
8
1
62
256
6
ByLayer
370
13
48
1
60
0
100
AcDbEllipse
10
51.997945
20
21.014816
30
0
11
0.847017710010794
21
-0.196304072014832
31
0
210
0
220
0
230
-1
40
0.854591
41
0.792533363346862
42
0.922000566456964
0
ELLIPSE
5
14A
100
AcDbEntity
8
1
62
256
6
ByLayer
370
13
48
1
60
0
100
AcDbEllipse
10
51.997945
20
20.985184
30
0
11
0.847017707653529
21
0.19630406023051
31
0
210
0
220
0
230
-1
40
0.854591
41
-0.922000579425022
42
-0.792533375794306
0
ELLIPSE
5
14B
100
AcDbEntity
8
1
62
256
6
ByLayer
370
13
48
1
60
0
100
AcDbEllipse
10
52.16419
20
21.695388
30
0
11
-0.102096483414469
21
-0.282092729566714
31
0
210
0
220
0
230
1
40
0.694069
41
0.542728458704468
42
1.76594516923874
0
ELLIPSE
5
14C
100
AcDbEntity
8
1
62
256
6
ByLayer
370
13
48
1
60
0
100
AcDbEllipse
10
52.261247
20
21.653295
30
0
11
0.136500727004937
21
0.267147059738871
31
0
210
0
220
0
230
1
40
0.677974
41
-1.35487317172655
42
-1.28974538225852
0
ELLIPSE
5
14D
100
AcDbEntity
8
1
62
256
6
ByLayer
370
13
48
1
60
0
100
AcDbEllipse
10
52.261247
20
20.346705
30
0
11
-0.136500727005176
21
0.267147059738748
31
0
210
0
220
0
230
1
40
0.677974
41
-1.85184727133187
42
-1.78671948186545
0
ELLIPSE
5
14E
100
AcDbEntity
8
1
62
256
6
ByLayer
370
13
48
1
60
0
100
AcDbEllipse
10
52.16419
20
20.304612
30
0
11
0.10209648341447
21
-0.282092729566714
31
0
210
0
220
0
230
1
40
0.694069
41
1.37564748435105
42
2.59886419488533
0
ELLIPSE
5
14F
100
AcDbEntity
8
1
62
256
6
ByLayer
370
13
48
1
60
0
100
AcDbEllipse
10
51.144976
20
21.398381
30
0
11
0.0716898187935411
21
-0.131759515335133
31
0
210
0
220
0
230
1
40
0.304525
41
-1.73499558697385
42
-0.893380334272797
0
ELLIPSE
5
150
100
AcDbEntity
8
1
62
256
6
ByLayer
370
13
48
1
60
0
100
AcDbEllipse
10
51.144976
20
20.601619
30
0
11
0.0716898187946788
21
0.131759515334514
31
0
210
0
220
0
230
1
40
0.304525
41
0.893380334283853
42
1.73499558700905
0
ELLIPSE
5
151
100
AcDbEntity
8
1
62
256
6
ByLayer
370
13
48
1
60
0
100
AcDbEllipse
10
52.268095
20
20.36856
30
0
11
0.171518916221875
21
0.16787275353098
31
0
210
0
220
0
230
1
40
0.082052
41
0.518298817417801
42
0.779655640507503
0
ELLIPSE
5
152
100
AcDbEntity
8
1
62
256
6
ByLayer
370
13
48
1
60
0
100
AcDbEllipse
10
52.302479
20
20.353337
30
0
11
0.0417762271290194
21
0.236336088752574
31
0
210
0
220
0
230
1
40
0.675324
41
-1.34029986666137
42
-0.746155527792959
0
ELLIPSE
5
153
100
AcDbEntity
8
1
62
256
6
ByLayer
370
13
48
1
60
0
100
AcDbEllipse
10
52.302479
20
21.646663
30
0
11
-0.0417762271294201
21
0.236336088752503
31
0
210
0
220
0
230
1
40
0.675324
41
-2.39543712579798
42
-1.8012927869314
0
ELLIPSE
5
154
100
AcDbEntity
8
1
62
256
6
ByLayer
370
13
48
1
60
0
100
AcDbEllipse
10
53.291288
20
20.706548
30
0
11
-0.114657467550524
21
-0.383214907245139
31
0
210
0
220
0
230
1
40
0.149521
41
-1.52608952887373
42
-0.632305349725142
0
ELLIPSE
5
155
100
AcDbEntity
8
1
62
256
6
ByLayer
370
13
48
1
60
0
100
AcDbEllipse
10
51.176259
20
21.479243
30
0
11
0.111438992389702
21
0.278534290483538
31
0
210
0
220
0
230
1
40
0.391057
41
-2.99672437051151
42
-2.1633092404352
0
ELLIPSE
5
156
100
AcDbEntity
8
1
62
256
6
ByLayer
370
13
48
1
60
0
100
AcDbEllipse
10
51.176259
20
20.520757
30
0
11
-0.111438992389677
21
0.278534290483548
31
0
210
0
220
0
230
1
40
0.391057
41
-0.978283413154652
42
-0.144868283078221
0
ELLIPSE
5
157
100
AcDbEntity
8
1
62
256
6
ByLayer
370
13
48
1
60
0
100
AcDbEllipse
10
52.252499
20
20.42942
30
0
11
0.29766898486033
21
0.0373252656014786
31
0
210
0
220
0
230
1
40
0.756445
41
0.856307358412499
42
1.39678515212251
0
ELLIPSE
5
158
100
AcDbEntity
8
1
62
256
6
ByLayer
370
13
48
1
60
0
100
AcDbEllipse
10
52.252499
20
21.57058
30
0
11
-0.297668984860324
21
0.0373252656015258
31
0
210
0
220
0
230
1
40
0.756445
41
1.74480750146741
42
2.28528529517746
0
ELLIPSE
5
159
100
AcDbEntity
8
1
62
256
6
ByLayer
370
13
48
1
60
0
100
AcDbEllipse
10
53.291288
20
21.293452
30
0
11
-0.114657467550524
21
0.383214907245139
31
0
210
0
220
0
230
1
40
0.149521
41
0.632305349725142
42
1.52608952887373
0
ELLIPSE
5
15A
100
AcDbEntity
8
1
62
256
6
ByLayer
370
13
48
1
60
0
100
AcDbEllipse
10
51.048488
20
20.616805
30
0
11
-0.0204696158072206
21
0.148596752416413
31
0
210
0
220
0
230
1
40
0.33919
41
0.367590503029178
42
1.52410589159643
0
ELLIPSE
5
15B
100
AcDbEntity
8
1
62
256
6
ByLayer
370
13
48
1
60
0
100
AcDbEllipse
10
51.048488
20
21.383195
30
0
11
0.0204696158039751
21
0.14859675241686
31
0
210
0
220
0
230
1
40
0.33919
41
1.61748676198876
42
2.774002150552
0
ELLIPSE
5
15C
100
AcDbEntity
8
1
62
256
6
ByLayer
370
13
48
1
60
0
100
AcDbEllipse
10
51.167717
20
21.482663
30
0
11
0.111594752970791
21
0.278471921581671
31
0
210
0
220
0
230
1
40
0.394318
41
-2.9966072438602
42
-2.16841033890652
0
ELLIPSE
5
15D
100
AcDbEntity
8
1
62
256
6
ByLayer
370
13
48
1
60
0
100
AcDbEllipse
10
51.167717
20
20.517337
30
0
11
-0.111594752970814
21
0.278471921581661
31
0
210
0
220
0
230
1
40
0.394318
41
-0.973182314683348
42
-0.144985409729619
0
ELLIPSE
5
15E
100
AcDbEntity
8
1
62
256
6
ByLayer
370
13
48
1
60
0
100
AcDbEllipse
10
51.014981
20
21.393907
30
0
11
0.0722486702513559
21
0.131453906929048
31
0
210
0
220
0
230
1
40
0.303884
41
1.73628735495838
42
2.71919261109674
0
ELLIPSE
5
15F
100
AcDbEntity
8
1
62
256
6
ByLayer
370
13
48
1
60
0
100
AcDbEllipse
10
51.014981
20
20.606093
30
0
11
-0.0722486702265449
21
0.131453906942685
31
0
210
0
220
0
230
1
40
0.303884
41
0.42240004219499
42
1.40530529868886
0
ELLIPSE
5
160
100
AcDbEntity
8
1
62
256
6
ByLayer
370
13
48
1
60
0
100
AcDbEllipse
10
52.293937
20
20.869004
30
0
11
0.288517367888856
21
-0.0822054038764276
31
0
210
0
220
0
230
1
40
0.201316
41
0.955679576570877
42
1.50320190071239
0
ELLIPSE
5
161
100
AcDbEntity
8
1
62
256
6
ByLayer
370
13
48
1
60
0
100
AcDbEllipse
10
50.992833
20
21.412554
30
0
11
0.122999586129777
21
0.0858551210581151
31
0
210
0
220
0
230
1
40
0.203946
41
1.85506502495937
42
2.61874247938658
0
ELLIPSE
5
162
100
AcDbEntity
8
1
62
256
6
ByLayer
370
13
48
1
60
0
100
AcDbEllipse
10
50.992833
20
20.587446
30
0
11
-0.122999586130244
21
0.0858551210574456
31
0
210
0
220
0
230
1
40
0.203946
41
0.522850174197462
42
1.28652762862998
0
ELLIPSE
5
163
100
AcDbEntity
8
1
62
256
6
ByLayer
370
13
48
1
60
0
100
AcDbEllipse
10
52.293937
20
21.130996
30
0
11
-0.288517367888757
21
-0.0822054038767749
31
0
210
0
220
0
230
1
40
0.201316
41
1.63839075288013
42
2.18591307702128
0
ELLIPSE
5
164
100
AcDbEntity
8
1
62
256
6
ByLayer
370
13
48
1
60
0
100
AcDbEllipse
10
50.978252
20
21.438419
30
0
11
0.136631968823999
21
0.0619007681315656
31
0
210
0
220
0
230
1
40
0.148534
41
1.88760878179938
42
2.74962710514653
0
ELLIPSE
5
165
100
AcDbEntity
8
1
62
256
6
ByLayer
370
13
48
1
60
0
100
AcDbEllipse
10
50.978252
20
20.561581
30
0
11
0.136631968824137
21
-0.0619007681312608
31
0
210
0
220
0
230
1
40
0.148534
41
-2.74962710515965
42
-1.88760878179984
0
ELLIPSE
5
166
100
AcDbEntity
8
1
62
256
6
ByLayer
370
13
48
1
60
0
100
AcDbEllipse
10
50.838501
20
20.274562
30
0
11
0.132407679423122
21
-0.0704855051041258
31
0
210
0
220
0
230
1
40
0.168583
41
-2.61018272665914
42
-1.87748899426518
0
ELLIPSE
5
167
100
AcDbEntity
8
1
62
256
6
ByLayer
370
13
48
1
60
0
100
AcDbEllipse
10
50.838501
20
21.725438
30
0
11
0.132407679423122
21
0.0704855051041255
31
0
210
0
220
0
230
1
40
0.168583
41
1.87748899426514
42
2.61018272665897
0
ELLIPSE
5
168
100
AcDbEntity
8
1
62
256
6
ByLayer
370
13
48
1
60
0
100
AcDbEllipse
10
51.042406
20
21.430874
30
0
11
-0.0486052519780795
21
-0.194003941919095
31
0
210
0
220
0
230
1
40
0.669878
41
-0.55392855880331
42
-0.205864067887425
0
ELLIPSE
5
169
100
AcDbEntity
8
1
62
256
6
ByLayer
370
13
48
1
60
0
100
AcDbEllipse
10
51.022373
20
21.433936
30
0
11
5.665498452323E-17
21
0.2
31
0
210
0
220
0
230
1
40
0.909654
41
1.90677220782001
42
2.7252107293006
0
ELLIPSE
5
16A
100
AcDbEntity
8
1
62
256
6
ByLayer
370
13
48
1
60
0
100
AcDbEllipse
10
51.022373
20
20.566064
30
0
11
5.665498452323E-17
21
0.2
31
0
210
0
220
0
230
1
40
0.909654
41
0.416381924289197
42
1.23482044577494
0
ELLIPSE
5
16B
100
AcDbEntity
8
1
62
256
6
ByLayer
370
13
48
1
60
0
100
AcDbEllipse
10
51.042406
20
20.569126
30
0
11
-0.0486052519780804
21
0.194003941919095
31
0
210
0
220
0
230
1
40
0.669878
41
0.205864067887425
42
0.553928558476762
0
ELLIPSE
5
16C
100
AcDbEntity
8
1
62
256
6
ByLayer
370
13
48
1
60
0
100
AcDbEllipse
10
50.838501
20
20.274562
30
0
11
4.24912383924225E-17
21
0.15
31
0
210
0
220
0
230
1
40
0.848573
41
1.23482044578598
42
1.5707963267949
0
ELLIPSE
5
16D
100
AcDbEntity
8
1
62
256
6
ByLayer
370
13
48
1
60
0
100
AcDbEllipse
10
50.838501
20
21.725438
30
0
11
4.24912383924225E-17
21
0.15
31
0
210
0
220
0
230
1
40
0.848573
41
1.5707963267949
42
1.90677220780386
0
ELLIPSE
5
16E
100
AcDbEntity
8
1
62
256
6
ByLayer
370
13
48
1
60
0
100
AcDbEllipse
10
50.534034
20
21.433936
30
0
11
5.665498452323E-17
21
0.2
31
0
210
0
220
0
230
1
40
0.34202
41
1.90677220780379
42
2.72521072930056
0
ELLIPSE
5
16F
100
AcDbEntity
8
1
62
256
6
ByLayer
370
13
48
1
60
0
100
AcDbEllipse
10
50.534034
20
20.566064
30
0
11
-3.67381906146713E-17
21
-0.2
31
0
210
0
220
0
230
1
40
0.34202
41
-2.72521072930056
42
-1.90677220780379
0
ELLIPSE
5
170
100
AcDbEntity
8
1
62
256
6
ByLayer
370
13
48
1
60
0
100
AcDbEllipse
10
50.78303
20
18.919859
30
0
11
-3.67381906146715E-16
21
-2.00000000000001
31
0
210
0
220
0
230
1
40
0.34202
41
-2.79252680319093
42
-2.72521072930059
0
ELLIPSE
5
171
100
AcDbEntity
8
1
62
256
6
ByLayer
370
13
48
1
60
0
100
AcDbEllipse
10
50.481103
20
20.274562
30
0
11
-2.75536429610035E-17
21
-0.15
31
0
210
0
220
0
230
1
40
0.34202
41
-1.90677220780383
42
-1.5707963267949
0
ELLIPSE
5
172
100
AcDbEntity
8
1
62
256
6
ByLayer
370
13
48
1
60
0
100
AcDbEllipse
10
50.78303
20
23.080141
30
0
11
5.66549845232303E-16
21
2.00000000000001
31
0
210
0
220
0
230
1
40
0.34202
41
2.72521072930059
42
2.79252680319093
0
ELLIPSE
5
173
100
AcDbEntity
8
1
62
256
6
ByLayer
370
13
48
1
60
0
100
AcDbEllipse
10
50.481103
20
21.725438
30
0
11
4.24912383924225E-17
21
0.15
31
0
210
0
220
0
230
1
40
0.34202
41
1.5707963267949
42
1.90677220780383
0
ELLIPSE
5
174
100
AcDbEntity
8
1
62
256
6
ByLayer
370
13
48
1
60
0
100
AcDbEllipse
10
54.222654
20
21.891305
30
0
11
0.00588101291965487
21
-0.239927934361631
31
0
210
0
220
0
230
1
40
0.175234
41
-1.50631558565102
42
-0.750535400473062
0
ELLIPSE
5
175
100
AcDbEntity
8
1
62
256
6
ByLayer
370
13
48
1
60
0
100
AcDbEllipse
10
54.222654
20
20.108695
30
0
11
0.00588101291965508
21
0.239927934361631
31
0
210
0
220
0
230
1
40
0.175234
41
0.750535400473082
42
1.50631558565105
0
ELLIPSE
5
176
100
AcDbEntity
8
1
62
256
6
ByLayer
370
13
48
1
60
0
100
AcDbEllipse
10
50.527723
20
21
30
0
11
5.94877337493915E-17
21
0.21
31
0
210
0
220
0
230
1
40
0.34202
41
-2.79252680319093
42
-0.349065850398866
0
ELLIPSE
5
177
100
AcDbEntity
8
1
62
256
6
ByLayer
370
13
48
1
60
0
100
AcDbEllipse
10
54.75209
20
21.687793
30
0
11
-0.0532002340369042
21
-0.0846742882959085
31
0
210
0
220
0
230
1
40
0.139782
41
0.739654044676881
42
1.57684789387821
0
ELLIPSE
5
178
100
AcDbEntity
8
1
62
256
6
ByLayer
370
13
48
1
60
0
100
AcDbEllipse
10
54.913506
20
21.538045
30
0
11
-0.0833195870797989
21
-0.0552977975045282
31
0
210
0
220
0
230
1
40
0.125168
41
1.00901921834427
42
1.63384778655104
0
ELLIPSE
5
179
100
AcDbEntity
8
1
62
256
6
ByLayer
370
13
48
1
60
0
100
AcDbEllipse
10
54.75209
20
20.312207
30
0
11
-0.0532002340369041
21
0.0846742882959086
31
0
210
0
220
0
230
1
40
0.139782
41
-1.57684789387814
42
-0.73965404467726
0
ELLIPSE
5
17A
100
AcDbEntity
8
1
62
256
6
ByLayer
370
13
48
1
60
0
100
AcDbEllipse
10
54.913506
20
20.461955
30
0
11
-0.0833195870797989
21
0.0552977975045282
31
0
210
0
220
0
230
1
40
0.125168
41
-1.63384778655104
42
-1.00901921834479
0
ELLIPSE
5
17B
100
AcDbEntity
8
1
62
256
6
ByLayer
370
13
48
1
60
0
100
AcDbEllipse
10
54.441387
20
20.647871
30
0
11
0.0115886927836044
21
0.399832092508302
31
0
210
0
220
0
230
1
40
0.406594
41
-2.3232525177661
42
-1.55901218905987
0
ELLIPSE
5
17C
100
AcDbEntity
8
1
62
256
6
ByLayer
370
13
48
1
60
0
100
AcDbEllipse
10
54.694545
20
20.276324
30
0
11
-0.0526170259943807
21
0.0850379243367727
31
0
210
0
220
0
230
1
40
0.13982
41
-1.57588705481515
42
-0.737799907002018
0
ELLIPSE
5
17D
100
AcDbEntity
8
1
62
256
6
ByLayer
370
13
48
1
60
0
100
AcDbEllipse
10
54.441387
20
21.352129
30
0
11
0.0115886927836045
21
-0.399832092508302
31
0
210
0
220
0
230
1
40
0.406594
41
1.55901218905986
42
2.32325251776614
0
ELLIPSE
5
17E
100
AcDbEntity
8
1
62
256
6
ByLayer
370
13
48
1
60
0
100
AcDbEllipse
10
54.598358
20
20.199622
30
0
11
0.0768343605824262
21
-0.0640037579669329
31
0
210
0
220
0
230
1
40
0.131171
41
1.52167934605473
42
1.98237212656342
0
ELLIPSE
5
17F
100
AcDbEntity
8
1
62
256
6
ByLayer
370
13
48
1
60
0
100
AcDbEllipse
10
54.598358
20
21.800378
30
0
11
0.0768343605824262
21
0.0640037579669328
31
0
210
0
220
0
230
1
40
0.131171
41
-1.98237212656355
42
-1.52167934605466
0
ELLIPSE
5
180
100
AcDbEntity
8
1
62
256
6
ByLayer
370
13
48
1
60
0
100
AcDbEllipse
10
54.694545
20
21.723676
30
0
11
-0.0526170259943807
21
-0.0850379243367726
31
0
210
0
220
0
230
1
40
0.13982
41
0.73779990700197
42
1.57588705481515
0
ELLIPSE
5
181
100
AcDbEntity
8
1
62
256
6
ByLayer
370
13
48
1
60
0
100
AcDbEllipse
10
53.833781
20
20.116497
30
0
11
-0.00779618045171957
21
0.239873340682878
31
0
210
0
220
0
230
1
40
0.002272
41
-1.50102006034378
42
-0.730980747441888
0
ELLIPSE
5
182
100
AcDbEntity
8
1
62
256
6
ByLayer
370
13
48
1
60
0
100
AcDbEllipse
10
53.833781
20
21.883503
30
0
11
-0.00779618045171942
21
-0.239873340682878
31
0
210
0
220
0
230
1
40
0.002272
41
0.730980747432926
42
1.50102006034287
0
ELLIPSE
5
183
100
AcDbEntity
8
1
62
256
6
ByLayer
370
13
48
1
60
0
100
AcDbEllipse
10
54.935851
20
21.503425
30
0
11
-0.0846406472330468
21
-0.0532537401125116
31
0
210
0
220
0
230
1
40
0.065248
41
1.04586785899653
42
1.67413113259308
0
ELLIPSE
5
184
100
AcDbEntity
8
1
62
256
6
ByLayer
370
13
48
1
60
0
100
AcDbEllipse
10
54.935851
20
20.496575
30
0
11
-0.0846406472330468
21
0.0532537401125117
31
0
210
0
220
0
230
1
40
0.065248
41
-1.67413113259322
42
-1.04586785899628
0
ELLIPSE
5
185
100
AcDbEntity
8
1
62
256
6
ByLayer
370
13
48
1
60
0
100
AcDbEllipse
10
47.074248
20
20.130414
30
0
11
0.979582052357068
21
0.301726209236647
31
0
210
0
220
0
230
-1
40
0.270086
41
-2.11639244204281
42
-1.98807590267513
0
ELLIPSE
5
186
100
AcDbEntity
8
1
62
256
6
ByLayer
370
13
48
1
60
0
100
AcDbEllipse
10
47.074248
20
21.869586
30
0
11
0.979582052483816
21
-0.301726209251565
31
0
210
0
220
0
230
-1
40
0.270086
41
1.98807590271929
42
2.11639244207334
0
ELLIPSE
5
187
100
AcDbEntity
8
1
62
256
6
ByLayer
370
13
48
1
60
0
100
AcDbEllipse
10
47.074248
20
21.869586
30
0
11
0.998914190303573
21
-0.226032306348352
31
0
210
0
220
0
230
-1
40
0.206112
41
1.87325735018886
42
2.07998265351799
0
ELLIPSE
5
188
100
AcDbEntity
8
1
62
256
6
ByLayer
370
18
48
1
60
0
100
AcDbEllipse
10
54.581337
20
20.023913
30
0
11
0.239998278017565
21
-0.0147981978565812
31
0
210
0
220
0
230
-1
40
0.061458
41
1.4451284809774
42
1.74112318434372
0
ELLIPSE
5
189
100
AcDbEntity
8
1
62
256
6
ByLayer
370
18
48
1
60
0
100
AcDbEllipse
10
52.048461
20
20.333076
30
0
11
0.057752929499109
21
0.191891975732293
31
0
210
-1.59650527093405E-15
220
-7.67208394159938E-18
230
1
40
0.998032
41
2.91077570167875
42
-2.91077570167873
0
ELLIPSE
5
18A
100
AcDbEntity
8
1
62
256
6
ByLayer
370
18
48
1
60
0
100
AcDbEllipse
10
51.82387
20
22
30
0
11
0.201490790302156
21
0
31
0
210
0
220
0
230
1
40
0.992601
41
-1.5707963267949
42
-1.04397591016874
0
ELLIPSE
5
18B
100
AcDbEntity
8
1
62
256
6
ByLayer
370
18
48
1
60
0
100
AcDbEllipse
10
54.581337
20
21.976087
30
0
11
0.239998276277819
21
0.0147981977542073
31
0
210
0
220
0
230
-1
40
0.061458
41
-1.74112318525668
42
-1.44512847973032
0
ELLIPSE
5
18C
100
AcDbEntity
8
1
62
256
6
ByLayer
370
18
48
1
60
0
100
AcDbEllipse
10
52.163726
20
20.143661
30
0
11
0.30202494815557
21
-0.0186199320931964
31
0
210
0
220
0
230
-1
40
0.060635
41
0.77616608923353
42
1.56278371215666
0
ELLIPSE
5
18D
100
AcDbEntity
8
1
62
256
6
ByLayer
370
18
48
1
60
0
100
AcDbEllipse
10
52.048461
20
21.666924
30
0
11
0.0577529294991086
21
-0.191891975732293
31
0
210
-1.62972770132427E-15
220
-2.32673269882162E-18
230
1
40
0.998032
41
2.91077570167873
42
-2.91077570167875
0
ELLIPSE
5
18E
100
AcDbEntity
8
1
62
256
6
ByLayer
370
18
48
1
60
0
100
AcDbEllipse
10
55.048748
20
20.496575
30
0
11
1.1330996904646E-16
21
0.4
31
0
210
0
220
0
230
1
40
0.121869
41
1.5707963267949
42
1.64009079051253
0
ELLIPSE
5
18F
100
AcDbEntity
8
1
62
256
6
ByLayer
370
18
48
1
60
0
100
AcDbEllipse
10
52.163726
20
21.856339
30
0
11
0.30202494813085
21
0.0186199320907117
31
0
210
0
220
0
230
-1
40
0.060635
41
-1.56278371220985
42
-0.776166089226708
0
ELLIPSE
5
190
100
AcDbEntity
8
1
62
256
6
ByLayer
370
18
48
1
60
0
100
AcDbEllipse
10
51.82387
20
20
30
0
11
-0.201490790302156
21
2.46746902040712E-17
31
0
210
0
220
0
230
1
40
0.992601
41
-2.09761674342106
42
-1.5707963267949
0
ELLIPSE
5
191
100
AcDbEntity
8
1
62
256
6
ByLayer
370
18
48
1
60
0
100
AcDbEllipse
10
55.048748
20
21.503425
30
0
11
1.1330996904646E-16
21
0.4
31
0
210
0
220
0
230
1
40
0.121869
41
1.50150186307724
42
1.5707963267949
0
POINT
5
6C
100
AcDbEntity
8
81
62
256
6
ByLayer
370
18
48
1
60
0
100
AcDbPoint
10
55
20
22
30
0
39
0
210
0
220
0
230
1
50
360
0
POINT
5
6E
100
AcDbEntity
8
80
62
256
6
ByLayer
370
18
48
1
60
0
100
AcDbPoint
10
0
20
0
30
0
39
0
210
0
220
0
230
1
50
360
0
SPLINE
5
192
100
AcDbEntity
8
SK1
62
256
6
ByLayer
370
13
48
1
60
0
100
AcDbSpline
70
4
71
2
72
6
73
3
40
0
40
0
40
0
40
1
40
1
40
1
41
1
10
-17.9999999999999
20
-10.607592753875
30
0
41
1
10
-9.74999999580726
20
-10.8147118141342
30
0
41
1
10
-1.5
20
-11.0218291766808
30
0
0
SPLINE
5
193
100
AcDbEntity
8
SK1
62
256
6
ByLayer
370
13
48
1
60
0
100
AcDbSpline
70
4
71
2
72
6
73
3
40
0
40
0
40
0
40
1
40
1
40
1
41
1
10
-1.49999999999997
20
11.021829034714
30
0
41
1
10
-9.74999999580729
20
10.8147116728235
30
0
41
1
10
-18
20
10.6075926131751
30
0
0
SPLINE
5
194
100
AcDbEntity
8
SK1
62
256
6
ByLayer
370
13
48
1
60
0
100
AcDbSpline
70
4
71
2
72
6
73
3
40
0
40
0
40
0
40
1
40
1
40
1
41
1
10
-19
20
-10.0329645549392
30
0
41
1
10
-18.4999993685751
20
-10.3214765556861
30
0
41
1
10
-17.9999999999999
20
-10.6099829102617
30
0
0
SPLINE
5
195
100
AcDbEntity
8
SK1
62
256
6
ByLayer
370
13
48
1
60
0
100
AcDbSpline
70
4
71
2
72
6
73
3
40
0
40
0
40
0
40
1
40
1
40
1
41
1
10
-18
20
10.6099827775056
30
0
41
1
10
-18.4999993686076
20
10.3214764228909
30
0
41
1
10
-18.9999999999999
20
10.0329644221717
30
0
0
SPLINE
5
196
100
AcDbEntity
8
SK1
62
256
6
ByLayer
370
13
48
1
60
0
100
AcDbSpline
70
4
71
3
72
13
73
9
40
0
40
0
40
0
40
0
40
0.239519409344985
40
0.368436717937904
40
0.500075274086371
40
0.631702862900147
40
0.760587757609281
40
1
40
1
40
1
40
1
41
1
10
-1.29503997793927
20
10.8302906518511
30
0
41
1
10
-1.32110811439466
20
10.8298878106463
30
0
41
1
10
-1.35883625148526
20
10.8360574938784
30
0
41
1
10
-1.40627518083028
20
10.859091779441
30
0
41
1
10
-1.4388625927059
20
10.8842489053808
30
0
41
1
10
-1.46563525678502
20
10.9155177526731
30
0
41
1
10
-1.49103252451872
20
10.9617179528093
30
0
41
1
10
-1.49909162766019
20
10.9990755987901
30
0
41
1
10
-1.49999999999997
20
11.0251228679297
30
0
0
SPLINE
5
197
100
AcDbEntity
8
SK1
62
256
6
ByLayer
370
13
48
1
60
0
100
AcDbSpline
70
4
71
3
72
13
73
9
40
0
40
0
40
0
40
0
40
0.239418216240493
40
0.368302331661158
40
0.499928754022162
40
0.631568038325976
40
0.760485869348447
40
1
40
1
40
1
40
1
41
1
10
-1.5
20
-11.0251229634028
30
0
41
1
10
-1.49909191796945
20
-10.9990761096856
30
0
41
1
10
-1.49103287968458
20
-10.9617189548704
30
0
41
1
10
-1.46563532904136
20
-10.9155178559453
30
0
41
1
10
-1.4388623293676
20
-10.8842487422284
30
0
41
1
10
-1.40627519739922
20
-10.8590919385496
30
0
41
1
10
-1.35883704267303
20
-10.8360578591166
30
0
41
1
10
-1.32110848256451
20
-10.8298881386429
30
0
41
1
10
-1.29503997793927
20
-10.8302907478373
30
0
0
SPLINE
5
198
100
AcDbEntity
8
SK1
62
256
6
ByLayer
370
13
48
1
60
0
100
AcDbSpline
70
4
71
3
72
17
73
13
40
0
40
0
40
0
40
0
40
0.0509999793995373
40
0.120748333636525
40
0.260245042110501
40
0.399741750584476
40
0.539238459058452
40
0.678735167532428
40
0.818231876006404
40
0.887980230243391
40
0.957728584480379
40
1
40
1
40
1
40
1
41
1
10
-1.29503997793927
20
10.8302903739858
30
0
41
1
10
-1.29503997793924
20
10.8303490927512
30
0
41
1
10
-1.2950399779393
20
10.8084520183506
30
0
41
1
10
-1.29503997793927
20
10.6595078070701
30
0
41
1
10
-1.29503997793927
20
10.2500351152373
30
0
41
1
10
-1.2950399779393
20
9.47349094524563
30
0
41
1
10
-1.29503997793927
20
8.44264434291844
30
0
41
1
10
-1.29503997793927
20
7.17735249314515
30
0
41
1
10
-1.29503997793927
20
5.93905418532486
30
0
41
1
10
-1.2950399779393
20
4.84051419704483
30
0
41
1
10
-1.29503997793927
20
4.08014769325373
30
0
41
1
10
-1.29503997793927
20
3.58970381899354
30
0
41
1
10
-1.29503997793927
20
3.40161292972346
30
0
0
SPLINE
5
199
100
AcDbEntity
8
SK1
62
256
6
ByLayer
370
13
48
1
60
0
100
AcDbSpline
70
4
71
3
72
8
73
4
40
0
40
0
40
0
40
0
40
1
40
1
40
1
40
1
41
1
10
-1.3154350650949
20
3.31204737779217
30
0
41
1
10
-1.30849408531824
20
3.34178487516789
30
0
41
1
10
-1.30169623454364
20
3.37164876172554
30
0
41
1
10
-1.29503997793927
20
3.40161292972346
30
0
0
SPLINE
5
19A
100
AcDbEntity
8
SK1
62
256
6
ByLayer
370
13
48
1
60
0
100
AcDbSpline
70
4
71
3
72
26
73
22
40
0
40
0
40
0
40
0
40
0.309980198120424
40
0.309980198120424
40
0.466121127892235
40
0.466121127892235
40
0.495339935924391
40
0.495339935924391
40
0.508478349915675
40
0.508478349915675
40
0.521870142767214
40
0.521870142767214
40
0.533321486910194
40
0.533321486910194
40
0.546914826759166
40
0.546914826759166
40
0.571024540940252
40
0.571024540940252
40
0.650283827224024
40
0.650283827224024
40
1
40
1
40
1
40
1
41
1
10
-1.5
20
3.43390926803397
30
0
41
1
10
-1.49957809424501
20
3.34972498522018
30
0
41
1
10
-1.49765792801546
20
3.26436078219501
30
0
41
1
10
-1.48532705686961
20
3.13479536440917
30
0
41
1
10
-1.48076412648987
20
3.08989854362844
30
0
41
1
10
-1.46447634382204
20
3.03979293840359
30
0
41
1
10
-1.46141372751504
20
3.03180695978662
30
0
41
1
10
-1.45566120817688
20
3.02143998205969
30
0
41
1
10
-1.45365299428388
20
3.01835783654903
30
0
41
1
10
-1.44914914006583
20
3.01303026786172
30
0
41
1
10
-1.44656555604135
20
3.01074941382316
30
0
41
1
10
-1.44159424050377
20
3.00807571495125
30
0
41
1
10
-1.4391733263669
20
3.00743313813294
30
0
41
1
10
-1.43412760501772
20
3.00729376115279
30
0
41
1
10
-1.43146783274835
20
3.00799377806226
30
0
41
1
10
-1.42468428977531
20
3.01114999104289
30
0
41
1
10
-1.42082982648512
20
3.01451655258887
30
0
41
1
10
-1.4059753701313
20
3.0306734226341
30
0
41
1
10
-1.39753320304288
20
3.04757090687556
30
0
41
1
10
-1.35607798742194
20
3.13969304848789
30
0
41
1
10
-1.33538442090901
20
3.22657761195478
30
0
41
1
10
-1.31543506509431
20
3.31204737779177
30
0
0
SPLINE
5
19B
100
AcDbEntity
8
SK1
62
256
6
ByLayer
370
13
48
1
60
0
100
AcDbSpline
70
4
71
3
72
24
73
20
40
0
40
0
40
0
40
0
40
0.128387595315573
40
0.128387595315573
40
0.159816787059095
40
0.159816787059095
40
0.191913564337952
40
0.191913564337952
40
0.209621992350529
40
0.209621992350529
40
0.227357368928936
40
0.227357368928936
40
0.251017095038201
40
0.251017095038201
40
0.293042868277714
40
0.293042868277714
40
0.426109841035406
40
0.426109841035406
40
1
40
1
40
1
40
1
41
1
10
-0.194976888875288
20
4.37579881180471
30
0
41
1
10
-0.181376609846751
20
4.35077182852044
30
0
41
1
10
-0.166084452907398
20
4.32613296449406
30
0
41
1
10
-0.140434718547596
20
4.30354219591217
30
0
41
1
10
-0.134934284841819
20
4.29948916182246
30
0
41
1
10
-0.122846025128155
20
4.29329535928468
30
0
41
1
10
-0.116020442370512
20
4.291119175788
30
0
41
1
10
-0.104884728675899
20
4.29110815705081
30
0
41
1
10
-0.100717557341881
20
4.29180717572177
30
0
41
1
10
-0.092685382189444
20
4.29472464897358
30
0
41
1
10
-0.0887307273814599
20
4.29697782288562
30
0
41
1
10
-0.0803221045946714
20
4.30341451620885
30
0
41
1
10
-0.0759893926375526
20
4.30805199521828
30
0
41
1
10
-0.0654876521095673
20
4.32177471162365
30
0
41
1
10
-0.0601619056928371
20
4.33174670235809
30
0
41
1
10
-0.0414836434767381
20
4.3733520050788
30
0
41
1
10
-0.0338202360855178
20
4.40700915264009
30
0
41
1
10
-0.0008505118824473
20
4.5804135203509
30
0
41
1
10
2.84E-14
20
4.71858084962949
30
0
41
1
10
2.84E-14
20
4.85235826679369
30
0
0
SPLINE
5
19C
100
AcDbEntity
8
SK1
62
256
6
ByLayer
370
13
48
1
60
0
100
AcDbSpline
70
4
71
3
72
15
73
11
40
0
40
0
40
0
40
0
40
0.0439605062749933
40
0.124435874054444
40
0.285386609613346
40
0.446337345172248
40
0.60728808073115
40
0.768238816290053
40
0.929189551848955
40
1
40
1
40
1
40
1
41
1
10
-0.19497688887526
20
-4.37579839097918
30
0
41
1
10
-0.19497688887526
20
-4.53596249036644
30
0
41
1
10
-0.19497688887526
20
-4.98207705649142
30
0
41
1
10
-0.19497688887526
20
-5.95785489884699
30
0
41
1
10
-0.19497688887526
20
-7.19854374618669
30
0
41
1
10
-0.19497688887526
20
-8.46600649183355
30
0
41
1
10
-0.194976888875288
20
-9.4985901119361
30
0
41
1
10
-0.19497688887526
20
-10.2764914380925
30
0
41
1
10
-0.194976888875288
20
-10.6769305434497
30
0
41
1
10
-0.194976888875288
20
-10.7969738327038
30
0
41
1
10
-0.194976888875288
20
-10.8215957545436
30
0
0
SPLINE
5
19D
100
AcDbEntity
8
SK1
62
256
6
ByLayer
370
13
48
1
60
0
100
AcDbSpline
70
4
71
3
72
17
73
13
40
0
40
0
40
0
40
0
40
0.0666167807423333
40
0.134894810732752
40
0.271450870713588
40
0.408006930694425
40
0.544562990675262
40
0.681119050656099
40
0.817675110636936
40
0.885953140627354
40
0.954231170617772
40
1
40
1
40
1
40
1
41
1
10
-1.49999999999997
20
11.0218284678334
30
0
41
1
10
-1.49999999999997
20
11.0305322948879
30
0
41
1
10
-1.49999999999997
20
11.0128510512193
30
0
41
1
10
-1.49999999999997
20
10.8518854777454
30
0
41
1
10
-1.49999999999997
20
10.4366154663299
30
0
41
1
10
-1.5
20
9.65050521846041
30
0
41
1
10
-1.49999999999997
20
8.60740482444737
30
0
41
1
10
-1.49999999999997
20
7.32680518164273
30
0
41
1
10
-1.49999999999997
20
6.07164774177338
30
0
41
1
10
-1.49999999999997
20
4.95838603991953
30
0
41
1
10
-1.5
20
4.16680114754814
30
0
41
1
10
-1.5
20
3.6466397622508
30
0
41
1
10
-1.5
20
3.43390926802968
30
0
0
SPLINE
5
19E
100
AcDbEntity
8
SK1
62
256
6
ByLayer
370
13
48
1
60
0
100
AcDbSpline
70
4
71
3
72
17
73
13
40
0
40
0
40
0
40
0
40
0.0457689714788298
40
0.114047078905272
40
0.182325186331714
40
0.318881401184599
40
0.455437616037483
40
0.591993830890368
40
0.728550045743252
40
0.865106260596137
40
0.933384368022579
40
1
40
1
40
1
40
1
41
1
10
-1.5
20
-3.43390791500551
30
0
41
1
10
-1.5
20
-3.64663887345887
30
0
41
1
10
-1.5
20
-4.16680079382425
30
0
41
1
10
-1.5
20
-4.95838595424945
30
0
41
1
10
-1.5
20
-6.07164761580381
30
0
41
1
10
-1.5
20
-7.32680507487893
30
0
41
1
10
-1.5
20
-8.60740509388054
30
0
41
1
10
-1.50000000000003
20
-9.65050499182064
30
0
41
1
10
-1.49999999999997
20
-10.4366160019974
30
0
41
1
10
-1.50000000000003
20
-10.8518854949361
30
0
41
1
10
-1.5
20
-11.0128506935568
30
0
41
1
10
-1.49999999999997
20
-11.0305320514384
30
0
41
1
10
-1.5
20
-11.0218290118058
30
0
0
SPLINE
5
19F
100
AcDbEntity
8
SK1
62
256
6
ByLayer
370
13
48
1
60
0
100
AcDbSpline
70
4
71
3
72
28
73
24
40
0
40
0
40
0
40
0
40
0.512389772634334
40
0.512389772634334
40
0.598731913641448
40
0.598731913641448
40
0.676265860996732
40
0.676265860996732
40
0.732149327534516
40
0.732149327534516
40
0.756724770902804
40
0.756724770902804
40
0.781793306259776
40
0.781793306259776
40
0.799361847027143
40
0.799361847027143
40
0.816826010501218
40
0.816826010501218
40
0.846186813770149
40
0.846186813770149
40
0.905539732454707
40
0.905539732454707
40
1
40
1
40
1
40
1
41
1
10
2.84E-14
20
-4.85235750507857
30
0
41
1
10
2.84E-14
20
-4.73258035965063
30
0
41
1
10
-0.0021341972527011
20
-4.60969891010183
30
0
41
1
10
-0.0232786507929745
20
-4.46302637227453
30
0
41
1
10
-0.0269092785203497
20
-4.44166333235887
30
0
41
1
10
-0.0357027926591513
20
-4.40116175451527
30
0
41
1
10
-0.040640659174386
20
-4.38191437517199
30
0
41
1
10
-0.0520117846027972
20
-4.34944869087863
30
0
41
1
10
-0.0576636066332412
20
-4.33583294590233
30
0
41
1
10
-0.0685385681381661
20
-4.31781684750942
30
0
41
1
10
-0.0722984771588813
20
-4.31246867438284
30
0
41
1
10
-0.0809092003855767
20
-4.30291138710999
30
0
41
1
10
-0.0859393324078894
20
-4.29861365633278
30
0
41
1
10
-0.0951339015148562
20
-4.29362932415103
30
0
41
1
10
-0.0992015134457347
20
-4.29221665297061
30
0
41
1
10
-0.107162338092593
20
-4.29091978708698
30
0
41
1
10
-0.111142011696074
20
-4.29099599703514
30
0
41
1
10
-0.121216352207398
20
-4.29265629949023
30
0
41
1
10
-0.127113045571946
20
-4.29518639800173
30
0
41
1
10
-0.143301351325192
20
-4.30481339036547
30
0
41
1
10
-0.152491885174015
20
-4.31398732373037
30
0
41
1
10
-0.173901568135761
20
-4.33947815148514
30
0
41
1
10
-0.184949910857597
20
-4.35734694302408
30
0
41
1
10
-0.19497688887526
20
-4.37579839097918
30
0
0
SPLINE
5
1A0
100
AcDbEntity
8
SK1
62
256
6
ByLayer
370
13
48
1
60
0
100
AcDbSpline
70
4
71
3
72
28
73
24
40
0
40
0
40
0
40
0
40
0.512376218728447
40
0.512376218728447
40
0.598796503463906
40
0.598796503463906
40
0.676463520255161
40
0.676463520255161
40
0.732063551226682
40
0.732063551226682
40
0.756744297249716
40
0.756744297249716
40
0.781926249196817
40
0.781926249196817
40
0.799501894551847
40
0.799501894551847
40
0.816971939099063
40
0.816971939099063
40
0.846412145166614
40
0.846412145166614
40
0.906005120677744
40
0.906005120677744
40
1
40
1
40
1
40
1
41
1
10
2.84E-14
20
10.977857676254
30
0
41
1
10
2.84E-14
20
10.968940912515
30
0
41
1
10
-0.0021336807887451
20
10.9555532512504
30
0
41
1
10
-0.0232748724177725
20
10.9246518484713
30
0
41
1
10
-0.0269083003946378
20
10.9197287260977
30
0
41
1
10
-0.0357145212995249
20
10.9091097226555
30
0
41
1
10
-0.0406627960332742
20
10.9035431698626
30
0
41
1
10
-0.0520351547614553
20
10.892344182334
30
0
41
1
10
-0.0576624789276536
20
10.8871325052027
30
0
41
1
10
-0.0685022979991174
20
10.8783230690718
30
0
41
1
10
-0.0722755852240482
20
10.8753918789564
30
0
41
1
10
-0.0809223725233608
20
10.8691153689022
30
0
41
1
10
-0.0859779850563314
20
10.8656564118427
30
0
41
1
10
-0.0952029059708934
20
10.8598435694816
30
0
41
1
10
-0.0992734436413798
20
10.8574159266207
30
0
41
1
10
-0.107237119508483
20
10.8529290307915
30
0
41
1
10
-0.111216792366861
20
10.850816610328
30
0
41
1
10
-0.121305075823159
20
10.8457309056932
30
0
41
1
10
-0.127212828813697
20
10.8430398605585
30
0
41
1
10
-0.143444252916026
20
10.8361482507472
30
0
41
1
10
-0.152658694618509
20
10.832930382725
30
0
41
1
10
-0.174005802157183
20
10.8262219540922
30
0
41
1
10
-0.184997875213014
20
10.8236106982458
30
0
41
1
10
-0.194976888875288
20
10.8215956059619
30
0
0
SPLINE
5
1A1
100
AcDbEntity
8
SK1
62
256
6
ByLayer
370
13
48
1
60
0
100
AcDbSpline
70
4
71
3
72
12
73
8
40
0
40
0
40
0
40
0
40
0.5
40
0.5
40
0.75
40
0.75
40
1
40
1
40
1
40
1
41
1
10
-1.29503997793927
20
-10.8279546620411
30
0
41
1
10
-1.21965219531936
20
-10.8379486625118
30
0
41
1
10
-1.13233363849665
20
-10.8263834256097
30
0
41
1
10
-0.888368938463316
20
-10.7902737230075
30
0
41
1
10
-0.782056939225924
20
-10.7672468480772
30
0
41
1
10
-0.381383282450173
20
-10.7768463845487
30
0
41
1
10
-0.275882860919495
20
-10.8052581480331
30
0
41
1
10
-0.19497688887526
20
-10.8215957545436
30
0
0
SPLINE
5
1A2
100
AcDbEntity
8
SK1
62
256
6
ByLayer
370
13
48
1
60
0
100
AcDbSpline
70
4
71
3
72
35
73
31
40
0
40
0
40
0
40
0
40
0.018391389351765
40
0.0467212631622616
40
0.103381010783255
40
0.160040758404248
40
0.216700506025241
40
0.273360253646234
40
0.330020001267227
40
0.358349875077724
40
0.38667974888822
40
0.415009622698717
40
0.443339496509213
40
0.47166937031971
40
0.485834307224958
40
0.499999244130207
40
0.514164181035455
40
0.528329117940703
40
0.5566589917512
40
0.584988865561696
40
0.613318739372193
40
0.641648613182689
40
0.669978486993186
40
0.726638234614179
40
0.783297982235172
40
0.839957729856165
40
0.896617477477159
40
0.953277225098152
40
0.981607098908648
40
1
40
1
40
1
40
1
41
1
10
-18.9999999999999
20
10.0333172291041
30
0
41
1
10
-18.9999999999999
20
10.03158388355
30
0
41
1
10
-18.9999999999999
20
10.0100828804631
30
0
41
1
10
-18.9999999999999
20
9.87290376557468
30
0
41
1
10
-19
20
9.48713546208162
30
0
41
1
10
-19
20
8.74970557959301
30
0
41
1
10
-19
20
7.76896293179379
30
0
41
1
10
-19
20
6.56626239951899
30
0
41
1
10
-19
20
5.39689860660036
30
0
41
1
10
-19
20
4.35855354299247
30
0
41
1
10
-19
20
3.54050705744922
30
0
41
1
10
-19
20
2.68380958588833
30
0
41
1
10
-19
20
1.79728192772163
30
0
41
1
10
-19
20
1.05021111926772
30
0
41
1
10
-19
20
0.444753991207961
30
0
41
1
10
-19
20
1.751603236E-07
30
0
41
1
10
-19
20
-0.444754022193024
30
0
41
1
10
-19
20
-1.05021119288864
30
0
41
1
10
-19
20
-1.79728161122438
30
0
41
1
10
-19
20
-2.68380947355135
30
0
41
1
10
-19
20
-3.54050720156601
30
0
41
1
10
-19
20
-4.35855334822486
30
0
41
1
10
-19
20
-5.39689848302672
30
0
41
1
10
-19
20
-6.56626237391907
30
0
41
1
10
-19
20
-7.7689631737066
30
0
41
1
10
-19
20
-8.74970539585973
30
0
41
1
10
-19
20
-9.48713598675059
30
0
41
1
10
-19
20
-9.87290379428873
30
0
41
1
10
-19
20
-10.0100852084543
30
0
41
1
10
-19
20
-10.0315854345379
30
0
41
1
10
-19
20
-10.0333177708002
30
0
0
SPLINE
5
1A3
100
AcDbEntity
8
SK1
62
256
6
ByLayer
370
13
48
1
60
0
100
AcDbSpline
70
4
71
3
72
24
73
20
40
0
40
0
40
0
40
0
40
0.0962392347059618
40
0.0962392347059618
40
0.19441957181475
40
0.19441957181475
40
0.224980323085168
40
0.224980323085168
40
0.256016565584776
40
0.256016565584776
40
0.283076636964954
40
0.283076636964954
40
0.322241448517488
40
0.322241448517488
40
0.39680709969101
40
0.39680709969101
40
0.656078947672137
40
0.656078947672137
40
1
40
1
40
1
40
1
41
1
10
-0.194976888875288
20
10.8215956059619
30
0
41
1
10
-0.225800270974929
20
10.8153713475797
30
0
41
1
10
-0.260059369691703
20
10.808546539551
30
0
41
1
10
-0.341803934200755
20
10.7942702716737
30
0
41
1
10
-0.390260016175887
20
10.786425926963
30
0
41
1
10
-0.473222837683977
20
10.7780887432033
30
0
41
1
10
-0.495087626885663
20
10.7762370295384
30
0
41
1
10
-0.541459979791853
20
10.7733404617968
30
0
41
1
10
-0.566679982514415
20
10.7722927243579
30
0
41
1
10
-0.612728669915327
20
10.7714551070537
30
0
41
1
10
-0.634214108805224
20
10.7715049109724
30
0
41
1
10
-0.683080106698583
20
10.7724623164841
30
0
41
1
10
-0.709729978199931
20
10.7737217298433
30
0
41
1
10
-0.778953436207047
20
10.7781755666156
30
0
41
1
10
-0.816482927715725
20
10.7820991609815
30
0
41
1
10
-0.963349723036913
20
10.7994211291878
30
0
41
1
10
-1.03512095928951
20
10.8126881790271
30
0
41
1
10
-1.18120463075792
20
10.8317285533685
30
0
41
1
10
-1.24312046576091
20
10.834837438425
30
0
41
1
10
-1.29503997793927
20
10.8279545871449
30
0
0
SPLINE
5
1A4
100
AcDbEntity
8
SK1
62
256
6
ByLayer
370
13
48
1
60
0
100
AcDbSpline
70
4
71
3
72
10
73
6
40
0
40
0
40
0
40
0
40
0.5
40
0.5
40
1
40
1
40
1
40
1
41
1
10
-1.5
20
-3.43390791500553
30
0
41
1
10
-1.71692496836977
20
-2.37752637479531
30
0
41
1
10
-1.93485042889131
20
-1.20950788444205
30
0
41
1
10
-1.93573790230073
20
1.20204294303986
30
0
41
1
10
-1.7171585624628
20
2.37639193543924
30
0
41
1
10
-1.49999999999955
20
3.43390926802994
30
0
0
SPLINE
5
1A5
100
AcDbEntity
8
SK1
62
256
6
ByLayer
370
13
48
1
60
0
100
AcDbSpline
70
4
71
3
72
35
73
31
40
0
40
0
40
0
40
0
40
0.0158969525795237
40
0.0443712390012093
40
0.10131981184458
40
0.158268384687952
40
0.215216957531323
40
0.272165530374694
40
0.329114103218065
40
0.357588389639751
40
0.386062676061437
40
0.414536962483122
40
0.443011248904808
40
0.471485535326494
40
0.485722678537336
40
0.499959821748179
40
0.514196964959022
40
0.528434108169865
40
0.556908394591551
40
0.585382681013236
40
0.613856967434922
40
0.642331253856607
40
0.670805540278293
40
0.727754113121664
40
0.784702685965035
40
0.841651258808407
40
0.898599831651778
40
0.955548404495149
40
0.984022690916835
40
1
40
1
40
1
40
1
41
1
10
-18
20
10.6092651405784
30
0
41
1
10
-18
20
10.6060349457524
30
0
41
1
10
-18
20
10.5825021061744
30
0
41
1
10
-18
20
10.4427418173596
30
0
41
1
10
-18
20
10.0398013894459
30
0
41
1
10
-18
20
9.27403601894565
30
0
41
1
10
-18
20
8.25699665980403
30
0
41
1
10
-18
20
7.00895321986482
30
0
41
1
10
-18
20
5.78965132899592
30
0
41
1
10
-18
20
4.70769937196644
30
0
41
1
10
-18
20
3.84817166067387
30
0
41
1
10
-18
20
2.94117947415643
30
0
41
1
10
-17.9999999999999
20
1.99095585453034
30
0
41
1
10
-18
20
1.1712918908436
30
0
41
1
10
-18
20
0.501599059707445
30
0
41
1
10
-18
20
7.85939278E-08
30
0
41
1
10
-18
20
-0.501599044412416
30
0
41
1
10
-18
20
-1.17129192458165
30
0
41
1
10
-18
20
-1.99095571595879
30
0
41
1
10
-18
20
-2.94117931205898
30
0
41
1
10
-18
20
-3.84817175180623
30
0
41
1
10
-17.9999999999999
20
-4.70769924070143
30
0
41
1
10
-18
20
-5.78965120402768
30
0
41
1
10
-18
20
-7.00895314702168
30
0
41
1
10
-18
20
-8.25699691773565
30
0
41
1
10
-18
20
-9.27403581023773
30
0
41
1
10
-17.9999999999999
20
-10.0398019205168
30
0
41
1
10
-18
20
-10.4427418393662
30
0
41
1
10
-18
20
-10.5826132744372
30
0
41
1
10
-17.9999999999999
20
-10.6061202361877
30
0
41
1
10
-17.9999999999999
20
-10.6093138594816
30
0
0
SPLINE
5
1A6
100
AcDbEntity
8
SK1
62
256
6
ByLayer
370
13
48
1
60
0
100
AcDbSpline
70
4
71
3
72
24
73
20
40
0
40
0
40
0
40
0
40
0.0961745797005502
40
0.0961745797005502
40
0.194283388716096
40
0.194283388716096
40
0.224865974099098
40
0.224865974099098
40
0.255924800747678
40
0.255924800747678
40
0.283007420751205
40
0.283007420751205
40
0.322155407812128
40
0.322155407812128
40
0.396635895252485
40
0.396635895252485
40
0.655257204704929
40
0.655257204704929
40
1
40
1
40
1
40
1
41
1
10
-0.19497688887526
20
-4.37579839097918
30
0
41
1
10
-0.22577860339365
20
-4.4324791008963
30
0
41
1
10
-0.260015938127026
20
-4.48781319119936
30
0
41
1
10
-0.341702551245561
20
-4.59153420481016
30
0
41
1
10
-0.390118921162184
20
-4.64237259472077
30
0
41
1
10
-0.473016748626037
20
-4.68771235181509
30
0
41
1
10
-0.494887129060288
20
-4.69691757833232
30
0
41
1
10
-0.541277938015952
20
-4.70885491730439
30
0
41
1
10
-0.566511484960159
20
-4.71148681970925
30
0
41
1
10
-0.612595492696641
20
-4.70858984525549
30
0
41
1
10
-0.634102058640622
20
-4.70407498906431
30
0
41
1
10
-0.682980774672245
20
-4.68755425299946
30
0
41
1
10
-0.709628474198695
20
-4.67305795132489
30
0
41
1
10
-0.778816689934843
20
-4.62544783848227
30
0
41
1
10
-0.816326813882029
20
-4.58672309278177
30
0
41
1
10
-0.962957354385509
20
-4.40775966937704
30
0
41
1
10
-1.03461938473873
20
-4.24573672775716
30
0
41
1
10
-1.18088300049354
20
-3.86444045923349
30
0
41
1
10
-1.24300370483715
20
-3.63586143768182
30
0
41
1
10
-1.29503997793927
20
-3.40161170366488
30
0
0
SPLINE
5
1A7
100
AcDbEntity
8
SK1
62
256
6
ByLayer
370
13
48
1
60
0
100
AcDbSpline
70
4
71
3
72
24
73
20
40
0
40
0
40
0
40
0
40
0.128390282723053
40
0.128390282723053
40
0.159820685571643
40
0.159820685571643
40
0.191919560201702
40
0.191919560201702
40
0.209629751443054
40
0.209629751443054
40
0.22736639512181
40
0.22736639512181
40
0.251045182234893
40
0.251045182234893
40
0.293121391521692
40
0.293121391521692
40
0.426409855479251
40
0.426409855479251
40
1
40
1
40
1
40
1
41
1
10
-0.19497688887526
20
-10.8215957545436
30
0
41
1
10
-0.181375896166969
20
-10.8243422473105
30
0
41
1
10
-0.166081841895505
20
-10.8279644857847
30
0
41
1
10
-0.140426444643339
20
-10.8375064215378
30
0
41
1
10
-0.134924488239051
20
-10.8396997158019
30
0
41
1
10
-0.122832871486651
20
-10.8450247330174
30
0
41
1
10
-0.116005084540007
20
-10.8482784930316
30
0
41
1
10
-0.10486730091344
20
-10.854230451889
30
0
41
1
10
-0.100699542547176
20
-10.8565852604388
30
0
41
1
10
-0.0926672813065466
20
-10.8614000855954
30
0
41
1
10
-0.0887131267115819
20
-10.8639138269672
30
0
41
1
10
-0.0803023877861335
20
-10.8695389018217
30
0
41
1
10
-0.0759679066297565
20
-10.8726604895889
30
0
41
1
10
-0.0654598680691834
20
-10.8806226953326
30
0
41
1
10
-0.0601314814747127
20
-10.8851372207407
30
0
41
1
10
-0.0414385869530633
20
-10.9019165369336
30
0
41
1
10
-0.0337743229467549
20
-10.911122959634
30
0
41
1
10
-0.0008602206670218
20
-10.9533220423455
30
0
41
1
10
2.84E-14
20
-10.9679034889488
30
0
41
1
10
2.84E-14
20
-10.9778577586145
30
0
0
SPLINE
5
1A8
100
AcDbEntity
8
SK1
62
256
6
ByLayer
370
13
48
1
60
0
100
AcDbSpline
70
4
71
3
72
15
73
11
40
0
40
0
40
0
40
0
40
0.0708105463137564
40
0.23176127123842
40
0.392711996163084
40
0.553662721087748
40
0.714613446012412
40
0.875564170937076
40
0.956039533399408
40
1
40
1
40
1
40
1
41
1
10
-0.194976888875288
20
10.8215956059619
30
0
41
1
10
-0.194976888875288
20
10.7969736791353
30
0
41
1
10
-0.194976888875288
20
10.6769306168182
30
0
41
1
10
-0.194976888875288
20
10.2764909042798
30
0
41
1
10
-0.194976888875288
20
9.49859033133993
30
0
41
1
10
-0.194976888875288
20
8.46600622704153
30
0
41
1
10
-0.194976888875288
20
7.19854383926264
30
0
41
1
10
-0.19497688887526
20
5.95785502441245
30
0
41
1
10
-0.194976888875288
20
4.98207728872012
30
0
41
1
10
-0.194976888875288
20
4.53596278989269
30
0
41
1
10
-0.194976888875288
20
4.37579881180474
30
0
0
SPLINE
5
1A9
100
AcDbEntity
8
SK1
62
256
6
ByLayer
370
13
48
1
60
0
100
AcDbSpline
70
4
71
3
72
12
73
8
40
0
40
0
40
0
40
0
40
0.499999999999999
40
0.499999999999999
40
0.749999999999999
40
0.749999999999999
40
1
40
1
40
1
40
1
41
1
10
-1.29503997793927
20
3.40161292972377
30
0
41
1
10
-1.21966153693791
20
3.74094063354173
30
0
41
1
10
-1.13234441385646
20
4.06572173503713
30
0
41
1
10
-0.888424605955805
20
4.51242811202681
30
0
41
1
10
-0.782090355088627
20
4.70587064177852
30
0
41
1
10
-0.381449312601404
20
4.71480920489634
30
0
41
1
10
-0.275877572630861
20
4.52467076184288
30
0
41
1
10
-0.194976888875288
20
4.37579881180474
30
0
0
SPLINE
5
1AA
100
AcDbEntity
8
SK1
62
256
6
ByLayer
370
13
48
1
60
0
100
AcDbSpline
70
4
71
3
72
8
73
4
40
0
40
0
40
0
40
0
40
1
40
1
40
1
40
1
41
1
10
-1.2950399779393
20
-3.40161170366457
30
0
41
1
10
-1.30169623417874
20
-3.37164748523222
30
0
41
1
10
-1.30849408485733
20
-3.34178354807582
30
0
41
1
10
-1.3154350650949
20
-3.31204600014979
30
0
0
SPLINE
5
1AB
100
AcDbEntity
8
SK1
62
256
6
ByLayer
370
13
48
1
60
0
100
AcDbSpline
70
4
71
3
72
17
73
13
40
0
40
0
40
0
40
0
40
0.0422810203687893
40
0.11204508012855
40
0.181809139888311
40
0.321337259407834
40
0.460865378927356
40
0.600393498446878
40
0.7399216179664
40
0.879449737485922
40
0.949213797245684
40
1
40
1
40
1
40
1
41
1
10
-1.29503997793927
20
-3.40161170366457
30
0
41
1
10
-1.29503997793927
20
-3.58970302045981
30
0
41
1
10
-1.29503997793927
20
-4.08014737941232
30
0
41
1
10
-1.29503997793927
20
-4.84051408993625
30
0
41
1
10
-1.29503997793927
20
-5.93905405982616
30
0
41
1
10
-1.29503997793927
20
-7.17735240233071
30
0
41
1
10
-1.29503997793927
20
-8.44264460694365
30
0
41
1
10
-1.2950399779393
20
-9.47349072703733
30
0
41
1
10
-1.29503997793924
20
-10.2500356487435
30
0
41
1
10
-1.2950399779393
20
-10.6595078265253
30
0
41
1
10
-1.2950399779393
20
-10.8083234685083
30
0
41
1
10
-1.29503997793927
20
-10.8302673904803
30
0
41
1
10
-1.29503997793927
20
-10.8302907036349
30
0
0
SPLINE
5
1AC
100
AcDbEntity
8
SK1
62
256
6
ByLayer
370
13
48
1
60
0
100
AcDbSpline
70
4
71
3
72
32
73
28
40
0
40
0
40
0
40
0
40
0.234684261976143
40
0.234684261976143
40
0.348361654478708
40
0.348361654478708
40
0.388282873664425
40
0.388282873664425
40
0.428640259988307
40
0.428640259988307
40
0.446531340708078
40
0.446531340708078
40
0.461787044728861
40
0.461787044728861
40
0.472436918420119
40
0.472436918420119
40
0.483126928721286
40
0.483126928721286
40
0.496698906764425
40
0.496698906764425
40
0.520507652640325
40
0.520507652640325
40
0.596306394907086
40
0.596306394907086
40
0.939869450446026
40
0.939869450446026
40
1
40
1
40
1
40
1
41
1
10
-1.3154350650949
20
-3.31204600014959
30
0
41
1
10
-1.32893238660847
20
-3.25421882997401
30
0
41
1
10
-1.34355879628592
20
-3.19678036801619
30
0
41
1
10
-1.36981668623909
20
-3.11480234743334
30
0
41
1
10
-1.37908112666264
20
-3.08844302825818
30
0
41
1
10
-1.3941000015098
20
-3.05524710917499
30
0
41
1
10
-1.39825515114939
20
-3.04683139978431
30
0
41
1
10
-1.40744013157314
20
-3.03092633348931
30
0
41
1
10
-1.41248338751095
20
-3.02331055838144
30
0
41
1
10
-1.42104470873156
20
-3.01444691763058
30
0
41
1
10
-1.42388428770914
20
-3.01200316638349
30
0
41
1
10
-1.42960772890061
20
-3.00866963113555
30
0
41
1
10
-1.43248141686007
20
-3.0075858671006
30
0
41
1
10
-1.43759978369667
20
-3.00725807173094
30
0
41
1
10
-1.43981857045924
20
-3.00757652239227
30
0
41
1
10
-1.44414537374556
20
-3.00926961951726
30
0
41
1
10
-1.44630176453478
20
-3.01067112756496
30
0
41
1
10
-1.45077971941737
20
-3.01469802776788
30
0
41
1
10
-1.45306667342626
20
-3.01758589787698
30
0
41
1
10
-1.45860172249974
20
-3.02614271079256
30
0
41
1
10
-1.4614481321824
20
-3.03239945973161
30
0
41
1
10
-1.47156520005231
20
-3.05873512386847
30
0
41
1
10
-1.47595142428827
20
-3.08032205392649
30
0
41
1
10
-1.4960391424321
20
-3.19664641835712
30
0
41
1
10
-1.49803585788592
20
-3.29188422241609
30
0
41
1
10
-1.49975607766783
20
-3.4013169613427
30
0
41
1
10
-1.49991842293903
20
-3.41763054375576
30
0
41
1
10
-1.5
20
-3.43390791500553
30
0
0
SPLINE
5
1AD
100
AcDbEntity
8
1
62
256
6
ByLayer
370
13
48
1
60
0
100
AcDbSpline
70
4
71
3
72
8
73
4
40
0
40
0
40
0
40
0
40
1
40
1
40
1
40
1
41
1
10
15.2792076144254
20
12.9755720245622
30
0
41
1
10
15.1200022190506
20
12.6538314553245
30
0
41
1
10
15.0502188562288
20
12.3027036005122
30
0
41
1
10
15.0465030375379
20
11.9215682495999
30
0
0
SPLINE
5
1AE
100
AcDbEntity
8
1
62
256
6
ByLayer
370
13
48
1
60
0
100
AcDbSpline
70
4
71
3
72
16
73
12
40
0
40
0
40
0
40
0
40
0.462497527135695
40
0.462497527135695
40
0.645191851133556
40
0.645191851133556
40
0.830465145084696
40
0.830465145084696
40
0.946099677592011
40
0.946099677592011
40
1
40
1
40
1
40
1
41
1
10
4.66339745962176
20
-5.06861858311265
30
0
41
1
10
4.68049745427402
20
-5.00572719980423
30
0
41
1
10
4.70393430551673
20
-4.9431813228959
30
0
41
1
10
4.75230660037391
20
-4.86451341532793
30
0
41
1
10
4.76803751709798
20
-4.842968701443
30
0
41
1
10
4.80461917683152
20
-4.80415189945731
30
0
41
1
10
4.82601832205694
20
-4.78648459402962
30
0
41
1
10
4.8653483060514
20
-4.76617783194959
30
0
41
1
10
4.88194300110763
20
-4.76031541807723
30
0
41
1
10
4.90693069677616
20
-4.75614889828739
30
0
41
1
10
4.91508241701419
20
-4.75546271781838
30
0
41
1
10
4.92320508075704
20
-4.75546271781838
30
0
0
SPLINE
5
1AF
100
AcDbEntity
8
1
62
256
6
ByLayer
370
13
48
1
60
0
100
AcDbSpline
70
4
71
3
72
16
73
12
40
0
40
0
40
0
40
0
40
0.462497527135775
40
0.462497527135775
40
0.645191851133601
40
0.645191851133601
40
0.830465145084713
40
0.830465145084713
40
0.946099677592051
40
0.946099677592051
40
1
40
1
40
1
40
1
41
1
10
4.66339745962176
20
15.1759383782
30
0
41
1
10
4.68049745427402
20
15.1969435000061
30
0
41
1
10
4.70393430551673
20
15.217373304072
30
0
41
1
10
4.75230660037394
20
15.2426068177428
30
0
41
1
10
4.76803751709798
20
15.2494611471714
30
0
41
1
10
4.80461917683152
20
15.2617345707426
30
0
41
1
10
4.82601832205694
20
15.2672766430865
30
0
41
1
10
4.86534830605143
20
15.273624854165
30
0
41
1
10
4.88194300110763
20
15.2754510872993
30
0
41
1
10
4.90693069677616
20
15.2767486596482
30
0
41
1
10
4.91508241701422
20
15.2769622091383
30
0
41
1
10
4.92320508075707
20
15.2769622091383
30
0
0
SPLINE
5
1B0
100
AcDbEntity
8
1
62
256
6
ByLayer
370
13
48
1
60
0
100
AcDbSpline
70
4
71
3
72
18
73
14
40
0
40
0
40
0
40
0
40
0.212505168178742
40
0.212505168178742
40
0.42504111140919
40
0.42504111140919
40
0.638334807490027
40
0.638334807490027
40
0.853364874629196
40
0.853364874629196
40
0.993934443345772
40
0.993934443345772
40
1
40
1
40
1
40
1
41
1
10
31.3601960784312
20
18.6500000000005
30
0
41
1
10
31.3601960784312
20
18.8278691925708
30
0
41
1
10
31.3908318589308
20
19.0081885821349
30
0
41
1
10
31.5081481302867
20
19.3438819960538
30
0
41
1
10
31.5964360252496
20
19.5038622380957
30
0
41
1
10
31.8177676381444
20
19.7824478463501
30
0
41
1
10
31.9539786566909
20
19.9047221499211
30
0
41
1
10
32.2557345226941
20
20.0959520887009
30
0
41
1
10
32.4256274753804
20
20.1671001983705
30
0
41
1
10
32.7149000081891
20
20.2346214930748
30
0
41
1
10
32.8334133939447
20
20.2488216828296
30
0
41
1
10
32.9563761936716
20
20.2499763040808
30
0
41
1
10
32.9614233996094
20
20.2500000000005
30
0
41
1
10
32.9664705882351
20
20.2500000000005
30
0
0
SPLINE
5
1B1
100
AcDbEntity
8
1
62
256
6
ByLayer
370
13
48
1
60
0
100
AcDbSpline
70
4
71
3
72
10
73
6
40
0
40
0
40
0
40
0
40
0.5
40
0.5
40
1
40
1
40
1
40
1
41
1
10
28.8612222579771
20
18.6500000000005
30
0
41
1
10
28.2244055932368
20
18.6500000000005
30
0
41
1
10
27.5761668352965
20
18.7102708468033
30
0
41
1
10
26.392308736449
20
19.1429990996267
30
0
41
1
10
25.7580605403833
20
19.6007250093556
30
0
41
1
10
25.7580605403833
20
20.2500000000005
30
0
0
SPLINE
5
1B2
100
AcDbEntity
8
1
62
256
6
ByLayer
370
13
48
1
60
0
100
AcDbSpline
70
4
71
3
72
8
73
4
40
0
40
0
40
0
40
0
40
1
40
1
40
1
40
1
41
1
10
18.0118264266575
20
21.7500000000004
30
0
41
1
10
17.7374078998886
20
20.669712509274
30
0
41
1
10
17.478898577393
20
19.6096903801509
30
0
41
1
10
17.2428365957761
20
18.567933919389
30
0
0
SPLINE
5
1B3
100
AcDbEntity
8
1
62
256
6
ByLayer
370
13
48
1
60
0
100
AcDbSpline
70
4
71
3
72
10
73
6
40
0
40
0
40
0
40
0
40
0.5
40
0.5
40
1
40
1
40
1
40
1
41
1
10
15.2792076144258
20
12.9755720245604
30
0
41
1
10
15.4174483404802
20
13.2549447794086
30
0
41
1
10
15.6228445864566
20
13.5225134672684
30
0
41
1
10
16.0764780223917
20
14.1699171529697
30
0
41
1
10
16.3342816394608
20
14.5641955743858
30
0
41
1
10
16.4383186059729
20
15.0456738477835
30
0
0
SPLINE
5
1B4
100
AcDbEntity
8
1
62
256
6
ByLayer
370
13
48
1
60
0
100
AcDbSpline
70
4
71
3
72
8
73
4
40
0
40
0
40
0
40
0
40
1
40
1
40
1
40
1
41
1
10
15.0465030375379
20
-14.4650938580066
30
0
41
1
10
15.0500383852453
20
-14.0599831364782
30
0
41
1
10
15.1104184643416
20
-13.5849539113518
30
0
41
1
10
15.3182367445729
20
-13.0504600339439
30
0
0
SPLINE
5
1B5
100
AcDbEntity
8
1
62
256
6
ByLayer
370
13
48
1
60
0
100
AcDbSpline
70
4
71
3
72
16
73
12
40
0
40
0
40
0
40
0
40
0.112904383055231
40
0.112904383055231
40
0.251995806601837
40
0.251995806601837
40
0.471177478614321
40
0.471177478614321
40
0.892334804025762
40
0.892334804025762
40
1
40
1
40
1
40
1
41
1
10
7.07679491924318
20
15.2769622091382
30
0
41
1
10
7.09363003644259
20
15.2769622091382
30
0
41
1
10
7.11067448209641
20
15.2760126621559
30
0
41
1
10
7.1459961278396
20
15.2722082770657
30
0
41
1
10
7.16423843011324
20
15.2689414463831
30
0
41
1
10
7.20594636314291
20
15.2589992478793
30
0
41
1
10
7.22743815354158
20
15.251316023293
30
0
41
1
10
7.2804704094188
20
15.2273927985285
30
0
41
1
10
7.30493517049524
20
15.209252838028
30
0
41
1
10
7.328220688839
20
15.1857432227232
30
0
41
1
10
7.33259153417382
20
15.1808653782142
30
0
41
1
10
7.33660254037855
20
15.1759383781999
30
0
0
SPLINE
5
1B6
100
AcDbEntity
8
1
62
256
6
ByLayer
370
13
48
1
60
0
100
AcDbSpline
70
4
71
3
72
16
73
12
40
0
40
0
40
0
40
0
40
0.112904383054721
40
0.112904383054721
40
0.251995806601419
40
0.251995806601419
40
0.471177478614121
40
0.471177478614121
40
0.892334804026002
40
0.892334804026002
40
1
40
1
40
1
40
1
41
1
10
4.92320508075707
20
4.75546271781832
30
0
41
1
10
4.90636996355764
20
4.75546271781832
30
0
41
1
10
4.88932551790381
20
4.75851551862741
30
0
41
1
10
4.8540038721606
20
4.77071315953438
30
0
41
1
10
4.83576156988696
20
4.78117073972271
30
0
41
1
10
4.79405363685729
20
4.81283214608513
30
0
41
1
10
4.77256184645861
20
4.83715715133692
30
0
41
1
10
4.7195295905814
20
4.91214630601516
30
0
41
1
10
4.69506482950496
20
4.96811547083766
30
0
41
1
10
4.67177931116123
20
5.03919021254757
30
0
41
1
10
4.66740846582644
20
5.05386666454152
30
0
41
1
10
4.66339745962171
20
5.06861858311248
30
0
0
SPLINE
5
1B7
100
AcDbEntity
8
1
62
256
6
ByLayer
370
13
48
1
60
0
100
AcDbSpline
70
4
71
3
72
8
73
4
40
0
40
0
40
0
40
0
40
1
40
1
40
1
40
1
41
1
10
17.749972426657
20
21.7500000000004
30
0
41
1
10
17.75014329621
20
21.7500000000004
30
0
41
1
10
17.8358021500698
20
21.7500000000004
30
0
41
1
10
18.0118264266575
20
21.7500000000004
30
0
0
SPLINE
5
1B8
100
AcDbEntity
8
1
62
256
6
ByLayer
370
13
48
1
60
0
100
AcDbSpline
70
4
71
3
72
16
73
12
40
0
40
0
40
0
40
0
40
0.112904383055231
40
0.112904383055231
40
0.25199580660182
40
0.25199580660182
40
0.471177478614266
40
0.471177478614266
40
0.892334804025676
40
0.892334804025676
40
1
40
1
40
1
40
1
41
1
10
7.07679491924318
20
-4.75546271781872
30
0
41
1
10
7.09363003644259
20
-4.75546271781872
30
0
41
1
10
7.11067448209641
20
-4.75851551862778
30
0
41
1
10
7.1459961278396
20
-4.77071315953475
30
0
41
1
10
7.16423843011327
20
-4.78117073972308
30
0
41
1
10
7.20594636314291
20
-4.8128321460855
30
0
41
1
10
7.22743815354158
20
-4.83715715133727
30
0
41
1
10
7.28047040941877
20
-4.91214630601544
30
0
41
1
10
7.30493517049524
20
-4.96811547083789
30
0
41
1
10
7.32822068883897
20
-5.03919021254785
30
0
41
1
10
7.33259153417379
20
-5.05386666454189
30
0
41
1
10
7.33660254037855
20
-5.06861858311294
30
0
0
SPLINE
5
1B9
100
AcDbEntity
8
1
62
256
6
ByLayer
370
13
48
1
60
0
100
AcDbSpline
70
4
71
3
72
8
73
4
40
0
40
0
40
0
40
0
40
1
40
1
40
1
40
1
41
1
10
18.8489433998192
20
21.7500000000004
30
0
41
1
10
18.2938842468435
20
20.6744113057393
30
0
41
1
10
17.7509810676425
20
19.6171785610032
30
0
41
1
10
17.2428365957761
20
18.567933919389
30
0
0
SPLINE
5
1BA
100
AcDbEntity
8
1
62
256
6
ByLayer
370
13
48
1
60
0
100
AcDbSpline
70
4
71
3
72
14
73
10
40
0
40
0
40
0
40
0
40
0.194909850209463
40
0.194909850209463
40
0.447987389206104
40
0.447987389206104
40
0.913535214711381
40
0.913535214711381
40
1
40
1
40
1
40
1
41
1
10
31.0999992468543
20
-1.70138948934161
30
0
41
1
10
31.1000007531457
20
-1.70137960242667
30
0
41
1
10
31.1057926648451
20
-1.66336296006651
30
0
41
1
10
31.1290912599624
20
-1.51048002074205
30
0
41
1
10
31.14958256033
20
-1.37604248691824
30
0
41
1
10
31.2165951597208
20
-0.936637448960425
30
0
41
1
10
31.2712803405559
20
-0.578332787834341
30
0
41
1
10
31.3390061068262
20
-0.135140272569316
30
0
41
1
10
31.3498105261353
20
-0.0644514196834507
30
0
41
1
10
31.3607224788997
20
0.0069256867049603
30
0
0
SPLINE
5
1BB
100
AcDbEntity
8
1
62
256
6
ByLayer
370
13
48
1
60
0
100
AcDbSpline
70
4
71
3
72
16
73
12
40
0
40
0
40
0
40
0
40
0.462497527135803
40
0.462497527135803
40
0.645191851133706
40
0.645191851133706
40
0.830465145084883
40
0.830465145084883
40
0.946099677592218
40
0.946099677592218
40
1
40
1
40
1
40
1
41
1
10
7.33660254037852
20
5.06861858311282
30
0
41
1
10
7.31950254572624
20
5.0057271998044
30
0
41
1
10
7.29606569448353
20
4.94318132289604
30
0
41
1
10
7.24769339962631
20
4.86451341532808
30
0
41
1
10
7.23196248290225
20
4.84296870144311
30
0
41
1
10
7.1953808231687
20
4.80415189945742
30
0
41
1
10
7.17398167794326
20
4.78648459402973
30
0
41
1
10
7.13465169394877
20
4.76617783194973
30
0
41
1
10
7.11805699889257
20
4.76031541807734
30
0
41
1
10
7.09306930322404
20
4.75614889828753
30
0
41
1
10
7.08491758298604
20
4.75546271781852
30
0
41
1
10
7.07679491924318
20
4.75546271781852
30
0
0
SPLINE
5
1BC
100
AcDbEntity
8
1
62
256
6
ByLayer
370
13
48
1
60
0
100
AcDbSpline
70
4
71
3
72
8
73
4
40
0
40
0
40
0
40
0
40
1
40
1
40
1
40
1
41
1
10
15.0465030375379
20
-11.9215682495999
30
0
41
1
10
15.0505099592475
20
-12.3325623370153
30
0
41
1
10
15.1317155836228
20
-12.7101968771931
30
0
41
1
10
15.3182367445729
20
-13.0504600339439
30
0
0
SPLINE
5
1BD
100
AcDbEntity
8
1
62
256
6
ByLayer
370
13
48
1
60
0
100
AcDbSpline
70
4
71
3
72
16
73
12
40
0
40
0
40
0
40
0
40
0.462497527135791
40
0.462497527135791
40
0.645191851133669
40
0.645191851133669
40
0.830465145084831
40
0.830465145084831
40
0.946099677592149
40
0.946099677592149
40
1
40
1
40
1
40
1
41
1
10
7.33660254037852
20
-15.1759383782
30
0
41
1
10
7.31950254572624
20
-15.196943500006
30
0
41
1
10
7.29606569448356
20
-15.2173733040719
30
0
41
1
10
7.24769339962631
20
-15.2426068177427
30
0
41
1
10
7.23196248290228
20
-15.2494611471713
30
0
41
1
10
7.19538082316873
20
-15.2617345707426
30
0
41
1
10
7.17398167794329
20
-15.2672766430864
30
0
41
1
10
7.1346516939488
20
-15.2736248541649
30
0
41
1
10
7.1180569988926
20
-15.2754510872993
30
0
41
1
10
7.09306930322407
20
-15.2767486596482
30
0
41
1
10
7.08491758298604
20
-15.2769622091383
30
0
41
1
10
7.07679491924318
20
-15.2769622091383
30
0
0
SPLINE
5
1BE
100
AcDbEntity
8
1
62
256
6
ByLayer
370
13
48
1
60
0
100
AcDbSpline
70
4
71
3
72
8
73
4
40
0
40
0
40
0
40
0
40
1
40
1
40
1
40
1
41
1
10
17.2428365957761
20
18.567933919389
30
0
41
1
10
16.9616410237034
20
17.3890794183585
30
0
41
1
10
16.691044952907
20
16.2152797027415
30
0
41
1
10
16.4383186059722
20
15.0456738477841
30
0
0
SPLINE
5
1BF
100
AcDbEntity
8
1
62
256
6
ByLayer
370
13
48
1
60
0
100
AcDbSpline
70
4
71
3
72
16
73
12
40
0
40
0
40
0
40
0
40
0.112904383054711
40
0.112904383054711
40
0.251995806601432
40
0.251995806601432
40
0.471177478614178
40
0.471177478614178
40
0.892334804026149
40
0.892334804026149
40
1
40
1
40
1
40
1
41
1
10
4.92320508075707
20
-15.2769622091383
30
0
41
1
10
4.90636996355764
20
-15.2769622091383
30
0
41
1
10
4.88932551790381
20
-15.276012662156
30
0
41
1
10
4.85400387216063
20
-15.2722082770658
30
0
41
1
10
4.83576156988696
20
-15.2689414463832
30
0
41
1
10
4.79405363685729
20
-15.2589992478794
30
0
41
1
10
4.77256184645861
20
-15.2513160232931
30
0
41
1
10
4.7195295905814
20
-15.2273927985285
30
0
41
1
10
4.69506482950496
20
-15.209252838028
30
0
41
1
10
4.67177931116123
20
-15.1857432227233
30
0
41
1
10
4.66740846582647
20
-15.1808653782143
30
0
41
1
10
4.66339745962173
20
-15.1759383782001
30
0
0
SPLINE
5
1C0
100
AcDbEntity
8
1
62
256
6
ByLayer
370
13
48
1
60
0
100
AcDbSpline
70
4
71
3
72
22
73
18
40
0
40
0
40
0
40
0
40
0.0003937814898266
40
0.0003937814898266
40
0.161992562476969
40
0.161992562476969
40
0.323997193200646
40
0.323997193200646
40
0.48288615964638
40
0.48288615964638
40
0.627866126231441
40
0.627866126231441
40
0.764934140946103
40
0.764934140946103
40
0.908397704892184
40
0.908397704892184
40
1
40
1
40
1
40
1
41
1
10
31.1000000000021
20
18.6499852852595
30
0
41
1
10
31.1000000000007
20
18.6499952862595
30
0
41
1
10
31.1000000000018
20
18.6500052872596
30
0
41
1
10
31.1000000000556
20
18.6501552739368
30
0
41
1
10
31.0991306385995
20
18.6825916636716
30
0
41
1
10
31.1064622103776
20
18.8065193360898
30
0
41
1
10
31.1153520277717
20
18.9001516355287
30
0
41
1
10
31.1680412668627
20
19.1256365141025
30
0
41
1
10
31.2129419227395
20
19.2601868878372
30
0
41
1
10
31.3503005022293
20
19.520684766752
30
0
41
1
10
31.4405192383395
20
19.6494770992707
30
0
41
1
10
31.6559224047355
20
19.8717134714191
30
0
41
1
10
31.7814813438694
20
19.9694370261665
30
0
41
1
10
32.0614882043002
20
20.1262219752186
30
0
41
1
10
32.2205357060029
20
20.1854591038606
30
0
41
1
10
32.4870599875411
20
20.2393067443178
30
0
41
1
10
32.5937512239923
20
20.2500000000005
30
0
41
1
10
32.7000000000001
20
20.2500000000005
30
0
0
SPLINE
5
1C1
100
AcDbEntity
8
1
62
256
6
ByLayer
370
13
48
1
60
0
100
AcDbSpline
70
4
71
3
72
10
73
6
40
0
40
0
40
0
40
0
40
0.807289382551453
40
0.807289382551453
40
1
40
1
40
1
40
1
41
1
10
52.4262120963125
20
21.37602364729
30
0
41
1
10
52.4302762008164
20
21.4082733833927
30
0
41
1
10
52.4269568435098
20
21.4374109438361
30
0
41
1
10
52.4156280417962
20
21.4676312243273
30
0
41
1
10
52.4131204986914
20
21.4732837463446
30
0
41
1
10
52.4102634152023
20
21.4786430142642
30
0
0
SPLINE
5
1C2
100
AcDbEntity
8
1
62
256
6
ByLayer
370
13
48
1
60
0
100
AcDbSpline
70
4
71
3
72
14
73
10
40
0
40
0
40
0
40
0
40
0.140335064029798
40
0.140335064029798
40
0.313324577863399
40
0.313324577863399
40
0.854437087129479
40
0.854437087129479
40
1
40
1
40
1
40
1
41
1
10
52.4102634152023
20
21.4786430142642
30
0
41
1
10
52.4115615907815
20
21.4800371122263
30
0
41
1
10
52.4130492807412
20
21.4813429898791
30
0
41
1
10
52.4164306495378
20
21.4838632740278
30
0
41
1
10
52.418387975026
20
21.4850349218319
30
0
41
1
10
52.4261757331449
20
21.4890286264553
30
0
41
1
10
52.4318897349344
20
21.4905519053905
30
0
41
1
10
52.4386571441607
20
21.4918419509219
30
0
41
1
10
52.4400859075475
20
21.49207471605
30
0
41
1
10
52.441497419172
20
21.4922720357487
30
0
0
SPLINE
5
1C3
100
AcDbEntity
8
1
62
256
6
ByLayer
370
13
48
1
60
0
100
AcDbSpline
70
4
71
3
72
8
73
4
40
0
40
0
40
0
40
0
40
1
40
1
40
1
40
1
41
1
10
52.4414974191717
20
21.4922720357484
30
0
41
1
10
52.4434065060311
20
21.4925389130716
30
0
41
1
10
52.4452888609443
20
21.4927476545089
30
0
41
1
10
52.4471477503401
20
21.4929105358018
30
0
0
SPLINE
5
1C4
100
AcDbEntity
8
1
62
256
6
ByLayer
370
13
48
1
60
0
100
AcDbSpline
70
4
71
3
72
12
73
8
40
0
40
0
40
0
40
0
40
0.271863792020762
40
0.271863792020762
40
0.680333498425164
40
0.680333498425164
40
1
40
1
40
1
40
1
41
1
10
52.4471477503394
20
21.4929105358011
30
0
41
1
10
52.5254708389114
20
21.499773432519
30
0
41
1
10
52.6132950984392
20
21.5121973521708
30
0
41
1
10
52.846593161407
20
21.5520044897384
30
0
41
1
10
53.0026236458242
20
21.5843239174031
30
0
41
1
10
53.2875983266003
20
21.6484749101487
30
0
41
1
10
53.4183646565651
20
21.6826158859148
30
0
41
1
10
53.5495881472217
20
21.6986503182985
30
0
0
SPLINE
5
1C5
100
AcDbEntity
8
1
62
256
6
ByLayer
370
13
48
1
60
0
100
AcDbSpline
70
4
71
3
72
8
73
4
40
0
40
0
40
0
40
0
40
1
40
1
40
1
40
1
41
1
10
53.5495881472217
20
21.6986503182985
30
0
41
1
10
53.6417788954044
20
21.7099152702574
30
0
41
1
10
53.7354245830992
20
21.7076164705896
30
0
41
1
10
53.8283398883331
20
21.7049010003718
30
0
0
SPLINE
5
1C6
100
AcDbEntity
8
1
62
256
6
ByLayer
370
13
48
1
60
0
100
AcDbSpline
70
4
71
3
72
8
73
4
40
0
40
0
40
0
40
0
40
1
40
1
40
1
40
1
41
1
10
53.8283398883331
20
21.7049010003718
30
0
41
1
10
53.9522136636574
20
21.7012807620611
30
0
41
1
10
54.0768571353024
20
21.7097956584959
30
0
41
1
10
54.1982800289245
20
21.7151367062893
30
0
0
SPLINE
5
1C7
100
AcDbEntity
8
1
62
256
6
ByLayer
370
13
48
1
60
0
100
AcDbSpline
70
4
71
3
72
10
73
6
40
0
40
0
40
0
40
0
40
0.860053459941695
40
0.860053459941695
40
1
40
1
40
1
40
1
41
1
10
54.1982800289245
20
21.7151367062893
30
0
41
1
10
54.3321716826563
20
21.7210262193819
30
0
41
1
10
54.4692183325878
20
21.7095836640924
30
0
41
1
10
54.6209193574704
20
21.6684136548811
30
0
41
1
10
54.6422592203893
20
21.6620874003107
30
0
41
1
10
54.6636089363248
20
21.6558030543976
30
0
0
SPLINE
5
1C8
100
AcDbEntity
8
1
62
256
6
ByLayer
370
13
48
1
60
0
100
AcDbSpline
70
4
71
3
72
8
73
4
40
0
40
0
40
0
40
0
40
1
40
1
40
1
40
1
41
1
10
54.6636089363248
20
21.6558030543976
30
0
41
1
10
54.6827084170632
20
21.6440184752056
30
0
41
1
10
54.7017609506472
20
21.6321598308402
30
0
41
1
10
54.7207683583679
20
21.620231768134
30
0
0
SPLINE
5
1C9
100
AcDbEntity
8
1
62
256
6
ByLayer
370
13
48
1
60
0
100
AcDbSpline
70
4
71
3
72
10
73
6
40
0
40
0
40
0
40
0
40
0.776503433583243
40
0.776503433583243
40
1
40
1
40
1
40
1
41
1
10
54.7207683583679
20
21.620231768134
30
0
41
1
10
54.6774725026343
20
21.6219383146504
30
0
41
1
10
54.6344378625006
20
21.6232204973636
30
0
41
1
10
54.5776224808541
20
21.6274562186955
30
0
41
1
10
54.5648810790715
20
21.6282587372995
30
0
41
1
10
54.5521447262338
20
21.6288275760477
30
0
0
SPLINE
5
1CA
100
AcDbEntity
8
1
62
256
6
ByLayer
370
13
48
1
60
0
100
AcDbSpline
70
4
71
3
72
10
73
6
40
0
40
0
40
0
40
0
40
0.802218039223748
40
0.802218039223748
40
1
40
1
40
1
40
1
41
1
10
54.5521447262338
20
21.6288275760477
30
0
41
1
10
54.4127836505348
20
21.6350518052958
30
0
41
1
10
54.2644549248777
20
21.6407163123796
30
0
41
1
10
54.0792703339537
20
21.6479206677343
30
0
41
1
10
54.0422443273126
20
21.6493561988228
30
0
41
1
10
54.0052430294063
20
21.6506663292369
30
0
0
SPLINE
5
1CB
100
AcDbEntity
8
1
62
256
6
ByLayer
370
13
48
1
60
0
100
AcDbSpline
70
4
71
3
72
16
73
12
40
0
40
0
40
0
40
0
40
0.0308303102605419
40
0.0308303102605419
40
0.572662020821238
40
0.572662020821238
40
0.596525876635503
40
0.596525876635503
40
0.811742896024901
40
0.811742896024901
40
1
40
1
40
1
40
1
41
1
10
54.0052430294063
20
21.6506663292369
30
0
41
1
10
53.9993536372725
20
21.6508748589964
30
0
41
1
10
53.9934642432982
20
21.6510835221544
30
0
41
1
10
53.884075321957
20
21.6549620910437
30
0
41
1
10
53.7804680881193
20
21.658111168951
30
0
41
1
10
53.6725520075114
20
21.6631688400588
30
0
41
1
10
53.6679952849823
20
21.6633547224004
30
0
41
1
10
53.622362695753
20
21.6649536566257
30
0
41
1
10
53.5811924961802
20
21.6645455929527
30
0
41
1
10
53.5042684809455
20
21.6618961943071
30
0
41
1
10
53.4684207998393
20
21.6597829228679
30
0
41
1
10
53.4328798390933
20
21.6552148887243
30
0
0
SPLINE
5
1CC
100
AcDbEntity
8
1
62
256
6
ByLayer
370
13
48
1
60
0
100
AcDbSpline
70
4
71
3
72
12
73
8
40
0
40
0
40
0
40
0
40
0.491351269778757
40
0.491351269778757
40
0.753050934981407
40
0.753050934981407
40
1
40
1
40
1
40
1
41
1
10
53.4328798390933
20
21.6552148887243
30
0
41
1
10
53.3879752829179
20
21.6494433636584
30
0
41
1
10
53.3433932389101
20
21.6415848637049
30
0
41
1
10
53.2762335559799
20
21.6256195972339
30
0
41
1
10
53.253137166922
20
21.6185272590249
30
0
41
1
10
53.2083199167815
20
21.605180399247
30
0
41
1
10
53.1865899596688
20
21.598808324089
30
0
41
1
10
53.1649336450021
20
21.5924467301169
30
0
0
SPLINE
5
1CD
100
AcDbEntity
8
1
62
256
6
ByLayer
370
13
48
1
60
0
100
AcDbSpline
70
4
71
3
72
12
73
8
40
0
40
0
40
0
40
0
40
0.244915547318589
40
0.244915547318589
40
0.864563982028735
40
0.864563982028735
40
1
40
1
40
1
40
1
41
1
10
53.1649336450021
20
21.5924467301169
30
0
41
1
10
53.0994204230127
20
21.5732020652458
30
0
41
1
10
53.0343929566216
20
21.5541271200118
30
0
41
1
10
52.8105405998204
20
21.4885593373685
30
0
41
1
10
52.6555221571248
20
21.443363985579
30
0
41
1
10
52.4855701545792
20
21.3934963381848
30
0
41
1
10
52.4555057237629
20
21.3846581500256
30
0
41
1
10
52.4262120963125
20
21.37602364729
30
0
0
SPLINE
5
1CE
100
AcDbEntity
8
1
62
256
6
ByLayer
370
13
48
1
60
0
100
AcDbSpline
70
4
71
3
72
8
73
4
40
0
40
0
40
0
40
0
40
1
40
1
40
1
40
1
41
1
10
52.4471477503394
20
20.5070894641992
30
0
41
1
10
52.4452888609435
20
20.5072523454921
30
0
41
1
10
52.4434065060322
20
20.5074610869278
30
0
41
1
10
52.4414974191728
20
20.5077279642509
30
0
0
SPLINE
5
1CF
100
AcDbEntity
8
1
62
256
6
ByLayer
370
13
48
1
60
0
100
AcDbSpline
70
4
71
3
72
14
73
10
40
0
40
0
40
0
40
0
40
0.538704325353333
40
0.538704325353333
40
0.684467013462083
40
0.684467013462083
40
0.858675811811913
40
0.858675811811913
40
1
40
1
40
1
40
1
41
1
10
52.4414974191717
20
20.5077279642519
30
0
41
1
10
52.436304109803
20
20.5084539534838
30
0
41
1
10
52.4308274196762
20
20.5096041019004
30
0
41
1
10
52.4235066860402
20
20.5124571748844
30
0
41
1
10
52.4219066564685
20
20.5131606340485
30
0
41
1
10
52.4183879750259
20
20.5149650781685
30
0
41
1
10
52.4164306495377
20
20.5161367259726
30
0
41
1
10
52.4130492807491
20
20.5186570101153
30
0
41
1
10
52.4115615907703
20
20.5199628877189
30
0
41
1
10
52.4102634151937
20
20.5213569856712
30
0
0
SPLINE
5
1D0
100
AcDbEntity
8
1
62
256
6
ByLayer
370
13
48
1
60
0
100
AcDbSpline
70
4
71
3
72
10
73
6
40
0
40
0
40
0
40
0
40
0.429405505457208
40
0.429405505457208
40
1
40
1
40
1
40
1
41
1
10
52.4102634152023
20
20.5213569857362
30
0
41
1
10
52.416591143752
20
20.5332264297865
30
0
41
1
10
52.4213513498928
20
20.5464507894655
30
0
41
1
10
52.428338741334
20
20.5798013645515
30
0
41
1
10
52.4290939581086
20
20.6011080228435
30
0
41
1
10
52.4262120963125
20
20.6239763527103
30
0
0
SPLINE
5
1D1
100
AcDbEntity
8
1
62
256
6
ByLayer
370
13
48
1
60
0
100
AcDbSpline
70
4
71
3
72
12
73
8
40
0
40
0
40
0
40
0
40
0.244915547318584
40
0.244915547318584
40
0.864563982028716
40
0.864563982028716
40
1
40
1
40
1
40
1
41
1
10
53.1649336450021
20
20.4075532698834
30
0
41
1
10
53.0994204230127
20
20.4267979347545
30
0
41
1
10
53.0343929566216
20
20.4458728799885
30
0
41
1
10
52.8105405998204
20
20.5114406626318
30
0
41
1
10
52.6555221571248
20
20.5566360144213
30
0
41
1
10
52.4855701545792
20
20.6065036618155
30
0
41
1
10
52.4555057237629
20
20.6153418499747
30
0
41
1
10
52.4262120963125
20
20.6239763527103
30
0
0
SPLINE
5
1D2
100
AcDbEntity
8
1
62
256
6
ByLayer
370
13
48
1
60
0
100
AcDbSpline
70
4
71
3
72
12
73
8
40
0
40
0
40
0
40
0
40
0.491351269778757
40
0.491351269778757
40
0.753050934981407
40
0.753050934981407
40
1
40
1
40
1
40
1
41
1
10
53.4328798390933
20
20.344785111276
30
0
41
1
10
53.3879752829179
20
20.3505566363419
30
0
41
1
10
53.3433932389101
20
20.3584151362954
30
0
41
1
10
53.2762335559799
20
20.3743804027664
30
0
41
1
10
53.253137166922
20
20.3814727409754
30
0
41
1
10
53.2083199167815
20
20.3948196007534
30
0
41
1
10
53.1865899596688
20
20.4011916759113
30
0
41
1
10
53.1649336450021
20
20.4075532698834
30
0
0
SPLINE
5
1D3
100
AcDbEntity
8
1
62
256
6
ByLayer
370
13
48
1
60
0
100
AcDbSpline
70
4
71
3
72
16
73
12
40
0
40
0
40
0
40
0
40
0.0308303102605419
40
0.0308303102605419
40
0.572662020821238
40
0.572662020821238
40
0.596525876635503
40
0.596525876635503
40
0.811742896024901
40
0.811742896024901
40
1
40
1
40
1
40
1
41
1
10
54.0052430294063
20
20.3493336707635
30
0
41
1
10
53.9993536372725
20
20.3491251410039
30
0
41
1
10
53.9934642432982
20
20.3489164778459
30
0
41
1
10
53.884075321957
20
20.3450379089566
30
0
41
1
10
53.7804680881193
20
20.3418888310493
30
0
41
1
10
53.6725520075114
20
20.3368311599415
30
0
41
1
10
53.6679952849823
20
20.3366452775999
30
0
41
1
10
53.622362695753
20
20.3350463433746
30
0
41
1
10
53.5811924961802
20
20.3354544070476
30
0
41
1
10
53.5042684809455
20
20.3381038056932
30
0
41
1
10
53.4684207998393
20
20.3402170771324
30
0
41
1
10
53.4328798390933
20
20.344785111276
30
0
0
SPLINE
5
1D4
100
AcDbEntity
8
1
62
256
6
ByLayer
370
13
48
1
60
0
100
AcDbSpline
70
4
71
3
72
10
73
6
40
0
40
0
40
0
40
0
40
0.802218039223748
40
0.802218039223748
40
1
40
1
40
1
40
1
41
1
10
54.5521447262338
20
20.3711724239527
30
0
41
1
10
54.4127836505348
20
20.3649481947045
30
0
41
1
10
54.2644549248777
20
20.3592836876207
30
0
41
1
10
54.0792703339537
20
20.352079332266
30
0
41
1
10
54.0422443273126
20
20.3506438011775
30
0
41
1
10
54.0052430294063
20
20.3493336707635
30
0
0
SPLINE
5
1D5
100
AcDbEntity
8
1
62
256
6
ByLayer
370
13
48
1
60
0
100
AcDbSpline
70
4
71
3
72
10
73
6
40
0
40
0
40
0
40
0
40
0.776503433583243
40
0.776503433583243
40
1
40
1
40
1
40
1
41
1
10
54.7207683583679
20
20.3797682318663
30
0
41
1
10
54.6774725026343
20
20.3780616853499
30
0
41
1
10
54.6344378625006
20
20.3767795026367
30
0
41
1
10
54.5776224808541
20
20.3725437813048
30
0
41
1
10
54.5648810790715
20
20.3717412627009
30
0
41
1
10
54.5521447262338
20
20.3711724239527
30
0
0
SPLINE
5
1D6
100
AcDbEntity
8
1
62
256
6
ByLayer
370
13
48
1
60
0
100
AcDbSpline
70
4
71
3
72
8
73
4
40
0
40
0
40
0
40
0
40
1
40
1
40
1
40
1
41
1
10
54.6636089363248
20
20.3441969456027
30
0
41
1
10
54.6827084170632
20
20.3559815247947
30
0
41
1
10
54.7017609506472
20
20.3678401691602
30
0
41
1
10
54.7207683583679
20
20.3797682318663
30
0
0
SPLINE
5
1D7
100
AcDbEntity
8
1
62
256
6
ByLayer
370
13
48
1
60
0
100
AcDbSpline
70
4
71
3
72
10
73
6
40
0
40
0
40
0
40
0
40
0.860053459941695
40
0.860053459941695
40
1
40
1
40
1
40
1
41
1
10
54.1982800289245
20
20.284863293711
30
0
41
1
10
54.3321716826563
20
20.2789737806184
30
0
41
1
10
54.4692183325878
20
20.290416335908
30
0
41
1
10
54.6209193574704
20
20.3315863451193
30
0
41
1
10
54.6422592203893
20
20.3379125996896
30
0
41
1
10
54.6636089363248
20
20.3441969456027
30
0
0
SPLINE
5
1D8
100
AcDbEntity
8
1
62
256
6
ByLayer
370
13
48
1
60
0
100
AcDbSpline
70
4
71
3
72
8
73
4
40
0
40
0
40
0
40
0
40
1
40
1
40
1
40
1
41
1
10
53.8283398883331
20
20.2950989996285
30
0
41
1
10
53.9522136636574
20
20.2987192379392
30
0
41
1
10
54.0768571353024
20
20.2902043415044
30
0
41
1
10
54.1982800289245
20
20.284863293711
30
0
0
SPLINE
5
1D9
100
AcDbEntity
8
1
62
256
6
ByLayer
370
13
48
1
60
0
100
AcDbSpline
70
4
71
3
72
8
73
4
40
0
40
0
40
0
40
0
40
1
40
1
40
1
40
1
41
1
10
53.5495881472217
20
20.3013496817018
30
0
41
1
10
53.6417788954044
20
20.2900847297429
30
0
41
1
10
53.7354245830992
20
20.2923835294107
30
0
41
1
10
53.8283398883331
20
20.2950989996285
30
0
0
SPLINE
5
1DA
100
AcDbEntity
8
1
62
256
6
ByLayer
370
13
48
1
60
0
100
AcDbSpline
70
4
71
3
72
12
73
8
40
0
40
0
40
0
40
0
40
0.271863792020766
40
0.271863792020766
40
0.680333498425166
40
0.680333498425166
40
1
40
1
40
1
40
1
41
1
10
52.4471477503394
20
20.5070894641992
30
0
41
1
10
52.5254708389114
20
20.5002265674813
30
0
41
1
10
52.6132950984392
20
20.4878026478295
30
0
41
1
10
52.846593161407
20
20.447995510262
30
0
41
1
10
53.0026236458242
20
20.4156760825973
30
0
41
1
10
53.2875983266003
20
20.3515250898517
30
0
41
1
10
53.4183646565651
20
20.3173841140855
30
0
41
1
10
53.5495881472217
20
20.3013496817018
30
0
0
SPLINE
5
1DB
100
AcDbEntity
8
1
62
256
6
ByLayer
370
13
48
1
60
0
100
AcDbSpline
70
4
71
3
72
18
73
14
40
0
40
0
40
0
40
0
40
0.447407316387175
40
0.447407316387175
40
0.605547053795674
40
0.605547053795674
40
0.784635535666972
40
0.784635535666972
40
0.885678387143329
40
0.885678387143329
40
0.977084410920521
40
0.977084410920521
40
1
40
1
40
1
40
1
41
1
10
51.4984332400777
20
21.3971827025369
30
0
41
1
10
51.5440476624861
20
21.4179864043048
30
0
41
1
10
51.5884120317077
20
21.4462496616411
30
0
41
1
10
51.6394879059807
20
21.4977774518651
30
0
41
1
10
51.6521556621418
20
21.5127285401693
30
0
41
1
10
51.676132722513
20
21.547527445881
30
0
41
1
10
51.6872348583249
20
21.5680760266395
30
0
41
1
10
51.6999368895843
20
21.6027292169992
30
0
41
1
10
51.7036086002949
20
21.6158956876694
30
0
41
1
10
51.7083103046788
20
21.6415381874816
30
0
41
1
10
51.7095747514646
20
21.6540765211719
30
0
41
1
10
51.7097949440652
20
21.6697495022305
30
0
41
1
10
51.7097712271323
20
21.6729074558066
30
0
41
1
10
51.7096790521406
20
21.6760622894366
30
0
0
SPLINE
5
1DC
100
AcDbEntity
8
1
62
256
6
ByLayer
370
13
48
1
60
0
100
AcDbSpline
70
4
71
3
72
18
73
14
40
0
40
0
40
0
40
0
40
0.0976852199958056
40
0.0976852199958056
40
0.212989397473362
40
0.212989397473362
40
0.394159987615223
40
0.394159987615223
40
0.774111539176557
40
0.774111539176557
40
0.851520792185893
40
0.851520792185893
40
1
40
1
40
1
40
1
41
1
10
51.7096790521406
20
20.3239377105637
30
0
41
1
10
51.7100703037074
20
20.3373289089633
30
0
41
1
10
51.7092072189939
20
20.3508331045984
30
0
41
1
10
51.7048326306339
20
20.3794458683679
30
0
41
1
10
51.7008494527307
20
20.3946141172527
30
0
41
1
10
51.6875217769499
20
20.431389985016
30
0
41
1
10
51.6762967783069
20
20.4522339475063
30
0
41
1
10
51.6367316649357
20
20.5096579975629
30
0
41
1
10
51.6023540549561
20
20.5406344456298
30
0
41
1
10
51.5587483922281
20
20.5700548557612
30
0
41
1
10
51.5511702800925
20
20.5748308807321
30
0
41
1
10
51.5287968496802
20
20.5880443631914
30
0
41
1
10
51.513730117624
20
20.5958407391614
30
0
41
1
10
51.498433240088
20
20.6028172974823
30
0
0
SPLINE
5
1DD
100
AcDbEntity
8
1
62
256
6
ByLayer
370
13
48
1
60
0
100
AcDbSpline
70
4
71
3
72
12
73
8
40
0
40
0
40
0
40
0
40
0.167536140690989
40
0.167536140690989
40
0.701521703333122
40
0.701521703333122
40
1
40
1
40
1
40
1
41
1
10
52.2514801084145
20
21.3997616476619
30
0
41
1
10
52.2542826384415
20
21.3973856341193
30
0
41
1
10
52.256923133606
20
21.3948806930321
30
0
41
1
10
52.2670778771217
20
21.3838905315069
30
0
41
1
10
52.2728726221449
20
21.3739873826126
30
0
41
1
10
52.2767050040373
20
21.356351562659
30
0
41
1
10
52.2770407186254
20
21.3494951137509
30
0
41
1
10
52.2762277573114
20
21.3423482075947
30
0
0
SPLINE
5
1DE
100
AcDbEntity
8
1
62
256
6
ByLayer
370
13
48
1
60
0
100
AcDbSpline
70
4
71
3
72
14
73
10
40
0
40
0
40
0
40
0
40
0.418540706662839
40
0.418540706662839
40
0.495635548088754
40
0.495635548088754
40
0.9192675759406
40
0.9192675759406
40
1
40
1
40
1
40
1
41
1
10
52.2762277573114
20
21.3423482075947
30
0
41
1
10
52.2729405983399
20
21.313450133005
30
0
41
1
10
52.2733660154214
20
21.2789598918285
30
0
41
1
10
52.2796751136804
20
21.2351750834223
30
0
41
1
10
52.2808357853226
20
21.2281820025018
30
0
41
1
10
52.2893735192744
20
21.1828210409001
30
0
41
1
10
52.3018447500132
20
21.1416106796634
30
0
41
1
10
52.3226367698616
20
21.0939423424977
30
0
41
1
10
52.3261939220311
20
21.0862451008932
30
0
41
1
10
52.3299358617497
20
21.0785973251141
30
0
0
SPLINE
5
1DF
100
AcDbEntity
8
1
62
256
6
ByLayer
370
13
48
1
60
0
100
AcDbSpline
70
4
71
3
72
14
73
10
40
0
40
0
40
0
40
0
40
0.335733568867722
40
0.335733568867722
40
0.507284823780995
40
0.507284823780995
40
0.847453801813234
40
0.847453801813234
40
1
40
1
40
1
40
1
41
1
10
52.3299358617497
20
21.0785973251141
30
0
41
1
10
52.337814020394
20
21.0624959457778
30
0
41
1
10
52.3439375481741
20
21.044982412773
30
0
41
1
10
52.3485739754979
20
21.0176754709811
30
0
41
1
10
52.3493588445425
20
21.0081717946767
30
0
41
1
10
52.3491329115973
20
20.9802122051373
30
0
41
1
10
52.3455495425812
20
20.9615180281881
30
0
41
1
10
52.3367872446761
20
20.9364237855239
30
0
41
1
10
52.3335488022127
20
20.9287868020078
30
0
41
1
10
52.3299358617498
20
20.9214026748862
30
0
0
SPLINE
5
1E0
100
AcDbEntity
8
1
62
256
6
ByLayer
370
13
48
1
60
0
100
AcDbSpline
70
4
71
3
72
12
73
8
40
0
40
0
40
0
40
0
40
0.060976756616879
40
0.060976756616879
40
0.525861690105106
40
0.525861690105106
40
1
40
1
40
1
40
1
41
1
10
52.3299358617497
20
20.9214026748862
30
0
41
1
10
52.3271003220153
20
20.9156073992452
30
0
41
1
10
52.3243711082764
20
20.9097842705313
30
0
41
1
10
52.3021069872871
20
20.8601747398966
30
0
41
1
10
52.2884144324718
20
20.8146499427754
30
0
41
1
10
52.2735997997306
20
20.7303584508619
30
0
41
1
10
52.2725076756419
20
20.6903557773656
30
0
41
1
10
52.2762277573114
20
20.6576517924057
30
0
0
SPLINE
5
1E1
100
AcDbEntity
8
1
62
256
6
ByLayer
370
13
48
1
60
0
100
AcDbSpline
70
4
71
3
72
10
73
6
40
0
40
0
40
0
40
0
40
0.579743919086243
40
0.579743919086243
40
1
40
1
40
1
40
1
41
1
10
52.2762277573114
20
20.6576517924057
30
0
41
1
10
52.2777925092618
20
20.6438957438035
30
0
41
1
10
52.274921505156
20
20.6312224503525
30
0
41
1
10
52.2645276574484
20
20.6129763667138
30
0
41
1
10
52.2584959094317
20
20.6061864200014
30
0
41
1
10
52.2514801084147
20
20.6002383523382
30
0
0
SPLINE
5
1E2
100
AcDbEntity
8
1
62
256
6
ByLayer
370
13
48
1
60
0
100
AcDbSpline
70
4
71
3
72
8
73
4
40
0
40
0
40
0
40
0
40
1
40
1
40
1
40
1
41
1
10
51.1586453076088
20
20.7012139734553
30
0
41
1
10
51.1709068417096
20
20.7043983721381
30
0
41
1
10
51.1832654919602
20
20.7074602232957
30
0
41
1
10
51.1957009625836
20
20.7104019371784
30
0
0
SPLINE
5
1E3
100
AcDbEntity
8
1
62
256
6
ByLayer
370
13
48
1
60
0
100
AcDbSpline
70
4
71
3
72
10
73
6
40
0
40
0
40
0
40
0
40
0.333728436493078
40
0.333728436493078
40
1
40
1
40
1
40
1
41
1
10
51.1957009625832
20
20.7104019371797
30
0
41
1
10
51.1966662675297
20
20.710630288084
30
0
41
1
10
51.1976317049565
20
20.7108586165775
30
0
41
1
10
51.2005249812794
20
20.7115427237428
30
0
41
1
10
51.2024532131263
20
20.7119984356068
30
0
41
1
10
51.204381960042
20
20.7124540580291
30
0
0
SPLINE
5
1E4
100
AcDbEntity
8
1
62
256
6
ByLayer
370
13
48
1
60
0
100
AcDbSpline
70
4
71
3
72
28
73
24
40
0
40
0
40
0
40
0
40
0.120400997037726
40
0.120400997037726
40
0.267193145137956
40
0.267193145137956
40
0.387937930337117
40
0.387937930337117
40
0.465259875154669
40
0.465259875154669
40
0.495901986784595
40
0.495901986784595
40
0.581704825079178
40
0.581704825079178
40
0.603681926078793
40
0.603681926078793
40
0.705282320663386
40
0.705282320663386
40
0.836662945425109
40
0.836662945425109
40
0.962212936191202
40
0.962212936191202
40
1
40
1
40
1
40
1
41
1
10
51.2043819600418
20
20.7124540580397
30
0
41
1
10
51.2386117615898
20
20.7205400671307
30
0
41
1
10
51.2717745161216
20
20.7315675962353
30
0
41
1
10
51.3403563386755
20
20.7634646788148
30
0
41
1
10
51.3755506139921
20
20.7863309713596
30
0
41
1
10
51.4293957511653
20
20.839107523858
30
0
41
1
10
51.4505128568283
20
20.8678921210837
30
0
41
1
10
51.4742896735613
20
20.9212598363757
30
0
41
1
10
51.4810059815831
20
20.9441935086992
30
0
41
1
10
51.485458778987
20
20.9769320277293
30
0
41
1
10
51.4861866916511
20
20.9864311566734
30
0
41
1
10
51.4867918153238
20
21.0220628941169
30
0
41
1
10
51.4827627697971
20
21.0487193548659
30
0
41
1
10
51.473008547855
20
21.0795583665451
30
0
41
1
10
51.4707421946394
20
21.0858255544197
30
0
41
1
10
51.4568990508133
20
21.11987962841
30
0
41
1
10
51.4406033083254
20
21.145343508764
30
0
41
1
10
51.3970837039401
20
21.1954086210501
30
0
41
1
10
51.3674044337148
20
21.218602953828
30
0
41
1
10
51.304685404423
20
21.2548185668162
30
0
41
1
10
51.2712334060984
20
21.2686098275065
30
0
41
1
10
51.2258807591636
20
21.2821493674626
30
0
41
1
10
51.215191249574
20
21.2849924941043
30
0
41
1
10
51.2043819600419
20
21.2875459419617
30
0
0
SPLINE
5
1E5
100
AcDbEntity
8
1
62
256
6
ByLayer
370
13
48
1
60
0
100
AcDbSpline
70
4
71
3
72
10
73
6
40
0
40
0
40
0
40
0
40
0.666271563875835
40
0.666271563875835
40
1
40
1
40
1
40
1
41
1
10
51.2043819600418
20
21.2875459419606
30
0
41
1
10
51.2024532131249
20
21.2880015643832
30
0
41
1
10
51.2005249812773
20
21.288457276258
30
0
41
1
10
51.1976317049544
20
21.2891413834234
30
0
41
1
10
51.1966662675286
20
21.2893697119173
30
0
41
1
10
51.1957009625832
20
21.2895980628213
30
0
0
SPLINE
5
1E6
100
AcDbEntity
8
1
62
256
6
ByLayer
370
13
48
1
60
0
100
AcDbSpline
70
4
71
3
72
8
73
4
40
0
40
0
40
0
40
0
40
1
40
1
40
1
40
1
41
1
10
51.1957009625832
20
21.2895980628206
30
0
41
1
10
51.183265491959
20
21.2925397767035
30
0
41
1
10
51.170906841708
20
21.2956016278626
30
0
41
1
10
51.1586453076064
20
21.2987860265456
30
0
0
SPLINE
5
1E7
100
AcDbEntity
8
1
62
256
6
ByLayer
370
13
48
1
60
0
100
AcDbSpline
70
4
71
3
72
8
73
4
40
0
40
0
40
0
40
0
40
1
40
1
40
1
40
1
41
1
10
52.4731203716814
20
20.3615204709333
30
0
41
1
10
52.4745825957789
20
20.3624375883684
30
0
41
1
10
52.4760463384843
20
20.3633593084491
30
0
41
1
10
52.4775115598651
20
20.3642855723133
30
0
0
SPLINE
5
1E8
100
AcDbEntity
8
1
62
256
6
ByLayer
370
13
48
1
60
0
100
AcDbSpline
70
4
71
3
72
12
73
8
40
0
40
0
40
0
40
0
40
0.334418366090769
40
0.334418366090769
40
0.734677033774883
40
0.734677033774883
40
1
40
1
40
1
40
1
41
1
10
53.5337805434612
20
20.1359613273678
30
0
41
1
10
53.402267961703
20
20.1500379362416
30
0
41
1
10
53.2723193598528
20
20.184207280011
30
0
41
1
10
52.9995089617334
20
20.255584964976
30
0
41
1
10
52.8541870739038
20
20.2914503671827
30
0
41
1
10
52.6350503526795
20
20.3382861598417
30
0
41
1
10
52.5522182729484
20
20.3538577140953
30
0
41
1
10
52.4775115598653
20
20.3642855723129
30
0
0
SPLINE
5
1E9
100
AcDbEntity
8
1
62
256
6
ByLayer
370
13
48
1
60
0
100
AcDbSpline
70
4
71
3
72
12
73
8
40
0
40
0
40
0
40
0
40
0.334418366090769
40
0.334418366090769
40
0.734677033774883
40
0.734677033774883
40
1
40
1
40
1
40
1
41
1
10
53.5337805434612
20
21.8640386726326
30
0
41
1
10
53.402267961703
20
21.8499620637587
30
0
41
1
10
53.2723193598528
20
21.8157927199893
30
0
41
1
10
52.9995089617334
20
21.7444150350243
30
0
41
1
10
52.8541870739038
20
21.7085496328176
30
0
41
1
10
52.6350503526795
20
21.6617138401587
30
0
41
1
10
52.5522182729484
20
21.646142285905
30
0
41
1
10
52.4775115598653
20
21.6357144276874
30
0
0
SPLINE
5
1EA
100
AcDbEntity
8
1
62
256
6
ByLayer
370
13
48
1
60
0
100
AcDbSpline
70
4
71
3
72
8
73
4
40
0
40
0
40
0
40
0
40
1
40
1
40
1
40
1
41
1
10
52.4775115598653
20
21.6357144276874
30
0
41
1
10
52.4760463384844
20
21.6366406915516
30
0
41
1
10
52.4745825957789
20
21.6375624116319
30
0
41
1
10
52.4731203716814
20
21.638479529067
30
0
0
SPLINE
5
1EB
100
AcDbEntity
8
1
62
256
6
ByLayer
370
13
48
1
60
0
100
AcDbSpline
70
4
71
3
72
18
73
14
40
0
40
0
40
0
40
0
40
0.0161194639884916
40
0.0161194639884916
40
0.0830400526233481
40
0.0830400526233481
40
0.164187348294867
40
0.164187348294867
40
0.329246171114526
40
0.329246171114526
40
0.49267383795864
40
0.49267383795864
40
1
40
1
40
1
40
1
41
1
10
51.6583760306418
20
21.6760622894366
30
0
41
1
10
51.6583760306418
20
21.6744780810598
30
0
41
1
10
51.6583070506514
20
21.6728922683906
30
0
41
1
10
51.6576154305964
20
21.6648549822652
30
0
41
1
10
51.6558959531471
20
21.6584492064006
30
0
41
1
10
51.6503990140808
20
21.6453283761617
30
0
41
1
10
51.6462332916851
20
21.6386406851306
30
0
41
1
10
51.632021466155
20
21.620237804991
30
0
41
1
10
51.6201790807021
20
21.6099343842207
30
0
41
1
10
51.595503040914
20
21.59200652968
30
0
41
1
10
51.5824167868289
20
21.5842529850827
30
0
41
1
10
51.5277159291731
20
21.5557823594789
30
0
41
1
10
51.4832430916057
20
21.5410799811461
30
0
41
1
10
51.4385371190036
20
21.5295769367158
30
0
0
SPLINE
5
1EC
100
AcDbEntity
8
1
62
256
6
ByLayer
370
13
48
1
60
0
100
AcDbSpline
70
4
71
3
72
16
73
12
40
0
40
0
40
0
40
0
40
0.17415962102223
40
0.17415962102223
40
0.671976092746537
40
0.671976092746537
40
0.83822694518602
40
0.83822694518602
40
0.929660782988591
40
0.929660782988591
40
1
40
1
40
1
40
1
41
1
10
51.4385371190036
20
20.4704230632845
30
0
41
1
10
51.4539422148971
20
20.4664592639931
30
0
41
1
10
51.4692599827102
20
20.4620769089279
30
0
41
1
10
51.5274830378249
20
20.443338367182
30
0
41
1
10
51.5706632046931
20
20.4260409995773
30
0
41
1
10
51.6203257985211
20
20.3899587946457
30
0
41
1
10
51.6323080918469
20
20.3795169898804
30
0
41
1
10
51.6471462242705
20
20.3601041780892
30
0
41
1
10
51.651743706976
20
20.3524010922578
30
0
41
1
10
51.6570278864054
20
20.3377021112504
30
0
41
1
10
51.6583760306417
20
20.3307790595826
30
0
41
1
10
51.6583760306418
20
20.3239377105637
30
0
0
SPLINE
5
1ED
100
AcDbEntity
8
1
62
256
6
ByLayer
370
13
48
1
60
0
100
AcDbSpline
70
4
71
3
72
8
73
4
40
0
40
0
40
0
40
0
40
1
40
1
40
1
40
1
41
1
10
50.7871982348828
20
20.2745620718648
30
0
41
1
10
50.8371072022262
20
20.3683165329924
30
0
41
1
10
50.8829751479405
20
20.4645190035592
30
0
41
1
10
50.9269486592887
20
20.5615806009029
30
0
0
SPLINE
5
1EE
100
AcDbEntity
8
1
62
256
6
ByLayer
370
13
48
1
60
0
100
AcDbSpline
70
4
71
3
72
8
73
4
40
0
40
0
40
0
40
0
40
1
40
1
40
1
40
1
41
1
10
50.9269486592887
20
20.5615806009029
30
0
41
1
10
50.9310517239117
20
20.5706371896104
30
0
41
1
10
50.9358959391856
20
20.5793747430598
30
0
41
1
10
50.9415296908639
20
20.5874458879869
30
0
0
SPLINE
5
1EF
100
AcDbEntity
8
1
62
256
6
ByLayer
370
13
48
1
60
0
100
AcDbSpline
70
4
71
3
72
10
73
6
40
0
40
0
40
0
40
0
40
0.607627674029775
40
0.607627674029775
40
1
40
1
40
1
40
1
41
1
10
50.941529690864
20
20.5874458879869
30
0
41
1
10
50.9449483939528
20
20.5923436629809
30
0
41
1
10
50.9493450872493
20
20.5965107952172
30
0
41
1
10
50.9571218081436
20
20.6022567548797
30
0
41
1
10
50.9603603656147
20
20.6042690918397
30
0
41
1
10
50.9636781743631
20
20.606092599986
30
0
0
SPLINE
5
1F0
100
AcDbEntity
8
1
62
256
6
ByLayer
370
13
48
1
60
0
100
AcDbSpline
70
4
71
3
72
8
73
4
40
0
40
0
40
0
40
0
40
1
40
1
40
1
40
1
41
1
10
50.963678174367
20
20.60609259998
30
0
41
1
10
50.9740398294939
20
20.611787491991
30
0
41
1
10
50.9856192161748
20
20.6152116946455
30
0
41
1
10
50.9971847075066
20
20.616804873234
30
0
0
SPLINE
5
1F1
100
AcDbEntity
8
1
62
256
6
ByLayer
370
13
48
1
60
0
100
AcDbSpline
70
4
71
3
72
10
73
6
40
0
40
0
40
0
40
0
40
0.468522557911306
40
0.468522557911306
40
1
40
1
40
1
40
1
41
1
10
50.9971847075066
20
20.6168048732339
30
0
41
1
10
51.0125073622826
20
20.6189156115332
30
0
41
1
10
51.0281890938236
20
20.6191911881565
30
0
41
1
10
51.0608326130716
20
20.6151109789596
30
0
41
1
10
51.0781649337055
20
20.6100564694879
30
0
41
1
10
51.0936729304055
20
20.601618631276
30
0
0
SPLINE
5
1F2
100
AcDbEntity
8
1
62
256
6
ByLayer
370
13
48
1
60
0
100
AcDbSpline
70
4
71
3
72
10
73
6
40
0
40
0
40
0
40
0
40
0.39285874077214
40
0.39285874077214
40
1
40
1
40
1
40
1
41
1
10
51.0936729304044
20
21.398381368724
30
0
41
1
10
51.0821344359051
20
21.392103320587
30
0
41
1
10
51.069596920594
20
21.387696307292
30
0
41
1
10
51.037371840694
20
21.3808045950247
30
0
41
1
10
51.0169301631213
20
21.3804751353547
30
0
41
1
10
50.9971847075166
20
21.3831951267632
30
0
0
SPLINE
5
1F3
100
AcDbEntity
8
1
62
256
6
ByLayer
370
13
48
1
60
0
100
AcDbSpline
70
4
71
3
72
10
73
6
40
0
40
0
40
0
40
0
40
0.0840681653027228
40
0.0840681653027228
40
1
40
1
40
1
40
1
41
1
10
50.9971847075161
20
21.3831951267647
30
0
41
1
10
50.9962010455789
20
21.3833306289315
30
0
41
1
10
50.9952188661862
20
21.3834789710653
30
0
41
1
10
50.9836819996079
20
21.3853794606592
30
0
41
1
10
50.9731694732705
20
21.3886908664037
30
0
41
1
10
50.9636781743698
20
21.3939074000187
30
0
0
SPLINE
5
1F4
100
AcDbEntity
8
1
62
256
6
ByLayer
370
13
48
1
60
0
100
AcDbSpline
70
4
71
3
72
10
73
6
40
0
40
0
40
0
40
0
40
0.300964641608717
40
0.300964641608717
40
1
40
1
40
1
40
1
41
1
10
50.9636781743711
20
21.3939074000275
30
0
41
1
10
50.9611279033247
20
21.3953090600934
30
0
41
1
10
50.9586265623859
20
21.3968214099124
30
0
41
1
10
50.9506729861664
20
21.4022689969568
30
0
41
1
10
50.9454582450927
20
21.406925903256
30
0
41
1
10
50.9415296908643
20
21.4125541120131
30
0
0
SPLINE
5
1F5
100
AcDbEntity
8
1
62
256
6
ByLayer
370
13
48
1
60
0
100
AcDbSpline
70
4
71
3
72
8
73
4
40
0
40
0
40
0
40
0
40
1
40
1
40
1
40
1
41
1
10
50.9415296908642
20
21.412554112013
30
0
41
1
10
50.9358959391855
20
21.4206252569407
30
0
41
1
10
50.9310517239113
20
21.4293628103906
30
0
41
1
10
50.9269486592881
20
21.4384193990987
30
0
0
SPLINE
5
1F6
100
AcDbEntity
8
1
62
256
6
ByLayer
370
13
48
1
60
0
100
AcDbSpline
70
4
71
3
72
8
73
4
40
0
40
0
40
0
40
0
40
1
40
1
40
1
40
1
41
1
10
50.9269486592881
20
21.4384193990987
30
0
41
1
10
50.88297514794
20
21.535480996442
30
0
41
1
10
50.837107202226
20
21.6316834670083
30
0
41
1
10
50.7871982348828
20
21.7254379281355
30
0
0
SPLINE
5
1F7
100
AcDbEntity
8
1
62
256
6
ByLayer
370
13
48
1
60
0
100
AcDbSpline
70
4
71
3
72
12
73
8
40
0
40
0
40
0
40
0
40
0.597224160982647
40
0.597224160982647
40
0.806459478729557
40
0.806459478729557
40
1
40
1
40
1
40
1
41
1
10
52.4674054923344
20
21.6201361512412
30
0
41
1
10
52.4517404047312
20
21.5979055664362
30
0
41
1
10
52.4345712719748
20
21.5738599803604
30
0
41
1
10
52.4107775882301
20
21.5417353100998
30
0
41
1
10
52.404453368985
20
21.5333072274139
30
0
41
1
10
52.3922252793235
20
21.517284664602
30
0
41
1
10
52.3863036863561
20
21.5096468026522
30
0
41
1
10
52.3803879305321
20
21.5021621555487
30
0
0
SPLINE
5
1F8
100
AcDbEntity
8
1
62
256
6
ByLayer
370
13
48
1
60
0
100
AcDbSpline
70
4
71
3
72
12
73
8
40
0
40
0
40
0
40
0
40
0.0216552127699091
40
0.0216552127699091
40
0.549266071356395
40
0.549266071356395
40
1
40
1
40
1
40
1
41
1
10
52.251480108414
20
21.3997616476614
30
0
41
1
10
52.2524880633972
20
21.4001878663268
30
0
41
1
10
52.2534955429718
20
21.4006216315159
30
0
41
1
10
52.2789531871476
20
21.4117766388711
30
0
41
1
10
52.3033813442807
20
21.4271393850377
30
0
41
1
10
52.3454052205907
20
21.4621963608506
30
0
41
1
10
52.3638645140883
20
21.4812566373515
30
0
41
1
10
52.380387930535
20
21.5021621555524
30
0
0
SPLINE
5
1F9
100
AcDbEntity
8
1
62
256
6
ByLayer
370
13
48
1
60
0
100
AcDbSpline
70
4
71
3
72
12
73
8
40
0
40
0
40
0
40
0
40
0.365727906004492
40
0.365727906004492
40
0.978437105133119
40
0.978437105133119
40
1
40
1
40
1
40
1
41
1
10
52.3803879305321
20
20.4978378444515
30
0
41
1
10
52.3669233419134
20
20.5148733167062
30
0
41
1
10
52.3521983132535
20
20.5306689331556
30
0
41
1
10
52.3111353907574
20
20.5678273903518
30
0
41
1
10
52.2828055733672
20
20.5865353536121
30
0
41
1
10
52.2534955383431
20
20.599378366117
30
0
41
1
10
52.2524880622417
20
20.5998121330793
30
0
41
1
10
52.2514801084146
20
20.6002383523384
30
0
0
SPLINE
5
1FA
100
AcDbEntity
8
1
62
256
6
ByLayer
370
13
48
1
60
0
100
AcDbSpline
70
4
71
3
72
12
73
8
40
0
40
0
40
0
40
0
40
0.597224160967102
40
0.597224160967102
40
0.806459478710096
40
0.806459478710096
40
1
40
1
40
1
40
1
41
1
10
52.4674054923344
20
20.3798638487592
30
0
41
1
10
52.4517404047311
20
20.4020944335642
30
0
41
1
10
52.4345712719747
20
20.42614001964
30
0
41
1
10
52.4107775882299
20
20.4582646899008
30
0
41
1
10
52.4044533689847
20
20.4666927725869
30
0
41
1
10
52.3922252793233
20
20.4827153353987
30
0
41
1
10
52.3863036863559
20
20.4903531973483
30
0
41
1
10
52.3803879305322
20
20.4978378444515
30
0
0
SPLINE
5
1FB
100
AcDbEntity
8
1
62
256
6
ByLayer
370
13
48
1
60
0
100
AcDbSpline
70
4
71
3
72
8
73
4
40
0
40
0
40
0
40
0
40
1
40
1
40
1
40
1
41
1
10
52.3803879305321
20
21.5021621555487
30
0
41
1
10
52.3917464413886
20
21.4927522673271
30
0
41
1
10
52.4018184386868
20
21.484823200056
30
0
41
1
10
52.4102634151926
20
21.4786430142484
30
0
0
SPLINE
5
1FC
100
AcDbEntity
8
1
62
256
6
ByLayer
370
13
48
1
60
0
100
AcDbSpline
70
4
71
3
72
12
73
8
40
0
40
0
40
0
40
0
40
0.488366722420296
40
0.488366722420296
40
0.942436355362905
40
0.942436355362905
40
1
40
1
40
1
40
1
41
1
10
52.4262120963125
20
20.6239763527103
30
0
41
1
10
52.4283429607195
20
20.6528521350315
30
0
41
1
10
52.4319548858697
20
20.6894615899801
30
0
41
1
10
52.4453657154375
20
20.7678945846357
30
0
41
1
10
52.4548755278662
20
20.8102238376022
30
0
41
1
10
52.470230143123
20
20.8580762022233
30
0
41
1
10
52.4720501662501
20
20.8635398806852
30
0
41
1
10
52.4739430174867
20
20.8690044581436
30
0
0
SPLINE
5
1FD
100
AcDbEntity
8
1
62
256
6
ByLayer
370
13
48
1
60
0
100
AcDbSpline
70
4
71
3
72
12
73
8
40
0
40
0
40
0
40
0
40
0.037828268420456
40
0.037828268420456
40
0.727108891322556
40
0.727108891322556
40
1
40
1
40
1
40
1
41
1
10
52.4739430174867
20
20.8690044581436
30
0
41
1
10
52.4824023364264
20
20.8673264896966
30
0
41
1
10
52.4909189581297
20
20.8656305537861
30
0
41
1
10
52.6536057521076
20
20.8331104680884
30
0
41
1
10
52.8281123770015
20
20.7961313369891
30
0
41
1
10
53.0808681739289
20
20.7401532648695
30
0
41
1
10
53.1546315555727
20
20.7235457402805
30
0
41
1
10
53.2289221872924
20
20.7065481078892
30
0
0
SPLINE
5
1FE
100
AcDbEntity
8
1
62
256
6
ByLayer
370
13
48
1
60
0
100
AcDbSpline
70
4
71
3
72
24
73
20
40
0
40
0
40
0
40
0
40
0.0291918203657016
40
0.0291918203657016
40
0.136396538158131
40
0.136396538158131
40
0.265987867368488
40
0.265987867368488
40
0.377753358158994
40
0.377753358158994
40
0.50483938938664
40
0.50483938938664
40
0.632110922025969
40
0.632110922025969
40
0.762713398901978
40
0.762713398901978
40
0.901999958850298
40
0.901999958850298
40
1
40
1
40
1
40
1
41
1
10
51.0817115471211
20
21.1973354503652
30
0
41
1
10
51.0860998093752
20
21.1955525180881
30
0
41
1
10
51.090300333935
20
21.1935896440997
30
0
41
1
10
51.1087793745321
20
21.1838018941156
30
0
41
1
10
51.1208255768154
20
21.1739872306037
30
0
41
1
10
51.1430843368215
20
21.1490766153709
30
0
41
1
10
51.1527903934534
20
21.1328892296934
30
0
41
1
10
51.166954912446
20
21.0990559663066
30
0
41
1
10
51.17204803846
20
21.0815679934932
30
0
41
1
10
51.1794867440361
20
21.0422501559067
30
0
41
1
10
51.181458605176
20
21.019513095272
30
0
41
1
10
51.1811100662915
20
20.9748526681443
30
0
41
1
10
51.1787796342844
20
20.952237004302
30
0
41
1
10
51.1700744334302
20
20.9103534440445
30
0
41
1
10
51.1634978563533
20
20.8905252454902
30
0
41
1
10
51.1457369932043
20
20.8548332867655
30
0
41
1
10
51.1340799608658
20
20.8387254463232
30
0
41
1
10
51.108701419119
20
20.8164795397683
30
0
41
1
10
51.0962344198634
20
20.8085651310199
30
0
41
1
10
51.0817115471211
20
20.8026645496351
30
0
0
SPLINE
5
1FF
100
AcDbEntity
8
1
62
256
6
ByLayer
370
13
48
1
60
0
100
AcDbSpline
70
4
71
3
72
12
73
8
40
0
40
0
40
0
40
0
40
0.365724954919257
40
0.365724954919257
40
0.979118069631435
40
0.979118069631435
40
1
40
1
40
1
40
1
41
1
10
52.4102634152023
20
20.5213569857362
30
0
41
1
10
52.3937361056157
20
20.536024354936
30
0
41
1
10
52.3756371518841
20
20.5491968539292
30
0
41
1
10
52.3250623637126
20
20.5789550131522
30
0
41
1
10
52.2900751797186
20
20.5924443233668
30
0
41
1
10
52.2538899332389
20
20.5997723242546
30
0
41
1
10
52.2526851799038
20
20.6000088022537
30
0
41
1
10
52.2514801084145
20
20.6002383523383
30
0
0
SPLINE
5
200
100
AcDbEntity
8
1
62
256
6
ByLayer
370
13
48
1
60
0
100
AcDbSpline
70
4
71
3
72
12
73
8
40
0
40
0
40
0
40
0
40
0.0209717280275962
40
0.0209717280275962
40
0.549261945584352
40
0.549261945584352
40
1
40
1
40
1
40
1
41
1
10
52.2514801084148
20
21.3997616476618
30
0
41
1
10
52.2526851798995
20
21.3999911977523
30
0
41
1
10
52.2538899332219
20
21.4002276757697
30
0
41
1
10
52.2853191773472
20
21.4065925218024
30
0
41
1
10
52.3154975045281
20
21.4174441360661
30
0
41
1
10
52.3672856302101
20
21.4448808616104
30
0
41
1
10
52.3899815347171
20
21.4606436037982
30
0
41
1
10
52.4102634152025
20
21.4786430142639
30
0
0
SPLINE
5
201
100
AcDbEntity
8
1
62
256
6
ByLayer
370
13
48
1
60
0
100
AcDbSpline
70
4
71
3
72
12
73
8
40
0
40
0
40
0
40
0
40
0.49164663932398
40
0.49164663932398
40
0.875373657848572
40
0.875373657848572
40
1
40
1
40
1
40
1
41
1
10
52.4739430174867
20
21.1309955418567
30
0
41
1
10
52.4580682635103
20
21.1768252515877
30
0
41
1
10
52.4471504774152
20
21.2231670121618
30
0
41
1
10
52.434144098743
20
21.2967259420695
30
0
41
1
10
52.430526825236
20
21.3266866388054
30
0
41
1
10
52.4274054244723
20
21.3606049644805
30
0
41
1
10
52.4267634910172
20
21.3685515841167
30
0
41
1
10
52.4262120963126
20
21.3760236472901
30
0
0
SPLINE
5
202
100
AcDbEntity
8
1
62
256
6
ByLayer
370
13
48
1
60
0
100
AcDbSpline
70
4
71
3
72
12
73
8
40
0
40
0
40
0
40
0
40
0.0378282684204534
40
0.0378282684204534
40
0.727108891322555
40
0.727108891322555
40
1
40
1
40
1
40
1
41
1
10
52.4739430174867
20
21.1309955418567
30
0
41
1
10
52.4824023364264
20
21.1326735103037
30
0
41
1
10
52.4909189581297
20
21.1343694462143
30
0
41
1
10
52.6536057521076
20
21.1668895319119
30
0
41
1
10
52.8281123770015
20
21.2038686630112
30
0
41
1
10
53.0808681739289
20
21.2598467351308
30
0
41
1
10
53.1546315555727
20
21.2764542597198
30
0
41
1
10
53.2289221872924
20
21.2934518921112
30
0
0
SPLINE
5
203
100
AcDbEntity
8
1
62
256
6
ByLayer
370
13
48
1
60
0
100
AcDbSpline
70
4
71
3
72
8
73
4
40
0
40
0
40
0
40
0
40
1
40
1
40
1
40
1
41
1
10
52.4775115598657
20
21.6357144276889
30
0
41
1
10
52.4742211632921
20
21.63058249659
30
0
41
1
10
52.4708498814567
20
21.6253842052671
30
0
41
1
10
52.4674054923343
20
21.6201361512406
30
0
0
SPLINE
5
204
100
AcDbEntity
8
1
62
256
6
ByLayer
370
13
48
1
60
0
100
AcDbSpline
70
4
71
3
72
8
73
4
40
0
40
0
40
0
40
0
40
1
40
1
40
1
40
1
41
1
10
52.4775115598653
20
20.3642855723124
30
0
41
1
10
52.4742211632919
20
20.3694175034109
30
0
41
1
10
52.4708498814565
20
20.3746157947331
30
0
41
1
10
52.4674054923344
20
20.3798638487592
30
0
0
SPLINE
5
205
100
AcDbEntity
8
1
62
256
6
ByLayer
370
13
48
1
60
0
100
AcDbSpline
70
4
71
3
72
10
73
6
40
0
40
0
40
0
40
0
40
0.543977242056965
40
0.543977242056965
40
1
40
1
40
1
40
1
41
1
10
51.1586453076065
20
20.7012139734525
30
0
41
1
10
51.1348598955802
20
20.7202070756869
30
0
41
1
10
51.1082267241209
20
20.7343696780033
30
0
41
1
10
51.0582400099704
20
20.750018224756
30
0
41
1
10
51.0345424108346
20
20.7533664556958
30
0
41
1
10
51.0112725012788
20
20.7529796356327
30
0
0
SPLINE
5
206
100
AcDbEntity
8
1
62
256
6
ByLayer
370
13
48
1
60
0
100
AcDbSpline
70
4
71
3
72
10
73
6
40
0
40
0
40
0
40
0
40
0.594671969867266
40
0.594671969867266
40
1
40
1
40
1
40
1
41
1
10
51.0112725012887
20
21.2470203643678
30
0
41
1
10
51.0414272134588
20
21.2465190969441
30
0
41
1
10
51.0724285425084
20
21.2523704300969
30
0
41
1
10
51.121404499001
20
21.2729973709051
30
0
41
1
10
51.1407983096893
20
21.2845348605077
30
0
41
1
10
51.1586453076066
20
21.2987860265434
30
0
0
SPLINE
5
207
100
AcDbEntity
8
1
62
256
6
ByLayer
370
13
48
1
60
0
100
AcDbSpline
70
4
71
3
72
10
73
6
40
0
40
0
40
0
40
0
40
0.441584000439074
40
0.441584000439074
40
1
40
1
40
1
40
1
41
1
10
50.9682618588516
20
21.2476220303154
30
0
41
1
10
50.9831578146862
20
21.2402108637551
30
0
41
1
10
50.9983157146139
20
21.2330147908951
30
0
41
1
10
51.0331615279672
20
21.2172455045129
30
0
41
1
10
51.0530007239137
20
21.2088054948342
30
0
41
1
10
51.0731579439907
20
21.2007556517995
30
0
0
SPLINE
5
208
100
AcDbEntity
8
1
62
256
6
ByLayer
370
13
48
1
60
0
100
AcDbSpline
70
4
71
3
72
10
73
6
40
0
40
0
40
0
40
0
40
0.317001517206847
40
0.317001517206847
40
1
40
1
40
1
40
1
41
1
10
51.0112725012775
20
21.2470203643691
30
0
41
1
10
51.0064777423953
20
21.2463787947717
30
0
41
1
10
51.001749086712
20
21.2459595095346
30
0
41
1
10
50.9870718822178
20
21.2453408373382
30
0
41
1
10
50.9773952454518
20
21.2459646929497
30
0
41
1
10
50.9682618588516
20
21.2476220303154
30
0
0
SPLINE
5
209
100
AcDbEntity
8
1
62
256
6
ByLayer
370
13
48
1
60
0
100
AcDbSpline
70
4
71
3
72
10
73
6
40
0
40
0
40
0
40
0
40
0.357650901073067
40
0.357650901073067
40
1
40
1
40
1
40
1
41
1
10
50.9682618588516
20
20.7523779696849
30
0
41
1
10
50.9730683572598
20
20.7532501532197
30
0
41
1
10
50.9780213367011
20
20.753836693947
30
0
41
1
10
50.9921229263446
20
20.7546642862729
30
0
41
1
10
51.0015680505855
20
20.7542781535931
30
0
41
1
10
51.0112725012795
20
20.7529796356328
30
0
0
SPLINE
5
20A
100
AcDbEntity
8
1
62
256
6
ByLayer
370
13
48
1
60
0
100
AcDbSpline
70
4
71
3
72
10
73
6
40
0
40
0
40
0
40
0
40
0.558477308496816
40
0.558477308496816
40
1
40
1
40
1
40
1
41
1
10
51.0731579439905
20
20.7992443482018
30
0
41
1
10
51.0529985124188
20
20.7911936220004
30
0
41
1
10
51.0331571738854
20
20.7827526429753
30
0
41
1
10
50.9983115077505
20
20.766983212059
30
0
41
1
10
50.9831557478674
20
20.7597881079434
30
0
41
1
10
50.9682618588516
20
20.7523779696849
30
0
0
SPLINE
5
20B
100
AcDbEntity
8
1
62
256
6
ByLayer
370
13
48
1
60
0
100
AcDbSpline
70
4
71
3
72
12
73
8
40
0
40
0
40
0
40
0
40
0.709988165001255
40
0.709988165001255
40
0.92220788847233
40
0.92220788847233
40
1
40
1
40
1
40
1
41
1
10
50.9327064157301
20
21.2830078502643
30
0
41
1
10
50.949201252382
20
21.2708226006109
30
0
41
1
10
50.9677573595242
20
21.261092671194
30
0
41
1
10
50.9928332682202
20
21.2521079456906
30
0
41
1
10
50.9987365689449
20
21.2502680486856
30
0
41
1
10
51.0068788977592
20
21.2480904827853
30
0
41
1
10
51.0090724396469
20
21.2475389387769
30
0
41
1
10
51.0112725012798
20
21.2470203643753
30
0
0
SPLINE
5
20C
100
AcDbEntity
8
1
62
256
6
ByLayer
370
13
48
1
60
0
100
AcDbSpline
70
4
71
3
72
10
73
6
40
0
40
0
40
0
40
0
40
0.735193443551149
40
0.735193443551149
40
1
40
1
40
1
40
1
41
1
10
51.0112725012795
20
20.7529796356318
30
0
41
1
10
50.9906991613072
20
20.7481303135475
30
0
41
1
10
50.9704915627687
20
20.7402853497846
30
0
41
1
10
50.9454099006124
20
20.725821052565
30
0
41
1
10
50.9389206110604
20
20.7215827694321
30
0
41
1
10
50.9327064157472
20
20.7169921497828
30
0
0
SPLINE
5
20D
100
AcDbEntity
8
1
62
256
6
ByLayer
370
13
48
1
60
0
100
AcDbSpline
70
4
71
3
72
10
73
6
40
0
40
0
40
0
40
0
40
0.333804371559252
40
0.333804371559252
40
1
40
1
40
1
40
1
41
1
10
51.0731579439905
20
21.2007556517985
30
0
41
1
10
51.0741089610471
20
21.2003751106531
30
0
41
1
10
51.075060222121
20
21.1999945630473
30
0
41
1
10
51.0779107035581
20
21.1988545134037
30
0
41
1
10
51.0798106484521
20
21.1980949926789
30
0
41
1
10
51.0817115471211
20
21.1973354503652
30
0
0
SPLINE
5
20E
100
AcDbEntity
8
1
62
256
6
ByLayer
370
13
48
1
60
0
100
AcDbSpline
70
4
71
3
72
10
73
6
40
0
40
0
40
0
40
0
40
0.666195628071545
40
0.666195628071545
40
1
40
1
40
1
40
1
41
1
10
51.0817115471211
20
20.8026645496351
30
0
41
1
10
51.0798106484531
20
20.8019050073218
30
0
41
1
10
51.0779107035603
20
20.8011454865974
30
0
41
1
10
51.0750602221231
20
20.8000054369538
30
0
41
1
10
51.0741089610481
20
20.7996248893471
30
0
41
1
10
51.0731579439904
20
20.7992443482013
30
0
0
SPLINE
5
20F
100
AcDbEntity
8
1
62
256
6
ByLayer
370
13
48
1
60
0
100
AcDbSpline
70
4
71
3
72
10
73
6
40
0
40
0
40
0
40
0
40
0.741839809293022
40
0.741839809293022
40
1
40
1
40
1
40
1
41
1
10
50.8775223795398
20
21.3506956624415
30
0
41
1
10
50.8872637205793
20
21.3313441513892
30
0
41
1
10
50.9004639767516
20
21.3134926877042
30
0
41
1
10
50.9211300943468
20
21.292868544719
30
0
41
1
10
50.9267956571449
20
21.2877800252316
30
0
41
1
10
50.9327064157229
20
21.2830078502549
30
0
0
SPLINE
5
210
100
AcDbEntity
8
1
62
256
6
ByLayer
370
13
48
1
60
0
100
AcDbSpline
70
4
71
3
72
10
73
6
40
0
40
0
40
0
40
0
40
0.344098564729953
40
0.344098564729953
40
1
40
1
40
1
40
1
41
1
10
50.9327064157477
20
20.7169921497819
30
0
41
1
10
50.9248480305401
20
20.7106475175771
30
0
41
1
10
50.9174164333952
20
20.7037396753543
30
0
41
1
10
50.8974612534847
20
20.682377952837
30
0
41
1
10
50.8861446779715
20
20.6664328317493
30
0
41
1
10
50.8775223795392
20
20.6493043375579
30
0
0
SPLINE
5
211
100
AcDbEntity
8
1
62
256
6
ByLayer
370
13
48
1
60
0
100
AcDbSpline
70
4
71
3
72
8
73
4
40
0
40
0
40
0
40
0
40
1
40
1
40
1
40
1
41
1
10
50.8484695777327
20
21.388965802309
30
0
41
1
10
50.856844178597
20
21.3752564294815
30
0
41
1
10
50.8665807416807
20
21.3623705665708
30
0
41
1
10
50.8775223795411
20
21.3506956624427
30
0
0
SPLINE
5
212
100
AcDbEntity
8
1
62
256
6
ByLayer
370
13
48
1
60
0
100
AcDbSpline
70
4
71
3
72
8
73
4
40
0
40
0
40
0
40
0
40
1
40
1
40
1
40
1
41
1
10
50.8775223795389
20
20.6493043375581
30
0
41
1
10
50.866580741679
20
20.6376294334304
30
0
41
1
10
50.8568441785981
20
20.6247435705165
30
0
41
1
10
50.8484695777341
20
20.6110341976896
30
0
0
SPLINE
5
213
100
AcDbEntity
8
1
62
256
6
ByLayer
370
13
48
1
60
0
100
AcDbSpline
70
4
71
3
72
8
73
4
40
0
40
0
40
0
40
0
40
1
40
1
40
1
40
1
41
1
10
50.8484695777332
20
20.6110341976923
30
0
41
1
10
50.806994641852
20
20.5145071910672
30
0
41
1
10
50.7641587550012
20
20.4185101555478
30
0
41
1
10
50.7183319361237
20
20.3240156686543
30
0
0
SPLINE
5
214
100
AcDbEntity
8
1
62
256
6
ByLayer
370
13
48
1
60
0
100
AcDbSpline
70
4
71
3
72
8
73
4
40
0
40
0
40
0
40
0
40
1
40
1
40
1
40
1
41
1
10
50.7183319361237
20
21.6759843313461
30
0
41
1
10
50.764158755001
20
21.5814898444529
30
0
41
1
10
50.8069946418517
20
21.4854928089339
30
0
41
1
10
50.8484695777328
20
21.3889658023091
30
0
0
SPLINE
5
215
100
AcDbEntity
8
1
62
256
6
ByLayer
370
13
48
1
60
0
100
AcDbSpline
70
4
71
3
72
10
73
6
40
0
40
0
40
0
40
0
40
0.779724613001554
40
0.779724613001554
40
1
40
1
40
1
40
1
41
1
10
50.9487905068831
20
21.2510243555531
30
0
41
1
10
50.9522814951948
20
21.2510243555529
30
0
41
1
10
50.9570719807736
20
21.2503640906471
30
0
41
1
10
50.964621012228
20
21.2485876292614
30
0
41
1
10
50.9664035390181
20
21.2481314246255
30
0
41
1
10
50.9682618588516
20
21.2476220303154
30
0
0
SPLINE
5
216
100
AcDbEntity
8
1
62
256
6
ByLayer
370
13
48
1
60
0
100
AcDbSpline
70
4
71
3
72
8
73
4
40
0
40
0
40
0
40
0
40
1
40
1
40
1
40
1
41
1
10
50.8775223795398
20
21.3506956624417
30
0
41
1
10
50.8675268649006
20
21.3564877190547
30
0
41
1
10
50.8585032631411
20
21.3623184993728
30
0
41
1
10
50.8506142807834
20
21.3679978802779
30
0
0
SPLINE
5
217
100
AcDbEntity
8
1
62
256
6
ByLayer
370
13
48
1
60
0
100
AcDbSpline
70
4
71
3
72
8
73
4
40
0
40
0
40
0
40
0
40
1
40
1
40
1
40
1
41
1
10
50.8506142807802
20
20.6320021197204
30
0
41
1
10
50.8585032631377
20
20.6376815006255
30
0
41
1
10
50.8675268648999
20
20.6435122809451
30
0
41
1
10
50.877522379539
20
20.6493043375582
30
0
0
SPLINE
5
218
100
AcDbEntity
8
1
62
256
6
ByLayer
370
13
48
1
60
0
100
AcDbSpline
70
4
71
3
72
10
73
6
40
0
40
0
40
0
40
0
40
0.220275387008479
40
0.220275387008479
40
1
40
1
40
1
40
1
41
1
10
50.9682618588516
20
20.7523779696849
30
0
41
1
10
50.966403539018
20
20.7518685753748
30
0
41
1
10
50.9646210122277
20
20.7514123707389
30
0
41
1
10
50.9570719807735
20
20.7496359093533
30
0
41
1
10
50.9522814951945
20
20.7489756444474
30
0
41
1
10
50.9487905068828
20
20.7489756444472
30
0
0
SPLINE
5
219
100
AcDbEntity
8
1
62
256
6
ByLayer
370
13
48
1
60
0
100
AcDbSpline
70
4
71
3
72
10
73
6
40
0
40
0
40
0
40
0
40
0.491839191976824
40
0.491839191976824
40
1
40
1
40
1
40
1
41
1
10
52.4739430174867
20
20.8690044581436
30
0
41
1
10
52.4840171195627
20
20.9106011713084
30
0
41
1
10
52.489736079367
20
20.9544038552024
30
0
41
1
10
52.490089674138
20
21.0427325714019
30
0
41
1
10
52.4843433987004
20
21.0880515979806
30
0
41
1
10
52.4739430174867
20
21.1309955418567
30
0
0
SPLINE
5
21A
100
AcDbEntity
8
1
62
256
6
ByLayer
370
13
48
1
60
0
100
AcDbSpline
70
4
71
3
72
8
73
4
40
0
40
0
40
0
40
0
40
1
40
1
40
1
40
1
41
1
10
50.848469577733
20
21.3889658023102
30
0
41
1
10
50.8491523507354
20
21.3820363964477
30
0
41
1
10
50.8498660198604
20
21.3750447310776
30
0
41
1
10
50.8506142807769
20
21.3679978802823
30
0
0
SPLINE
5
21B
100
AcDbEntity
8
1
62
256
6
ByLayer
370
13
48
1
60
0
100
AcDbSpline
70
4
71
3
72
8
73
4
40
0
40
0
40
0
40
0
40
1
40
1
40
1
40
1
41
1
10
50.8506142807767
20
20.6320021197169
30
0
41
1
10
50.8498660198604
20
20.6249552689227
30
0
41
1
10
50.8491523507355
20
20.6179636035537
30
0
41
1
10
50.8484695777332
20
20.6110341976923
30
0
0
SPLINE
5
21C
100
AcDbEntity
8
1
62
256
6
ByLayer
370
13
48
1
60
0
100
AcDbSpline
70
4
71
3
72
16
73
12
40
0
40
0
40
0
40
0
40
0.565035752121982
40
0.565035752121982
40
0.802127499925977
40
0.802127499925977
40
0.909039374754918
40
0.909039374754918
40
0.963879000672096
40
0.963879000672096
40
1
40
1
40
1
40
1
41
1
10
54.5753143467793
20
21.7655358859603
30
0
41
1
10
54.5686286509489
20
21.7799284591269
30
0
41
1
10
54.5618879302625
20
21.7946338300973
30
0
41
1
10
54.5523712685777
20
21.8156562005705
30
0
41
1
10
54.5495577546969
20
21.8219044171267
30
0
41
1
10
54.5454904861867
20
21.8309860410471
30
0
41
1
10
54.5442279534699
20
21.8338119993628
30
0
41
1
10
54.5423215351283
20
21.8380898023811
30
0
41
1
10
54.5416757755847
20
21.8395406698467
30
0
41
1
10
54.5406068513424
20
21.8419453874198
30
0
41
1
10
54.5401828059207
20
21.8428988877765
30
0
41
1
10
54.5397600217523
20
21.8438529003173
30
0
0
SPLINE
5
21D
100
AcDbEntity
8
1
62
256
6
ByLayer
370
13
48
1
60
0
100
AcDbSpline
70
4
71
3
72
10
73
6
40
0
40
0
40
0
40
0
40
0.484066971714713
40
0.484066971714713
40
1
40
1
40
1
40
1
41
1
10
54.6636089363248
20
21.6558030543976
30
0
41
1
10
54.6463854867531
20
21.6706675235359
30
0
41
1
10
54.6300210449059
20
21.6867285583765
30
0
41
1
10
54.5997771424429
20
21.7228211129405
30
0
41
1
10
54.585689560494
20
21.743200735471
30
0
41
1
10
54.5753143467793
20
21.7655358859603
30
0
0
SPLINE
5
21E
100
AcDbEntity
8
1
62
256
6
ByLayer
370
13
48
1
60
0
100
AcDbSpline
70
4
71
3
72
16
73
12
40
0
40
0
40
0
40
0
40
0.565035752121982
40
0.565035752121982
40
0.802127499925978
40
0.802127499925978
40
0.909039374754918
40
0.909039374754918
40
0.963879000672096
40
0.963879000672096
40
1
40
1
40
1
40
1
41
1
10
54.5753143467793
20
20.23446411404
30
0
41
1
10
54.5686286509485
20
20.2200715408735
30
0
41
1
10
54.5618879302625
20
20.205366169903
30
0
41
1
10
54.5523712685777
20
20.1843437994299
30
0
41
1
10
54.5495577546969
20
20.1780955828736
30
0
41
1
10
54.5454904861867
20
20.1690139589532
30
0
41
1
10
54.5442279534699
20
20.1661880006376
30
0
41
1
10
54.5423215351283
20
20.1619101976193
30
0
41
1
10
54.5416757755847
20
20.1604593301536
30
0
41
1
10
54.5406068513424
20
20.1580546125805
30
0
41
1
10
54.5401828059207
20
20.1571011122238
30
0
41
1
10
54.5397600217523
20
20.156147099683
30
0
0
SPLINE
5
21F
100
AcDbEntity
8
1
62
256
6
ByLayer
370
13
48
1
60
0
100
AcDbSpline
70
4
71
3
72
8
73
4
40
0
40
0
40
0
40
0
40
1
40
1
40
1
40
1
41
1
10
54.5397600217523
20
20.156147099683
30
0
41
1
10
54.4220556485929
20
20.1316738094458
30
0
41
1
10
54.3008781086109
20
20.1222473193139
30
0
41
1
10
54.1810768987951
20
20.1251838363334
30
0
0
SPLINE
5
220
100
AcDbEntity
8
1
62
256
6
ByLayer
370
13
48
1
60
0
100
AcDbSpline
70
4
71
3
72
8
73
4
40
0
40
0
40
0
40
0
40
1
40
1
40
1
40
1
41
1
10
54.5397600217523
20
21.8438529003173
30
0
41
1
10
54.4220556485929
20
21.8683261905545
30
0
41
1
10
54.3008781086109
20
21.8777526806865
30
0
41
1
10
54.1810768987951
20
21.8748161636669
30
0
0
SPLINE
5
221
100
AcDbEntity
8
1
62
256
6
ByLayer
370
13
48
1
60
0
100
AcDbSpline
70
4
71
3
72
10
73
6
40
0
40
0
40
0
40
0
40
0.484066971714709
40
0.484066971714709
40
1
40
1
40
1
40
1
41
1
10
54.6636089363248
20
20.3441969456027
30
0
41
1
10
54.6463854867531
20
20.3293324764644
30
0
41
1
10
54.6300210449059
20
20.3132714416238
30
0
41
1
10
54.5997771424429
20
20.2771788870599
30
0
41
1
10
54.585689560494
20
20.2567992645293
30
0
41
1
10
54.5753143467793
20
20.23446411404
30
0
0
SPLINE
5
222
100
AcDbEntity
8
1
62
256
6
ByLayer
370
13
48
1
60
0
100
AcDbSpline
70
4
71
3
72
10
73
6
40
0
40
0
40
0
40
0
40
0.176628710800224
40
0.176628710800224
40
1
40
1
40
1
40
1
41
1
10
54.9256635776615
20
21.5311208872975
30
0
41
1
10
54.9183722025778
20
21.5421071180089
30
0
41
1
10
54.9104894309624
20
21.5527108699266
30
0
41
1
10
54.8638040682909
20
21.6097655753228
30
0
41
1
10
54.8154493527108
20
21.6486994667985
30
0
41
1
10
54.7642473322785
20
21.6808693205402
30
0
0
SPLINE
5
223
100
AcDbEntity
8
1
62
256
6
ByLayer
370
13
48
1
60
0
100
AcDbSpline
70
4
71
3
72
8
73
4
40
0
40
0
40
0
40
0
40
1
40
1
40
1
40
1
41
1
10
54.7642473322785
20
21.6808693205402
30
0
41
1
10
54.7451065349848
20
21.6928953430338
30
0
41
1
10
54.725925565824
20
21.7048575679294
30
0
41
1
10
54.7067026707552
20
21.7167516913739
30
0
0
SPLINE
5
224
100
AcDbEntity
8
1
62
256
6
ByLayer
370
13
48
1
60
0
100
AcDbSpline
70
4
71
3
72
10
73
6
40
0
40
0
40
0
40
0
40
0.502273026272322
40
0.502273026272322
40
1
40
1
40
1
40
1
41
1
10
54.7067026707552
20
21.7167516913739
30
0
41
1
10
54.6891255877275
20
21.7276274722891
30
0
41
1
10
54.6719685584501
20
21.7392520639039
30
0
41
1
10
54.6393998135679
20
21.7643377244976
30
0
41
1
10
54.6236090237987
20
21.7777355137773
30
0
41
1
10
54.6105155637419
20
21.7934537725688
30
0
0
SPLINE
5
225
100
AcDbEntity
8
1
62
256
6
ByLayer
370
13
48
1
60
0
100
AcDbSpline
70
4
71
3
72
10
73
6
40
0
40
0
40
0
40
0
40
0.502273026272322
40
0.502273026272322
40
1
40
1
40
1
40
1
41
1
10
54.7067026707552
20
20.2832483086264
30
0
41
1
10
54.6891255877275
20
20.2723725277112
30
0
41
1
10
54.6719685584501
20
20.2607479360965
30
0
41
1
10
54.6393998135679
20
20.2356622755028
30
0
41
1
10
54.6236090237987
20
20.2222644862231
30
0
41
1
10
54.6105155637419
20
20.2065462274315
30
0
0
SPLINE
5
226
100
AcDbEntity
8
1
62
256
6
ByLayer
370
13
48
1
60
0
100
AcDbSpline
70
4
71
3
72
8
73
4
40
0
40
0
40
0
40
0
40
1
40
1
40
1
40
1
41
1
10
54.7642473322785
20
20.3191306794602
30
0
41
1
10
54.7451065349848
20
20.3071046569665
30
0
41
1
10
54.725925565824
20
20.2951424320709
30
0
41
1
10
54.7067026707552
20
20.2832483086264
30
0
0
SPLINE
5
227
100
AcDbEntity
8
1
62
256
6
ByLayer
370
13
48
1
60
0
100
AcDbSpline
70
4
71
3
72
10
73
6
40
0
40
0
40
0
40
0
40
0.176628710800224
40
0.176628710800224
40
1
40
1
40
1
40
1
41
1
10
54.9256635776615
20
20.4688791127028
30
0
41
1
10
54.9183722025778
20
20.4578928819914
30
0
41
1
10
54.9104894309624
20
20.4472891300738
30
0
41
1
10
54.8638040682909
20
20.3902344246775
30
0
41
1
10
54.8154493527108
20
20.3513005332018
30
0
41
1
10
54.7642473322785
20
20.3191306794602
30
0
0
SPLINE
5
228
100
AcDbEntity
8
1
62
256
6
ByLayer
370
13
48
1
60
0
100
AcDbSpline
70
4
71
3
72
10
73
6
40
0
40
0
40
0
40
0
40
0.828685679108716
40
0.828685679108716
40
1
40
1
40
1
40
1
41
1
10
54.7207683583679
20
21.620231768134
30
0
41
1
10
54.7686097493866
20
21.5948789414495
30
0
41
1
10
54.8147633392971
20
21.5640732076025
30
0
41
1
10
54.8604070337687
20
21.5171710550486
30
0
41
1
10
54.8679488590384
20
21.5086600414276
30
0
41
1
10
54.8749800271743
20
21.4997620498899
30
0
0
SPLINE
5
229
100
AcDbEntity
8
1
62
256
6
ByLayer
370
13
48
1
60
0
100
AcDbSpline
70
4
71
3
72
12
73
8
40
0
40
0
40
0
40
0
40
0.0880792633922689
40
0.0880792633922689
40
0.576107189837383
40
0.576107189837383
40
1
40
1
40
1
40
1
41
1
10
54.6040818169429
20
20.6478709597513
30
0
41
1
10
54.6140661440235
20
20.6475815750286
30
0
41
1
10
54.6240551161812
20
20.6474392202837
30
0
41
1
10
54.6893799480028
20
20.6475653936622
30
0
41
1
10
54.7447000295702
20
20.6496243963662
30
0
41
1
10
54.8480735369365
20
20.6522806897632
30
0
41
1
10
54.8961214732615
20
20.6536967461078
30
0
41
1
10
54.9441651422481
20
20.6552595932612
30
0
0
SPLINE
5
22A
100
AcDbEntity
8
1
62
256
6
ByLayer
370
13
48
1
60
0
100
AcDbSpline
70
4
71
3
72
10
73
6
40
0
40
0
40
0
40
0
40
0.595894712070617
40
0.595894712070617
40
1
40
1
40
1
40
1
41
1
10
54.896439687712
20
20.5280419591254
30
0
41
1
10
54.9128914645872
20
20.5498096496069
30
0
41
1
10
54.9267183907984
20
20.5742299013429
30
0
41
1
10
54.940810212682
20
20.6179010189137
30
0
41
1
10
54.9440390421828
20
20.6366595569236
30
0
41
1
10
54.9441651422481
20
20.6552595932612
30
0
0
SPLINE
5
22B
100
AcDbEntity
8
1
62
256
6
ByLayer
370
13
48
1
60
0
100
AcDbSpline
70
4
71
3
72
8
73
4
40
0
40
0
40
0
40
0
40
1
40
1
40
1
40
1
41
1
10
54.8749800271743
20
20.5002379501104
30
0
41
1
10
54.882226373284
20
20.5094082508509
30
0
41
1
10
54.8893744966751
20
20.5186938569204
30
0
41
1
10
54.896439687712
20
20.5280419591254
30
0
0
SPLINE
5
22C
100
AcDbEntity
8
1
62
256
6
ByLayer
370
13
48
1
60
0
100
AcDbSpline
70
4
71
3
72
8
73
4
40
0
40
0
40
0
40
0
40
1
40
1
40
1
40
1
41
1
10
54.8749800271743
20
21.4997620498899
30
0
41
1
10
54.882226373284
20
21.4905917491494
30
0
41
1
10
54.8893744966751
20
21.48130614308
30
0
41
1
10
54.896439687712
20
21.4719580408749
30
0
0
SPLINE
5
22D
100
AcDbEntity
8
1
62
256
6
ByLayer
370
13
48
1
60
0
100
AcDbSpline
70
4
71
3
72
10
73
6
40
0
40
0
40
0
40
0
40
0.828685679108716
40
0.828685679108716
40
1
40
1
40
1
40
1
41
1
10
54.7207683583679
20
20.3797682318663
30
0
41
1
10
54.7686097493866
20
20.4051210585509
30
0
41
1
10
54.8147633392971
20
20.4359267923978
30
0
41
1
10
54.8604070337687
20
20.4828289449517
30
0
41
1
10
54.8679488590384
20
20.4913399585728
30
0
41
1
10
54.8749800271743
20
20.5002379501104
30
0
0
SPLINE
5
22E
100
AcDbEntity
8
1
62
256
6
ByLayer
370
13
48
1
60
0
100
AcDbSpline
70
4
71
3
72
12
73
8
40
0
40
0
40
0
40
0
40
0.0880792633922689
40
0.0880792633922689
40
0.576107189837383
40
0.576107189837383
40
1
40
1
40
1
40
1
41
1
10
54.6040818169429
20
21.3521290402491
30
0
41
1
10
54.6140661440235
20
21.3524184249717
30
0
41
1
10
54.6240551161812
20
21.3525607797166
30
0
41
1
10
54.6893799480028
20
21.3524346063381
30
0
41
1
10
54.7447000295702
20
21.3503756036341
30
0
41
1
10
54.8480735369365
20
21.3477193102371
30
0
41
1
10
54.8961214732615
20
21.3463032538925
30
0
41
1
10
54.9441651422481
20
21.3447404067392
30
0
0
SPLINE
5
22F
100
AcDbEntity
8
1
62
256
6
ByLayer
370
13
48
1
60
0
100
AcDbSpline
70
4
71
3
72
10
73
6
40
0
40
0
40
0
40
0
40
0.595894712070617
40
0.595894712070617
40
1
40
1
40
1
40
1
41
1
10
54.896439687712
20
21.4719580408749
30
0
41
1
10
54.9128914645872
20
21.4501903503934
30
0
41
1
10
54.9267183907984
20
21.4257700986574
30
0
41
1
10
54.940810212682
20
21.3820989810866
30
0
41
1
10
54.9440390421828
20
21.3633404430768
30
0
41
1
10
54.9441651422481
20
21.3447404067392
30
0
0
SPLINE
5
230
100
AcDbEntity
8
1
62
256
6
ByLayer
370
13
48
1
60
0
100
AcDbSpline
70
4
71
3
72
16
73
12
40
0
40
0
40
0
40
0
40
0.550547840515593
40
0.550547840515593
40
0.792876062772848
40
0.792876062772848
40
0.904227776395907
40
0.904227776395907
40
0.964015152759446
40
0.964015152759446
40
1
40
1
40
1
40
1
41
1
10
54.610515563742
20
21.7934537725688
30
0
41
1
10
54.5975450008677
20
21.8024905193639
30
0
41
1
10
54.5844768135886
20
21.811708282694
30
0
41
1
10
54.5657548110492
20
21.825072508236
30
0
41
1
10
54.560032266874
20
21.8291789905538
30
0
41
1
10
54.5517104802333
20
21.8351826967823
30
0
41
1
10
54.5490936305622
20
21.8370752607356
30
0
41
1
10
54.5450796636702
20
21.8399854982634
30
0
41
1
10
54.5436787273479
20
21.8410025790446
30
0
41
1
10
54.5414390369606
20
21.8426307945087
30
0
41
1
10
54.5405990425508
20
21.8432415669747
30
0
41
1
10
54.5397600217523
20
21.8438529003174
30
0
0
SPLINE
5
231
100
AcDbEntity
8
1
62
256
6
ByLayer
370
13
48
1
60
0
100
AcDbSpline
70
4
71
3
72
16
73
12
40
0
40
0
40
0
40
0
40
0.550547840515593
40
0.550547840515593
40
0.792876062772848
40
0.792876062772848
40
0.904227776395907
40
0.904227776395907
40
0.964015152759446
40
0.964015152759446
40
1
40
1
40
1
40
1
41
1
10
54.610515563742
20
20.2065462274315
30
0
41
1
10
54.5975450008677
20
20.1975094806364
30
0
41
1
10
54.5844768135886
20
20.1882917173063
30
0
41
1
10
54.5657548110492
20
20.1749274917643
30
0
41
1
10
54.560032266874
20
20.1708210094465
30
0
41
1
10
54.5517104802333
20
20.164817303218
30
0
41
1
10
54.5490936305622
20
20.1629247392647
30
0
41
1
10
54.5450796636702
20
20.1600145017369
30
0
41
1
10
54.5436787273479
20
20.1589974209557
30
0
41
1
10
54.5414390369606
20
20.1573692054916
30
0
41
1
10
54.5405990425508
20
20.1567584330256
30
0
41
1
10
54.5397600217523
20
20.156147099683
30
0
0
SPLINE
5
232
100
AcDbEntity
8
1
62
256
6
ByLayer
370
13
48
1
60
0
100
AcDbSpline
70
4
71
3
72
10
73
6
40
0
40
0
40
0
40
0
40
0.202374079532489
40
0.202374079532489
40
1
40
1
40
1
40
1
41
1
10
53.9939768523292
20
21.3533326201235
30
0
41
1
10
54.0366335743463
20
21.3521473391054
30
0
41
1
10
54.0793460209674
20
21.3516530985145
30
0
41
1
10
54.2872289032591
20
21.3488211110948
30
0
41
1
10
54.4524723046481
20
21.3489066014581
30
0
41
1
10
54.6040818169429
20
21.3521290402491
30
0
0
SPLINE
5
233
100
AcDbEntity
8
1
62
256
6
ByLayer
370
13
48
1
60
0
100
AcDbSpline
70
4
71
3
72
8
73
4
40
0
40
0
40
0
40
0
40
1
40
1
40
1
40
1
41
1
10
54.1810768987951
20
20.1251838363334
30
0
41
1
10
54.0666740375911
20
20.1284918621277
30
0
41
1
10
53.9499584372937
20
20.1374661605721
30
0
41
1
10
53.8337805434613
20
20.1332382279501
30
0
0
SPLINE
5
234
100
AcDbEntity
8
1
62
256
6
ByLayer
370
13
48
1
60
0
100
AcDbSpline
70
4
71
3
72
8
73
4
40
0
40
0
40
0
40
0
40
1
40
1
40
1
40
1
41
1
10
54.1810768987951
20
21.8748161636669
30
0
41
1
10
54.0666740375911
20
21.8715081378727
30
0
41
1
10
53.9499584372937
20
21.8625338394282
30
0
41
1
10
53.8337805434613
20
21.8667617720502
30
0
0
SPLINE
5
235
100
AcDbEntity
8
1
62
256
6
ByLayer
370
13
48
1
60
0
100
AcDbSpline
70
4
71
3
72
10
73
6
40
0
40
0
40
0
40
0
40
0.202374079532489
40
0.202374079532489
40
1
40
1
40
1
40
1
41
1
10
53.9939768523292
20
20.6466673798769
30
0
41
1
10
54.0366335743463
20
20.6478526608949
30
0
41
1
10
54.0793460209674
20
20.6483469014858
30
0
41
1
10
54.2872289032591
20
20.6511788889055
30
0
41
1
10
54.4524723046481
20
20.6510933985423
30
0
41
1
10
54.6040818169429
20
20.6478709597513
30
0
0
SPLINE
5
236
100
AcDbEntity
8
1
62
256
6
ByLayer
370
13
48
1
60
0
100
AcDbSpline
70
4
71
3
72
8
73
4
40
0
40
0
40
0
40
0
40
1
40
1
40
1
40
1
41
1
10
53.8337805434613
20
20.1332382279501
30
0
41
1
10
53.7338294385697
20
20.1299896933365
30
0
41
1
10
53.6333593139737
20
20.1267698471869
30
0
41
1
10
53.5337805434612
20
20.1359613273678
30
0
0
SPLINE
5
237
100
AcDbEntity
8
1
62
256
6
ByLayer
370
13
48
1
60
0
100
AcDbSpline
70
4
71
3
72
8
73
4
40
0
40
0
40
0
40
0
40
1
40
1
40
1
40
1
41
1
10
53.8337805434613
20
21.8667617720502
30
0
41
1
10
53.7338294385697
20
21.8700103066638
30
0
41
1
10
53.6333593139737
20
21.8732301528135
30
0
41
1
10
53.5337805434612
20
21.8640386726326
30
0
0
SPLINE
5
238
100
AcDbEntity
8
1
62
256
6
ByLayer
370
13
48
1
60
0
100
AcDbSpline
70
4
71
3
72
10
73
6
40
0
40
0
40
0
40
0
40
0.412056726398416
40
0.412056726398416
40
1
40
1
40
1
40
1
41
1
10
54.9970257408962
20
21.3447404067392
30
0
41
1
10
54.9970257408962
20
21.3678599447052
30
0
41
1
10
54.99385361432
20
21.391153272764
30
0
41
1
10
54.9795476699584
20
21.4452214635901
30
0
41
1
10
54.9654870839336
20
21.4756912012623
30
0
41
1
10
54.9480375085945
20
21.503425278672
30
0
0
SPLINE
5
239
100
AcDbEntity
8
1
62
256
6
ByLayer
370
13
48
1
60
0
100
AcDbSpline
70
4
71
3
72
16
73
12
40
0
40
0
40
0
40
0
40
0.144623406732697
40
0.144623406732697
40
0.340113210683642
40
0.340113210683642
40
0.361421053906806
40
0.361421053906806
40
0.96509055241744
40
0.96509055241744
40
1
40
1
40
1
40
1
41
1
10
53.4939768523292
20
21.3496971097123
30
0
41
1
10
53.5176378728546
20
21.3544288071241
30
0
41
1
10
53.5416309953235
20
21.3576440347644
30
0
41
1
10
53.598193352456
20
21.3624010940094
30
0
41
1
10
53.6308631318152
20
21.3635562358424
30
0
41
1
10
53.6670552818254
20
21.3635632497733
30
0
41
1
10
53.6706149406199
20
21.3635471207076
30
0
41
1
10
53.7749938211815
20
21.3625248103495
30
0
41
1
10
53.8757429102796
20
21.3577435474232
30
0
41
1
10
53.9823238693043
20
21.3537723162084
30
0
41
1
10
53.9881503958337
20
21.3535533885348
30
0
41
1
10
53.9939768523292
20
21.3533326201235
30
0
0
SPLINE
5
23A
100
AcDbEntity
8
1
62
256
6
ByLayer
370
13
48
1
60
0
100
AcDbSpline
70
4
71
3
72
10
73
6
40
0
40
0
40
0
40
0
40
0.412056726398416
40
0.412056726398416
40
1
40
1
40
1
40
1
41
1
10
54.9970257408962
20
20.6552595932612
30
0
41
1
10
54.9970257408962
20
20.6321400552951
30
0
41
1
10
54.99385361432
20
20.6088467272363
30
0
41
1
10
54.9795476699584
20
20.5547785364102
30
0
41
1
10
54.9654870839336
20
20.5243087987381
30
0
41
1
10
54.9480375085945
20
20.4965747213283
30
0
0
SPLINE
5
23B
100
AcDbEntity
8
1
62
256
6
ByLayer
370
13
48
1
60
0
100
AcDbSpline
70
4
71
3
72
16
73
12
40
0
40
0
40
0
40
0
40
0.144623406732697
40
0.144623406732697
40
0.340113210683642
40
0.340113210683642
40
0.361421053906806
40
0.361421053906806
40
0.96509055241744
40
0.96509055241744
40
1
40
1
40
1
40
1
41
1
10
53.4939768523292
20
20.650302890288
30
0
41
1
10
53.5176378728546
20
20.6455711928762
30
0
41
1
10
53.5416309953235
20
20.6423559652359
30
0
41
1
10
53.598193352456
20
20.6375989059909
30
0
41
1
10
53.6308631318152
20
20.6364437641579
30
0
41
1
10
53.6670552818254
20
20.636436750227
30
0
41
1
10
53.6706149406199
20
20.6364528792928
30
0
41
1
10
53.7749938211815
20
20.6374751896508
30
0
41
1
10
53.8757429102796
20
20.6422564525771
30
0
41
1
10
53.9823238693043
20
20.6462276837919
30
0
41
1
10
53.9881503958337
20
20.6464466114655
30
0
41
1
10
53.9939768523292
20
20.6466673798769
30
0
0
SPLINE
5
23C
100
AcDbEntity
8
1
62
256
6
ByLayer
370
13
48
1
60
0
100
AcDbSpline
70
4
71
3
72
8
73
4
40
0
40
0
40
0
40
0
40
1
40
1
40
1
40
1
41
1
10
54.9480375085945
20
21.503425278672
30
0
41
1
10
54.9406822121478
20
21.5127775915879
30
0
41
1
10
54.9332278664847
20
21.5220261159149
30
0
41
1
10
54.9256635776615
20
21.5311208872975
30
0
0
SPLINE
5
23D
100
AcDbEntity
8
1
62
256
6
ByLayer
370
13
48
1
60
0
100
AcDbSpline
70
4
71
3
72
8
73
4
40
0
40
0
40
0
40
0
40
1
40
1
40
1
40
1
41
1
10
54.9480375085945
20
20.4965747213283
30
0
41
1
10
54.9406822121478
20
20.4872224084124
30
0
41
1
10
54.9332278664847
20
20.4779738840854
30
0
41
1
10
54.9256635776615
20
20.4688791127028
30
0
0
SPLINE
5
23E
100
AcDbEntity
8
1
62
256
6
ByLayer
370
13
48
1
60
0
100
AcDbSpline
70
4
71
3
72
16
73
12
40
0
40
0
40
0
40
0
40
0.0002204728141812
40
0.0002204728141812
40
0.28207049074326
40
0.28207049074326
40
0.563941110555105
40
0.563941110555105
40
0.999779527185927
40
0.999779527185927
40
1
40
1
40
1
40
1
41
1
10
53.2289221872924
20
21.2934518921113
30
0
41
1
10
53.2289414547825
20
21.2934563097775
30
0
41
1
10
53.2289607223292
20
21.2934607271291
30
0
41
1
10
53.2536114636835
20
21.2991124809499
30
0
41
1
10
53.2783272225084
20
21.3047902553159
30
0
41
1
10
53.327843685161
20
21.3162705129118
30
0
41
1
10
53.3526291596669
20
21.3221934977945
30
0
41
1
10
53.4159850762818
20
21.3363858750429
30
0
41
1
10
53.4548717009098
20
21.3437032546999
30
0
41
1
10
53.4939373139163
20
21.3496910505127
30
0
41
1
10
53.4939570830919
20
21.3496940803139
30
0
41
1
10
53.4939768523292
20
21.3496971097123
30
0
0
SPLINE
5
23F
100
AcDbEntity
8
1
62
256
6
ByLayer
370
13
48
1
60
0
100
AcDbSpline
70
4
71
3
72
16
73
12
40
0
40
0
40
0
40
0
40
0.0002204728141812
40
0.0002204728141812
40
0.28207049074326
40
0.28207049074326
40
0.563941110555105
40
0.563941110555105
40
0.999779527185927
40
0.999779527185927
40
1
40
1
40
1
40
1
41
1
10
53.2289221872924
20
20.7065481078891
30
0
41
1
10
53.2289414547824
20
20.7065436903693
30
0
41
1
10
53.2289607223292
20
20.7065392728712
30
0
41
1
10
53.2536114636835
20
20.7008875190504
30
0
41
1
10
53.2783272225084
20
20.6952097446844
30
0
41
1
10
53.327843685161
20
20.6837294870885
30
0
41
1
10
53.3526291596669
20
20.6778065022058
30
0
41
1
10
53.4159850762818
20
20.6636141249575
30
0
41
1
10
53.4548717009098
20
20.6562967453004
30
0
41
1
10
53.4939373139163
20
20.6503089494876
30
0
41
1
10
53.4939570831493
20
20.6503059200612
30
0
41
1
10
53.4939768523292
20
20.650302890288
30
0
0
SPLINE
5
240
100
AcDbEntity
8
1
62
256
6
ByLayer
370
13
48
1
60
0
100
AcDbSpline
70
4
71
3
72
8
73
4
40
0
40
0
40
0
40
0
40
1
40
1
40
1
40
1
41
1
10
53.2289221872924
20
21.0000000000002
30
0
41
1
10
53.3172737423047
20
21.0000000000002
30
0
41
1
10
53.405625297317
20
21.0000000000002
30
0
41
1
10
53.4939768523292
20
21.0000000000002
30
0
0
SPLINE
5
241
100
AcDbEntity
8
1
62
256
6
ByLayer
370
18
48
1
60
0
100
AcDbSpline
70
4
71
3
72
10
73
6
40
0
40
0
40
0
40
0
40
0.756102769204547
40
0.756102769204547
40
1
40
1
40
1
40
1
41
1
10
46.5466320131342
20
21.8000000000002
30
0
41
1
10
46.5335358577321
20
21.8000000000002
30
0
41
1
10
46.5207202080259
20
21.8000000000002
30
0
41
1
10
46.5042092102192
20
21.8000000000002
30
0
41
1
10
46.5002140960561
20
21.8000000000002
30
0
41
1
10
46.4962544185031
20
21.8000000000002
30
0
0
SPLINE
5
242
100
AcDbEntity
8
1
62
256
6
ByLayer
370
18
48
1
60
0
100
AcDbSpline
70
4
71
3
72
14
73
10
40
0
40
0
40
0
40
0
40
0.209394252568555
40
0.209394252568555
40
0.418674140634421
40
0.418674140634421
40
0.627952529466336
40
0.627952529466336
40
1
40
1
40
1
40
1
41
1
10
52.4731203716814
20
20.1175548863899
30
0
41
1
10
52.5313095888795
20
20.1175615656765
30
0
41
1
10
52.5945415508062
20
20.1169753063951
30
0
41
1
10
52.7284652768354
20
20.1146399901325
30
0
41
1
10
52.7996116692105
20
20.1128835616816
30
0
41
1
10
52.9473813033078
20
20.1082648544238
30
0
41
1
10
53.0245105149097
20
20.1053867750797
30
0
41
1
10
53.2423341909035
20
20.0960228161006
30
0
41
1
10
53.3889070981155
20
20.0883391731626
30
0
41
1
10
53.5337805434602
20
20.0794402024623
30
0
0
SPLINE
5
243
100
AcDbEntity
8
1
62
256
6
ByLayer
370
18
48
1
60
0
100
AcDbSpline
70
4
71
3
72
14
73
10
40
0
40
0
40
0
40
0
40
0.209828521639199
40
0.209828521639199
40
0.4195901540272
40
0.4195901540272
40
0.628965113592846
40
0.628965113592846
40
1
40
1
40
1
40
1
41
1
10
53.5337805434612
20
21.9205597975385
30
0
41
1
10
53.4514732695809
20
21.9155040054509
30
0
41
1
10
53.3688292147962
20
21.9108473322728
30
0
41
1
10
53.2062811533078
20
21.9025274023628
30
0
41
1
10
53.1258208334326
20
21.8988354262642
30
0
41
1
10
52.9699639724299
20
21.8925463359725
30
0
41
1
10
52.8940252483449
20
21.8899257207046
30
0
41
1
10
52.6941103545506
20
21.8842831645629
30
0
41
1
10
52.5754747567342
20
21.8824333647959
30
0
41
1
10
52.4731203716824
20
21.8824451136096
30
0
0
SPLINE
5
244
100
AcDbEntity
8
1
62
256
6
ByLayer
370
18
48
1
60
0
100
AcDbSpline
70
4
71
3
72
8
73
4
40
0
40
0
40
0
40
0
40
1
40
1
40
1
40
1
41
1
10
54.1810768987951
20
21.9621903895593
30
0
41
1
10
54.0667232362903
20
21.9539252392096
30
0
41
1
10
53.9500733165824
20
21.9461309239926
30
0
41
1
10
53.8337805434612
20
21.9389875446231
30
0
0
SPLINE
5
245
100
AcDbEntity
8
1
62
256
6
ByLayer
370
18
48
1
60
0
100
AcDbSpline
70
4
71
3
72
10
73
6
40
0
40
0
40
0
40
0
40
0.575849552148122
40
0.575849552148122
40
1
40
1
40
1
40
1
41
1
10
46.4962544185031
20
20.2000000000002
30
0
41
1
10
46.5055992325651
20
20.2000000000002
30
0
41
1
10
46.5151434423376
20
20.2000000000002
30
0
41
1
10
46.5320239080445
20
20.2000000000002
30
0
41
1
10
46.5392832271311
20
20.2000000000002
30
0
41
1
10
46.5466320131342
20
20.2000000000002
30
0
0
SPLINE
5
246
100
AcDbEntity
8
1
62
256
6
ByLayer
370
18
48
1
60
0
100
AcDbSpline
70
4
71
3
72
8
73
4
40
0
40
0
40
0
40
0
40
1
40
1
40
1
40
1
41
1
10
53.8337805434612
20
20.0610124553772
30
0
41
1
10
53.9500733165824
20
20.0538690760077
30
0
41
1
10
54.0667232362903
20
20.0460747607907
30
0
41
1
10
54.1810768987951
20
20.037809610441
30
0
0
SPLINE
5
247
100
AcDbEntity
8
1
62
256
6
ByLayer
370
18
48
1
60
0
100
AcDbSpline
70
4
71
3
72
16
73
12
40
0
40
0
40
0
40
0
40
0.211440290976243
40
0.211440290976243
40
0.422896736694443
40
0.422896736694443
40
0.633935131411306
40
0.633935131411306
40
0.842399597812144
40
0.842399597812144
40
1
40
1
40
1
40
1
41
1
10
55.0019409516835
20
21.7467596663438
30
0
41
1
10
55.0021828121519
20
21.775353736606
30
0
41
1
10
54.997509865013
20
21.8043407703647
30
0
41
1
10
54.9791355265766
20
21.8583068798294
30
0
41
1
10
54.9651770288146
20
21.8840356042092
30
0
41
1
10
54.9300123990848
20
21.9286165768613
30
0
41
1
10
54.9083234948748
20
21.9481045899969
30
0
41
1
10
54.8605708510197
20
21.977920953699
30
0
41
1
10
54.8338898983737
20
21.9887706018446
30
0
41
1
10
54.7856899076455
20
21.9991283575005
30
0
41
1
10
54.7640691721776
20
22.0008470845583
30
0
41
1
10
54.7427579923014
20
21.9996990601014
30
0
0
SPLINE
5
248
100
AcDbEntity
8
1
62
256
6
ByLayer
370
18
48
1
60
0
100
AcDbSpline
70
4
71
3
72
16
73
12
40
0
40
0
40
0
40
0
40
0.203363754276493
40
0.203363754276493
40
0.40658604208921
40
0.40658604208921
40
0.611967971554986
40
0.611967971554986
40
0.82073821984358
40
0.82073821984358
40
1
40
1
40
1
40
1
41
1
10
54.7427579923014
20
20.0003009398989
30
0
41
1
10
54.7700970081208
20
19.9988281984097
30
0
41
1
10
54.7980262240332
20
20.0021219869863
30
0
41
1
10
54.8504076479783
20
20.0175889246357
30
0
41
1
10
54.8755789022368
20
20.0299616867161
30
0
41
1
10
54.9201132665787
20
20.062022668119
30
0
41
1
10
54.9400202557988
20
20.0822177473148
30
0
41
1
10
54.9720355922843
20
20.1278049916401
30
0
41
1
10
54.9844520380369
20
20.1538995672215
30
0
41
1
10
54.9988187436013
20
20.2043263112233
30
0
41
1
10
55.0021467885115
20
20.2289051756223
30
0
41
1
10
55.0019409516835
20
20.2532403336565
30
0
0
LINE
5
70
100
AcDbEntity
8
1
62
256
6
ByLayer
370
13
48
1
60
0
100
AcDbLine
10
0.3
20
16
30
0
11
0
21
15.7
31
0
39
0
210
0
220
0
230
1
0
LINE
5
72
100
AcDbEntity
8
1
62
256
6
ByLayer
370
13
48
1
60
0
100
AcDbLine
10
0
20
-15.7
30
0
11
0.3
21
-16
31
0
39
0
210
0
220
0
230
1
0
LINE
5
73
100
AcDbEntity
8
1
62
256
6
ByLayer
370
13
48
1
60
0
100
AcDbLine
10
17.740708
20
21.75
30
0
11
16.438319
21
16.889417
31
0
39
0
210
0
220
0
230
1
0
LINE
5
74
100
AcDbEntity
8
1
62
256
6
ByLayer
370
13
48
1
60
0
100
AcDbLine
10
0.3
20
-16
30
0
11
15.033108
21
-16
31
0
39
0
210
0
220
0
230
1
0
LINE
5
75
100
AcDbEntity
8
1
62
256
6
ByLayer
370
13
48
1
60
0
100
AcDbLine
10
15.279208
20
16
30
0
11
0.3
21
16
31
0
39
0
210
0
220
0
230
1
0
LINE
5
76
100
AcDbEntity
8
80
62
256
6
ByLayer
370
18
48
1
60
0
100
AcDbLine
10
0
20
0
30
0
11
-5
21
0
31
0
39
0
210
0
220
0
230
1
0
LINE
5
77
100
AcDbEntity
8
81
62
256
6
ByLayer
370
18
48
1
60
0
100
AcDbLine
10
55
20
22
30
0
11
60
21
22
31
0
39
0
210
0
220
0
230
1
0
LINE
5
78
100
AcDbEntity
8
SK1
62
256
6
ByLayer
370
13
48
1
60
0
100
AcDbLine
10
-1.29504
20
10.827955
30
0
11
-1.29504
21
10.830291
31
0
39
0
210
0
220
0
230
1
0
LINE
5
7A
100
AcDbEntity
8
SK1
62
256
6
ByLayer
370
13
48
1
60
0
100
AcDbLine
10
-1.315435
20
-3.312046
30
0
11
-1.315435
21
3.312047
31
0
39
0
210
0
220
0
230
1
0
LINE
5
7B
100
AcDbEntity
8
SK1
62
256
6
ByLayer
370
13
48
1
60
0
100
AcDbLine
10
-1.29504
20
-10.830291
30
0
11
-1.29504
21
-10.827955
31
0
39
0
210
0
220
0
230
1
0
LINE
5
7C
100
AcDbEntity
8
1
62
256
6
ByLayer
370
13
48
1
60
0
100
AcDbLine
10
33.6
20
20.25
30
0
11
33.6
21
21.75
31
0
39
0
210
0
220
0
230
1
0
LINE
5
7D
100
AcDbEntity
8
1
62
256
6
ByLayer
370
13
48
1
60
0
100
AcDbLine
10
29.548567
20
-10.5
30
0
11
31.1
21
-1.701385
31
0
39
0
210
0
220
0
230
1
0
LINE
5
7E
100
AcDbEntity
8
1
62
256
6
ByLayer
370
13
48
1
60
0
100
AcDbLine
10
46.290738
20
20.25
30
0
11
50.415611
21
20.25
31
0
39
0
210
0
220
0
230
1
0
LINE
5
7F
100
AcDbEntity
8
1
62
256
6
ByLayer
370
13
48
1
60
0
100
AcDbLine
10
4.663397
20
5.068619
30
0
11
4.663397
21
15.175938
31
0
39
0
210
0
220
0
230
1
0
LINE
5
80
100
AcDbEntity
8
1
62
256
6
ByLayer
370
13
48
1
60
0
100
AcDbLine
10
33.6
20
20.25
30
0
11
32.7
21
20.25
31
0
39
0
210
0
220
0
230
1
0
LINE
5
81
100
AcDbEntity
8
1
62
256
6
ByLayer
370
13
48
1
60
0
100
AcDbLine
10
4.923205
20
-4.755463
30
0
11
7.076795
21
-4.755463
31
0
39
0
210
0
220
0
230
1
0
LINE
5
82
100
AcDbEntity
8
1
62
256
6
ByLayer
370
13
48
1
60
0
100
AcDbLine
10
19.046351
20
-10.5
30
0
11
29.548567
21
-10.5
31
0
39
0
210
0
220
0
230
1
0
LINE
5
83
100
AcDbEntity
8
1
62
256
6
ByLayer
370
13
48
1
60
0
100
AcDbLine
10
15.279208
20
16
30
0
11
15.279208
21
12.975572
31
0
39
0
210
0
220
0
230
1
0
LINE
5
84
100
AcDbEntity
8
1
62
256
6
ByLayer
370
13
48
1
60
0
100
AcDbLine
10
41.290738
20
20.25
30
0
11
46.290738
21
20.25
31
0
39
0
210
0
220
0
230
1
0
LINE
5
85
100
AcDbEntity
8
1
62
256
6
ByLayer
370
13
48
1
60
0
100
AcDbLine
10
31.360196
20
0.007019
30
0
11
31.360196
21
18.65
31
0
39
0
210
0
220
0
230
1
0
LINE
5
86
100
AcDbEntity
8
1
62
256
6
ByLayer
370
13
48
1
60
0
100
AcDbLine
10
4.923205
20
15.276962
30
0
11
7.076795
21
15.276962
31
0
39
0
210
0
220
0
230
1
0
LINE
5
87
100
AcDbEntity
8
1
62
256
6
ByLayer
370
13
48
1
60
0
100
AcDbLine
10
15.033108
20
-16
30
0
11
15.046503
21
-14.465094
31
0
39
0
210
0
220
0
230
1
0
LINE
5
88
100
AcDbEntity
8
1
62
256
6
ByLayer
370
13
48
1
60
0
100
AcDbLine
10
7.076795
20
4.755463
30
0
11
7.076795
21
15.276962
31
0
39
0
210
0
220
0
230
1
0
LINE
5
89
100
AcDbEntity
8
1
62
256
6
ByLayer
370
13
48
1
60
0
100
AcDbLine
10
7.076795
20
-15.276962
30
0
11
7.076795
21
-4.755463
31
0
39
0
210
0
220
0
230
1
0
LINE
5
8A
100
AcDbEntity
8
1
62
256
6
ByLayer
370
13
48
1
60
0
100
AcDbLine
10
46.290738
20
20.25
30
0
11
46.290738
21
21.75
31
0
39
0
210
0
220
0
230
1
0
LINE
5
8B
100
AcDbEntity
8
1
62
256
6
ByLayer
370
13
48
1
60
0
100
AcDbLine
10
31.360722
20
0.006926
30
0
11
31.360196
21
0.007019
31
0
39
0
210
0
220
0
230
1
0
LINE
5
8C
100
AcDbEntity
8
1
62
256
6
ByLayer
370
13
48
1
60
0
100
AcDbLine
10
16.438319
20
16.889417
30
0
11
16.438319
21
15.045674
31
0
39
0
210
0
220
0
230
1
0
LINE
5
8D
100
AcDbEntity
8
1
62
256
6
ByLayer
370
13
48
1
60
0
100
AcDbLine
10
25.758061
20
21.75
30
0
11
33.6
21
21.75
31
0
39
0
210
0
220
0
230
1
0
LINE
5
8E
100
AcDbEntity
8
1
62
256
6
ByLayer
370
13
48
1
60
0
100
AcDbLine
10
31.1
20
18.65
30
0
11
31.1
21
-1.701385
31
0
39
0
210
0
220
0
230
1
0
LINE
5
8F
100
AcDbEntity
8
1
62
256
6
ByLayer
370
13
48
1
60
0
100
AcDbLine
10
31.1
20
18.65
30
0
11
31.360196
21
18.65
31
0
39
0
210
0
220
0
230
1
0
LINE
5
90
100
AcDbEntity
8
1
62
256
6
ByLayer
370
13
48
1
60
0
100
AcDbLine
10
7.336603
20
-15.175938
30
0
11
7.336603
21
-5.068619
31
0
39
0
210
0
220
0
230
1
0
LINE
5
91
100
AcDbEntity
8
1
62
256
6
ByLayer
370
13
48
1
60
0
100
AcDbLine
10
41.290738
20
21.75
30
0
11
46.290738
21
21.75
31
0
39
0
210
0
220
0
230
1
0
LINE
5
92
100
AcDbEntity
8
1
62
256
6
ByLayer
370
13
48
1
60
0
100
AcDbLine
10
28.861222
20
18.65
30
0
11
31.1
21
18.65
31
0
39
0
210
0
220
0
230
1
0
LINE
5
93
100
AcDbEntity
8
1
62
256
6
ByLayer
370
13
48
1
60
0
100
AcDbLine
10
7.076795
20
-15.276962
30
0
11
4.923205
21
-15.276962
31
0
39
0
210
0
220
0
230
1
0
LINE
5
94
100
AcDbEntity
8
1
62
256
6
ByLayer
370
13
48
1
60
0
100
AcDbLine
10
50.415611
20
20.25
30
0
11
50.415611
21
20.669571
31
0
39
0
210
0
220
0
230
1
0
LINE
5
95
100
AcDbEntity
8
1
62
256
6
ByLayer
370
13
48
1
60
0
100
AcDbLine
10
4.923205
20
4.755463
30
0
11
4.923205
21
15.276962
31
0
39
0
210
0
220
0
230
1
0
LINE
5
96
100
AcDbEntity
8
1
62
256
6
ByLayer
370
13
48
1
60
0
100
AcDbLine
10
46.290738
20
21.75
30
0
11
50.415611
21
21.75
31
0
39
0
210
0
220
0
230
1
0
LINE
5
97
100
AcDbEntity
8
1
62
256
6
ByLayer
370
13
48
1
60
0
100
AcDbLine
10
0.3
20
16
30
0
11
0.3
21
-16
31
0
39
0
210
0
220
0
230
1
0
LINE
5
98
100
AcDbEntity
8
1
62
256
6
ByLayer
370
13
48
1
60
0
100
AcDbLine
10
7.076795
20
4.755463
30
0
11
4.923205
21
4.755463
31
0
39
0
210
0
220
0
230
1
0
LINE
5
99
100
AcDbEntity
8
1
62
256
6
ByLayer
370
13
48
1
60
0
100
AcDbLine
10
18.848943
20
21.75
30
0
11
19.046351
21
21.75
31
0
39
0
210
0
220
0
230
1
0
LINE
5
9A
100
AcDbEntity
8
1
62
256
6
ByLayer
370
13
48
1
60
0
100
AcDbLine
10
7.336603
20
5.068619
30
0
11
7.336603
21
15.175938
31
0
39
0
210
0
220
0
230
1
0
LINE
5
9B
100
AcDbEntity
8
1
62
256
6
ByLayer
370
13
48
1
60
0
100
AcDbLine
10
25.758061
20
21.75
30
0
11
19.046351
21
21.75
31
0
39
0
210
0
220
0
230
1
0
LINE
5
9C
100
AcDbEntity
8
1
62
256
6
ByLayer
370
13
48
1
60
0
100
AcDbLine
10
4.923205
20
-15.276962
30
0
11
4.923205
21
-4.755463
31
0
39
0
210
0
220
0
230
1
0
LINE
5
9D
100
AcDbEntity
8
1
62
256
6
ByLayer
370
13
48
1
60
0
100
AcDbLine
10
4.663397
20
-15.175938
30
0
11
4.663397
21
-5.068619
31
0
39
0
210
0
220
0
230
1
0
LINE
5
9E
100
AcDbEntity
8
1
62
256
6
ByLayer
370
13
48
1
60
0
100
AcDbLine
10
50.415611
20
21.330429
30
0
11
50.415611
21
21.75
31
0
39
0
210
0
220
0
230
1
0
LINE
5
9F
100
AcDbEntity
8
1
62
256
6
ByLayer
370
13
48
1
60
0
100
AcDbLine
10
18.011826
20
21.75
30
0
11
18.848943
21
21.75
31
0
39
0
210
0
220
0
230
1
0
LINE
5
A0
100
AcDbEntity
8
1
62
256
6
ByLayer
370
13
48
1
60
0
100
AcDbLine
10
0
20
15.7
30
0
11
0
21
-15.7
31
0
39
0
210
0
220
0
230
1
0
LINE
5
A1
100
AcDbEntity
8
1
62
256
6
ByLayer
370
13
48
1
60
0
100
AcDbLine
10
32.7
20
20.25
30
0
11
25.758061
21
20.25
31
0
39
0
210
0
220
0
230
1
0
LINE
5
A2
100
AcDbEntity
8
1
62
256
6
ByLayer
370
13
48
1
60
0
100
AcDbLine
10
19.046351
20
-10.5
30
0
11
19.046351
21
21.75
31
0
39
0
210
0
220
0
230
1
0
LINE
5
A3
100
AcDbEntity
8
1
62
256
6
ByLayer
370
13
48
1
60
0
100
AcDbLine
10
41.290738
20
20.25
30
0
11
33.6
21
20.25
31
0
39
0
210
0
220
0
230
1
0
LINE
5
A4
100
AcDbEntity
8
1
62
256
6
ByLayer
370
13
48
1
60
0
100
AcDbLine
10
41.290738
20
21.75
30
0
11
41.290738
21
20.25
31
0
39
0
210
0
220
0
230
1
0
LINE
5
A5
100
AcDbEntity
8
1
62
256
6
ByLayer
370
13
48
1
60
0
100
AcDbLine
10
33.6
20
21.75
30
0
11
41.290738
21
21.75
31
0
39
0
210
0
220
0
230
1
0
LINE
5
A6
100
AcDbEntity
8
1
62
256
6
ByLayer
370
13
48
1
60
0
100
AcDbLine
10
15.046503
20
11.921568
30
0
11
15.046503
21
-11.921568
31
0
39
0
210
0
220
0
230
1
0
LINE
5
A7
100
AcDbEntity
8
1
62
256
6
ByLayer
370
13
48
1
60
0
100
AcDbLine
10
25.758061
20
21.75
30
0
11
25.758061
21
20.25
31
0
39
0
210
0
220
0
230
1
0
LINE
5
A8
100
AcDbEntity
8
1
62
256
6
ByLayer
370
13
48
1
60
0
100
AcDbLine
10
51.709679
20
20.2
30
0
11
51.709679
21
20.323938
31
0
39
0
210
0
220
0
230
1
0
LINE
5
A9
100
AcDbEntity
8
1
62
256
6
ByLayer
370
13
48
1
60
0
100
AcDbLine
10
52.068752
20
20.304612
30
0
11
52.152761
21
20.300476
31
0
39
0
210
0
220
0
230
1
0
LINE
5
AA
100
AcDbEntity
8
1
62
256
6
ByLayer
370
13
48
1
60
0
100
AcDbLine
10
52.165017
20
20.125199
30
0
11
52.152761
21
20.300476
31
0
39
0
210
0
220
0
230
1
0
LINE
5
AB
100
AcDbEntity
8
1
62
256
6
ByLayer
370
13
48
1
60
0
100
AcDbLine
10
52.165017
20
21.874801
30
0
11
52.152761
21
21.699524
31
0
39
0
210
0
220
0
230
1
0
LINE
5
AC
100
AcDbEntity
8
1
62
256
6
ByLayer
370
13
48
1
60
0
100
AcDbLine
10
52.152761
20
21.699524
30
0
11
52.068752
21
21.695388
31
0
39
0
210
0
220
0
230
1
0
LINE
5
AD
100
AcDbEntity
8
1
62
256
6
ByLayer
370
13
48
1
60
0
100
AcDbLine
10
51.709679
20
21.676062
30
0
11
51.709679
21
21.8
31
0
39
0
210
0
220
0
230
1
0
LINE
5
AE
100
AcDbEntity
8
1
62
256
6
ByLayer
370
13
48
1
60
0
100
AcDbLine
10
52.082448
20
21.417233
30
0
11
52.068752
21
21.695388
31
0
39
0
210
0
220
0
230
1
0
LINE
5
AF
100
AcDbEntity
8
1
62
256
6
ByLayer
370
13
48
1
60
0
100
AcDbLine
10
52.068752
20
20.304612
30
0
11
52.082448
21
20.582767
31
0
39
0
210
0
220
0
230
1
0
LINE
5
B0
100
AcDbEntity
8
1
62
256
6
ByLayer
370
13
48
1
60
0
100
AcDbLine
10
52.177886
20
21.417233
30
0
11
52.082448
21
21.417233
31
0
39
0
210
0
220
0
230
1
0
LINE
5
B1
100
AcDbEntity
8
1
62
256
6
ByLayer
370
13
48
1
60
0
100
AcDbLine
10
52.177886
20
20.582767
30
0
11
52.082448
21
20.582767
31
0
39
0
210
0
220
0
230
1
0
LINE
5
B2
100
AcDbEntity
8
1
62
256
6
ByLayer
370
13
48
1
60
0
100
AcDbLine
10
52.47312
20
20.36152
30
0
11
52.47312
21
20.117555
31
0
39
0
210
0
220
0
230
1
0
LINE
5
B3
100
AcDbEntity
8
1
62
256
6
ByLayer
370
13
48
1
60
0
100
AcDbLine
10
53.533781
20
20.135961
30
0
11
53.533781
21
20.07944
31
0
39
0
210
0
220
0
230
1
0
LINE
5
B4
100
AcDbEntity
8
1
62
256
6
ByLayer
370
13
48
1
60
0
100
AcDbLine
10
53.533781
20
21.864039
30
0
11
53.533781
21
21.92056
31
0
39
0
210
0
220
0
230
1
0
LINE
5
B5
100
AcDbEntity
8
1
62
256
6
ByLayer
370
13
48
1
60
0
100
AcDbLine
10
52.47312
20
21.63848
30
0
11
52.47312
21
21.882445
31
0
39
0
210
0
220
0
230
1
0
LINE
5
B6
100
AcDbEntity
8
1
62
256
6
ByLayer
370
13
48
1
60
0
100
AcDbLine
10
52.152761
20
20.300476
30
0
11
52.364634
21
20.315291
31
0
39
0
210
0
220
0
230
1
0
LINE
5
B7
100
AcDbEntity
8
1
62
256
6
ByLayer
370
13
48
1
60
0
100
AcDbLine
10
52.364634
20
20.315291
30
0
11
52.378462
21
20.117544
31
0
39
0
210
0
220
0
230
1
0
LINE
5
B8
100
AcDbEntity
8
1
62
256
6
ByLayer
370
13
48
1
60
0
100
AcDbLine
10
52.152761
20
20.300476
30
0
11
52.166456
21
20.578631
31
0
39
0
210
0
220
0
230
1
0
LINE
5
B9
100
AcDbEntity
8
1
62
256
6
ByLayer
370
13
48
1
60
0
100
AcDbLine
10
52.364634
20
21.684709
30
0
11
52.378462
21
21.882456
31
0
39
0
210
0
220
0
230
1
0
LINE
5
BA
100
AcDbEntity
8
1
62
256
6
ByLayer
370
13
48
1
60
0
100
AcDbLine
10
52.364634
20
21.684709
30
0
11
52.152761
21
21.699524
31
0
39
0
210
0
220
0
230
1
0
LINE
5
BB
100
AcDbEntity
8
1
62
256
6
ByLayer
370
13
48
1
60
0
100
AcDbLine
10
52.166456
20
21.421369
30
0
11
52.152761
21
21.699524
31
0
39
0
210
0
220
0
230
1
0
LINE
5
BC
100
AcDbEntity
8
1
62
256
6
ByLayer
370
13
48
1
60
0
100
AcDbLine
10
51.709679
20
21.676062
30
0
11
51.658376
21
21.676062
31
0
39
0
210
0
220
0
230
1
0
LINE
5
BD
100
AcDbEntity
8
1
62
256
6
ByLayer
370
13
48
1
60
0
100
AcDbLine
10
51.709679
20
20.323938
30
0
11
51.658376
21
20.323938
31
0
39
0
210
0
220
0
230
1
0
LINE
5
BE
100
AcDbEntity
8
1
62
256
6
ByLayer
370
13
48
1
60
0
100
AcDbLine
10
52.166456
20
20.578631
30
0
11
52.082448
21
20.582767
31
0
39
0
210
0
220
0
230
1
0
LINE
5
BF
100
AcDbEntity
8
1
62
256
6
ByLayer
370
13
48
1
60
0
100
AcDbLine
10
52.082448
20
21.417233
30
0
11
52.166456
21
21.421369
31
0
39
0
210
0
220
0
230
1
0
LINE
5
C0
100
AcDbEntity
8
1
62
256
6
ByLayer
370
13
48
1
60
0
100
AcDbLine
10
51.658376
20
20.323938
30
0
11
51.658376
21
20.2
31
0
39
0
210
0
220
0
230
1
0
LINE
5
C1
100
AcDbEntity
8
1
62
256
6
ByLayer
370
13
48
1
60
0
100
AcDbLine
10
51.658376
20
21.8
30
0
11
51.658376
21
21.676062
31
0
39
0
210
0
220
0
230
1
0
LINE
5
C2
100
AcDbEntity
8
1
62
256
6
ByLayer
370
13
48
1
60
0
100
AcDbLine
10
50.787198
20
20.2
30
0
11
50.787198
21
20.274562
31
0
39
0
210
0
220
0
230
1
0
LINE
5
C3
100
AcDbEntity
8
1
62
256
6
ByLayer
370
13
48
1
60
0
100
AcDbLine
10
50.787198
20
21.725438
30
0
11
50.787198
21
21.8
31
0
39
0
210
0
220
0
230
1
0
LINE
5
C4
100
AcDbEntity
8
1
62
256
6
ByLayer
370
13
48
1
60
0
100
AcDbLine
10
52.364634
20
20.315291
30
0
11
52.376063
21
20.319428
31
0
39
0
210
0
220
0
230
1
0
LINE
5
C5
100
AcDbEntity
8
1
62
256
6
ByLayer
370
13
48
1
60
0
100
AcDbLine
10
52.376063
20
21.680572
30
0
11
52.364634
21
21.684709
31
0
39
0
210
0
220
0
230
1
0
LINE
5
C6
100
AcDbEntity
8
1
62
256
6
ByLayer
370
13
48
1
60
0
100
AcDbLine
10
52.177886
20
20.582767
30
0
11
52.166456
21
20.578631
31
0
39
0
210
0
220
0
230
1
0
LINE
5
C7
100
AcDbEntity
8
1
62
256
6
ByLayer
370
13
48
1
60
0
100
AcDbLine
10
52.166456
20
21.421369
30
0
11
52.177886
21
21.417233
31
0
39
0
210
0
220
0
230
1
0
LINE
5
C8
100
AcDbEntity
8
1
62
256
6
ByLayer
370
13
48
1
60
0
100
AcDbLine
10
53.228922
20
20.706548
30
0
11
53.228922
21
21
31
0
39
0
210
0
220
0
230
1
0
LINE
5
C9
100
AcDbEntity
8
1
62
256
6
ByLayer
370
13
48
1
60
0
100
AcDbLine
10
50.787198
20
21.725438
30
0
11
50.711215
21
21.725438
31
0
39
0
210
0
220
0
230
1
0
LINE
5
CA
100
AcDbEntity
8
1
62
256
6
ByLayer
370
13
48
1
60
0
100
AcDbLine
10
53.228922
20
21.293452
30
0
11
53.228922
21
21
31
0
39
0
210
0
220
0
230
1
0
LINE
5
CB
100
AcDbEntity
8
1
62
256
6
ByLayer
370
13
48
1
60
0
100
AcDbLine
10
50.711215
20
21.8
30
0
11
50.711215
21
21.725438
31
0
39
0
210
0
220
0
230
1
0
LINE
5
CC
100
AcDbEntity
8
1
62
256
6
ByLayer
370
13
48
1
60
0
100
AcDbLine
10
50.787198
20
20.274562
30
0
11
50.711215
21
20.274562
31
0
39
0
210
0
220
0
230
1
0
LINE
5
CD
100
AcDbEntity
8
1
62
256
6
ByLayer
370
13
48
1
60
0
100
AcDbLine
10
50.711215
20
20.274562
30
0
11
50.711215
21
20.2
31
0
39
0
210
0
220
0
230
1
0
LINE
5
CE
100
AcDbEntity
8
1
62
256
6
ByLayer
370
13
48
1
60
0
100
AcDbLine
10
50.718332
20
20.324016
30
0
11
50.432668
21
20.324016
31
0
39
0
210
0
220
0
230
1
0
LINE
5
CF
100
AcDbEntity
8
1
62
256
6
ByLayer
370
13
48
1
60
0
100
AcDbLine
10
50.432668
20
20.324016
30
0
11
50.469454
21
20.632002
31
0
39
0
210
0
220
0
230
1
0
LINE
5
D0
100
AcDbEntity
8
1
62
256
6
ByLayer
370
13
48
1
60
0
100
AcDbLine
10
50.469454
20
20.632002
30
0
11
50.850614
21
20.632002
31
0
39
0
210
0
220
0
230
1
0
LINE
5
D1
100
AcDbEntity
8
1
62
256
6
ByLayer
370
13
48
1
60
0
100
AcDbLine
10
50.469454
20
21.367998
30
0
11
50.850614
21
21.367998
31
0
39
0
210
0
220
0
230
1
0
LINE
5
D2
100
AcDbEntity
8
1
62
256
6
ByLayer
370
13
48
1
60
0
100
AcDbLine
10
50.432668
20
21.675984
30
0
11
50.469454
21
21.367998
31
0
39
0
210
0
220
0
230
1
0
LINE
5
D3
100
AcDbEntity
8
1
62
256
6
ByLayer
370
13
48
1
60
0
100
AcDbLine
10
50.718332
20
21.675984
30
0
11
50.432668
21
21.675984
31
0
39
0
210
0
220
0
230
1
0
LINE
5
D4
100
AcDbEntity
8
1
62
256
6
ByLayer
370
13
48
1
60
0
100
AcDbLine
10
50.506367
20
21.251024
30
0
11
50.948791
21
21.251024
31
0
39
0
210
0
220
0
230
1
0
LINE
5
D5
100
AcDbEntity
8
1
62
256
6
ByLayer
370
13
48
1
60
0
100
AcDbLine
10
50.506367
20
20.748976
30
0
11
50.948791
21
20.748976
31
0
39
0
210
0
220
0
230
1
0
LINE
5
D6
100
AcDbEntity
8
1
62
256
6
ByLayer
370
13
48
1
60
0
100
AcDbLine
10
50.549075
20
20.799244
30
0
11
51.073158
21
20.799244
31
0
39
0
210
0
220
0
230
1
0
LINE
5
D7
100
AcDbEntity
8
1
62
256
6
ByLayer
370
13
48
1
60
0
100
AcDbLine
10
50.4298
20
20.274562
30
0
11
50.711215
21
20.274562
31
0
39
0
210
0
220
0
230
1
0
LINE
5
D8
100
AcDbEntity
8
1
62
256
6
ByLayer
370
13
48
1
60
0
100
AcDbLine
10
50.549075
20
21.200756
30
0
11
51.073158
21
21.200756
31
0
39
0
210
0
220
0
230
1
0
LINE
5
D9
100
AcDbEntity
8
1
62
256
6
ByLayer
370
13
48
1
60
0
100
AcDbLine
10
50.4298
20
21.725438
30
0
11
50.711215
21
21.725438
31
0
39
0
210
0
220
0
230
1
0
LINE
5
DA
100
AcDbEntity
8
1
62
256
6
ByLayer
370
13
48
1
60
0
100
AcDbLine
10
50.4298
20
21.8
30
0
11
50.4298
21
21.725438
31
0
39
0
210
0
220
0
230
1
0
LINE
5
DB
100
AcDbEntity
8
1
62
256
6
ByLayer
370
13
48
1
60
0
100
AcDbLine
10
50.4298
20
20.2
30
0
11
50.4298
21
20.274562
31
0
39
0
210
0
220
0
230
1
0
LINE
5
DC
100
AcDbEntity
8
1
62
256
6
ByLayer
370
13
48
1
60
0
100
AcDbLine
10
55.000117
20
21.531121
30
0
11
54.925664
21
21.531121
31
0
39
0
210
0
220
0
230
1
0
LINE
5
DD
100
AcDbEntity
8
1
62
256
6
ByLayer
370
13
48
1
60
0
100
AcDbLine
10
54.610516
20
21.793454
30
0
11
54.610516
21
21.992575
31
0
39
0
210
0
220
0
230
1
0
LINE
5
DE
100
AcDbEntity
8
1
62
256
6
ByLayer
370
13
48
1
60
0
100
AcDbLine
10
54.610516
20
20.206546
30
0
11
54.610516
21
20.007425
31
0
39
0
210
0
220
0
230
1
0
LINE
5
DF
100
AcDbEntity
8
1
62
256
6
ByLayer
370
13
48
1
60
0
100
AcDbLine
10
55.000117
20
20.468879
30
0
11
54.925664
21
20.468879
31
0
39
0
210
0
220
0
230
1
0
LINE
5
E0
100
AcDbEntity
8
1
62
256
6
ByLayer
370
13
48
1
60
0
100
AcDbLine
10
50.552289
20
20.802665
30
0
11
51.081712
21
20.802665
31
0
39
0
210
0
220
0
230
1
0
LINE
5
E1
100
AcDbEntity
8
1
62
256
6
ByLayer
370
13
48
1
60
0
100
AcDbLine
10
50.552289
20
21.197335
30
0
11
51.081712
21
21.197335
31
0
39
0
210
0
220
0
230
1
0
LINE
5
E2
100
AcDbEntity
8
1
62
256
6
ByLayer
370
13
48
1
60
0
100
AcDbLine
10
54.53976
20
21.988115
30
0
11
54.53976
21
21.843853
31
0
39
0
210
0
220
0
230
1
0
LINE
5
E3
100
AcDbEntity
8
1
62
256
6
ByLayer
370
13
48
1
60
0
100
AcDbLine
10
54.181077
20
21.874816
30
0
11
54.181077
21
21.96219
31
0
39
0
210
0
220
0
230
1
0
LINE
5
E4
100
AcDbEntity
8
1
62
256
6
ByLayer
370
13
48
1
60
0
100
AcDbLine
10
54.181077
20
20.125184
30
0
11
54.181077
21
20.03781
31
0
39
0
210
0
220
0
230
1
0
LINE
5
E5
100
AcDbEntity
8
1
62
256
6
ByLayer
370
13
48
1
60
0
100
AcDbLine
10
54.53976
20
20.011885
30
0
11
54.53976
21
20.156147
31
0
39
0
210
0
220
0
230
1
0
LINE
5
E6
100
AcDbEntity
8
1
62
256
6
ByLayer
370
13
48
1
60
0
100
AcDbLine
10
50.549075
20
20.799244
30
0
11
50.552289
21
20.802665
31
0
39
0
210
0
220
0
230
1
0
LINE
5
E7
100
AcDbEntity
8
1
62
256
6
ByLayer
370
13
48
1
60
0
100
AcDbLine
10
50.549075
20
21.200756
30
0
11
50.552289
21
21.197335
31
0
39
0
210
0
220
0
230
1
0
LINE
5
E8
100
AcDbEntity
8
1
62
256
6
ByLayer
370
13
48
1
60
0
100
AcDbLine
10
53.833781
20
20.133238
30
0
11
53.833781
21
20.061012
31
0
39
0
210
0
220
0
230
1
0
LINE
5
E9
100
AcDbEntity
8
1
62
256
6
ByLayer
370
13
48
1
60
0
100
AcDbLine
10
53.833781
20
21.866762
30
0
11
53.833781
21
21.938988
31
0
39
0
210
0
220
0
230
1
0
LINE
5
EA
100
AcDbEntity
8
1
62
256
6
ByLayer
370
13
48
1
60
0
100
AcDbLine
10
54.005243
20
21.650666
30
0
11
53.993977
21
21.353333
31
0
39
0
210
0
220
0
230
1
0
LINE
5
EB
100
AcDbEntity
8
1
62
256
6
ByLayer
370
13
48
1
60
0
100
AcDbLine
10
54.005243
20
20.349334
30
0
11
53.993977
21
20.646667
31
0
39
0
210
0
220
0
230
1
0
LINE
5
EC
100
AcDbEntity
8
1
62
256
6
ByLayer
370
13
48
1
60
0
100
AcDbLine
10
54.944165
20
21.34474
30
0
11
54.997026
21
21.34474
31
0
39
0
210
0
220
0
230
1
0
LINE
5
ED
100
AcDbEntity
8
1
62
256
6
ByLayer
370
13
48
1
60
0
100
AcDbLine
10
54.944165
20
20.65526
30
0
11
54.997026
21
20.65526
31
0
39
0
210
0
220
0
230
1
0
LINE
5
EE
100
AcDbEntity
8
1
62
256
6
ByLayer
370
13
48
1
60
0
100
AcDbLine
10
53.493977
20
21.349697
30
0
11
53.43288
21
21.655215
31
0
39
0
210
0
220
0
230
1
0
LINE
5
EF
100
AcDbEntity
8
1
62
256
6
ByLayer
370
13
48
1
60
0
100
AcDbLine
10
53.493977
20
20.650303
30
0
11
53.43288
21
20.344785
31
0
39
0
210
0
220
0
230
1
0
LINE
5
F0
100
AcDbEntity
8
1
62
256
6
ByLayer
370
13
48
1
60
0
100
AcDbLine
10
54.948038
20
20.496575
30
0
11
55
21
20.496575
31
0
39
0
210
0
220
0
230
1
0
LINE
5
F1
100
AcDbEntity
8
1
62
256
6
ByLayer
370
13
48
1
60
0
100
AcDbLine
10
54.997026
20
20.65526
30
0
11
54.997026
21
21.34474
31
0
39
0
210
0
220
0
230
1
0
LINE
5
F2
100
AcDbEntity
8
1
62
256
6
ByLayer
370
13
48
1
60
0
100
AcDbLine
10
54.948038
20
21.503425
30
0
11
55
21
21.503425
31
0
39
0
210
0
220
0
230
1
0
LINE
5
F3
100
AcDbEntity
8
1
62
256
6
ByLayer
370
13
48
1
60
0
100
AcDbLine
10
54.944165
20
21.34474
30
0
11
54.944165
21
20.65526
31
0
39
0
210
0
220
0
230
1
0
LINE
5
F4
100
AcDbEntity
8
1
62
256
6
ByLayer
370
13
48
1
60
0
100
AcDbLine
10
45.665685
20
20.250008
30
0
11
45.665685
21
20.2
31
0
39
0
210
0
220
0
230
1
0
LINE
5
F5
100
AcDbEntity
8
1
62
256
6
ByLayer
370
13
48
1
60
0
100
AcDbLine
10
50.415562
20
21.725438
30
0
11
50.4298
21
21.725438
31
0
39
0
210
0
220
0
230
1
0
LINE
5
F6
100
AcDbEntity
8
1
62
256
6
ByLayer
370
13
48
1
60
0
100
AcDbLine
10
50.432668
20
21.675984
30
0
11
50.41556
21
21.675984
31
0
39
0
210
0
220
0
230
1
0
LINE
5
F7
100
AcDbEntity
8
1
62
256
6
ByLayer
370
13
48
1
60
0
100
AcDbLine
10
54.604082
20
21.352129
30
0
11
54.604082
21
20.647871
31
0
39
0
210
0
220
0
230
1
0
LINE
5
F8
100
AcDbEntity
8
1
62
256
6
ByLayer
370
13
48
1
60
0
100
AcDbLine
10
53.993977
20
21.353333
30
0
11
53.993977
21
20.646667
31
0
39
0
210
0
220
0
230
1
0
LINE
5
F9
100
AcDbEntity
8
1
62
256
6
ByLayer
370
13
48
1
60
0
100
AcDbLine
10
50.415562
20
20.274562
30
0
11
50.4298
21
20.274562
31
0
39
0
210
0
220
0
230
1
0
LINE
5
FA
100
AcDbEntity
8
1
62
256
6
ByLayer
370
13
48
1
60
0
100
AcDbLine
10
46.732227
20
20.25
30
0
11
46.732227
21
20.2
31
0
39
0
210
0
220
0
230
1
0
LINE
5
FB
100
AcDbEntity
8
1
62
256
6
ByLayer
370
13
48
1
60
0
100
AcDbLine
10
50.432668
20
20.324016
30
0
11
50.41556
21
20.324016
31
0
39
0
210
0
220
0
230
1
0
LINE
5
FC
100
AcDbEntity
8
1
62
256
6
ByLayer
370
13
48
1
60
0
100
AcDbLine
10
46.732227
20
21.75
30
0
11
46.732227
21
21.8
31
0
39
0
210
0
220
0
230
1
0
LINE
5
FD
100
AcDbEntity
8
1
62
256
6
ByLayer
370
13
48
1
60
0
100
AcDbLine
10
50.415577
20
20.632002
30
0
11
50.469454
21
20.632002
31
0
39
0
210
0
220
0
230
1
0
LINE
5
FE
100
AcDbEntity
8
1
62
256
6
ByLayer
370
13
48
1
60
0
100
AcDbLine
10
53.493977
20
21.349697
30
0
11
53.493977
21
21
31
0
39
0
210
0
220
0
230
1
0
LINE
5
FF
100
AcDbEntity
8
1
62
256
6
ByLayer
370
13
48
1
60
0
100
AcDbLine
10
50.415577
20
21.367998
30
0
11
50.469454
21
21.367998
31
0
39
0
210
0
220
0
230
1
0
LINE
5
100
100
AcDbEntity
8
1
62
256
6
ByLayer
370
13
48
1
60
0
100
AcDbLine
10
53.493977
20
20.650303
30
0
11
53.493977
21
21
31
0
39
0
210
0
220
0
230
1
0
LINE
5
101
100
AcDbEntity
8
1
62
256
6
ByLayer
370
13
48
1
60
0
100
AcDbLine
10
50.408099
20
21.251024
30
0
11
50.506367
21
21.251024
31
0
39
0
210
0
220
0
230
1
0
LINE
5
102
100
AcDbEntity
8
1
62
256
6
ByLayer
370
13
48
1
60
0
100
AcDbLine
10
50.408099
20
20.748976
30
0
11
50.506367
21
20.748976
31
0
39
0
210
0
220
0
230
1
0
LINE
5
103
100
AcDbEntity
8
1
62
256
6
ByLayer
370
13
48
1
60
0
100
AcDbLine
10
50.405078
20
20.799244
30
0
11
50.549075
21
20.799244
31
0
39
0
210
0
220
0
230
1
0
LINE
5
104
100
AcDbEntity
8
1
62
256
6
ByLayer
370
13
48
1
60
0
100
AcDbLine
10
50.405078
20
21.200756
30
0
11
50.549075
21
21.200756
31
0
39
0
210
0
220
0
230
1
0
LINE
5
105
100
AcDbEntity
8
1
62
256
6
ByLayer
370
13
48
1
60
0
100
AcDbLine
10
50.404895
20
21.197335
30
0
11
50.552289
21
21.197335
31
0
39
0
210
0
220
0
230
1
0
LINE
5
106
100
AcDbEntity
8
1
62
256
6
ByLayer
370
13
48
1
60
0
100
AcDbLine
10
50.404895
20
20.802665
30
0
11
50.552289
21
20.802665
31
0
39
0
210
0
220
0
230
1
0
LINE
5
107
100
AcDbEntity
8
1
62
256
6
ByLayer
370
13
48
1
60
0
100
AcDbLine
10
46.326482
20
20.2
30
0
11
46.297265
21
20.250004
31
0
39
0
210
0
220
0
230
1
0
LINE
5
108
100
AcDbEntity
8
1
62
256
6
ByLayer
370
13
48
1
60
0
100
AcDbLine
10
46.326482
20
21.8
30
0
11
46.297265
21
21.749996
31
0
39
0
210
0
220
0
230
1
0
LINE
5
109
100
AcDbEntity
8
1
62
256
6
ByLayer
370
13
48
1
60
0
100
AcDbLine
10
45.665685
20
21.749992
30
0
11
45.665685
21
21.8
31
0
39
0
210
0
220
0
230
1
0
LINE
5
10A
100
AcDbEntity
8
1
62
256
6
ByLayer
370
18
48
1
60
0
100
AcDbLine
10
51.948426
20
21.840541
30
0
11
51.925177
21
21.827118
31
0
39
0
210
0
220
0
230
1
0
LINE
5
10B
100
AcDbEntity
8
1
62
256
6
ByLayer
370
18
48
1
60
0
100
AcDbLine
10
51.709679
20
21.8
30
0
11
51.82387
21
21.8
31
0
39
0
210
0
220
0
230
1
0
LINE
5
10C
100
AcDbEntity
8
1
62
256
6
ByLayer
370
18
48
1
60
0
100
AcDbLine
10
46.326482
20
20.2
30
0
11
46.496254
21
20.2
31
0
39
0
210
0
220
0
230
1
0
LINE
5
10D
100
AcDbEntity
8
1
62
256
6
ByLayer
370
18
48
1
60
0
100
AcDbLine
10
54.742758
20
21.999699
30
0
11
54.610516
21
21.992575
31
0
39
0
210
0
220
0
230
1
0
LINE
5
10E
100
AcDbEntity
8
1
62
256
6
ByLayer
370
18
48
1
60
0
100
AcDbLine
10
51.709679
20
21.8
30
0
11
51.658376
21
21.8
31
0
39
0
210
0
220
0
230
1
0
LINE
5
10F
100
AcDbEntity
8
1
62
256
6
ByLayer
370
18
48
1
60
0
100
AcDbLine
10
53.533781
20
20.07944
30
0
11
53.833781
21
20.061012
31
0
39
0
210
0
220
0
230
1
0
LINE
5
110
100
AcDbEntity
8
1
62
256
6
ByLayer
370
18
48
1
60
0
100
AcDbLine
10
55.000117
20
21.531121
30
0
11
55.001941
21
21.74676
31
0
39
0
210
0
220
0
230
1
0
LINE
5
111
100
AcDbEntity
8
1
62
256
6
ByLayer
370
18
48
1
60
0
100
AcDbLine
10
45.25
20
20.2
30
0
11
45.665685
21
20.2
31
0
39
0
210
0
220
0
230
1
0
LINE
5
112
100
AcDbEntity
8
1
62
256
6
ByLayer
370
18
48
1
60
0
100
AcDbLine
10
45.665685
20
20.2
30
0
11
46.326482
21
20.2
31
0
39
0
210
0
220
0
230
1
0
LINE
5
113
100
AcDbEntity
8
1
62
256
6
ByLayer
370
18
48
1
60
0
100
AcDbLine
10
52.036053
20
20.133086
30
0
11
52.165017
21
20.125199
31
0
39
0
210
0
220
0
230
1
0
LINE
5
114
100
AcDbEntity
8
1
62
256
6
ByLayer
370
18
48
1
60
0
100
AcDbLine
10
54.181077
20
20.03781
30
0
11
54.53976
21
20.011885
31
0
39
0
210
0
220
0
230
1
0
LINE
5
115
100
AcDbEntity
8
1
62
256
6
ByLayer
370
18
48
1
60
0
100
AcDbLine
10
50.711215
20
21.8
30
0
11
50.4298
21
21.8
31
0
39
0
210
0
220
0
230
1
0
LINE
5
116
100
AcDbEntity
8
1
62
256
6
ByLayer
370
18
48
1
60
0
100
AcDbLine
10
51.658376
20
20.2
30
0
11
50.787198
21
20.2
31
0
39
0
210
0
220
0
230
1
0
LINE
5
117
100
AcDbEntity
8
1
62
256
6
ByLayer
370
18
48
1
60
0
100
AcDbLine
10
54.53976
20
21.988115
30
0
11
54.181077
21
21.96219
31
0
39
0
210
0
220
0
230
1
0
LINE
5
118
100
AcDbEntity
8
1
62
256
6
ByLayer
370
18
48
1
60
0
100
AcDbLine
10
54.610516
20
20.007425
30
0
11
54.742758
21
20.000301
31
0
39
0
210
0
220
0
230
1
0
LINE
5
119
100
AcDbEntity
8
1
62
256
6
ByLayer
370
18
48
1
60
0
100
AcDbLine
10
50.4298
20
20.2
30
0
11
50.711215
21
20.2
31
0
39
0
210
0
220
0
230
1
0
LINE
5
11A
100
AcDbEntity
8
1
62
256
6
ByLayer
370
18
48
1
60
0
100
AcDbLine
10
53.833781
20
21.938988
30
0
11
53.533781
21
21.92056
31
0
39
0
210
0
220
0
230
1
0
LINE
5
11B
100
AcDbEntity
8
1
62
256
6
ByLayer
370
18
48
1
60
0
100
AcDbLine
10
50.787198
20
21.8
30
0
11
50.711215
21
21.8
31
0
39
0
210
0
220
0
230
1
0
LINE
5
11C
100
AcDbEntity
8
1
62
256
6
ByLayer
370
18
48
1
60
0
100
AcDbLine
10
51.82387
20
20.2
30
0
11
51.709679
21
20.2
31
0
39
0
210
0
220
0
230
1
0
LINE
5
11D
100
AcDbEntity
8
1
62
256
6
ByLayer
370
18
48
1
60
0
100
AcDbLine
10
46.326482
20
21.8
30
0
11
45.665685
21
21.8
31
0
39
0
210
0
220
0
230
1
0
LINE
5
11E
100
AcDbEntity
8
1
62
256
6
ByLayer
370
18
48
1
60
0
100
AcDbLine
10
51.658376
20
20.2
30
0
11
51.709679
21
20.2
31
0
39
0
210
0
220
0
230
1
0
LINE
5
11F
100
AcDbEntity
8
1
62
256
6
ByLayer
370
18
48
1
60
0
100
AcDbLine
10
52.378462
20
20.117544
30
0
11
52.47312
21
20.117555
31
0
39
0
210
0
220
0
230
1
0
LINE
5
120
100
AcDbEntity
8
1
62
256
6
ByLayer
370
18
48
1
60
0
100
AcDbLine
10
46.732227
20
21.8
30
0
11
46.546632
21
21.8
31
0
39
0
210
0
220
0
230
1
0
LINE
5
121
100
AcDbEntity
8
1
62
256
6
ByLayer
370
18
48
1
60
0
100
AcDbLine
10
50.787198
20
21.8
30
0
11
51.658376
21
21.8
31
0
39
0
210
0
220
0
230
1
0
LINE
5
122
100
AcDbEntity
8
1
62
256
6
ByLayer
370
18
48
1
60
0
100
AcDbLine
10
45.665685
20
21.8
30
0
11
45.25
21
21.8
31
0
39
0
210
0
220
0
230
1
0
LINE
5
123
100
AcDbEntity
8
1
62
256
6
ByLayer
370
18
48
1
60
0
100
AcDbLine
10
51.925177
20
20.172882
30
0
11
51.948426
21
20.159459
31
0
39
0
210
0
220
0
230
1
0
LINE
5
124
100
AcDbEntity
8
1
62
256
6
ByLayer
370
18
48
1
60
0
100
AcDbLine
10
52.47312
20
21.882445
30
0
11
52.378462
21
21.882456
31
0
39
0
210
0
220
0
230
1
0
LINE
5
125
100
AcDbEntity
8
1
62
256
6
ByLayer
370
18
48
1
60
0
100
AcDbLine
10
46.496254
20
21.8
30
0
11
46.326482
21
21.8
31
0
39
0
210
0
220
0
230
1
0
LINE
5
126
100
AcDbEntity
8
1
62
256
6
ByLayer
370
18
48
1
60
0
100
AcDbLine
10
55.001941
20
20.25324
30
0
11
55.000117
21
20.468879
31
0
39
0
210
0
220
0
230
1
0
LINE
5
127
100
AcDbEntity
8
1
62
256
6
ByLayer
370
18
48
1
60
0
100
AcDbLine
10
50.711215
20
20.2
30
0
11
50.787198
21
20.2
31
0
39
0
210
0
220
0
230
1
0
LINE
5
128
100
AcDbEntity
8
1
62
256
6
ByLayer
370
18
48
1
60
0
100
AcDbLine
10
50.4298
20
21.8
30
0
11
46.732227
21
21.8
31
0
39
0
210
0
220
0
230
1
0
LINE
5
129
100
AcDbEntity
8
1
62
256
6
ByLayer
370
18
48
1
60
0
100
AcDbLine
10
46.732227
20
20.2
30
0
11
50.4298
21
20.2
31
0
39
0
210
0
220
0
230
1
0
LINE
5
12A
100
AcDbEntity
8
1
62
256
6
ByLayer
370
18
48
1
60
0
100
AcDbLine
10
52.165017
20
21.874801
30
0
11
52.036053
21
21.866914
31
0
39
0
210
0
220
0
230
1
0
LINE
5
12B
100
AcDbEntity
8
1
62
256
6
ByLayer
370
18
48
1
60
0
100
AcDbLine
10
55
20
20.496575
30
0
11
55
21
21.503425
31
0
39
0
210
0
220
0
230
1
0
LINE
5
12C
100
AcDbEntity
8
1
62
256
6
ByLayer
370
18
48
1
60
0
100
AcDbLine
10
46.546632
20
20.2
30
0
11
46.732227
21
20.2
31
0
39
0
210
0
220
0
230
1
0
MTEXT
5
249
100
AcDbEntity
8
SK6
62
256
6
ByLayer
370
18
48
1
60
0
100
AcDbMText
10
-13.625
20
-47.874976
30
0
210
0
220
0
230
1
1
\W0.7789;C3-QD-RFE22C22055A
40
3.5
41
0
44
1.084337
50
0
71
7
72
5
7
iso_b_vert
0
DIMENSION
5
25B
100
AcDbEntity
8
2
62
256
6
ByLayer
370
13
48
1
60
0
100
AcDbDimension
2
DimnDraft3D1
10
80.1
20
22
30
0
11
80.1
21
8.909211
31
0
70
32
71
5
72
1
41
1
210
0
220
0
230
1
3
Standard
100
AcDbAlignedDimension
13
35
23
0
33
0
14
57
24
22
34
0
50
90
100
AcDbRotatedDimension
1001
ACAD
1000
DSTYLE
1002
{
1070
    74
1070
     0
1070
   279
1070
     0
1070
   172
1070
     1
1070
   173
1070
     1
1070
   340
1005
24A
1070
   271
1070
     1
1070
    77
1070
     1
1070
    73
1070
     0
1070
   171
1070
     3
1070
   274
1070
     4
1070
   177
1070
     2
1070
   176
1070
     2
1070
   178
1070
     7
1070
    78
1070
     8
1070
    41
1041
3.175
1070
   147
1041
1.75
1070
    42
1041
2.0
1070
    44
1041
2.0
1070
   140
1041
3.5
1070
   343
1005
25C
1070
   344
1005
25C
1002
}
0
DIMENSION
5
271
100
AcDbEntity
8
SK2
62
256
6
ByLayer
370
13
48
1
60
0
100
AcDbDimension
2
DimnDraft3D2
10
55
20
44.600049
30
0
11
25.409211
21
44.600049
31
0
70
32
71
5
72
1
41
1
210
0
220
0
230
1
3
Standard
100
AcDbAlignedDimension
13
0
23
2
33
0
14
55
24
24
34
0
50
0
100
AcDbRotatedDimension
1001
ACAD
1000
DSTYLE
1002
{
1070
   279
1070
     0
1070
   172
1070
     1
1070
   173
1070
     1
1070
   340
1005
24A
1070
   271
1070
     1
1070
    77
1070
     1
1070
    73
1070
     0
1070
   171
1070
     3
1070
   274
1070
     4
1070
   177
1070
     2
1070
   176
1070
     2
1070
   178
1070
     7
1070
    78
1070
     8
1070
    41
1041
3.175
1070
   147
1041
1.75
1070
    42
1041
2.0
1070
    44
1041
2.0
1070
   140
1041
3.5
1070
   343
1005
25C
1070
   344
1005
25C
1002
}
0
DIMENSION
5
27F
100
AcDbEntity
8
2
62
256
6
ByLayer
370
13
48
1
60
0
100
AcDbDimension
2
DimnDraft3D3
10
33
20
-29.1
30
0
11
41.909211
21
-29.1
31
0
70
32
71
5
72
1
41
1
210
0
220
0
230
1
3
Standard
100
AcDbAlignedDimension
13
55
23
20
33
0
14
33
24
-2
34
0
50
0
100
AcDbRotatedDimension
1001
ACAD
1000
DSTYLE
1002
{
1070
   279
1070
     0
1070
   172
1070
     1
1070
   173
1070
     1
1070
   340
1005
24A
1070
   271
1070
     1
1070
    77
1070
     1
1070
    73
1070
     0
1070
   171
1070
     3
1070
   274
1070
     4
1070
   177
1070
     2
1070
   176
1070
     2
1070
   178
1070
     7
1070
    78
1070
     8
1070
    41
1041
3.175
1070
   147
1041
1.75
1070
    42
1041
2.0
1070
    44
1041
2.0
1070
   140
1041
3.5
1070
   343
1005
25C
1070
   344
1005
25C
1002
}
0
DIMENSION
5
28D
100
AcDbEntity
8
SK2
62
256
6
ByLayer
370
13
48
1
60
0
100
AcDbDimension
2
DimnDraft3D4
10
-28.6
20
-16
30
0
11
-28.6
21
-2.090789
31
0
70
32
71
5
72
1
41
1
210
0
220
0
230
1
3
Standard
100
AcDbAlignedDimension
13
-2
23
16
33
0
14
-2
24
-16
34
0
50
90
100
AcDbRotatedDimension
1001
ACAD
1000
DSTYLE
1002
{
1070
    74
1070
     0
1070
   279
1070
     0
1070
   172
1070
     1
1070
   173
1070
     1
1070
   340
1005
24A
1070
   271
1070
     1
1070
    77
1070
     1
1070
    73
1070
     0
1070
   171
1070
     3
1070
   274
1070
     4
1070
   177
1070
     2
1070
   176
1070
     2
1070
   178
1070
     7
1070
    78
1070
     8
1070
    41
1041
3.175
1070
   147
1041
1.75
1070
    42
1041
2.0
1070
    44
1041
2.0
1070
   140
1041
3.5
1070
   343
1005
25C
1070
   344
1005
25C
1002
}
0
DIMENSION
5
29B
100
AcDbEntity
8
2
62
256
6
ByLayer
370
13
48
1
60
0
100
AcDbDimension
2
DimnDraft3D5
10
73.1
20
20
30
0
11
73.1
21
8.179211
31
0
70
32
71
5
72
1
41
1
210
0
220
0
230
1
3
Standard
100
AcDbAlignedDimension
13
57
23
22
33
0
14
57
24
20
34
0
50
90
100
AcDbRotatedDimension
1001
ACAD
1000
DSTYLE
1002
{
1070
    74
1070
     0
1070
   279
1070
     0
1070
   172
1070
     1
1070
   173
1070
     1
1070
   340
1005
24A
1070
   271
1070
     1
1070
    77
1070
     1
1070
    73
1070
     0
1070
   171
1070
     3
1070
   274
1070
     4
1070
   177
1070
     2
1070
   176
1070
     2
1070
   178
1070
     7
1070
    78
1070
     8
1070
    41
1041
3.175
1070
   147
1041
1.75
1070
    42
1041
2.0
1070
    44
1041
2.0
1070
   140
1041
3.5
1070
   343
1005
25C
1070
   344
1005
25C
1002
}
0
ENDSEC
0
SECTION
2
OBJECTS
0
DICTIONARY
5
305
330
0
100
AcDbDictionary
280
0
281
1
3
ACAD_GROUP
350
306
3
ACAD_MLINESTYLE
350
307
0
DICTIONARY
5
306
330
0
100
AcDbDictionary
280
0
281
1
0
DICTIONARY
5
307
330
0
100
AcDbDictionary
280
0
281
1
3
Standard
350
18
0
MLINESTYLE
5
18
330
307
100
AcDbMlineStyle
2
Standard
70
0
3

62
256
51
90
52
90
71
2
49
-0.5
62
256
6
ByLayer
49
0.5
62
256
6
ByLayer
0
RASTERVARIABLES
5
2f4
330

100
AcDbRasterVariables
90
0
70
1
71
1
72
1
0
ENDSEC
0
EOF
