0
SECTION
2
HEADER
9
$ACADVER
1
AC1015
9
$DWGCODEPAGE
3
ANSI_1252
9
$HANDSEED
5
2eb
9
$ANGBASE
50
0
9
$ANGDIR
70
0
9
$ATTMODE
70
1
9
$AUNITS
70
0
9
$AUPREC
70
0
9
$CECOLOR
62
256
9
$CELTSCALE
40
1
9
$CELTYPE
6
ByLayer
9
$CELWEIGHT
370
18
9
$CLAYER
8
0
9
$CMLJUST
70
0
9
$CMLSCALE
40
1
9
$CMLSTYLE
2
Standard
9
$DIMSTYLE
2
Standard
9
$TEXTSIZE
40
0.2
9
$TEXTSTYLE
7
Standard
9
$LUNITS
70
2
9
$LUPREC
70
4
9
$EXTNAMES
290
1
9
$INSUNITS
70
4
9
$LTSCALE
40
1
9
$LWDISPLAY
290
1
9
$PDMODE
70
0
9
$PDSIZE
40
0
9
$PLINEGEN
70
0
0
ENDSEC
0
SECTION
2
CLASSES
0
CLASS
1
RASTERVARIABLES
2
AcDbRasterVariables
3
ISM
90
0
280
0
281
0
0
ENDSEC
0
SECTION
2
TABLES
0
TABLE
2
VPORT
5
2e1
100
AcDbSymbolTable
0
VPORT
5
1
100
AcDbSymbolTableRecord
100
AcDbViewportTableRecord
2
*Active
70
0
10
0
20
0
11
1
21
1
12
-1
22
1
13
0
23
0
14
0.5
24
0.5
15
10
25
10
16
0
26
0
36
1
17
0
27
0
37
0
0
ENDTAB
0
TABLE
2
LTYPE
5
2e2
100
AcDbSymbolTable
0
LTYPE
5
14
100
AcDbSymbolTableRecord
100
AcDbLinetypeTableRecord
70
0
2
ByBlock
3

72
65
73
0
40
0
0
LTYPE
5
15
100
AcDbSymbolTableRecord
100
AcDbLinetypeTableRecord
70
0
2
ByLayer
3

72
65
73
0
40
0
0
LTYPE
5
16
100
AcDbSymbolTableRecord
100
AcDbLinetypeTableRecord
70
0
2
CONTINUOUS
3
Solid line
72
65
73
0
40
0
0
LTYPE
5
6A
100
AcDbSymbolTableRecord
100
AcDbLinetypeTableRecord
70
0
2
CENTER
3
____ _ ____ _ ____ _ ____
72
65
73
4
40
47.5
49
22
74
0
49
-8.5
74
0
49
8.5
74
0
49
-8.5
74
0
0
LTYPE
5
6B
100
AcDbSymbolTableRecord
100
AcDbLinetypeTableRecord
70
0
2
DASHED
3
__ __ __ __ __ __ __ __ __
72
65
73
2
40
25.72
49
12.86
74
0
49
-12.86
74
0
0
ENDTAB
0
TABLE
2
LAYER
5
2e3
100
AcDbSymbolTable
0
LAYER
5
10
100
AcDbSymbolTableRecord
100
AcDbLayerTableRecord
2
0
70
0
62
7
6
CONTINUOUS
290
1
370
-3
390
0
0
LAYER
5
6D
100
AcDbSymbolTableRecord
100
AcDbLayerTableRecord
2
80
70
0
62
-6
6
CONTINUOUS
290
1
370
-3
390
0
0
LAYER
5
6F
100
AcDbSymbolTableRecord
100
AcDbLayerTableRecord
2
81
70
0
62
-3
6
CONTINUOUS
290
1
370
-3
390
0
0
LAYER
5
71
100
AcDbSymbolTableRecord
100
AcDbLayerTableRecord
2
1
70
0
62
4
6
CONTINUOUS
290
1
370
-3
390
0
0
LAYER
5
23E
100
AcDbSymbolTableRecord
100
AcDbLayerTableRecord
2
2
70
0
62
7
6
CONTINUOUS
290
1
370
-3
390
0
0
LAYER
5
2ce
100
AcDbSymbolTableRecord
100
AcDbLayerTableRecord
2
SK1
70
0
62
4
6
CONTINUOUS
290
1
370
-3
390
0
0
LAYER
5
2cf
100
AcDbSymbolTableRecord
100
AcDbLayerTableRecord
2
SK6
70
0
62
5
6
CONTINUOUS
290
1
370
-3
390
0
0
LAYER
5
2d0
100
AcDbSymbolTableRecord
100
AcDbLayerTableRecord
2
SK2
70
0
62
7
6
CONTINUOUS
290
1
370
-3
390
0
0
ENDTAB
0
TABLE
2
STYLE
5
2e4
100
AcDbSymbolTable
0
STYLE
5
11
100
AcDbSymbolTableRecord
100
AcDbTextStyleTableRecord
2
Standard
3
txt
70
0
71
0
40
0
41
1
42
0
50
0
0
STYLE
5
223
100
AcDbSymbolTableRecord
100
AcDbTextStyleTableRecord
2
iso_b_vert
3
simplex.shx
70
0
71
0
40
0
41
1
42
0
50
0
0
STYLE
5
224
100
AcDbSymbolTableRecord
100
AcDbTextStyleTableRecord
2
DWGDirectTextStyle
3
simplex
70
0
71
0
40
0
41
1
42
0
50
0
0
ENDTAB
0
TABLE
2
DIMSTYLE
5
2e5
100
AcDbSymbolTable
100
AcDbDimStyleTable
0
DIMSTYLE
105
27
100
AcDbSymbolTableRecord
100
AcDbDimStyleTableRecord
2
Standard
70
0
3
<>
41
0.18
42
0.0625
44
0.18
140
0.18
147
0.09
73
0
74
0
77
1
271
2
275
0
278
52
280
0
340
11
0
ENDTAB
0
TABLE
2
VIEW
5
2e6
100
AcDbSymbolTable
0
ENDTAB
0
TABLE
2
UCS
5
2e7
100
AcDbSymbolTable
0
ENDTAB
0
TABLE
2
APPID
5
2e8
100
AcDbSymbolTable
0
APPID
5
12
100
AcDbSymbolTableRecord
100
AcDbRegAppTableRecord
2
ACAD
70
0
0
ENDTAB
0
TABLE
2
BLOCK_RECORD
5
2e9
100
AcDbSymbolTable
0
BLOCK_RECORD
5
1F
100
AcDbSymbolTableRecord
100
AcDbBlockTableRecord
2
*Model_Space
340
0
70
0
0
BLOCK_RECORD
5
1B
100
AcDbSymbolTableRecord
100
AcDbBlockTableRecord
2
*Paper_Space
340
0
70
0
0
BLOCK_RECORD
5
23
100
AcDbSymbolTableRecord
100
AcDbBlockTableRecord
2
*Paper_Space0
340
0
70
0
0
BLOCK_RECORD
5
226
100
AcDbSymbolTableRecord
100
AcDbBlockTableRecord
2
DimnDraft3D1
340
0
70
0
0
BLOCK_RECORD
5
235
100
AcDbSymbolTableRecord
100
AcDbBlockTableRecord
2
_CLOSED
340
0
70
0
0
BLOCK_RECORD
5
23C
100
AcDbSymbolTableRecord
100
AcDbBlockTableRecord
2
DimnDraft3D2
340
0
70
0
0
BLOCK_RECORD
5
24B
100
AcDbSymbolTableRecord
100
AcDbBlockTableRecord
2
DimnDraft3D3
340
0
70
0
0
BLOCK_RECORD
5
259
100
AcDbSymbolTableRecord
100
AcDbBlockTableRecord
2
DimnDraft3D4
340
0
70
0
0
BLOCK_RECORD
5
267
100
AcDbSymbolTableRecord
100
AcDbBlockTableRecord
2
DimnDraft3D5
340
0
70
0
0
ENDTAB
0
ENDSEC
0
SECTION
2
BLOCKS
0
BLOCK
5
20
100
AcDbEntity
8
0
100
AcDbBlockBegin
2
*Model_Space
70
0
10
0
20
0
30
0
3
*Model_Space
0
ENDBLK
5
21
100
AcDbEntity
8
0
100
AcDbBlockEnd
0
BLOCK
5
1C
100
AcDbEntity
8
0
100
AcDbBlockBegin
2
*Paper_Space
70
0
10
0
20
0
30
0
3
*Paper_Space
0
ENDBLK
5
1D
100
AcDbEntity
8
0
100
AcDbBlockEnd
0
BLOCK
5
24
100
AcDbEntity
8
0
100
AcDbBlockBegin
2
*Paper_Space0
70
0
10
0
20
0
30
0
3
*Paper_Space0
0
ENDBLK
5
25
100
AcDbEntity
8
0
100
AcDbBlockEnd
0
BLOCK
5
232
100
AcDbEntity
8
0
100
AcDbBlockBegin
2
DimnDraft3D1
70
0
10
0
20
0
30
0
3
DimnDraft3D1
0
MTEXT
5
227
100
AcDbEntity
8
SK2
62
256
6
ByLayer
370
18
48
1
60
0
100
AcDbMText
10
26.284211
20
39.475
30
0
210
0
220
0
230
1
1
\W0.6740;55
40
3.5
41
0
44
1.084337
50
0
71
7
72
5
7
iso_b_vert
0
LINE
5
229
100
AcDbEntity
8
SK2
62
256
6
ByLayer
370
13
48
1
60
0
100
AcDbLine
10
0
20
2
30
0
11
0
21
40.6
31
0
39
0
210
0
220
0
230
1
0
LINE
5
22A
100
AcDbEntity
8
SK2
62
256
6
ByLayer
370
13
48
1
60
0
100
AcDbLine
10
55
20
-20
30
0
11
55
21
40.6
31
0
39
0
210
0
220
0
230
1
0
LINE
5
22B
100
AcDbEntity
8
SK2
62
256
6
ByLayer
370
13
48
1
60
0
100
AcDbLine
10
0
20
38.6
30
0
11
55
21
38.6
31
0
39
0
210
0
220
0
230
1
0
LINE
5
22C
100
AcDbEntity
8
SK2
62
256
6
ByLayer
370
13
48
1
60
0
100
AcDbLine
10
0
20
38.6
30
0
11
3.174998
21
39.017997
31
0
39
0
210
0
220
0
230
1
0
LINE
5
22D
100
AcDbEntity
8
SK2
62
256
6
ByLayer
370
13
48
1
60
0
100
AcDbLine
10
0
20
38.6
30
0
11
3.175002
21
38.182003
31
0
39
0
210
0
220
0
230
1
0
LINE
5
22E
100
AcDbEntity
8
SK2
62
256
6
ByLayer
370
13
48
1
60
0
100
AcDbLine
10
3.174998
20
39.017997
30
0
11
3.175002
21
38.182003
31
0
39
0
210
0
220
0
230
1
0
LINE
5
22F
100
AcDbEntity
8
SK2
62
256
6
ByLayer
370
13
48
1
60
0
100
AcDbLine
10
55
20
38.6
30
0
11
51.825002
21
38.182003
31
0
39
0
210
0
220
0
230
1
0
LINE
5
230
100
AcDbEntity
8
SK2
62
256
6
ByLayer
370
13
48
1
60
0
100
AcDbLine
10
55
20
38.6
30
0
11
51.824998
21
39.017997
31
0
39
0
210
0
220
0
230
1
0
LINE
5
231
100
AcDbEntity
8
SK2
62
256
6
ByLayer
370
13
48
1
60
0
100
AcDbLine
10
51.825002
20
38.182003
30
0
11
51.824998
21
39.017997
31
0
39
0
210
0
220
0
230
1
0
ENDBLK
5
233
100
AcDbEntity
8
0
100
AcDbBlockEnd
0
BLOCK
5
236
100
AcDbEntity
8
0
100
AcDbBlockBegin
2
_CLOSED
70
0
10
0
20
0
30
0
3
_CLOSED
0
LINE
5
238
100
AcDbEntity
8
0
62
256
6
ByLayer
370
-2
48
1
60
0
100
AcDbLine
10
-1
20
0.166667
30
0
11
0
21
0
31
0
39
0
210
0
220
0
230
1
0
LINE
5
239
100
AcDbEntity
8
0
62
256
6
ByLayer
370
-2
48
1
60
0
100
AcDbLine
10
0
20
0
30
0
11
-1
21
-0.166667
31
0
39
0
210
0
220
0
230
1
0
LINE
5
23A
100
AcDbEntity
8
0
62
256
6
ByLayer
370
-2
48
1
60
0
100
AcDbLine
10
-1
20
0.166667
30
0
11
-1
21
-0.166667
31
0
39
0
210
0
220
0
230
1
0
LINE
5
23B
100
AcDbEntity
8
0
62
256
6
ByLayer
370
-2
48
1
60
0
100
AcDbLine
10
0
20
0
30
0
11
-1
21
0
31
0
39
0
210
0
220
0
230
1
0
ENDBLK
5
237
100
AcDbEntity
8
0
100
AcDbBlockEnd
0
BLOCK
5
248
100
AcDbEntity
8
0
100
AcDbBlockBegin
2
DimnDraft3D2
70
0
10
0
20
0
30
0
3
DimnDraft3D2
0
MTEXT
5
23D
100
AcDbEntity
8
2
62
256
6
ByLayer
370
18
48
1
60
0
100
AcDbMText
10
41.284211
20
-34.225889
30
0
210
0
220
0
230
1
1
\W0.6740;25
40
3.5
41
0
44
1.084337
50
0
71
7
72
5
7
iso_b_vert
0
LINE
5
23F
100
AcDbEntity
8
2
62
256
6
ByLayer
370
13
48
1
60
0
100
AcDbLine
10
55
20
-24
30
0
11
55
21
-37.100889
31
0
39
0
210
0
220
0
230
1
0
LINE
5
240
100
AcDbEntity
8
2
62
256
6
ByLayer
370
13
48
1
60
0
100
AcDbLine
10
30
20
-18
30
0
11
30
21
-37.100889
31
0
39
0
210
0
220
0
230
1
0
LINE
5
241
100
AcDbEntity
8
2
62
256
6
ByLayer
370
13
48
1
60
0
100
AcDbLine
10
55
20
-35.100889
30
0
11
30
21
-35.100889
31
0
39
0
210
0
220
0
230
1
0
LINE
5
242
100
AcDbEntity
8
2
62
256
6
ByLayer
370
13
48
1
60
0
100
AcDbLine
10
55
20
-35.100889
30
0
11
51.825002
21
-35.518886
31
0
39
0
210
0
220
0
230
1
0
LINE
5
243
100
AcDbEntity
8
2
62
256
6
ByLayer
370
13
48
1
60
0
100
AcDbLine
10
55
20
-35.100889
30
0
11
51.824998
21
-34.682892
31
0
39
0
210
0
220
0
230
1
0
LINE
5
244
100
AcDbEntity
8
2
62
256
6
ByLayer
370
13
48
1
60
0
100
AcDbLine
10
51.825002
20
-35.518886
30
0
11
51.824998
21
-34.682892
31
0
39
0
210
0
220
0
230
1
0
LINE
5
245
100
AcDbEntity
8
2
62
256
6
ByLayer
370
13
48
1
60
0
100
AcDbLine
10
30
20
-35.100889
30
0
11
33.174998
21
-34.682892
31
0
39
0
210
0
220
0
230
1
0
LINE
5
246
100
AcDbEntity
8
2
62
256
6
ByLayer
370
13
48
1
60
0
100
AcDbLine
10
30
20
-35.100889
30
0
11
33.175002
21
-35.518886
31
0
39
0
210
0
220
0
230
1
0
LINE
5
247
100
AcDbEntity
8
2
62
256
6
ByLayer
370
13
48
1
60
0
100
AcDbLine
10
33.174998
20
-34.682892
30
0
11
33.175002
21
-35.518886
31
0
39
0
210
0
220
0
230
1
0
ENDBLK
5
249
100
AcDbEntity
8
0
100
AcDbBlockEnd
0
BLOCK
5
256
100
AcDbEntity
8
0
100
AcDbBlockBegin
2
DimnDraft3D3
70
0
10
0
20
0
30
0
3
DimnDraft3D3
0
MTEXT
5
24C
100
AcDbEntity
8
SK2
62
256
6
ByLayer
370
18
48
1
60
0
100
AcDbMText
10
-29.475
20
-1.215789
30
0
210
0
220
0
230
1
1
\W0.6740;32
40
3.5
41
0
44
1.084337
50
90
71
7
72
5
7
iso_b_vert
0
LINE
5
24D
100
AcDbEntity
8
SK2
62
256
6
ByLayer
370
13
48
1
60
0
100
AcDbLine
10
-2
20
-16
30
0
11
-30.6
21
-16
31
0
39
0
210
0
220
0
230
1
0
LINE
5
24E
100
AcDbEntity
8
SK2
62
256
6
ByLayer
370
13
48
1
60
0
100
AcDbLine
10
-2
20
16
30
0
11
-30.6
21
16
31
0
39
0
210
0
220
0
230
1
0
LINE
5
24F
100
AcDbEntity
8
SK2
62
256
6
ByLayer
370
13
48
1
60
0
100
AcDbLine
10
-28.6
20
-16
30
0
11
-28.6
21
16
31
0
39
0
210
0
220
0
230
1
0
LINE
5
250
100
AcDbEntity
8
SK2
62
256
6
ByLayer
370
13
48
1
60
0
100
AcDbLine
10
-28.6
20
-16
30
0
11
-29.017997
21
-12.825002
31
0
39
0
210
0
220
0
230
1
0
LINE
5
251
100
AcDbEntity
8
SK2
62
256
6
ByLayer
370
13
48
1
60
0
100
AcDbLine
10
-28.6
20
-16
30
0
11
-28.182003
21
-12.824998
31
0
39
0
210
0
220
0
230
1
0
LINE
5
252
100
AcDbEntity
8
SK2
62
256
6
ByLayer
370
13
48
1
60
0
100
AcDbLine
10
-29.017997
20
-12.825002
30
0
11
-28.182003
21
-12.824998
31
0
39
0
210
0
220
0
230
1
0
LINE
5
253
100
AcDbEntity
8
SK2
62
256
6
ByLayer
370
13
48
1
60
0
100
AcDbLine
10
-28.6
20
16
30
0
11
-28.182003
21
12.825002
31
0
39
0
210
0
220
0
230
1
0
LINE
5
254
100
AcDbEntity
8
SK2
62
256
6
ByLayer
370
13
48
1
60
0
100
AcDbLine
10
-28.6
20
16
30
0
11
-29.017997
21
12.824998
31
0
39
0
210
0
220
0
230
1
0
LINE
5
255
100
AcDbEntity
8
SK2
62
256
6
ByLayer
370
13
48
1
60
0
100
AcDbLine
10
-28.182003
20
12.825002
30
0
11
-29.017997
21
12.824998
31
0
39
0
210
0
220
0
230
1
0
ENDBLK
5
257
100
AcDbEntity
8
0
100
AcDbBlockEnd
0
BLOCK
5
264
100
AcDbEntity
8
0
100
AcDbBlockBegin
2
DimnDraft3D4
70
0
10
0
20
0
30
0
3
DimnDraft3D4
0
MTEXT
5
25A
100
AcDbEntity
8
2
62
256
6
ByLayer
370
18
48
1
60
0
100
AcDbMText
10
79.225
20
-12.215789
30
0
210
0
220
0
230
1
1
\W0.6740;22
40
3.5
41
0
44
1.084337
50
90
71
7
72
5
7
iso_b_vert
0
LINE
5
25B
100
AcDbEntity
8
2
62
256
6
ByLayer
370
13
48
1
60
0
100
AcDbLine
10
48
20
0
30
0
11
82.1
21
0
31
0
39
0
210
0
220
0
230
1
0
LINE
5
25C
100
AcDbEntity
8
2
62
256
6
ByLayer
370
13
48
1
60
0
100
AcDbLine
10
57
20
-22
30
0
11
82.1
21
-22
31
0
39
0
210
0
220
0
230
1
0
LINE
5
25D
100
AcDbEntity
8
2
62
256
6
ByLayer
370
13
48
1
60
0
100
AcDbLine
10
80.1
20
0
30
0
11
80.1
21
-22
31
0
39
0
210
0
220
0
230
1
0
LINE
5
25E
100
AcDbEntity
8
2
62
256
6
ByLayer
370
13
48
1
60
0
100
AcDbLine
10
80.1
20
0
30
0
11
80.517997
21
-3.174998
31
0
39
0
210
0
220
0
230
1
0
LINE
5
25F
100
AcDbEntity
8
2
62
256
6
ByLayer
370
13
48
1
60
0
100
AcDbLine
10
80.1
20
0
30
0
11
79.682003
21
-3.175002
31
0
39
0
210
0
220
0
230
1
0
LINE
5
260
100
AcDbEntity
8
2
62
256
6
ByLayer
370
13
48
1
60
0
100
AcDbLine
10
80.517997
20
-3.174998
30
0
11
79.682003
21
-3.175002
31
0
39
0
210
0
220
0
230
1
0
LINE
5
261
100
AcDbEntity
8
2
62
256
6
ByLayer
370
13
48
1
60
0
100
AcDbLine
10
80.1
20
-22
30
0
11
79.682003
21
-18.825002
31
0
39
0
210
0
220
0
230
1
0
LINE
5
262
100
AcDbEntity
8
2
62
256
6
ByLayer
370
13
48
1
60
0
100
AcDbLine
10
80.1
20
-22
30
0
11
80.517997
21
-18.824998
31
0
39
0
210
0
220
0
230
1
0
LINE
5
263
100
AcDbEntity
8
2
62
256
6
ByLayer
370
13
48
1
60
0
100
AcDbLine
10
79.682003
20
-18.825002
30
0
11
80.517997
21
-18.824998
31
0
39
0
210
0
220
0
230
1
0
ENDBLK
5
265
100
AcDbEntity
8
0
100
AcDbBlockEnd
0
BLOCK
5
272
100
AcDbEntity
8
0
100
AcDbBlockBegin
2
DimnDraft3D5
70
0
10
0
20
0
30
0
3
DimnDraft3D5
0
MTEXT
5
268
100
AcDbEntity
8
2
62
256
6
ByLayer
370
18
48
1
60
0
100
AcDbMText
10
72.225
20
-36.98
30
0
210
0
220
0
230
1
1
\W0.7121;2.5
40
3.5
41
0
44
1.084337
50
90
71
7
72
5
7
iso_b_vert
0
LINE
5
269
100
AcDbEntity
8
2
62
256
6
ByLayer
370
13
48
1
60
0
100
AcDbLine
10
57
20
-22
30
0
11
75.1
21
-22
31
0
39
0
210
0
220
0
230
1
0
LINE
5
26A
100
AcDbEntity
8
2
62
256
6
ByLayer
370
13
48
1
60
0
100
AcDbLine
10
57
20
-19.5
30
0
11
75.1
21
-19.5
31
0
39
0
210
0
220
0
230
1
0
LINE
5
26B
100
AcDbEntity
8
2
62
256
6
ByLayer
370
13
48
1
60
0
100
AcDbLine
10
73.1
20
-10.75
30
0
11
73.1
21
-37.855
31
0
39
0
210
0
220
0
230
1
0
LINE
5
26C
100
AcDbEntity
8
2
62
256
6
ByLayer
370
13
48
1
60
0
100
AcDbLine
10
73.1
20
-22
30
0
11
73.517997
21
-25.174998
31
0
39
0
210
0
220
0
230
1
0
LINE
5
26D
100
AcDbEntity
8
2
62
256
6
ByLayer
370
13
48
1
60
0
100
AcDbLine
10
73.1
20
-22
30
0
11
72.682003
21
-25.175002
31
0
39
0
210
0
220
0
230
1
0
LINE
5
26E
100
AcDbEntity
8
2
62
256
6
ByLayer
370
13
48
1
60
0
100
AcDbLine
10
73.517997
20
-25.174998
30
0
11
72.682003
21
-25.175002
31
0
39
0
210
0
220
0
230
1
0
LINE
5
26F
100
AcDbEntity
8
2
62
256
6
ByLayer
370
13
48
1
60
0
100
AcDbLine
10
73.1
20
-19.5
30
0
11
72.682003
21
-16.325002
31
0
39
0
210
0
220
0
230
1
0
LINE
5
270
100
AcDbEntity
8
2
62
256
6
ByLayer
370
13
48
1
60
0
100
AcDbLine
10
73.1
20
-19.5
30
0
11
73.517997
21
-16.324998
31
0
39
0
210
0
220
0
230
1
0
LINE
5
271
100
AcDbEntity
8
2
62
256
6
ByLayer
370
13
48
1
60
0
100
AcDbLine
10
72.682003
20
-16.325002
30
0
11
73.517997
21
-16.324998
31
0
39
0
210
0
220
0
230
1
0
ENDBLK
5
273
100
AcDbEntity
8
0
100
AcDbBlockEnd
0
ENDSEC
0
SECTION
2
ENTITIES
0
ARC
5
10F
100
AcDbEntity
8
1
62
256
6
ByLayer
370
13
48
1
60
0
100
AcDbCircle
39
0
10
-15.279208
20
-17.2
30
0
40
1.2
210
0
220
0
230
-1
100
AcDbArc
50
90
51
165
0
ARC
5
110
100
AcDbEntity
8
1
62
256
6
ByLayer
370
13
48
1
60
0
100
AcDbCircle
39
0
10
-30
20
-18.15
30
0
40
1.6
210
0
220
0
230
-1
100
AcDbArc
50
359.934615
51
0
0
ARC
5
111
100
AcDbEntity
8
1
62
256
6
ByLayer
370
13
48
1
60
0
100
AcDbCircle
39
0
10
-19.045149
20
14.5
30
0
40
4.00000000000026
210
0
220
0
230
-1
100
AcDbArc
50
270
51
337.86926
0
ELLIPSE
5
112
100
AcDbEntity
8
1
62
256
6
ByLayer
370
13
48
1
60
0
100
AcDbEllipse
10
49.839209
20
-20.75
30
0
11
1.26883854643253
21
1.28233778961865E-15
31
0
210
0
220
0
230
-1
40
0.472873
41
1.09923797102088
42
-1.09923797102086
0
ELLIPSE
5
113
100
AcDbEntity
8
1
62
256
6
ByLayer
370
13
48
1
60
0
100
AcDbEllipse
10
50.439369
20
-20.75
30
0
11
-3.67381906146926E-17
21
0.600000000000347
31
0
210
0
220
0
230
-1
40
0.087165
41
-2.67003429781465
42
-0.471558355775144
0
ELLIPSE
5
114
100
AcDbEntity
8
1
62
256
6
ByLayer
370
13
48
1
60
0
100
AcDbEllipse
10
15.13963
20
0
30
0
11
-9.79685083057675E-16
21
15.9999999999963
31
0
210
0
220
0
230
-1
40
0.008727
41
-2.39986980696689
42
-0.741722846622903
0
ELLIPSE
5
115
100
AcDbEntity
8
1
62
256
6
ByLayer
370
13
48
1
60
0
100
AcDbEllipse
10
-0.928203
20
0
30
0
11
7.49393430382658
21
15.7933993222006
31
0
210
0
220
0
230
-1
40
0.341999
41
0.161466571197728
42
1.08757920120044
0
ELLIPSE
5
116
100
AcDbEntity
8
1
62
256
6
ByLayer
370
13
48
1
60
0
100
AcDbEllipse
10
-0.928203
20
0
30
0
11
7.4939343038274
21
-15.7933993222016
31
0
210
0
220
0
230
-1
40
0.341999
41
-1.08757920120041
42
-0.161466571197725
0
ELLIPSE
5
117
100
AcDbEntity
8
1
62
256
6
ByLayer
370
13
48
1
60
0
100
AcDbEllipse
10
12.928203
20
0
30
0
11
7.49393430382489
21
15.7933993222001
31
0
210
0
220
0
230
-1
40
0.341999
41
-2.98012608239205
42
-2.05401345238925
0
ELLIPSE
5
118
100
AcDbEntity
8
1
62
256
6
ByLayer
370
13
48
1
60
0
100
AcDbEllipse
10
12.928203
20
0
30
0
11
7.49393430382433
21
-15.7933993221993
31
0
210
0
220
0
230
-1
40
0.341999
41
2.05401345238922
42
2.98012608239204
0
ELLIPSE
5
119
100
AcDbEntity
8
1
62
256
6
ByLayer
370
13
48
1
60
0
100
AcDbEllipse
10
53.558781
20
-19.70026
30
0
11
0.01872883045826
21
-0.23926811511287
31
0
210
0
220
0
230
1
40
0.005457
41
-1.50119639836406
42
-0.689493843876087
0
ELLIPSE
5
11A
100
AcDbEntity
8
1
62
256
6
ByLayer
370
13
48
1
60
0
100
AcDbEllipse
10
52.328622
20
-19.804714
30
0
11
-0.014072025804004
21
-0.239587099172246
31
0
210
0
220
0
230
1
40
0.707947
41
0.878776813451864
42
1.56290533331166
0
ELLIPSE
5
11B
100
AcDbEntity
8
1
62
256
6
ByLayer
370
13
48
1
60
0
100
AcDbEllipse
10
53.558781
20
-21.79974
30
0
11
0.01872883045826
21
0.23926811511287
31
0
210
0
220
0
230
1
40
0.005457
41
0.689493843876124
42
1.50119639836403
0
ELLIPSE
5
11C
100
AcDbEntity
8
1
62
256
6
ByLayer
370
13
48
1
60
0
100
AcDbEllipse
10
52.328622
20
-21.695286
30
0
11
-0.0140720258040037
21
0.239587099172246
31
0
210
0
220
0
230
1
40
0.707947
41
-1.56290533331172
42
-0.8787768134519
0
ELLIPSE
5
11D
100
AcDbEntity
8
1
62
256
6
ByLayer
370
13
48
1
60
0
100
AcDbEllipse
10
51.43649
20
-21.508586
30
0
11
0.0157922723776247
21
-0.299835837393134
31
0
210
0
220
0
230
-1
40
0.9154
41
-2.66737195205723
42
-1.47753833586145
0
ELLIPSE
5
11E
100
AcDbEntity
8
1
62
256
6
ByLayer
370
13
48
1
60
0
100
AcDbEllipse
10
51.43649
20
-19.991414
30
0
11
0.0157922723829179
21
0.299835837391752
31
0
210
0
220
0
230
-1
40
0.9154
41
1.47753833584161
42
2.66737195204123
0
ELLIPSE
5
11F
100
AcDbEntity
8
1
62
256
6
ByLayer
370
13
48
1
60
0
100
AcDbEllipse
10
52.225674
20
-19.802415
30
0
11
0.108797387019834
21
0.213923183824607
31
0
210
0
220
0
230
1
40
0.678268
41
-1.85056859826453
42
-1.29102409435776
0
ELLIPSE
5
120
100
AcDbEntity
8
1
62
256
6
ByLayer
370
13
48
1
60
0
100
AcDbEllipse
10
52.225674
20
-21.697585
30
0
11
0.108797387019834
21
-0.213923183824607
31
0
210
0
220
0
230
1
40
0.678268
41
1.29102409435776
42
1.85056859826459
0
ELLIPSE
5
121
100
AcDbEntity
8
1
62
256
6
ByLayer
370
13
48
1
60
0
100
AcDbEllipse
10
52.015335
20
-21.511523
30
0
11
0.218929773670482
21
0.120705236839962
31
0
210
0
220
0
230
1
40
0.451067
41
0.609381009277194
42
1.29921470224115
0
ELLIPSE
5
122
100
AcDbEntity
8
1
62
256
6
ByLayer
370
13
48
1
60
0
100
AcDbEllipse
10
52.015335
20
-19.988477
30
0
11
-0.218929773670479
21
0.120705236839969
31
0
210
0
220
0
230
1
40
0.451067
41
1.84237795134864
42
2.5322116443126
0
ELLIPSE
5
123
100
AcDbEntity
8
1
62
256
6
ByLayer
370
13
48
1
60
0
100
AcDbEllipse
10
51.970529
20
-20.75
30
0
11
1.42452172481159
21
1.43967728990788E-15
31
0
210
0
220
0
230
-1
40
0.350995
41
-2.25836112864252
42
-1.95476876223406
0
ELLIPSE
5
124
100
AcDbEntity
8
1
62
256
6
ByLayer
370
13
48
1
60
0
100
AcDbEllipse
10
51.970529
20
-20.75
30
0
11
1.42452172493131
21
1.43967729002888E-15
31
0
210
0
220
0
230
-1
40
0.350995
41
1.95476876222801
42
2.25836112860724
0
ELLIPSE
5
125
100
AcDbEntity
8
1
62
256
6
ByLayer
370
13
48
1
60
0
100
AcDbEllipse
10
51.368086
20
-19.991414
30
0
11
0.274689327592185
21
0.0155897448653399
31
0
210
0
220
0
230
-1
40
0.363396
41
0.0206212699776489
42
1.21045488617849
0
ELLIPSE
5
126
100
AcDbEntity
8
1
62
256
6
ByLayer
370
13
48
1
60
0
100
AcDbEllipse
10
51.538645
20
-20.079328
30
0
11
-0.0383160393775672
21
0.196295392524676
31
0
210
0
220
0
230
1
40
0.336408
41
1.50522506223046
42
2.73571394704422
0
ELLIPSE
5
127
100
AcDbEntity
8
1
62
256
6
ByLayer
370
13
48
1
60
0
100
AcDbEllipse
10
51.368086
20
-21.508586
30
0
11
0.274689327594962
21
-0.0155897448647596
31
0
210
0
220
0
230
-1
40
0.363396
41
-1.21045488617059
42
-0.0206212699770525
0
ELLIPSE
5
128
100
AcDbEntity
8
1
62
256
6
ByLayer
370
13
48
1
60
0
100
AcDbEllipse
10
51.538645
20
-21.420672
30
0
11
-0.0383160393775681
21
-0.196295392524676
31
0
210
0
220
0
230
1
40
0.336408
41
-2.73571394704422
42
-1.50522506223053
0
ELLIPSE
5
129
100
AcDbEntity
8
1
62
256
6
ByLayer
370
13
48
1
60
0
100
AcDbEllipse
10
51.902124
20
-20.75
30
0
11
1.44889559345649
21
1.46431047348387E-15
31
0
210
0
220
0
230
-1
40
0.483127
41
-2.25836112865237
42
-1.95476876223529
0
ELLIPSE
5
12A
100
AcDbEntity
8
1
62
256
6
ByLayer
370
13
48
1
60
0
100
AcDbEllipse
10
51.902124
20
-20.75
30
0
11
1.44889559330084
21
1.46431047332656E-15
31
0
210
0
220
0
230
-1
40
0.483127
41
1.954768762241
42
2.25836112869488
0
ELLIPSE
5
12B
100
AcDbEntity
8
1
62
256
6
ByLayer
370
13
48
1
60
0
100
AcDbEllipse
10
52.227398
20
-19.802784
30
0
11
0.00548700145360587
21
-0.239937268499598
31
0
210
0
220
0
230
1
40
0.706448
41
0.849098397829135
42
1.50523037236394
0
ELLIPSE
5
12C
100
AcDbEntity
8
1
62
256
6
ByLayer
370
13
48
1
60
0
100
AcDbEllipse
10
52.227398
20
-21.697216
30
0
11
0.00548700145360604
21
0.239937268499598
31
0
210
0
220
0
230
1
40
0.706448
41
-1.50523037236397
42
-0.849098397829185
0
ELLIPSE
5
12D
100
AcDbEntity
8
1
62
256
6
ByLayer
370
13
48
1
60
0
100
AcDbEllipse
10
51.427763
20
-20.100971
30
0
11
-0.0383160393775672
21
0.196295392524676
31
0
210
0
220
0
230
1
40
0.336408
41
1.50522506223046
42
2.7357139470445
0
ELLIPSE
5
12E
100
AcDbEntity
8
1
62
256
6
ByLayer
370
13
48
1
60
0
100
AcDbEllipse
10
51.427763
20
-21.399029
30
0
11
-0.0383160393775681
21
-0.196295392524676
31
0
210
0
220
0
230
1
40
0.336408
41
-2.73571394704433
42
-1.5052250622305
0
ELLIPSE
5
12F
100
AcDbEntity
8
1
62
256
6
ByLayer
370
13
48
1
60
0
100
AcDbEllipse
10
52.04569
20
-21.491747
30
0
11
-0.199155198215831
21
0.224359548545662
31
0
210
0
220
0
230
1
40
0.867907
41
-1.48925493040502
42
-0.845841420110093
0
ELLIPSE
5
130
100
AcDbEntity
8
1
62
256
6
ByLayer
370
13
48
1
60
0
100
AcDbEllipse
10
51.050977
20
-21.290956
30
0
11
-0.073759863887595
21
-0.185901808703636
31
0
210
0
220
0
230
1
40
0.32047
41
-2.41409938327892
42
-1.44432262990156
0
ELLIPSE
5
131
100
AcDbEntity
8
1
62
256
6
ByLayer
370
13
48
1
60
0
100
AcDbEllipse
10
51.050977
20
-20.209044
30
0
11
-0.0737598638875999
21
0.185901808703635
31
0
210
0
220
0
230
1
40
0.32047
41
1.44432262990149
42
2.41409938327886
0
ELLIPSE
5
132
100
AcDbEntity
8
1
62
256
6
ByLayer
370
13
48
1
60
0
100
AcDbEllipse
10
52.04569
20
-20.008253
30
0
11
-0.199155198215836
21
-0.224359548545657
31
0
210
0
220
0
230
1
40
0.867907
41
0.845841420110057
42
1.48925493040506
0
ELLIPSE
5
133
100
AcDbEntity
8
1
62
256
6
ByLayer
370
13
48
1
60
0
100
AcDbEllipse
10
53.248298
20
-21.13002
30
0
11
-0.11829996020908
21
-0.382106162492219
31
0
210
0
220
0
230
1
40
0.046276
41
-1.55647013370581
42
-0.635362849071728
0
ELLIPSE
5
134
100
AcDbEntity
8
1
62
256
6
ByLayer
370
13
48
1
60
0
100
AcDbEllipse
10
53.248298
20
-20.36998
30
0
11
-0.11829996020908
21
0.382106162492219
31
0
210
0
220
0
230
1
40
0.046276
41
0.635362849071738
42
1.5564701337058
0
ELLIPSE
5
135
100
AcDbEntity
8
1
62
256
6
ByLayer
370
13
48
1
60
0
100
AcDbEllipse
10
50.957016
20
-21.322024
30
0
11
0.179591653469728
21
-0.0880161235456843
31
0
210
0
220
0
230
1
40
0.15816
41
-2.67666253996303
42
-1.88296142475573
0
ELLIPSE
5
136
100
AcDbEntity
8
1
62
256
6
ByLayer
370
13
48
1
60
0
100
AcDbEllipse
10
50.957016
20
-20.177976
30
0
11
0.179591653469724
21
0.088016123545693
31
0
210
0
220
0
230
1
40
0.15816
41
1.8829614247557
42
2.67666253996279
0
ELLIPSE
5
137
100
AcDbEntity
8
1
62
256
6
ByLayer
370
13
48
1
60
0
100
AcDbEllipse
10
52.092262
20
-20.127343
30
0
11
-0.299347745291831
21
0.0197718837923224
31
0
210
0
220
0
230
1
40
0.777951
41
1.69879303455142
42
2.22934227679635
0
ELLIPSE
5
138
100
AcDbEntity
8
1
62
256
6
ByLayer
370
13
48
1
60
0
100
AcDbEllipse
10
52.092262
20
-21.372657
30
0
11
-0.299347745291887
21
-0.0197718837914809
31
0
210
0
220
0
230
1
40
0.777951
41
-2.22934227679353
42
-1.69879303454922
0
ELLIPSE
5
139
100
AcDbEntity
8
1
62
256
6
ByLayer
370
13
48
1
60
0
100
AcDbEllipse
10
51.094521
20
-21.229243
30
0
11
-0.108483181757181
21
0.279698765238315
31
0
210
0
220
0
230
1
40
0.360955
41
-1.02016075382498
42
-0.199709661794649
0
ELLIPSE
5
13A
100
AcDbEntity
8
1
62
256
6
ByLayer
370
13
48
1
60
0
100
AcDbEllipse
10
51.094521
20
-20.270757
30
0
11
-0.108483181757197
21
-0.279698765238309
31
0
210
0
220
0
230
1
40
0.360955
41
0.199709661794686
42
1.02016075382502
0
ELLIPSE
5
13B
100
AcDbEntity
8
1
62
256
6
ByLayer
370
13
48
1
60
0
100
AcDbEllipse
10
50.746868
20
-19.874017
30
0
11
0.0582979366851085
21
-0.138207635745132
31
0
210
0
220
0
230
1
40
0.750326
41
-1.87731940571838
42
-1.57180531127302
0
ELLIPSE
5
13C
100
AcDbEntity
8
1
62
256
6
ByLayer
370
13
48
1
60
0
100
AcDbEllipse
10
50.95842
20
-21.182607
30
0
11
-0.0312161822556663
21
0.197548854629383
31
0
210
0
220
0
230
1
40
0.644886
41
0.296340224814581
42
1.02563059493702
0
ELLIPSE
5
13D
100
AcDbEntity
8
1
62
256
6
ByLayer
370
13
48
1
60
0
100
AcDbEllipse
10
50.95842
20
-20.317393
30
0
11
-0.031216182255666
21
-0.197548854629383
31
0
210
0
220
0
230
1
40
0.644886
41
-1.02563059493702
42
-0.296340224814581
0
ELLIPSE
5
13E
100
AcDbEntity
8
1
62
256
6
ByLayer
370
13
48
1
60
0
100
AcDbEllipse
10
50.746868
20
-21.625983
30
0
11
-0.0582979366828939
21
-0.138207635746066
31
0
210
0
220
0
230
1
40
0.750326
41
-1.56978734232577
42
-1.26427324788344
0
ELLIPSE
5
13F
100
AcDbEntity
8
1
62
256
6
ByLayer
370
13
48
1
60
0
100
AcDbEllipse
10
51.08571
20
-20.267337
30
0
11
-0.10863468183397
21
-0.279639957629149
31
0
210
0
220
0
230
1
40
0.363718
41
0.200467310718309
42
1.01550685106547
0
ELLIPSE
5
140
100
AcDbEntity
8
1
62
256
6
ByLayer
370
13
48
1
60
0
100
AcDbEllipse
10
51.08571
20
-21.232663
30
0
11
-0.108634681833984
21
0.279639957629143
31
0
210
0
220
0
230
1
40
0.363718
41
-1.01550685106551
42
-0.200467310718441
0
ELLIPSE
5
141
100
AcDbEntity
8
1
62
256
6
ByLayer
370
13
48
1
60
0
100
AcDbEllipse
10
52.173143
20
-20.564597
30
0
11
-0.27643120211388
21
-0.11655809923757
31
0
210
0
220
0
230
1
40
0.259655
41
1.58999251460064
42
2.12275416956036
0
ELLIPSE
5
142
100
AcDbEntity
8
1
62
256
6
ByLayer
370
13
48
1
60
0
100
AcDbEllipse
10
52.173143
20
-20.935403
30
0
11
-0.276431202115174
21
0.116558099234502
31
0
210
0
220
0
230
1
40
0.259655
41
-2.12275416956318
42
-1.58999251460353
0
ELLIPSE
5
143
100
AcDbEntity
8
1
62
256
6
ByLayer
370
13
48
1
60
0
100
AcDbEllipse
10
54.147654
20
-19.699551
30
0
11
-0.00522684702752689
21
-0.239943076728942
31
0
210
0
220
0
230
1
40
0.172153
41
-1.49827444467687
42
-0.73075990712236
0
ELLIPSE
5
144
100
AcDbEntity
8
1
62
256
6
ByLayer
370
13
48
1
60
0
100
AcDbEllipse
10
54.147654
20
-21.800449
30
0
11
-0.00522684702752667
21
0.239943076728942
31
0
210
0
220
0
230
1
40
0.172153
41
0.73075990712236
42
1.49827444467687
0
ELLIPSE
5
145
100
AcDbEntity
8
1
62
256
6
ByLayer
370
13
48
1
60
0
100
AcDbEllipse
10
50.744099
20
-21.625438
30
0
11
4.24912383924225E-17
21
0.15
31
0
210
0
220
0
230
1
40
0.772149
41
1.23482044578598
42
1.5707963267949
0
ELLIPSE
5
146
100
AcDbEntity
8
1
62
256
6
ByLayer
370
13
48
1
60
0
100
AcDbEllipse
10
50.744099
20
-19.874562
30
0
11
4.24912383924225E-17
21
0.15
31
0
210
0
220
0
230
1
40
0.772149
41
1.5707963267949
42
1.90677220780382
0
ELLIPSE
5
147
100
AcDbEntity
8
1
62
256
6
ByLayer
370
13
48
1
60
0
100
AcDbEllipse
10
50.943122
20
-21.183936
30
0
11
5.665498452323E-17
21
0.2
31
0
210
0
220
0
230
1
40
0.817574
41
0.416381924289158
42
1.234820445786
0
ELLIPSE
5
148
100
AcDbEntity
8
1
62
256
6
ByLayer
370
13
48
1
60
0
100
AcDbEllipse
10
50.533999
20
-20.316064
30
0
11
5.665498452323E-17
21
0.2
31
0
210
0
220
0
230
1
40
0.34202
41
1.90677220780379
42
2.72521072930056
0
ELLIPSE
5
149
100
AcDbEntity
8
1
62
256
6
ByLayer
370
13
48
1
60
0
100
AcDbEllipse
10
54.7528
20
-21.531043
30
0
11
-0.053394885983678
21
0.0845516773978496
31
0
210
0
220
0
230
1
40
0.139768
41
-1.57716944641307
42
-0.739917285382307
0
ELLIPSE
5
14A
100
AcDbEntity
8
1
62
256
6
ByLayer
370
13
48
1
60
0
100
AcDbEllipse
10
54.913536
20
-21.381503
30
0
11
-0.0833383062250993
21
0.0552695821906731
31
0
210
0
220
0
230
1
40
0.125147
41
-1.63389016497517
42
-1.00886584004929
0
ELLIPSE
5
14B
100
AcDbEntity
8
1
62
256
6
ByLayer
370
13
48
1
60
0
100
AcDbEllipse
10
50.943122
20
-20.316064
30
0
11
5.665498452323E-17
21
0.2
31
0
210
0
220
0
230
1
40
0.817574
41
1.90677220780382
42
2.72521072930064
0
ELLIPSE
5
14C
100
AcDbEntity
8
1
62
256
6
ByLayer
370
13
48
1
60
0
100
AcDbEllipse
10
50.533999
20
-21.183936
30
0
11
-3.67381906146713E-17
21
-0.2
31
0
210
0
220
0
230
1
40
0.34202
41
-2.72521072930056
42
-1.90677220780379
0
ELLIPSE
5
14D
100
AcDbEntity
8
1
62
256
6
ByLayer
370
13
48
1
60
0
100
AcDbEllipse
10
54.913536
20
-20.118497
30
0
11
-0.0833383062250994
21
-0.0552695821906731
31
0
210
0
220
0
230
1
40
0.125147
41
1.00886584004877
42
1.6338901649751
0
ELLIPSE
5
14E
100
AcDbEntity
8
1
62
256
6
ByLayer
370
13
48
1
60
0
100
AcDbEllipse
10
54.7528
20
-19.968957
30
0
11
-0.053394885983678
21
-0.0845516773978496
31
0
210
0
220
0
230
1
40
0.139768
41
0.739917285382307
42
1.57716944641307
0
ELLIPSE
5
14F
100
AcDbEntity
8
1
62
256
6
ByLayer
370
13
48
1
60
0
100
AcDbEllipse
10
54.258678
20
-21.198773
30
0
11
0.0150020396796473
21
0.399718574506427
31
0
210
0
220
0
230
1
40
0.406498
41
-2.33646244174224
42
-1.55554103694364
0
ELLIPSE
5
150
100
AcDbEntity
8
1
62
256
6
ByLayer
370
13
48
1
60
0
100
AcDbEllipse
10
54.620468
20
-21.612997
30
0
11
-0.0517697807122172
21
0.0855563545565667
31
0
210
0
220
0
230
1
40
0.139863
41
-1.57449803098181
42
-0.736209352900906
0
ELLIPSE
5
151
100
AcDbEntity
8
1
62
256
6
ByLayer
370
13
48
1
60
0
100
AcDbEllipse
10
54.523358
20
-21.690274
30
0
11
-0.0777352233758327
21
0.0629065580580387
31
0
210
0
220
0
230
1
40
0.130472
41
-1.62177056438514
42
-1.15591732835958
0
ELLIPSE
5
152
100
AcDbEntity
8
1
62
256
6
ByLayer
370
13
48
1
60
0
100
AcDbEllipse
10
54.258678
20
-20.301227
30
0
11
0.0150020396796469
21
-0.399718574506427
31
0
210
0
220
0
230
1
40
0.406498
41
1.55554103694362
42
2.33646244174226
0
ELLIPSE
5
153
100
AcDbEntity
8
1
62
256
6
ByLayer
370
13
48
1
60
0
100
AcDbEllipse
10
54.620468
20
-19.887003
30
0
11
-0.0517697807122172
21
-0.0855563545565667
31
0
210
0
220
0
230
1
40
0.139863
41
0.736209352901238
42
1.57449803098188
0
ELLIPSE
5
154
100
AcDbEntity
8
1
62
256
6
ByLayer
370
13
48
1
60
0
100
AcDbEllipse
10
54.523358
20
-19.809726
30
0
11
-0.0777352233758327
21
-0.0629065580580387
31
0
210
0
220
0
230
1
40
0.130472
41
1.15591732835921
42
1.62177056438507
0
ELLIPSE
5
155
100
AcDbEntity
8
1
62
256
6
ByLayer
370
13
48
1
60
0
100
AcDbEllipse
10
53.758781
20
-21.803593
30
0
11
-0.00794321942284761
21
0.239868516619419
31
0
210
0
220
0
230
1
40
0.002314
41
-1.50102146588706
42
-0.706533322266258
0
ELLIPSE
5
156
100
AcDbEntity
8
1
62
256
6
ByLayer
370
13
48
1
60
0
100
AcDbEllipse
10
53.758781
20
-19.696407
30
0
11
-0.00794321942284783
21
-0.239868516619419
31
0
210
0
220
0
230
1
40
0.002314
41
0.706533322281852
42
1.50102146588706
0
ELLIPSE
5
157
100
AcDbEntity
8
1
62
256
6
ByLayer
370
13
48
1
60
0
100
AcDbEllipse
10
50.782996
20
-18.669859
30
0
11
5.66549845232303E-16
21
2.00000000000001
31
0
210
0
220
0
230
1
40
0.34202
41
2.72521072930059
42
2.79252680319092
0
ELLIPSE
5
158
100
AcDbEntity
8
1
62
256
6
ByLayer
370
13
48
1
60
0
100
AcDbEllipse
10
50.782996
20
-22.830141
30
0
11
-3.67381906146715E-16
21
-2.00000000000001
31
0
210
0
220
0
230
1
40
0.34202
41
-2.79252680319092
42
-2.72521072930059
0
ELLIPSE
5
159
100
AcDbEntity
8
1
62
256
6
ByLayer
370
13
48
1
60
0
100
AcDbEllipse
10
50.527689
20
-20.75
30
0
11
5.94877337493915E-17
21
0.21
31
0
210
0
220
0
230
1
40
0.34202
41
-2.79252680319093
42
-0.349065850398866
0
ELLIPSE
5
15A
100
AcDbEntity
8
1
62
256
6
ByLayer
370
13
48
1
60
0
100
AcDbEllipse
10
54.935867
20
-20.153117
30
0
11
-0.0846523861242153
21
-0.053235077941868
31
0
210
0
220
0
230
1
40
0.065225
41
1.04575763084716
42
1.67414551543593
0
ELLIPSE
5
15B
100
AcDbEntity
8
1
62
256
6
ByLayer
370
13
48
1
60
0
100
AcDbEllipse
10
54.935867
20
-21.346883
30
0
11
-0.0846523861242153
21
0.053235077941868
31
0
210
0
220
0
230
1
40
0.065225
41
-1.67414551543579
42
-1.04575763084759
0
ELLIPSE
5
15C
100
AcDbEntity
8
1
62
256
6
ByLayer
370
18
48
1
60
0
100
AcDbEllipse
10
52.229028
20
-19.65297
30
0
11
0.251841921963815
21
0.0177818623354594
31
0
210
0
220
0
230
-1
40
0.06924
41
-1.56101782181896
42
-0.774400198844168
0
ELLIPSE
5
15D
100
AcDbEntity
8
1
62
256
6
ByLayer
370
18
48
1
60
0
100
AcDbEllipse
10
55.048748
20
-21.346883
30
0
11
1.1330996904646E-16
21
0.4
31
0
210
0
220
0
230
1
40
0.121869
41
1.5707963267949
42
1.64009079051255
0
ELLIPSE
5
15E
100
AcDbEntity
8
1
62
256
6
ByLayer
370
18
48
1
60
0
100
AcDbEllipse
10
55.048748
20
-20.153117
30
0
11
1.1330996904646E-16
21
0.4
31
0
210
0
220
0
230
1
40
0.121869
41
1.50150186307724
42
1.5707963267949
0
ELLIPSE
5
15F
100
AcDbEntity
8
1
62
256
6
ByLayer
370
18
48
1
60
0
100
AcDbEllipse
10
51.763694
20
-19.55
30
0
11
0.201946432116473
21
0
31
0
210
0
220
0
230
1
40
0.990362
41
-1.5707963267949
42
-1.04299365512072
0
ELLIPSE
5
160
100
AcDbEntity
8
1
62
256
6
ByLayer
370
18
48
1
60
0
100
AcDbEllipse
10
54.506337
20
-19.528005
30
0
11
0.23999704419286
21
0.0169489929447024
31
0
210
0
220
0
230
-1
40
0.070266
41
-1.73995037669966
42
-1.44395567068312
0
ELLIPSE
5
161
100
AcDbEntity
8
1
62
256
6
ByLayer
370
18
48
1
60
0
100
AcDbEllipse
10
52.229028
20
-21.84703
30
0
11
0.251841921998574
21
-0.0177818623395763
31
0
210
0
220
0
230
-1
40
0.06924
41
0.774400198845177
42
1.56101782172192
0
ELLIPSE
5
162
100
AcDbEntity
8
1
62
256
6
ByLayer
370
18
48
1
60
0
100
AcDbEllipse
10
52.04757
20
-19.849113
30
0
11
0.0586247302012056
21
-0.191752852286547
31
0
210
-1.56326331346004E-15
220
1.05822557188231E-17
230
1
40
0.997435
41
2.91526219766618
42
-2.91526219766616
0
ELLIPSE
5
163
100
AcDbEntity
8
1
62
256
6
ByLayer
370
18
48
1
60
0
100
AcDbEllipse
10
54.506337
20
-21.971995
30
0
11
0.239997045473556
21
-0.0169489930287781
31
0
210
0
220
0
230
-1
40
0.070266
41
1.44395567173951
42
1.73995037616711
0
ELLIPSE
5
164
100
AcDbEntity
8
1
62
256
6
ByLayer
370
18
48
1
60
0
100
AcDbEllipse
10
52.059275
20
-21.651706
30
0
11
0.0029729393167071
21
0.200467814146891
31
0
210
-1.59613097713202E-15
220
-6.66986070676025E-19
230
1
40
0.997557
41
2.6338628041141
42
3.08674247812913
0
ELLIPSE
5
165
100
AcDbEntity
8
1
62
256
6
ByLayer
370
18
48
1
60
0
100
AcDbEllipse
10
51.77444
20
-21.95
30
0
11
-0.201490790302156
21
2.46746902040712E-17
31
0
210
0
220
0
230
1
40
0.992601
41
-2.09761674342106
42
-1.5707963267949
0
POINT
5
6C
100
AcDbEntity
8
80
62
256
6
ByLayer
370
18
48
1
60
0
100
AcDbPoint
10
0
20
0
30
0
39
0
210
0
220
0
230
1
50
360
0
POINT
5
6E
100
AcDbEntity
8
81
62
256
6
ByLayer
370
18
48
1
60
0
100
AcDbPoint
10
55
20
-22
30
0
39
0
210
0
220
0
230
1
50
360
0
SPLINE
5
166
100
AcDbEntity
8
SK1
62
256
6
ByLayer
370
13
48
1
60
0
100
AcDbSpline
70
4
71
2
72
6
73
3
40
0
40
0
40
0
40
1
40
1
40
1
41
1
10
-18
20
-10.6075927538749
30
0
41
1
10
-9.74999999580726
20
-10.8147118141342
30
0
41
1
10
-1.49999999999997
20
-11.0218291766808
30
0
0
SPLINE
5
167
100
AcDbEntity
8
SK1
62
256
6
ByLayer
370
13
48
1
60
0
100
AcDbSpline
70
4
71
2
72
6
73
3
40
0
40
0
40
0
40
1
40
1
40
1
41
1
10
-1.49999999999997
20
11.021829034714
30
0
41
1
10
-9.74999999580729
20
10.8147116728235
30
0
41
1
10
-17.9999999999999
20
10.6075926131751
30
0
0
SPLINE
5
168
100
AcDbEntity
8
SK1
62
256
6
ByLayer
370
13
48
1
60
0
100
AcDbSpline
70
4
71
2
72
6
73
3
40
0
40
0
40
0
40
1
40
1
40
1
41
1
10
-19
20
-10.0329645549392
30
0
41
1
10
-18.4999993685751
20
-10.3214765556861
30
0
41
1
10
-18
20
-10.6099829102616
30
0
0
SPLINE
5
169
100
AcDbEntity
8
SK1
62
256
6
ByLayer
370
13
48
1
60
0
100
AcDbSpline
70
4
71
2
72
6
73
3
40
0
40
0
40
0
40
1
40
1
40
1
41
1
10
-17.9999999999999
20
10.6099827775057
30
0
41
1
10
-18.4999993686076
20
10.3214764228909
30
0
41
1
10
-19
20
10.0329644221717
30
0
0
SPLINE
5
16A
100
AcDbEntity
8
SK1
62
256
6
ByLayer
370
13
48
1
60
0
100
AcDbSpline
70
4
71
3
72
13
73
9
40
0
40
0
40
0
40
0
40
0.239519409344981
40
0.368436717937903
40
0.500075274086359
40
0.631702862900121
40
0.76058775760928
40
1
40
1
40
1
40
1
41
1
10
-1.29503997793927
20
10.8302906518511
30
0
41
1
10
-1.32110811439466
20
10.8298878106464
30
0
41
1
10
-1.35883625148523
20
10.8360574938784
30
0
41
1
10
-1.40627518083025
20
10.8590917794411
30
0
41
1
10
-1.4388625927059
20
10.8842489053808
30
0
41
1
10
-1.46563525678502
20
10.9155177526731
30
0
41
1
10
-1.49103252451869
20
10.9617179528094
30
0
41
1
10
-1.49909162766016
20
10.9990755987902
30
0
41
1
10
-1.49999999999997
20
11.0251228679298
30
0
0
SPLINE
5
16B
100
AcDbEntity
8
SK1
62
256
6
ByLayer
370
13
48
1
60
0
100
AcDbSpline
70
4
71
3
72
13
73
9
40
0
40
0
40
0
40
0
40
0.239418216240329
40
0.368302331660976
40
0.499928754022016
40
0.63156803832587
40
0.760485869348371
40
1
40
1
40
1
40
1
41
1
10
-1.49999999999997
20
-11.0251229634028
30
0
41
1
10
-1.49909191796942
20
-10.9990761096856
30
0
41
1
10
-1.49103287968455
20
-10.9617189548704
30
0
41
1
10
-1.46563532904136
20
-10.9155178559452
30
0
41
1
10
-1.4388623293676
20
-10.8842487422284
30
0
41
1
10
-1.40627519739925
20
-10.8590919385496
30
0
41
1
10
-1.35883704267306
20
-10.8360578591166
30
0
41
1
10
-1.32110848256454
20
-10.8298881386429
30
0
41
1
10
-1.2950399779393
20
-10.8302907478373
30
0
0
SPLINE
5
16C
100
AcDbEntity
8
SK1
62
256
6
ByLayer
370
13
48
1
60
0
100
AcDbSpline
70
4
71
3
72
24
73
20
40
0
40
0
40
0
40
0
40
0.12839028272298
40
0.12839028272298
40
0.159820685571473
40
0.159820685571473
40
0.191919560201381
40
0.191919560201381
40
0.209629751442791
40
0.209629751442791
40
0.227366395121611
40
0.227366395121611
40
0.251045182234586
40
0.251045182234586
40
0.293121391521012
40
0.293121391521012
40
0.42640985547704
40
0.42640985547704
40
1
40
1
40
1
40
1
41
1
10
-0.194976888875288
20
-10.8215957545435
30
0
41
1
10
-0.181375896166998
20
-10.8243422473104
30
0
41
1
10
-0.166081841895561
20
-10.8279644857846
30
0
41
1
10
-0.140426444643424
20
-10.8375064215378
30
0
41
1
10
-0.134924488239079
20
-10.8396997158019
30
0
41
1
10
-0.122832871486736
20
-10.8450247330173
30
0
41
1
10
-0.116005084540177
20
-10.8482784930315
30
0
41
1
10
-0.104867300913639
20
-10.8542304518888
30
0
41
1
10
-0.100699542547375
20
-10.8565852604387
30
0
41
1
10
-0.0926672813067171
20
-10.8614000855952
30
0
41
1
10
-0.088713126711724
20
-10.8639138269671
30
0
41
1
10
-0.0803023877863041
20
-10.8695389018216
30
0
41
1
10
-0.0759679066298702
20
-10.8726604895888
30
0
41
1
10
-0.0654598680693539
20
-10.8806226953324
30
0
41
1
10
-0.0601314814749117
20
-10.8851372207405
30
0
41
1
10
-0.041438586953376
20
-10.9019165369332
30
0
41
1
10
-0.0337743229470675
20
-10.9111229596336
30
0
41
1
10
-0.0008602206669366
20
-10.9533220423454
30
0
41
1
10
0
20
-10.9679034889487
30
0
41
1
10
0
20
-10.9778577586145
30
0
0
SPLINE
5
16D
100
AcDbEntity
8
SK1
62
256
6
ByLayer
370
13
48
1
60
0
100
AcDbSpline
70
4
71
3
72
15
73
11
40
0
40
0
40
0
40
0
40
0.0708105463137702
40
0.231761271238428
40
0.392711996163086
40
0.553662721087744
40
0.714613446012402
40
0.87556417093706
40
0.956039533399389
40
1
40
1
40
1
40
1
41
1
10
-0.194976888875288
20
10.821595605962
30
0
41
1
10
-0.194976888875288
20
10.7969736791354
30
0
41
1
10
-0.194976888875288
20
10.6769306168183
30
0
41
1
10
-0.194976888875288
20
10.2764909042798
30
0
41
1
10
-0.194976888875288
20
9.49859033133998
30
0
41
1
10
-0.194976888875288
20
8.46600622704156
30
0
41
1
10
-0.19497688887526
20
7.1985438392627
30
0
41
1
10
-0.194976888875288
20
5.95785502441251
30
0
41
1
10
-0.194976888875288
20
4.98207728872012
30
0
41
1
10
-0.194976888875288
20
4.53596278989264
30
0
41
1
10
-0.194976888875288
20
4.37579881180457
30
0
0
SPLINE
5
16E
100
AcDbEntity
8
SK1
62
256
6
ByLayer
370
13
48
1
60
0
100
AcDbSpline
70
4
71
3
72
17
73
13
40
0
40
0
40
0
40
0
40
0.0509999726268183
40
0.120748327361579
40
0.260245036831099
40
0.399741746300619
40
0.53923845577014
40
0.678735165239661
40
0.818231874709181
40
0.887980229443941
40
0.957728584178701
40
1
40
1
40
1
40
1
41
1
10
-1.29503997793927
20
10.8302903740105
30
0
41
1
10
-1.29503997793927
20
10.8303490901628
30
0
41
1
10
-1.29503997793927
20
10.8084520142662
30
0
41
1
10
-1.29503997793927
20
10.6595078070702
30
0
41
1
10
-1.2950399779393
20
10.2500351152374
30
0
41
1
10
-1.29503997793927
20
9.47349094524569
30
0
41
1
10
-1.2950399779393
20
8.4426443429185
30
0
41
1
10
-1.29503997793927
20
7.17735249314524
30
0
41
1
10
-1.29503997793927
20
5.93905418532495
30
0
41
1
10
-1.29503997793927
20
4.84051419704491
30
0
41
1
10
-1.29503997793927
20
4.08014769325382
30
0
41
1
10
-1.29503997793927
20
3.58970381899363
30
0
41
1
10
-1.29503997793927
20
3.40161292972354
30
0
0
SPLINE
5
16F
100
AcDbEntity
8
SK1
62
256
6
ByLayer
370
13
48
1
60
0
100
AcDbSpline
70
4
71
3
72
35
73
31
40
0
40
0
40
0
40
0
40
0.0158969516959861
40
0.0443712381203877
40
0.101319810969191
40
0.158268383817994
40
0.215216956666798
40
0.272165529515601
40
0.329114102364404
40
0.357588388788806
40
0.386062675213207
40
0.414536961637609
40
0.443011248062011
40
0.471485534486413
40
0.485722677698613
40
0.499959820910814
40
0.514196964123015
40
0.528434107335216
40
0.556908393759617
40
0.585382680184019
40
0.613856966608421
40
0.642331253032822
40
0.670805539457224
40
0.727754112306027
40
0.784702685154831
40
0.841651258003634
40
0.898599830852437
40
0.955548403701241
40
0.984022690125642
40
1
40
1
40
1
40
1
41
1
10
-17.9999999999999
20
10.6092651400389
30
0
41
1
10
-17.9999999999999
20
10.6060349448136
30
0
41
1
10
-17.9999999999999
20
10.5825021049535
30
0
41
1
10
-18
20
10.4427418173596
30
0
41
1
10
-18
20
10.039801389446
30
0
41
1
10
-18
20
9.27403601894576
30
0
41
1
10
-18
20
8.25699665980409
30
0
41
1
10
-17.9999999999999
20
7.00895321986488
30
0
41
1
10
-18
20
5.78965132899597
30
0
41
1
10
-18
20
4.70769937196644
30
0
41
1
10
-18
20
3.84817166067393
30
0
41
1
10
-18
20
2.94117947415665
30
0
41
1
10
-18
20
1.99095585453051
30
0
41
1
10
-18
20
1.17129189084344
30
0
41
1
10
-18
20
0.501599059707473
30
0
41
1
10
-18
20
7.85942689E-08
30
0
41
1
10
-18
20
-0.501599044412217
30
0
41
1
10
-18
20
-1.17129192458182
30
0
41
1
10
-18
20
-1.99095571595879
30
0
41
1
10
-18
20
-2.94117931205869
30
0
41
1
10
-18
20
-3.84817175180609
30
0
41
1
10
-18
20
-4.7076992407014
30
0
41
1
10
-18
20
-5.78965120402762
30
0
41
1
10
-18
20
-7.00895314702157
30
0
41
1
10
-18
20
-8.25699691773559
30
0
41
1
10
-18
20
-9.27403581023771
30
0
41
1
10
-17.9999999999999
20
-10.0398019205168
30
0
41
1
10
-18
20
-10.4427418393662
30
0
41
1
10
-18
20
-10.5826132755264
30
0
41
1
10
-18
20
-10.6061202370228
30
0
41
1
10
-18
20
-10.609313859955
30
0
0
SPLINE
5
170
100
AcDbEntity
8
SK1
62
256
6
ByLayer
370
13
48
1
60
0
100
AcDbSpline
70
4
71
3
72
24
73
20
40
0
40
0
40
0
40
0
40
0.0962392347060037
40
0.0962392347060037
40
0.194419571814828
40
0.194419571814828
40
0.224980323085254
40
0.224980323085254
40
0.256016565584868
40
0.256016565584868
40
0.283076636965051
40
0.283076636965051
40
0.322241448517599
40
0.322241448517599
40
0.396807099691253
40
0.396807099691253
40
0.656078947672766
40
0.656078947672766
40
1
40
1
40
1
40
1
41
1
10
-0.194976888875288
20
10.821595605962
30
0
41
1
10
-0.225800270974929
20
10.8153713475797
30
0
41
1
10
-0.260059369691731
20
10.808546539551
30
0
41
1
10
-0.341803934200783
20
10.7942702716737
30
0
41
1
10
-0.390260016175915
20
10.7864259269631
30
0
41
1
10
-0.473222837684034
20
10.7780887432034
30
0
41
1
10
-0.495087626885748
20
10.7762370295385
30
0
41
1
10
-0.541459979791966
20
10.7733404617968
30
0
41
1
10
-0.566679982514529
20
10.7722927243579
30
0
41
1
10
-0.612728669915413
20
10.7714551070537
30
0
41
1
10
-0.63421410880531
20
10.7715049109725
30
0
41
1
10
-0.683080106698725
20
10.7724623164841
30
0
41
1
10
-0.709729978200045
20
10.7737217298434
30
0
41
1
10
-0.778953436207217
20
10.7781755666157
30
0
41
1
10
-0.816482927715953
20
10.7820991609815
30
0
41
1
10
-0.963349723037254
20
10.7994211291879
30
0
41
1
10
-1.03512095928988
20
10.8126881790272
30
0
41
1
10
-1.18120463075809
20
10.8317285533686
30
0
41
1
10
-1.243120465761
20
10.834837438425
30
0
41
1
10
-1.29503997793927
20
10.8279545871449
30
0
0
SPLINE
5
171
100
AcDbEntity
8
SK1
62
256
6
ByLayer
370
13
48
1
60
0
100
AcDbSpline
70
4
71
3
72
24
73
20
40
0
40
0
40
0
40
0
40
0.0961745797005768
40
0.0961745797005768
40
0.194283388716156
40
0.194283388716156
40
0.224865974099145
40
0.224865974099145
40
0.255924800747723
40
0.255924800747723
40
0.283007420751244
40
0.283007420751244
40
0.322155407812201
40
0.322155407812201
40
0.396635895252616
40
0.396635895252616
40
0.655257204705371
40
0.655257204705371
40
1
40
1
40
1
40
1
41
1
10
-0.194976888875288
20
-4.37579839097896
30
0
41
1
10
-0.225778603393678
20
-4.4324791008961
30
0
41
1
10
-0.260015938127054
20
-4.48781319119917
30
0
41
1
10
-0.341702551245589
20
-4.59153420481002
30
0
41
1
10
-0.390118921162269
20
-4.64237259472063
30
0
41
1
10
-0.473016748626151
20
-4.68771235181495
30
0
41
1
10
-0.494887129060373
20
-4.69691757833218
30
0
41
1
10
-0.541277938016037
20
-4.70885491730428
30
0
41
1
10
-0.566511484960245
20
-4.71148681970905
30
0
41
1
10
-0.612595492696727
20
-4.70858984525529
30
0
41
1
10
-0.634102058640707
20
-4.70407498906414
30
0
41
1
10
-0.68298077467233
20
-4.68755425299926
30
0
41
1
10
-0.709628474198809
20
-4.67305795132469
30
0
41
1
10
-0.778816689934985
20
-4.62544783848202
30
0
41
1
10
-0.816326813882199
20
-4.58672309278145
30
0
41
1
10
-0.962957354385736
20
-4.40775966937647
30
0
41
1
10
-1.03461938473905
20
-4.24573672775639
30
0
41
1
10
-1.18088300049371
20
-3.86444045923275
30
0
41
1
10
-1.24300370483721
20
-3.6358614376814
30
0
41
1
10
-1.29503997793927
20
-3.40161170366474
30
0
0
SPLINE
5
172
100
AcDbEntity
8
SK1
62
256
6
ByLayer
370
13
48
1
60
0
100
AcDbSpline
70
4
71
3
72
17
73
13
40
0
40
0
40
0
40
0
40
0.0666167808445418
40
0.134894810827485
40
0.27145087079337
40
0.408006930759255
40
0.544562990725141
40
0.681119050691026
40
0.817675110656911
40
0.885953140639854
40
0.954231170622797
40
1
40
1
40
1
40
1
41
1
10
-1.49999999999997
20
11.0218284677905
30
0
41
1
10
-1.49999999999997
20
11.0305322949167
30
0
41
1
10
-1.49999999999997
20
11.0128510512843
30
0
41
1
10
-1.49999999999997
20
10.8518854777455
30
0
41
1
10
-1.49999999999997
20
10.43661546633
30
0
41
1
10
-1.49999999999997
20
9.65050521846047
30
0
41
1
10
-1.49999999999997
20
8.60740482444743
30
0
41
1
10
-1.49999999999997
20
7.32680518164281
30
0
41
1
10
-1.49999999999997
20
6.07164774177343
30
0
41
1
10
-1.49999999999994
20
4.95838603991962
30
0
41
1
10
-1.49999999999997
20
4.16680114754826
30
0
41
1
10
-1.49999999999997
20
3.646639762251
30
0
41
1
10
-1.49999999999997
20
3.43390926802994
30
0
0
SPLINE
5
173
100
AcDbEntity
8
SK1
62
256
6
ByLayer
370
13
48
1
60
0
100
AcDbSpline
70
4
71
3
72
17
73
13
40
0
40
0
40
0
40
0
40
0.0457689714858316
40
0.114047078922756
40
0.182325186359681
40
0.318881401233529
40
0.455437616107378
40
0.591993830981227
40
0.728550045855076
40
0.865106260728925
40
0.933384368165849
40
1
40
1
40
1
40
1
41
1
10
-1.49999999999997
20
-3.43390791500576
30
0
41
1
10
-1.49999999999997
20
-3.64663887345901
30
0
41
1
10
-1.49999999999997
20
-4.16680079382431
30
0
41
1
10
-1.49999999999997
20
-4.95838595424937
30
0
41
1
10
-1.49999999999994
20
-6.07164761580373
30
0
41
1
10
-1.49999999999994
20
-7.32680507487888
30
0
41
1
10
-1.49999999999997
20
-8.60740509388049
30
0
41
1
10
-1.49999999999994
20
-9.65050499182064
30
0
41
1
10
-1.49999999999994
20
-10.4366160019974
30
0
41
1
10
-1.49999999999994
20
-10.8518854949361
30
0
41
1
10
-1.49999999999994
20
-11.0128506934657
30
0
41
1
10
-1.49999999999997
20
-11.0305320513981
30
0
41
1
10
-1.49999999999997
20
-11.021829011866
30
0
0
SPLINE
5
174
100
AcDbEntity
8
SK1
62
256
6
ByLayer
370
13
48
1
60
0
100
AcDbSpline
70
4
71
3
72
32
73
28
40
0
40
0
40
0
40
0
40
0.234684261975925
40
0.234684261975925
40
0.348361654478322
40
0.348361654478322
40
0.388282873663993
40
0.388282873663993
40
0.428640259987654
40
0.428640259987654
40
0.446531340707515
40
0.446531340707515
40
0.461787044728306
40
0.461787044728306
40
0.472436918419563
40
0.472436918419563
40
0.483126928720742
40
0.483126928720742
40
0.496698906763869
40
0.496698906763869
40
0.52050765263963
40
0.52050765263963
40
0.596306394906039
40
0.596306394906039
40
0.939869450442386
40
0.939869450442386
40
1
40
1
40
1
40
1
41
1
10
-1.31543506509493
20
-3.31204600014945
30
0
41
1
10
-1.3289323866085
20
-3.25421882997395
30
0
41
1
10
-1.34355879628592
20
-3.19678036801616
30
0
41
1
10
-1.36981668623906
20
-3.11480234743343
30
0
41
1
10
-1.37908112666261
20
-3.08844302825827
30
0
41
1
10
-1.3941000015098
20
-3.0552471091751
30
0
41
1
10
-1.39825515114936
20
-3.04683139978442
30
0
41
1
10
-1.40744013157311
20
-3.03092633348948
30
0
41
1
10
-1.41248338751089
20
-3.02331055838167
30
0
41
1
10
-1.42104470873147
20
-3.01444691763078
30
0
41
1
10
-1.42388428770906
20
-3.01200316638366
30
0
41
1
10
-1.42960772890052
20
-3.00866963113569
30
0
41
1
10
-1.43248141685999
20
-3.00758586710072
30
0
41
1
10
-1.43759978369658
20
-3.00725807173106
30
0
41
1
10
-1.43981857045915
20
-3.00757652239241
30
0
41
1
10
-1.4441453737455
20
-3.00926961951743
30
0
41
1
10
-1.44630176453472
20
-3.01067112756513
30
0
41
1
10
-1.45077971941728
20
-3.01469802776802
30
0
41
1
10
-1.45306667342618
20
-3.0175858978771
30
0
41
1
10
-1.45860172249965
20
-3.02614271079264
30
0
41
1
10
-1.46144813218231
20
-3.03239945973161
30
0
41
1
10
-1.47156520005217
20
-3.05873512386833
30
0
41
1
10
-1.47595142428813
20
-3.08032205392624
30
0
41
1
10
-1.4960391424319
20
-3.19664641835592
30
0
41
1
10
-1.49803585788578
20
-3.29188422241415
30
0
41
1
10
-1.49975607766774
20
-3.401316961341
30
0
41
1
10
-1.49991842293898
20
-3.41763054375502
30
0
41
1
10
-1.49999999999997
20
-3.43390791500576
30
0
0
SPLINE
5
175
100
AcDbEntity
8
SK1
62
256
6
ByLayer
370
13
48
1
60
0
100
AcDbSpline
70
4
71
3
72
28
73
24
40
0
40
0
40
0
40
0
40
0.512376218728411
40
0.512376218728411
40
0.598796503464075
40
0.598796503464075
40
0.676463520255477
40
0.676463520255477
40
0.732063551226617
40
0.732063551226617
40
0.756744297249796
40
0.756744297249796
40
0.78192624919704
40
0.78192624919704
40
0.799501894552034
40
0.799501894552034
40
0.816971939099233
40
0.816971939099233
40
0.846412145166808
40
0.846412145166808
40
0.906005120678059
40
0.906005120678059
40
1
40
1
40
1
40
1
41
1
10
2.84E-14
20
10.9778576762541
30
0
41
1
10
2.84E-14
20
10.9689409125151
30
0
41
1
10
-0.0021336807887451
20
10.9555532512505
30
0
41
1
10
-0.0232748724177725
20
10.9246518484714
30
0
41
1
10
-0.0269083003946378
20
10.9197287260978
30
0
41
1
10
-0.0357145212995533
20
10.9091097226555
30
0
41
1
10
-0.040662796033331
20
10.9035431698627
30
0
41
1
10
-0.0520351547615121
20
10.892344182334
30
0
41
1
10
-0.0576624789276252
20
10.8871325052028
30
0
41
1
10
-0.0685022979990606
20
10.8783230690719
30
0
41
1
10
-0.0722755852240198
20
10.8753918789565
30
0
41
1
10
-0.0809223725233608
20
10.8691153689022
30
0
41
1
10
-0.0859779850563882
20
10.8656564118427
30
0
41
1
10
-0.0952029059709787
20
10.8598435694816
30
0
41
1
10
-0.0992734436414651
20
10.8574159266207
30
0
41
1
10
-0.107237119508568
20
10.8529290307916
30
0
41
1
10
-0.111216792366918
20
10.850816610328
30
0
41
1
10
-0.121305075823216
20
10.8457309056932
30
0
41
1
10
-0.127212828813725
20
10.8430398605585
30
0
41
1
10
-0.143444252916083
20
10.8361482507472
30
0
41
1
10
-0.152658694618651
20
10.832930382725
30
0
41
1
10
-0.174005802157268
20
10.8262219540923
30
0
41
1
10
-0.184997875213043
20
10.8236106982459
30
0
41
1
10
-0.194976888875288
20
10.821595605962
30
0
0
SPLINE
5
176
100
AcDbEntity
8
SK1
62
256
6
ByLayer
370
13
48
1
60
0
100
AcDbSpline
70
4
71
3
72
8
73
4
40
0
40
0
40
0
40
0
40
1
40
1
40
1
40
1
41
1
10
-1.31543506509493
20
3.312047377792
30
0
41
1
10
-1.30849408531827
20
3.3417848751678
30
0
41
1
10
-1.30169623454364
20
3.37164876172554
30
0
41
1
10
-1.29503997793927
20
3.40161292972354
30
0
0
SPLINE
5
177
100
AcDbEntity
8
SK1
62
256
6
ByLayer
370
13
48
1
60
0
100
AcDbSpline
70
4
71
3
72
12
73
8
40
0
40
0
40
0
40
0
40
0.5
40
0.5
40
0.75
40
0.75
40
1
40
1
40
1
40
1
41
1
10
-1.29503997793927
20
3.4016129297238
30
0
41
1
10
-1.21966153693791
20
3.74094063354173
30
0
41
1
10
-1.13234441385649
20
4.06572173503707
30
0
41
1
10
-0.888424605955834
20
4.51242811202675
30
0
41
1
10
-0.782090355088656
20
4.70587064177852
30
0
41
1
10
-0.381449312601404
20
4.71480920489626
30
0
41
1
10
-0.275877572630833
20
4.52467076184277
30
0
41
1
10
-0.194976888875288
20
4.3757988118046
30
0
0
SPLINE
5
178
100
AcDbEntity
8
SK1
62
256
6
ByLayer
370
13
48
1
60
0
100
AcDbSpline
70
4
71
3
72
8
73
4
40
0
40
0
40
0
40
0
40
1
40
1
40
1
40
1
41
1
10
-1.2950399779393
20
-3.40161170366449
30
0
41
1
10
-1.30169623417876
20
-3.37164748523205
30
0
41
1
10
-1.30849408485733
20
-3.34178354807557
30
0
41
1
10
-1.3154350650949
20
-3.31204600014951
30
0
0
SPLINE
5
179
100
AcDbEntity
8
SK1
62
256
6
ByLayer
370
13
48
1
60
0
100
AcDbSpline
70
4
71
3
72
10
73
6
40
0
40
0
40
0
40
0
40
0.5
40
0.5
40
1
40
1
40
1
40
1
41
1
10
-1.49999999999997
20
-3.43390791500579
30
0
41
1
10
-1.71692496836977
20
-2.37752637479554
30
0
41
1
10
-1.93485042889131
20
-1.20950788444219
30
0
41
1
10
-1.93573790230079
20
1.20204294303994
30
0
41
1
10
-1.7171585624628
20
2.37639193543944
30
0
41
1
10
-1.49999999999952
20
3.43390926803019
30
0
0
SPLINE
5
17A
100
AcDbEntity
8
SK1
62
256
6
ByLayer
370
13
48
1
60
0
100
AcDbSpline
70
4
71
3
72
12
73
8
40
0
40
0
40
0
40
0
40
0.5
40
0.5
40
0.75
40
0.75
40
1
40
1
40
1
40
1
41
1
10
-1.2950399779393
20
-10.827954662041
30
0
41
1
10
-1.21965219531936
20
-10.8379486625118
30
0
41
1
10
-1.13233363849667
20
-10.8263834256097
30
0
41
1
10
-0.888368938463373
20
-10.7902737230075
30
0
41
1
10
-0.78205693922601
20
-10.7672468480772
30
0
41
1
10
-0.381383282450116
20
-10.7768463845487
30
0
41
1
10
-0.275882860919523
20
-10.8052581480331
30
0
41
1
10
-0.194976888875288
20
-10.8215957545435
30
0
0
SPLINE
5
17B
100
AcDbEntity
8
SK1
62
256
6
ByLayer
370
13
48
1
60
0
100
AcDbSpline
70
4
71
3
72
26
73
22
40
0
40
0
40
0
40
0
40
0.309980198120721
40
0.309980198120721
40
0.46612112789267
40
0.46612112789267
40
0.495339935925109
40
0.495339935925109
40
0.508478349916384
40
0.508478349916384
40
0.521870142767916
40
0.521870142767916
40
0.533321486910885
40
0.533321486910885
40
0.546914826759937
40
0.546914826759937
40
0.571024540941022
40
0.571024540941022
40
0.650283827224861
40
0.650283827224861
40
1
40
1
40
1
40
1
41
1
10
-1.49999999999997
20
3.43390926803423
30
0
41
1
10
-1.49957809424498
20
3.34972498522046
30
0
41
1
10
-1.4976579280154
20
3.26436078219535
30
0
41
1
10
-1.48532705686955
20
3.13479536440954
30
0
41
1
10
-1.48076412648985
20
3.08989854362886
30
0
41
1
10
-1.46447634382207
20
3.03979293840393
30
0
41
1
10
-1.46141372751504
20
3.03180695978696
30
0
41
1
10
-1.45566120817685
20
3.02143998205997
30
0
41
1
10
-1.45365299428386
20
3.01835783654931
30
0
41
1
10
-1.4491491400658
20
3.01303026786201
30
0
41
1
10
-1.44656555604135
20
3.01074941382348
30
0
41
1
10
-1.44159424050377
20
3.00807571495159
30
0
41
1
10
-1.43917332636687
20
3.00743313813311
30
0
41
1
10
-1.43412760501767
20
3.00729376115296
30
0
41
1
10
-1.4314678327483
20
3.00799377806251
30
0
41
1
10
-1.42468428977526
20
3.01114999104317
30
0
41
1
10
-1.42082982648509
20
3.01451655258916
30
0
41
1
10
-1.40597537013124
20
3.03067342263441
30
0
41
1
10
-1.39753320304288
20
3.04757090687593
30
0
41
1
10
-1.356077987422
20
3.13969304848817
30
0
41
1
10
-1.33538442090901
20
3.2265776119549
30
0
41
1
10
-1.31543506509433
20
3.31204737779174
30
0
0
SPLINE
5
17C
100
AcDbEntity
8
SK1
62
256
6
ByLayer
370
13
48
1
60
0
100
AcDbSpline
70
4
71
3
72
28
73
24
40
0
40
0
40
0
40
0
40
0.512389772634369
40
0.512389772634369
40
0.598731913641525
40
0.598731913641525
40
0.676265860996735
40
0.676265860996735
40
0.7321493275346
40
0.7321493275346
40
0.756724770902873
40
0.756724770902873
40
0.78179330625987
40
0.78179330625987
40
0.799361847027209
40
0.799361847027209
40
0.816826010501269
40
0.816826010501269
40
0.846186813770153
40
0.846186813770153
40
0.905539732454797
40
0.905539732454797
40
1
40
1
40
1
40
1
41
1
10
2.84E-14
20
-4.85235750507835
30
0
41
1
10
2.84E-14
20
-4.7325803596504
30
0
41
1
10
-0.0021341972527296
20
-4.60969891010163
30
0
41
1
10
-0.0232786507929745
20
-4.4630263722743
30
0
41
1
10
-0.0269092785202929
20
-4.44166333235864
30
0
41
1
10
-0.0357027926590945
20
-4.40116175451504
30
0
41
1
10
-0.0406406591744144
20
-4.38191437517182
30
0
41
1
10
-0.0520117846028256
20
-4.34944869087843
30
0
41
1
10
-0.0576636066332128
20
-4.3358329459021
30
0
41
1
10
-0.0685385681381661
20
-4.31781684750919
30
0
41
1
10
-0.0722984771589097
20
-4.31246867438261
30
0
41
1
10
-0.0809092003855767
20
-4.30291138710979
30
0
41
1
10
-0.0859393324079178
20
-4.29861365633255
30
0
41
1
10
-0.0951339015148847
20
-4.29362932415083
30
0
41
1
10
-0.0992015134457347
20
-4.29221665297035
30
0
41
1
10
-0.107162338092593
20
-4.29091978708672
30
0
41
1
10
-0.111142011696074
20
-4.29099599703491
30
0
41
1
10
-0.121216352207398
20
-4.29265629948998
30
0
41
1
10
-0.127113045571917
20
-4.29518639800148
30
0
41
1
10
-0.143301351325192
20
-4.30481339036521
30
0
41
1
10
-0.152491885173987
20
-4.31398732373015
30
0
41
1
10
-0.173901568135733
20
-4.33947815148494
30
0
41
1
10
-0.184949910857625
20
-4.35734694302386
30
0
41
1
10
-0.194976888875288
20
-4.37579839097896
30
0
0
SPLINE
5
17D
100
AcDbEntity
8
SK1
62
256
6
ByLayer
370
13
48
1
60
0
100
AcDbSpline
70
4
71
3
72
35
73
31
40
0
40
0
40
0
40
0
40
0.0183913877332154
40
0.0467212615271988
40
0.103381009115166
40
0.160040756703133
40
0.216700504291099
40
0.273360251879066
40
0.330019999467033
40
0.358349873261016
40
0.386679747055
40
0.415009620848983
40
0.443339494642967
40
0.47166936843695
40
0.485834305333942
40
0.499999242230933
40
0.514164179127925
40
0.528329116024917
40
0.5566589898189
40
0.584988863612884
40
0.613318737406867
40
0.64164861120085
40
0.669978484994834
40
0.7266382325828
40
0.783297980170767
40
0.839957727758734
40
0.896617475346701
40
0.953277222934668
40
0.981607096728651
40
1
40
1
40
1
40
1
41
1
10
-19
20
10.0333172286495
30
0
41
1
10
-19
20
10.0315838820701
30
0
41
1
10
-19
20
10.0100828783296
30
0
41
1
10
-19
20
9.87290376557473
30
0
41
1
10
-19
20
9.48713546208165
30
0
41
1
10
-19
20
8.7497055795931
30
0
41
1
10
-19
20
7.76896293179385
30
0
41
1
10
-19
20
6.56626239951905
30
0
41
1
10
-19
20
5.39689860660042
30
0
41
1
10
-19
20
4.35855354299247
30
0
41
1
10
-19
20
3.54050705744925
30
0
41
1
10
-19
20
2.68380958588855
30
0
41
1
10
-19
20
1.7972819277218
30
0
41
1
10
-19
20
1.05021111926754
30
0
41
1
10
-19
20
0.444753991207989
30
0
41
1
10
-19
20
1.751606931E-07
30
0
41
1
10
-19
20
-0.444754022192797
30
0
41
1
10
-19
20
-1.05021119288884
30
0
41
1
10
-19
20
-1.79728161122438
30
0
41
1
10
-19
20
-2.68380947355107
30
0
41
1
10
-19
20
-3.54050720156587
30
0
41
1
10
-19
20
-4.35855334822483
30
0
41
1
10
-19
20
-5.39689848302669
30
0
41
1
10
-19
20
-6.56626237391896
30
0
41
1
10
-19
20
-7.76896317370654
30
0
41
1
10
-19
20
-8.74970539585971
30
0
41
1
10
-19
20
-9.48713598675059
30
0
41
1
10
-19
20
-9.87290379428876
30
0
41
1
10
-19
20
-10.0100852113612
30
0
41
1
10
-19
20
-10.031585436554
30
0
41
1
10
-19
20
-10.0333177714191
30
0
0
SPLINE
5
17E
100
AcDbEntity
8
SK1
62
256
6
ByLayer
370
13
48
1
60
0
100
AcDbSpline
70
4
71
3
72
24
73
20
40
0
40
0
40
0
40
0
40
0.128387595315512
40
0.128387595315512
40
0.159816787058972
40
0.159816787058972
40
0.191913564337699
40
0.191913564337699
40
0.209621992350261
40
0.209621992350261
40
0.227357368928569
40
0.227357368928569
40
0.251017095037809
40
0.251017095037809
40
0.29304286827697
40
0.29304286827697
40
0.426109841033105
40
0.426109841033105
40
1
40
1
40
1
40
1
41
1
10
-0.194976888875288
20
4.3757988118046
30
0
41
1
10
-0.181376609846751
20
4.35077182852032
30
0
41
1
10
-0.166084452907427
20
4.32613296449395
30
0
41
1
10
-0.140434718547624
20
4.30354219591206
30
0
41
1
10
-0.134934284841847
20
4.29948916182238
30
0
41
1
10
-0.122846025128211
20
4.2932953592846
30
0
41
1
10
-0.116020442370655
20
4.29111917578788
30
0
41
1
10
-0.104884728676097
20
4.29110815705064
30
0
41
1
10
-0.100717557342023
20
4.29180717572163
30
0
41
1
10
-0.0926853821896145
20
4.29472464897339
30
0
41
1
10
-0.0887307273816589
20
4.29697782288534
30
0
41
1
10
-0.0803221045948419
20
4.30341451620851
30
0
41
1
10
-0.0759893926377231
20
4.30805199521794
30
0
41
1
10
-0.0654876521097378
20
4.32177471162319
30
0
41
1
10
-0.060161905693036
20
4.33174670235755
30
0
41
1
10
-0.0414836434770507
20
4.37335200507778
30
0
41
1
10
-0.0338202360858588
20
4.40700915263866
30
0
41
1
10
-0.0008505118823621
20
4.58041352034965
30
0
41
1
10
2.84E-14
20
4.71858084962881
30
0
41
1
10
2.84E-14
20
4.85235826679354
30
0
0
SPLINE
5
17F
100
AcDbEntity
8
SK1
62
256
6
ByLayer
370
13
48
1
60
0
100
AcDbSpline
70
4
71
3
72
15
73
11
40
0
40
0
40
0
40
0
40
0.0439605062750042
40
0.124435874054454
40
0.285386609613355
40
0.446337345172255
40
0.607288080731155
40
0.768238816290055
40
0.929189551848955
40
1
40
1
40
1
40
1
41
1
10
-0.194976888875288
20
-4.37579839097896
30
0
41
1
10
-0.194976888875288
20
-4.53596249036627
30
0
41
1
10
-0.194976888875288
20
-4.98207705649125
30
0
41
1
10
-0.194976888875288
20
-5.95785489884688
30
0
41
1
10
-0.194976888875288
20
-7.19854374618663
30
0
41
1
10
-0.194976888875288
20
-8.46600649183347
30
0
41
1
10
-0.194976888875288
20
-9.49859011193607
30
0
41
1
10
-0.194976888875288
20
-10.2764914380924
30
0
41
1
10
-0.194976888875288
20
-10.6769305434497
30
0
41
1
10
-0.194976888875288
20
-10.7969738327037
30
0
41
1
10
-0.194976888875317
20
-10.8215957545435
30
0
0
SPLINE
5
180
100
AcDbEntity
8
SK1
62
256
6
ByLayer
370
13
48
1
60
0
100
AcDbSpline
70
4
71
3
72
17
73
13
40
0
40
0
40
0
40
0
40
0.0422810198007989
40
0.112045078623369
40
0.181809137445939
40
0.32133725509108
40
0.46086537273622
40
0.600393490381361
40
0.739921608026501
40
0.879449725671641
40
0.949213784494212
40
1
40
1
40
1
40
1
41
1
10
-1.29503997793927
20
-3.40161170366449
30
0
41
1
10
-1.29503997793927
20
-3.58970302045972
30
0
41
1
10
-1.29503997793927
20
-4.08014737941227
30
0
41
1
10
-1.29503997793927
20
-4.84051408993614
30
0
41
1
10
-1.29503997793927
20
-5.93905405982605
30
0
41
1
10
-1.29503997793927
20
-7.17735240233066
30
0
41
1
10
-1.29503997793927
20
-8.44264460694356
30
0
41
1
10
-1.29503997793927
20
-9.47349072703733
30
0
41
1
10
-1.29503997793927
20
-10.2500356487435
30
0
41
1
10
-1.29503997793927
20
-10.6595078265253
30
0
41
1
10
-1.29503997793927
20
-10.808323476195
30
0
41
1
10
-1.29503997793927
20
-10.8302673953709
30
0
41
1
10
-1.29503997793927
20
-10.8302907036534
30
0
0
SPLINE
5
181
100
AcDbEntity
8
1
62
256
6
ByLayer
370
13
48
1
60
0
100
AcDbSpline
70
4
71
3
72
16
73
12
40
0
40
0
40
0
40
0
40
0.11290438305391
40
0.11290438305391
40
0.251995806600761
40
0.251995806600761
40
0.471177478613645
40
0.471177478613645
40
0.892334804025817
40
0.892334804025817
40
1
40
1
40
1
40
1
41
1
10
4.92320508075701
20
4.75546271781781
30
0
41
1
10
4.90636996355758
20
4.75546271781781
30
0
41
1
10
4.88932551790376
20
4.75851551862689
30
0
41
1
10
4.85400387216058
20
4.77071315953384
30
0
41
1
10
4.8357615698869
20
4.7811707397222
30
0
41
1
10
4.79405363685723
20
4.81283214608462
30
0
41
1
10
4.77256184645859
20
4.83715715133641
30
0
41
1
10
4.71952959058135
20
4.91214630601459
30
0
41
1
10
4.6950648295049
20
4.96811547083706
30
0
41
1
10
4.67177931116117
20
5.03919021254697
30
0
41
1
10
4.66740846582638
20
5.05386666454092
30
0
41
1
10
4.66339745962165
20
5.06861858311191
30
0
0
SPLINE
5
182
100
AcDbEntity
8
1
62
256
6
ByLayer
370
13
48
1
60
0
100
AcDbSpline
70
4
71
3
72
16
73
12
40
0
40
0
40
0
40
0
40
0.112904383053932
40
0.112904383053932
40
0.251995806600791
40
0.251995806600791
40
0.471177478613729
40
0.471177478613729
40
0.892334804026052
40
0.892334804026052
40
1
40
1
40
1
40
1
41
1
10
4.92320508075701
20
-15.2769622091385
30
0
41
1
10
4.90636996355758
20
-15.2769622091385
30
0
41
1
10
4.88932551790376
20
-15.2760126621562
30
0
41
1
10
4.85400387216055
20
-15.272208277066
30
0
41
1
10
4.8357615698869
20
-15.2689414463834
30
0
41
1
10
4.79405363685723
20
-15.2589992478796
30
0
41
1
10
4.77256184645856
20
-15.2513160232933
30
0
41
1
10
4.71952959058132
20
-15.2273927985288
30
0
41
1
10
4.69506482950487
20
-15.2092528380283
30
0
41
1
10
4.67177931116115
20
-15.1857432227235
30
0
41
1
10
4.66740846582636
20
-15.1808653782145
30
0
41
1
10
4.66339745962162
20
-15.1759383782003
30
0
0
SPLINE
5
183
100
AcDbEntity
8
1
62
256
6
ByLayer
370
13
48
1
60
0
100
AcDbSpline
70
4
71
3
72
10
73
6
40
0
40
0
40
0
40
0
40
0.5
40
0.5
40
1
40
1
40
1
40
1
41
1
10
16.4383186059721
20
-14.9752044429562
30
0
41
1
10
16.3345897578432
20
-14.4921165243813
30
0
41
1
10
16.0765755094743
20
-14.0923590556873
30
0
41
1
10
15.6240471375944
20
-13.4369576012813
30
0
41
1
10
15.4167294406122
20
-13.1608639131322
30
0
41
1
10
15.2792076144253
20
-12.8776105842323
30
0
0
SPLINE
5
184
100
AcDbEntity
8
1
62
256
6
ByLayer
370
13
48
1
60
0
100
AcDbSpline
70
4
71
3
72
8
73
4
40
0
40
0
40
0
40
0
40
1
40
1
40
1
40
1
41
1
10
15.0453016345033
20
14.4650938580065
30
0
41
1
10
15.0489629228035
20
14.0455517739587
30
0
41
1
10
15.1129668354736
20
13.5509839347962
30
0
41
1
10
15.3398427259481
20
12.9931148039816
30
0
0
SPLINE
5
185
100
AcDbEntity
8
1
62
256
6
ByLayer
370
13
48
1
60
0
100
AcDbSpline
70
4
71
3
72
8
73
4
40
0
40
0
40
0
40
0
40
1
40
1
40
1
40
1
41
1
10
17.2055136575711
20
-18.3573750106366
30
0
41
1
10
17.4539893193462
20
-19.4652320130842
30
0
41
1
10
17.731310467455
20
-20.6044870902744
30
0
41
1
10
18.0225748329688
20
-21.7499999999996
30
0
0
SPLINE
5
186
100
AcDbEntity
8
1
62
256
6
ByLayer
370
13
48
1
60
0
100
AcDbSpline
70
4
71
3
72
8
73
4
40
0
40
0
40
0
40
0
40
1
40
1
40
1
40
1
41
1
10
16.4383186059721
20
-14.9752044429562
30
0
41
1
10
16.6800371519849
20
-16.1009405460796
30
0
41
1
10
16.9379735064283
20
-17.2279698475872
30
0
41
1
10
17.2055136575711
20
-18.3573750106366
30
0
0
SPLINE
5
187
100
AcDbEntity
8
1
62
256
6
ByLayer
370
13
48
1
60
0
100
AcDbSpline
70
4
71
3
72
16
73
12
40
0
40
0
40
0
40
0
40
0.462497527136102
40
0.462497527136102
40
0.645191851134084
40
0.645191851134084
40
0.830465145085345
40
0.830465145085345
40
0.946099677592785
40
0.946099677592785
40
1
40
1
40
1
40
1
41
1
10
4.66339745962168
20
15.1759383782003
30
0
41
1
10
4.68049745427396
20
15.1969435000063
30
0
41
1
10
4.70393430551667
20
15.2173733040723
30
0
41
1
10
4.75230660037388
20
15.2426068177431
30
0
41
1
10
4.76803751709792
20
15.2494611471716
30
0
41
1
10
4.80461917683147
20
15.2617345707429
30
0
41
1
10
4.82601832205691
20
15.2672766430867
30
0
41
1
10
4.86534830605137
20
15.2736248541652
30
0
41
1
10
4.8819430011076
20
15.2754510872995
30
0
41
1
10
4.9069306967761
20
15.2767486596484
30
0
41
1
10
4.91508241701416
20
15.2769622091385
30
0
41
1
10
4.92320508075699
20
15.2769622091385
30
0
0
SPLINE
5
188
100
AcDbEntity
8
1
62
256
6
ByLayer
370
13
48
1
60
0
100
AcDbSpline
70
4
71
3
72
8
73
4
40
0
40
0
40
0
40
0
40
1
40
1
40
1
40
1
41
1
10
17.7502902179705
20
-21.7499999999996
30
0
41
1
10
17.7501388137172
20
-21.7499999999996
30
0
41
1
10
17.8392957687292
20
-21.7499999999996
30
0
41
1
10
18.0225748329687
20
-21.7499999999996
30
0
0
SPLINE
5
189
100
AcDbEntity
8
1
62
256
6
ByLayer
370
13
48
1
60
0
100
AcDbSpline
70
4
71
3
72
16
73
12
40
0
40
0
40
0
40
0
40
0.462497527135848
40
0.462497527135848
40
0.645191851133745
40
0.645191851133745
40
0.830465145084902
40
0.830465145084902
40
0.946099677592309
40
0.946099677592309
40
1
40
1
40
1
40
1
41
1
10
7.33660254037835
20
-15.1759383782002
30
0
41
1
10
7.31950254572607
20
-15.1969435000061
30
0
41
1
10
7.29606569448339
20
-15.2173733040721
30
0
41
1
10
7.24769339962614
20
-15.2426068177429
30
0
41
1
10
7.23196248290211
20
-15.2494611471715
30
0
41
1
10
7.19538082316856
20
-15.2617345707427
30
0
41
1
10
7.17398167794312
20
-15.2672766430866
30
0
41
1
10
7.13465169394863
20
-15.273624854165
30
0
41
1
10
7.1180569988924
20
-15.2754510872994
30
0
41
1
10
7.0930693032239
20
-15.2767486596483
30
0
41
1
10
7.0849175829859
20
-15.2769622091384
30
0
41
1
10
7.0767949192431
20
-15.2769622091384
30
0
0
SPLINE
5
18A
100
AcDbEntity
8
1
62
256
6
ByLayer
370
13
48
1
60
0
100
AcDbSpline
70
4
71
3
72
16
73
12
40
0
40
0
40
0
40
0
40
0.112904383055302
40
0.112904383055302
40
0.251995806602007
40
0.251995806602007
40
0.471177478614715
40
0.471177478614715
40
0.892334804026723
40
0.892334804026723
40
1
40
1
40
1
40
1
41
1
10
7.07679491924307
20
15.2769622091383
30
0
41
1
10
7.09363003644251
20
15.2769622091383
30
0
41
1
10
7.11067448209633
20
15.276012662156
30
0
41
1
10
7.14599612783951
20
15.2722082770659
30
0
41
1
10
7.16423843011319
20
15.2689414463833
30
0
41
1
10
7.20594636314283
20
15.2589992478794
30
0
41
1
10
7.22743815354153
20
15.2513160232932
30
0
41
1
10
7.28047040941874
20
15.2273927985286
30
0
41
1
10
7.30493517049521
20
15.2092528380281
30
0
41
1
10
7.32822068883891
20
15.1857432227233
30
0
41
1
10
7.3325915341737
20
15.1808653782144
30
0
41
1
10
7.33660254037841
20
15.1759383782002
30
0
0
SPLINE
5
18B
100
AcDbEntity
8
1
62
256
6
ByLayer
370
13
48
1
60
0
100
AcDbSpline
70
4
71
3
72
20
73
16
40
0
40
0
40
0
40
0
40
0.022040553808825
40
0.022040553808825
40
0.177711887505467
40
0.177711887505467
40
0.339043280184466
40
0.339043280184466
40
0.501645291610771
40
0.501645291610771
40
0.663394862320573
40
0.663394862320573
40
0.831375695552532
40
0.831375695552532
40
1
40
1
40
1
40
1
41
1
10
29.9999999999998
20
-19.7499999999996
30
0
41
1
10
29.97409056961
20
-19.7499999999996
30
0
41
1
10
29.9481971832056
20
-19.7493703262376
30
0
41
1
10
29.7417352563613
20
-19.7393403532376
30
0
41
1
10
29.5612775824287
20
-19.6989553420042
30
0
41
1
10
29.2254416738009
20
-19.562123830053
30
0
41
1
10
29.0668772614148
20
-19.4616292321335
30
0
41
1
10
28.8026594676475
20
-19.2260742714344
30
0
41
1
10
28.6941593070836
20
-19.0878002159148
30
0
41
1
10
28.5370166068148
20
-18.8164484093058
30
0
41
1
10
28.4857108829964
20
-18.6804358209578
30
0
41
1
10
28.4222812398246
20
-18.4438873398876
30
0
41
1
10
28.4100105271683
20
-18.3421013995066
30
0
41
1
10
28.3992613304031
20
-18.2013199677167
30
0
41
1
10
28.4000109538526
20
-18.1605115704398
30
0
41
1
10
28.4000010418516
20
-18.1518259037355
30
0
0
SPLINE
5
18C
100
AcDbEntity
8
1
62
256
6
ByLayer
370
13
48
1
60
0
100
AcDbSpline
70
4
71
3
72
8
73
4
40
0
40
0
40
0
40
0
40
1
40
1
40
1
40
1
41
1
10
15.0453016345033
20
-11.7968922990657
30
0
41
1
10
15.0490204601478
20
-12.1873402855165
30
0
41
1
10
15.1188888361802
20
-12.5474024355899
30
0
41
1
10
15.2792076144253
20
-12.8776105842323
30
0
0
SPLINE
5
18D
100
AcDbEntity
8
1
62
256
6
ByLayer
370
13
48
1
60
0
100
AcDbSpline
70
4
71
3
72
8
73
4
40
0
40
0
40
0
40
0
40
1
40
1
40
1
40
1
41
1
10
17.2055136575711
20
-18.3573750106366
30
0
41
1
10
17.7490502355936
20
-19.4830828428714
30
0
41
1
10
18.3291688523626
20
-20.6096708941561
30
0
41
1
10
18.9178682238792
20
-21.7500000000054
30
0
0
SPLINE
5
18E
100
AcDbEntity
8
1
62
256
6
ByLayer
370
13
48
1
60
0
100
AcDbSpline
70
4
71
3
72
16
73
12
40
0
40
0
40
0
40
0
40
0.46249752713581
40
0.46249752713581
40
0.645191851133731
40
0.645191851133731
40
0.830465145084918
40
0.830465145084918
40
0.946099677592303
40
0.946099677592303
40
1
40
1
40
1
40
1
41
1
10
7.33660254037835
20
5.06861858311242
30
0
41
1
10
7.31950254572607
20
5.00572719980403
30
0
41
1
10
7.29606569448339
20
4.94318132289564
30
0
41
1
10
7.24769339962614
20
4.86451341532771
30
0
41
1
10
7.23196248290211
20
4.84296870144274
30
0
41
1
10
7.19538082316853
20
4.80415189945705
30
0
41
1
10
7.17398167794312
20
4.78648459402939
30
0
41
1
10
7.13465169394863
20
4.76617783194939
30
0
41
1
10
7.1180569988924
20
4.76031541807703
30
0
41
1
10
7.09306930322393
20
4.75614889828719
30
0
41
1
10
7.08491758298592
20
4.75546271781821
30
0
41
1
10
7.0767949192431
20
4.75546271781821
30
0
0
SPLINE
5
18F
100
AcDbEntity
8
1
62
256
6
ByLayer
370
13
48
1
60
0
100
AcDbSpline
70
4
71
3
72
8
73
4
40
0
40
0
40
0
40
0
40
1
40
1
40
1
40
1
41
1
10
15.3398427259481
20
12.9931148039816
30
0
41
1
10
15.137833006376
20
12.6361636134026
30
0
41
1
10
15.0494615006863
20
12.2336461375925
30
0
41
1
10
15.0453016345033
20
11.7968922990657
30
0
0
SPLINE
5
190
100
AcDbEntity
8
1
62
256
6
ByLayer
370
13
48
1
60
0
100
AcDbSpline
70
4
71
3
72
16
73
12
40
0
40
0
40
0
40
0
40
0.112904383055292
40
0.112904383055292
40
0.251995806601974
40
0.251995806601974
40
0.471177478614622
40
0.471177478614622
40
0.892334804026459
40
0.892334804026459
40
1
40
1
40
1
40
1
41
1
10
7.07679491924307
20
-4.75546271781815
30
0
41
1
10
7.09363003644248
20
-4.75546271781815
30
0
41
1
10
7.11067448209633
20
-4.75851551862721
30
0
41
1
10
7.14599612783951
20
-4.77071315953418
30
0
41
1
10
7.16423843011316
20
-4.78117073972254
30
0
41
1
10
7.2059463631428
20
-4.81283214608499
30
0
41
1
10
7.2274381535415
20
-4.83715715133675
30
0
41
1
10
7.28047040941871
20
-4.91214630601499
30
0
41
1
10
7.30493517049518
20
-4.96811547083752
30
0
41
1
10
7.32822068883885
20
-5.0391902125474
30
0
41
1
10
7.33259153417367
20
-5.05386666454132
30
0
41
1
10
7.33660254037838
20
-5.06861858311225
30
0
0
SPLINE
5
191
100
AcDbEntity
8
1
62
256
6
ByLayer
370
13
48
1
60
0
100
AcDbSpline
70
4
71
3
72
16
73
12
40
0
40
0
40
0
40
0
40
0.462497527136105
40
0.462497527136105
40
0.645191851134065
40
0.645191851134065
40
0.830465145085285
40
0.830465145085285
40
0.94609967759272
40
0.94609967759272
40
1
40
1
40
1
40
1
41
1
10
4.66339745962168
20
-5.06861858311177
30
0
41
1
10
4.68049745427393
20
-5.00572719980337
30
0
41
1
10
4.70393430551667
20
-4.94318132289501
30
0
41
1
10
4.75230660037388
20
-4.86451341532708
30
0
41
1
10
4.76803751709792
20
-4.84296870144215
30
0
41
1
10
4.80461917683147
20
-4.80415189945646
30
0
41
1
10
4.82601832205688
20
-4.78648459402882
30
0
41
1
10
4.86534830605135
20
-4.7661778319488
30
0
41
1
10
4.88194300110757
20
-4.76031541807643
30
0
41
1
10
4.9069306967761
20
-4.7561488982866
30
0
41
1
10
4.91508241701413
20
-4.75546271781761
30
0
41
1
10
4.92320508075699
20
-4.75546271781761
30
0
0
SPLINE
5
192
100
AcDbEntity
8
1
62
256
6
ByLayer
370
13
48
1
60
0
100
AcDbSpline
70
4
71
3
72
10
73
6
40
0
40
0
40
0
40
0
40
0.5
40
0.5
40
1
40
1
40
1
40
1
41
1
10
25.5792866909759
20
-19.7499999999995
30
0
41
1
10
25.5792866909759
20
-19.1473432423713
30
0
41
1
10
26.124964229916
20
-18.6960231677234
30
0
41
1
10
27.2129372155263
20
-18.2402221105675
30
0
41
1
10
27.81114976828
20
-18.164583488344
30
0
41
1
10
28.4000010418518
20
-18.1518259037355
30
0
0
SPLINE
5
193
100
AcDbEntity
8
1
62
256
6
ByLayer
370
13
48
1
60
0
100
AcDbSpline
70
4
71
3
72
16
73
12
40
0
40
0
40
0
40
0
40
0.0007084940797618
40
0.0007084940797618
40
0.283937687189524
40
0.283937687189524
40
0.567818407080674
40
0.567818407080674
40
0.999291505920235
40
0.999291505920235
40
1
40
1
40
1
40
1
41
1
10
53.2289221872924
20
-21.1300199051642
30
0
41
1
10
53.228941627443
20
-21.1300245086139
30
0
41
1
10
53.2289610676156
20
-21.1300291120391
30
0
41
1
10
53.2367519568992
20
-21.1318740107652
30
0
41
1
10
53.2445252383641
20
-21.1337182675537
30
0
41
1
10
53.2600911151086
20
-21.137419055478
30
0
41
1
10
53.2678840471777
20
-21.139275760046
30
0
41
1
10
53.2875212263735
20
-21.1439641260414
30
0
41
1
10
53.2993665335015
20
-21.1468010035231
30
0
41
1
10
53.311228866792
20
-21.1496499364867
30
0
41
1
10
53.3112483137939
20
-21.1496546070452
30
0
41
1
10
53.3112677608007
20
-21.1496592775831
30
0
0
SPLINE
5
194
100
AcDbEntity
8
1
62
256
6
ByLayer
370
13
48
1
60
0
100
AcDbSpline
70
4
71
3
72
10
73
6
40
0
40
0
40
0
40
0
40
0.709896843428722
40
0.709896843428722
40
1
40
1
40
1
40
1
41
1
10
52.1845849620887
20
-21.3821184287197
30
0
41
1
10
52.1786971522085
20
-21.3764729575309
30
0
41
1
10
52.1730792764886
20
-21.3702890913211
30
0
41
1
10
52.1667433148842
20
-21.3613314285159
30
0
41
1
10
52.1650681599822
20
-21.3586553163327
30
0
41
1
10
52.163694842982
20
-21.3560224675199
30
0
0
SPLINE
5
195
100
AcDbEntity
8
1
62
256
6
ByLayer
370
13
48
1
60
0
100
AcDbSpline
70
4
71
3
72
8
73
4
40
0
40
0
40
0
40
0
40
1
40
1
40
1
40
1
41
1
10
52.1636948430068
20
-21.3560224675214
30
0
41
1
10
52.1842500998041
20
-21.3377949658673
30
0
41
1
10
52.2046122793279
20
-21.3198483200128
30
0
41
1
10
52.2235446149629
20
-21.3011988558983
30
0
0
SPLINE
5
196
100
AcDbEntity
8
1
62
256
6
ByLayer
370
13
48
1
60
0
100
AcDbSpline
70
4
71
3
72
10
73
6
40
0
40
0
40
0
40
0
40
0.644331995687774
40
0.644331995687774
40
1
40
1
40
1
40
1
41
1
10
52.2235446149629
20
-21.3011988558983
30
0
41
1
10
52.2423417535848
20
-21.2826825687932
30
0
41
1
10
52.2543614792979
20
-21.2573335676214
30
0
41
1
10
52.2635582436185
20
-21.2125130633478
30
0
41
1
10
52.2646514454073
20
-21.1950078978659
30
0
41
1
10
52.2632877280426
20
-21.1763786668635
30
0
0
SPLINE
5
197
100
AcDbEntity
8
1
62
256
6
ByLayer
370
13
48
1
60
0
100
AcDbSpline
70
4
71
3
72
12
73
8
40
0
40
0
40
0
40
0
40
0.0568772518374145
40
0.0568772518374145
40
0.598921195001007
40
0.598921195001007
40
1
40
1
40
1
40
1
41
1
10
53.1425891010003
20
-21.4343115491745
30
0
41
1
10
53.1245515992802
20
-21.4289669638652
30
0
41
1
10
53.1065274742932
20
-21.423634763045
30
0
41
1
10
52.9189632613311
20
-21.3682193862867
30
0
41
1
10
52.7497242492963
20
-21.318726897595
30
0
41
1
10
52.4764510412474
20
-21.2388605312464
30
0
41
1
10
52.365133916484
20
-21.2063198062791
30
0
41
1
10
52.2632877280431
20
-21.1763786668623
30
0
0
SPLINE
5
198
100
AcDbEntity
8
1
62
256
6
ByLayer
370
13
48
1
60
0
100
AcDbSpline
70
4
71
3
72
12
73
8
40
0
40
0
40
0
40
0
40
0.432851996086571
40
0.432851996086571
40
0.716418616561771
40
0.716418616561771
40
1
40
1
40
1
40
1
41
1
10
53.2151325614844
20
-21.4558181960201
30
0
41
1
10
53.2046568328338
20
-21.4527185855088
30
0
41
1
10
53.1941840602842
20
-21.4496148138446
30
0
41
1
10
53.1768579385476
20
-21.4444755840006
30
0
41
1
10
53.170001810704
20
-21.4424401850848
30
0
41
1
10
53.1562928218783
20
-21.4383732048101
30
0
41
1
10
53.1494397680902
20
-21.4363414297675
30
0
41
1
10
53.1425891010003
20
-21.4343115491745
30
0
0
SPLINE
5
199
100
AcDbEntity
8
1
62
256
6
ByLayer
370
13
48
1
60
0
100
AcDbSpline
70
4
71
3
72
14
73
10
40
0
40
0
40
0
40
0
40
0.0559482231425851
40
0.0559482231425851
40
0.255082555375332
40
0.255082555375332
40
0.91736630964965
40
0.91736630964965
40
1
40
1
40
1
40
1
41
1
10
53.8217062023472
20
-21.5011817524694
30
0
41
1
10
53.8102710337184
20
-21.5015770371398
30
0
41
1
10
53.7988345011548
20
-21.5019338048746
30
0
41
1
10
53.746704106935
20
-21.5038417627308
30
0
41
1
10
53.7060132231142
20
-21.5057728592253
30
0
41
1
10
53.5310688272088
20
-21.5114732732026
30
0
41
1
10
53.3936591146985
20
-21.5063736202779
30
0
41
1
10
53.2478771051644
20
-21.4653735365164
30
0
41
1
10
53.2314856310115
20
-21.4606568232782
30
0
41
1
10
53.2151325614844
20
-21.4558181960201
30
0
0
SPLINE
5
19A
100
AcDbEntity
8
1
62
256
6
ByLayer
370
13
48
1
60
0
100
AcDbSpline
70
4
71
3
72
12
73
8
40
0
40
0
40
0
40
0
40
0.580466676309606
40
0.580466676309606
40
0.902092447109163
40
0.902092447109163
40
1
40
1
40
1
40
1
41
1
10
54.36542001724
20
-21.48018146508
30
0
41
1
10
54.2648041446478
20
-21.484449153578
30
0
41
1
10
54.1598849325172
20
-21.4884810383349
30
0
41
1
10
53.9950542118574
20
-21.4947528621615
30
0
41
1
10
53.9355659682511
20
-21.4970828747449
30
0
41
1
10
53.8579762169911
20
-21.4999007974427
30
0
41
1
10
53.8398403518264
20
-21.5005549010838
30
0
41
1
10
53.8217062023472
20
-21.5011817524694
30
0
0
SPLINE
5
19B
100
AcDbEntity
8
1
62
256
6
ByLayer
370
13
48
1
60
0
100
AcDbSpline
70
4
71
3
72
14
73
10
40
0
40
0
40
0
40
0
40
0.0740326958458219
40
0.0740326958458219
40
0.743257125695834
40
0.743257125695834
40
0.939124438646558
40
0.939124438646558
40
1
40
1
40
1
40
1
41
1
10
54.7213347612452
20
-21.46356743665
30
0
41
1
10
54.7126059855915
20
-21.463917306832
30
0
41
1
10
54.7038751248009
20
-21.4642685081948
30
0
41
1
10
54.6162008436678
20
-21.4678069532348
30
0
41
1
10
54.5369961926742
20
-21.4712377850537
30
0
41
1
10
54.4347137397946
20
-21.4752267853942
30
0
41
1
10
54.4110630969842
20
-21.4776658118497
30
0
41
1
10
54.3801088915617
20
-21.4794978169254
30
0
41
1
10
54.3727654069311
20
-21.4798699055388
30
0
41
1
10
54.36542001724
20
-21.48018146508
30
0
0
SPLINE
5
19C
100
AcDbEntity
8
1
62
256
6
ByLayer
370
13
48
1
60
0
100
AcDbSpline
70
4
71
3
72
8
73
4
40
0
40
0
40
0
40
0
40
1
40
1
40
1
40
1
41
1
10
54.5901406592839
20
-21.5447362745701
30
0
41
1
10
54.6341557915993
20
-21.5181417556104
30
0
41
1
10
54.6778467711874
20
-21.4910117065326
30
0
41
1
10
54.7213347612452
20
-21.4635674366501
30
0
0
SPLINE
5
19D
100
AcDbEntity
8
1
62
256
6
ByLayer
370
13
48
1
60
0
100
AcDbSpline
70
4
71
3
72
8
73
4
40
0
40
0
40
0
40
0
40
1
40
1
40
1
40
1
41
1
10
54.1161920011118
20
-21.6223714647723
30
0
41
1
10
54.2757348334776
20
-21.6222067505044
30
0
41
1
10
54.4355792331503
20
-21.5883785362049
30
0
41
1
10
54.5901406592828
20
-21.5447362745707
30
0
0
SPLINE
5
19E
100
AcDbEntity
8
1
62
256
6
ByLayer
370
13
48
1
60
0
100
AcDbSpline
70
4
71
3
72
8
73
4
40
0
40
0
40
0
40
0
40
1
40
1
40
1
40
1
41
1
10
53.7530991918524
20
-21.6211328415867
30
0
41
1
10
53.8746599531637
20
-21.6173990583317
30
0
41
1
10
53.9968950955519
20
-21.6224946285801
30
0
41
1
10
54.1161920011129
20
-21.6223714647741
30
0
0
SPLINE
5
19F
100
AcDbEntity
8
1
62
256
6
ByLayer
370
13
48
1
60
0
100
AcDbSpline
70
4
71
3
72
8
73
4
40
0
40
0
40
0
40
0
40
1
40
1
40
1
40
1
41
1
10
53.572400536749
20
-21.6150628416441
30
0
41
1
10
53.6323837831874
20
-21.6207969485974
30
0
41
1
10
53.6928500715066
20
-21.6229834153595
30
0
41
1
10
53.7530991918524
20
-21.6211328415867
30
0
0
SPLINE
5
1A0
100
AcDbEntity
8
1
62
256
6
ByLayer
370
13
48
1
60
0
100
AcDbSpline
70
4
71
3
72
12
73
8
40
0
40
0
40
0
40
0
40
0.140444200279774
40
0.140444200279774
40
0.578672846880988
40
0.578672846880988
40
1
40
1
40
1
40
1
41
1
10
52.4502390423
20
-21.5347365006233
30
0
41
1
10
52.4907683260285
20
-21.5300877201977
30
0
41
1
10
52.5340049971857
20
-21.5273419459732
30
0
41
1
10
52.7188333798473
20
-21.5226563822426
30
0
41
1
10
52.8828017897204
20
-21.5339943347044
30
0
41
1
10
53.2193415913498
20
-21.5707839115202
30
0
41
1
10
53.3971452699764
20
-21.5983092895529
30
0
41
1
10
53.572400536749
20
-21.6150628416441
30
0
0
SPLINE
5
1A1
100
AcDbEntity
8
1
62
256
6
ByLayer
370
13
48
1
60
0
100
AcDbSpline
70
4
71
3
72
8
73
4
40
0
40
0
40
0
40
0
40
1
40
1
40
1
40
1
41
1
10
52.3582665042272
20
-21.5416091454136
30
0
41
1
10
52.3890156099214
20
-21.5406187723319
30
0
41
1
10
52.4196882286926
20
-21.5382407329022
30
0
41
1
10
52.4502390423
20
-21.5347365006233
30
0
0
SPLINE
5
1A2
100
AcDbEntity
8
1
62
256
6
ByLayer
370
13
48
1
60
0
100
AcDbSpline
70
4
71
3
72
10
73
6
40
0
40
0
40
0
40
0
40
0.258944711528363
40
0.258944711528363
40
1
40
1
40
1
40
1
41
1
10
52.1845849620887
20
-21.3821184287197
30
0
41
1
10
52.1992773003269
20
-21.396206039208
30
0
41
1
10
52.2140493078695
20
-21.4102110107849
30
0
41
1
10
52.2714142308746
20
-21.463959807537
30
0
41
1
10
52.3146891560262
20
-21.503011043002
30
0
41
1
10
52.358266504227
20
-21.5416091454137
30
0
0
SPLINE
5
1A3
100
AcDbEntity
8
1
62
256
6
ByLayer
370
13
48
1
60
0
100
AcDbSpline
70
4
71
3
72
10
73
6
40
0
40
0
40
0
40
0
40
0.649009211321481
40
0.649009211321481
40
1
40
1
40
1
40
1
41
1
10
52.2632877280426
20
-20.3236213331366
30
0
41
1
10
52.2657560063979
20
-20.2899031090766
30
0
41
1
10
52.2599458432007
20
-20.2598768436594
30
0
41
1
10
52.2416692657146
20
-20.2215300968566
30
0
41
1
10
52.2338663110395
20
-20.2089686218122
30
0
41
1
10
52.2235446149629
20
-20.1988011441014
30
0
0
SPLINE
5
1A4
100
AcDbEntity
8
1
62
256
6
ByLayer
370
13
48
1
60
0
100
AcDbSpline
70
4
71
3
72
8
73
4
40
0
40
0
40
0
40
0
40
1
40
1
40
1
40
1
41
1
10
52.2235446149629
20
-20.1988011441014
30
0
41
1
10
52.204612279328
20
-20.1801516799869
30
0
41
1
10
52.1842500998041
20
-20.1622050341324
30
0
41
1
10
52.1636948430068
20
-20.1439775324784
30
0
0
SPLINE
5
1A5
100
AcDbEntity
8
1
62
256
6
ByLayer
370
13
48
1
60
0
100
AcDbSpline
70
4
71
3
72
12
73
8
40
0
40
0
40
0
40
0
40
0.276452079067817
40
0.276452079067817
40
0.899464630432222
40
0.899464630432222
40
1
40
1
40
1
40
1
41
1
10
52.1636948430209
20
-20.1439775324644
30
0
41
1
10
52.1650009626682
20
-20.1414735107658
30
0
41
1
10
52.1665799094947
20
-20.1389305484487
30
0
41
1
10
52.1722215249124
20
-20.1308617182195
30
0
41
1
10
52.177018376239
20
-20.1253950953208
30
0
41
1
10
52.1829057388044
20
-20.1195081326884
30
0
41
1
10
52.183741236606
20
-20.1186905695324
30
0
41
1
10
52.1845849620887
20
-20.11788157128
30
0
0
SPLINE
5
1A6
100
AcDbEntity
8
1
62
256
6
ByLayer
370
13
48
1
60
0
100
AcDbSpline
70
4
71
3
72
10
73
6
40
0
40
0
40
0
40
0
40
0.258944711528364
40
0.258944711528364
40
1
40
1
40
1
40
1
41
1
10
52.1845849620887
20
-20.11788157128
30
0
41
1
10
52.1992773003269
20
-20.1037939607918
30
0
41
1
10
52.2140493078695
20
-20.0897889892148
30
0
41
1
10
52.2714142308746
20
-20.0360401924627
30
0
41
1
10
52.3146891560262
20
-19.9969889569977
30
0
41
1
10
52.358266504227
20
-19.958390854586
30
0
0
SPLINE
5
1A7
100
AcDbEntity
8
1
62
256
6
ByLayer
370
13
48
1
60
0
100
AcDbSpline
70
4
71
3
72
8
73
4
40
0
40
0
40
0
40
0
40
1
40
1
40
1
40
1
41
1
10
52.3582665042272
20
-19.9583908545862
30
0
41
1
10
52.3890156099214
20
-19.9593812276678
30
0
41
1
10
52.4196882286926
20
-19.9617592670975
30
0
41
1
10
52.4502390423
20
-19.9652634993764
30
0
0
SPLINE
5
1A8
100
AcDbEntity
8
1
62
256
6
ByLayer
370
13
48
1
60
0
100
AcDbSpline
70
4
71
3
72
12
73
8
40
0
40
0
40
0
40
0
40
0.140444200279774
40
0.140444200279774
40
0.578672846880988
40
0.578672846880988
40
1
40
1
40
1
40
1
41
1
10
52.4502390423
20
-19.9652634993764
30
0
41
1
10
52.4907683260285
20
-19.969912279802
30
0
41
1
10
52.5340049971857
20
-19.9726580540265
30
0
41
1
10
52.7188333798473
20
-19.9773436177572
30
0
41
1
10
52.8828017897204
20
-19.9660056652953
30
0
41
1
10
53.2193415913498
20
-19.9292160884795
30
0
41
1
10
53.3971452699764
20
-19.9016907104468
30
0
41
1
10
53.572400536749
20
-19.8849371583557
30
0
0
SPLINE
5
1A9
100
AcDbEntity
8
1
62
256
6
ByLayer
370
13
48
1
60
0
100
AcDbSpline
70
4
71
3
72
8
73
4
40
0
40
0
40
0
40
0
40
1
40
1
40
1
40
1
41
1
10
53.572400536749
20
-19.8849371583557
30
0
41
1
10
53.6323837831874
20
-19.8792030514024
30
0
41
1
10
53.6928500715066
20
-19.8770165846403
30
0
41
1
10
53.7530991918524
20
-19.878867158413
30
0
0
SPLINE
5
1AA
100
AcDbEntity
8
1
62
256
6
ByLayer
370
13
48
1
60
0
100
AcDbSpline
70
4
71
3
72
8
73
4
40
0
40
0
40
0
40
0
40
1
40
1
40
1
40
1
41
1
10
53.7530991918524
20
-19.878867158413
30
0
41
1
10
53.8746599531637
20
-19.882600941668
30
0
41
1
10
53.9968950955519
20
-19.8775053714197
30
0
41
1
10
54.1161920011129
20
-19.8776285352257
30
0
0
SPLINE
5
1AB
100
AcDbEntity
8
1
62
256
6
ByLayer
370
13
48
1
60
0
100
AcDbSpline
70
4
71
3
72
8
73
4
40
0
40
0
40
0
40
0
40
1
40
1
40
1
40
1
41
1
10
54.1161920011118
20
-19.8776285352274
30
0
41
1
10
54.2757348334776
20
-19.8777932494953
30
0
41
1
10
54.4355792331503
20
-19.9116214637948
30
0
41
1
10
54.5901406592828
20
-19.955263725429
30
0
0
SPLINE
5
1AC
100
AcDbEntity
8
1
62
256
6
ByLayer
370
13
48
1
60
0
100
AcDbSpline
70
4
71
3
72
8
73
4
40
0
40
0
40
0
40
0
40
1
40
1
40
1
40
1
41
1
10
54.5901406592839
20
-19.9552637254297
30
0
41
1
10
54.6341557915993
20
-19.9818582443893
30
0
41
1
10
54.6778467711874
20
-20.0089882934671
30
0
41
1
10
54.7213347612452
20
-20.0364325633496
30
0
0
SPLINE
5
1AD
100
AcDbEntity
8
1
62
256
6
ByLayer
370
13
48
1
60
0
100
AcDbSpline
70
4
71
3
72
14
73
10
40
0
40
0
40
0
40
0
40
0.0740326958458219
40
0.0740326958458219
40
0.743257125695834
40
0.743257125695834
40
0.939124438646558
40
0.939124438646558
40
1
40
1
40
1
40
1
41
1
10
54.7213347612452
20
-20.0364325633497
30
0
41
1
10
54.7126059855915
20
-20.0360826931677
30
0
41
1
10
54.7038751248009
20
-20.0357314918049
30
0
41
1
10
54.6162008436678
20
-20.0321930467649
30
0
41
1
10
54.5369961926742
20
-20.0287622149461
30
0
41
1
10
54.4347137397946
20
-20.0247732146055
30
0
41
1
10
54.4110630969842
20
-20.02233418815
30
0
41
1
10
54.3801088915617
20
-20.0205021830743
30
0
41
1
10
54.3727654069311
20
-20.0201300944609
30
0
41
1
10
54.36542001724
20
-20.0198185349197
30
0
0
SPLINE
5
1AE
100
AcDbEntity
8
1
62
256
6
ByLayer
370
13
48
1
60
0
100
AcDbSpline
70
4
71
3
72
12
73
8
40
0
40
0
40
0
40
0
40
0.580466676309606
40
0.580466676309606
40
0.902092447109163
40
0.902092447109163
40
1
40
1
40
1
40
1
41
1
10
54.36542001724
20
-20.0198185349197
30
0
41
1
10
54.2648041446478
20
-20.0155508464218
30
0
41
1
10
54.1598849325172
20
-20.0115189616649
30
0
41
1
10
53.9950542118574
20
-20.0052471378383
30
0
41
1
10
53.9355659682511
20
-20.0029171252549
30
0
41
1
10
53.8579762169911
20
-20.000099202557
30
0
41
1
10
53.8398403518264
20
-19.999445098916
30
0
41
1
10
53.8217062023472
20
-19.9988182475303
30
0
0
SPLINE
5
1AF
100
AcDbEntity
8
1
62
256
6
ByLayer
370
13
48
1
60
0
100
AcDbSpline
70
4
71
3
72
14
73
10
40
0
40
0
40
0
40
0
40
0.0559482231425851
40
0.0559482231425851
40
0.255082555375332
40
0.255082555375332
40
0.91736630964965
40
0.91736630964965
40
1
40
1
40
1
40
1
41
1
10
53.8217062023472
20
-19.9988182475303
30
0
41
1
10
53.8102710337184
20
-19.9984229628599
30
0
41
1
10
53.7988345011548
20
-19.9980661951252
30
0
41
1
10
53.746704106935
20
-19.9961582372689
30
0
41
1
10
53.7060132231142
20
-19.9942271407744
30
0
41
1
10
53.5310688272088
20
-19.9885267267971
30
0
41
1
10
53.3936591146985
20
-19.9936263797218
30
0
41
1
10
53.2478771051644
20
-20.0346264634833
30
0
41
1
10
53.2314856310115
20
-20.0393431767215
30
0
41
1
10
53.2151325614844
20
-20.0441818039797
30
0
0
SPLINE
5
1B0
100
AcDbEntity
8
1
62
256
6
ByLayer
370
13
48
1
60
0
100
AcDbSpline
70
4
71
3
72
12
73
8
40
0
40
0
40
0
40
0
40
0.432851996086571
40
0.432851996086571
40
0.716418616561771
40
0.716418616561771
40
1
40
1
40
1
40
1
41
1
10
53.2151325614844
20
-20.0441818039797
30
0
41
1
10
53.2046568328338
20
-20.047281414491
30
0
41
1
10
53.1941840602842
20
-20.0503851861552
30
0
41
1
10
53.1768579385476
20
-20.0555244159991
30
0
41
1
10
53.170001810704
20
-20.0575598149149
30
0
41
1
10
53.1562928218783
20
-20.0616267951896
30
0
41
1
10
53.1494397680902
20
-20.0636585702322
30
0
41
1
10
53.1425891010003
20
-20.0656884508252
30
0
0
SPLINE
5
1B1
100
AcDbEntity
8
1
62
256
6
ByLayer
370
13
48
1
60
0
100
AcDbSpline
70
4
71
3
72
12
73
8
40
0
40
0
40
0
40
0
40
0.0568772518374259
40
0.0568772518374259
40
0.598921195001127
40
0.598921195001127
40
1
40
1
40
1
40
1
41
1
10
53.1425891010003
20
-20.0656884508252
30
0
41
1
10
53.1245515992802
20
-20.0710330361346
30
0
41
1
10
53.1065274742932
20
-20.0763652369548
30
0
41
1
10
52.9189632613311
20
-20.1317806137131
30
0
41
1
10
52.7497242492963
20
-20.1812731024047
30
0
41
1
10
52.4764510412475
20
-20.2611394687533
30
0
41
1
10
52.3651339164841
20
-20.2936801937206
30
0
41
1
10
52.2632877280433
20
-20.3236213331374
30
0
0
SPLINE
5
1B2
100
AcDbEntity
8
1
62
256
6
ByLayer
370
13
48
1
60
0
100
AcDbSpline
70
4
71
3
72
8
73
4
40
0
40
0
40
0
40
0
40
1
40
1
40
1
40
1
41
1
10
52.2188209596174
20
-21.7010687523307
30
0
41
1
10
52.1566840705691
20
-21.6486609083988
30
0
41
1
10
52.0964721480718
20
-21.5939553121424
30
0
41
1
10
52.0373478591962
20
-21.5381709635209
30
0
0
SPLINE
5
1B3
100
AcDbEntity
8
1
62
256
6
ByLayer
370
13
48
1
60
0
100
AcDbSpline
70
4
71
3
72
8
73
4
40
0
40
0
40
0
40
0
40
1
40
1
40
1
40
1
41
1
10
52.2188209596174
20
-19.798931247669
30
0
41
1
10
52.1566840705691
20
-19.8513390916009
30
0
41
1
10
52.0964721480718
20
-19.9060446878573
30
0
41
1
10
52.0373478591962
20
-19.9618290364788
30
0
0
SPLINE
5
1B4
100
AcDbEntity
8
1
62
256
6
ByLayer
370
13
48
1
60
0
100
AcDbSpline
70
4
71
3
72
12
73
8
40
0
40
0
40
0
40
0
40
0.430493117721161
40
0.430493117721161
40
0.862618336992714
40
0.862618336992714
40
1
40
1
40
1
40
1
41
1
10
53.5587805434612
20
-21.7829979473862
30
0
41
1
10
53.3906987623659
20
-21.767741320823
30
0
41
1
10
53.2215883462255
20
-21.738522450156
30
0
41
1
10
52.9044434955373
20
-21.6954573662338
30
0
41
1
10
52.751699988043
20
-21.6803240834828
30
0
41
1
10
52.5772887625654
20
-21.6791695873999
30
0
41
1
10
52.5365461454505
20
-21.6803866670032
30
0
41
1
10
52.4981203716814
20
-21.6834334779569
30
0
0
SPLINE
5
1B5
100
AcDbEntity
8
1
62
256
6
ByLayer
370
13
48
1
60
0
100
AcDbSpline
70
4
71
3
72
12
73
8
40
0
40
0
40
0
40
0
40
0.430493117721161
40
0.430493117721161
40
0.862618336992714
40
0.862618336992714
40
1
40
1
40
1
40
1
41
1
10
53.5587805434612
20
-19.7170020526135
30
0
41
1
10
53.3906987623659
20
-19.7322586791768
30
0
41
1
10
53.2215883462255
20
-19.7614775498437
30
0
41
1
10
52.9044434955373
20
-19.8045426337659
30
0
41
1
10
52.751699988043
20
-19.8196759165169
30
0
41
1
10
52.5772887625654
20
-19.8208304125998
30
0
41
1
10
52.5365461454505
20
-19.8196133329965
30
0
41
1
10
52.4981203716814
20
-19.8165665220428
30
0
0
SPLINE
5
1B6
100
AcDbEntity
8
1
62
256
6
ByLayer
370
13
48
1
60
0
100
AcDbSpline
70
4
71
3
72
12
73
8
40
0
40
0
40
0
40
0
40
0.018287446984155
40
0.018287446984155
40
0.429383149668921
40
0.429383149668921
40
1
40
1
40
1
40
1
41
1
10
52.0074254881241
20
-21.257868111916
30
0
41
1
10
52.007536236287
20
-21.2583148306829
30
0
41
1
10
52.0076466703323
20
-21.2587680712204
30
0
41
1
10
52.0102522277265
20
-21.2696479588617
30
0
41
1
10
52.012595462443
20
-21.2835494428444
30
0
41
1
10
52.0175084652176
20
-21.3231268417269
30
0
41
1
10
52.0199051952736
20
-21.3520139084536
30
0
41
1
10
52.0216132026687
20
-21.3840103855974
30
0
0
SPLINE
5
1B7
100
AcDbEntity
8
1
62
256
6
ByLayer
370
13
48
1
60
0
100
AcDbSpline
70
4
71
3
72
10
73
6
40
0
40
0
40
0
40
0
40
0.318891167720856
40
0.318891167720856
40
1
40
1
40
1
40
1
41
1
10
52.0216132026687
20
-21.3840103855974
30
0
41
1
10
52.0224098521601
20
-21.3989341951933
30
0
41
1
10
52.0235152334821
20
-21.4146739388345
30
0
41
1
10
52.0278307781878
20
-21.46498246457
30
0
41
1
10
52.0321174721148
20
-21.5019505943319
30
0
41
1
10
52.0373478591962
20
-21.5381709635209
30
0
0
SPLINE
5
1B8
100
AcDbEntity
8
1
62
256
6
ByLayer
370
13
48
1
60
0
100
AcDbSpline
70
4
71
3
72
12
73
8
40
0
40
0
40
0
40
0
40
0.089550281954247
40
0.089550281954247
40
0.695495664143286
40
0.695495664143286
40
1
40
1
40
1
40
1
41
1
10
52.0373478591962
20
-19.9618290364788
30
0
41
1
10
52.0366504824215
20
-19.9666583624639
30
0
41
1
10
52.0359706281935
20
-19.9714916248331
30
0
41
1
10
52.0308928344149
20
-20.0085782198579
30
0
41
1
10
52.0272652946379
20
-20.0411268353106
30
0
41
1
10
52.0234116552874
20
-20.0868070874358
30
0
41
1
10
52.0223723977324
20
-20.1017674468131
30
0
41
1
10
52.0216132026687
20
-20.1159896144023
30
0
0
SPLINE
5
1B9
100
AcDbEntity
8
1
62
256
6
ByLayer
370
13
48
1
60
0
100
AcDbSpline
70
4
71
3
72
14
73
10
40
0
40
0
40
0
40
0
40
0.209495302841087
40
0.209495302841087
40
0.672464390491942
40
0.672464390491942
40
0.981903526404807
40
0.981903526404807
40
1
40
1
40
1
40
1
41
1
10
52.0216132026687
20
-20.1159896144023
30
0
41
1
10
52.0209795101629
20
-20.1278607150979
30
0
41
1
10
52.0202559987988
20
-20.1392731350882
30
0
41
1
10
52.0176940629878
20
-20.1737092128808
30
0
41
1
10
52.0155182997219
20
-20.194718253593
30
0
41
1
10
52.0114230927657
20
-20.2231505024179
30
0
41
1
10
52.0096341492853
20
-20.2329329231781
30
0
41
1
10
52.0076466700101
20
-20.2412319287814
30
0
41
1
10
52.0075362362064
20
-20.2416851693174
30
0
41
1
10
52.0074254881241
20
-20.2421318880837
30
0
0
SPLINE
5
1BA
100
AcDbEntity
8
1
62
256
6
ByLayer
370
13
48
1
60
0
100
AcDbSpline
70
4
71
3
72
8
73
4
40
0
40
0
40
0
40
0
40
1
40
1
40
1
40
1
41
1
10
52.3582665042275
20
-21.5416091454136
30
0
41
1
10
52.3515452911909
20
-21.5488885390157
30
0
41
1
10
52.3437211106933
20
-21.557656315118
30
0
41
1
10
52.3350869923574
20
-21.5675888674984
30
0
0
SPLINE
5
1BB
100
AcDbEntity
8
1
62
256
6
ByLayer
370
13
48
1
60
0
100
AcDbSpline
70
4
71
3
72
14
73
10
40
0
40
0
40
0
40
0
40
0.448208770210974
40
0.448208770210974
40
0.913122348259776
40
0.913122348259776
40
0.983427664880478
40
0.983427664880478
40
1
40
1
40
1
40
1
41
1
10
52.3350869923623
20
-21.5675888675027
30
0
41
1
10
52.3215455531755
20
-21.583166723759
30
0
41
1
10
52.305341588264
20
-21.6017957958378
30
0
41
1
10
52.2698920668223
20
-21.6425092859357
30
0
41
1
10
52.2499835745949
20
-21.665353105617
30
0
41
1
10
52.2270726024479
20
-21.6916133642798
30
0
41
1
10
52.2240126344075
20
-21.6951201036024
30
0
41
1
10
52.2202420283414
20
-21.6994405496737
30
0
41
1
10
52.2195314790725
20
-21.7002546530543
30
0
41
1
10
52.2188209596159
20
-21.7010687523295
30
0
0
SPLINE
5
1BC
100
AcDbEntity
8
1
62
256
6
ByLayer
370
13
48
1
60
0
100
AcDbSpline
70
4
71
3
72
14
73
10
40
0
40
0
40
0
40
0
40
0.448209783482341
40
0.448209783482341
40
0.913122824433937
40
0.913122824433937
40
0.983427843025058
40
0.983427843025058
40
1
40
1
40
1
40
1
41
1
10
52.3951729104533
20
-19.8142670223119
30
0
41
1
10
52.374609447368
20
-19.8124785464434
30
0
41
1
10
52.3500116922507
20
-19.8103392878396
30
0
41
1
10
52.2962303412136
20
-19.80566227373
30
0
41
1
10
52.2660425013691
20
-19.8030372014636
30
0
41
1
10
52.2313234526433
20
-19.8000183352355
30
0
41
1
10
52.2266868400137
20
-19.7996151802337
30
0
41
1
10
52.2209739567194
20
-19.7991184486718
30
0
41
1
10
52.2198974468538
20
-19.7990248473071
30
0
41
1
10
52.2188209596194
20
-19.7989312476691
30
0
0
SPLINE
5
1BD
100
AcDbEntity
8
1
62
256
6
ByLayer
370
13
48
1
60
0
100
AcDbSpline
70
4
71
3
72
14
73
10
40
0
40
0
40
0
40
0
40
0.448208770210974
40
0.448208770210974
40
0.913122348259776
40
0.913122348259776
40
0.983427664880478
40
0.983427664880478
40
1
40
1
40
1
40
1
41
1
10
52.3350869923623
20
-19.9324111324971
30
0
41
1
10
52.3215455531755
20
-19.9168332762407
30
0
41
1
10
52.305341588264
20
-19.8982042041619
30
0
41
1
10
52.2698920668223
20
-19.8574907140641
30
0
41
1
10
52.2499835745949
20
-19.8346468943827
30
0
41
1
10
52.2270726024479
20
-19.8083866357199
30
0
41
1
10
52.2240126344075
20
-19.8048798963973
30
0
41
1
10
52.2202420283414
20
-19.800559450326
30
0
41
1
10
52.2195314790725
20
-19.7997453469454
30
0
41
1
10
52.2188209596159
20
-19.7989312476702
30
0
0
SPLINE
5
1BE
100
AcDbEntity
8
1
62
256
6
ByLayer
370
13
48
1
60
0
100
AcDbSpline
70
4
71
3
72
8
73
4
40
0
40
0
40
0
40
0
40
1
40
1
40
1
40
1
41
1
10
52.3582665042275
20
-19.9583908545862
30
0
41
1
10
52.3515452911909
20
-19.951111460984
30
0
41
1
10
52.3437211106933
20
-19.9423436848817
30
0
41
1
10
52.3350869923574
20
-19.9324111325013
30
0
0
SPLINE
5
1BF
100
AcDbEntity
8
1
62
256
6
ByLayer
370
13
48
1
60
0
100
AcDbSpline
70
4
71
3
72
14
73
10
40
0
40
0
40
0
40
0
40
0.448209783482341
40
0.448209783482341
40
0.913122824433937
40
0.913122824433937
40
0.983427843025058
40
0.983427843025058
40
1
40
1
40
1
40
1
41
1
10
52.3951729104533
20
-21.6857329776878
30
0
41
1
10
52.374609447368
20
-21.6875214535563
30
0
41
1
10
52.3500116922507
20
-21.6896607121601
30
0
41
1
10
52.2962303412136
20
-21.6943377262697
30
0
41
1
10
52.2660425013691
20
-21.6969627985362
30
0
41
1
10
52.2313234526433
20
-21.6999816647643
30
0
41
1
10
52.2266868400137
20
-21.700384819766
30
0
41
1
10
52.2209739567194
20
-21.7008815513279
30
0
41
1
10
52.2198974468538
20
-21.7009751526926
30
0
41
1
10
52.2188209596194
20
-21.7010687523307
30
0
0
SPLINE
5
1C0
100
AcDbEntity
8
1
62
256
6
ByLayer
370
13
48
1
60
0
100
AcDbSpline
70
4
71
3
72
12
73
8
40
0
40
0
40
0
40
0
40
0.37350315843554
40
0.37350315843554
40
0.795694705497851
40
0.795694705497851
40
1
40
1
40
1
40
1
41
1
10
52.059385679813
20
-20.2864080727165
30
0
41
1
10
52.0710534635609
20
-20.2922905762806
30
0
41
1
10
52.0816831597664
20
-20.299222960104
30
0
41
1
10
52.1006200088993
20
-20.3166568853948
30
0
41
1
10
52.1085333602959
20
-20.327737565528
30
0
41
1
10
52.1143528017274
20
-20.3469360836037
30
0
41
1
10
52.1153239472322
20
-20.3537199920007
30
0
41
1
10
52.1152169044539
20
-20.3608390991158
30
0
0
SPLINE
5
1C1
100
AcDbEntity
8
1
62
256
6
ByLayer
370
13
48
1
60
0
100
AcDbSpline
70
4
71
3
72
12
73
8
40
0
40
0
40
0
40
0
40
0.0542763744367155
40
0.0542763744367155
40
0.496521492455521
40
0.496521492455521
40
1
40
1
40
1
40
1
41
1
10
52.1152169044538
20
-20.3608390991159
30
0
41
1
10
52.1151561390061
20
-20.3648804341522
30
0
41
1
10
52.1151785928066
20
-20.3690156253511
30
0
41
1
10
52.1161679483259
20
-20.4070621075951
30
0
41
1
10
52.1229550923539
20
-20.447337107287
30
0
41
1
10
52.1518066817856
20
-20.536507676266
30
0
41
1
10
52.1764269684705
20
-20.5874779924554
30
0
41
1
10
52.2087083957605
20
-20.6341230311304
30
0
0
SPLINE
5
1C2
100
AcDbEntity
8
1
62
256
6
ByLayer
370
13
48
1
60
0
100
AcDbSpline
70
4
71
3
72
16
73
12
40
0
40
0
40
0
40
0
40
0.298315131809684
40
0.298315131809684
40
0.533632825549725
40
0.533632825549725
40
0.64077898617517
40
0.64077898617517
40
0.930881665385067
40
0.930881665385067
40
1
40
1
40
1
40
1
41
1
10
52.2087083957605
20
-20.6341230311304
30
0
41
1
10
52.2224586946462
20
-20.6539915213799
30
0
41
1
10
52.2344062486955
20
-20.676075415521
30
0
41
1
10
52.2474662168349
20
-20.7184311878865
30
0
41
1
10
52.2502777390208
20
-20.7386238458417
30
0
41
1
10
52.2488025034954
20
-20.7673959337864
30
0
41
1
10
52.2475581030794
20
-20.7764782706269
30
0
41
1
10
52.2404854878039
20
-20.8089716065349
30
0
41
1
10
52.230331619189
20
-20.8314527727681
30
0
41
1
10
52.2150440331609
20
-20.8564595761868
30
0
41
1
10
52.2119321889307
20
-20.8612187498952
30
0
41
1
10
52.2087083957605
20
-20.8658769688694
30
0
0
SPLINE
5
1C3
100
AcDbEntity
8
1
62
256
6
ByLayer
370
13
48
1
60
0
100
AcDbSpline
70
4
71
3
72
12
73
8
40
0
40
0
40
0
40
0
40
0.072400628024118
40
0.072400628024118
40
0.542681200842481
40
0.542681200842481
40
1
40
1
40
1
40
1
41
1
10
52.2087083957605
20
-20.8658769688693
30
0
41
1
10
52.2039784382181
20
-20.8727115196008
30
0
41
1
10
52.1994173867098
20
-20.8796184158224
30
0
41
1
10
52.1670358688112
20
-20.9310014231444
30
0
41
1
10
52.1459582481575
20
-20.9784536856498
30
0
41
1
10
52.120221996636
20
-21.0650610674537
30
0
41
1
10
52.1147143497318
20
-21.1057374326989
30
0
41
1
10
52.1152169044538
20
-21.139160900884
30
0
0
SPLINE
5
1C4
100
AcDbEntity
8
1
62
256
6
ByLayer
370
13
48
1
60
0
100
AcDbSpline
70
4
71
3
72
10
73
6
40
0
40
0
40
0
40
0
40
0.334030053675942
40
0.334030053675942
40
1
40
1
40
1
40
1
41
1
10
52.1152169044538
20
-21.139160900884
30
0
41
1
10
52.1153918659961
20
-21.1507970895214
30
0
41
1
10
52.112626158964
20
-21.1615395953616
30
0
41
1
10
52.0979583359749
20
-21.1893350796225
30
0
41
1
10
52.0800208663975
20
-21.2031883612546
30
0
41
1
10
52.059385679813
20
-21.2135919272833
30
0
0
SPLINE
5
1C5
100
AcDbEntity
8
1
62
256
6
ByLayer
370
13
48
1
60
0
100
AcDbSpline
70
4
71
3
72
8
73
4
40
0
40
0
40
0
40
0
40
1
40
1
40
1
40
1
41
1
10
51.0664455980651
20
-21.1363969104077
30
0
41
1
10
51.0610646480121
20
-21.1158947980178
30
0
41
1
10
51.0558908241366
20
-21.0928396719848
30
0
41
1
10
51.0526147090177
20
-21.0678434030402
30
0
0
SPLINE
5
1C6
100
AcDbEntity
8
1
62
256
6
ByLayer
370
13
48
1
60
0
100
AcDbSpline
70
4
71
3
72
8
73
4
40
0
40
0
40
0
40
0
40
1
40
1
40
1
40
1
41
1
10
51.0526147090177
20
-21.0678434030402
30
0
41
1
10
51.0731026391489
20
-21.0620716820684
30
0
41
1
10
51.0938876855838
20
-21.0566907967205
30
0
41
1
10
51.1148664719513
20
-21.0516646487758
30
0
0
SPLINE
5
1C7
100
AcDbEntity
8
1
62
256
6
ByLayer
370
13
48
1
60
0
100
AcDbSpline
70
4
71
3
72
8
73
4
40
0
40
0
40
0
40
0
40
1
40
1
40
1
40
1
41
1
10
51.1148664719505
20
-21.0516646487712
30
0
41
1
10
51.1178417098662
20
-21.0509518341367
30
0
41
1
10
51.1208179657885
20
-21.0502392941557
30
0
41
1
10
51.123795214021
20
-21.0495270228754
30
0
0
SPLINE
5
1C8
100
AcDbEntity
8
1
62
256
6
ByLayer
370
13
48
1
60
0
100
AcDbSpline
70
4
71
3
72
28
73
24
40
0
40
0
40
0
40
0
40
0.0824331628013926
40
0.0824331628013926
40
0.235485992714892
40
0.235485992714892
40
0.365353750303328
40
0.365353750303328
40
0.450881865339947
40
0.450881865339947
40
0.480850336949852
40
0.480850336949852
40
0.574325592928214
40
0.574325592928214
40
0.597106041801673
40
0.597106041801673
40
0.701976945932075
40
0.701976945932075
40
0.720205522192435
40
0.720205522192435
40
0.850377367168771
40
0.850377367168771
40
1
40
1
40
1
40
1
41
1
10
51.123795214021
20
-21.0495270228754
30
0
41
1
10
51.1477910775769
20
-21.0437862975067
30
0
41
1
10
51.1712519946268
20
-21.0365660548468
30
0
41
1
10
51.2351496262034
20
-21.0113489130989
30
0
41
1
10
51.2740994363458
20
-20.9889810417604
30
0
41
1
10
51.3349325388923
20
-20.9352945168413
30
0
41
1
10
51.3592944515773
20
-20.9049676791477
30
0
41
1
10
51.3879457247085
20
-20.8474669019604
30
0
41
1
10
51.3964642542704
20
-20.8221252989713
30
0
41
1
10
51.4026326894441
20
-20.7868484619747
30
0
41
1
10
51.4037700606155
20
-20.7774748049312
30
0
41
1
10
51.4063614612622
20
-20.7392331749929
30
0
41
1
10
51.4034520633988
20
-20.7094370976528
30
0
41
1
10
51.3943898978955
20
-20.6749866011007
30
0
41
1
10
51.3923244016579
20
-20.6682327498781
30
0
41
1
10
51.3795450947273
20
-20.6315729305003
30
0
41
1
10
51.3637586656491
20
-20.6037324713313
30
0
41
1
10
51.3414347991991
20
-20.575553583648
30
0
41
1
10
51.337982466813
20
-20.5714334228849
30
0
41
1
10
51.3094104165165
20
-20.5391158069562
30
0
41
1
10
51.2792041383534
20
-20.5157624692351
30
0
41
1
10
51.208915041613
20
-20.476123267052
30
0
41
1
10
51.1671153730992
20
-20.4608368106916
30
0
41
1
10
51.123795214021
20
-20.4504729771243
30
0
0
SPLINE
5
1C9
100
AcDbEntity
8
1
62
256
6
ByLayer
370
13
48
1
60
0
100
AcDbSpline
70
4
71
3
72
8
73
4
40
0
40
0
40
0
40
0
40
1
40
1
40
1
40
1
41
1
10
51.123795214021
20
-20.4504729771243
30
0
41
1
10
51.1208179657885
20
-20.4497607058441
30
0
41
1
10
51.1178417098662
20
-20.449048165863
30
0
41
1
10
51.1148664719505
20
-20.4483353512286
30
0
0
SPLINE
5
1CA
100
AcDbEntity
8
1
62
256
6
ByLayer
370
13
48
1
60
0
100
AcDbSpline
70
4
71
3
72
8
73
4
40
0
40
0
40
0
40
0
40
1
40
1
40
1
40
1
41
1
10
51.1148664719505
20
-20.4483353512286
30
0
41
1
10
51.093887685583
20
-20.4433092032839
30
0
41
1
10
51.0731026391491
20
-20.4379283179265
30
0
41
1
10
51.0526147090178
20
-20.4321565969547
30
0
0
SPLINE
5
1CB
100
AcDbEntity
8
1
62
256
6
ByLayer
370
13
48
1
60
0
100
AcDbSpline
70
4
71
3
72
10
73
6
40
0
40
0
40
0
40
0
40
0.151242748517103
40
0.151242748517103
40
1
40
1
40
1
40
1
41
1
10
51.0526147090177
20
-20.4321565969595
30
0
41
1
10
51.0531149923946
20
-20.4283395095303
30
0
41
1
10
51.0536590318523
20
-20.4245692536032
30
0
41
1
10
51.0574716522986
20
-20.400188628271
30
0
41
1
10
51.0618827558909
20
-20.3809881056491
30
0
41
1
10
51.0664455980651
20
-20.3636030895921
30
0
0
SPLINE
5
1CC
100
AcDbEntity
8
1
62
256
6
ByLayer
370
13
48
1
60
0
100
AcDbSpline
70
4
71
3
72
14
73
10
40
0
40
0
40
0
40
0
40
0.0180992437321471
40
0.0180992437321471
40
0.327555555031554
40
0.327555555031554
40
0.783089016631575
40
0.783089016631575
40
1
40
1
40
1
40
1
41
1
10
52.0074254881241
20
-20.2421318880837
30
0
41
1
10
52.0084604407255
20
-20.241868030885
30
0
41
1
10
52.0094951241647
20
-20.2415976758535
30
0
41
1
10
52.0281664148288
20
-20.2365988414803
30
0
41
1
10
52.0457666302326
20
-20.2299394109852
30
0
41
1
10
52.0877311305171
20
-20.2092533732528
30
0
41
1
10
52.1118879593938
20
-20.1929772893656
30
0
41
1
10
52.1442130974434
20
-20.1645146533985
30
0
41
1
10
52.1542531544874
20
-20.1545413025553
30
0
41
1
10
52.1636948430209
20
-20.1439775324644
30
0
0
SPLINE
5
1CD
100
AcDbEntity
8
1
62
256
6
ByLayer
370
13
48
1
60
0
100
AcDbSpline
70
4
71
3
72
12
73
8
40
0
40
0
40
0
40
0
40
0.0182847240742239
40
0.0182847240742239
40
0.429358008400497
40
0.429358008400497
40
1
40
1
40
1
40
1
41
1
10
52.0074254881188
20
-21.2578681119225
30
0
41
1
10
52.0084604407251
20
-21.2581319691192
30
0
41
1
10
52.0094951241747
20
-21.2584023241452
30
0
41
1
10
52.0339733233843
20
-21.2649558327603
30
0
41
1
10
52.0574007313324
20
-21.2746951383929
30
0
41
1
10
52.1101056255246
20
-21.3048550583138
30
0
41
1
10
52.1391079375758
20
-21.3285135727602
30
0
41
1
10
52.1636948430209
20
-21.3560224675354
30
0
0
SPLINE
5
1CE
100
AcDbEntity
8
1
62
256
6
ByLayer
370
13
48
1
60
0
100
AcDbSpline
70
4
71
3
72
16
73
12
40
0
40
0
40
0
40
0
40
0.266114531305344
40
0.266114531305344
40
0.459598281789052
40
0.459598281789052
40
0.654681344527544
40
0.654681344527544
40
0.849490422247785
40
0.849490422247785
40
1
40
1
40
1
40
1
41
1
10
50.982572519129
20
-20.2090443254289
30
0
41
1
10
50.9735711562898
20
-20.2126157769519
30
0
41
1
10
50.9640769969269
20
-20.2151518817644
30
0
41
1
10
50.9475300168957
20
-20.2166168216115
30
0
41
1
10
50.9404025170202
20
-20.2163281906116
30
0
41
1
10
50.9266373127103
20
-20.2134436393034
30
0
41
1
10
50.9198551395321
20
-20.2107714209659
30
0
41
1
10
50.9077423483697
20
-20.2031839585549
30
0
41
1
10
50.9022610792339
20
-20.1981822785874
30
0
41
1
10
50.8941824291229
20
-20.1880485990067
30
0
41
1
10
50.8911392395859
20
-20.1831320108454
30
0
41
1
10
50.8886123585658
20
-20.1779760607506
30
0
0
SPLINE
5
1CF
100
AcDbEntity
8
1
62
256
6
ByLayer
370
13
48
1
60
0
100
AcDbSpline
70
4
71
3
72
8
73
4
40
0
40
0
40
0
40
0
40
1
40
1
40
1
40
1
41
1
10
50.8886123585655
20
-20.1779760607509
30
0
41
1
10
50.8362826886598
20
-20.0712004886704
30
0
41
1
10
50.7808772994326
20
-19.9656932228365
30
0
41
1
10
50.7172833606159
20
-19.8660827624861
30
0
0
SPLINE
5
1D0
100
AcDbEntity
8
1
62
256
6
ByLayer
370
13
48
1
60
0
100
AcDbSpline
70
4
71
3
72
8
73
4
40
0
40
0
40
0
40
0
40
1
40
1
40
1
40
1
41
1
10
50.7172833606115
20
-21.6339172375273
30
0
41
1
10
50.7808772994311
20
-21.5343067771734
30
0
41
1
10
50.8362826886577
20
-21.4287995113335
30
0
41
1
10
50.8886123585655
20
-21.3220239392489
30
0
0
SPLINE
5
1D1
100
AcDbEntity
8
1
62
256
6
ByLayer
370
13
48
1
60
0
100
AcDbSpline
70
4
71
3
72
16
73
12
40
0
40
0
40
0
40
0
40
0.0863584761048735
40
0.0863584761048735
40
0.277083676707827
40
0.277083676707827
40
0.497685001356078
40
0.497685001356078
40
0.715930577764417
40
0.715930577764417
40
1
40
1
40
1
40
1
41
1
10
50.8886123585655
20
-21.3220239392489
30
0
41
1
10
50.8900705944436
20
-21.319048495865
30
0
41
1
10
50.8916961209683
20
-21.3161579434386
30
0
41
1
10
50.8974070451895
20
-21.3073569123233
30
0
41
1
10
50.9022173965363
20
-21.3018473212846
30
0
41
1
10
50.913997985107
20
-21.2922691134324
30
0
41
1
10
50.9213908281853
20
-21.2884303777853
30
0
41
1
10
50.9366464624699
20
-21.2840357553044
30
0
41
1
10
50.944705300207
20
-21.2833460209828
30
0
41
1
10
50.9627947729502
20
-21.2845111510166
30
0
41
1
10
50.9729718531551
20
-21.287146438822
30
0
41
1
10
50.982572519129
20
-21.2909556745708
30
0
0
SPLINE
5
1D2
100
AcDbEntity
8
1
62
256
6
ByLayer
370
13
48
1
60
0
100
AcDbSpline
70
4
71
3
72
8
73
4
40
0
40
0
40
0
40
0
40
1
40
1
40
1
40
1
41
1
10
52.3968964503546
20
-19.8146362034179
30
0
41
1
10
52.3963107228281
20
-19.8146495981182
30
0
41
1
10
52.3957150920117
20
-19.8145427665701
30
0
41
1
10
52.3951729104351
20
-19.8142670230872
30
0
0
SPLINE
5
1D3
100
AcDbEntity
8
1
62
256
6
ByLayer
370
13
48
1
60
0
100
AcDbSpline
70
4
71
3
72
8
73
4
40
0
40
0
40
0
40
0
40
1
40
1
40
1
40
1
41
1
10
52.059385679813
20
-21.2135919272833
30
0
41
1
10
52.042634420939
20
-21.228461364769
30
0
41
1
10
52.0252541290505
20
-21.2432112496717
30
0
41
1
10
52.0074254881232
20
-21.2578681119187
30
0
0
SPLINE
5
1D4
100
AcDbEntity
8
1
62
256
6
ByLayer
370
13
48
1
60
0
100
AcDbSpline
70
4
71
3
72
8
73
4
40
0
40
0
40
0
40
0
40
1
40
1
40
1
40
1
41
1
10
52.4981203716814
20
-19.8165665220428
30
0
41
1
10
52.4644516713932
20
-19.8145890081413
30
0
41
1
10
52.4306859121295
20
-19.8138634896706
30
0
41
1
10
52.3968964503549
20
-19.8146362034179
30
0
0
SPLINE
5
1D5
100
AcDbEntity
8
1
62
256
6
ByLayer
370
13
48
1
60
0
100
AcDbSpline
70
4
71
3
72
8
73
4
40
0
40
0
40
0
40
0
40
1
40
1
40
1
40
1
41
1
10
52.0074254881232
20
-20.242131888081
30
0
41
1
10
52.0252541290505
20
-20.256788750328
30
0
41
1
10
52.042634420939
20
-20.2715386352308
30
0
41
1
10
52.059385679813
20
-20.2864080727165
30
0
0
SPLINE
5
1D6
100
AcDbEntity
8
1
62
256
6
ByLayer
370
13
48
1
60
0
100
AcDbSpline
70
4
71
3
72
8
73
4
40
0
40
0
40
0
40
0
40
1
40
1
40
1
40
1
41
1
10
52.3968964503546
20
-21.6853637965818
30
0
41
1
10
52.3963107228281
20
-21.6853504018815
30
0
41
1
10
52.3957150920117
20
-21.6854572334296
30
0
41
1
10
52.3951729104351
20
-21.6857329769126
30
0
0
SPLINE
5
1D7
100
AcDbEntity
8
1
62
256
6
ByLayer
370
13
48
1
60
0
100
AcDbSpline
70
4
71
3
72
8
73
4
40
0
40
0
40
0
40
0
40
1
40
1
40
1
40
1
41
1
10
52.4981203716814
20
-21.6834334779569
30
0
41
1
10
52.4644516713932
20
-21.6854109918585
30
0
41
1
10
52.4306859121295
20
-21.6861365103291
30
0
41
1
10
52.3968964503549
20
-21.6853637965818
30
0
0
SPLINE
5
1D8
100
AcDbEntity
8
1
62
256
6
ByLayer
370
13
48
1
60
0
100
AcDbSpline
70
4
71
3
72
12
73
8
40
0
40
0
40
0
40
0
40
0.4751334286001
40
0.4751334286001
40
0.932572567163114
40
0.932572567163114
40
1
40
1
40
1
40
1
41
1
10
52.263287728043
20
-21.1763786668637
30
0
41
1
10
52.268170611684
20
-21.1483899033
30
0
41
1
10
52.2754113106086
20
-21.1131082313924
30
0
41
1
10
52.2979694230474
20
-21.0366769810079
30
0
41
1
10
52.3132711544946
20
-20.9948097161096
30
0
41
1
10
52.3372384178264
20
-20.9476293191551
30
0
41
1
10
52.3404835236959
20
-20.9415026238871
30
0
41
1
10
52.3438616980138
20
-20.9354031501948
30
0
0
SPLINE
5
1D9
100
AcDbEntity
8
1
62
256
6
ByLayer
370
13
48
1
60
0
100
AcDbSpline
70
4
71
3
72
12
73
8
40
0
40
0
40
0
40
0
40
0.317065405549387
40
0.317065405549387
40
0.935122454125188
40
0.935122454125188
40
1
40
1
40
1
40
1
41
1
10
52.3438616980199
20
-20.9354031501999
30
0
41
1
10
52.4265429048384
20
-20.9520251683732
30
0
41
1
10
52.5144360245087
20
-20.9703097250521
30
0
41
1
10
52.782412259695
20
-21.0275152659593
30
0
41
1
10
52.9751745905629
20
-21.0705091891925
30
0
41
1
10
53.1879205279658
20
-21.1203395423293
30
0
41
1
10
53.2084174418277
20
-21.1251653507869
30
0
41
1
10
53.2289221872924
20
-21.1300199051642
30
0
0
SPLINE
5
1DA
100
AcDbEntity
8
1
62
256
6
ByLayer
370
13
48
1
60
0
100
AcDbSpline
70
4
71
3
72
12
73
8
40
0
40
0
40
0
40
0
40
0.485156157749666
40
0.485156157749666
40
0.94199112372415
40
0.94199112372415
40
1
40
1
40
1
40
1
41
1
10
52.3438616980129
20
-20.5645968498036
30
0
41
1
10
52.3199171752548
20
-20.5213637383969
30
0
41
1
10
52.302462416397
20
-20.476351529477
30
0
41
1
10
52.2781770476215
20
-20.3978594838646
30
0
41
1
10
52.2704660180375
20
-20.3628170988879
30
0
41
1
10
52.2645310175682
20
-20.330656305993
30
0
41
1
10
52.2638924892731
20
-20.3270878337384
30
0
41
1
10
52.2632877280431
20
-20.3236213331363
30
0
0
SPLINE
5
1DB
100
AcDbEntity
8
1
62
256
6
ByLayer
370
13
48
1
60
0
100
AcDbSpline
70
4
71
3
72
12
73
8
40
0
40
0
40
0
40
0
40
0.317065405549387
40
0.317065405549387
40
0.935122454125188
40
0.935122454125188
40
1
40
1
40
1
40
1
41
1
10
52.3438616980199
20
-20.5645968497999
30
0
41
1
10
52.4265429048384
20
-20.5479748316265
30
0
41
1
10
52.5144360245087
20
-20.5296902749476
30
0
41
1
10
52.782412259695
20
-20.4724847340404
30
0
41
1
10
52.9751745905629
20
-20.4294908108073
30
0
41
1
10
53.1879205279658
20
-20.3796604576705
30
0
41
1
10
53.2084174418277
20
-20.3748346492128
30
0
41
1
10
53.2289221872924
20
-20.3699800948355
30
0
0
SPLINE
5
1DC
100
AcDbEntity
8
1
62
256
6
ByLayer
370
13
48
1
60
0
100
AcDbSpline
70
4
71
3
72
16
73
12
40
0
40
0
40
0
40
0
40
0.261377990657867
40
0.261377990657867
40
0.481934515979472
40
0.481934515979472
40
0.715311182526725
40
0.715311182526725
40
0.913572471675964
40
0.913572471675964
40
1
40
1
40
1
40
1
41
1
10
51.0664455980651
20
-21.1363969104077
30
0
41
1
10
51.0382650854168
20
-21.1341424460486
30
0
41
1
10
51.009482210257
20
-21.1353182484118
30
0
41
1
10
50.9583119591351
20
-21.1437873331531
30
0
41
1
10
50.9352599904951
20
-21.1501640882371
30
0
41
1
10
50.8908020800965
20
-21.1680356211244
30
0
41
1
10
50.8691978826307
20
-21.1799641903428
30
0
41
1
10
50.8336106141681
20
-21.2062362484793
30
0
41
1
10
50.8187432156444
20
-21.2201171867802
30
0
41
1
10
50.8003266032142
20
-21.2419798645702
30
0
41
1
10
50.7950841229876
20
-21.248918540863
30
0
41
1
10
50.7902464010371
20
-21.2560858101963
30
0
0
SPLINE
5
1DD
100
AcDbEntity
8
1
62
256
6
ByLayer
370
13
48
1
60
0
100
AcDbSpline
70
4
71
3
72
16
73
12
40
0
40
0
40
0
40
0
40
0.151923161221768
40
0.151923161221768
40
0.356831087868239
40
0.356831087868239
40
0.562343627100699
40
0.562343627100699
40
0.755962877954035
40
0.755962877954035
40
1
40
1
40
1
40
1
41
1
10
50.7902464010371
20
-20.2439141898034
30
0
41
1
10
50.7987219344628
20
-20.2564710153976
30
0
41
1
10
50.8084607018454
20
-20.2683422943616
30
0
41
1
10
50.8337693949216
20
-20.2939771808358
30
0
41
1
10
50.8503767517156
20
-20.3071461549756
30
0
41
1
10
50.8864721144675
20
-20.329524374754
30
0
41
1
10
50.9062083156533
20
-20.3388752674374
30
0
41
1
10
50.9462120188595
20
-20.352895154126
30
0
41
1
10
50.9666130313181
20
-20.3578881642532
30
0
41
1
10
51.0132843685345
20
-20.364826667552
30
0
41
1
10
51.0401191697389
20
-20.3657092256694
30
0
41
1
10
51.0664455980651
20
-20.3636030895921
30
0
0
SPLINE
5
1DE
100
AcDbEntity
8
1
62
256
6
ByLayer
370
13
48
1
60
0
100
AcDbSpline
70
4
71
3
72
10
73
6
40
0
40
0
40
0
40
0
40
0.416310615910619
40
0.416310615910619
40
1
40
1
40
1
40
1
41
1
10
50.7887490202787
20
-21.117997880282
30
0
41
1
10
50.7881183420048
20
-21.1383120207738
30
0
41
1
10
50.7879133394439
20
-21.1582685876055
30
0
41
1
10
50.7882249830662
20
-21.204874493096
30
0
41
1
10
50.7890616222185
20
-21.2311415872153
30
0
41
1
10
50.7902464010371
20
-21.2560858101964
30
0
0
SPLINE
5
1DF
100
AcDbEntity
8
1
62
256
6
ByLayer
370
13
48
1
60
0
100
AcDbSpline
70
4
71
3
72
8
73
4
40
0
40
0
40
0
40
0
40
1
40
1
40
1
40
1
41
1
10
50.7887490202787
20
-21.117997880282
30
0
41
1
10
50.8019833816743
20
-21.1112287209761
30
0
41
1
10
50.8170039201152
20
-21.1042177006155
30
0
41
1
10
50.8333034256004
20
-21.0973785119574
30
0
0
SPLINE
5
1E0
100
AcDbEntity
8
1
62
256
6
ByLayer
370
13
48
1
60
0
100
AcDbSpline
70
4
71
3
72
14
73
10
40
0
40
0
40
0
40
0
40
0.374928384423448
40
0.374928384423448
40
0.811710849728661
40
0.811710849728661
40
0.984903138272893
40
0.984903138272893
40
1
40
1
40
1
40
1
41
1
10
50.8333034255968
20
-21.0973785119612
30
0
41
1
10
50.8561224099593
20
-21.0878037835029
30
0
41
1
10
50.8818640226197
20
-21.0801429869013
30
0
41
1
10
50.9403666129891
20
-21.0686237794606
30
0
41
1
10
50.9743985825837
20
-21.0654339145447
30
0
41
1
10
51.0218660913331
20
-21.0657302747404
30
0
41
1
10
51.0355336219256
20
-21.0663538440852
30
0
41
1
10
51.0502708355023
20
-21.0676282314556
30
0
41
1
10
51.0514431034481
20
-21.0677335914578
30
0
41
1
10
51.0526147090185
20
-21.0678434030399
30
0
0
SPLINE
5
1E1
100
AcDbEntity
8
1
62
256
6
ByLayer
370
13
48
1
60
0
100
AcDbSpline
70
4
71
3
72
14
73
10
40
0
40
0
40
0
40
0
40
0.437747259254554
40
0.437747259254554
40
0.876374424145627
40
0.876374424145627
40
0.984868425798996
40
0.984868425798996
40
1
40
1
40
1
40
1
41
1
10
50.8333034255968
20
-20.4026214880386
30
0
41
1
10
50.8598845893819
20
-20.4137748076313
30
0
41
1
10
50.8905059503584
20
-20.4223372818419
30
0
41
1
10
50.9548008624908
20
-20.4330112936792
30
0
41
1
10
50.9893598844024
20
-20.4352553410088
30
0
41
1
10
51.0320199308042
20
-20.4337301785614
30
0
41
1
10
51.040577126936
20
-20.4332100233728
30
0
41
1
10
51.0502708354997
20
-20.4323717685022
30
0
41
1
10
51.0514431034474
20
-20.4322664085314
30
0
41
1
10
51.0526147090185
20
-20.4321565969598
30
0
0
SPLINE
5
1E2
100
AcDbEntity
8
1
62
256
6
ByLayer
370
13
48
1
60
0
100
AcDbSpline
70
4
71
3
72
8
73
4
40
0
40
0
40
0
40
0
40
1
40
1
40
1
40
1
41
1
10
50.7887490202787
20
-20.3820021197178
30
0
41
1
10
50.8019833816743
20
-20.3887712790236
30
0
41
1
10
50.8170039201152
20
-20.3957822993843
30
0
41
1
10
50.8333034256004
20
-20.4026214880423
30
0
0
SPLINE
5
1E3
100
AcDbEntity
8
1
62
256
6
ByLayer
370
13
48
1
60
0
100
AcDbSpline
70
4
71
3
72
10
73
6
40
0
40
0
40
0
40
0
40
0.583689384089929
40
0.583689384089929
40
1
40
1
40
1
40
1
41
1
10
50.7902464010371
20
-20.2439141898034
30
0
41
1
10
50.7890616222185
20
-20.2688584127845
30
0
41
1
10
50.7882249830662
20
-20.2951255069037
30
0
41
1
10
50.7879133394439
20
-20.3417314123942
30
0
41
1
10
50.7881183420067
20
-20.3616879792239
30
0
41
1
10
50.7887490202806
20
-20.3820021197157
30
0
0
SPLINE
5
1E4
100
AcDbEntity
8
1
62
256
6
ByLayer
370
13
48
1
60
0
100
AcDbSpline
70
4
71
3
72
12
73
8
40
0
40
0
40
0
40
0
40
0.0293465478546648
40
0.0293465478546648
40
0.716199296865611
40
0.716199296865611
40
1
40
1
40
1
40
1
41
1
10
50.7172833606159
20
-19.8660827624861
30
0
41
1
10
50.7164151126999
20
-19.8666119522912
30
0
41
1
10
50.7155496765878
20
-19.8671410618024
30
0
41
1
10
50.6947885333711
20
-19.8798827551247
30
0
41
1
10
50.6762446429395
20
-19.8923139506606
30
0
41
1
10
50.6544391961912
20
-19.9085168657721
30
0
41
1
10
50.6484807608144
20
-19.913174398408
30
0
41
1
10
50.6431084369488
20
-19.9176203440936
30
0
0
SPLINE
5
1E5
100
AcDbEntity
8
1
62
256
6
ByLayer
370
13
48
1
60
0
100
AcDbSpline
70
4
71
3
72
8
73
4
40
0
40
0
40
0
40
0
40
1
40
1
40
1
40
1
41
1
10
50.6347524090111
20
-19.924015668654
30
0
41
1
10
50.6914003240086
20
-20.0280929824644
30
0
41
1
10
50.7417769804954
20
-20.1356883539825
30
0
41
1
10
50.7902464010371
20
-20.2439141898034
30
0
0
SPLINE
5
1E6
100
AcDbEntity
8
1
62
256
6
ByLayer
370
13
48
1
60
0
100
AcDbSpline
70
4
71
3
72
8
73
4
40
0
40
0
40
0
40
0
40
1
40
1
40
1
40
1
41
1
10
50.6431084369488
20
-19.9176203440936
30
0
41
1
10
50.6402587641266
20
-19.9199786327771
30
0
41
1
10
50.6374665445716
20
-19.9221154546389
30
0
41
1
10
50.6347524090111
20
-19.924015668654
30
0
0
SPLINE
5
1E7
100
AcDbEntity
8
1
62
256
6
ByLayer
370
13
48
1
60
0
100
AcDbSpline
70
4
71
3
72
12
73
8
40
0
40
0
40
0
40
0
40
0.0294712126629231
40
0.0294712126629231
40
0.622158766529877
40
0.622158766529877
40
1
40
1
40
1
40
1
41
1
10
50.7172833606159
20
-21.6339172375137
30
0
41
1
10
50.7164151127001
20
-21.6333880477071
30
0
41
1
10
50.7155496765894
20
-21.6328589381922
30
0
41
1
10
50.6974755734967
20
-21.6217663564586
30
0
41
1
10
50.6812985888191
20
-21.6110592182422
30
0
41
1
10
50.6583964628079
20
-21.594548633857
30
0
41
1
10
50.6502306848161
20
-21.5882737769549
30
0
41
1
10
50.6431084369487
20
-21.582379655906
30
0
0
SPLINE
5
1E8
100
AcDbEntity
8
1
62
256
6
ByLayer
370
13
48
1
60
0
100
AcDbSpline
70
4
71
3
72
8
73
4
40
0
40
0
40
0
40
0
40
1
40
1
40
1
40
1
41
1
10
50.6431084369444
20
-21.5823796559161
30
0
41
1
10
50.6402587641224
20
-21.5800213672327
30
0
41
1
10
50.6374665445714
20
-21.5778845453607
30
0
41
1
10
50.6347524090111
20
-21.5759843313458
30
0
0
SPLINE
5
1E9
100
AcDbEntity
8
1
62
256
6
ByLayer
370
13
48
1
60
0
100
AcDbSpline
70
4
71
3
72
8
73
4
40
0
40
0
40
0
40
0
40
1
40
1
40
1
40
1
41
1
10
50.7902464010371
20
-21.2560858101964
30
0
41
1
10
50.7417769804954
20
-21.3643116460173
30
0
41
1
10
50.6914003240087
20
-21.4719070175353
30
0
41
1
10
50.6347524090112
20
-21.5759843313458
30
0
0
SPLINE
5
1EA
100
AcDbEntity
8
1
62
256
6
ByLayer
370
13
48
1
60
0
100
AcDbSpline
70
4
71
3
72
26
73
22
40
0
40
0
40
0
40
0
40
0.0827515238844934
40
0.0827515238844934
40
0.12581559206367
40
0.12581559206367
40
0.250670450127126
40
0.250670450127126
40
0.38565988459967
40
0.38565988459967
40
0.523243120522087
40
0.523243120522087
40
0.658177082710726
40
0.658177082710726
40
0.794420311219042
40
0.794420311219042
40
0.893778828576378
40
0.893778828576378
40
0.931785368228296
40
0.931785368228296
40
1
40
1
40
1
40
1
41
1
10
51.0082223121694
20
-20.5526645496348
30
0
41
1
10
51.0214322023478
20
-20.5572279036695
30
0
41
1
10
51.0338393291367
20
-20.5634103841665
30
0
41
1
10
51.0501644631609
20
-20.574711050077
30
0
41
1
10
51.0554067929996
20
-20.5789736009387
30
0
41
1
10
51.0741182154141
20
-20.5965904053864
30
0
41
1
10
51.0849906535054
20
-20.6123552069264
30
0
41
1
10
51.1024421427666
20
-20.6484548974696
30
0
41
1
10
51.1088810701152
20
-20.6696404858857
30
0
41
1
10
51.1169546526535
20
-20.7142644032079
30
0
41
1
10
51.1185900386567
20
-20.7383979992842
30
0
41
1
10
51.1169724550515
20
-20.7849833598301
30
0
41
1
10
51.1137934005018
20
-20.8081132806407
30
0
41
1
10
51.102625611521
20
-20.8507698362128
30
0
41
1
10
51.0944617984534
20
-20.8708858725697
30
0
41
1
10
51.0752524001787
20
-20.9010554476395
30
0
41
1
10
51.0653654595556
20
-20.9126451123936
30
0
41
1
10
51.0489068076275
20
-20.9261926364379
30
0
41
1
10
51.0440023231556
20
-20.9297176853198
30
0
41
1
10
51.0295383953429
20
-20.9386940979336
30
0
41
1
10
51.0191535387159
20
-20.9435592602459
30
0
41
1
10
51.0082223121694
20
-20.9473354503649
30
0
0
SPLINE
5
1EB
100
AcDbEntity
8
1
62
256
6
ByLayer
370
13
48
1
60
0
100
AcDbSpline
70
4
71
3
72
12
73
8
40
0
40
0
40
0
40
0
40
0.0293420255455753
40
0.0293420255455753
40
0.716180168206404
40
0.716180168206404
40
1
40
1
40
1
40
1
41
1
10
50.7172833606158
20
-19.8660827624861
30
0
41
1
10
50.7162857859541
20
-19.8661643995031
30
0
41
1
10
50.7152910702585
20
-19.8662460296742
30
0
41
1
10
50.6914121035417
20
-19.8682117979348
30
0
41
1
10
50.6698109573743
20
-19.8701264875934
30
0
41
1
10
50.6439993417919
20
-19.8726184841987
30
0
41
1
10
50.636886377975
20
-19.8733343784704
30
0
41
1
10
50.6304097099877
20
-19.8740173660277
30
0
0
SPLINE
5
1EC
100
AcDbEntity
8
1
62
256
6
ByLayer
370
13
48
1
60
0
100
AcDbSpline
70
4
71
3
72
14
73
10
40
0
40
0
40
0
40
0
40
0.375382008196676
40
0.375382008196676
40
0.812033352237096
40
0.812033352237096
40
0.984956163702167
40
0.984956163702167
40
1
40
1
40
1
40
1
41
1
10
50.8913621168403
20
-20.9995473017032
30
0
41
1
10
50.9090719196109
20
-20.9986836544347
30
0
41
1
10
50.9286858369908
20
-21.0015219434601
30
0
41
1
10
50.9723411561591
20
-21.0153079234215
30
0
41
1
10
50.9971677204448
20
-21.0276888797658
30
0
41
1
10
51.0310180351575
20
-21.0506882461525
30
0
41
1
10
51.0406668461475
20
-21.0579473624055
30
0
41
1
10
51.0509791789015
20
-21.0664749262337
30
0
41
1
10
51.0517970365625
20
-21.067157250832
30
0
41
1
10
51.0526147090192
20
-21.0678434030363
30
0
0
SPLINE
5
1ED
100
AcDbEntity
8
1
62
256
6
ByLayer
370
13
48
1
60
0
100
AcDbSpline
70
4
71
3
72
14
73
10
40
0
40
0
40
0
40
0
40
0.438226381079498
40
0.438226381079498
40
0.876606497754705
40
0.876606497754705
40
0.984922379464605
40
0.984922379464605
40
1
40
1
40
1
40
1
41
1
10
50.8913621168403
20
-20.5004526982965
30
0
41
1
10
50.9119904710235
20
-20.5014586734604
30
0
41
1
10
50.9352526901998
20
-20.4974083847669
30
0
41
1
10
50.9829208610343
20
-20.4797971517239
30
0
41
1
10
51.0079577365153
20
-20.4659980130347
30
0
41
1
10
51.0381767807406
20
-20.4438285984329
30
0
41
1
10
51.0441974945511
20
-20.4391330431297
30
0
41
1
10
51.0509791789019
20
-20.4335250737664
30
0
41
1
10
51.0517970365626
20
-20.4328427491678
30
0
41
1
10
51.0526147090192
20
-20.4321565969635
30
0
0
SPLINE
5
1EE
100
AcDbEntity
8
1
62
256
6
ByLayer
370
13
48
1
60
0
100
AcDbSpline
70
4
71
3
72
12
73
8
40
0
40
0
40
0
40
0
40
0.0294665749521175
40
0.0294665749521175
40
0.622136526669372
40
0.622136526669372
40
1
40
1
40
1
40
1
41
1
10
50.7172833606161
20
-21.6339172375136
30
0
41
1
10
50.7162857859714
20
-21.6338356002673
30
0
41
1
10
50.7152910703256
20
-21.6337539694084
30
0
41
1
10
50.6945028901904
20
-21.6320426462298
30
0
41
1
10
50.6756947131271
20
-21.6303931112158
30
0
41
1
10
50.6487161066196
20
-21.6278527396399
30
0
41
1
10
50.6389959740471
20
-21.6268880859002
30
0
41
1
10
50.6304097099877
20
-21.625982633972
30
0
0
SPLINE
5
1EF
100
AcDbEntity
8
1
62
256
6
ByLayer
370
13
48
1
60
0
100
AcDbSpline
70
4
71
3
72
8
73
4
40
0
40
0
40
0
40
0
40
1
40
1
40
1
40
1
41
1
10
50.8913621168403
20
-20.5004526982965
30
0
41
1
10
50.9259374584494
20
-20.5180833698166
30
0
41
1
10
50.9621644089747
20
-20.5343754845327
30
0
41
1
10
50.9995036654583
20
-20.5492443482016
30
0
0
SPLINE
5
1F0
100
AcDbEntity
8
1
62
256
6
ByLayer
370
13
48
1
60
0
100
AcDbSpline
70
4
71
3
72
8
73
4
40
0
40
0
40
0
40
0
40
1
40
1
40
1
40
1
41
1
10
50.9995036654583
20
-20.9507556517982
30
0
41
1
10
50.9621644089747
20
-20.965624515467
30
0
41
1
10
50.9259374584494
20
-20.9819166301832
30
0
41
1
10
50.8913621168403
20
-20.9995473017032
30
0
0
SPLINE
5
1F1
100
AcDbEntity
8
1
62
256
6
ByLayer
370
13
48
1
60
0
100
AcDbSpline
70
4
71
3
72
10
73
6
40
0
40
0
40
0
40
0
40
0.848569790661836
40
0.848569790661836
40
1
40
1
40
1
40
1
41
1
10
54.9256934551194
20
-20.1254211687773
30
0
41
1
10
54.8913120258512
20
-20.0735790891516
30
0
41
1
10
54.8438979962596
20
-20.0301204604406
30
0
41
1
10
54.7838192549264
20
-19.9880912396159
30
0
41
1
10
54.774454665912
20
-19.9818784379879
30
0
41
1
10
54.7649581024897
20
-19.9758813018367
30
0
0
SPLINE
5
1F2
100
AcDbEntity
8
1
62
256
6
ByLayer
370
13
48
1
60
0
100
AcDbSpline
70
4
71
3
72
8
73
4
40
0
40
0
40
0
40
0
40
1
40
1
40
1
40
1
41
1
10
54.7649581024897
20
-19.9758813018367
30
0
41
1
10
54.7210882094167
20
-19.9481772040489
30
0
41
1
10
54.6770162605411
20
-19.9207872859845
30
0
41
1
10
54.6326256850655
20
-19.8939267404415
30
0
0
SPLINE
5
1F3
100
AcDbEntity
8
1
62
256
6
ByLayer
370
13
48
1
60
0
100
AcDbSpline
70
4
71
3
72
10
73
6
40
0
40
0
40
0
40
0
40
0.654900204513161
40
0.654900204513161
40
1
40
1
40
1
40
1
41
1
10
54.6326256850655
20
-19.8939267404415
30
0
41
1
10
54.6093808214963
20
-19.8798613738668
30
0
41
1
10
54.5866679047492
20
-19.8646282016847
30
0
41
1
10
54.5550034980856
20
-19.8377877060971
30
0
41
1
10
54.5445398484845
20
-19.8278011772639
30
0
41
1
10
54.535515563742
20
-19.8166496405733
30
0
0
SPLINE
5
1F4
100
AcDbEntity
8
1
62
256
6
ByLayer
370
13
48
1
60
0
100
AcDbSpline
70
4
71
3
72
10
73
6
40
0
40
0
40
0
40
0
40
0.654900204513161
40
0.654900204513161
40
1
40
1
40
1
40
1
41
1
10
54.6326256850655
20
-21.6060732595582
30
0
41
1
10
54.6093808214963
20
-21.6201386261329
30
0
41
1
10
54.5866679047492
20
-21.635371798315
30
0
41
1
10
54.5550034980856
20
-21.6622122939026
30
0
41
1
10
54.5445398484845
20
-21.6721988227358
30
0
41
1
10
54.535515563742
20
-21.6833503594264
30
0
0
SPLINE
5
1F5
100
AcDbEntity
8
1
62
256
6
ByLayer
370
13
48
1
60
0
100
AcDbSpline
70
4
71
3
72
8
73
4
40
0
40
0
40
0
40
0
40
1
40
1
40
1
40
1
41
1
10
54.7649581024897
20
-21.5241186981631
30
0
41
1
10
54.7210882094167
20
-21.5518227959508
30
0
41
1
10
54.6770162605411
20
-21.5792127140153
30
0
41
1
10
54.6326256850655
20
-21.6060732595582
30
0
0
SPLINE
5
1F6
100
AcDbEntity
8
1
62
256
6
ByLayer
370
13
48
1
60
0
100
AcDbSpline
70
4
71
3
72
10
73
6
40
0
40
0
40
0
40
0
40
0.848569790661836
40
0.848569790661836
40
1
40
1
40
1
40
1
41
1
10
54.9256934551194
20
-21.3745788312224
30
0
41
1
10
54.8913120258512
20
-21.4264209108481
30
0
41
1
10
54.8438979962596
20
-21.4698795395592
30
0
41
1
10
54.7838192549264
20
-21.5119087603838
30
0
41
1
10
54.774454665912
20
-21.5181215620118
30
0
41
1
10
54.7649581024897
20
-21.5241186981631
30
0
0
SPLINE
5
1F7
100
AcDbEntity
8
1
62
256
6
ByLayer
370
13
48
1
60
0
100
AcDbSpline
70
4
71
3
72
16
73
12
40
0
40
0
40
0
40
0
40
0.0355583019934282
40
0.0355583019934282
40
0.0904281096557084
40
0.0904281096557084
40
0.198001345750339
40
0.198001345750339
40
0.437176612921005
40
0.437176612921005
40
1
40
1
40
1
40
1
41
1
10
54.4647600217524
20
-19.7640240606219
30
0
41
1
10
54.4651593706654
20
-19.7649904740152
30
0
41
1
10
54.4655599456349
20
-19.7659564033125
30
0
41
1
10
54.4665795843354
20
-19.7684162955794
30
0
41
1
10
54.4671995476743
20
-19.7699098958256
30
0
41
1
10
54.4690371309082
20
-19.7743298753841
30
0
41
1
10
54.4702570500455
20
-19.7772550109027
30
0
41
1
10
54.47419943455
20
-19.7866700214289
30
0
41
1
10
54.4769367796375
20
-19.7931494233289
30
0
41
1
10
54.4861842955318
20
-19.814731206142
30
0
41
1
10
54.4928353954249
20
-19.8297223560069
30
0
41
1
10
54.4995357068632
20
-19.8443639435975
30
0
0
SPLINE
5
1F8
100
AcDbEntity
8
1
62
256
6
ByLayer
370
13
48
1
60
0
100
AcDbSpline
70
4
71
3
72
10
73
6
40
0
40
0
40
0
40
0
40
0.635943996638209
40
0.635943996638209
40
1
40
1
40
1
40
1
41
1
10
54.5901406592828
20
-19.955263725429
30
0
41
1
10
54.5670478691557
20
-19.9356793338431
30
0
41
1
10
54.5452589478458
20
-19.9140127111216
30
0
41
1
10
54.5163860503718
20
-19.8755597344628
30
0
41
1
10
54.5069119843145
20
-19.8604826588815
30
0
41
1
10
54.4995357068632
20
-19.8443639435975
30
0
0
SPLINE
5
1F9
100
AcDbEntity
8
1
62
256
6
ByLayer
370
13
48
1
60
0
100
AcDbSpline
70
4
71
3
72
8
73
4
40
0
40
0
40
0
40
0
40
1
40
1
40
1
40
1
41
1
10
54.4647600217523
20
-19.764024060622
30
0
41
1
10
54.3478211015788
20
-19.7334814341692
30
0
41
1
10
54.226489880715
20
-19.7186627732891
30
0
41
1
10
54.1060768987951
20
-19.7160397335032
30
0
0
SPLINE
5
1FA
100
AcDbEntity
8
1
62
256
6
ByLayer
370
13
48
1
60
0
100
AcDbSpline
70
4
71
3
72
10
73
6
40
0
40
0
40
0
40
0
40
0.635943996638209
40
0.635943996638209
40
1
40
1
40
1
40
1
41
1
10
54.5901406592828
20
-21.5447362745707
30
0
41
1
10
54.5670478691557
20
-21.5643206661567
30
0
41
1
10
54.5452589478458
20
-21.5859872888781
30
0
41
1
10
54.5163860503718
20
-21.6244402655369
30
0
41
1
10
54.5069119843145
20
-21.6395173411183
30
0
41
1
10
54.4995357068632
20
-21.6556360564022
30
0
0
SPLINE
5
1FB
100
AcDbEntity
8
1
62
256
6
ByLayer
370
13
48
1
60
0
100
AcDbSpline
70
4
71
3
72
16
73
12
40
0
40
0
40
0
40
0
40
0.0355583019934282
40
0.0355583019934282
40
0.0904281096557084
40
0.0904281096557084
40
0.198001345750339
40
0.198001345750339
40
0.437176612921005
40
0.437176612921005
40
1
40
1
40
1
40
1
41
1
10
54.4647600217524
20
-21.7359759393778
30
0
41
1
10
54.4651593706654
20
-21.7350095259845
30
0
41
1
10
54.4655599456349
20
-21.7340435966872
30
0
41
1
10
54.4665795843354
20
-21.7315837044204
30
0
41
1
10
54.4671995476743
20
-21.7300901041741
30
0
41
1
10
54.4690371309082
20
-21.7256701246156
30
0
41
1
10
54.4702570500455
20
-21.722744989097
30
0
41
1
10
54.47419943455
20
-21.7133299785709
30
0
41
1
10
54.4769367796375
20
-21.7068505766708
30
0
41
1
10
54.4861842955318
20
-21.6852687938577
30
0
41
1
10
54.4928353954249
20
-21.6702776439928
30
0
41
1
10
54.4995357068632
20
-21.6556360564022
30
0
0
SPLINE
5
1FC
100
AcDbEntity
8
1
62
256
6
ByLayer
370
13
48
1
60
0
100
AcDbSpline
70
4
71
3
72
8
73
4
40
0
40
0
40
0
40
0
40
1
40
1
40
1
40
1
41
1
10
54.4647600217523
20
-21.7359759393777
30
0
41
1
10
54.3478211015788
20
-21.7665185658305
30
0
41
1
10
54.226489880715
20
-21.7813372267106
30
0
41
1
10
54.1060768987951
20
-21.7839602664965
30
0
0
SPLINE
5
1FD
100
AcDbEntity
8
1
62
256
6
ByLayer
370
13
48
1
60
0
100
AcDbSpline
70
4
71
3
72
12
73
8
40
0
40
0
40
0
40
0
40
0.351723890194534
40
0.351723890194534
40
0.712129136736367
40
0.712129136736367
40
1
40
1
40
1
40
1
41
1
10
52.3438616980132
20
-20.9354031501946
30
0
41
1
10
52.3585427486301
20
-20.8944409933544
30
0
41
1
10
52.3694774148618
20
-20.8508262399864
30
0
41
1
10
52.3795833503618
20
-20.7612990450821
30
0
41
1
10
52.3783942316414
20
-20.7144656999022
30
0
41
1
10
52.3654620411648
20
-20.6335802887548
30
0
41
1
10
52.3559204052135
20
-20.5982423066946
30
0
41
1
10
52.3438616980127
20
-20.5645968498037
30
0
0
SPLINE
5
1FE
100
AcDbEntity
8
1
62
256
6
ByLayer
370
13
48
1
60
0
100
AcDbSpline
70
4
71
3
72
8
73
4
40
0
40
0
40
0
40
0
40
1
40
1
40
1
40
1
41
1
10
50.9995036654583
20
-20.5492443482016
30
0
41
1
10
51.0024077881538
20
-20.5503845409812
30
0
41
1
10
51.005314019696
20
-20.5515246083357
30
0
41
1
10
51.0082223121694
20
-20.5526645496348
30
0
0
SPLINE
5
1FF
100
AcDbEntity
8
1
62
256
6
ByLayer
370
13
48
1
60
0
100
AcDbSpline
70
4
71
3
72
8
73
4
40
0
40
0
40
0
40
0
40
1
40
1
40
1
40
1
41
1
10
51.0082223121694
20
-20.9473354503649
30
0
41
1
10
51.005314019696
20
-20.948475391664
30
0
41
1
10
51.0024077881538
20
-20.9496154590186
30
0
41
1
10
50.9995036654583
20
-20.9507556517982
30
0
0
SPLINE
5
200
100
AcDbEntity
8
1
62
256
6
ByLayer
370
13
48
1
60
0
100
AcDbSpline
70
4
71
3
72
8
73
4
40
0
40
0
40
0
40
0
40
1
40
1
40
1
40
1
41
1
10
50.6282766666318
20
-21.6254379281413
30
0
41
1
10
50.6289998534677
20
-21.6254379281408
30
0
41
1
10
50.6297316666812
20
-21.6256113631964
30
0
41
1
10
50.6304097099816
20
-21.6259826339293
30
0
0
SPLINE
5
201
100
AcDbEntity
8
1
62
256
6
ByLayer
370
13
48
1
60
0
100
AcDbSpline
70
4
71
3
72
8
73
4
40
0
40
0
40
0
40
0
40
1
40
1
40
1
40
1
41
1
10
50.6304097099816
20
-19.8740173660318
30
0
41
1
10
50.6297316666801
20
-19.874388636767
30
0
41
1
10
50.6289998534693
20
-19.8745620718645
30
0
41
1
10
50.6282766666318
20
-19.8745620718645
30
0
0
SPLINE
5
202
100
AcDbEntity
8
1
62
256
6
ByLayer
370
13
48
1
60
0
100
AcDbSpline
70
4
71
3
72
8
73
4
40
0
40
0
40
0
40
0
40
1
40
1
40
1
40
1
41
1
10
50.8913621168403
20
-20.9995473017032
30
0
41
1
10
50.8858744381612
20
-21.000542862535
30
0
41
1
10
50.8809941941611
20
-21.0010243555489
30
0
41
1
10
50.8769872801707
20
-21.0010243555488
30
0
0
SPLINE
5
203
100
AcDbEntity
8
1
62
256
6
ByLayer
370
13
48
1
60
0
100
AcDbSpline
70
4
71
3
72
8
73
4
40
0
40
0
40
0
40
0
40
1
40
1
40
1
40
1
41
1
10
50.8769872801694
20
-20.4989756444469
30
0
41
1
10
50.8809941941598
20
-20.4989756444469
30
0
41
1
10
50.8858744381614
20
-20.4994571374648
30
0
41
1
10
50.8913621168403
20
-20.5004526982965
30
0
0
SPLINE
5
204
100
AcDbEntity
8
1
62
256
6
ByLayer
370
13
48
1
60
0
100
AcDbSpline
70
4
71
3
72
10
73
6
40
0
40
0
40
0
40
0
40
0.155458310972556
40
0.155458310972556
40
1
40
1
40
1
40
1
41
1
10
54.7213347612452
20
-21.46356743665
30
0
41
1
10
54.7303785370381
20
-21.4587473576064
30
0
41
1
10
54.7393254653622
20
-21.4537410998007
30
0
41
1
10
54.7954964008332
20
-21.4205991260884
30
0
41
1
10
54.8409371698566
20
-21.3863327049745
30
0
41
1
10
54.8749845771854
20
-21.3432282038529
30
0
0
SPLINE
5
205
100
AcDbEntity
8
1
62
256
6
ByLayer
370
13
48
1
60
0
100
AcDbSpline
70
4
71
3
72
10
73
6
40
0
40
0
40
0
40
0
40
0.155458310972556
40
0.155458310972556
40
1
40
1
40
1
40
1
41
1
10
54.7213347612452
20
-20.0364325633497
30
0
41
1
10
54.7303785370381
20
-20.0412526423933
30
0
41
1
10
54.7393254653622
20
-20.046258900199
30
0
41
1
10
54.7954964008332
20
-20.0794008739113
30
0
41
1
10
54.8409371698566
20
-20.1136672950252
30
0
41
1
10
54.8749845771854
20
-20.1567717961468
30
0
0
SPLINE
5
206
100
AcDbEntity
8
1
62
256
6
ByLayer
370
13
48
1
60
0
100
AcDbSpline
70
4
71
3
72
16
73
12
40
0
40
0
40
0
40
0
40
0.0355250902269691
40
0.0355250902269691
40
0.0916529298118417
40
0.0916529298118417
40
0.199749877619611
40
0.199749877619611
40
0.438904840271112
40
0.438904840271112
40
1
40
1
40
1
40
1
41
1
10
54.4647600217524
20
-19.764024060622
30
0
41
1
10
54.4655860030917
20
-19.7646570887199
30
0
41
1
10
54.4664129457398
20
-19.7652895613366
30
0
41
1
10
54.4685502103392
20
-19.7669240247221
30
0
41
1
10
54.4698615812701
20
-19.7679256762217
30
0
41
1
10
54.4737020316477
20
-19.7708553247379
30
0
41
1
10
54.4762348060014
20
-19.772782662459
30
0
41
1
10
54.4843821111612
20
-19.7789652579289
30
0
41
1
10
54.490015337342
20
-19.7832140294752
30
0
41
1
10
54.5088835392968
20
-19.7973327138048
30
0
41
1
10
54.5222269173127
20
-19.8071179645675
30
0
41
1
10
54.535515563742
20
-19.8166496405733
30
0
0
SPLINE
5
207
100
AcDbEntity
8
1
62
256
6
ByLayer
370
13
48
1
60
0
100
AcDbSpline
70
4
71
3
72
8
73
4
40
0
40
0
40
0
40
0
40
1
40
1
40
1
40
1
41
1
10
54.1060768987951
20
-19.7160397335032
30
0
41
1
10
53.9916344595783
20
-19.7134163911209
30
0
41
1
10
53.874906152167
20
-19.7174545242286
30
0
41
1
10
53.7587805434612
20
-19.7131487032134
30
0
0
SPLINE
5
208
100
AcDbEntity
8
1
62
256
6
ByLayer
370
13
48
1
60
0
100
AcDbSpline
70
4
71
3
72
16
73
12
40
0
40
0
40
0
40
0
40
0.0355250902269691
40
0.0355250902269691
40
0.0916529298118418
40
0.0916529298118418
40
0.199749877619611
40
0.199749877619611
40
0.438904840271112
40
0.438904840271112
40
1
40
1
40
1
40
1
41
1
10
54.4647600217524
20
-21.7359759393777
30
0
41
1
10
54.4655860030917
20
-21.7353429112798
30
0
41
1
10
54.4664129457398
20
-21.7347104386631
30
0
41
1
10
54.4685502103392
20
-21.7330759752776
30
0
41
1
10
54.4698615812701
20
-21.7320743237781
30
0
41
1
10
54.4737020316477
20
-21.7291446752618
30
0
41
1
10
54.4762348060014
20
-21.7272173375407
30
0
41
1
10
54.4843821111612
20
-21.7210347420708
30
0
41
1
10
54.490015337342
20
-21.7167859705246
30
0
41
1
10
54.5088835392968
20
-21.7026672861949
30
0
41
1
10
54.5222269173127
20
-21.6928820354323
30
0
41
1
10
54.535515563742
20
-21.6833503594264
30
0
0
SPLINE
5
209
100
AcDbEntity
8
1
62
256
6
ByLayer
370
13
48
1
60
0
100
AcDbSpline
70
4
71
3
72
8
73
4
40
0
40
0
40
0
40
0
40
1
40
1
40
1
40
1
41
1
10
54.1060768987951
20
-21.7839602664965
30
0
41
1
10
53.9916344595783
20
-21.7865836088788
30
0
41
1
10
53.874906152167
20
-21.7825454757711
30
0
41
1
10
53.7587805434612
20
-21.7868512967863
30
0
0
SPLINE
5
20A
100
AcDbEntity
8
1
62
256
6
ByLayer
370
13
48
1
60
0
100
AcDbSpline
70
4
71
3
72
14
73
10
40
0
40
0
40
0
40
0
40
0.0334466877100648
40
0.0334466877100648
40
0.147634490130718
40
0.147634490130718
40
0.594775924699149
40
0.594775924699149
40
1
40
1
40
1
40
1
41
1
10
54.4213727254144
20
-21.1987731616327
30
0
41
1
10
54.4272002143374
20
-21.1989918760623
30
0
41
1
10
54.4330293219699
20
-21.1991642271019
30
0
41
1
10
54.4587574615068
20
-21.1997120032924
30
0
41
1
10
54.4786653670228
20
-21.1993881038733
30
0
41
1
10
54.576494145549
20
-21.1977035844334
30
0
41
1
10
54.6544227194233
20
-21.1962526243352
30
0
41
1
10
54.8029558192713
20
-21.1925692061202
30
0
41
1
10
54.873564429311
20
-21.1905222623141
30
0
41
1
10
54.9441651422593
20
-21.1882057701257
30
0
0
SPLINE
5
20B
100
AcDbEntity
8
1
62
256
6
ByLayer
370
13
48
1
60
0
100
AcDbSpline
70
4
71
3
72
12
73
8
40
0
40
0
40
0
40
0
40
0.447676549458682
40
0.447676549458682
40
0.911865963480885
40
0.911865963480885
40
1
40
1
40
1
40
1
41
1
10
54.8964397360486
20
-21.3154215696968
30
0
41
1
10
54.9088546309063
20
-21.2989915787104
30
0
41
1
10
54.9197349842376
20
-21.2811598569942
30
0
41
1
10
54.9363651532997
20
-21.2427597147232
30
0
41
1
10
54.9420103553973
20
-21.2216639319445
30
0
41
1
10
54.9439641163249
20
-21.1963934864671
30
0
41
1
10
54.9441371532748
20
-21.1922988701588
30
0
41
1
10
54.9441651422481
20
-21.1882057701248
30
0
0
SPLINE
5
20C
100
AcDbEntity
8
1
62
256
6
ByLayer
370
13
48
1
60
0
100
AcDbSpline
70
4
71
3
72
8
73
4
40
0
40
0
40
0
40
0
40
1
40
1
40
1
40
1
41
1
10
54.8749845771854
20
-21.3432282038529
30
0
41
1
10
54.8822290280935
20
-21.3340566261383
30
0
41
1
10
54.889375686801
20
-21.324770200257
30
0
41
1
10
54.8964397360486
20
-21.3154215696968
30
0
0
SPLINE
5
20D
100
AcDbEntity
8
1
62
256
6
ByLayer
370
13
48
1
60
0
100
AcDbSpline
70
4
71
3
72
8
73
4
40
0
40
0
40
0
40
0
40
1
40
1
40
1
40
1
41
1
10
54.8749845771854
20
-20.1567717961468
30
0
41
1
10
54.8822290280935
20
-20.1659433738614
30
0
41
1
10
54.889375686801
20
-20.1752297997427
30
0
41
1
10
54.8964397360486
20
-20.1845784303029
30
0
0
SPLINE
5
20E
100
AcDbEntity
8
1
62
256
6
ByLayer
370
13
48
1
60
0
100
AcDbSpline
70
4
71
3
72
12
73
8
40
0
40
0
40
0
40
0
40
0.447676549458682
40
0.447676549458682
40
0.911865963480885
40
0.911865963480885
40
1
40
1
40
1
40
1
41
1
10
54.8964397360486
20
-20.1845784303029
30
0
41
1
10
54.9088546309063
20
-20.2010084212894
30
0
41
1
10
54.9197349842376
20
-20.2188401430056
30
0
41
1
10
54.9363651532997
20
-20.2572402852765
30
0
41
1
10
54.9420103553973
20
-20.2783360680553
30
0
41
1
10
54.9439641163249
20
-20.3036065135326
30
0
41
1
10
54.9441371532748
20
-20.307701129841
30
0
41
1
10
54.9441651422481
20
-20.3117942298749
30
0
0
SPLINE
5
20F
100
AcDbEntity
8
1
62
256
6
ByLayer
370
13
48
1
60
0
100
AcDbSpline
70
4
71
3
72
14
73
10
40
0
40
0
40
0
40
0
40
0.0334466877100648
40
0.0334466877100648
40
0.147634490130718
40
0.147634490130718
40
0.594775924699149
40
0.594775924699149
40
1
40
1
40
1
40
1
41
1
10
54.4213727254144
20
-20.3012268383671
30
0
41
1
10
54.4272002143374
20
-20.3010081239374
30
0
41
1
10
54.4330293219699
20
-20.3008357728978
30
0
41
1
10
54.4587574615068
20
-20.3002879967074
30
0
41
1
10
54.4786653670228
20
-20.3006118961264
30
0
41
1
10
54.576494145549
20
-20.3022964155664
30
0
41
1
10
54.6544227194233
20
-20.3037473756645
30
0
41
1
10
54.8029558192713
20
-20.3074307938796
30
0
41
1
10
54.873564429311
20
-20.3094777376856
30
0
41
1
10
54.9441651422593
20
-20.311794229874
30
0
0
SPLINE
5
210
100
AcDbEntity
8
1
62
256
6
ByLayer
370
13
48
1
60
0
100
AcDbSpline
70
4
71
3
72
8
73
4
40
0
40
0
40
0
40
0
40
1
40
1
40
1
40
1
41
1
10
53.7587805434612
20
-21.7868512967863
30
0
41
1
10
53.6921381523133
20
-21.7890581522053
30
0
41
1
10
53.6252553140706
20
-21.7882012930468
30
0
41
1
10
53.5587805434612
20
-21.7829979473862
30
0
0
SPLINE
5
211
100
AcDbEntity
8
1
62
256
6
ByLayer
370
13
48
1
60
0
100
AcDbSpline
70
4
71
3
72
8
73
4
40
0
40
0
40
0
40
0
40
1
40
1
40
1
40
1
41
1
10
53.7587805434612
20
-19.7131487032134
30
0
41
1
10
53.6921381523133
20
-19.7109418477945
30
0
41
1
10
53.6252553140706
20
-19.7117987069529
30
0
41
1
10
53.5587805434612
20
-19.7170020526135
30
0
0
SPLINE
5
212
100
AcDbEntity
8
1
62
256
6
ByLayer
370
13
48
1
60
0
100
AcDbSpline
70
4
71
3
72
12
73
8
40
0
40
0
40
0
40
0
40
0.708579779368488
40
0.708579779368488
40
0.932133973697437
40
0.932133973697437
40
1
40
1
40
1
40
1
41
1
10
53.3112677608007
20
-21.1496592775831
30
0
41
1
10
53.4244377716514
20
-21.1851951411317
30
0
41
1
10
53.544655374949
20
-21.2026720353226
30
0
41
1
10
53.7011317076579
20
-21.2016161859682
30
0
41
1
10
53.738967387079
20
-21.199821433827
30
0
41
1
10
53.7882933798859
20
-21.1981016447282
30
0
41
1
10
53.7997803862395
20
-21.197696399662
30
0
41
1
10
53.8112677608007
20
-21.1973018020989
30
0
0
SPLINE
5
213
100
AcDbEntity
8
1
62
256
6
ByLayer
370
13
48
1
60
0
100
AcDbSpline
70
4
71
3
72
12
73
8
40
0
40
0
40
0
40
0
40
0.708579779368488
40
0.708579779368488
40
0.932133973697437
40
0.932133973697437
40
1
40
1
40
1
40
1
41
1
10
53.3112677608007
20
-20.3503407224166
30
0
41
1
10
53.4244377716514
20
-20.3148048588681
30
0
41
1
10
53.544655374949
20
-20.2973279646771
30
0
41
1
10
53.7011317076579
20
-20.2983838140315
30
0
41
1
10
53.738967387079
20
-20.3001785661727
30
0
41
1
10
53.7882933798859
20
-20.3018983552715
30
0
41
1
10
53.7997803862395
20
-20.3023036003377
30
0
41
1
10
53.8112677608007
20
-20.3026981979008
30
0
0
SPLINE
5
214
100
AcDbEntity
8
1
62
256
6
ByLayer
370
13
48
1
60
0
100
AcDbSpline
70
4
71
3
72
10
73
6
40
0
40
0
40
0
40
0
40
0.561541747824135
40
0.561541747824135
40
1
40
1
40
1
40
1
41
1
10
54.9970257409067
20
-20.311794229874
30
0
41
1
10
54.9970257409067
20
-20.2804886444402
30
0
41
1
10
54.9911036869238
20
-20.248806226018
30
0
41
1
10
54.9723010966289
20
-20.1961734591546
30
0
41
1
10
54.9611390447479
20
-20.1739244194541
30
0
41
1
10
54.9480538087948
20
-20.1531167774022
30
0
0
SPLINE
5
215
100
AcDbEntity
8
1
62
256
6
ByLayer
370
13
48
1
60
0
100
AcDbSpline
70
4
71
3
72
10
73
6
40
0
40
0
40
0
40
0
40
0.561541747824135
40
0.561541747824135
40
1
40
1
40
1
40
1
41
1
10
54.9970257409067
20
-21.1882057701257
30
0
41
1
10
54.9970257409067
20
-21.2195113555595
30
0
41
1
10
54.9911036869238
20
-21.2511937739818
30
0
41
1
10
54.9723010966289
20
-21.3038265408452
30
0
41
1
10
54.9611390447479
20
-21.3260755805456
30
0
41
1
10
54.9480538087948
20
-21.3468832225975
30
0
0
SPLINE
5
216
100
AcDbEntity
8
1
62
256
6
ByLayer
370
13
48
1
60
0
100
AcDbSpline
70
4
71
3
72
8
73
4
40
0
40
0
40
0
40
0
40
1
40
1
40
1
40
1
41
1
10
53.2289221872924
20
-20.7499999999999
30
0
41
1
10
53.2563707117952
20
-20.7499999999999
30
0
41
1
10
53.283819236298
20
-20.7499999999999
30
0
41
1
10
53.3112677608007
20
-20.7499999999999
30
0
0
SPLINE
5
217
100
AcDbEntity
8
1
62
256
6
ByLayer
370
13
48
1
60
0
100
AcDbSpline
70
4
71
3
72
8
73
4
40
0
40
0
40
0
40
0
40
1
40
1
40
1
40
1
41
1
10
54.9480538087933
20
-21.346883222597
30
0
41
1
10
54.9407025010737
20
-21.3562350374327
30
0
41
1
10
54.9332526545728
20
-21.3654835131955
30
0
41
1
10
54.9256934551194
20
-21.3745788312224
30
0
0
SPLINE
5
218
100
AcDbEntity
8
1
62
256
6
ByLayer
370
13
48
1
60
0
100
AcDbSpline
70
4
71
3
72
8
73
4
40
0
40
0
40
0
40
0
40
1
40
1
40
1
40
1
41
1
10
54.9480538087933
20
-20.1531167774028
30
0
41
1
10
54.9407025010737
20
-20.143764962567
30
0
41
1
10
54.9332526545728
20
-20.1345164868042
30
0
41
1
10
54.9256934551194
20
-20.1254211687773
30
0
0
SPLINE
5
219
100
AcDbEntity
8
1
62
256
6
ByLayer
370
13
48
1
60
0
100
AcDbSpline
70
4
71
3
72
12
73
8
40
0
40
0
40
0
40
0
40
0.103790018033927
40
0.103790018033927
40
0.424238012362856
40
0.424238012362856
40
1
40
1
40
1
40
1
41
1
10
53.8112677608007
20
-20.3026981979008
30
0
41
1
10
53.8330673288143
20
-20.3032473377125
30
0
41
1
10
53.8548777846228
20
-20.303554890781
30
0
41
1
10
53.9437817615811
20
-20.3047410948215
30
0
41
1
10
54.0108617198121
20
-20.3052477484343
30
0
41
1
10
54.195202236924
20
-20.305498147599
30
0
41
1
10
54.3116787067388
20
-20.3042459582151
30
0
41
1
10
54.4213727254144
20
-20.3012268383671
30
0
0
SPLINE
5
21A
100
AcDbEntity
8
1
62
256
6
ByLayer
370
13
48
1
60
0
100
AcDbSpline
70
4
71
3
72
12
73
8
40
0
40
0
40
0
40
0
40
0.103790018033927
40
0.103790018033927
40
0.424238012362856
40
0.424238012362856
40
1
40
1
40
1
40
1
41
1
10
53.8112677608007
20
-21.1973018020989
30
0
41
1
10
53.8330673288143
20
-21.1967526622872
30
0
41
1
10
53.8548777846228
20
-21.1964451092187
30
0
41
1
10
53.9437817615811
20
-21.1952589051782
30
0
41
1
10
54.0108617198121
20
-21.1947522515654
30
0
41
1
10
54.195202236924
20
-21.1945018524007
30
0
41
1
10
54.3116787067388
20
-21.1957540417846
30
0
41
1
10
54.4213727254144
20
-21.1987731616327
30
0
0
SPLINE
5
21B
100
AcDbEntity
8
1
62
256
6
ByLayer
370
13
48
1
60
0
100
AcDbSpline
70
4
71
3
72
16
73
12
40
0
40
0
40
0
40
0
40
0.0007084940797618
40
0.0007084940797618
40
0.283937687189524
40
0.283937687189524
40
0.567818407080674
40
0.567818407080674
40
0.999291505920235
40
0.999291505920235
40
1
40
1
40
1
40
1
41
1
10
53.2289221872924
20
-20.3699800948355
30
0
41
1
10
53.2289416274202
20
-20.3699754912438
30
0
41
1
10
53.2289610676156
20
-20.3699708879606
30
0
41
1
10
53.2367519568992
20
-20.3681259892345
30
0
41
1
10
53.2445252383641
20
-20.3662817324461
30
0
41
1
10
53.2600911151086
20
-20.3625809445217
30
0
41
1
10
53.2678840471777
20
-20.3607242399538
30
0
41
1
10
53.2875212263735
20
-20.3560358739583
30
0
41
1
10
53.2993665335015
20
-20.3531989964766
30
0
41
1
10
53.311228866792
20
-20.350350063513
30
0
41
1
10
53.3112483137594
20
-20.3503453928111
30
0
41
1
10
53.3112677608007
20
-20.3503407224166
30
0
0
SPLINE
5
21C
100
AcDbEntity
8
1
62
256
6
ByLayer
370
18
48
1
60
0
100
AcDbSpline
70
4
71
3
72
14
73
10
40
0
40
0
40
0
40
0
40
0.208995027535852
40
0.208995027535852
40
0.417850725206471
40
0.417850725206471
40
0.626704295977396
40
0.626704295977396
40
1
40
1
40
1
40
1
41
1
10
52.4981203716814
20
-21.8719194010544
30
0
41
1
10
52.5562077150717
20
-21.8719094335418
30
0
41
1
10
52.6193237323134
20
-21.8725756181498
30
0
41
1
10
52.7529850333382
20
-21.8752341172219
30
0
41
1
10
52.8239830856551
20
-21.8772346607599
30
0
41
1
10
52.9714347232616
20
-21.8824966521996
30
0
41
1
10
53.0483929364638
20
-21.8857760857796
30
0
41
1
10
53.2664550970089
20
-21.8964824525749
30
0
41
1
10
53.4134966889726
20
-21.9052956965705
30
0
41
1
10
53.5587805434602
20
-21.9155049761605
30
0
0
SPLINE
5
21D
100
AcDbEntity
8
1
62
256
6
ByLayer
370
18
48
1
60
0
100
AcDbSpline
70
4
71
3
72
8
73
4
40
0
40
0
40
0
40
0
40
1
40
1
40
1
40
1
41
1
10
53.7587805434612
20
-21.9295592282678
30
0
41
1
10
53.8750917668497
20
-21.9377325645495
30
0
41
1
10
53.991741836253
20
-21.946649929419
30
0
41
1
10
54.1060768987951
20
-21.9561045514632
30
0
0
SPLINE
5
21E
100
AcDbEntity
8
1
62
256
6
ByLayer
370
18
48
1
60
0
100
AcDbSpline
70
4
71
3
72
16
73
12
40
0
40
0
40
0
40
0
40
0.202092460849677
40
0.202092460849677
40
0.40403224558886
40
0.40403224558886
40
0.608298678109016
40
0.608298678109016
40
0.816163444624776
40
0.816163444624776
40
1
40
1
40
1
40
1
41
1
10
54.6892494524131
20
-22.000340856965
30
0
41
1
10
54.7220366161256
20
-22.0023612664333
30
0
41
1
10
54.7555757070522
20
-21.9986640334803
30
0
41
1
10
54.818560543168
20
-21.9805887815207
30
0
41
1
10
54.8488706298537
20
-21.9659792112194
30
0
41
1
10
54.9026257090698
20
-21.9279265336112
30
0
41
1
10
54.9267215742437
20
-21.9038735394803
30
0
41
1
10
54.9656361058238
20
-21.8494298916739
30
0
41
1
10
54.9808214046758
20
-21.8181922551324
30
0
41
1
10
54.9988410260335
20
-21.7569087155778
30
0
41
1
10
55.0030935129214
20
-21.7264797171951
30
0
41
1
10
55.0028388286042
20
-21.6963695412534
30
0
0
SPLINE
5
21F
100
AcDbEntity
8
1
62
256
6
ByLayer
370
18
48
1
60
0
100
AcDbSpline
70
4
71
3
72
16
73
12
40
0
40
0
40
0
40
0
40
0.21060160365595
40
0.21060160365595
40
0.421213120944743
40
0.421213120944743
40
0.631488126466471
40
0.631488126466471
40
0.839116239426997
40
0.839116239426997
40
1
40
1
40
1
40
1
41
1
10
55.0028388286042
20
-19.8036304587463
30
0
41
1
10
55.0031296556105
20
-19.7692472959896
30
0
41
1
10
54.997507025955
20
-19.7343919122639
30
0
41
1
10
54.9754093689247
20
-19.6695017924636
30
0
41
1
10
54.9586256018935
20
-19.6385652374023
30
0
41
1
10
54.9163383595428
20
-19.5849470211887
30
0
41
1
10
54.8902502953765
20
-19.5615032302618
30
0
41
1
10
54.8328186585456
20
-19.5256503283551
30
0
41
1
10
54.8007334811871
20
-19.5126097850541
30
0
41
1
10
54.74215887377
20
-19.5000537437172
30
0
41
1
10
54.7154914357367
20
-19.4980420604459
30
0
41
1
10
54.6892494524131
20
-19.4996591430348
30
0
0
SPLINE
5
220
100
AcDbEntity
8
1
62
256
6
ByLayer
370
18
48
1
60
0
100
AcDbSpline
70
4
71
3
72
14
73
10
40
0
40
0
40
0
40
0
40
0.209562190252725
40
0.209562190252725
40
0.419048660097218
40
0.419048660097218
40
0.628042586344193
40
0.628042586344193
40
1
40
1
40
1
40
1
41
1
10
53.5587805434612
20
-19.5844950238386
30
0
41
1
10
53.4766126081606
20
-19.5902690682277
30
0
41
1
10
53.394096633241
20
-19.5955886597333
30
0
41
1
10
53.2317767669575
20
-19.6050952406519
30
0
41
1
10
53.1514176992139
20
-19.609315058465
30
0
41
1
10
52.99577107806
20
-19.6165038262704
30
0
41
1
10
52.9199400027966
20
-19.6195002423079
30
0
41
1
10
52.719734627046
20
-19.6259742057591
30
0
41
1
10
52.6007351939601
20
-19.628098207163
30
0
41
1
10
52.4981203716825
20
-19.6280805989463
30
0
0
SPLINE
5
221
100
AcDbEntity
8
1
62
256
6
ByLayer
370
18
48
1
60
0
100
AcDbSpline
70
4
71
3
72
8
73
4
40
0
40
0
40
0
40
0
40
1
40
1
40
1
40
1
41
1
10
54.1060768987951
20
-19.5438954485365
30
0
41
1
10
53.991741836253
20
-19.5533500705808
30
0
41
1
10
53.8750917668497
20
-19.5622674354502
30
0
41
1
10
53.7587805434612
20
-19.5704407717319
30
0
0
LINE
5
70
100
AcDbEntity
8
1
62
256
6
ByLayer
370
13
48
1
60
0
100
AcDbLine
10
0.3
20
16
30
0
11
0
21
15.7
31
0
39
0
210
0
220
0
230
1
0
LINE
5
72
100
AcDbEntity
8
1
62
256
6
ByLayer
370
13
48
1
60
0
100
AcDbLine
10
0
20
-15.7
30
0
11
0.3
21
-16
31
0
39
0
210
0
220
0
230
1
0
LINE
5
73
100
AcDbEntity
8
1
62
256
6
ByLayer
370
13
48
1
60
0
100
AcDbLine
10
16.438319
20
-16.889417
30
0
11
17.740708
21
-21.75
31
0
39
0
210
0
220
0
230
1
0
LINE
5
74
100
AcDbEntity
8
1
62
256
6
ByLayer
370
13
48
1
60
0
100
AcDbLine
10
0.3
20
-16
30
0
11
15.279208
21
-16
31
0
39
0
210
0
220
0
230
1
0
LINE
5
75
100
AcDbEntity
8
1
62
256
6
ByLayer
370
13
48
1
60
0
100
AcDbLine
10
15.031907
20
16
30
0
11
0.3
21
16
31
0
39
0
210
0
220
0
230
1
0
LINE
5
76
100
AcDbEntity
8
80
62
256
6
ByLayer
370
18
48
1
60
0
100
AcDbLine
10
0
20
0
30
0
11
-5
21
0
31
0
39
0
210
0
220
0
230
1
0
LINE
5
77
100
AcDbEntity
8
81
62
256
6
ByLayer
370
18
48
1
60
0
100
AcDbLine
10
55
20
-22
30
0
11
60
21
-22
31
0
39
0
210
0
220
0
230
1
0
LINE
5
78
100
AcDbEntity
8
SK1
62
256
6
ByLayer
370
13
48
1
60
0
100
AcDbLine
10
-1.29504
20
10.827955
30
0
11
-1.29504
21
10.830291
31
0
39
0
210
0
220
0
230
1
0
LINE
5
7A
100
AcDbEntity
8
SK1
62
256
6
ByLayer
370
13
48
1
60
0
100
AcDbLine
10
-1.315435
20
-3.312046
30
0
11
-1.315435
21
3.312047
31
0
39
0
210
0
220
0
230
1
0
LINE
5
7B
100
AcDbEntity
8
SK1
62
256
6
ByLayer
370
13
48
1
60
0
100
AcDbLine
10
-1.29504
20
-10.830291
30
0
11
-1.29504
21
-10.827955
31
0
39
0
210
0
220
0
230
1
0
LINE
5
7C
100
AcDbEntity
8
1
62
256
6
ByLayer
370
13
48
1
60
0
100
AcDbLine
10
41.290738
20
-19.75
30
0
11
41.290738
21
-21.75
31
0
39
0
210
0
220
0
230
1
0
LINE
5
7D
100
AcDbEntity
8
1
62
256
6
ByLayer
370
13
48
1
60
0
100
AcDbLine
10
18.022575
20
-21.75
30
0
11
18.917868
21
-21.75
31
0
39
0
210
0
220
0
230
1
0
LINE
5
7E
100
AcDbEntity
8
1
62
256
6
ByLayer
370
13
48
1
60
0
100
AcDbLine
10
7.076795
20
4.755463
30
0
11
7.076795
21
15.276962
31
0
39
0
210
0
220
0
230
1
0
LINE
5
7F
100
AcDbEntity
8
1
62
256
6
ByLayer
370
13
48
1
60
0
100
AcDbLine
10
16.438319
20
-14.975204
30
0
11
16.438319
21
-16.889417
31
0
39
0
210
0
220
0
230
1
0
LINE
5
80
100
AcDbEntity
8
1
62
256
6
ByLayer
370
13
48
1
60
0
100
AcDbLine
10
15.279208
20
-16
30
0
11
15.279208
21
-12.877611
31
0
39
0
210
0
220
0
230
1
0
LINE
5
81
100
AcDbEntity
8
1
62
256
6
ByLayer
370
13
48
1
60
0
100
AcDbLine
10
50.415611
20
-21.741569
30
0
11
50.415611
21
-21.284517
31
0
39
0
210
0
220
0
230
1
0
LINE
5
82
100
AcDbEntity
8
1
62
256
6
ByLayer
370
13
48
1
60
0
100
AcDbLine
10
4.663397
20
-15.175938
30
0
11
4.663397
21
-5.068619
31
0
39
0
210
0
220
0
230
1
0
LINE
5
83
100
AcDbEntity
8
1
62
256
6
ByLayer
370
13
48
1
60
0
100
AcDbLine
10
25.579287
20
-21.75
30
0
11
19.045149
21
-21.75
31
0
39
0
210
0
220
0
230
1
0
LINE
5
84
100
AcDbEntity
8
1
62
256
6
ByLayer
370
13
48
1
60
0
100
AcDbLine
10
4.663397
20
5.068619
30
0
11
4.663397
21
15.175938
31
0
39
0
210
0
220
0
230
1
0
LINE
5
85
100
AcDbEntity
8
1
62
256
6
ByLayer
370
13
48
1
60
0
100
AcDbLine
10
28.4
20
-18.15
30
0
11
28.4
21
0
31
0
39
0
210
0
220
0
230
1
0
LINE
5
86
100
AcDbEntity
8
1
62
256
6
ByLayer
370
13
48
1
60
0
100
AcDbLine
10
46.290738
20
-21.75
30
0
11
50.413022
21
-21.75
31
0
39
0
210
0
220
0
230
1
0
LINE
5
87
100
AcDbEntity
8
1
62
256
6
ByLayer
370
13
48
1
60
0
100
AcDbLine
10
0
20
15.7
30
0
11
0
21
-15.7
31
0
39
0
210
0
220
0
230
1
0
LINE
5
88
100
AcDbEntity
8
1
62
256
6
ByLayer
370
13
48
1
60
0
100
AcDbLine
10
33.6
20
-19.75
30
0
11
30
21
-19.75
31
0
39
0
210
0
220
0
230
1
0
LINE
5
89
100
AcDbEntity
8
1
62
256
6
ByLayer
370
13
48
1
60
0
100
AcDbLine
10
41.290738
20
-21.75
30
0
11
33.6
21
-21.75
31
0
39
0
210
0
220
0
230
1
0
LINE
5
8A
100
AcDbEntity
8
1
62
256
6
ByLayer
370
13
48
1
60
0
100
AcDbLine
10
41.290738
20
-21.75
30
0
11
46.290738
21
-21.75
31
0
39
0
210
0
220
0
230
1
0
LINE
5
8B
100
AcDbEntity
8
1
62
256
6
ByLayer
370
13
48
1
60
0
100
AcDbLine
10
50.415611
20
-21.741569
30
0
11
50.413022
21
-21.75
31
0
39
0
210
0
220
0
230
1
0
LINE
5
8C
100
AcDbEntity
8
1
62
256
6
ByLayer
370
13
48
1
60
0
100
AcDbLine
10
46.290738
20
-19.75
30
0
11
50.413022
21
-19.75
31
0
39
0
210
0
220
0
230
1
0
LINE
5
8D
100
AcDbEntity
8
1
62
256
6
ByLayer
370
13
48
1
60
0
100
AcDbLine
10
4.923205
20
-15.276962
30
0
11
4.923205
21
-4.755463
31
0
39
0
210
0
220
0
230
1
0
LINE
5
8E
100
AcDbEntity
8
1
62
256
6
ByLayer
370
13
48
1
60
0
100
AcDbLine
10
28.4
20
0
30
0
11
26.548567
21
10.5
31
0
39
0
210
0
220
0
230
1
0
LINE
5
8F
100
AcDbEntity
8
1
62
256
6
ByLayer
370
13
48
1
60
0
100
AcDbLine
10
7.336603
20
5.068619
30
0
11
7.336603
21
15.175938
31
0
39
0
210
0
220
0
230
1
0
LINE
5
90
100
AcDbEntity
8
1
62
256
6
ByLayer
370
13
48
1
60
0
100
AcDbLine
10
0.3
20
16
30
0
11
0.3
21
-16
31
0
39
0
210
0
220
0
230
1
0
LINE
5
91
100
AcDbEntity
8
1
62
256
6
ByLayer
370
13
48
1
60
0
100
AcDbLine
10
15.045302
20
14.465094
30
0
11
15.031907
21
16
31
0
39
0
210
0
220
0
230
1
0
LINE
5
92
100
AcDbEntity
8
1
62
256
6
ByLayer
370
13
48
1
60
0
100
AcDbLine
10
46.290738
20
-21.75
30
0
11
46.290738
21
-19.75
31
0
39
0
210
0
220
0
230
1
0
LINE
5
93
100
AcDbEntity
8
1
62
256
6
ByLayer
370
13
48
1
60
0
100
AcDbLine
10
4.923205
20
15.276962
30
0
11
7.076795
21
15.276962
31
0
39
0
210
0
220
0
230
1
0
LINE
5
94
100
AcDbEntity
8
1
62
256
6
ByLayer
370
13
48
1
60
0
100
AcDbLine
10
4.923205
20
-4.755463
30
0
11
7.076795
21
-4.755463
31
0
39
0
210
0
220
0
230
1
0
LINE
5
95
100
AcDbEntity
8
1
62
256
6
ByLayer
370
13
48
1
60
0
100
AcDbLine
10
25.579287
20
-19.75
30
0
11
30
21
-19.75
31
0
39
0
210
0
220
0
230
1
0
LINE
5
96
100
AcDbEntity
8
1
62
256
6
ByLayer
370
13
48
1
60
0
100
AcDbLine
10
15.045302
20
11.796892
30
0
11
15.045302
21
-11.796892
31
0
39
0
210
0
220
0
230
1
0
LINE
5
97
100
AcDbEntity
8
1
62
256
6
ByLayer
370
13
48
1
60
0
100
AcDbLine
10
41.290738
20
-19.75
30
0
11
46.290738
21
-19.75
31
0
39
0
210
0
220
0
230
1
0
LINE
5
98
100
AcDbEntity
8
1
62
256
6
ByLayer
370
13
48
1
60
0
100
AcDbLine
10
7.076795
20
-15.276962
30
0
11
4.923205
21
-15.276962
31
0
39
0
210
0
220
0
230
1
0
LINE
5
99
100
AcDbEntity
8
1
62
256
6
ByLayer
370
13
48
1
60
0
100
AcDbLine
10
25.579287
20
-19.75
30
0
11
25.579287
21
-21.75
31
0
39
0
210
0
220
0
230
1
0
LINE
5
9A
100
AcDbEntity
8
1
62
256
6
ByLayer
370
13
48
1
60
0
100
AcDbLine
10
7.336603
20
-15.175938
30
0
11
7.336603
21
-5.068619
31
0
39
0
210
0
220
0
230
1
0
LINE
5
9B
100
AcDbEntity
8
1
62
256
6
ByLayer
370
13
48
1
60
0
100
AcDbLine
10
33.6
20
-21.75
30
0
11
25.579287
21
-21.75
31
0
39
0
210
0
220
0
230
1
0
LINE
5
9C
100
AcDbEntity
8
1
62
256
6
ByLayer
370
13
48
1
60
0
100
AcDbLine
10
7.076795
20
4.755463
30
0
11
4.923205
21
4.755463
31
0
39
0
210
0
220
0
230
1
0
LINE
5
9D
100
AcDbEntity
8
1
62
256
6
ByLayer
370
13
48
1
60
0
100
AcDbLine
10
7.076795
20
-15.276962
30
0
11
7.076795
21
-4.755463
31
0
39
0
210
0
220
0
230
1
0
LINE
5
9E
100
AcDbEntity
8
1
62
256
6
ByLayer
370
13
48
1
60
0
100
AcDbLine
10
19.045149
20
-21.75
30
0
11
19.045149
21
10.5
31
0
39
0
210
0
220
0
230
1
0
LINE
5
9F
100
AcDbEntity
8
1
62
256
6
ByLayer
370
13
48
1
60
0
100
AcDbLine
10
50.415611
20
-20.215483
30
0
11
50.415611
21
-19.758431
31
0
39
0
210
0
220
0
230
1
0
LINE
5
A0
100
AcDbEntity
8
1
62
256
6
ByLayer
370
13
48
1
60
0
100
AcDbLine
10
18.917868
20
-21.75
30
0
11
19.045149
21
-21.75
31
0
39
0
210
0
220
0
230
1
0
LINE
5
A1
100
AcDbEntity
8
1
62
256
6
ByLayer
370
13
48
1
60
0
100
AcDbLine
10
50.413022
20
-19.75
30
0
11
50.415611
21
-19.758431
31
0
39
0
210
0
220
0
230
1
0
LINE
5
A2
100
AcDbEntity
8
1
62
256
6
ByLayer
370
13
48
1
60
0
100
AcDbLine
10
4.923205
20
4.755463
30
0
11
4.923205
21
15.276962
31
0
39
0
210
0
220
0
230
1
0
LINE
5
A3
100
AcDbEntity
8
1
62
256
6
ByLayer
370
13
48
1
60
0
100
AcDbLine
10
33.6
20
-19.75
30
0
11
41.290738
21
-19.75
31
0
39
0
210
0
220
0
230
1
0
LINE
5
A4
100
AcDbEntity
8
1
62
256
6
ByLayer
370
13
48
1
60
0
100
AcDbLine
10
33.6
20
-21.75
30
0
11
33.6
21
-19.75
31
0
39
0
210
0
220
0
230
1
0
LINE
5
A5
100
AcDbEntity
8
1
62
256
6
ByLayer
370
13
48
1
60
0
100
AcDbLine
10
19.045149
20
10.5
30
0
11
26.548567
21
10.5
31
0
39
0
210
0
220
0
230
1
0
LINE
5
A6
100
AcDbEntity
8
1
62
256
6
ByLayer
370
13
48
1
60
0
100
AcDbLine
10
51.711238
20
-21.75
30
0
11
51.711238
21
-21.522114
31
0
39
0
210
0
220
0
230
1
0
LINE
5
A7
100
AcDbEntity
8
1
62
256
6
ByLayer
370
13
48
1
60
0
100
AcDbLine
10
51.711238
20
-21.522114
30
0
11
52.037348
21
-21.538171
31
0
39
0
210
0
220
0
230
1
0
LINE
5
A8
100
AcDbEntity
8
1
62
256
6
ByLayer
370
13
48
1
60
0
100
AcDbLine
10
52.230259
20
-21.86464
30
0
11
52.218821
21
-21.701069
31
0
39
0
210
0
220
0
230
1
0
LINE
5
A9
100
AcDbEntity
8
1
62
256
6
ByLayer
370
13
48
1
60
0
100
AcDbLine
10
52.230259
20
-19.63536
30
0
11
52.218821
21
-19.798931
31
0
39
0
210
0
220
0
230
1
0
LINE
5
AA
100
AcDbEntity
8
1
62
256
6
ByLayer
370
13
48
1
60
0
100
AcDbLine
10
52.037348
20
-19.961829
30
0
11
51.711238
21
-19.977886
31
0
39
0
210
0
220
0
230
1
0
LINE
5
AB
100
AcDbEntity
8
1
62
256
6
ByLayer
370
13
48
1
60
0
100
AcDbLine
10
51.711238
20
-19.977886
30
0
11
51.711238
21
-19.75
31
0
39
0
210
0
220
0
230
1
0
LINE
5
AC
100
AcDbEntity
8
1
62
256
6
ByLayer
370
13
48
1
60
0
100
AcDbLine
10
52.49812
20
-21.683433
30
0
11
52.49812
21
-21.871919
31
0
39
0
210
0
220
0
230
1
0
LINE
5
AD
100
AcDbEntity
8
1
62
256
6
ByLayer
370
13
48
1
60
0
100
AcDbLine
10
53.558781
20
-21.782998
30
0
11
53.558781
21
-21.915505
31
0
39
0
210
0
220
0
230
1
0
LINE
5
AE
100
AcDbEntity
8
1
62
256
6
ByLayer
370
13
48
1
60
0
100
AcDbLine
10
52.49812
20
-19.816567
30
0
11
52.49812
21
-19.628081
31
0
39
0
210
0
220
0
230
1
0
LINE
5
AF
100
AcDbEntity
8
1
62
256
6
ByLayer
370
13
48
1
60
0
100
AcDbLine
10
53.558781
20
-19.717002
30
0
11
53.558781
21
-19.584495
31
0
39
0
210
0
220
0
230
1
0
LINE
5
B0
100
AcDbEntity
8
1
62
256
6
ByLayer
370
13
48
1
60
0
100
AcDbLine
10
52.007425
20
-21.257868
30
0
11
51.547776
21
-21.235236
31
0
39
0
210
0
220
0
230
1
0
LINE
5
B1
100
AcDbEntity
8
1
62
256
6
ByLayer
370
13
48
1
60
0
100
AcDbLine
10
51.547776
20
-20.264764
30
0
11
52.007425
21
-20.242132
31
0
39
0
210
0
220
0
230
1
0
LINE
5
B2
100
AcDbEntity
8
1
62
256
6
ByLayer
370
13
48
1
60
0
100
AcDbLine
10
52.037348
20
-21.538171
30
0
11
52.184585
21
-21.382118
31
0
39
0
210
0
220
0
230
1
0
LINE
5
B3
100
AcDbEntity
8
1
62
256
6
ByLayer
370
13
48
1
60
0
100
AcDbLine
10
52.184585
20
-20.117882
30
0
11
52.037348
21
-19.961829
31
0
39
0
210
0
220
0
230
1
0
LINE
5
B4
100
AcDbEntity
8
1
62
256
6
ByLayer
370
13
48
1
60
0
100
AcDbLine
10
52.395173
20
-19.814267
30
0
11
52.408193
21
-19.628065
31
0
39
0
210
0
220
0
230
1
0
LINE
5
B5
100
AcDbEntity
8
1
62
256
6
ByLayer
370
13
48
1
60
0
100
AcDbLine
10
52.395173
20
-21.685733
30
0
11
52.408193
21
-21.871935
31
0
39
0
210
0
220
0
230
1
0
LINE
5
B6
100
AcDbEntity
8
1
62
256
6
ByLayer
370
13
48
1
60
0
100
AcDbLine
10
52.059386
20
-20.286408
30
0
11
51.436893
21
-20.286408
31
0
39
0
210
0
220
0
230
1
0
LINE
5
B7
100
AcDbEntity
8
1
62
256
6
ByLayer
370
13
48
1
60
0
100
AcDbLine
10
52.059386
20
-21.213592
30
0
11
51.436893
21
-21.213592
31
0
39
0
210
0
220
0
230
1
0
LINE
5
B8
100
AcDbEntity
8
1
62
256
6
ByLayer
370
13
48
1
60
0
100
AcDbLine
10
51.642833
20
-19.977886
30
0
11
51.711238
21
-19.977886
31
0
39
0
210
0
220
0
230
1
0
LINE
5
B9
100
AcDbEntity
8
1
62
256
6
ByLayer
370
13
48
1
60
0
100
AcDbLine
10
51.642833
20
-21.522114
30
0
11
51.711238
21
-21.522114
31
0
39
0
210
0
220
0
230
1
0
LINE
5
BA
100
AcDbEntity
8
1
62
256
6
ByLayer
370
13
48
1
60
0
100
AcDbLine
10
51.642833
20
-19.75
30
0
11
51.642833
21
-19.977886
31
0
39
0
210
0
220
0
230
1
0
LINE
5
BB
100
AcDbEntity
8
1
62
256
6
ByLayer
370
13
48
1
60
0
100
AcDbLine
10
51.642833
20
-21.522114
30
0
11
51.642833
21
-21.75
31
0
39
0
210
0
220
0
230
1
0
LINE
5
BC
100
AcDbEntity
8
1
62
256
6
ByLayer
370
13
48
1
60
0
100
AcDbLine
10
51.470241
20
-20.079328
30
0
11
51.359359
21
-20.100971
31
0
39
0
210
0
220
0
230
1
0
LINE
5
BD
100
AcDbEntity
8
1
62
256
6
ByLayer
370
13
48
1
60
0
100
AcDbLine
10
50.717283
20
-19.866083
30
0
11
50.717283
21
-19.75
31
0
39
0
210
0
220
0
230
1
0
LINE
5
BE
100
AcDbEntity
8
1
62
256
6
ByLayer
370
13
48
1
60
0
100
AcDbLine
10
50.717283
20
-21.75
30
0
11
50.717283
21
-21.633917
31
0
39
0
210
0
220
0
230
1
0
LINE
5
BF
100
AcDbEntity
8
1
62
256
6
ByLayer
370
13
48
1
60
0
100
AcDbLine
10
51.359359
20
-21.399029
30
0
11
51.470241
21
-21.420672
31
0
39
0
210
0
220
0
230
1
0
LINE
5
C0
100
AcDbEntity
8
1
62
256
6
ByLayer
370
13
48
1
60
0
100
AcDbLine
10
51.547776
20
-21.235236
30
0
11
51.436893
21
-21.213592
31
0
39
0
210
0
220
0
230
1
0
LINE
5
C1
100
AcDbEntity
8
1
62
256
6
ByLayer
370
13
48
1
60
0
100
AcDbLine
10
51.436893
20
-20.286408
30
0
11
51.547776
21
-20.264764
31
0
39
0
210
0
220
0
230
1
0
LINE
5
C2
100
AcDbEntity
8
1
62
256
6
ByLayer
370
13
48
1
60
0
100
AcDbLine
10
50.63041
20
-19.75
30
0
11
50.63041
21
-19.874017
31
0
39
0
210
0
220
0
230
1
0
LINE
5
C3
100
AcDbEntity
8
1
62
256
6
ByLayer
370
13
48
1
60
0
100
AcDbLine
10
50.63041
20
-21.625983
30
0
11
50.63041
21
-21.75
31
0
39
0
210
0
220
0
230
1
0
LINE
5
C4
100
AcDbEntity
8
1
62
256
6
ByLayer
370
13
48
1
60
0
100
AcDbLine
10
50.46942
20
-20.382002
30
0
11
50.788749
21
-20.382002
31
0
39
0
210
0
220
0
230
1
0
LINE
5
C5
100
AcDbEntity
8
1
62
256
6
ByLayer
370
13
48
1
60
0
100
AcDbLine
10
50.415612
20
-19.931494
30
0
11
50.46942
21
-20.382002
31
0
39
0
210
0
220
0
230
1
0
LINE
5
C6
100
AcDbEntity
8
1
62
256
6
ByLayer
370
13
48
1
60
0
100
AcDbLine
10
50.634752
20
-19.924016
30
0
11
50.414718
21
-19.924016
31
0
39
0
210
0
220
0
230
1
0
LINE
5
C7
100
AcDbEntity
8
1
62
256
6
ByLayer
370
13
48
1
60
0
100
AcDbLine
10
50.634752
20
-21.575984
30
0
11
50.414718
21
-21.575984
31
0
39
0
210
0
220
0
230
1
0
LINE
5
C8
100
AcDbEntity
8
1
62
256
6
ByLayer
370
13
48
1
60
0
100
AcDbLine
10
50.415612
20
-21.568506
30
0
11
50.46942
21
-21.117998
31
0
39
0
210
0
220
0
230
1
0
LINE
5
C9
100
AcDbEntity
8
1
62
256
6
ByLayer
370
13
48
1
60
0
100
AcDbLine
10
50.46942
20
-21.117998
30
0
11
50.788749
21
-21.117998
31
0
39
0
210
0
220
0
230
1
0
LINE
5
CA
100
AcDbEntity
8
1
62
256
6
ByLayer
370
13
48
1
60
0
100
AcDbLine
10
55.000117
20
-20.125421
30
0
11
54.925693
21
-20.125421
31
0
39
0
210
0
220
0
230
1
0
LINE
5
CB
100
AcDbEntity
8
1
62
256
6
ByLayer
370
13
48
1
60
0
100
AcDbLine
10
54.535516
20
-19.81665
30
0
11
54.535516
21
-19.509133
31
0
39
0
210
0
220
0
230
1
0
LINE
5
CC
100
AcDbEntity
8
1
62
256
6
ByLayer
370
13
48
1
60
0
100
AcDbLine
10
54.535516
20
-21.68335
30
0
11
54.535516
21
-21.990867
31
0
39
0
210
0
220
0
230
1
0
LINE
5
CD
100
AcDbEntity
8
1
62
256
6
ByLayer
370
13
48
1
60
0
100
AcDbLine
10
55.000117
20
-21.374579
30
0
11
54.925693
21
-21.374579
31
0
39
0
210
0
220
0
230
1
0
LINE
5
CE
100
AcDbEntity
8
1
62
256
6
ByLayer
370
13
48
1
60
0
100
AcDbLine
10
53.228922
20
-20.36998
30
0
11
53.228922
21
-20.75
31
0
39
0
210
0
220
0
230
1
0
LINE
5
CF
100
AcDbEntity
8
1
62
256
6
ByLayer
370
13
48
1
60
0
100
AcDbLine
10
53.228922
20
-21.13002
30
0
11
53.228922
21
-20.75
31
0
39
0
210
0
220
0
230
1
0
LINE
5
D0
100
AcDbEntity
8
1
62
256
6
ByLayer
370
13
48
1
60
0
100
AcDbLine
10
54.46476
20
-21.985765
30
0
11
54.46476
21
-21.735976
31
0
39
0
210
0
220
0
230
1
0
LINE
5
D1
100
AcDbEntity
8
1
62
256
6
ByLayer
370
13
48
1
60
0
100
AcDbLine
10
50.41185
20
-21.625438
30
0
11
50.628277
21
-21.625438
31
0
39
0
210
0
220
0
230
1
0
LINE
5
D2
100
AcDbEntity
8
1
62
256
6
ByLayer
370
13
48
1
60
0
100
AcDbLine
10
54.106077
20
-21.78396
30
0
11
54.106077
21
-21.956105
31
0
39
0
210
0
220
0
230
1
0
LINE
5
D3
100
AcDbEntity
8
1
62
256
6
ByLayer
370
13
48
1
60
0
100
AcDbLine
10
50.41185
20
-19.874562
30
0
11
50.628277
21
-19.874562
31
0
39
0
210
0
220
0
230
1
0
LINE
5
D4
100
AcDbEntity
8
1
62
256
6
ByLayer
370
13
48
1
60
0
100
AcDbLine
10
54.46476
20
-19.514235
30
0
11
54.46476
21
-19.764024
31
0
39
0
210
0
220
0
230
1
0
LINE
5
D5
100
AcDbEntity
8
1
62
256
6
ByLayer
370
13
48
1
60
0
100
AcDbLine
10
54.106077
20
-19.71604
30
0
11
54.106077
21
-19.543895
31
0
39
0
210
0
220
0
230
1
0
LINE
5
D6
100
AcDbEntity
8
1
62
256
6
ByLayer
370
13
48
1
60
0
100
AcDbLine
10
50.506333
20
-20.498976
30
0
11
50.876987
21
-20.498976
31
0
39
0
210
0
220
0
230
1
0
LINE
5
D7
100
AcDbEntity
8
1
62
256
6
ByLayer
370
13
48
1
60
0
100
AcDbLine
10
50.506333
20
-21.001024
30
0
11
50.876987
21
-21.001024
31
0
39
0
210
0
220
0
230
1
0
LINE
5
D8
100
AcDbEntity
8
1
62
256
6
ByLayer
370
13
48
1
60
0
100
AcDbLine
10
53.758781
20
-19.713149
30
0
11
53.758781
21
-19.570441
31
0
39
0
210
0
220
0
230
1
0
LINE
5
D9
100
AcDbEntity
8
1
62
256
6
ByLayer
370
13
48
1
60
0
100
AcDbLine
10
53.758781
20
-21.786851
30
0
11
53.758781
21
-21.929559
31
0
39
0
210
0
220
0
230
1
0
LINE
5
DA
100
AcDbEntity
8
1
62
256
6
ByLayer
370
13
48
1
60
0
100
AcDbLine
10
50.54904
20
-20.549244
30
0
11
50.999504
21
-20.549244
31
0
39
0
210
0
220
0
230
1
0
LINE
5
DB
100
AcDbEntity
8
1
62
256
6
ByLayer
370
13
48
1
60
0
100
AcDbLine
10
50.54904
20
-20.950756
30
0
11
50.999504
21
-20.950756
31
0
39
0
210
0
220
0
230
1
0
LINE
5
DC
100
AcDbEntity
8
1
62
256
6
ByLayer
370
13
48
1
60
0
100
AcDbLine
10
50.552254
20
-20.947335
30
0
11
51.008222
21
-20.947335
31
0
39
0
210
0
220
0
230
1
0
LINE
5
DD
100
AcDbEntity
8
1
62
256
6
ByLayer
370
13
48
1
60
0
100
AcDbLine
10
53.821706
20
-21.501182
30
0
11
53.811268
21
-21.197302
31
0
39
0
210
0
220
0
230
1
0
LINE
5
DE
100
AcDbEntity
8
1
62
256
6
ByLayer
370
13
48
1
60
0
100
AcDbLine
10
50.552254
20
-20.552665
30
0
11
51.008222
21
-20.552665
31
0
39
0
210
0
220
0
230
1
0
LINE
5
DF
100
AcDbEntity
8
1
62
256
6
ByLayer
370
13
48
1
60
0
100
AcDbLine
10
54.948054
20
-20.153117
30
0
11
55
21
-20.153117
31
0
39
0
210
0
220
0
230
1
0
LINE
5
E0
100
AcDbEntity
8
1
62
256
6
ByLayer
370
13
48
1
60
0
100
AcDbLine
10
54.948054
20
-21.346883
30
0
11
55
21
-21.346883
31
0
39
0
210
0
220
0
230
1
0
LINE
5
E1
100
AcDbEntity
8
1
62
256
6
ByLayer
370
13
48
1
60
0
100
AcDbLine
10
53.311268
20
-20.350341
30
0
11
53.215133
21
-20.044182
31
0
39
0
210
0
220
0
230
1
0
LINE
5
E2
100
AcDbEntity
8
1
62
256
6
ByLayer
370
13
48
1
60
0
100
AcDbLine
10
54.997026
20
-21.188206
30
0
11
54.997026
21
-20.311794
31
0
39
0
210
0
220
0
230
1
0
LINE
5
E3
100
AcDbEntity
8
1
62
256
6
ByLayer
370
13
48
1
60
0
100
AcDbLine
10
53.311268
20
-21.149659
30
0
11
53.215133
21
-21.455818
31
0
39
0
210
0
220
0
230
1
0
LINE
5
E4
100
AcDbEntity
8
1
62
256
6
ByLayer
370
13
48
1
60
0
100
AcDbLine
10
54.944165
20
-20.311794
30
0
11
54.997026
21
-20.311794
31
0
39
0
210
0
220
0
230
1
0
LINE
5
E5
100
AcDbEntity
8
1
62
256
6
ByLayer
370
13
48
1
60
0
100
AcDbLine
10
53.821706
20
-19.998818
30
0
11
53.811268
21
-20.302698
31
0
39
0
210
0
220
0
230
1
0
LINE
5
E6
100
AcDbEntity
8
1
62
256
6
ByLayer
370
13
48
1
60
0
100
AcDbLine
10
54.944165
20
-21.188206
30
0
11
54.997026
21
-21.188206
31
0
39
0
210
0
220
0
230
1
0
LINE
5
E7
100
AcDbEntity
8
1
62
256
6
ByLayer
370
13
48
1
60
0
100
AcDbLine
10
50.398005
20
-21.117998
30
0
11
50.46942
21
-21.117998
31
0
39
0
210
0
220
0
230
1
0
LINE
5
E8
100
AcDbEntity
8
1
62
256
6
ByLayer
370
13
48
1
60
0
100
AcDbLine
10
50.398005
20
-20.382002
30
0
11
50.46942
21
-20.382002
31
0
39
0
210
0
220
0
230
1
0
LINE
5
E9
100
AcDbEntity
8
1
62
256
6
ByLayer
370
13
48
1
60
0
100
AcDbLine
10
54.944165
20
-20.311794
30
0
11
54.944165
21
-21.188206
31
0
39
0
210
0
220
0
230
1
0
LINE
5
EA
100
AcDbEntity
8
1
62
256
6
ByLayer
370
13
48
1
60
0
100
AcDbLine
10
50.389954
20
-20.552665
30
0
11
50.552254
21
-20.552665
31
0
39
0
210
0
220
0
230
1
0
LINE
5
EB
100
AcDbEntity
8
1
62
256
6
ByLayer
370
13
48
1
60
0
100
AcDbLine
10
50.54904
20
-20.950756
30
0
11
50.552254
21
-20.947335
31
0
39
0
210
0
220
0
230
1
0
LINE
5
EC
100
AcDbEntity
8
1
62
256
6
ByLayer
370
13
48
1
60
0
100
AcDbLine
10
50.391842
20
-21.001024
30
0
11
50.506333
21
-21.001024
31
0
39
0
210
0
220
0
230
1
0
LINE
5
ED
100
AcDbEntity
8
1
62
256
6
ByLayer
370
13
48
1
60
0
100
AcDbLine
10
50.54904
20
-20.549244
30
0
11
50.552254
21
-20.552665
31
0
39
0
210
0
220
0
230
1
0
LINE
5
EE
100
AcDbEntity
8
1
62
256
6
ByLayer
370
13
48
1
60
0
100
AcDbLine
10
54.421373
20
-20.301227
30
0
11
54.421373
21
-21.198773
31
0
39
0
210
0
220
0
230
1
0
LINE
5
EF
100
AcDbEntity
8
1
62
256
6
ByLayer
370
13
48
1
60
0
100
AcDbLine
10
53.811268
20
-20.302698
30
0
11
53.811268
21
-21.197302
31
0
39
0
210
0
220
0
230
1
0
LINE
5
F0
100
AcDbEntity
8
1
62
256
6
ByLayer
370
13
48
1
60
0
100
AcDbLine
10
50.391842
20
-20.498976
30
0
11
50.506333
21
-20.498976
31
0
39
0
210
0
220
0
230
1
0
LINE
5
F1
100
AcDbEntity
8
1
62
256
6
ByLayer
370
13
48
1
60
0
100
AcDbLine
10
50.390074
20
-20.950756
30
0
11
50.54904
21
-20.950756
31
0
39
0
210
0
220
0
230
1
0
LINE
5
F2
100
AcDbEntity
8
1
62
256
6
ByLayer
370
13
48
1
60
0
100
AcDbLine
10
53.311268
20
-21.149659
30
0
11
53.311268
21
-20.75
31
0
39
0
210
0
220
0
230
1
0
LINE
5
F3
100
AcDbEntity
8
1
62
256
6
ByLayer
370
13
48
1
60
0
100
AcDbLine
10
50.390074
20
-20.549244
30
0
11
50.54904
21
-20.549244
31
0
39
0
210
0
220
0
230
1
0
LINE
5
F4
100
AcDbEntity
8
1
62
256
6
ByLayer
370
13
48
1
60
0
100
AcDbLine
10
53.311268
20
-20.350341
30
0
11
53.311268
21
-20.75
31
0
39
0
210
0
220
0
230
1
0
LINE
5
F5
100
AcDbEntity
8
1
62
256
6
ByLayer
370
13
48
1
60
0
100
AcDbLine
10
50.389954
20
-20.947335
30
0
11
50.552254
21
-20.947335
31
0
39
0
210
0
220
0
230
1
0
LINE
5
F6
100
AcDbEntity
8
1
62
256
6
ByLayer
370
18
48
1
60
0
100
AcDbLine
10
50.717283
20
-19.75
30
0
11
50.63041
21
-19.75
31
0
39
0
210
0
220
0
230
1
0
LINE
5
F7
100
AcDbEntity
8
1
62
256
6
ByLayer
370
18
48
1
60
0
100
AcDbLine
10
51.711238
20
-19.75
30
0
11
51.642833
21
-19.75
31
0
39
0
210
0
220
0
230
1
0
LINE
5
F8
100
AcDbEntity
8
1
62
256
6
ByLayer
370
18
48
1
60
0
100
AcDbLine
10
51.875747
20
-21.777118
30
0
11
51.959449
21
-21.825443
31
0
39
0
210
0
220
0
230
1
0
LINE
5
F9
100
AcDbEntity
8
1
62
256
6
ByLayer
370
18
48
1
60
0
100
AcDbLine
10
52.045343
20
-21.85171
30
0
11
52.230259
21
-21.86464
31
0
39
0
210
0
220
0
230
1
0
LINE
5
FA
100
AcDbEntity
8
1
62
256
6
ByLayer
370
18
48
1
60
0
100
AcDbLine
10
52.49812
20
-19.628081
30
0
11
52.408193
21
-19.628065
31
0
39
0
210
0
220
0
230
1
0
LINE
5
FB
100
AcDbEntity
8
1
62
256
6
ByLayer
370
18
48
1
60
0
100
AcDbLine
10
53.558781
20
-21.915505
30
0
11
53.758781
21
-21.929559
31
0
39
0
210
0
220
0
230
1
0
LINE
5
FC
100
AcDbEntity
8
1
62
256
6
ByLayer
370
18
48
1
60
0
100
AcDbLine
10
52.408193
20
-21.871935
30
0
11
52.49812
21
-21.871919
31
0
39
0
210
0
220
0
230
1
0
LINE
5
FD
100
AcDbEntity
8
1
62
256
6
ByLayer
370
18
48
1
60
0
100
AcDbLine
10
51.94752
20
-19.675372
30
0
11
51.865402
21
-19.722783
31
0
39
0
210
0
220
0
230
1
0
LINE
5
FE
100
AcDbEntity
8
1
62
256
6
ByLayer
370
18
48
1
60
0
100
AcDbLine
10
50.63041
20
-19.75
30
0
11
50.41185
21
-19.75
31
0
39
0
210
0
220
0
230
1
0
LINE
5
FF
100
AcDbEntity
8
1
62
256
6
ByLayer
370
18
48
1
60
0
100
AcDbLine
10
54.689249
20
-19.499659
30
0
11
54.535516
21
-19.509133
31
0
39
0
210
0
220
0
230
1
0
LINE
5
100
100
AcDbEntity
8
1
62
256
6
ByLayer
370
18
48
1
60
0
100
AcDbLine
10
50.717283
20
-21.75
30
0
11
51.642833
21
-21.75
31
0
39
0
210
0
220
0
230
1
0
LINE
5
101
100
AcDbEntity
8
1
62
256
6
ByLayer
370
18
48
1
60
0
100
AcDbLine
10
55.000117
20
-20.125421
30
0
11
55.002839
21
-19.80363
31
0
39
0
210
0
220
0
230
1
0
LINE
5
102
100
AcDbEntity
8
1
62
256
6
ByLayer
370
18
48
1
60
0
100
AcDbLine
10
50.63041
20
-21.75
30
0
11
50.717283
21
-21.75
31
0
39
0
210
0
220
0
230
1
0
LINE
5
103
100
AcDbEntity
8
1
62
256
6
ByLayer
370
18
48
1
60
0
100
AcDbLine
10
53.758781
20
-19.570441
30
0
11
53.558781
21
-19.584495
31
0
39
0
210
0
220
0
230
1
0
LINE
5
104
100
AcDbEntity
8
1
62
256
6
ByLayer
370
18
48
1
60
0
100
AcDbLine
10
54.106077
20
-21.956105
30
0
11
54.46476
21
-21.985765
31
0
39
0
210
0
220
0
230
1
0
LINE
5
105
100
AcDbEntity
8
1
62
256
6
ByLayer
370
18
48
1
60
0
100
AcDbLine
10
51.711238
20
-19.75
30
0
11
51.763694
21
-19.75
31
0
39
0
210
0
220
0
230
1
0
LINE
5
106
100
AcDbEntity
8
1
62
256
6
ByLayer
370
18
48
1
60
0
100
AcDbLine
10
55.002839
20
-21.69637
30
0
11
55.000117
21
-21.374579
31
0
39
0
210
0
220
0
230
1
0
LINE
5
107
100
AcDbEntity
8
1
62
256
6
ByLayer
370
18
48
1
60
0
100
AcDbLine
10
52.230259
20
-19.63536
30
0
11
52.03336
21
-19.649128
31
0
39
0
210
0
220
0
230
1
0
LINE
5
108
100
AcDbEntity
8
1
62
256
6
ByLayer
370
18
48
1
60
0
100
AcDbLine
10
51.642833
20
-19.75
30
0
11
50.717283
21
-19.75
31
0
39
0
210
0
220
0
230
1
0
LINE
5
109
100
AcDbEntity
8
1
62
256
6
ByLayer
370
18
48
1
60
0
100
AcDbLine
10
54.46476
20
-19.514235
30
0
11
54.106077
21
-19.543895
31
0
39
0
210
0
220
0
230
1
0
LINE
5
10A
100
AcDbEntity
8
1
62
256
6
ByLayer
370
18
48
1
60
0
100
AcDbLine
10
51.642833
20
-21.75
30
0
11
51.711238
21
-21.75
31
0
39
0
210
0
220
0
230
1
0
LINE
5
10B
100
AcDbEntity
8
1
62
256
6
ByLayer
370
18
48
1
60
0
100
AcDbLine
10
50.41185
20
-21.75
30
0
11
50.63041
21
-21.75
31
0
39
0
210
0
220
0
230
1
0
LINE
5
10C
100
AcDbEntity
8
1
62
256
6
ByLayer
370
18
48
1
60
0
100
AcDbLine
10
55
20
-21.346883
30
0
11
55
21
-20.153117
31
0
39
0
210
0
220
0
230
1
0
LINE
5
10D
100
AcDbEntity
8
1
62
256
6
ByLayer
370
18
48
1
60
0
100
AcDbLine
10
54.535516
20
-21.990867
30
0
11
54.689249
21
-22.000341
31
0
39
0
210
0
220
0
230
1
0
LINE
5
10E
100
AcDbEntity
8
1
62
256
6
ByLayer
370
18
48
1
60
0
100
AcDbLine
10
51.77444
20
-21.75
30
0
11
51.711238
21
-21.75
31
0
39
0
210
0
220
0
230
1
0
MTEXT
5
222
100
AcDbEntity
8
SK6
62
256
6
ByLayer
370
18
48
1
60
0
100
AcDbMText
10
-13.625
20
-53.875445
30
0
210
0
220
0
230
1
1
\W0.7832;C3-QD-LFF25C22055A
40
3.5
41
0
44
1.084337
50
0
71
7
72
5
7
iso_b_vert
0
DIMENSION
5
234
100
AcDbEntity
8
SK2
62
256
6
ByLayer
370
13
48
1
60
0
100
AcDbDimension
2
DimnDraft3D1
10
55
20
38.6
30
0
11
25.409211
21
38.6
31
0
70
32
71
5
72
1
41
1
210
0
220
0
230
1
3
Standard
100
AcDbAlignedDimension
13
0
23
2
33
0
14
55
24
-20
34
0
50
0
100
AcDbRotatedDimension
1001
ACAD
1000
DSTYLE
1002
{
1070
   279
1070
     0
1070
   172
1070
     1
1070
   173
1070
     1
1070
   340
1005
223
1070
   271
1070
     1
1070
    77
1070
     1
1070
    73
1070
     0
1070
   171
1070
     3
1070
   274
1070
     4
1070
   177
1070
     2
1070
   176
1070
     2
1070
   178
1070
     7
1070
    78
1070
     8
1070
    41
1041
3.175
1070
   147
1041
1.75
1070
    42
1041
2.0
1070
    44
1041
2.0
1070
   140
1041
3.5
1070
   343
1005
235
1070
   344
1005
235
1002
}
0
DIMENSION
5
24A
100
AcDbEntity
8
2
62
256
6
ByLayer
370
13
48
1
60
0
100
AcDbDimension
2
DimnDraft3D2
10
30
20
-35.100889
30
0
11
40.409211
21
-35.100889
31
0
70
32
71
5
72
1
41
1
210
0
220
0
230
1
3
Standard
100
AcDbAlignedDimension
13
55
23
-24
33
0
14
30
24
-18
34
0
50
0
100
AcDbRotatedDimension
1001
ACAD
1000
DSTYLE
1002
{
1070
   279
1070
     0
1070
   172
1070
     1
1070
   173
1070
     1
1070
   340
1005
223
1070
   271
1070
     1
1070
    77
1070
     1
1070
    73
1070
     0
1070
   171
1070
     3
1070
   274
1070
     4
1070
   177
1070
     2
1070
   176
1070
     2
1070
   178
1070
     7
1070
    78
1070
     8
1070
    41
1041
3.175
1070
   147
1041
1.75
1070
    42
1041
2.0
1070
    44
1041
2.0
1070
   140
1041
3.5
1070
   343
1005
235
1070
   344
1005
235
1002
}
0
DIMENSION
5
258
100
AcDbEntity
8
SK2
62
256
6
ByLayer
370
13
48
1
60
0
100
AcDbDimension
2
DimnDraft3D3
10
-28.6
20
16
30
0
11
-28.6
21
-2.090789
31
0
70
32
71
5
72
1
41
1
210
0
220
0
230
1
3
Standard
100
AcDbAlignedDimension
13
-2
23
-16
33
0
14
-2
24
16
34
0
50
90
100
AcDbRotatedDimension
1001
ACAD
1000
DSTYLE
1002
{
1070
    74
1070
     0
1070
   279
1070
     0
1070
   172
1070
     1
1070
   173
1070
     1
1070
   340
1005
223
1070
   271
1070
     1
1070
    77
1070
     1
1070
    73
1070
     0
1070
   171
1070
     3
1070
   274
1070
     4
1070
   177
1070
     2
1070
   176
1070
     2
1070
   178
1070
     7
1070
    78
1070
     8
1070
    41
1041
3.175
1070
   147
1041
1.75
1070
    42
1041
2.0
1070
    44
1041
2.0
1070
   140
1041
3.5
1070
   343
1005
235
1070
   344
1005
235
1002
}
0
DIMENSION
5
266
100
AcDbEntity
8
2
62
256
6
ByLayer
370
13
48
1
60
0
100
AcDbDimension
2
DimnDraft3D4
10
80.1
20
-22
30
0
11
80.1
21
-13.090789
31
0
70
32
71
5
72
1
41
1
210
0
220
0
230
1
3
Standard
100
AcDbAlignedDimension
13
48
23
0
33
0
14
57
24
-22
34
0
50
90
100
AcDbRotatedDimension
1001
ACAD
1000
DSTYLE
1002
{
1070
    74
1070
     0
1070
   279
1070
     0
1070
   172
1070
     1
1070
   173
1070
     1
1070
   340
1005
223
1070
   271
1070
     1
1070
    77
1070
     1
1070
    73
1070
     0
1070
   171
1070
     3
1070
   274
1070
     4
1070
   177
1070
     2
1070
   176
1070
     2
1070
   178
1070
     7
1070
    78
1070
     8
1070
    41
1041
3.175
1070
   147
1041
1.75
1070
    42
1041
2.0
1070
    44
1041
2.0
1070
   140
1041
3.5
1070
   343
1005
235
1070
   344
1005
235
1002
}
0
DIMENSION
5
274
100
AcDbEntity
8
2
62
256
6
ByLayer
370
13
48
1
60
0
100
AcDbDimension
2
DimnDraft3D5
10
73.1
20
-19.5
30
0
11
73.1
21
-37.855
31
0
70
32
71
5
72
1
41
1
210
0
220
0
230
1
3
Standard
100
AcDbAlignedDimension
13
57
23
-22
33
0
14
57
24
-19.5
34
0
50
90
100
AcDbRotatedDimension
1001
ACAD
1000
DSTYLE
1002
{
1070
    74
1070
     0
1070
   279
1070
     0
1070
   172
1070
     1
1070
   173
1070
     1
1070
   340
1005
223
1070
   271
1070
     1
1070
    77
1070
     1
1070
    73
1070
     0
1070
   171
1070
     3
1070
   274
1070
     4
1070
   177
1070
     2
1070
   176
1070
     2
1070
   178
1070
     7
1070
    78
1070
     8
1070
    41
1041
3.175
1070
   147
1041
1.75
1070
    42
1041
2.0
1070
    44
1041
2.0
1070
   140
1041
3.5
1070
   343
1005
235
1070
   344
1005
235
1002
}
0
ENDSEC
0
SECTION
2
OBJECTS
0
DICTIONARY
5
2de
330
0
100
AcDbDictionary
280
0
281
1
3
ACAD_GROUP
350
2df
3
ACAD_MLINESTYLE
350
2e0
0
DICTIONARY
5
2df
330
0
100
AcDbDictionary
280
0
281
1
0
DICTIONARY
5
2e0
330
0
100
AcDbDictionary
280
0
281
1
3
Standard
350
18
0
MLINESTYLE
5
18
330
2e0
100
AcDbMlineStyle
2
Standard
70
0
3

62
256
51
90
52
90
71
2
49
-0.5
62
256
6
ByLayer
49
0.5
62
256
6
ByLayer
0
RASTERVARIABLES
5
2cd
330

100
AcDbRasterVariables
90
0
70
1
71
1
72
1
0
ENDSEC
0
EOF
