0
SECTION
2
HEADER
9
$ACADVER
1
AC1015
9
$DWGCODEPAGE
3
ANSI_1252
9
$HANDSEED
5
312
9
$ANGBASE
50
0
9
$ANGDIR
70
0
9
$ATTMODE
70
1
9
$AUNITS
70
0
9
$AUPREC
70
0
9
$CECOLOR
62
256
9
$CELTSCALE
40
1
9
$CELTYPE
6
ByLayer
9
$CELWEIGHT
370
18
9
$CLAYER
8
0
9
$CMLJUST
70
0
9
$CMLSCALE
40
1
9
$CMLSTYLE
2
Standard
9
$DIMSTYLE
2
Standard
9
$TEXTSIZE
40
0.2
9
$TEXTSTYLE
7
Standard
9
$LUNITS
70
2
9
$LUPREC
70
4
9
$EXTNAMES
290
1
9
$INSUNITS
70
4
9
$LTSCALE
40
1
9
$LWDISPLAY
290
1
9
$PDMODE
70
0
9
$PDSIZE
40
0
9
$PLINEGEN
70
0
0
ENDSEC
0
SECTION
2
CLASSES
0
CLASS
1
RASTERVARIABLES
2
AcDbRasterVariables
3
ISM
90
0
280
0
281
0
0
ENDSEC
0
SECTION
2
TABLES
0
TABLE
2
VPORT
5
308
100
AcDbSymbolTable
0
VPORT
5
1
100
AcDbSymbolTableRecord
100
AcDbViewportTableRecord
2
*Active
70
0
10
0
20
0
11
1
21
1
12
-1
22
1
13
0
23
0
14
0.5
24
0.5
15
10
25
10
16
0
26
0
36
1
17
0
27
0
37
0
0
ENDTAB
0
TABLE
2
LTYPE
5
309
100
AcDbSymbolTable
0
LTYPE
5
14
100
AcDbSymbolTableRecord
100
AcDbLinetypeTableRecord
70
0
2
ByBlock
3

72
65
73
0
40
0
0
LTYPE
5
15
100
AcDbSymbolTableRecord
100
AcDbLinetypeTableRecord
70
0
2
ByLayer
3

72
65
73
0
40
0
0
LTYPE
5
16
100
AcDbSymbolTableRecord
100
AcDbLinetypeTableRecord
70
0
2
CONTINUOUS
3
Solid line
72
65
73
0
40
0
0
LTYPE
5
6A
100
AcDbSymbolTableRecord
100
AcDbLinetypeTableRecord
70
0
2
CENTER
3
____ _ ____ _ ____ _ ____
72
65
73
4
40
47.5
49
22
74
0
49
-8.5
74
0
49
8.5
74
0
49
-8.5
74
0
0
LTYPE
5
6B
100
AcDbSymbolTableRecord
100
AcDbLinetypeTableRecord
70
0
2
DASHED
3
__ __ __ __ __ __ __ __ __
72
65
73
2
40
25.72
49
12.86
74
0
49
-12.86
74
0
0
ENDTAB
0
TABLE
2
LAYER
5
30a
100
AcDbSymbolTable
0
LAYER
5
10
100
AcDbSymbolTableRecord
100
AcDbLayerTableRecord
2
0
70
0
62
7
6
CONTINUOUS
290
1
370
-3
390
0
0
LAYER
5
6D
100
AcDbSymbolTableRecord
100
AcDbLayerTableRecord
2
80
70
0
62
-6
6
CONTINUOUS
290
1
370
-3
390
0
0
LAYER
5
6F
100
AcDbSymbolTableRecord
100
AcDbLayerTableRecord
2
81
70
0
62
-3
6
CONTINUOUS
290
1
370
-3
390
0
0
LAYER
5
71
100
AcDbSymbolTableRecord
100
AcDbLayerTableRecord
2
1
70
0
62
4
6
CONTINUOUS
290
1
370
-3
390
0
0
LAYER
5
265
100
AcDbSymbolTableRecord
100
AcDbLayerTableRecord
2
2
70
0
62
7
6
CONTINUOUS
290
1
370
-3
390
0
0
LAYER
5
2f5
100
AcDbSymbolTableRecord
100
AcDbLayerTableRecord
2
SK1
70
0
62
4
6
CONTINUOUS
290
1
370
-3
390
0
0
LAYER
5
2f6
100
AcDbSymbolTableRecord
100
AcDbLayerTableRecord
2
SK6
70
0
62
5
6
CONTINUOUS
290
1
370
-3
390
0
0
LAYER
5
2f7
100
AcDbSymbolTableRecord
100
AcDbLayerTableRecord
2
SK2
70
0
62
7
6
CONTINUOUS
290
1
370
-3
390
0
0
ENDTAB
0
TABLE
2
STYLE
5
30b
100
AcDbSymbolTable
0
STYLE
5
11
100
AcDbSymbolTableRecord
100
AcDbTextStyleTableRecord
2
Standard
3
txt
70
0
71
0
40
0
41
1
42
0
50
0
0
STYLE
5
24A
100
AcDbSymbolTableRecord
100
AcDbTextStyleTableRecord
2
iso_b_vert
3
simplex.shx
70
0
71
0
40
0
41
1
42
0
50
0
0
STYLE
5
24B
100
AcDbSymbolTableRecord
100
AcDbTextStyleTableRecord
2
DWGDirectTextStyle
3
simplex
70
0
71
0
40
0
41
1
42
0
50
0
0
ENDTAB
0
TABLE
2
DIMSTYLE
5
30c
100
AcDbSymbolTable
100
AcDbDimStyleTable
0
DIMSTYLE
105
27
100
AcDbSymbolTableRecord
100
AcDbDimStyleTableRecord
2
Standard
70
0
3
<>
41
0.18
42
0.0625
44
0.18
140
0.18
147
0.09
73
0
74
0
77
1
271
2
275
0
278
52
280
0
340
11
0
ENDTAB
0
TABLE
2
VIEW
5
30d
100
AcDbSymbolTable
0
ENDTAB
0
TABLE
2
UCS
5
30e
100
AcDbSymbolTable
0
ENDTAB
0
TABLE
2
APPID
5
30f
100
AcDbSymbolTable
0
APPID
5
12
100
AcDbSymbolTableRecord
100
AcDbRegAppTableRecord
2
ACAD
70
0
0
ENDTAB
0
TABLE
2
BLOCK_RECORD
5
310
100
AcDbSymbolTable
0
BLOCK_RECORD
5
1F
100
AcDbSymbolTableRecord
100
AcDbBlockTableRecord
2
*Model_Space
340
0
70
0
0
BLOCK_RECORD
5
1B
100
AcDbSymbolTableRecord
100
AcDbBlockTableRecord
2
*Paper_Space
340
0
70
0
0
BLOCK_RECORD
5
23
100
AcDbSymbolTableRecord
100
AcDbBlockTableRecord
2
*Paper_Space0
340
0
70
0
0
BLOCK_RECORD
5
24D
100
AcDbSymbolTableRecord
100
AcDbBlockTableRecord
2
DimnDraft3D1
340
0
70
0
0
BLOCK_RECORD
5
25C
100
AcDbSymbolTableRecord
100
AcDbBlockTableRecord
2
_CLOSED
340
0
70
0
0
BLOCK_RECORD
5
263
100
AcDbSymbolTableRecord
100
AcDbBlockTableRecord
2
DimnDraft3D2
340
0
70
0
0
BLOCK_RECORD
5
272
100
AcDbSymbolTableRecord
100
AcDbBlockTableRecord
2
DimnDraft3D3
340
0
70
0
0
BLOCK_RECORD
5
280
100
AcDbSymbolTableRecord
100
AcDbBlockTableRecord
2
DimnDraft3D4
340
0
70
0
0
BLOCK_RECORD
5
28E
100
AcDbSymbolTableRecord
100
AcDbBlockTableRecord
2
DimnDraft3D5
340
0
70
0
0
ENDTAB
0
ENDSEC
0
SECTION
2
BLOCKS
0
BLOCK
5
20
100
AcDbEntity
8
0
100
AcDbBlockBegin
2
*Model_Space
70
0
10
0
20
0
30
0
3
*Model_Space
0
ENDBLK
5
21
100
AcDbEntity
8
0
100
AcDbBlockEnd
0
BLOCK
5
1C
100
AcDbEntity
8
0
100
AcDbBlockBegin
2
*Paper_Space
70
0
10
0
20
0
30
0
3
*Paper_Space
0
ENDBLK
5
1D
100
AcDbEntity
8
0
100
AcDbBlockEnd
0
BLOCK
5
24
100
AcDbEntity
8
0
100
AcDbBlockBegin
2
*Paper_Space0
70
0
10
0
20
0
30
0
3
*Paper_Space0
0
ENDBLK
5
25
100
AcDbEntity
8
0
100
AcDbBlockEnd
0
BLOCK
5
259
100
AcDbEntity
8
0
100
AcDbBlockBegin
2
DimnDraft3D1
70
0
10
0
20
0
30
0
3
DimnDraft3D1
0
MTEXT
5
24E
100
AcDbEntity
8
SK2
62
256
6
ByLayer
370
18
48
1
60
0
100
AcDbMText
10
26.284211
20
39.475
30
0
210
0
220
0
230
1
1
\W0.6740;55
40
3.5
41
0
44
1.084337
50
0
71
7
72
5
7
iso_b_vert
0
LINE
5
250
100
AcDbEntity
8
SK2
62
256
6
ByLayer
370
13
48
1
60
0
100
AcDbLine
10
0
20
2
30
0
11
0
21
40.6
31
0
39
0
210
0
220
0
230
1
0
LINE
5
251
100
AcDbEntity
8
SK2
62
256
6
ByLayer
370
13
48
1
60
0
100
AcDbLine
10
55
20
-20
30
0
11
55
21
40.6
31
0
39
0
210
0
220
0
230
1
0
LINE
5
252
100
AcDbEntity
8
SK2
62
256
6
ByLayer
370
13
48
1
60
0
100
AcDbLine
10
0
20
38.6
30
0
11
55
21
38.6
31
0
39
0
210
0
220
0
230
1
0
LINE
5
253
100
AcDbEntity
8
SK2
62
256
6
ByLayer
370
13
48
1
60
0
100
AcDbLine
10
0
20
38.6
30
0
11
3.174998
21
39.017997
31
0
39
0
210
0
220
0
230
1
0
LINE
5
254
100
AcDbEntity
8
SK2
62
256
6
ByLayer
370
13
48
1
60
0
100
AcDbLine
10
0
20
38.6
30
0
11
3.175002
21
38.182003
31
0
39
0
210
0
220
0
230
1
0
LINE
5
255
100
AcDbEntity
8
SK2
62
256
6
ByLayer
370
13
48
1
60
0
100
AcDbLine
10
3.174998
20
39.017997
30
0
11
3.175002
21
38.182003
31
0
39
0
210
0
220
0
230
1
0
LINE
5
256
100
AcDbEntity
8
SK2
62
256
6
ByLayer
370
13
48
1
60
0
100
AcDbLine
10
55
20
38.6
30
0
11
51.825002
21
38.182003
31
0
39
0
210
0
220
0
230
1
0
LINE
5
257
100
AcDbEntity
8
SK2
62
256
6
ByLayer
370
13
48
1
60
0
100
AcDbLine
10
55
20
38.6
30
0
11
51.824998
21
39.017997
31
0
39
0
210
0
220
0
230
1
0
LINE
5
258
100
AcDbEntity
8
SK2
62
256
6
ByLayer
370
13
48
1
60
0
100
AcDbLine
10
51.825002
20
38.182003
30
0
11
51.824998
21
39.017997
31
0
39
0
210
0
220
0
230
1
0
ENDBLK
5
25A
100
AcDbEntity
8
0
100
AcDbBlockEnd
0
BLOCK
5
25D
100
AcDbEntity
8
0
100
AcDbBlockBegin
2
_CLOSED
70
0
10
0
20
0
30
0
3
_CLOSED
0
LINE
5
25F
100
AcDbEntity
8
0
62
256
6
ByLayer
370
-2
48
1
60
0
100
AcDbLine
10
-1
20
0.166667
30
0
11
0
21
0
31
0
39
0
210
0
220
0
230
1
0
LINE
5
260
100
AcDbEntity
8
0
62
256
6
ByLayer
370
-2
48
1
60
0
100
AcDbLine
10
0
20
0
30
0
11
-1
21
-0.166667
31
0
39
0
210
0
220
0
230
1
0
LINE
5
261
100
AcDbEntity
8
0
62
256
6
ByLayer
370
-2
48
1
60
0
100
AcDbLine
10
-1
20
0.166667
30
0
11
-1
21
-0.166667
31
0
39
0
210
0
220
0
230
1
0
LINE
5
262
100
AcDbEntity
8
0
62
256
6
ByLayer
370
-2
48
1
60
0
100
AcDbLine
10
0
20
0
30
0
11
-1
21
0
31
0
39
0
210
0
220
0
230
1
0
ENDBLK
5
25E
100
AcDbEntity
8
0
100
AcDbBlockEnd
0
BLOCK
5
26F
100
AcDbEntity
8
0
100
AcDbBlockBegin
2
DimnDraft3D2
70
0
10
0
20
0
30
0
3
DimnDraft3D2
0
MTEXT
5
264
100
AcDbEntity
8
2
62
256
6
ByLayer
370
18
48
1
60
0
100
AcDbMText
10
42.784211
20
-34.225049
30
0
210
0
220
0
230
1
1
\W0.6740;22
40
3.5
41
0
44
1.084337
50
0
71
7
72
5
7
iso_b_vert
0
LINE
5
266
100
AcDbEntity
8
2
62
256
6
ByLayer
370
13
48
1
60
0
100
AcDbLine
10
55
20
-24
30
0
11
55
21
-37.100049
31
0
39
0
210
0
220
0
230
1
0
LINE
5
267
100
AcDbEntity
8
2
62
256
6
ByLayer
370
13
48
1
60
0
100
AcDbLine
10
33
20
-18
30
0
11
33
21
-37.100049
31
0
39
0
210
0
220
0
230
1
0
LINE
5
268
100
AcDbEntity
8
2
62
256
6
ByLayer
370
13
48
1
60
0
100
AcDbLine
10
55
20
-35.100049
30
0
11
33
21
-35.100049
31
0
39
0
210
0
220
0
230
1
0
LINE
5
269
100
AcDbEntity
8
2
62
256
6
ByLayer
370
13
48
1
60
0
100
AcDbLine
10
55
20
-35.100049
30
0
11
51.825002
21
-35.518045
31
0
39
0
210
0
220
0
230
1
0
LINE
5
26A
100
AcDbEntity
8
2
62
256
6
ByLayer
370
13
48
1
60
0
100
AcDbLine
10
55
20
-35.100049
30
0
11
51.824998
21
-34.682052
31
0
39
0
210
0
220
0
230
1
0
LINE
5
26B
100
AcDbEntity
8
2
62
256
6
ByLayer
370
13
48
1
60
0
100
AcDbLine
10
51.825002
20
-35.518045
30
0
11
51.824998
21
-34.682052
31
0
39
0
210
0
220
0
230
1
0
LINE
5
26C
100
AcDbEntity
8
2
62
256
6
ByLayer
370
13
48
1
60
0
100
AcDbLine
10
33
20
-35.100049
30
0
11
36.174998
21
-34.682052
31
0
39
0
210
0
220
0
230
1
0
LINE
5
26D
100
AcDbEntity
8
2
62
256
6
ByLayer
370
13
48
1
60
0
100
AcDbLine
10
33
20
-35.100049
30
0
11
36.175002
21
-35.518045
31
0
39
0
210
0
220
0
230
1
0
LINE
5
26E
100
AcDbEntity
8
2
62
256
6
ByLayer
370
13
48
1
60
0
100
AcDbLine
10
36.174998
20
-34.682052
30
0
11
36.175002
21
-35.518045
31
0
39
0
210
0
220
0
230
1
0
ENDBLK
5
270
100
AcDbEntity
8
0
100
AcDbBlockEnd
0
BLOCK
5
27D
100
AcDbEntity
8
0
100
AcDbBlockBegin
2
DimnDraft3D3
70
0
10
0
20
0
30
0
3
DimnDraft3D3
0
MTEXT
5
273
100
AcDbEntity
8
SK2
62
256
6
ByLayer
370
18
48
1
60
0
100
AcDbMText
10
-29.475
20
-1.215789
30
0
210
0
220
0
230
1
1
\W0.6740;32
40
3.5
41
0
44
1.084337
50
90
71
7
72
5
7
iso_b_vert
0
LINE
5
274
100
AcDbEntity
8
SK2
62
256
6
ByLayer
370
13
48
1
60
0
100
AcDbLine
10
-2
20
-16
30
0
11
-30.6
21
-16
31
0
39
0
210
0
220
0
230
1
0
LINE
5
275
100
AcDbEntity
8
SK2
62
256
6
ByLayer
370
13
48
1
60
0
100
AcDbLine
10
-2
20
16
30
0
11
-30.6
21
16
31
0
39
0
210
0
220
0
230
1
0
LINE
5
276
100
AcDbEntity
8
SK2
62
256
6
ByLayer
370
13
48
1
60
0
100
AcDbLine
10
-28.6
20
-16
30
0
11
-28.6
21
16
31
0
39
0
210
0
220
0
230
1
0
LINE
5
277
100
AcDbEntity
8
SK2
62
256
6
ByLayer
370
13
48
1
60
0
100
AcDbLine
10
-28.6
20
-16
30
0
11
-29.017997
21
-12.825002
31
0
39
0
210
0
220
0
230
1
0
LINE
5
278
100
AcDbEntity
8
SK2
62
256
6
ByLayer
370
13
48
1
60
0
100
AcDbLine
10
-28.6
20
-16
30
0
11
-28.182003
21
-12.824998
31
0
39
0
210
0
220
0
230
1
0
LINE
5
279
100
AcDbEntity
8
SK2
62
256
6
ByLayer
370
13
48
1
60
0
100
AcDbLine
10
-29.017997
20
-12.825002
30
0
11
-28.182003
21
-12.824998
31
0
39
0
210
0
220
0
230
1
0
LINE
5
27A
100
AcDbEntity
8
SK2
62
256
6
ByLayer
370
13
48
1
60
0
100
AcDbLine
10
-28.6
20
16
30
0
11
-28.182003
21
12.825002
31
0
39
0
210
0
220
0
230
1
0
LINE
5
27B
100
AcDbEntity
8
SK2
62
256
6
ByLayer
370
13
48
1
60
0
100
AcDbLine
10
-28.6
20
16
30
0
11
-29.017997
21
12.824998
31
0
39
0
210
0
220
0
230
1
0
LINE
5
27C
100
AcDbEntity
8
SK2
62
256
6
ByLayer
370
13
48
1
60
0
100
AcDbLine
10
-28.182003
20
12.825002
30
0
11
-29.017997
21
12.824998
31
0
39
0
210
0
220
0
230
1
0
ENDBLK
5
27E
100
AcDbEntity
8
0
100
AcDbBlockEnd
0
BLOCK
5
28B
100
AcDbEntity
8
0
100
AcDbBlockBegin
2
DimnDraft3D4
70
0
10
0
20
0
30
0
3
DimnDraft3D4
0
MTEXT
5
281
100
AcDbEntity
8
2
62
256
6
ByLayer
370
18
48
1
60
0
100
AcDbMText
10
79.225
20
-12.215789
30
0
210
0
220
0
230
1
1
\W0.6740;22
40
3.5
41
0
44
1.084337
50
90
71
7
72
5
7
iso_b_vert
0
LINE
5
282
100
AcDbEntity
8
2
62
256
6
ByLayer
370
13
48
1
60
0
100
AcDbLine
10
48
20
0
30
0
11
82.1
21
0
31
0
39
0
210
0
220
0
230
1
0
LINE
5
283
100
AcDbEntity
8
2
62
256
6
ByLayer
370
13
48
1
60
0
100
AcDbLine
10
57
20
-22
30
0
11
82.1
21
-22
31
0
39
0
210
0
220
0
230
1
0
LINE
5
284
100
AcDbEntity
8
2
62
256
6
ByLayer
370
13
48
1
60
0
100
AcDbLine
10
80.1
20
0
30
0
11
80.1
21
-22
31
0
39
0
210
0
220
0
230
1
0
LINE
5
285
100
AcDbEntity
8
2
62
256
6
ByLayer
370
13
48
1
60
0
100
AcDbLine
10
80.1
20
0
30
0
11
80.517997
21
-3.174998
31
0
39
0
210
0
220
0
230
1
0
LINE
5
286
100
AcDbEntity
8
2
62
256
6
ByLayer
370
13
48
1
60
0
100
AcDbLine
10
80.1
20
0
30
0
11
79.682003
21
-3.175002
31
0
39
0
210
0
220
0
230
1
0
LINE
5
287
100
AcDbEntity
8
2
62
256
6
ByLayer
370
13
48
1
60
0
100
AcDbLine
10
80.517997
20
-3.174998
30
0
11
79.682003
21
-3.175002
31
0
39
0
210
0
220
0
230
1
0
LINE
5
288
100
AcDbEntity
8
2
62
256
6
ByLayer
370
13
48
1
60
0
100
AcDbLine
10
80.1
20
-22
30
0
11
79.682003
21
-18.825002
31
0
39
0
210
0
220
0
230
1
0
LINE
5
289
100
AcDbEntity
8
2
62
256
6
ByLayer
370
13
48
1
60
0
100
AcDbLine
10
80.1
20
-22
30
0
11
80.517997
21
-18.824998
31
0
39
0
210
0
220
0
230
1
0
LINE
5
28A
100
AcDbEntity
8
2
62
256
6
ByLayer
370
13
48
1
60
0
100
AcDbLine
10
79.682003
20
-18.825002
30
0
11
80.517997
21
-18.824998
31
0
39
0
210
0
220
0
230
1
0
ENDBLK
5
28C
100
AcDbEntity
8
0
100
AcDbBlockEnd
0
BLOCK
5
299
100
AcDbEntity
8
0
100
AcDbBlockBegin
2
DimnDraft3D5
70
0
10
0
20
0
30
0
3
DimnDraft3D5
0
MTEXT
5
28F
100
AcDbEntity
8
2
62
256
6
ByLayer
370
18
48
1
60
0
100
AcDbMText
10
72.225
20
-32.945789
30
0
210
0
220
0
230
1
1
\W0.5404;2
40
3.5
41
0
44
1.084337
50
90
71
7
72
5
7
iso_b_vert
0
LINE
5
290
100
AcDbEntity
8
2
62
256
6
ByLayer
370
13
48
1
60
0
100
AcDbLine
10
57
20
-22
30
0
11
75.1
21
-22
31
0
39
0
210
0
220
0
230
1
0
LINE
5
291
100
AcDbEntity
8
2
62
256
6
ByLayer
370
13
48
1
60
0
100
AcDbLine
10
57
20
-20
30
0
11
75.1
21
-20
31
0
39
0
210
0
220
0
230
1
0
LINE
5
292
100
AcDbEntity
8
2
62
256
6
ByLayer
370
13
48
1
60
0
100
AcDbLine
10
73.1
20
-11.25
30
0
11
73.1
21
-33.820789
31
0
39
0
210
0
220
0
230
1
0
LINE
5
293
100
AcDbEntity
8
2
62
256
6
ByLayer
370
13
48
1
60
0
100
AcDbLine
10
73.1
20
-22
30
0
11
73.517997
21
-25.174998
31
0
39
0
210
0
220
0
230
1
0
LINE
5
294
100
AcDbEntity
8
2
62
256
6
ByLayer
370
13
48
1
60
0
100
AcDbLine
10
73.1
20
-22
30
0
11
72.682003
21
-25.175002
31
0
39
0
210
0
220
0
230
1
0
LINE
5
295
100
AcDbEntity
8
2
62
256
6
ByLayer
370
13
48
1
60
0
100
AcDbLine
10
73.517997
20
-25.174998
30
0
11
72.682003
21
-25.175002
31
0
39
0
210
0
220
0
230
1
0
LINE
5
296
100
AcDbEntity
8
2
62
256
6
ByLayer
370
13
48
1
60
0
100
AcDbLine
10
73.1
20
-20
30
0
11
72.682003
21
-16.825002
31
0
39
0
210
0
220
0
230
1
0
LINE
5
297
100
AcDbEntity
8
2
62
256
6
ByLayer
370
13
48
1
60
0
100
AcDbLine
10
73.1
20
-20
30
0
11
73.517997
21
-16.824998
31
0
39
0
210
0
220
0
230
1
0
LINE
5
298
100
AcDbEntity
8
2
62
256
6
ByLayer
370
13
48
1
60
0
100
AcDbLine
10
72.682003
20
-16.825002
30
0
11
73.517997
21
-16.824998
31
0
39
0
210
0
220
0
230
1
0
ENDBLK
5
29A
100
AcDbEntity
8
0
100
AcDbBlockEnd
0
ENDSEC
0
SECTION
2
ENTITIES
0
ARC
5
12D
100
AcDbEntity
8
1
62
256
6
ByLayer
370
13
48
1
60
0
100
AcDbCircle
39
0
10
-15.279208
20
-17.2
30
0
40
1.2
210
0
220
0
230
-1
100
AcDbArc
50
90
51
165
0
ARC
5
12E
100
AcDbEntity
8
1
62
256
6
ByLayer
370
13
48
1
60
0
100
AcDbCircle
39
0
10
-19.046351
20
14.5
30
0
40
3.99999999999999
210
0
220
0
230
-1
100
AcDbArc
50
270
51
338.753261
0
ELLIPSE
5
12F
100
AcDbEntity
8
1
62
256
6
ByLayer
370
13
48
1
60
0
100
AcDbEllipse
10
15.13963
20
0
30
0
11
-9.79685083058018E-16
21
16.0000000000019
31
0
210
0
220
0
230
-1
40
0.008727
41
-2.41147811567538
42
-0.73011453791446
0
ELLIPSE
5
130
100
AcDbEntity
8
1
62
256
6
ByLayer
370
13
48
1
60
0
100
AcDbEllipse
10
12.928203
20
0
30
0
11
7.49393430382512
21
15.7933993222004
31
0
210
0
220
0
230
-1
40
0.341999
41
-2.98012608239205
42
-2.05401345238927
0
ELLIPSE
5
131
100
AcDbEntity
8
1
62
256
6
ByLayer
370
13
48
1
60
0
100
AcDbEllipse
10
12.928203
20
0
30
0
11
7.49393430382495
21
-15.7933993222002
31
0
210
0
220
0
230
-1
40
0.341999
41
2.05401345238926
42
2.98012608239204
0
ELLIPSE
5
132
100
AcDbEntity
8
1
62
256
6
ByLayer
370
13
48
1
60
0
100
AcDbEllipse
10
49.949555
20
-21
30
0
11
0.826981509160063
21
8.35779810988113E-16
31
0
210
0
220
0
230
-1
40
0.483687
41
0.97210454986663
42
-0.972104549866637
0
ELLIPSE
5
133
100
AcDbEntity
8
1
62
256
6
ByLayer
370
13
48
1
60
0
100
AcDbEllipse
10
-0.928203
20
0
30
0
11
7.49393430382709
21
-15.7933993222013
31
0
210
0
220
0
230
-1
40
0.341999
41
-1.08757920120042
42
-0.161466571197732
0
ELLIPSE
5
134
100
AcDbEntity
8
1
62
256
6
ByLayer
370
13
48
1
60
0
100
AcDbEllipse
10
-0.928203
20
0
30
0
11
7.49393430382684
21
15.7933993222011
31
0
210
0
220
0
230
-1
40
0.341999
41
0.161466571197738
42
1.08757920120042
0
ELLIPSE
5
135
100
AcDbEntity
8
1
62
256
6
ByLayer
370
13
48
1
60
0
100
AcDbEllipse
10
50.435258
20
-21
30
0
11
-2.44921270764773E-17
21
0.400000000000486
31
0
210
0
220
0
230
-1
40
0.087156
41
-2.54290087665975
42
-0.598691776930039
0
ELLIPSE
5
136
100
AcDbEntity
8
1
62
256
6
ByLayer
370
13
48
1
60
0
100
AcDbEllipse
10
54.37413
20
-21
30
0
11
-6.1541317860938
21
7.53638888751072E-16
31
0
210
0
220
0
230
1
40
0.121869
41
1.12302990717099
42
1.18682389135614
0
ELLIPSE
5
137
100
AcDbEntity
8
1
62
256
6
ByLayer
370
13
48
1
60
0
100
AcDbEllipse
10
54.37413
20
-21
30
0
11
-6.1541317860938
21
7.53638888751072E-16
31
0
210
0
220
0
230
1
40
0.121869
41
-1.18682389135615
42
-1.12302990717099
0
ELLIPSE
5
138
100
AcDbEntity
8
1
62
256
6
ByLayer
370
13
48
1
60
0
100
AcDbEllipse
10
54.37413
20
-21
30
0
11
6.11757101780345
21
-1.66380863697947E-09
31
0
210
0
220
0
230
-1
40
0.073559
41
-2.06016834922268
42
-1.95476876432299
0
ELLIPSE
5
139
100
AcDbEntity
8
1
62
256
6
ByLayer
370
13
48
1
60
0
100
AcDbEllipse
10
54.37413
20
-21
30
0
11
6.11757102270993
21
1.89995796060237E-09
31
0
210
0
220
0
230
-1
40
0.073559
41
1.95476876462246
42
2.06016834945038
0
ELLIPSE
5
13A
100
AcDbEntity
8
1
62
256
6
ByLayer
370
13
48
1
60
0
100
AcDbEllipse
10
52.073627
20
-21
30
0
11
1.22363010722314
21
1.23664837533432E-15
31
0
210
0
220
0
230
-1
40
0.367758
41
-2.41547853522646
42
-2.06016834764559
0
ELLIPSE
5
13B
100
AcDbEntity
8
1
62
256
6
ByLayer
370
13
48
1
60
0
100
AcDbEllipse
10
51.786071
20
-21
30
0
11
0.899729531202702
21
0.0397735735958171
31
0
210
0
220
0
230
-1
40
0.498193
41
-1.09832267985821
42
-1.00525797929671
0
ELLIPSE
5
13C
100
AcDbEntity
8
1
62
256
6
ByLayer
370
13
48
1
60
0
100
AcDbEllipse
10
51.786071
20
-21
30
0
11
0.89972953309203
21
-0.0397735745496841
31
0
210
0
220
0
230
-1
40
0.498193
41
1.00525797823855
42
1.09832267863558
0
ELLIPSE
5
13D
100
AcDbEntity
8
1
62
256
6
ByLayer
370
13
48
1
60
0
100
AcDbEllipse
10
52.073627
20
-21
30
0
11
1.22363010720673
21
1.23664837531774E-15
31
0
210
0
220
0
230
-1
40
0.367758
41
2.06016834764479
42
2.4154785352261
0
ELLIPSE
5
13E
100
AcDbEntity
8
1
62
256
6
ByLayer
370
13
48
1
60
0
100
AcDbEllipse
10
52.308716
20
-20.352384
30
0
11
0.0309022559561243
21
-0.238002207083931
31
0
210
0
220
0
230
1
40
0.697921
41
0.776305432118346
42
1.43060367190731
0
ELLIPSE
5
13F
100
AcDbEntity
8
1
62
256
6
ByLayer
370
13
48
1
60
0
100
AcDbEllipse
10
52.308716
20
-21.647616
30
0
11
-0.0309022559569112
21
-0.238002207083828
31
0
210
0
220
0
230
1
40
0.697921
41
1.71098898168883
42
2.3652872214737
0
ELLIPSE
5
140
100
AcDbEntity
8
1
62
256
6
ByLayer
370
13
48
1
60
0
100
AcDbEllipse
10
53.533781
20
-20.11922
30
0
11
0.0220590948836999
21
-0.238984092217269
31
0
210
0
220
0
230
1
40
0.006427
41
-1.50127915029113
42
-0.704838524415435
0
ELLIPSE
5
141
100
AcDbEntity
8
1
62
256
6
ByLayer
370
13
48
1
60
0
100
AcDbEllipse
10
53.533781
20
-21.88078
30
0
11
0.0220590948837
21
0.238984092217269
31
0
210
0
220
0
230
1
40
0.006427
41
0.704838524415454
42
1.50127915029113
0
ELLIPSE
5
142
100
AcDbEntity
8
1
62
256
6
ByLayer
370
13
48
1
60
0
100
AcDbEllipse
10
52.152761
20
-21.699524
30
0
11
0.10209648341447
21
-0.282092729566714
31
0
210
0
220
0
230
1
40
0.694069
41
1.37564748435105
42
2.59886419488533
0
ELLIPSE
5
143
100
AcDbEntity
8
1
62
256
6
ByLayer
370
13
48
1
60
0
100
AcDbEllipse
10
52.152761
20
-20.300476
30
0
11
-0.102096483414469
21
-0.282092729566714
31
0
210
0
220
0
230
1
40
0.694069
41
0.542728458704454
42
1.76594516923874
0
ELLIPSE
5
144
100
AcDbEntity
8
1
62
256
6
ByLayer
370
13
48
1
60
0
100
AcDbEllipse
10
51.48984
20
-20.470423
30
0
11
0.0373781701033243
21
-0.145268277334479
31
0
210
0
220
0
230
1
40
0.332441
41
-1.6561270901124
42
-0.517494909403331
0
ELLIPSE
5
145
100
AcDbEntity
8
1
62
256
6
ByLayer
370
13
48
1
60
0
100
AcDbEllipse
10
51.48984
20
-21.529577
30
0
11
0.0373781701033242
21
0.145268277334479
31
0
210
0
220
0
230
1
40
0.332441
41
0.517494909403416
42
1.6561270901124
0
ELLIPSE
5
146
100
AcDbEntity
8
1
62
256
6
ByLayer
370
13
48
1
60
0
100
AcDbEllipse
10
52.022324
20
-21
30
0
11
1.24191050866605
21
1.25512326297511E-15
31
0
210
0
220
0
230
-1
40
0.483127
41
2.06016834764121
42
2.41547853524044
0
ELLIPSE
5
147
100
AcDbEntity
8
1
62
256
6
ByLayer
370
13
48
1
60
0
100
AcDbEllipse
10
52.022324
20
-21
30
0
11
1.24191050875904
21
1.25512326306909E-15
31
0
210
0
220
0
230
-1
40
0.483127
41
-2.41547853521869
42
-2.06016834764718
0
ELLIPSE
5
148
100
AcDbEntity
8
1
62
256
6
ByLayer
370
13
48
1
60
0
100
AcDbEllipse
10
51.997945
20
-20.985184
30
0
11
0.847017703344669
21
-0.196304038970228
31
0
210
0
220
0
230
-1
40
0.854591
41
0.792533398356815
42
0.922000602921913
0
ELLIPSE
5
149
100
AcDbEntity
8
1
62
256
6
ByLayer
370
13
48
1
60
0
100
AcDbEllipse
10
51.997945
20
-21.014816
30
0
11
0.847017702240674
21
0.196304033488398
31
0
210
0
220
0
230
-1
40
0.854591
41
-0.922000608961584
42
-0.792533404154239
0
ELLIPSE
5
14A
100
AcDbEntity
8
1
62
256
6
ByLayer
370
13
48
1
60
0
100
AcDbEllipse
10
52.16419
20
-20.304612
30
0
11
-0.102096483414469
21
-0.282092729566714
31
0
210
0
220
0
230
1
40
0.694069
41
0.542728458704483
42
1.76594516923877
0
ELLIPSE
5
14B
100
AcDbEntity
8
1
62
256
6
ByLayer
370
13
48
1
60
0
100
AcDbEllipse
10
52.261247
20
-20.346705
30
0
11
0.136500727004937
21
0.267147059738871
31
0
210
0
220
0
230
1
40
0.677974
41
-1.35487317172655
42
-1.28974538225852
0
ELLIPSE
5
14C
100
AcDbEntity
8
1
62
256
6
ByLayer
370
13
48
1
60
0
100
AcDbEllipse
10
52.261247
20
-21.653295
30
0
11
-0.136500727005176
21
0.267147059738748
31
0
210
0
220
0
230
1
40
0.677974
41
-1.85184727133189
42
-1.78671948186545
0
ELLIPSE
5
14D
100
AcDbEntity
8
1
62
256
6
ByLayer
370
13
48
1
60
0
100
AcDbEllipse
10
52.16419
20
-21.695388
30
0
11
0.10209648341447
21
-0.282092729566714
31
0
210
0
220
0
230
1
40
0.694069
41
1.37564748435105
42
2.59886419488533
0
ELLIPSE
5
14E
100
AcDbEntity
8
1
62
256
6
ByLayer
370
13
48
1
60
0
100
AcDbEllipse
10
51.144976
20
-20.601619
30
0
11
0.0716898187935411
21
-0.131759515335133
31
0
210
0
220
0
230
1
40
0.304525
41
-1.73499558697381
42
-0.89338033427276
0
ELLIPSE
5
14F
100
AcDbEntity
8
1
62
256
6
ByLayer
370
13
48
1
60
0
100
AcDbEllipse
10
51.144976
20
-21.398381
30
0
11
0.0716898187946788
21
0.131759515334514
31
0
210
0
220
0
230
1
40
0.304525
41
0.893380334283976
42
1.73499558700909
0
ELLIPSE
5
150
100
AcDbEntity
8
1
62
256
6
ByLayer
370
13
48
1
60
0
100
AcDbEllipse
10
52.268095
20
-21.63144
30
0
11
0.171518916221875
21
0.16787275353098
31
0
210
0
220
0
230
1
40
0.082052
41
0.5182988174176
42
0.779655640506806
0
ELLIPSE
5
151
100
AcDbEntity
8
1
62
256
6
ByLayer
370
13
48
1
60
0
100
AcDbEllipse
10
52.302479
20
-21.646663
30
0
11
0.0417762271290194
21
0.236336088752574
31
0
210
0
220
0
230
1
40
0.675324
41
-1.34029986666137
42
-0.746155527792959
0
ELLIPSE
5
152
100
AcDbEntity
8
1
62
256
6
ByLayer
370
13
48
1
60
0
100
AcDbEllipse
10
52.302479
20
-20.353337
30
0
11
-0.0417762271294201
21
0.236336088752503
31
0
210
0
220
0
230
1
40
0.675324
41
-2.39543712579806
42
-1.80129278693143
0
ELLIPSE
5
153
100
AcDbEntity
8
1
62
256
6
ByLayer
370
13
48
1
60
0
100
AcDbEllipse
10
53.291288
20
-21.293452
30
0
11
-0.114657467550524
21
-0.383214907245139
31
0
210
0
220
0
230
1
40
0.149521
41
-1.52608952887372
42
-0.632305349725073
0
ELLIPSE
5
154
100
AcDbEntity
8
1
62
256
6
ByLayer
370
13
48
1
60
0
100
AcDbEllipse
10
51.176259
20
-20.520757
30
0
11
0.111438992389702
21
0.278534290483538
31
0
210
0
220
0
230
1
40
0.391057
41
-2.99672437051151
42
-2.1633092404352
0
ELLIPSE
5
155
100
AcDbEntity
8
1
62
256
6
ByLayer
370
13
48
1
60
0
100
AcDbEllipse
10
51.176259
20
-21.479243
30
0
11
-0.111438992389677
21
0.278534290483548
31
0
210
0
220
0
230
1
40
0.391057
41
-0.978283413154652
42
-0.144868283078221
0
ELLIPSE
5
156
100
AcDbEntity
8
1
62
256
6
ByLayer
370
13
48
1
60
0
100
AcDbEllipse
10
52.252499
20
-21.57058
30
0
11
0.29766898486033
21
0.0373252656014786
31
0
210
0
220
0
230
1
40
0.756445
41
0.856307358412499
42
1.39678515212253
0
ELLIPSE
5
157
100
AcDbEntity
8
1
62
256
6
ByLayer
370
13
48
1
60
0
100
AcDbEllipse
10
52.252499
20
-20.42942
30
0
11
-0.297668984860324
21
0.0373252656015258
31
0
210
0
220
0
230
1
40
0.756445
41
1.74480750146741
42
2.28528529517742
0
ELLIPSE
5
158
100
AcDbEntity
8
1
62
256
6
ByLayer
370
13
48
1
60
0
100
AcDbEllipse
10
53.291288
20
-20.706548
30
0
11
-0.114657467550524
21
0.383214907245139
31
0
210
0
220
0
230
1
40
0.149521
41
0.632305349724993
42
1.52608952887372
0
ELLIPSE
5
159
100
AcDbEntity
8
1
62
256
6
ByLayer
370
13
48
1
60
0
100
AcDbEllipse
10
51.048488
20
-21.383195
30
0
11
-0.0204696158072206
21
0.148596752416413
31
0
210
0
220
0
230
1
40
0.33919
41
0.367590503028883
42
1.52410589159648
0
ELLIPSE
5
15A
100
AcDbEntity
8
1
62
256
6
ByLayer
370
13
48
1
60
0
100
AcDbEllipse
10
51.048488
20
-20.616805
30
0
11
0.0204696158039751
21
0.14859675241686
31
0
210
0
220
0
230
1
40
0.33919
41
1.61748676198872
42
2.77400215055185
0
ELLIPSE
5
15B
100
AcDbEntity
8
1
62
256
6
ByLayer
370
13
48
1
60
0
100
AcDbEllipse
10
51.167717
20
-20.517337
30
0
11
0.111594752970791
21
0.278471921581671
31
0
210
0
220
0
230
1
40
0.394318
41
-2.99660724386014
42
-2.16841033890646
0
ELLIPSE
5
15C
100
AcDbEntity
8
1
62
256
6
ByLayer
370
13
48
1
60
0
100
AcDbEllipse
10
51.167717
20
-21.482663
30
0
11
-0.111594752970814
21
0.278471921581661
31
0
210
0
220
0
230
1
40
0.394318
41
-0.973182314683367
42
-0.14498540972956
0
ELLIPSE
5
15D
100
AcDbEntity
8
1
62
256
6
ByLayer
370
13
48
1
60
0
100
AcDbEllipse
10
51.014981
20
-20.606093
30
0
11
0.0722486702513559
21
0.131453906929048
31
0
210
0
220
0
230
1
40
0.303884
41
1.73628735495827
42
2.71919261109656
0
ELLIPSE
5
15E
100
AcDbEntity
8
1
62
256
6
ByLayer
370
13
48
1
60
0
100
AcDbEllipse
10
51.014981
20
-21.393907
30
0
11
-0.0722486702265449
21
0.131453906942685
31
0
210
0
220
0
230
1
40
0.303884
41
0.422400042195261
42
1.40530529868891
0
ELLIPSE
5
15F
100
AcDbEntity
8
1
62
256
6
ByLayer
370
13
48
1
60
0
100
AcDbEllipse
10
52.293937
20
-21.130996
30
0
11
0.288517367888856
21
-0.0822054038764276
31
0
210
0
220
0
230
1
40
0.201316
41
0.955679576570857
42
1.50320190071237
0
ELLIPSE
5
160
100
AcDbEntity
8
1
62
256
6
ByLayer
370
13
48
1
60
0
100
AcDbEllipse
10
50.992833
20
-20.587446
30
0
11
0.122999586129777
21
0.0858551210581151
31
0
210
0
220
0
230
1
40
0.203946
41
1.85506502495937
42
2.61874247938671
0
ELLIPSE
5
161
100
AcDbEntity
8
1
62
256
6
ByLayer
370
13
48
1
60
0
100
AcDbEllipse
10
50.992833
20
-21.412554
30
0
11
-0.122999586130244
21
0.0858551210574456
31
0
210
0
220
0
230
1
40
0.203946
41
0.522850174197462
42
1.28652762862998
0
ELLIPSE
5
162
100
AcDbEntity
8
1
62
256
6
ByLayer
370
13
48
1
60
0
100
AcDbEllipse
10
52.293937
20
-20.869004
30
0
11
-0.288517367888757
21
-0.0822054038767749
31
0
210
0
220
0
230
1
40
0.201316
41
1.63839075288011
42
2.18591307702117
0
ELLIPSE
5
163
100
AcDbEntity
8
1
62
256
6
ByLayer
370
13
48
1
60
0
100
AcDbEllipse
10
50.978252
20
-20.561581
30
0
11
0.136631968823999
21
0.0619007681315656
31
0
210
0
220
0
230
1
40
0.148534
41
1.88760878179943
42
2.74962710514653
0
ELLIPSE
5
164
100
AcDbEntity
8
1
62
256
6
ByLayer
370
13
48
1
60
0
100
AcDbEllipse
10
50.978252
20
-21.438419
30
0
11
0.136631968824137
21
-0.0619007681312608
31
0
210
0
220
0
230
1
40
0.148534
41
-2.7496271051593
42
-1.88760878179988
0
ELLIPSE
5
165
100
AcDbEntity
8
1
62
256
6
ByLayer
370
13
48
1
60
0
100
AcDbEllipse
10
50.838501
20
-21.725438
30
0
11
0.132407679423122
21
-0.0704855051041258
31
0
210
0
220
0
230
1
40
0.168583
41
-2.61018272665897
42
-1.87748899426514
0
ELLIPSE
5
166
100
AcDbEntity
8
1
62
256
6
ByLayer
370
13
48
1
60
0
100
AcDbEllipse
10
50.838501
20
-20.274562
30
0
11
0.132407679423122
21
0.0704855051041255
31
0
210
0
220
0
230
1
40
0.168583
41
1.87748899426518
42
2.61018272665897
0
ELLIPSE
5
167
100
AcDbEntity
8
1
62
256
6
ByLayer
370
13
48
1
60
0
100
AcDbEllipse
10
51.042406
20
-20.569126
30
0
11
-0.0486052519780795
21
-0.194003941919095
31
0
210
0
220
0
230
1
40
0.669878
41
-0.553928558803269
42
-0.205864067887425
0
ELLIPSE
5
168
100
AcDbEntity
8
1
62
256
6
ByLayer
370
13
48
1
60
0
100
AcDbEllipse
10
51.022373
20
-20.566064
30
0
11
5.665498452323E-17
21
0.2
31
0
210
0
220
0
230
1
40
0.909654
41
1.90677220782004
42
2.7252107293006
0
ELLIPSE
5
169
100
AcDbEntity
8
1
62
256
6
ByLayer
370
13
48
1
60
0
100
AcDbEllipse
10
51.022373
20
-21.433936
30
0
11
5.665498452323E-17
21
0.2
31
0
210
0
220
0
230
1
40
0.909654
41
0.416381924289164
42
1.2348204457749
0
ELLIPSE
5
16A
100
AcDbEntity
8
1
62
256
6
ByLayer
370
13
48
1
60
0
100
AcDbEllipse
10
51.042406
20
-21.430874
30
0
11
-0.0486052519780804
21
0.194003941919095
31
0
210
0
220
0
230
1
40
0.669878
41
0.205864067887425
42
0.55392855847672
0
ELLIPSE
5
16B
100
AcDbEntity
8
1
62
256
6
ByLayer
370
13
48
1
60
0
100
AcDbEllipse
10
50.838501
20
-21.725438
30
0
11
4.24912383924225E-17
21
0.15
31
0
210
0
220
0
230
1
40
0.848573
41
1.23482044578598
42
1.5707963267949
0
ELLIPSE
5
16C
100
AcDbEntity
8
1
62
256
6
ByLayer
370
13
48
1
60
0
100
AcDbEllipse
10
50.838501
20
-20.274562
30
0
11
4.24912383924225E-17
21
0.15
31
0
210
0
220
0
230
1
40
0.848573
41
1.5707963267949
42
1.90677220780382
0
ELLIPSE
5
16D
100
AcDbEntity
8
1
62
256
6
ByLayer
370
13
48
1
60
0
100
AcDbEllipse
10
50.534034
20
-20.566064
30
0
11
5.665498452323E-17
21
0.2
31
0
210
0
220
0
230
1
40
0.34202
41
1.90677220780379
42
2.72521072930056
0
ELLIPSE
5
16E
100
AcDbEntity
8
1
62
256
6
ByLayer
370
13
48
1
60
0
100
AcDbEllipse
10
50.534034
20
-21.433936
30
0
11
-3.67381906146713E-17
21
-0.2
31
0
210
0
220
0
230
1
40
0.34202
41
-2.72521072930056
42
-1.90677220780379
0
ELLIPSE
5
16F
100
AcDbEntity
8
1
62
256
6
ByLayer
370
13
48
1
60
0
100
AcDbEllipse
10
50.78303
20
-23.080141
30
0
11
-3.67381906146715E-16
21
-2.00000000000001
31
0
210
0
220
0
230
1
40
0.34202
41
-2.79252680319093
42
-2.7252107293006
0
ELLIPSE
5
170
100
AcDbEntity
8
1
62
256
6
ByLayer
370
13
48
1
60
0
100
AcDbEllipse
10
50.481103
20
-21.725438
30
0
11
-2.75536429610035E-17
21
-0.15
31
0
210
0
220
0
230
1
40
0.34202
41
-1.90677220780376
42
-1.5707963267949
0
ELLIPSE
5
171
100
AcDbEntity
8
1
62
256
6
ByLayer
370
13
48
1
60
0
100
AcDbEllipse
10
50.78303
20
-18.919859
30
0
11
5.66549845232303E-16
21
2.00000000000001
31
0
210
0
220
0
230
1
40
0.34202
41
2.7252107293006
42
2.79252680319093
0
ELLIPSE
5
172
100
AcDbEntity
8
1
62
256
6
ByLayer
370
13
48
1
60
0
100
AcDbEllipse
10
54.222654
20
-20.108695
30
0
11
0.00588101291965487
21
-0.239927934361631
31
0
210
0
220
0
230
1
40
0.175234
41
-1.50631558565102
42
-0.75053540047296
0
ELLIPSE
5
173
100
AcDbEntity
8
1
62
256
6
ByLayer
370
13
48
1
60
0
100
AcDbEllipse
10
50.481103
20
-20.274562
30
0
11
4.24912383924225E-17
21
0.15
31
0
210
0
220
0
230
1
40
0.34202
41
1.5707963267949
42
1.90677220780376
0
ELLIPSE
5
174
100
AcDbEntity
8
1
62
256
6
ByLayer
370
13
48
1
60
0
100
AcDbEllipse
10
54.222654
20
-21.891305
30
0
11
0.00588101291965508
21
0.239927934361631
31
0
210
0
220
0
230
1
40
0.175234
41
0.750535400473082
42
1.50631558565102
0
ELLIPSE
5
175
100
AcDbEntity
8
1
62
256
6
ByLayer
370
13
48
1
60
0
100
AcDbEllipse
10
50.527723
20
-21
30
0
11
5.94877337493915E-17
21
0.21
31
0
210
0
220
0
230
1
40
0.34202
41
-2.79252680319099
42
-0.349065850398808
0
ELLIPSE
5
176
100
AcDbEntity
8
1
62
256
6
ByLayer
370
13
48
1
60
0
100
AcDbEllipse
10
54.75209
20
-21.687793
30
0
11
-0.0532002340369041
21
0.0846742882959086
31
0
210
0
220
0
230
1
40
0.139782
41
-1.57684789387814
42
-0.739654044676881
0
ELLIPSE
5
177
100
AcDbEntity
8
1
62
256
6
ByLayer
370
13
48
1
60
0
100
AcDbEllipse
10
54.913506
20
-21.538045
30
0
11
-0.0833195870797989
21
0.0552977975045282
31
0
210
0
220
0
230
1
40
0.125168
41
-1.63384778655083
42
-1.00901921834382
0
ELLIPSE
5
178
100
AcDbEntity
8
1
62
256
6
ByLayer
370
13
48
1
60
0
100
AcDbEllipse
10
54.75209
20
-20.312207
30
0
11
-0.0532002340369042
21
-0.0846742882959085
31
0
210
0
220
0
230
1
40
0.139782
41
0.739654044677543
42
1.57684789387821
0
ELLIPSE
5
179
100
AcDbEntity
8
1
62
256
6
ByLayer
370
13
48
1
60
0
100
AcDbEllipse
10
54.913506
20
-20.461955
30
0
11
-0.0833195870797989
21
-0.0552977975045282
31
0
210
0
220
0
230
1
40
0.125168
41
1.00901921834382
42
1.63384778655097
0
ELLIPSE
5
17A
100
AcDbEntity
8
1
62
256
6
ByLayer
370
13
48
1
60
0
100
AcDbEllipse
10
54.441387
20
-20.647871
30
0
11
0.0115886927836045
21
-0.399832092508302
31
0
210
0
220
0
230
1
40
0.406594
41
1.55901218905987
42
2.3232525177661
0
ELLIPSE
5
17B
100
AcDbEntity
8
1
62
256
6
ByLayer
370
13
48
1
60
0
100
AcDbEllipse
10
54.441387
20
-21.352129
30
0
11
0.0115886927836044
21
0.399832092508302
31
0
210
0
220
0
230
1
40
0.406594
41
-2.3232525177661
42
-1.55901218905987
0
ELLIPSE
5
17C
100
AcDbEntity
8
1
62
256
6
ByLayer
370
13
48
1
60
0
100
AcDbEllipse
10
54.598358
20
-21.800378
30
0
11
0.0768343605824262
21
-0.0640037579669329
31
0
210
0
220
0
230
1
40
0.131171
41
1.52167934605466
42
1.98237212656392
0
ELLIPSE
5
17D
100
AcDbEntity
8
1
62
256
6
ByLayer
370
13
48
1
60
0
100
AcDbEllipse
10
54.694545
20
-21.723676
30
0
11
-0.0526170259943807
21
0.0850379243367727
31
0
210
0
220
0
230
1
40
0.13982
41
-1.57588705481515
42
-0.737799907002018
0
ELLIPSE
5
17E
100
AcDbEntity
8
1
62
256
6
ByLayer
370
13
48
1
60
0
100
AcDbEllipse
10
54.694545
20
-20.276324
30
0
11
-0.0526170259943807
21
-0.0850379243367726
31
0
210
0
220
0
230
1
40
0.13982
41
0.73779990700197
42
1.57588705481515
0
ELLIPSE
5
17F
100
AcDbEntity
8
1
62
256
6
ByLayer
370
13
48
1
60
0
100
AcDbEllipse
10
54.598358
20
-20.199622
30
0
11
0.0768343605824262
21
0.0640037579669328
31
0
210
0
220
0
230
1
40
0.131171
41
-1.98237212656405
42
-1.52167934605473
0
ELLIPSE
5
180
100
AcDbEntity
8
1
62
256
6
ByLayer
370
13
48
1
60
0
100
AcDbEllipse
10
53.833781
20
-21.883503
30
0
11
-0.00779618045171957
21
0.239873340682878
31
0
210
0
220
0
230
1
40
0.002272
41
-1.50102006034378
42
-0.730980747441888
0
ELLIPSE
5
181
100
AcDbEntity
8
1
62
256
6
ByLayer
370
13
48
1
60
0
100
AcDbEllipse
10
54.935851
20
-20.496575
30
0
11
-0.0846406472330468
21
-0.0532537401125116
31
0
210
0
220
0
230
1
40
0.065248
41
1.04586785899545
42
1.67413113259329
0
ELLIPSE
5
182
100
AcDbEntity
8
1
62
256
6
ByLayer
370
13
48
1
60
0
100
AcDbEllipse
10
53.833781
20
-20.116497
30
0
11
-0.00779618045171942
21
-0.239873340682878
31
0
210
0
220
0
230
1
40
0.002272
41
0.730980747432926
42
1.50102006034378
0
ELLIPSE
5
183
100
AcDbEntity
8
1
62
256
6
ByLayer
370
13
48
1
60
0
100
AcDbEllipse
10
54.935851
20
-21.503425
30
0
11
-0.0846406472330468
21
0.0532537401125117
31
0
210
0
220
0
230
1
40
0.065248
41
-1.67413113259322
42
-1.04586785899628
0
ELLIPSE
5
184
100
AcDbEntity
8
1
62
256
6
ByLayer
370
13
48
1
60
0
100
AcDbEllipse
10
47.074248
20
-21.869586
30
0
11
0.979582052391728
21
0.301726209244764
31
0
210
0
220
0
230
-1
40
0.270086
41
-2.11639244202688
42
-1.98807590266459
0
ELLIPSE
5
185
100
AcDbEntity
8
1
62
256
6
ByLayer
370
13
48
1
60
0
100
AcDbEllipse
10
47.074248
20
-20.130414
30
0
11
0.979582053707095
21
-0.301726209392892
31
0
210
0
220
0
230
-1
40
0.270086
41
1.98807590314882
42
2.11639244237155
0
ELLIPSE
5
186
100
AcDbEntity
8
1
62
256
6
ByLayer
370
13
48
1
60
0
100
AcDbEllipse
10
47.074248
20
-21.869586
30
0
11
0.998914191928001
21
0.226032306494628
31
0
210
0
220
0
230
-1
40
0.206112
41
-2.07998265389195
42
-1.87325735084812
0
ELLIPSE
5
187
100
AcDbEntity
8
1
62
256
6
ByLayer
370
13
48
1
60
0
100
AcDbEllipse
10
47.074248
20
-20.130414
30
0
11
0.998914192263792
21
-0.226032306517606
31
0
210
0
220
0
230
-1
40
0.206112
41
1.87325735103228
42
2.07998265402179
0
ELLIPSE
5
188
100
AcDbEntity
8
1
62
256
6
ByLayer
370
18
48
1
60
0
100
AcDbEllipse
10
54.581337
20
-21.976087
30
0
11
0.239998277175974
21
-0.0147981978097375
31
0
210
0
220
0
230
-1
40
0.061458
41
1.44512848019392
42
1.74112318460374
0
ELLIPSE
5
189
100
AcDbEntity
8
1
62
256
6
ByLayer
370
18
48
1
60
0
100
AcDbEllipse
10
52.048461
20
-21.666924
30
0
11
0.057752929499109
21
0.191891975732293
31
0
210
-1.59650527093405E-15
220
-7.67208394159938E-18
230
1
40
0.998032
41
2.91077570167875
42
-2.91077570167873
0
ELLIPSE
5
18A
100
AcDbEntity
8
1
62
256
6
ByLayer
370
18
48
1
60
0
100
AcDbEllipse
10
51.82387
20
-20
30
0
11
0.201490790302156
21
0
31
0
210
0
220
0
230
1
40
0.992601
41
-1.5707963267949
42
-1.04397591016874
0
ELLIPSE
5
18B
100
AcDbEntity
8
1
62
256
6
ByLayer
370
18
48
1
60
0
100
AcDbEllipse
10
54.581337
20
-20.023913
30
0
11
0.239998277221428
21
0.0147981978126238
31
0
210
0
220
0
230
-1
40
0.061458
41
-1.74112318456542
42
-1.44512848021218
0
ELLIPSE
5
18C
100
AcDbEntity
8
1
62
256
6
ByLayer
370
18
48
1
60
0
100
AcDbEllipse
10
52.163726
20
-21.856339
30
0
11
0.302024948154583
21
-0.0186199320930927
31
0
210
0
220
0
230
-1
40
0.060635
41
0.776166089234007
42
1.5627837121592
0
ELLIPSE
5
18D
100
AcDbEntity
8
1
62
256
6
ByLayer
370
18
48
1
60
0
100
AcDbEllipse
10
52.048461
20
-20.333076
30
0
11
0.0577529294991086
21
-0.191891975732293
31
0
210
-1.62972770132427E-15
220
-2.32673269882162E-18
230
1
40
0.998032
41
2.91077570167873
42
-2.91077570167875
0
ELLIPSE
5
18E
100
AcDbEntity
8
1
62
256
6
ByLayer
370
18
48
1
60
0
100
AcDbEllipse
10
55.048748
20
-21.503425
30
0
11
1.1330996904646E-16
21
0.4
31
0
210
0
220
0
230
1
40
0.121869
41
1.5707963267949
42
1.64009079051253
0
ELLIPSE
5
18F
100
AcDbEntity
8
1
62
256
6
ByLayer
370
18
48
1
60
0
100
AcDbEllipse
10
52.163726
20
-20.143661
30
0
11
0.302024948152741
21
0.0186199320928994
31
0
210
0
220
0
230
-1
40
0.060635
41
-1.56278371216366
42
-0.77616608923406
0
ELLIPSE
5
190
100
AcDbEntity
8
1
62
256
6
ByLayer
370
18
48
1
60
0
100
AcDbEllipse
10
51.82387
20
-22
30
0
11
-0.201490790302156
21
2.46746902040712E-17
31
0
210
0
220
0
230
1
40
0.992601
41
-2.09761674342106
42
-1.5707963267949
0
ELLIPSE
5
191
100
AcDbEntity
8
1
62
256
6
ByLayer
370
18
48
1
60
0
100
AcDbEllipse
10
55.048748
20
-20.496575
30
0
11
1.1330996904646E-16
21
0.4
31
0
210
0
220
0
230
1
40
0.121869
41
1.50150186307724
42
1.5707963267949
0
POINT
5
6C
100
AcDbEntity
8
80
62
256
6
ByLayer
370
18
48
1
60
0
100
AcDbPoint
10
0
20
0
30
0
39
0
210
0
220
0
230
1
50
360
0
POINT
5
6E
100
AcDbEntity
8
81
62
256
6
ByLayer
370
18
48
1
60
0
100
AcDbPoint
10
55
20
-22
30
0
39
0
210
0
220
0
230
1
50
360
0
SPLINE
5
192
100
AcDbEntity
8
SK1
62
256
6
ByLayer
370
13
48
1
60
0
100
AcDbSpline
70
4
71
2
72
6
73
3
40
0
40
0
40
0
40
1
40
1
40
1
41
1
10
-18
20
-10.607592753875
30
0
41
1
10
-9.74999999580726
20
-10.8147118141342
30
0
41
1
10
-1.49999999999997
20
-11.0218291766808
30
0
0
SPLINE
5
193
100
AcDbEntity
8
SK1
62
256
6
ByLayer
370
13
48
1
60
0
100
AcDbSpline
70
4
71
2
72
6
73
3
40
0
40
0
40
0
40
1
40
1
40
1
41
1
10
-1.49999999999997
20
11.021829034714
30
0
41
1
10
-9.74999999580729
20
10.8147116728235
30
0
41
1
10
-18
20
10.6075926131751
30
0
0
SPLINE
5
194
100
AcDbEntity
8
SK1
62
256
6
ByLayer
370
13
48
1
60
0
100
AcDbSpline
70
4
71
2
72
6
73
3
40
0
40
0
40
0
40
1
40
1
40
1
41
1
10
-19
20
-10.0329645549392
30
0
41
1
10
-18.4999993685751
20
-10.3214765556861
30
0
41
1
10
-18
20
-10.6099829102616
30
0
0
SPLINE
5
195
100
AcDbEntity
8
SK1
62
256
6
ByLayer
370
13
48
1
60
0
100
AcDbSpline
70
4
71
2
72
6
73
3
40
0
40
0
40
0
40
1
40
1
40
1
41
1
10
-18
20
10.6099827775057
30
0
41
1
10
-18.4999993686076
20
10.3214764228909
30
0
41
1
10
-19
20
10.0329644221717
30
0
0
SPLINE
5
196
100
AcDbEntity
8
SK1
62
256
6
ByLayer
370
13
48
1
60
0
100
AcDbSpline
70
4
71
3
72
13
73
9
40
0
40
0
40
0
40
0
40
0.239519409344977
40
0.368436717937908
40
0.50007527408638
40
0.631702862900145
40
0.7605877576093
40
1
40
1
40
1
40
1
41
1
10
-1.29503997793927
20
10.8302906518511
30
0
41
1
10
-1.32110811439463
20
10.8298878106464
30
0
41
1
10
-1.35883625148523
20
10.8360574938784
30
0
41
1
10
-1.40627518083025
20
10.8590917794411
30
0
41
1
10
-1.43886259270587
20
10.8842489053808
30
0
41
1
10
-1.46563525678502
20
10.9155177526731
30
0
41
1
10
-1.49103252451869
20
10.9617179528094
30
0
41
1
10
-1.49909162766016
20
10.9990755987902
30
0
41
1
10
-1.49999999999997
20
11.0251228679298
30
0
0
SPLINE
5
197
100
AcDbEntity
8
SK1
62
256
6
ByLayer
370
13
48
1
60
0
100
AcDbSpline
70
4
71
3
72
13
73
9
40
0
40
0
40
0
40
0
40
0.239418216240429
40
0.368302331661081
40
0.49992875402209
40
0.631568038325906
40
0.760485869348387
40
1
40
1
40
1
40
1
41
1
10
-1.49999999999997
20
-11.0251229634028
30
0
41
1
10
-1.49909191796942
20
-10.9990761096856
30
0
41
1
10
-1.49103287968455
20
-10.9617189548704
30
0
41
1
10
-1.46563532904136
20
-10.9155178559453
30
0
41
1
10
-1.4388623293676
20
-10.8842487422284
30
0
41
1
10
-1.40627519739922
20
-10.8590919385496
30
0
41
1
10
-1.35883704267303
20
-10.8360578591166
30
0
41
1
10
-1.32110848256451
20
-10.8298881386429
30
0
41
1
10
-1.29503997793927
20
-10.8302907478373
30
0
0
SPLINE
5
198
100
AcDbEntity
8
SK1
62
256
6
ByLayer
370
13
48
1
60
0
100
AcDbSpline
70
4
71
3
72
8
73
4
40
0
40
0
40
0
40
0
40
1
40
1
40
1
40
1
41
1
10
-1.29503997793927
20
-3.40161170366466
30
0
41
1
10
-1.30169623417874
20
-3.37164748523213
30
0
41
1
10
-1.30849408485736
20
-3.3417835480756
30
0
41
1
10
-1.31543506509496
20
-3.31204600014945
30
0
0
SPLINE
5
199
100
AcDbEntity
8
SK1
62
256
6
ByLayer
370
13
48
1
60
0
100
AcDbSpline
70
4
71
3
72
35
73
31
40
0
40
0
40
0
40
0
40
0.0158969520129032
40
0.0443712384355959
40
0.101319811280981
40
0.158268384126367
40
0.215216956971752
40
0.272165529817137
40
0.329114102662523
40
0.357588389085216
40
0.386062675507908
40
0.414536961930601
40
0.443011248353294
40
0.471485534775986
40
0.485722677987333
40
0.499959821198679
40
0.514196964410025
40
0.528434107621372
40
0.556908394044064
40
0.585382680466757
40
0.61385696688945
40
0.642331253312142
40
0.670805539734835
40
0.727754112580221
40
0.784702685425606
40
0.841651258270991
40
0.898599831116377
40
0.955548403961762
40
0.984022690384455
40
1
40
1
40
1
40
1
41
1
10
-18
20
10.6092651402328
30
0
41
1
10
-18
20
10.6060349451508
30
0
41
1
10
-18
20
10.582502105392
30
0
41
1
10
-18
20
10.4427418173596
30
0
41
1
10
-18
20
10.039801389446
30
0
41
1
10
-18
20
9.27403601894571
30
0
41
1
10
-18
20
8.25699665980409
30
0
41
1
10
-17.9999999999999
20
7.00895321986491
30
0
41
1
10
-18
20
5.789651328996
30
0
41
1
10
-18
20
4.70769937196638
30
0
41
1
10
-18
20
3.8481716606739
30
0
41
1
10
-18
20
2.94117947415674
30
0
41
1
10
-18
20
1.99095585453046
30
0
41
1
10
-18
20
1.17129189084341
30
0
41
1
10
-18
20
0.501599059707416
30
0
41
1
10
-18
20
7.85942689E-08
30
0
41
1
10
-18
20
-0.501599044412245
30
0
41
1
10
-18
20
-1.17129192458182
30
0
41
1
10
-18
20
-1.99095571595873
30
0
41
1
10
-18
20
-2.94117931205878
30
0
41
1
10
-18
20
-3.84817175180615
30
0
41
1
10
-18
20
-4.70769924070137
30
0
41
1
10
-18
20
-5.78965120402762
30
0
41
1
10
-18
20
-7.00895314702163
30
0
41
1
10
-18
20
-8.25699691773565
30
0
41
1
10
-18
20
-9.27403581023768
30
0
41
1
10
-18
20
-10.0398019205168
30
0
41
1
10
-18
20
-10.4427418393662
30
0
41
1
10
-17.9999999999999
20
-10.5826132751707
30
0
41
1
10
-17.9999999999999
20
-10.6061202367502
30
0
41
1
10
-18
20
-10.6093138598004
30
0
0
SPLINE
5
19A
100
AcDbEntity
8
SK1
62
256
6
ByLayer
370
13
48
1
60
0
100
AcDbSpline
70
4
71
3
72
24
73
20
40
0
40
0
40
0
40
0
40
0.128387595311813
40
0.128387595311813
40
0.159816787055521
40
0.159816787055521
40
0.191913564334582
40
0.191913564334582
40
0.209621992347204
40
0.209621992347204
40
0.227357368925648
40
0.227357368925648
40
0.251017095035082
40
0.251017095035082
40
0.29304286827492
40
0.29304286827492
40
0.42610984103378
40
0.42610984103378
40
1
40
1
40
1
40
1
41
1
10
-0.194976888875288
20
4.3757988118046
30
0
41
1
10
-0.18137660984678
20
4.35077182852029
30
0
41
1
10
-0.166084452907398
20
4.32613296449392
30
0
41
1
10
-0.140434718547567
20
4.30354219591206
30
0
41
1
10
-0.134934284841819
20
4.29948916182235
30
0
41
1
10
-0.122846025128126
20
4.29329535928457
30
0
41
1
10
-0.116020442370484
20
4.29111917578791
30
0
41
1
10
-0.10488472867587
20
4.29110815705076
30
0
41
1
10
-0.100717557341852
20
4.29180717572166
30
0
41
1
10
-0.0926853821894156
20
4.29472464897347
30
0
41
1
10
-0.0887307273814599
20
4.29697782288551
30
0
41
1
10
-0.080322104594643
20
4.30341451620876
30
0
41
1
10
-0.0759893926375526
20
4.30805199521822
30
0
41
1
10
-0.0654876521095389
20
4.32177471162365
30
0
41
1
10
-0.0601619056927518
20
4.33174670235809
30
0
41
1
10
-0.0414836434766244
20
4.37335200507897
30
0
41
1
10
-0.0338202360854325
20
4.40700915264043
30
0
41
1
10
-0.0008505118825042
20
4.58041352035119
30
0
41
1
10
0
20
4.71858084962955
30
0
41
1
10
0
20
4.85235826679354
30
0
0
SPLINE
5
19B
100
AcDbEntity
8
SK1
62
256
6
ByLayer
370
13
48
1
60
0
100
AcDbSpline
70
4
71
3
72
24
73
20
40
0
40
0
40
0
40
0
40
0.0961745797005886
40
0.0961745797005886
40
0.194283388716182
40
0.194283388716182
40
0.224865974099178
40
0.224865974099178
40
0.255924800747755
40
0.255924800747755
40
0.283007420751283
40
0.283007420751283
40
0.322155407812253
40
0.322155407812253
40
0.396635895252635
40
0.396635895252635
40
0.655257204705364
40
0.655257204705364
40
1
40
1
40
1
40
1
41
1
10
-0.194976888875288
20
-4.37579839097893
30
0
41
1
10
-0.225778603393678
20
-4.43247910089605
30
0
41
1
10
-0.260015938127054
20
-4.48781319119911
30
0
41
1
10
-0.341702551245618
20
-4.59153420480993
30
0
41
1
10
-0.390118921162298
20
-4.64237259472057
30
0
41
1
10
-0.473016748626179
20
-4.68771235181489
30
0
41
1
10
-0.494887129060402
20
-4.69691757833212
30
0
41
1
10
-0.541277938016066
20
-4.70885491730419
30
0
41
1
10
-0.566511484960273
20
-4.71148681970905
30
0
41
1
10
-0.612595492696755
20
-4.70858984525526
30
0
41
1
10
-0.634102058640735
20
-4.70407498906408
30
0
41
1
10
-0.682980774672387
20
-4.68755425299921
30
0
41
1
10
-0.709628474198865
20
-4.67305795132458
30
0
41
1
10
-0.778816689935013
20
-4.6254478384819
30
0
41
1
10
-0.816326813882228
20
-4.5867230927814
30
0
41
1
10
-0.962957354385765
20
-4.40775966937647
30
0
41
1
10
-1.03461938473899
20
-4.24573672775639
30
0
41
1
10
-1.18088300049365
20
-3.86444045923278
30
0
41
1
10
-1.24300370483721
20
-3.63586143768143
30
0
41
1
10
-1.29503997793927
20
-3.40161170366477
30
0
0
SPLINE
5
19C
100
AcDbEntity
8
SK1
62
256
6
ByLayer
370
13
48
1
60
0
100
AcDbSpline
70
4
71
3
72
24
73
20
40
0
40
0
40
0
40
0
40
0.128390282722958
40
0.128390282722958
40
0.159820685571382
40
0.159820685571382
40
0.191919560201241
40
0.191919560201241
40
0.209629751442628
40
0.209629751442628
40
0.227366395121425
40
0.227366395121425
40
0.251045182234361
40
0.251045182234361
40
0.293121391520772
40
0.293121391520772
40
0.426409855476774
40
0.426409855476774
40
1
40
1
40
1
40
1
41
1
10
-0.194976888875288
20
-10.8215957545435
30
0
41
1
10
-0.181375896166998
20
-10.8243422473104
30
0
41
1
10
-0.166081841895561
20
-10.8279644857846
30
0
41
1
10
-0.140426444643396
20
-10.8375064215378
30
0
41
1
10
-0.134924488239079
20
-10.8396997158019
30
0
41
1
10
-0.122832871486764
20
-10.8450247330173
30
0
41
1
10
-0.116005084540177
20
-10.8482784930315
30
0
41
1
10
-0.104867300913668
20
-10.8542304518888
30
0
41
1
10
-0.100699542547375
20
-10.8565852604386
30
0
41
1
10
-0.0926672813067171
20
-10.8614000855952
30
0
41
1
10
-0.0887131267117809
20
-10.8639138269671
30
0
41
1
10
-0.0803023877863609
20
-10.8695389018216
30
0
41
1
10
-0.075967906629927
20
-10.8726604895888
30
0
41
1
10
-0.0654598680694107
20
-10.8806226953324
30
0
41
1
10
-0.0601314814749969
20
-10.8851372207404
30
0
41
1
10
-0.0414385869534328
20
-10.9019165369332
30
0
41
1
10
-0.0337743229471243
20
-10.9111229596336
30
0
41
1
10
-0.000860220666965
20
-10.9533220423453
30
0
41
1
10
0
20
-10.9679034889487
30
0
41
1
10
0
20
-10.9778577586145
30
0
0
SPLINE
5
19D
100
AcDbEntity
8
SK1
62
256
6
ByLayer
370
13
48
1
60
0
100
AcDbSpline
70
4
71
3
72
24
73
20
40
0
40
0
40
0
40
0
40
0.096239234706002
40
0.096239234706002
40
0.194419571814838
40
0.194419571814838
40
0.224980323085269
40
0.224980323085269
40
0.256016565584888
40
0.256016565584888
40
0.283076636965055
40
0.283076636965055
40
0.322241448517625
40
0.322241448517625
40
0.396807099691225
40
0.396807099691225
40
0.656078947673012
40
0.656078947673012
40
1
40
1
40
1
40
1
41
1
10
-0.194976888875288
20
10.821595605962
30
0
41
1
10
-0.225800270974958
20
10.8153713475797
30
0
41
1
10
-0.260059369691703
20
10.808546539551
30
0
41
1
10
-0.341803934200783
20
10.7942702716737
30
0
41
1
10
-0.390260016175944
20
10.7864259269631
30
0
41
1
10
-0.473222837684091
20
10.7780887432034
30
0
41
1
10
-0.495087626885805
20
10.7762370295385
30
0
41
1
10
-0.541459979792023
20
10.7733404617968
30
0
41
1
10
-0.566679982514586
20
10.772292724358
30
0
41
1
10
-0.612728669915469
20
10.7714551070538
30
0
41
1
10
-0.634214108805367
20
10.7715049109725
30
0
41
1
10
-0.683080106698753
20
10.7724623164841
30
0
41
1
10
-0.709729978200102
20
10.7737217298434
30
0
41
1
10
-0.778953436207246
20
10.7781755666157
30
0
41
1
10
-0.816482927715953
20
10.7820991609815
30
0
41
1
10
-0.963349723037368
20
10.7994211291878
30
0
41
1
10
-1.03512095929005
20
10.8126881790273
30
0
41
1
10
-1.1812046307582
20
10.8317285533686
30
0
41
1
10
-1.24312046576102
20
10.834837438425
30
0
41
1
10
-1.29503997793927
20
10.8279545871449
30
0
0
SPLINE
5
19E
100
AcDbEntity
8
SK1
62
256
6
ByLayer
370
13
48
1
60
0
100
AcDbSpline
70
4
71
3
72
28
73
24
40
0
40
0
40
0
40
0
40
0.51238977263449
40
0.51238977263449
40
0.598731913641309
40
0.598731913641309
40
0.676265860996133
40
0.676265860996133
40
0.732149327534983
40
0.732149327534983
40
0.756724770902923
40
0.756724770902923
40
0.781793306259566
40
0.781793306259566
40
0.799361847026929
40
0.799361847026929
40
0.816826010501027
40
0.816826010501027
40
0.846186813769724
40
0.846186813769724
40
0.905539732453548
40
0.905539732453548
40
1
40
1
40
1
40
1
41
1
10
0
20
-4.85235750507829
30
0
41
1
10
0
20
-4.73258035965034
30
0
41
1
10
-0.0021341972527296
20
-4.60969891010154
30
0
41
1
10
-0.023278650793003
20
-4.4630263722743
30
0
41
1
10
-0.0269092785203213
20
-4.44166333235873
30
0
41
1
10
-0.0357027926590661
20
-4.4011617545153
30
0
41
1
10
-0.0406406591743291
20
-4.38191437517219
30
0
41
1
10
-0.0520117846027404
20
-4.34944869087866
30
0
41
1
10
-0.0576636066332412
20
-4.33583294590207
30
0
41
1
10
-0.0685385681382797
20
-4.31781684750905
30
0
41
1
10
-0.072298477158995
20
-4.31246867438256
30
0
41
1
10
-0.0809092003855483
20
-4.30291138710985
30
0
41
1
10
-0.0859393324077757
20
-4.29861365633266
30
0
41
1
10
-0.0951339015146573
20
-4.29362932415091
30
0
41
1
10
-0.0992015134455357
20
-4.29221665297047
30
0
41
1
10
-0.107162338092422
20
-4.29091978708678
30
0
41
1
10
-0.111142011695904
20
-4.29099599703486
30
0
41
1
10
-0.121216352207227
20
-4.29265629948989
30
0
41
1
10
-0.12711304557169
20
-4.29518639800139
30
0
41
1
10
-0.143301351324823
20
-4.30481339036496
30
0
41
1
10
-0.152491885173561
20
-4.31398732372969
30
0
41
1
10
-0.173901568135449
20
-4.33947815148443
30
0
41
1
10
-0.184949910857512
20
-4.35734694302357
30
0
41
1
10
-0.194976888875288
20
-4.3757983909789
30
0
0
SPLINE
5
19F
100
AcDbEntity
8
SK1
62
256
6
ByLayer
370
13
48
1
60
0
100
AcDbSpline
70
4
71
3
72
28
73
24
40
0
40
0
40
0
40
0
40
0.51237621872853
40
0.51237621872853
40
0.59879650346399
40
0.59879650346399
40
0.676463520254732
40
0.676463520254732
40
0.732063551227172
40
0.732063551227172
40
0.756744297249875
40
0.756744297249875
40
0.781926249196653
40
0.781926249196653
40
0.799501894551711
40
0.799501894551711
40
0.816971939098931
40
0.816971939098931
40
0.84641214516632
40
0.84641214516632
40
0.90600512067695
40
0.90600512067695
40
1
40
1
40
1
40
1
41
1
10
2.84E-14
20
10.9778576762541
30
0
41
1
10
2.84E-14
20
10.9689409125151
30
0
41
1
10
-0.0021336807887451
20
10.9555532512505
30
0
41
1
10
-0.0232748724177725
20
10.9246518484714
30
0
41
1
10
-0.0269083003946662
20
10.9197287260978
30
0
41
1
10
-0.0357145212995249
20
10.9091097226556
30
0
41
1
10
-0.0406627960332457
20
10.9035431698628
30
0
41
1
10
-0.0520351547614268
20
10.8923441823341
30
0
41
1
10
-0.0576624789276821
20
10.8871325052028
30
0
41
1
10
-0.068502297999288
20
10.8783230690717
30
0
41
1
10
-0.0722755852241335
20
10.8753918789564
30
0
41
1
10
-0.0809223725233323
20
10.8691153689023
30
0
41
1
10
-0.0859779850562461
20
10.8656564118428
30
0
41
1
10
-0.0952029059707513
20
10.8598435694817
30
0
41
1
10
-0.0992734436412377
20
10.8574159266208
30
0
41
1
10
-0.107237119508341
20
10.8529290307917
30
0
41
1
10
-0.11121679236669
20
10.8508166103282
30
0
41
1
10
-0.12130507582296
20
10.8457309056933
30
0
41
1
10
-0.127212828813526
20
10.8430398605587
30
0
41
1
10
-0.143444252915771
20
10.8361482507474
30
0
41
1
10
-0.152658694618253
20
10.8329303827252
30
0
41
1
10
-0.174005802157041
20
10.8262219540923
30
0
41
1
10
-0.184997875212929
20
10.8236106982459
30
0
41
1
10
-0.194976888875288
20
10.821595605962
30
0
0
SPLINE
5
1A0
100
AcDbEntity
8
SK1
62
256
6
ByLayer
370
13
48
1
60
0
100
AcDbSpline
70
4
71
3
72
32
73
28
40
0
40
0
40
0
40
0
40
0.234684261975925
40
0.234684261975925
40
0.348361654478296
40
0.348361654478296
40
0.388282873664072
40
0.388282873664072
40
0.428640259988027
40
0.428640259988027
40
0.446531340707549
40
0.446531340707549
40
0.461787044728252
40
0.461787044728252
40
0.472436918419443
40
0.472436918419443
40
0.483126928720603
40
0.483126928720603
40
0.496698906763761
40
0.496698906763761
40
0.520507652639596
40
0.520507652639596
40
0.596306394906192
40
0.596306394906192
40
0.939869450444053
40
0.939869450444053
40
1
40
1
40
1
40
1
41
1
10
-1.31543506509496
20
-3.31204600014945
30
0
41
1
10
-1.32893238660853
20
-3.25421882997392
30
0
41
1
10
-1.34355879628595
20
-3.19678036801616
30
0
41
1
10
-1.36981668623909
20
-3.1148023474334
30
0
41
1
10
-1.37908112666261
20
-3.08844302825824
30
0
41
1
10
-1.39410000150977
20
-3.05524710917504
30
0
41
1
10
-1.39825515114944
20
-3.04683139978437
30
0
41
1
10
-1.40744013157323
20
-3.03092633348933
30
0
41
1
10
-1.41248338751106
20
-3.0233105583815
30
0
41
1
10
-1.42104470873167
20
-3.01444691763069
30
0
41
1
10
-1.42388428770923
20
-3.01200316638366
30
0
41
1
10
-1.42960772890064
20
-3.00866963113575
30
0
41
1
10
-1.43248141686004
20
-3.00758586710072
30
0
41
1
10
-1.43759978369661
20
-3.00725807173106
30
0
41
1
10
-1.43981857045918
20
-3.00757652239241
30
0
41
1
10
-1.4441453737455
20
-3.00926961951743
30
0
41
1
10
-1.44630176453469
20
-3.01067112756519
30
0
41
1
10
-1.45077971941725
20
-3.0146980277681
30
0
41
1
10
-1.45306667342621
20
-3.01758589787718
30
0
41
1
10
-1.45860172249968
20
-3.02614271079273
30
0
41
1
10
-1.46144813218234
20
-3.03239945973169
30
0
41
1
10
-1.47156520005223
20
-3.05873512386847
30
0
41
1
10
-1.47595142428818
20
-3.08032205392644
30
0
41
1
10
-1.49603914243198
20
-3.19664641835655
30
0
41
1
10
-1.49803585788587
20
-3.29188422241515
30
0
41
1
10
-1.4997560776678
20
-3.40131696134188
30
0
41
1
10
-1.49991842293898
20
-3.41763054375548
30
0
41
1
10
-1.49999999999997
20
-3.43390791500576
30
0
0
SPLINE
5
1A1
100
AcDbEntity
8
SK1
62
256
6
ByLayer
370
13
48
1
60
0
100
AcDbSpline
70
4
71
3
72
15
73
11
40
0
40
0
40
0
40
0
40
0.0439605062750088
40
0.124435874054458
40
0.285386609613356
40
0.446337345172254
40
0.607288080731152
40
0.768238816290051
40
0.929189551848949
40
1
40
1
40
1
40
1
41
1
10
-0.194976888875288
20
-4.37579839097893
30
0
41
1
10
-0.194976888875288
20
-4.53596249036625
30
0
41
1
10
-0.194976888875288
20
-4.98207705649125
30
0
41
1
10
-0.19497688887526
20
-5.95785489884688
30
0
41
1
10
-0.194976888875288
20
-7.19854374618666
30
0
41
1
10
-0.194976888875288
20
-8.46600649183347
30
0
41
1
10
-0.194976888875288
20
-9.49859011193607
30
0
41
1
10
-0.194976888875288
20
-10.2764914380924
30
0
41
1
10
-0.19497688887526
20
-10.6769305434497
30
0
41
1
10
-0.19497688887526
20
-10.7969738327037
30
0
41
1
10
-0.194976888875288
20
-10.8215957545435
30
0
0
SPLINE
5
1A2
100
AcDbEntity
8
SK1
62
256
6
ByLayer
370
13
48
1
60
0
100
AcDbSpline
70
4
71
3
72
17
73
13
40
0
40
0
40
0
40
0
40
0.0422810200892305
40
0.112045079387734
40
0.181809138686238
40
0.321337257283246
40
0.460865375880253
40
0.600393494477261
40
0.739921613074268
40
0.879449731671276
40
0.94921379096978
40
1
40
1
40
1
40
1
41
1
10
-1.29503997793927
20
-3.40161170366466
30
0
41
1
10
-1.29503997793927
20
-3.58970302045984
30
0
41
1
10
-1.29503997793927
20
-4.0801473794123
30
0
41
1
10
-1.29503997793927
20
-4.84051408993616
30
0
41
1
10
-1.29503997793924
20
-5.93905405982608
30
0
41
1
10
-1.29503997793927
20
-7.17735240233068
30
0
41
1
10
-1.29503997793927
20
-8.44264460694359
30
0
41
1
10
-1.29503997793927
20
-9.4734907270373
30
0
41
1
10
-1.29503997793927
20
-10.2500356487435
30
0
41
1
10
-1.29503997793924
20
-10.6595078265252
30
0
41
1
10
-1.29503997793924
20
-10.8083234722915
30
0
41
1
10
-1.29503997793927
20
-10.8302673928873
30
0
41
1
10
-1.2950399779393
20
-10.830290703644
30
0
0
SPLINE
5
1A3
100
AcDbEntity
8
SK1
62
256
6
ByLayer
370
13
48
1
60
0
100
AcDbSpline
70
4
71
3
72
17
73
13
40
0
40
0
40
0
40
0
40
0.0666167808007566
40
0.134894810786902
40
0.271450870759194
40
0.408006930731485
40
0.544562990703776
40
0.681119050676067
40
0.817675110648359
40
0.885953140634504
40
0.95423117062065
40
1
40
1
40
1
40
1
41
1
10
-1.49999999999997
20
11.0218284678089
30
0
41
1
10
-1.49999999999997
20
11.0305322949044
30
0
41
1
10
-1.49999999999994
20
11.0128510512565
30
0
41
1
10
-1.49999999999997
20
10.8518854777454
30
0
41
1
10
-1.49999999999997
20
10.43661546633
30
0
41
1
10
-1.49999999999994
20
9.65050521846044
30
0
41
1
10
-1.49999999999997
20
8.60740482444746
30
0
41
1
10
-1.49999999999997
20
7.32680518164278
30
0
41
1
10
-1.49999999999997
20
6.07164774177343
30
0
41
1
10
-1.49999999999997
20
4.95838603991959
30
0
41
1
10
-1.49999999999994
20
4.16680114754826
30
0
41
1
10
-1.49999999999997
20
3.64663976225097
30
0
41
1
10
-1.49999999999997
20
3.43390926802991
30
0
0
SPLINE
5
1A4
100
AcDbEntity
8
SK1
62
256
6
ByLayer
370
13
48
1
60
0
100
AcDbSpline
70
4
71
3
72
15
73
11
40
0
40
0
40
0
40
0
40
0.0708105463137939
40
0.231761271238501
40
0.392711996163208
40
0.553662721087915
40
0.714613446012623
40
0.87556417093733
40
0.956039533399683
40
1
40
1
40
1
40
1
41
1
10
-0.194976888875288
20
10.821595605962
30
0
41
1
10
-0.194976888875288
20
10.7969736791354
30
0
41
1
10
-0.194976888875288
20
10.6769306168183
30
0
41
1
10
-0.194976888875317
20
10.2764909042798
30
0
41
1
10
-0.194976888875288
20
9.49859033133995
30
0
41
1
10
-0.194976888875288
20
8.46600622704159
30
0
41
1
10
-0.194976888875288
20
7.1985438392627
30
0
41
1
10
-0.194976888875288
20
5.95785502441248
30
0
41
1
10
-0.194976888875288
20
4.98207728872117
30
0
41
1
10
-0.194976888875288
20
4.53596278989482
30
0
41
1
10
-0.194976888875288
20
4.37579881180793
30
0
0
SPLINE
5
1A5
100
AcDbEntity
8
SK1
62
256
6
ByLayer
370
13
48
1
60
0
100
AcDbSpline
70
4
71
3
72
8
73
4
40
0
40
0
40
0
40
0
40
1
40
1
40
1
40
1
41
1
10
-1.31543506509493
20
3.31204737779197
30
0
41
1
10
-1.30849408531827
20
3.3417848751678
30
0
41
1
10
-1.30169623454364
20
3.37164876172554
30
0
41
1
10
-1.29503997793924
20
3.40161292972357
30
0
0
SPLINE
5
1A6
100
AcDbEntity
8
SK1
62
256
6
ByLayer
370
13
48
1
60
0
100
AcDbSpline
70
4
71
3
72
12
73
8
40
0
40
0
40
0
40
0
40
0.5
40
0.5
40
0.75
40
0.75
40
1
40
1
40
1
40
1
41
1
10
-1.29503997793927
20
-10.827954662041
30
0
41
1
10
-1.21965219531936
20
-10.8379486625118
30
0
41
1
10
-1.13233363849665
20
-10.8263834256097
30
0
41
1
10
-0.888368938463344
20
-10.7902737230075
30
0
41
1
10
-0.782056939225953
20
-10.7672468480772
30
0
41
1
10
-0.381383282450088
20
-10.7768463845487
30
0
41
1
10
-0.275882860919495
20
-10.805258148033
30
0
41
1
10
-0.194976888875288
20
-10.8215957545435
30
0
0
SPLINE
5
1A7
100
AcDbEntity
8
SK1
62
256
6
ByLayer
370
13
48
1
60
0
100
AcDbSpline
70
4
71
3
72
17
73
13
40
0
40
0
40
0
40
0
40
0.0509999904922326
40
0.120748343913944
40
0.260245050757368
40
0.399741757600792
40
0.539238464444215
40
0.678735171287639
40
0.818231878131062
40
0.887980231552774
40
0.957728584974486
40
1
40
1
40
1
40
1
41
1
10
-1.29503997793927
20
10.8302903739455
30
0
41
1
10
-1.29503997793927
20
10.8303490969907
30
0
41
1
10
-1.29503997793927
20
10.8084520250405
30
0
41
1
10
-1.29503997793927
20
10.6595078070702
30
0
41
1
10
-1.2950399779393
20
10.2500351152374
30
0
41
1
10
-1.29503997793927
20
9.47349094524569
30
0
41
1
10
-1.29503997793927
20
8.4426443429185
30
0
41
1
10
-1.29503997793927
20
7.17735249314521
30
0
41
1
10
-1.29503997793927
20
5.93905418532492
30
0
41
1
10
-1.29503997793927
20
4.84051419704488
30
0
41
1
10
-1.29503997793927
20
4.08014769325382
30
0
41
1
10
-1.29503997793927
20
3.58970381899363
30
0
41
1
10
-1.29503997793927
20
3.40161292972354
30
0
0
SPLINE
5
1A8
100
AcDbEntity
8
SK1
62
256
6
ByLayer
370
13
48
1
60
0
100
AcDbSpline
70
4
71
3
72
35
73
31
40
0
40
0
40
0
40
0
40
0.01839138918779
40
0.0467212629964703
40
0.103381010613831
40
0.160040758231191
40
0.216700505848552
40
0.273360253465913
40
0.330020001083273
40
0.358349874891954
40
0.386679748700634
40
0.415009622509314
40
0.443339496317995
40
0.471669370126675
40
0.485834307031015
40
0.499999243935355
40
0.514164180839695
40
0.528329117744035
40
0.556658991552716
40
0.584988865361396
40
0.613318739170077
40
0.641648612978757
40
0.669978486787437
40
0.726638234404797
40
0.783297982022158
40
0.839957729639519
40
0.896617477256879
40
0.95327722487424
40
0.98160709868292
40
1
40
1
40
1
40
1
41
1
10
-18.9999999999999
20
10.0333172290581
30
0
41
1
10
-19
20
10.0315838834002
30
0
41
1
10
-19
20
10.0100828802471
30
0
41
1
10
-19
20
9.87290376557473
30
0
41
1
10
-19
20
9.48713546208165
30
0
41
1
10
-19
20
8.74970557959307
30
0
41
1
10
-19
20
7.76896293179388
30
0
41
1
10
-19
20
6.56626239951908
30
0
41
1
10
-19
20
5.39689860660044
30
0
41
1
10
-19
20
4.35855354299238
30
0
41
1
10
-19
20
3.54050705744922
30
0
41
1
10
-19
20
2.68380958588864
30
0
41
1
10
-19
20
1.79728192772174
30
0
41
1
10
-19
20
1.05021111926752
30
0
41
1
10
-19
20
0.444753991207904
30
0
41
1
10
-19
20
1.751606646E-07
30
0
41
1
10
-19
20
-0.444754022192853
30
0
41
1
10
-19
20
-1.05021119288884
30
0
41
1
10
-19
20
-1.79728161122432
30
0
41
1
10
-19
20
-2.68380947355115
30
0
41
1
10
-19
20
-3.54050720156593
30
0
41
1
10
-19
20
-4.35855334822477
30
0
41
1
10
-19
20
-5.39689848302669
30
0
41
1
10
-19
20
-6.56626237391902
30
0
41
1
10
-19
20
-7.7689631737066
30
0
41
1
10
-19
20
-8.74970539585971
30
0
41
1
10
-19
20
-9.48713598675062
30
0
41
1
10
-19
20
-9.87290379428876
30
0
41
1
10
-19
20
-10.0100852087554
30
0
41
1
10
-19
20
-10.0315854347467
30
0
41
1
10
-19
20
-10.0333177708643
30
0
0
SPLINE
5
1A9
100
AcDbEntity
8
SK1
62
256
6
ByLayer
370
13
48
1
60
0
100
AcDbSpline
70
4
71
3
72
26
73
22
40
0
40
0
40
0
40
0
40
0.309980198120959
40
0.309980198120959
40
0.466121127893026
40
0.466121127893026
40
0.495339935924888
40
0.495339935924888
40
0.508478349916252
40
0.508478349916252
40
0.521870142767892
40
0.521870142767892
40
0.533321486910863
40
0.533321486910863
40
0.546914826759929
40
0.546914826759929
40
0.571024540941248
40
0.571024540941248
40
0.650283827226113
40
0.650283827226113
40
1
40
1
40
1
40
1
41
1
10
-1.49999999999997
20
3.43390926803414
30
0
41
1
10
-1.49957809424498
20
3.34972498522032
30
0
41
1
10
-1.49765792801543
20
3.26436078219513
30
0
41
1
10
-1.48532705686955
20
3.1347953644092
30
0
41
1
10
-1.48076412648982
20
3.08989854362841
30
0
41
1
10
-1.46447634382196
20
3.03979293840368
30
0
41
1
10
-1.46141372751498
20
3.03180695978682
30
0
41
1
10
-1.45566120817685
20
3.02143998205994
30
0
41
1
10
-1.45365299428383
20
3.01835783654928
30
0
41
1
10
-1.44914914006574
20
3.01303026786195
30
0
41
1
10
-1.44656555604124
20
3.01074941382339
30
0
41
1
10
-1.44159424050363
20
3.00807571495153
30
0
41
1
10
-1.43917332636673
20
3.00743313813311
30
0
41
1
10
-1.43412760501755
20
3.00729376115299
30
0
41
1
10
-1.43146783274818
20
3.00799377806257
30
0
41
1
10
-1.42468428977512
20
3.01114999104328
30
0
41
1
10
-1.42082982648498
20
3.01451655258938
30
0
41
1
10
-1.40597537013102
20
3.03067342263489
30
0
41
1
10
-1.39753320304248
20
3.04757090687659
30
0
41
1
10
-1.35607798742183
20
3.13969304848891
30
0
41
1
10
-1.33538442090895
20
3.22657761195521
30
0
41
1
10
-1.31543506509436
20
3.31204737779169
30
0
0
SPLINE
5
1AA
100
AcDbEntity
8
SK1
62
256
6
ByLayer
370
13
48
1
60
0
100
AcDbSpline
70
4
71
3
72
10
73
6
40
0
40
0
40
0
40
0
40
0.5
40
0.5
40
1
40
1
40
1
40
1
41
1
10
-1.49999999999997
20
-3.43390791500579
30
0
41
1
10
-1.71692496836974
20
-2.37752637479551
30
0
41
1
10
-1.93485042889134
20
-1.20950788444219
30
0
41
1
10
-1.93573790230076
20
1.20204294303991
30
0
41
1
10
-1.7171585624628
20
2.37639193543939
30
0
41
1
10
-1.49999999999952
20
3.43390926803016
30
0
0
SPLINE
5
1AB
100
AcDbEntity
8
SK1
62
256
6
ByLayer
370
13
48
1
60
0
100
AcDbSpline
70
4
71
3
72
17
73
13
40
0
40
0
40
0
40
0
40
0.0457689714807817
40
0.11404707891017
40
0.182325186339559
40
0.318881401198337
40
0.455437616057114
40
0.591993830915891
40
0.728550045774669
40
0.865106260633446
40
0.933384368062835
40
1
40
1
40
1
40
1
41
1
10
-1.49999999999997
20
-3.43390791500576
30
0
41
1
10
-1.49999999999997
20
-3.64663887345898
30
0
41
1
10
-1.49999999999997
20
-4.16680079382431
30
0
41
1
10
-1.49999999999997
20
-4.95838595424937
30
0
41
1
10
-1.49999999999997
20
-6.07164761580376
30
0
41
1
10
-1.49999999999997
20
-7.32680507487891
30
0
41
1
10
-1.49999999999997
20
-8.60740509388049
30
0
41
1
10
-1.49999999999997
20
-9.65050499182061
30
0
41
1
10
-1.49999999999997
20
-10.4366160019974
30
0
41
1
10
-1.49999999999994
20
-10.8518854949361
30
0
41
1
10
-1.49999999999997
20
-11.0128506935311
30
0
41
1
10
-1.49999999999997
20
-11.030532051427
30
0
41
1
10
-1.49999999999994
20
-11.0218290118227
30
0
0
SPLINE
5
1AC
100
AcDbEntity
8
SK1
62
256
6
ByLayer
370
13
48
1
60
0
100
AcDbSpline
70
4
71
3
72
12
73
8
40
0
40
0
40
0
40
0
40
0.500000000000001
40
0.500000000000001
40
0.75
40
0.75
40
1
40
1
40
1
40
1
41
1
10
-1.29503997793927
20
3.40161292972385
30
0
41
1
10
-1.21966153693802
20
3.74094063354119
30
0
41
1
10
-1.13234441385666
20
4.06572173503599
30
0
41
1
10
-0.888424605956999
20
4.51242811202502
30
0
41
1
10
-0.782090355090901
20
4.70587064177587
30
0
41
1
10
-0.381449312605014
20
4.71480920489873
30
0
41
1
10
-0.275877572630662
20
4.52467076184513
30
0
41
1
10
-0.194976888875061
20
4.37579881180702
30
0
0
SPLINE
5
1AD
100
AcDbEntity
8
1
62
256
6
ByLayer
370
13
48
1
60
0
100
AcDbSpline
70
4
71
3
72
16
73
12
40
0
40
0
40
0
40
0
40
0.462497527135906
40
0.462497527135906
40
0.645191851133779
40
0.645191851133779
40
0.830465145084897
40
0.830465145084897
40
0.946099677592276
40
0.946099677592276
40
1
40
1
40
1
40
1
41
1
10
7.33660254037846
20
5.06861858311248
30
0
41
1
10
7.31950254572618
20
5.00572719980406
30
0
41
1
10
7.2960656944835
20
4.94318132289567
30
0
41
1
10
7.24769339962626
20
4.86451341532771
30
0
41
1
10
7.23196248290219
20
4.84296870144274
30
0
41
1
10
7.19538082316865
20
4.80415189945708
30
0
41
1
10
7.17398167794323
20
4.78648459402939
30
0
41
1
10
7.13465169394874
20
4.76617783194939
30
0
41
1
10
7.11805699889251
20
4.760315418077
30
0
41
1
10
7.09306930322401
20
4.75614889828719
30
0
41
1
10
7.08491758298601
20
4.75546271781818
30
0
41
1
10
7.07679491924318
20
4.75546271781818
30
0
0
SPLINE
5
1AE
100
AcDbEntity
8
1
62
256
6
ByLayer
370
13
48
1
60
0
100
AcDbSpline
70
4
71
3
72
16
73
12
40
0
40
0
40
0
40
0
40
0.112904383054538
40
0.112904383054538
40
0.251995806601289
40
0.251995806601289
40
0.471177478613956
40
0.471177478613956
40
0.89233480402575
40
0.89233480402575
40
1
40
1
40
1
40
1
41
1
10
4.92320508075701
20
-15.2769622091384
30
0
41
1
10
4.90636996355761
20
-15.2769622091384
30
0
41
1
10
4.88932551790379
20
-15.2760126621561
30
0
41
1
10
4.8540038721606
20
-15.2722082770659
30
0
41
1
10
4.83576156988696
20
-15.2689414463834
30
0
41
1
10
4.79405363685729
20
-15.2589992478796
30
0
41
1
10
4.77256184645861
20
-15.2513160232932
30
0
41
1
10
4.71952959058143
20
-15.2273927985288
30
0
41
1
10
4.69506482950501
20
-15.2092528380283
30
0
41
1
10
4.67177931116126
20
-15.1857432227235
30
0
41
1
10
4.66740846582647
20
-15.1808653782145
30
0
41
1
10
4.66339745962171
20
-15.1759383782003
30
0
0
SPLINE
5
1AF
100
AcDbEntity
8
1
62
256
6
ByLayer
370
13
48
1
60
0
100
AcDbSpline
70
4
71
3
72
8
73
4
40
0
40
0
40
0
40
0
40
1
40
1
40
1
40
1
41
1
10
15.3182367445727
20
13.0504600339439
30
0
41
1
10
15.1322933866701
20
12.7112509403776
30
0
41
1
10
15.0505104272058
20
12.3326103359773
30
0
41
1
10
15.0465030375379
20
11.9215682496
30
0
0
SPLINE
5
1B0
100
AcDbEntity
8
1
62
256
6
ByLayer
370
13
48
1
60
0
100
AcDbSpline
70
4
71
3
72
8
73
4
40
0
40
0
40
0
40
0
40
1
40
1
40
1
40
1
41
1
10
17.7499724266537
20
-21.7499999999996
30
0
41
1
10
17.7501432951757
20
-21.7499999999996
30
0
41
1
10
17.835802149007
20
-21.7499999999996
30
0
41
1
10
18.0118264266572
20
-21.7499999999996
30
0
0
SPLINE
5
1B1
100
AcDbEntity
8
1
62
256
6
ByLayer
370
13
48
1
60
0
100
AcDbSpline
70
4
71
3
72
8
73
4
40
0
40
0
40
0
40
0
40
1
40
1
40
1
40
1
41
1
10
17.2428365957761
20
-18.5679339193889
30
0
41
1
10
17.4785081122809
20
-19.6079672329065
30
0
41
1
10
17.7388599114119
20
-20.6754285587826
30
0
41
1
10
18.0118264266573
20
-21.7499999999996
30
0
0
SPLINE
5
1B2
100
AcDbEntity
8
1
62
256
6
ByLayer
370
13
48
1
60
0
100
AcDbSpline
70
4
71
3
72
22
73
18
40
0
40
0
40
0
40
0
40
0.0366484049977946
40
0.0366484049977946
40
0.190221751241245
40
0.190221751241245
40
0.344085519438227
40
0.344085519438227
40
0.49123928714693
40
0.49123928714693
40
0.629079873029907
40
0.629079873029907
40
0.769794635530124
40
0.769794635530124
40
0.923386932118266
40
0.923386932118266
40
1
40
1
40
1
40
1
41
1
10
32.7000000000001
20
-20.2499999999995
30
0
41
1
10
32.6572848358983
20
-20.2499999999995
30
0
41
1
10
32.6145496997112
20
-20.2482866305567
30
0
41
1
10
32.3951678104176
20
-20.2306800198671
30
0
41
1
10
32.2185485978806
20
-20.1859797567809
30
0
41
1
10
31.895772215121
20
-20.0443835407781
30
0
41
1
10
31.7450810793879
20
-19.9450816738202
30
0
41
1
10
31.4989519751169
20
-19.7196301087015
30
0
41
1
10
31.3981394911377
20
-19.5916978451955
30
0
41
1
10
31.252838280462
20
-19.3462756817644
30
0
41
1
10
31.2030704644365
20
-19.2258517497214
30
0
41
1
10
31.1370121357159
20
-19.0105837462359
30
0
41
1
10
31.1200809370368
20
-18.9137093387928
30
0
41
1
10
31.1014806629173
20
-18.7572022227679
30
0
41
1
10
31.1005181724993
20
-18.69958727157
30
0
41
1
10
31.0999532901186
20
-18.6571338050574
30
0
41
1
10
31.1000000720302
20
-18.6499889991353
30
0
41
1
10
31.0999999688962
20
-18.6500047503727
30
0
0
SPLINE
5
1B3
100
AcDbEntity
8
1
62
256
6
ByLayer
370
13
48
1
60
0
100
AcDbSpline
70
4
71
3
72
8
73
4
40
0
40
0
40
0
40
0
40
1
40
1
40
1
40
1
41
1
10
15.0465030375379
20
14.4650938580065
30
0
41
1
10
15.0500383852453
20
14.0599831364782
30
0
41
1
10
15.1104184643416
20
13.5849539113518
30
0
41
1
10
15.3182367445729
20
13.0504600339439
30
0
0
SPLINE
5
1B4
100
AcDbEntity
8
1
62
256
6
ByLayer
370
13
48
1
60
0
100
AcDbSpline
70
4
71
3
72
12
73
8
40
0
40
0
40
0
40
0
40
0.25
40
0.25
40
0.5
40
0.5
40
1
40
1
40
1
40
1
41
1
10
25.7580605403834
20
-20.2499999999995
30
0
41
1
10
25.7580605403834
20
-19.9252612815186
30
0
41
1
10
25.9306325893552
20
-19.6252035386542
30
0
41
1
10
26.3958027499493
20
-19.1880954025504
30
0
41
1
10
26.6856944217128
20
-19.0357433162351
30
0
41
1
10
27.5817821872519
20
-18.7082510093258
30
0
41
1
10
28.2254024403295
20
-18.6499999999995
30
0
41
1
10
28.8612222579771
20
-18.6499999999995
30
0
0
SPLINE
5
1B5
100
AcDbEntity
8
1
62
256
6
ByLayer
370
13
48
1
60
0
100
AcDbSpline
70
4
71
3
72
10
73
6
40
0
40
0
40
0
40
0
40
0.5
40
0.5
40
1
40
1
40
1
40
1
41
1
10
16.4383186059722
20
-15.0456738477841
30
0
41
1
10
16.3346047308604
20
-14.5656908264556
30
0
41
1
10
16.0762584367543
20
-14.1696386535429
30
0
41
1
10
15.6237012223183
20
-13.5237011829935
30
0
41
1
10
15.4165510467954
20
-13.2531314251578
30
0
41
1
10
15.2792076144253
20
-12.9755720245621
30
0
0
SPLINE
5
1B6
100
AcDbEntity
8
1
62
256
6
ByLayer
370
13
48
1
60
0
100
AcDbSpline
70
4
71
3
72
16
73
12
40
0
40
0
40
0
40
0
40
0.112904383055275
40
0.112904383055275
40
0.25199580660189
40
0.25199580660189
40
0.471177478614504
40
0.471177478614504
40
0.89233480402624
40
0.89233480402624
40
1
40
1
40
1
40
1
41
1
10
7.07679491924316
20
15.2769622091384
30
0
41
1
10
7.09363003644259
20
15.2769622091384
30
0
41
1
10
7.11067448209644
20
15.2760126621561
30
0
41
1
10
7.14599612783962
20
15.2722082770659
30
0
41
1
10
7.16423843011327
20
15.2689414463833
30
0
41
1
10
7.20594636314291
20
15.2589992478794
30
0
41
1
10
7.22743815354161
20
15.2513160232932
30
0
41
1
10
7.28047040941883
20
15.2273927985286
30
0
41
1
10
7.3049351704953
20
15.2092528380281
30
0
41
1
10
7.328220688839
20
15.1857432227233
30
0
41
1
10
7.33259153417379
20
15.1808653782144
30
0
41
1
10
7.33660254037852
20
15.1759383782001
30
0
0
SPLINE
5
1B7
100
AcDbEntity
8
1
62
256
6
ByLayer
370
13
48
1
60
0
100
AcDbSpline
70
4
71
3
72
16
73
12
40
0
40
0
40
0
40
0
40
0.112904383054597
40
0.112904383054597
40
0.251995806601265
40
0.251995806601265
40
0.471177478613883
40
0.471177478613883
40
0.892334804025531
40
0.892334804025531
40
1
40
1
40
1
40
1
41
1
10
4.92320508075701
20
4.75546271781803
30
0
41
1
10
4.90636996355758
20
4.75546271781803
30
0
41
1
10
4.88932551790376
20
4.75851551862709
30
0
41
1
10
4.8540038721606
20
4.77071315953404
30
0
41
1
10
4.83576156988693
20
4.78117073972237
30
0
41
1
10
4.79405363685729
20
4.81283214608473
30
0
41
1
10
4.77256184645864
20
4.8371571513365
30
0
41
1
10
4.71952959058143
20
4.91214630601462
30
0
41
1
10
4.69506482950501
20
4.96811547083706
30
0
41
1
10
4.67177931116126
20
5.03919021254694
30
0
41
1
10
4.66740846582644
20
5.05386666454095
30
0
41
1
10
4.66339745962171
20
5.06861858311197
30
0
0
SPLINE
5
1B8
100
AcDbEntity
8
1
62
256
6
ByLayer
370
13
48
1
60
0
100
AcDbSpline
70
4
71
3
72
8
73
4
40
0
40
0
40
0
40
0
40
1
40
1
40
1
40
1
41
1
10
15.0465030375379
20
-11.9215682495999
30
0
41
1
10
15.0502188562288
20
-12.3027036005121
30
0
41
1
10
15.1200022190505
20
-12.6538314553243
30
0
41
1
10
15.2792076144253
20
-12.9755720245621
30
0
0
SPLINE
5
1B9
100
AcDbEntity
8
1
62
256
6
ByLayer
370
13
48
1
60
0
100
AcDbSpline
70
4
71
3
72
8
73
4
40
0
40
0
40
0
40
0
40
1
40
1
40
1
40
1
41
1
10
16.4383186059721
20
-15.0456738477841
30
0
41
1
10
16.6908024992301
20
-16.2141576383293
30
0
41
1
10
16.9613868792801
20
-17.3880139702255
30
0
41
1
10
17.2428365957761
20
-18.567933919389
30
0
0
SPLINE
5
1BA
100
AcDbEntity
8
1
62
256
6
ByLayer
370
13
48
1
60
0
100
AcDbSpline
70
4
71
3
72
8
73
4
40
0
40
0
40
0
40
0
40
1
40
1
40
1
40
1
41
1
10
17.2428365957761
20
-18.567933919389
30
0
41
1
10
17.7540996022023
20
-19.6236178826091
30
0
41
1
10
18.2971711265215
20
-20.6807805919726
30
0
41
1
10
18.8489433998191
20
-21.7499999999995
30
0
0
SPLINE
5
1BB
100
AcDbEntity
8
1
62
256
6
ByLayer
370
13
48
1
60
0
100
AcDbSpline
70
4
71
3
72
18
73
14
40
0
40
0
40
0
40
0
40
0.0060654424627531
40
0.0060654424627531
40
0.223459587656327
40
0.223459587656327
40
0.440923454586697
40
0.440923454586697
40
0.657297714710878
40
0.657297714710878
40
0.871764086076861
40
0.871764086076861
40
1
40
1
40
1
40
1
41
1
10
32.9664705882351
20
-20.2499999999995
30
0
41
1
10
32.9614233996095
20
-20.2499999999995
30
0
41
1
10
32.9563761936717
20
-20.2499763040797
30
0
41
1
10
32.7704372495916
20
-20.2482303365455
30
0
41
1
10
32.5872861968013
20
-20.2152195303451
30
0
41
1
10
32.2467445325065
20
-20.0917410299556
30
0
41
1
10
32.0846445992777
20
-19.9995255717236
30
0
41
1
10
31.8049347590933
20
-19.7697312693597
30
0
41
1
10
31.6832280568975
20
-19.6291670457876
30
0
41
1
10
31.4971535162002
20
-19.3208313054991
30
0
41
1
10
31.4297247928382
20
-19.1490248513496
30
0
41
1
10
31.3713592643575
20
-18.867224202546
30
0
41
1
10
31.3601960784299
20
-18.7583306995082
30
0
41
1
10
31.3601960784299
20
-18.6499999999996
30
0
0
SPLINE
5
1BC
100
AcDbEntity
8
1
62
256
6
ByLayer
370
13
48
1
60
0
100
AcDbSpline
70
4
71
3
72
16
73
12
40
0
40
0
40
0
40
0
40
0.46249752713596
40
0.46249752713596
40
0.645191851133845
40
0.645191851133845
40
0.830465145085016
40
0.830465145085016
40
0.946099677592382
40
0.946099677592382
40
1
40
1
40
1
40
1
41
1
10
4.66339745962176
20
-5.06861858311186
30
0
41
1
10
4.68049745427402
20
-5.00572719980346
30
0
41
1
10
4.70393430551673
20
-4.94318132289513
30
0
41
1
10
4.75230660037394
20
-4.86451341532722
30
0
41
1
10
4.76803751709798
20
-4.84296870144229
30
0
41
1
10
4.80461917683149
20
-4.80415189945663
30
0
41
1
10
4.82601832205694
20
-4.78648459402899
30
0
41
1
10
4.86534830605137
20
-4.76617783194899
30
0
41
1
10
4.8819430011076
20
-4.76031541807663
30
0
41
1
10
4.9069306967761
20
-4.7561488982868
30
0
41
1
10
4.91508241701416
20
-4.75546271781781
30
0
41
1
10
4.92320508075701
20
-4.75546271781781
30
0
0
SPLINE
5
1BD
100
AcDbEntity
8
1
62
256
6
ByLayer
370
13
48
1
60
0
100
AcDbSpline
70
4
71
3
72
16
73
12
40
0
40
0
40
0
40
0
40
0.462497527135964
40
0.462497527135964
40
0.645191851133848
40
0.645191851133848
40
0.830465145084983
40
0.830465145084983
40
0.946099677592356
40
0.946099677592356
40
1
40
1
40
1
40
1
41
1
10
4.66339745962173
20
15.1759383782003
30
0
41
1
10
4.68049745427402
20
15.1969435000063
30
0
41
1
10
4.70393430551673
20
15.2173733040723
30
0
41
1
10
4.75230660037394
20
15.242606817743
30
0
41
1
10
4.76803751709798
20
15.2494611471716
30
0
41
1
10
4.80461917683149
20
15.2617345707428
30
0
41
1
10
4.82601832205691
20
15.2672766430867
30
0
41
1
10
4.86534830605137
20
15.2736248541651
30
0
41
1
10
4.88194300110757
20
15.2754510872995
30
0
41
1
10
4.9069306967761
20
15.2767486596484
30
0
41
1
10
4.91508241701413
20
15.2769622091385
30
0
41
1
10
4.92320508075699
20
15.2769622091385
30
0
0
SPLINE
5
1BE
100
AcDbEntity
8
1
62
256
6
ByLayer
370
13
48
1
60
0
100
AcDbSpline
70
4
71
3
72
16
73
12
40
0
40
0
40
0
40
0
40
0.112904383055259
40
0.112904383055259
40
0.251995806601912
40
0.251995806601912
40
0.47117747861449
40
0.47117747861449
40
0.89233480402615
40
0.89233480402615
40
1
40
1
40
1
40
1
41
1
10
7.07679491924318
20
-4.75546271781812
30
0
41
1
10
7.09363003644259
20
-4.75546271781812
30
0
41
1
10
7.11067448209641
20
-4.75851551862718
30
0
41
1
10
7.1459961278396
20
-4.77071315953418
30
0
41
1
10
7.16423843011327
20
-4.78117073972254
30
0
41
1
10
7.20594636314291
20
-4.81283214608496
30
0
41
1
10
7.22743815354161
20
-4.83715715133673
30
0
41
1
10
7.2804704094188
20
-4.91214630601496
30
0
41
1
10
7.30493517049527
20
-4.96811547083743
30
0
41
1
10
7.32822068883897
20
-5.03919021254737
30
0
41
1
10
7.33259153417379
20
-5.05386666454132
30
0
41
1
10
7.33660254037852
20
-5.06861858311231
30
0
0
SPLINE
5
1BF
100
AcDbEntity
8
1
62
256
6
ByLayer
370
13
48
1
60
0
100
AcDbSpline
70
4
71
3
72
16
73
12
40
0
40
0
40
0
40
0
40
0.462497527135853
40
0.462497527135853
40
0.645191851133783
40
0.645191851133783
40
0.830465145084946
40
0.830465145084946
40
0.946099677592318
40
0.946099677592318
40
1
40
1
40
1
40
1
41
1
10
7.33660254037849
20
-15.1759383782001
30
0
41
1
10
7.31950254572621
20
-15.1969435000061
30
0
41
1
10
7.29606569448353
20
-15.2173733040721
30
0
41
1
10
7.24769339962629
20
-15.2426068177429
30
0
41
1
10
7.23196248290222
20
-15.2494611471715
30
0
41
1
10
7.19538082316868
20
-15.2617345707427
30
0
41
1
10
7.17398167794323
20
-15.2672766430866
30
0
41
1
10
7.13465169394874
20
-15.2736248541651
30
0
41
1
10
7.11805699889251
20
-15.2754510872994
30
0
41
1
10
7.09306930322401
20
-15.2767486596483
30
0
41
1
10
7.08491758298601
20
-15.2769622091384
30
0
41
1
10
7.07679491924318
20
-15.2769622091384
30
0
0
SPLINE
5
1C0
100
AcDbEntity
8
1
62
256
6
ByLayer
370
13
48
1
60
0
100
AcDbSpline
70
4
71
3
72
14
73
10
40
0
40
0
40
0
40
0
40
0.194909850209405
40
0.194909850209405
40
0.447987389206001
40
0.447987389206001
40
0.913535214711141
40
0.913535214711141
40
1
40
1
40
1
40
1
41
1
10
31.0999992468543
20
1.7013894893409
30
0
41
1
10
31.1000007531457
20
1.70137960242596
30
0
41
1
10
31.1057926648451
20
1.66336296006699
30
0
41
1
10
31.1290912599624
20
1.51048002074256
30
0
41
1
10
31.14958256033
20
1.37604248691869
30
0
41
1
10
31.2165951597208
20
0.936637448960909
30
0
41
1
10
31.2712803405559
20
0.578332787834967
30
0
41
1
10
31.3390061068262
20
0.135140272569799
30
0
41
1
10
31.3498105261354
20
0.0644514196836781
30
0
41
1
10
31.3607224788997
20
-0.0069256867049603
30
0
0
SPLINE
5
1C1
100
AcDbEntity
8
1
62
256
6
ByLayer
370
13
48
1
60
0
100
AcDbSpline
70
4
71
3
72
10
73
6
40
0
40
0
40
0
40
0
40
0.807289382551453
40
0.807289382551453
40
1
40
1
40
1
40
1
41
1
10
52.4262120963125
20
-20.62397635271
30
0
41
1
10
52.4302762008164
20
-20.5917266166073
30
0
41
1
10
52.4269568435098
20
-20.5625890561639
30
0
41
1
10
52.4156280417962
20
-20.5323687756727
30
0
41
1
10
52.4131204986914
20
-20.5267162536555
30
0
41
1
10
52.4102634152023
20
-20.5213569857358
30
0
0
SPLINE
5
1C2
100
AcDbEntity
8
1
62
256
6
ByLayer
370
13
48
1
60
0
100
AcDbSpline
70
4
71
3
72
14
73
10
40
0
40
0
40
0
40
0
40
0.140335064029798
40
0.140335064029798
40
0.313324577863399
40
0.313324577863399
40
0.854437087129479
40
0.854437087129479
40
1
40
1
40
1
40
1
41
1
10
52.4102634152023
20
-20.5213569857359
30
0
41
1
10
52.4115615907815
20
-20.5199628877737
30
0
41
1
10
52.4130492807412
20
-20.5186570101209
30
0
41
1
10
52.4164306495378
20
-20.5161367259722
30
0
41
1
10
52.418387975026
20
-20.5149650781682
30
0
41
1
10
52.4261757331449
20
-20.5109713735448
30
0
41
1
10
52.4318897349344
20
-20.5094480946095
30
0
41
1
10
52.4386571441608
20
-20.5081580490781
30
0
41
1
10
52.4400859075475
20
-20.50792528395
30
0
41
1
10
52.441497419172
20
-20.5077279642513
30
0
0
SPLINE
5
1C3
100
AcDbEntity
8
1
62
256
6
ByLayer
370
13
48
1
60
0
100
AcDbSpline
70
4
71
3
72
8
73
4
40
0
40
0
40
0
40
0
40
1
40
1
40
1
40
1
41
1
10
52.4414974191717
20
-20.5077279642516
30
0
41
1
10
52.4434065060312
20
-20.5074610869284
30
0
41
1
10
52.4452888609443
20
-20.5072523454911
30
0
41
1
10
52.4471477503401
20
-20.5070894641982
30
0
0
SPLINE
5
1C4
100
AcDbEntity
8
1
62
256
6
ByLayer
370
13
48
1
60
0
100
AcDbSpline
70
4
71
3
72
12
73
8
40
0
40
0
40
0
40
0
40
0.271863792020762
40
0.271863792020762
40
0.680333498425164
40
0.680333498425164
40
1
40
1
40
1
40
1
41
1
10
52.4471477503394
20
-20.5070894641989
30
0
41
1
10
52.5254708389114
20
-20.5002265674811
30
0
41
1
10
52.6132950984392
20
-20.4878026478292
30
0
41
1
10
52.846593161407
20
-20.4479955102617
30
0
41
1
10
53.0026236458242
20
-20.4156760825969
30
0
41
1
10
53.2875983266003
20
-20.3515250898514
30
0
41
1
10
53.4183646565651
20
-20.3173841140852
30
0
41
1
10
53.5495881472217
20
-20.3013496817015
30
0
0
SPLINE
5
1C5
100
AcDbEntity
8
1
62
256
6
ByLayer
370
13
48
1
60
0
100
AcDbSpline
70
4
71
3
72
8
73
4
40
0
40
0
40
0
40
0
40
1
40
1
40
1
40
1
41
1
10
53.5495881472217
20
-20.3013496817015
30
0
41
1
10
53.6417788954044
20
-20.2900847297426
30
0
41
1
10
53.7354245830992
20
-20.2923835294104
30
0
41
1
10
53.8283398883331
20
-20.2950989996282
30
0
0
SPLINE
5
1C6
100
AcDbEntity
8
1
62
256
6
ByLayer
370
13
48
1
60
0
100
AcDbSpline
70
4
71
3
72
8
73
4
40
0
40
0
40
0
40
0
40
1
40
1
40
1
40
1
41
1
10
53.8283398883331
20
-20.2950989996282
30
0
41
1
10
53.9522136636574
20
-20.298719237939
30
0
41
1
10
54.0768571353024
20
-20.2902043415041
30
0
41
1
10
54.1982800289245
20
-20.2848632937107
30
0
0
SPLINE
5
1C7
100
AcDbEntity
8
1
62
256
6
ByLayer
370
13
48
1
60
0
100
AcDbSpline
70
4
71
3
72
10
73
6
40
0
40
0
40
0
40
0
40
0.860053459941695
40
0.860053459941695
40
1
40
1
40
1
40
1
41
1
10
54.1982800289245
20
-20.2848632937107
30
0
41
1
10
54.3321716826563
20
-20.2789737806181
30
0
41
1
10
54.4692183325878
20
-20.2904163359077
30
0
41
1
10
54.6209193574704
20
-20.331586345119
30
0
41
1
10
54.6422592203893
20
-20.3379125996893
30
0
41
1
10
54.6636089363248
20
-20.3441969456024
30
0
0
SPLINE
5
1C8
100
AcDbEntity
8
1
62
256
6
ByLayer
370
13
48
1
60
0
100
AcDbSpline
70
4
71
3
72
8
73
4
40
0
40
0
40
0
40
0
40
1
40
1
40
1
40
1
41
1
10
54.6636089363248
20
-20.3441969456024
30
0
41
1
10
54.6827084170632
20
-20.3559815247944
30
0
41
1
10
54.7017609506472
20
-20.3678401691599
30
0
41
1
10
54.7207683583679
20
-20.379768231866
30
0
0
SPLINE
5
1C9
100
AcDbEntity
8
1
62
256
6
ByLayer
370
13
48
1
60
0
100
AcDbSpline
70
4
71
3
72
10
73
6
40
0
40
0
40
0
40
0
40
0.776503433583243
40
0.776503433583243
40
1
40
1
40
1
40
1
41
1
10
54.7207683583679
20
-20.379768231866
30
0
41
1
10
54.6774725026343
20
-20.3780616853496
30
0
41
1
10
54.6344378625006
20
-20.3767795026364
30
0
41
1
10
54.5776224808541
20
-20.3725437813045
30
0
41
1
10
54.5648810790715
20
-20.3717412627006
30
0
41
1
10
54.5521447262338
20
-20.3711724239524
30
0
0
SPLINE
5
1CA
100
AcDbEntity
8
1
62
256
6
ByLayer
370
13
48
1
60
0
100
AcDbSpline
70
4
71
3
72
10
73
6
40
0
40
0
40
0
40
0
40
0.802218039223748
40
0.802218039223748
40
1
40
1
40
1
40
1
41
1
10
54.5521447262338
20
-20.3711724239524
30
0
41
1
10
54.4127836505348
20
-20.3649481947043
30
0
41
1
10
54.2644549248777
20
-20.3592836876204
30
0
41
1
10
54.0792703339537
20
-20.3520793322657
30
0
41
1
10
54.0422443273126
20
-20.3506438011772
30
0
41
1
10
54.0052430294063
20
-20.3493336707632
30
0
0
SPLINE
5
1CB
100
AcDbEntity
8
1
62
256
6
ByLayer
370
13
48
1
60
0
100
AcDbSpline
70
4
71
3
72
16
73
12
40
0
40
0
40
0
40
0
40
0.0308303102605419
40
0.0308303102605419
40
0.572662020821238
40
0.572662020821238
40
0.596525876635503
40
0.596525876635503
40
0.811742896024901
40
0.811742896024901
40
1
40
1
40
1
40
1
41
1
10
54.0052430294063
20
-20.3493336707632
30
0
41
1
10
53.9993536372725
20
-20.3491251410036
30
0
41
1
10
53.9934642432982
20
-20.3489164778456
30
0
41
1
10
53.884075321957
20
-20.3450379089563
30
0
41
1
10
53.7804680881193
20
-20.341888831049
30
0
41
1
10
53.6725520075114
20
-20.3368311599412
30
0
41
1
10
53.6679952849823
20
-20.3366452775996
30
0
41
1
10
53.622362695753
20
-20.3350463433743
30
0
41
1
10
53.5811924961802
20
-20.3354544070474
30
0
41
1
10
53.5042684809455
20
-20.3381038056929
30
0
41
1
10
53.4684207998393
20
-20.3402170771321
30
0
41
1
10
53.4328798390933
20
-20.3447851112757
30
0
0
SPLINE
5
1CC
100
AcDbEntity
8
1
62
256
6
ByLayer
370
13
48
1
60
0
100
AcDbSpline
70
4
71
3
72
12
73
8
40
0
40
0
40
0
40
0
40
0.491351269778757
40
0.491351269778757
40
0.753050934981407
40
0.753050934981407
40
1
40
1
40
1
40
1
41
1
10
53.4328798390933
20
-20.3447851112757
30
0
41
1
10
53.3879752829179
20
-20.3505566363416
30
0
41
1
10
53.3433932389101
20
-20.3584151362951
30
0
41
1
10
53.2762335559799
20
-20.3743804027661
30
0
41
1
10
53.2531371669221
20
-20.3814727409751
30
0
41
1
10
53.2083199167815
20
-20.3948196007531
30
0
41
1
10
53.1865899596689
20
-20.401191675911
30
0
41
1
10
53.1649336450021
20
-20.4075532698831
30
0
0
SPLINE
5
1CD
100
AcDbEntity
8
1
62
256
6
ByLayer
370
13
48
1
60
0
100
AcDbSpline
70
4
71
3
72
12
73
8
40
0
40
0
40
0
40
0
40
0.244915547318589
40
0.244915547318589
40
0.864563982028735
40
0.864563982028735
40
1
40
1
40
1
40
1
41
1
10
53.1649336450021
20
-20.4075532698831
30
0
41
1
10
53.0994204230127
20
-20.4267979347542
30
0
41
1
10
53.0343929566216
20
-20.4458728799882
30
0
41
1
10
52.8105405998204
20
-20.5114406626315
30
0
41
1
10
52.6555221571248
20
-20.556636014421
30
0
41
1
10
52.4855701545792
20
-20.6065036618152
30
0
41
1
10
52.455505723763
20
-20.6153418499744
30
0
41
1
10
52.4262120963125
20
-20.62397635271
30
0
0
SPLINE
5
1CE
100
AcDbEntity
8
1
62
256
6
ByLayer
370
13
48
1
60
0
100
AcDbSpline
70
4
71
3
72
8
73
4
40
0
40
0
40
0
40
0
40
1
40
1
40
1
40
1
41
1
10
52.4471477503394
20
-21.4929105358008
30
0
41
1
10
52.4452888609435
20
-21.4927476545079
30
0
41
1
10
52.4434065060322
20
-21.4925389130722
30
0
41
1
10
52.4414974191728
20
-21.4922720357491
30
0
0
SPLINE
5
1CF
100
AcDbEntity
8
1
62
256
6
ByLayer
370
13
48
1
60
0
100
AcDbSpline
70
4
71
3
72
14
73
10
40
0
40
0
40
0
40
0
40
0.538704325353333
40
0.538704325353333
40
0.684467013462083
40
0.684467013462083
40
0.858675811811913
40
0.858675811811913
40
1
40
1
40
1
40
1
41
1
10
52.4414974191717
20
-21.4922720357481
30
0
41
1
10
52.436304109803
20
-21.4915460465162
30
0
41
1
10
52.4308274196763
20
-21.4903958980996
30
0
41
1
10
52.4235066860402
20
-21.4875428251156
30
0
41
1
10
52.4219066564685
20
-21.4868393659515
30
0
41
1
10
52.4183879750259
20
-21.4850349218315
30
0
41
1
10
52.4164306495377
20
-21.4838632740275
30
0
41
1
10
52.4130492807491
20
-21.4813429898847
30
0
41
1
10
52.4115615907703
20
-21.4800371122811
30
0
41
1
10
52.4102634151937
20
-21.4786430143288
30
0
0
SPLINE
5
1D0
100
AcDbEntity
8
1
62
256
6
ByLayer
370
13
48
1
60
0
100
AcDbSpline
70
4
71
3
72
10
73
6
40
0
40
0
40
0
40
0
40
0.429405505457208
40
0.429405505457208
40
1
40
1
40
1
40
1
41
1
10
52.4102634152023
20
-21.4786430142639
30
0
41
1
10
52.4165911437521
20
-21.4667735702135
30
0
41
1
10
52.4213513498928
20
-21.4535492105345
30
0
41
1
10
52.428338741334
20
-21.4201986354486
30
0
41
1
10
52.4290939581086
20
-21.3988919771565
30
0
41
1
10
52.4262120963125
20
-21.3760236472897
30
0
0
SPLINE
5
1D1
100
AcDbEntity
8
1
62
256
6
ByLayer
370
13
48
1
60
0
100
AcDbSpline
70
4
71
3
72
12
73
8
40
0
40
0
40
0
40
0
40
0.244915547318584
40
0.244915547318584
40
0.864563982028716
40
0.864563982028716
40
1
40
1
40
1
40
1
41
1
10
53.1649336450021
20
-21.5924467301166
30
0
41
1
10
53.0994204230127
20
-21.5732020652455
30
0
41
1
10
53.0343929566216
20
-21.5541271200115
30
0
41
1
10
52.8105405998204
20
-21.4885593373682
30
0
41
1
10
52.6555221571248
20
-21.4433639855787
30
0
41
1
10
52.4855701545792
20
-21.3934963381846
30
0
41
1
10
52.455505723763
20
-21.3846581500253
30
0
41
1
10
52.4262120963125
20
-21.3760236472897
30
0
0
SPLINE
5
1D2
100
AcDbEntity
8
1
62
256
6
ByLayer
370
13
48
1
60
0
100
AcDbSpline
70
4
71
3
72
12
73
8
40
0
40
0
40
0
40
0
40
0.491351269778757
40
0.491351269778757
40
0.753050934981407
40
0.753050934981407
40
1
40
1
40
1
40
1
41
1
10
53.4328798390933
20
-21.655214888724
30
0
41
1
10
53.3879752829179
20
-21.6494433636581
30
0
41
1
10
53.3433932389101
20
-21.6415848637046
30
0
41
1
10
53.2762335559799
20
-21.6256195972336
30
0
41
1
10
53.2531371669221
20
-21.6185272590246
30
0
41
1
10
53.2083199167815
20
-21.6051803992467
30
0
41
1
10
53.1865899596689
20
-21.5988083240888
30
0
41
1
10
53.1649336450021
20
-21.5924467301166
30
0
0
SPLINE
5
1D3
100
AcDbEntity
8
1
62
256
6
ByLayer
370
13
48
1
60
0
100
AcDbSpline
70
4
71
3
72
16
73
12
40
0
40
0
40
0
40
0
40
0.0308303102605419
40
0.0308303102605419
40
0.572662020821238
40
0.572662020821238
40
0.596525876635503
40
0.596525876635503
40
0.811742896024901
40
0.811742896024901
40
1
40
1
40
1
40
1
41
1
10
54.0052430294063
20
-21.6506663292365
30
0
41
1
10
53.9993536372725
20
-21.6508748589961
30
0
41
1
10
53.9934642432982
20
-21.6510835221541
30
0
41
1
10
53.884075321957
20
-21.6549620910434
30
0
41
1
10
53.7804680881193
20
-21.6581111689507
30
0
41
1
10
53.6725520075114
20
-21.6631688400585
30
0
41
1
10
53.6679952849823
20
-21.6633547224001
30
0
41
1
10
53.622362695753
20
-21.6649536566254
30
0
41
1
10
53.5811924961802
20
-21.6645455929524
30
0
41
1
10
53.5042684809455
20
-21.6618961943068
30
0
41
1
10
53.4684207998393
20
-21.6597829228676
30
0
41
1
10
53.4328798390933
20
-21.655214888724
30
0
0
SPLINE
5
1D4
100
AcDbEntity
8
1
62
256
6
ByLayer
370
13
48
1
60
0
100
AcDbSpline
70
4
71
3
72
10
73
6
40
0
40
0
40
0
40
0
40
0.802218039223748
40
0.802218039223748
40
1
40
1
40
1
40
1
41
1
10
54.5521447262338
20
-21.6288275760473
30
0
41
1
10
54.4127836505348
20
-21.6350518052955
30
0
41
1
10
54.2644549248777
20
-21.6407163123793
30
0
41
1
10
54.0792703339537
20
-21.647920667734
30
0
41
1
10
54.0422443273126
20
-21.6493561988225
30
0
41
1
10
54.0052430294063
20
-21.6506663292365
30
0
0
SPLINE
5
1D5
100
AcDbEntity
8
1
62
256
6
ByLayer
370
13
48
1
60
0
100
AcDbSpline
70
4
71
3
72
10
73
6
40
0
40
0
40
0
40
0
40
0.776503433583243
40
0.776503433583243
40
1
40
1
40
1
40
1
41
1
10
54.7207683583679
20
-21.6202317681337
30
0
41
1
10
54.6774725026343
20
-21.6219383146501
30
0
41
1
10
54.6344378625006
20
-21.6232204973633
30
0
41
1
10
54.5776224808541
20
-21.6274562186952
30
0
41
1
10
54.5648810790715
20
-21.6282587372991
30
0
41
1
10
54.5521447262338
20
-21.6288275760473
30
0
0
SPLINE
5
1D6
100
AcDbEntity
8
1
62
256
6
ByLayer
370
13
48
1
60
0
100
AcDbSpline
70
4
71
3
72
8
73
4
40
0
40
0
40
0
40
0
40
1
40
1
40
1
40
1
41
1
10
54.6636089363248
20
-21.6558030543973
30
0
41
1
10
54.6827084170632
20
-21.6440184752053
30
0
41
1
10
54.7017609506472
20
-21.6321598308399
30
0
41
1
10
54.7207683583679
20
-21.6202317681337
30
0
0
SPLINE
5
1D7
100
AcDbEntity
8
1
62
256
6
ByLayer
370
13
48
1
60
0
100
AcDbSpline
70
4
71
3
72
10
73
6
40
0
40
0
40
0
40
0
40
0.860053459941695
40
0.860053459941695
40
1
40
1
40
1
40
1
41
1
10
54.1982800289245
20
-21.7151367062891
30
0
41
1
10
54.3321716826563
20
-21.7210262193816
30
0
41
1
10
54.4692183325878
20
-21.7095836640921
30
0
41
1
10
54.6209193574704
20
-21.6684136548808
30
0
41
1
10
54.6422592203893
20
-21.6620874003104
30
0
41
1
10
54.6636089363248
20
-21.6558030543973
30
0
0
SPLINE
5
1D8
100
AcDbEntity
8
1
62
256
6
ByLayer
370
13
48
1
60
0
100
AcDbSpline
70
4
71
3
72
8
73
4
40
0
40
0
40
0
40
0
40
1
40
1
40
1
40
1
41
1
10
53.8283398883331
20
-21.7049010003715
30
0
41
1
10
53.9522136636574
20
-21.7012807620608
30
0
41
1
10
54.0768571353024
20
-21.7097956584956
30
0
41
1
10
54.1982800289245
20
-21.7151367062891
30
0
0
SPLINE
5
1D9
100
AcDbEntity
8
1
62
256
6
ByLayer
370
13
48
1
60
0
100
AcDbSpline
70
4
71
3
72
8
73
4
40
0
40
0
40
0
40
0
40
1
40
1
40
1
40
1
41
1
10
53.5495881472217
20
-21.6986503182982
30
0
41
1
10
53.6417788954044
20
-21.7099152702571
30
0
41
1
10
53.7354245830992
20
-21.7076164705893
30
0
41
1
10
53.8283398883331
20
-21.7049010003715
30
0
0
SPLINE
5
1DA
100
AcDbEntity
8
1
62
256
6
ByLayer
370
13
48
1
60
0
100
AcDbSpline
70
4
71
3
72
12
73
8
40
0
40
0
40
0
40
0
40
0.271863792020766
40
0.271863792020766
40
0.680333498425166
40
0.680333498425166
40
1
40
1
40
1
40
1
41
1
10
52.4471477503394
20
-21.4929105358008
30
0
41
1
10
52.5254708389114
20
-21.4997734325187
30
0
41
1
10
52.6132950984392
20
-21.5121973521705
30
0
41
1
10
52.846593161407
20
-21.5520044897381
30
0
41
1
10
53.0026236458242
20
-21.5843239174028
30
0
41
1
10
53.2875983266003
20
-21.6484749101484
30
0
41
1
10
53.4183646565651
20
-21.6826158859145
30
0
41
1
10
53.5495881472217
20
-21.6986503182982
30
0
0
SPLINE
5
1DB
100
AcDbEntity
8
1
62
256
6
ByLayer
370
13
48
1
60
0
100
AcDbSpline
70
4
71
3
72
18
73
14
40
0
40
0
40
0
40
0
40
0.447407316387175
40
0.447407316387175
40
0.605547053795674
40
0.605547053795674
40
0.784635535666972
40
0.784635535666972
40
0.885678387143329
40
0.885678387143329
40
0.977084410920521
40
0.977084410920521
40
1
40
1
40
1
40
1
41
1
10
51.4984332400777
20
-20.6028172974631
30
0
41
1
10
51.5440476624861
20
-20.5820135956953
30
0
41
1
10
51.5884120317077
20
-20.5537503383589
30
0
41
1
10
51.6394879059807
20
-20.502222548135
30
0
41
1
10
51.6521556621418
20
-20.4872714598307
30
0
41
1
10
51.676132722513
20
-20.452472554119
30
0
41
1
10
51.687234858325
20
-20.4319239733605
30
0
41
1
10
51.6999368895843
20
-20.3972707830009
30
0
41
1
10
51.7036086002949
20
-20.3841043123307
30
0
41
1
10
51.7083103046788
20
-20.3584618125185
30
0
41
1
10
51.7095747514646
20
-20.3459234788281
30
0
41
1
10
51.7097949440652
20
-20.3302504977695
30
0
41
1
10
51.7097712271323
20
-20.3270925441934
30
0
41
1
10
51.7096790521406
20
-20.3239377105635
30
0
0
SPLINE
5
1DC
100
AcDbEntity
8
1
62
256
6
ByLayer
370
13
48
1
60
0
100
AcDbSpline
70
4
71
3
72
18
73
14
40
0
40
0
40
0
40
0
40
0.0976852199958056
40
0.0976852199958056
40
0.212989397473362
40
0.212989397473362
40
0.394159987615223
40
0.394159987615223
40
0.774111539176557
40
0.774111539176557
40
0.851520792185893
40
0.851520792185893
40
1
40
1
40
1
40
1
41
1
10
51.7096790521406
20
-21.6760622894363
30
0
41
1
10
51.7100703037074
20
-21.6626710910367
30
0
41
1
10
51.7092072189939
20
-21.6491668954016
30
0
41
1
10
51.7048326306339
20
-21.6205541316321
30
0
41
1
10
51.7008494527307
20
-21.6053858827473
30
0
41
1
10
51.6875217769499
20
-21.568610014984
30
0
41
1
10
51.6762967783069
20
-21.5477660524938
30
0
41
1
10
51.6367316649358
20
-21.4903420024371
30
0
41
1
10
51.6023540549561
20
-21.4593655543702
30
0
41
1
10
51.5587483922281
20
-21.4299451442389
30
0
41
1
10
51.5511702800925
20
-21.4251691192679
30
0
41
1
10
51.5287968496802
20
-21.4119556368086
30
0
41
1
10
51.513730117624
20
-21.4041592608386
30
0
41
1
10
51.498433240088
20
-21.3971827025178
30
0
0
SPLINE
5
1DD
100
AcDbEntity
8
1
62
256
6
ByLayer
370
13
48
1
60
0
100
AcDbSpline
70
4
71
3
72
12
73
8
40
0
40
0
40
0
40
0
40
0.167536140690989
40
0.167536140690989
40
0.701521703333122
40
0.701521703333122
40
1
40
1
40
1
40
1
41
1
10
52.2514801084145
20
-20.6002383523381
30
0
41
1
10
52.2542826384415
20
-20.6026143658807
30
0
41
1
10
52.256923133606
20
-20.605119306968
30
0
41
1
10
52.2670778771217
20
-20.6161094684931
30
0
41
1
10
52.2728726221449
20
-20.6260126173875
30
0
41
1
10
52.2767050040373
20
-20.6436484373411
30
0
41
1
10
52.2770407186254
20
-20.6505048862491
30
0
41
1
10
52.2762277573114
20
-20.6576517924053
30
0
0
SPLINE
5
1DE
100
AcDbEntity
8
1
62
256
6
ByLayer
370
13
48
1
60
0
100
AcDbSpline
70
4
71
3
72
14
73
10
40
0
40
0
40
0
40
0
40
0.418540706662839
40
0.418540706662839
40
0.495635548088754
40
0.495635548088754
40
0.9192675759406
40
0.9192675759406
40
1
40
1
40
1
40
1
41
1
10
52.2762277573114
20
-20.6576517924054
30
0
41
1
10
52.2729405983399
20
-20.686549866995
30
0
41
1
10
52.2733660154214
20
-20.7210401081715
30
0
41
1
10
52.2796751136804
20
-20.7648249165777
30
0
41
1
10
52.2808357853226
20
-20.7718179974982
30
0
41
1
10
52.2893735192744
20
-20.8171789590999
30
0
41
1
10
52.3018447500133
20
-20.8583893203366
30
0
41
1
10
52.3226367698616
20
-20.9060576575023
30
0
41
1
10
52.3261939220311
20
-20.9137548991069
30
0
41
1
10
52.3299358617497
20
-20.921402674886
30
0
0
SPLINE
5
1DF
100
AcDbEntity
8
1
62
256
6
ByLayer
370
13
48
1
60
0
100
AcDbSpline
70
4
71
3
72
14
73
10
40
0
40
0
40
0
40
0
40
0.335733568867722
40
0.335733568867722
40
0.507284823780995
40
0.507284823780995
40
0.847453801813234
40
0.847453801813234
40
1
40
1
40
1
40
1
41
1
10
52.3299358617497
20
-20.9214026748859
30
0
41
1
10
52.337814020394
20
-20.9375040542222
30
0
41
1
10
52.3439375481741
20
-20.955017587227
30
0
41
1
10
52.3485739754979
20
-20.9823245290189
30
0
41
1
10
52.3493588445425
20
-20.9918282053233
30
0
41
1
10
52.3491329115973
20
-21.0197877948628
30
0
41
1
10
52.3455495425812
20
-21.0384819718119
30
0
41
1
10
52.3367872446761
20
-21.0635762144762
30
0
41
1
10
52.3335488022127
20
-21.0712131979923
30
0
41
1
10
52.3299358617498
20
-21.0785973251138
30
0
0
SPLINE
5
1E0
100
AcDbEntity
8
1
62
256
6
ByLayer
370
13
48
1
60
0
100
AcDbSpline
70
4
71
3
72
12
73
8
40
0
40
0
40
0
40
0
40
0.060976756616879
40
0.060976756616879
40
0.525861690105106
40
0.525861690105106
40
1
40
1
40
1
40
1
41
1
10
52.3299358617497
20
-21.0785973251138
30
0
41
1
10
52.3271003220153
20
-21.0843926007549
30
0
41
1
10
52.3243711082764
20
-21.0902157294687
30
0
41
1
10
52.3021069872871
20
-21.1398252601034
30
0
41
1
10
52.2884144324718
20
-21.1853500572246
30
0
41
1
10
52.2735997997306
20
-21.2696415491381
30
0
41
1
10
52.2725076756419
20
-21.3096442226345
30
0
41
1
10
52.2762277573114
20
-21.3423482075944
30
0
0
SPLINE
5
1E1
100
AcDbEntity
8
1
62
256
6
ByLayer
370
13
48
1
60
0
100
AcDbSpline
70
4
71
3
72
10
73
6
40
0
40
0
40
0
40
0
40
0.579743919086243
40
0.579743919086243
40
1
40
1
40
1
40
1
41
1
10
52.2762277573114
20
-21.3423482075944
30
0
41
1
10
52.2777925092618
20
-21.3561042561966
30
0
41
1
10
52.274921505156
20
-21.3687775496475
30
0
41
1
10
52.2645276574484
20
-21.3870236332863
30
0
41
1
10
52.2584959094317
20
-21.3938135799986
30
0
41
1
10
52.2514801084147
20
-21.3997616476618
30
0
0
SPLINE
5
1E2
100
AcDbEntity
8
1
62
256
6
ByLayer
370
13
48
1
60
0
100
AcDbSpline
70
4
71
3
72
8
73
4
40
0
40
0
40
0
40
0
40
1
40
1
40
1
40
1
41
1
10
51.1586453076088
20
-21.2987860265447
30
0
41
1
10
51.1709068417096
20
-21.2956016278619
30
0
41
1
10
51.1832654919602
20
-21.2925397767043
30
0
41
1
10
51.1957009625836
20
-21.2895980628216
30
0
0
SPLINE
5
1E3
100
AcDbEntity
8
1
62
256
6
ByLayer
370
13
48
1
60
0
100
AcDbSpline
70
4
71
3
72
10
73
6
40
0
40
0
40
0
40
0
40
0.333728436493078
40
0.333728436493078
40
1
40
1
40
1
40
1
41
1
10
51.1957009625832
20
-21.2895980628203
30
0
41
1
10
51.1966662675297
20
-21.289369711916
30
0
41
1
10
51.1976317049565
20
-21.2891413834226
30
0
41
1
10
51.2005249812794
20
-21.2884572762572
30
0
41
1
10
51.2024532131263
20
-21.2880015643932
30
0
41
1
10
51.204381960042
20
-21.2875459419709
30
0
0
SPLINE
5
1E4
100
AcDbEntity
8
1
62
256
6
ByLayer
370
13
48
1
60
0
100
AcDbSpline
70
4
71
3
72
28
73
24
40
0
40
0
40
0
40
0
40
0.120400997037726
40
0.120400997037726
40
0.267193145137956
40
0.267193145137956
40
0.387937930337117
40
0.387937930337117
40
0.465259875154669
40
0.465259875154669
40
0.495901986784595
40
0.495901986784595
40
0.581704825079178
40
0.581704825079178
40
0.603681926078793
40
0.603681926078793
40
0.705282320663386
40
0.705282320663386
40
0.836662945425109
40
0.836662945425109
40
0.962212936191202
40
0.962212936191202
40
1
40
1
40
1
40
1
41
1
10
51.2043819600418
20
-21.2875459419604
30
0
41
1
10
51.2386117615898
20
-21.2794599328693
30
0
41
1
10
51.2717745161216
20
-21.2684324037647
30
0
41
1
10
51.3403563386755
20
-21.2365353211853
30
0
41
1
10
51.3755506139921
20
-21.2136690286404
30
0
41
1
10
51.4293957511653
20
-21.160892476142
30
0
41
1
10
51.4505128568283
20
-21.1321078789163
30
0
41
1
10
51.4742896735613
20
-21.0787401636243
30
0
41
1
10
51.4810059815831
20
-21.0558064913008
30
0
41
1
10
51.485458778987
20
-21.0230679722707
30
0
41
1
10
51.4861866916511
20
-21.0135688433266
30
0
41
1
10
51.4867918153238
20
-20.9779371058831
30
0
41
1
10
51.4827627697971
20
-20.9512806451341
30
0
41
1
10
51.473008547855
20
-20.9204416334549
30
0
41
1
10
51.4707421946394
20
-20.9141744455803
30
0
41
1
10
51.4568990508133
20
-20.8801203715901
30
0
41
1
10
51.4406033083254
20
-20.8546564912361
30
0
41
1
10
51.3970837039401
20
-20.80459137895
30
0
41
1
10
51.3674044337148
20
-20.7813970461721
30
0
41
1
10
51.304685404423
20
-20.7451814331838
30
0
41
1
10
51.2712334060984
20
-20.7313901724935
30
0
41
1
10
51.2258807591636
20
-20.7178506325375
30
0
41
1
10
51.215191249574
20
-20.7150075058958
30
0
41
1
10
51.204381960042
20
-20.7124540580383
30
0
0
SPLINE
5
1E5
100
AcDbEntity
8
1
62
256
6
ByLayer
370
13
48
1
60
0
100
AcDbSpline
70
4
71
3
72
10
73
6
40
0
40
0
40
0
40
0
40
0.666271563875835
40
0.666271563875835
40
1
40
1
40
1
40
1
41
1
10
51.2043819600418
20
-20.7124540580394
30
0
41
1
10
51.2024532131249
20
-20.7119984356169
30
0
41
1
10
51.2005249812773
20
-20.711542723742
30
0
41
1
10
51.1976317049544
20
-20.7108586165766
30
0
41
1
10
51.1966662675286
20
-20.7106302880828
30
0
41
1
10
51.1957009625832
20
-20.7104019371787
30
0
0
SPLINE
5
1E6
100
AcDbEntity
8
1
62
256
6
ByLayer
370
13
48
1
60
0
100
AcDbSpline
70
4
71
3
72
8
73
4
40
0
40
0
40
0
40
0
40
1
40
1
40
1
40
1
41
1
10
51.1957009625832
20
-20.7104019371794
30
0
41
1
10
51.1832654919591
20
-20.7074602232966
30
0
41
1
10
51.170906841708
20
-20.7043983721374
30
0
41
1
10
51.1586453076064
20
-20.7012139734544
30
0
0
SPLINE
5
1E7
100
AcDbEntity
8
1
62
256
6
ByLayer
370
13
48
1
60
0
100
AcDbSpline
70
4
71
3
72
8
73
4
40
0
40
0
40
0
40
0
40
1
40
1
40
1
40
1
41
1
10
52.4731203716814
20
-21.6384795290667
30
0
41
1
10
52.4745825957789
20
-21.6375624116316
30
0
41
1
10
52.4760463384843
20
-21.636640691551
30
0
41
1
10
52.4775115598651
20
-21.6357144276867
30
0
0
SPLINE
5
1E8
100
AcDbEntity
8
1
62
256
6
ByLayer
370
13
48
1
60
0
100
AcDbSpline
70
4
71
3
72
12
73
8
40
0
40
0
40
0
40
0
40
0.334418366090769
40
0.334418366090769
40
0.734677033774883
40
0.734677033774883
40
1
40
1
40
1
40
1
41
1
10
53.5337805434612
20
-21.8640386726323
30
0
41
1
10
53.402267961703
20
-21.8499620637584
30
0
41
1
10
53.2723193598528
20
-21.815792719989
30
0
41
1
10
52.9995089617334
20
-21.7444150350241
30
0
41
1
10
52.8541870739038
20
-21.7085496328173
30
0
41
1
10
52.6350503526795
20
-21.6617138401583
30
0
41
1
10
52.5522182729484
20
-21.6461422859047
30
0
41
1
10
52.4775115598653
20
-21.6357144276871
30
0
0
SPLINE
5
1E9
100
AcDbEntity
8
1
62
256
6
ByLayer
370
13
48
1
60
0
100
AcDbSpline
70
4
71
3
72
12
73
8
40
0
40
0
40
0
40
0
40
0.334418366090769
40
0.334418366090769
40
0.734677033774883
40
0.734677033774883
40
1
40
1
40
1
40
1
41
1
10
53.5337805434612
20
-20.1359613273675
30
0
41
1
10
53.402267961703
20
-20.1500379362413
30
0
41
1
10
53.2723193598528
20
-20.1842072800107
30
0
41
1
10
52.9995089617334
20
-20.2555849649757
30
0
41
1
10
52.8541870739038
20
-20.2914503671824
30
0
41
1
10
52.6350503526795
20
-20.3382861598414
30
0
41
1
10
52.5522182729484
20
-20.353857714095
30
0
41
1
10
52.4775115598653
20
-20.3642855723126
30
0
0
SPLINE
5
1EA
100
AcDbEntity
8
1
62
256
6
ByLayer
370
13
48
1
60
0
100
AcDbSpline
70
4
71
3
72
8
73
4
40
0
40
0
40
0
40
0
40
1
40
1
40
1
40
1
41
1
10
52.4775115598653
20
-20.3642855723126
30
0
41
1
10
52.4760463384844
20
-20.3633593084484
30
0
41
1
10
52.4745825957789
20
-20.3624375883681
30
0
41
1
10
52.4731203716814
20
-20.361520470933
30
0
0
SPLINE
5
1EB
100
AcDbEntity
8
1
62
256
6
ByLayer
370
13
48
1
60
0
100
AcDbSpline
70
4
71
3
72
18
73
14
40
0
40
0
40
0
40
0
40
0.0161194639884916
40
0.0161194639884916
40
0.0830400526233481
40
0.0830400526233481
40
0.164187348294867
40
0.164187348294867
40
0.329246171114526
40
0.329246171114526
40
0.49267383795864
40
0.49267383795864
40
1
40
1
40
1
40
1
41
1
10
51.6583760306418
20
-20.3239377105635
30
0
41
1
10
51.6583760306418
20
-20.3255219189402
30
0
41
1
10
51.6583070506514
20
-20.3271077316094
30
0
41
1
10
51.6576154305964
20
-20.3351450177348
30
0
41
1
10
51.6558959531471
20
-20.3415507935994
30
0
41
1
10
51.6503990140808
20
-20.3546716238384
30
0
41
1
10
51.6462332916851
20
-20.3613593148695
30
0
41
1
10
51.6320214661551
20
-20.379762195009
30
0
41
1
10
51.6201790807021
20
-20.3900656157793
30
0
41
1
10
51.5955030409141
20
-20.40799347032
30
0
41
1
10
51.5824167868289
20
-20.4157470149174
30
0
41
1
10
51.5277159291731
20
-20.4442176405212
30
0
41
1
10
51.4832430916057
20
-20.4589200188539
30
0
41
1
10
51.4385371190036
20
-20.4704230632842
30
0
0
SPLINE
5
1EC
100
AcDbEntity
8
1
62
256
6
ByLayer
370
13
48
1
60
0
100
AcDbSpline
70
4
71
3
72
16
73
12
40
0
40
0
40
0
40
0
40
0.17415962102223
40
0.17415962102223
40
0.671976092746537
40
0.671976092746537
40
0.83822694518602
40
0.83822694518602
40
0.929660782988591
40
0.929660782988591
40
1
40
1
40
1
40
1
41
1
10
51.4385371190036
20
-21.5295769367155
30
0
41
1
10
51.4539422148971
20
-21.5335407360069
30
0
41
1
10
51.4692599827102
20
-21.5379230910721
30
0
41
1
10
51.5274830378249
20
-21.556661632818
30
0
41
1
10
51.5706632046931
20
-21.5739590004228
30
0
41
1
10
51.6203257985211
20
-21.6100412053543
30
0
41
1
10
51.6323080918469
20
-21.6204830101197
30
0
41
1
10
51.6471462242705
20
-21.6398958219109
30
0
41
1
10
51.6517437069761
20
-21.6475989077422
30
0
41
1
10
51.6570278864055
20
-21.6622978887496
30
0
41
1
10
51.6583760306417
20
-21.6692209404174
30
0
41
1
10
51.6583760306418
20
-21.6760622894363
30
0
0
SPLINE
5
1ED
100
AcDbEntity
8
1
62
256
6
ByLayer
370
13
48
1
60
0
100
AcDbSpline
70
4
71
3
72
8
73
4
40
0
40
0
40
0
40
0
40
1
40
1
40
1
40
1
41
1
10
50.7871982348828
20
-21.7254379281352
30
0
41
1
10
50.8371072022262
20
-21.6316834670076
30
0
41
1
10
50.8829751479405
20
-21.5354809964408
30
0
41
1
10
50.9269486592887
20
-21.4384193990971
30
0
0
SPLINE
5
1EE
100
AcDbEntity
8
1
62
256
6
ByLayer
370
13
48
1
60
0
100
AcDbSpline
70
4
71
3
72
8
73
4
40
0
40
0
40
0
40
0
40
1
40
1
40
1
40
1
41
1
10
50.9269486592887
20
-21.4384193990971
30
0
41
1
10
50.9310517239117
20
-21.4293628103896
30
0
41
1
10
50.9358959391856
20
-21.4206252569403
30
0
41
1
10
50.9415296908639
20
-21.4125541120131
30
0
0
SPLINE
5
1EF
100
AcDbEntity
8
1
62
256
6
ByLayer
370
13
48
1
60
0
100
AcDbSpline
70
4
71
3
72
10
73
6
40
0
40
0
40
0
40
0
40
0.607627674029775
40
0.607627674029775
40
1
40
1
40
1
40
1
41
1
10
50.941529690864
20
-21.4125541120131
30
0
41
1
10
50.9449483939528
20
-21.4076563370191
30
0
41
1
10
50.9493450872493
20
-21.4034892047828
30
0
41
1
10
50.9571218081436
20
-21.3977432451203
30
0
41
1
10
50.9603603656148
20
-21.3957309081603
30
0
41
1
10
50.9636781743631
20
-21.393907400014
30
0
0
SPLINE
5
1F0
100
AcDbEntity
8
1
62
256
6
ByLayer
370
13
48
1
60
0
100
AcDbSpline
70
4
71
3
72
8
73
4
40
0
40
0
40
0
40
0
40
1
40
1
40
1
40
1
41
1
10
50.963678174367
20
-21.39390740002
30
0
41
1
10
50.9740398294939
20
-21.388212508009
30
0
41
1
10
50.9856192161748
20
-21.3847883053545
30
0
41
1
10
50.9971847075066
20
-21.383195126766
30
0
0
SPLINE
5
1F1
100
AcDbEntity
8
1
62
256
6
ByLayer
370
13
48
1
60
0
100
AcDbSpline
70
4
71
3
72
10
73
6
40
0
40
0
40
0
40
0
40
0.468522557911306
40
0.468522557911306
40
1
40
1
40
1
40
1
41
1
10
50.9971847075066
20
-21.3831951267661
30
0
41
1
10
51.0125073622826
20
-21.3810843884668
30
0
41
1
10
51.0281890938236
20
-21.3808088118436
30
0
41
1
10
51.0608326130716
20
-21.3848890210404
30
0
41
1
10
51.0781649337055
20
-21.3899435305122
30
0
41
1
10
51.0936729304055
20
-21.398381368724
30
0
0
SPLINE
5
1F2
100
AcDbEntity
8
1
62
256
6
ByLayer
370
13
48
1
60
0
100
AcDbSpline
70
4
71
3
72
10
73
6
40
0
40
0
40
0
40
0
40
0.39285874077214
40
0.39285874077214
40
1
40
1
40
1
40
1
41
1
10
51.0936729304044
20
-20.601618631276
30
0
41
1
10
51.0821344359051
20
-20.607896679413
30
0
41
1
10
51.069596920594
20
-20.6123036927081
30
0
41
1
10
51.037371840694
20
-20.6191954049753
30
0
41
1
10
51.0169301631213
20
-20.6195248646453
30
0
41
1
10
50.9971847075166
20
-20.6168048732368
30
0
0
SPLINE
5
1F3
100
AcDbEntity
8
1
62
256
6
ByLayer
370
13
48
1
60
0
100
AcDbSpline
70
4
71
3
72
10
73
6
40
0
40
0
40
0
40
0
40
0.0840681653027228
40
0.0840681653027228
40
1
40
1
40
1
40
1
41
1
10
50.9971847075161
20
-20.6168048732353
30
0
41
1
10
50.9962010455789
20
-20.6166693710685
30
0
41
1
10
50.9952188661862
20
-20.6165210289348
30
0
41
1
10
50.9836819996079
20
-20.6146205393408
30
0
41
1
10
50.9731694732705
20
-20.6113091335963
30
0
41
1
10
50.9636781743698
20
-20.6060925999813
30
0
0
SPLINE
5
1F4
100
AcDbEntity
8
1
62
256
6
ByLayer
370
13
48
1
60
0
100
AcDbSpline
70
4
71
3
72
10
73
6
40
0
40
0
40
0
40
0
40
0.300964641608717
40
0.300964641608717
40
1
40
1
40
1
40
1
41
1
10
50.9636781743711
20
-20.6060925999725
30
0
41
1
10
50.9611279033247
20
-20.6046909399066
30
0
41
1
10
50.9586265623859
20
-20.6031785900876
30
0
41
1
10
50.9506729861664
20
-20.5977310030433
30
0
41
1
10
50.9454582450927
20
-20.593074096744
30
0
41
1
10
50.9415296908643
20
-20.5874458879869
30
0
0
SPLINE
5
1F5
100
AcDbEntity
8
1
62
256
6
ByLayer
370
13
48
1
60
0
100
AcDbSpline
70
4
71
3
72
8
73
4
40
0
40
0
40
0
40
0
40
1
40
1
40
1
40
1
41
1
10
50.9415296908642
20
-20.5874458879871
30
0
41
1
10
50.9358959391855
20
-20.5793747430594
30
0
41
1
10
50.9310517239113
20
-20.5706371896095
30
0
41
1
10
50.9269486592881
20
-20.5615806009013
30
0
0
SPLINE
5
1F6
100
AcDbEntity
8
1
62
256
6
ByLayer
370
13
48
1
60
0
100
AcDbSpline
70
4
71
3
72
8
73
4
40
0
40
0
40
0
40
0
40
1
40
1
40
1
40
1
41
1
10
50.9269486592881
20
-20.5615806009013
30
0
41
1
10
50.8829751479401
20
-20.464519003558
30
0
41
1
10
50.837107202226
20
-20.3683165329917
30
0
41
1
10
50.7871982348828
20
-20.2745620718646
30
0
0
SPLINE
5
1F7
100
AcDbEntity
8
1
62
256
6
ByLayer
370
13
48
1
60
0
100
AcDbSpline
70
4
71
3
72
12
73
8
40
0
40
0
40
0
40
0
40
0.597224160982647
40
0.597224160982647
40
0.806459478729557
40
0.806459478729557
40
1
40
1
40
1
40
1
41
1
10
52.4674054923344
20
-20.3798638487589
30
0
41
1
10
52.4517404047312
20
-20.4020944335639
30
0
41
1
10
52.4345712719748
20
-20.4261400196396
30
0
41
1
10
52.4107775882302
20
-20.4582646899002
30
0
41
1
10
52.404453368985
20
-20.4666927725862
30
0
41
1
10
52.3922252793235
20
-20.482715335398
30
0
41
1
10
52.3863036863561
20
-20.4903531973479
30
0
41
1
10
52.3803879305321
20
-20.4978378444513
30
0
0
SPLINE
5
1F8
100
AcDbEntity
8
1
62
256
6
ByLayer
370
13
48
1
60
0
100
AcDbSpline
70
4
71
3
72
12
73
8
40
0
40
0
40
0
40
0
40
0.0216552127699091
40
0.0216552127699091
40
0.549266071356395
40
0.549266071356395
40
1
40
1
40
1
40
1
41
1
10
52.251480108414
20
-20.6002383523386
30
0
41
1
10
52.2524880633972
20
-20.5998121336732
30
0
41
1
10
52.2534955429719
20
-20.5993783684841
30
0
41
1
10
52.2789531871476
20
-20.5882233611289
30
0
41
1
10
52.3033813442807
20
-20.5728606149623
30
0
41
1
10
52.3454052205908
20
-20.5378036391494
30
0
41
1
10
52.3638645140883
20
-20.5187433626485
30
0
41
1
10
52.380387930535
20
-20.4978378444477
30
0
0
SPLINE
5
1F9
100
AcDbEntity
8
1
62
256
6
ByLayer
370
13
48
1
60
0
100
AcDbSpline
70
4
71
3
72
12
73
8
40
0
40
0
40
0
40
0
40
0.365727906004492
40
0.365727906004492
40
0.978437105133119
40
0.978437105133119
40
1
40
1
40
1
40
1
41
1
10
52.3803879305321
20
-21.5021621555485
30
0
41
1
10
52.3669233419134
20
-21.4851266832939
30
0
41
1
10
52.3521983132535
20
-21.4693310668445
30
0
41
1
10
52.3111353907575
20
-21.4321726096483
30
0
41
1
10
52.2828055733672
20
-21.4134646463879
30
0
41
1
10
52.2534955383431
20
-21.400621633883
30
0
41
1
10
52.2524880622417
20
-21.4001878669207
30
0
41
1
10
52.2514801084146
20
-21.3997616476616
30
0
0
SPLINE
5
1FA
100
AcDbEntity
8
1
62
256
6
ByLayer
370
13
48
1
60
0
100
AcDbSpline
70
4
71
3
72
12
73
8
40
0
40
0
40
0
40
0
40
0.597224160967102
40
0.597224160967102
40
0.806459478710096
40
0.806459478710096
40
1
40
1
40
1
40
1
41
1
10
52.4674054923344
20
-21.6201361512409
30
0
41
1
10
52.4517404047311
20
-21.5979055664358
30
0
41
1
10
52.4345712719747
20
-21.57385998036
30
0
41
1
10
52.4107775882299
20
-21.5417353100993
30
0
41
1
10
52.4044533689847
20
-21.5333072274131
30
0
41
1
10
52.3922252793233
20
-21.5172846646013
30
0
41
1
10
52.3863036863559
20
-21.5096468026517
30
0
41
1
10
52.3803879305322
20
-21.5021621555485
30
0
0
SPLINE
5
1FB
100
AcDbEntity
8
1
62
256
6
ByLayer
370
13
48
1
60
0
100
AcDbSpline
70
4
71
3
72
8
73
4
40
0
40
0
40
0
40
0
40
1
40
1
40
1
40
1
41
1
10
52.3803879305321
20
-20.4978378444513
30
0
41
1
10
52.3917464413886
20
-20.5072477326729
30
0
41
1
10
52.4018184386868
20
-20.515176799944
30
0
41
1
10
52.4102634151926
20
-20.5213569857516
30
0
0
SPLINE
5
1FC
100
AcDbEntity
8
1
62
256
6
ByLayer
370
13
48
1
60
0
100
AcDbSpline
70
4
71
3
72
12
73
8
40
0
40
0
40
0
40
0
40
0.488366722420296
40
0.488366722420296
40
0.942436355362905
40
0.942436355362905
40
1
40
1
40
1
40
1
41
1
10
52.4262120963125
20
-21.3760236472897
30
0
41
1
10
52.4283429607195
20
-21.3471478649686
30
0
41
1
10
52.4319548858697
20
-21.31053841002
30
0
41
1
10
52.4453657154375
20
-21.2321054153643
30
0
41
1
10
52.4548755278662
20
-21.1897761623978
30
0
41
1
10
52.4702301431231
20
-21.1419237977768
30
0
41
1
10
52.4720501662501
20
-21.1364601193149
30
0
41
1
10
52.4739430174867
20
-21.1309955418564
30
0
0
SPLINE
5
1FD
100
AcDbEntity
8
1
62
256
6
ByLayer
370
13
48
1
60
0
100
AcDbSpline
70
4
71
3
72
12
73
8
40
0
40
0
40
0
40
0
40
0.037828268420456
40
0.037828268420456
40
0.727108891322556
40
0.727108891322556
40
1
40
1
40
1
40
1
41
1
10
52.4739430174867
20
-21.1309955418564
30
0
41
1
10
52.4824023364264
20
-21.1326735103034
30
0
41
1
10
52.4909189581297
20
-21.134369446214
30
0
41
1
10
52.6536057521077
20
-21.1668895319116
30
0
41
1
10
52.8281123770015
20
-21.2038686630109
30
0
41
1
10
53.0808681739289
20
-21.2598467351305
30
0
41
1
10
53.1546315555727
20
-21.2764542597195
30
0
41
1
10
53.2289221872924
20
-21.2934518921108
30
0
0
SPLINE
5
1FE
100
AcDbEntity
8
1
62
256
6
ByLayer
370
13
48
1
60
0
100
AcDbSpline
70
4
71
3
72
24
73
20
40
0
40
0
40
0
40
0
40
0.0291918203657016
40
0.0291918203657016
40
0.136396538158131
40
0.136396538158131
40
0.265987867368488
40
0.265987867368488
40
0.377753358158994
40
0.377753358158994
40
0.50483938938664
40
0.50483938938664
40
0.632110922025969
40
0.632110922025969
40
0.762713398901978
40
0.762713398901978
40
0.901999958850298
40
0.901999958850298
40
1
40
1
40
1
40
1
41
1
10
51.0817115471212
20
-20.8026645496348
30
0
41
1
10
51.0860998093752
20
-20.8044474819119
30
0
41
1
10
51.090300333935
20
-20.8064103559003
30
0
41
1
10
51.1087793745321
20
-20.8161981058844
30
0
41
1
10
51.1208255768154
20
-20.8260127693964
30
0
41
1
10
51.1430843368215
20
-20.8509233846291
30
0
41
1
10
51.1527903934534
20
-20.8671107703067
30
0
41
1
10
51.166954912446
20
-20.9009440336934
30
0
41
1
10
51.17204803846
20
-20.9184320065068
30
0
41
1
10
51.1794867440361
20
-20.9577498440933
30
0
41
1
10
51.181458605176
20
-20.980486904728
30
0
41
1
10
51.1811100662915
20
-21.0251473318558
30
0
41
1
10
51.1787796342844
20
-21.047762995698
30
0
41
1
10
51.1700744334302
20
-21.0896465559556
30
0
41
1
10
51.1634978563533
20
-21.1094747545098
30
0
41
1
10
51.1457369932043
20
-21.1451667132345
30
0
41
1
10
51.1340799608659
20
-21.1612745536768
30
0
41
1
10
51.108701419119
20
-21.1835204602317
30
0
41
1
10
51.0962344198634
20
-21.1914348689801
30
0
41
1
10
51.0817115471212
20
-21.1973354503649
30
0
0
SPLINE
5
1FF
100
AcDbEntity
8
1
62
256
6
ByLayer
370
13
48
1
60
0
100
AcDbSpline
70
4
71
3
72
12
73
8
40
0
40
0
40
0
40
0
40
0.365724954919257
40
0.365724954919257
40
0.979118069631435
40
0.979118069631435
40
1
40
1
40
1
40
1
41
1
10
52.4102634152023
20
-21.4786430142638
30
0
41
1
10
52.3937361056157
20
-21.463975645064
30
0
41
1
10
52.3756371518841
20
-21.4508031460709
30
0
41
1
10
52.3250623637126
20
-21.4210449868478
30
0
41
1
10
52.2900751797186
20
-21.4075556766332
30
0
41
1
10
52.2538899332389
20
-21.4002276757454
30
0
41
1
10
52.2526851799038
20
-21.3999911977463
30
0
41
1
10
52.2514801084145
20
-21.3997616476617
30
0
0
SPLINE
5
200
100
AcDbEntity
8
1
62
256
6
ByLayer
370
13
48
1
60
0
100
AcDbSpline
70
4
71
3
72
12
73
8
40
0
40
0
40
0
40
0
40
0.0209717280275962
40
0.0209717280275962
40
0.549261945584352
40
0.549261945584352
40
1
40
1
40
1
40
1
41
1
10
52.2514801084148
20
-20.6002383523382
30
0
41
1
10
52.2526851798995
20
-20.6000088022477
30
0
41
1
10
52.2538899332219
20
-20.5997723242304
30
0
41
1
10
52.2853191773472
20
-20.5934074781976
30
0
41
1
10
52.3154975045281
20
-20.5825558639339
30
0
41
1
10
52.3672856302101
20
-20.5551191383896
30
0
41
1
10
52.3899815347171
20
-20.5393563962018
30
0
41
1
10
52.4102634152025
20
-20.5213569857361
30
0
0
SPLINE
5
201
100
AcDbEntity
8
1
62
256
6
ByLayer
370
13
48
1
60
0
100
AcDbSpline
70
4
71
3
72
12
73
8
40
0
40
0
40
0
40
0
40
0.49164663932398
40
0.49164663932398
40
0.875373657848572
40
0.875373657848572
40
1
40
1
40
1
40
1
41
1
10
52.4739430174867
20
-20.8690044581433
30
0
41
1
10
52.4580682635103
20
-20.8231747484123
30
0
41
1
10
52.4471504774152
20
-20.7768329878382
30
0
41
1
10
52.434144098743
20
-20.7032740579305
30
0
41
1
10
52.430526825236
20
-20.6733133611946
30
0
41
1
10
52.4274054244723
20
-20.6393950355195
30
0
41
1
10
52.4267634910172
20
-20.6314484158833
30
0
41
1
10
52.4262120963126
20
-20.62397635271
30
0
0
SPLINE
5
202
100
AcDbEntity
8
1
62
256
6
ByLayer
370
13
48
1
60
0
100
AcDbSpline
70
4
71
3
72
12
73
8
40
0
40
0
40
0
40
0
40
0.0378282684204534
40
0.0378282684204534
40
0.727108891322555
40
0.727108891322555
40
1
40
1
40
1
40
1
41
1
10
52.4739430174867
20
-20.8690044581433
30
0
41
1
10
52.4824023364264
20
-20.8673264896964
30
0
41
1
10
52.4909189581297
20
-20.8656305537858
30
0
41
1
10
52.6536057521077
20
-20.8331104680882
30
0
41
1
10
52.8281123770015
20
-20.7961313369889
30
0
41
1
10
53.0808681739289
20
-20.7401532648692
30
0
41
1
10
53.1546315555727
20
-20.7235457402803
30
0
41
1
10
53.2289221872924
20
-20.7065481078889
30
0
0
SPLINE
5
203
100
AcDbEntity
8
1
62
256
6
ByLayer
370
13
48
1
60
0
100
AcDbSpline
70
4
71
3
72
8
73
4
40
0
40
0
40
0
40
0
40
1
40
1
40
1
40
1
41
1
10
52.4775115598657
20
-20.3642855723111
30
0
41
1
10
52.4742211632921
20
-20.36941750341
30
0
41
1
10
52.4708498814567
20
-20.3746157947329
30
0
41
1
10
52.4674054923343
20
-20.3798638487594
30
0
0
SPLINE
5
204
100
AcDbEntity
8
1
62
256
6
ByLayer
370
13
48
1
60
0
100
AcDbSpline
70
4
71
3
72
8
73
4
40
0
40
0
40
0
40
0
40
1
40
1
40
1
40
1
41
1
10
52.4775115598653
20
-21.6357144276876
30
0
41
1
10
52.474221163292
20
-21.6305824965891
30
0
41
1
10
52.4708498814565
20
-21.6253842052669
30
0
41
1
10
52.4674054923344
20
-21.6201361512408
30
0
0
SPLINE
5
205
100
AcDbEntity
8
1
62
256
6
ByLayer
370
13
48
1
60
0
100
AcDbSpline
70
4
71
3
72
10
73
6
40
0
40
0
40
0
40
0
40
0.543977242056965
40
0.543977242056965
40
1
40
1
40
1
40
1
41
1
10
51.1586453076065
20
-21.2987860265476
30
0
41
1
10
51.1348598955802
20
-21.2797929243131
30
0
41
1
10
51.1082267241209
20
-21.2656303219967
30
0
41
1
10
51.0582400099704
20
-21.2499817752441
30
0
41
1
10
51.0345424108346
20
-21.2466335443042
30
0
41
1
10
51.0112725012788
20
-21.2470203643673
30
0
0
SPLINE
5
206
100
AcDbEntity
8
1
62
256
6
ByLayer
370
13
48
1
60
0
100
AcDbSpline
70
4
71
3
72
10
73
6
40
0
40
0
40
0
40
0
40
0.594671969867266
40
0.594671969867266
40
1
40
1
40
1
40
1
41
1
10
51.0112725012887
20
-20.7529796356323
30
0
41
1
10
51.0414272134588
20
-20.7534809030559
30
0
41
1
10
51.0724285425084
20
-20.7476295699031
30
0
41
1
10
51.121404499001
20
-20.7270026290949
30
0
41
1
10
51.1407983096893
20
-20.7154651394923
30
0
41
1
10
51.1586453076066
20
-20.7012139734567
30
0
0
SPLINE
5
207
100
AcDbEntity
8
1
62
256
6
ByLayer
370
13
48
1
60
0
100
AcDbSpline
70
4
71
3
72
10
73
6
40
0
40
0
40
0
40
0
40
0.441584000439074
40
0.441584000439074
40
1
40
1
40
1
40
1
41
1
10
50.9682618588517
20
-20.7523779696846
30
0
41
1
10
50.9831578146862
20
-20.7597891362449
30
0
41
1
10
50.9983157146139
20
-20.7669852091049
30
0
41
1
10
51.0331615279672
20
-20.7827544954872
30
0
41
1
10
51.0530007239137
20
-20.7911945051658
30
0
41
1
10
51.0731579439907
20
-20.7992443482006
30
0
0
SPLINE
5
208
100
AcDbEntity
8
1
62
256
6
ByLayer
370
13
48
1
60
0
100
AcDbSpline
70
4
71
3
72
10
73
6
40
0
40
0
40
0
40
0
40
0.317001517206847
40
0.317001517206847
40
1
40
1
40
1
40
1
41
1
10
51.0112725012775
20
-20.7529796356309
30
0
41
1
10
51.0064777423953
20
-20.7536212052283
30
0
41
1
10
51.0017490867121
20
-20.7540404904654
30
0
41
1
10
50.9870718822178
20
-20.7546591626619
30
0
41
1
10
50.9773952454518
20
-20.7540353070503
30
0
41
1
10
50.9682618588517
20
-20.7523779696846
30
0
0
SPLINE
5
209
100
AcDbEntity
8
1
62
256
6
ByLayer
370
13
48
1
60
0
100
AcDbSpline
70
4
71
3
72
10
73
6
40
0
40
0
40
0
40
0
40
0.357650901073067
40
0.357650901073067
40
1
40
1
40
1
40
1
41
1
10
50.9682618588517
20
-21.2476220303151
30
0
41
1
10
50.9730683572598
20
-21.2467498467803
30
0
41
1
10
50.9780213367011
20
-21.246163306053
30
0
41
1
10
50.9921229263446
20
-21.2453357137272
30
0
41
1
10
51.0015680505855
20
-21.2457218464069
30
0
41
1
10
51.0112725012795
20
-21.2470203643672
30
0
0
SPLINE
5
20A
100
AcDbEntity
8
1
62
256
6
ByLayer
370
13
48
1
60
0
100
AcDbSpline
70
4
71
3
72
10
73
6
40
0
40
0
40
0
40
0
40
0.558477308496816
40
0.558477308496816
40
1
40
1
40
1
40
1
41
1
10
51.0731579439905
20
-21.2007556517982
30
0
41
1
10
51.0529985124188
20
-21.2088063779997
30
0
41
1
10
51.0331571738854
20
-21.2172473570247
30
0
41
1
10
50.9983115077506
20
-21.233016787941
30
0
41
1
10
50.9831557478674
20
-21.2402118920566
30
0
41
1
10
50.9682618588517
20
-21.2476220303151
30
0
0
SPLINE
5
20B
100
AcDbEntity
8
1
62
256
6
ByLayer
370
13
48
1
60
0
100
AcDbSpline
70
4
71
3
72
12
73
8
40
0
40
0
40
0
40
0
40
0.709988165001255
40
0.709988165001255
40
0.92220788847233
40
0.92220788847233
40
1
40
1
40
1
40
1
41
1
10
50.9327064157301
20
-20.7169921497357
30
0
41
1
10
50.949201252382
20
-20.7291773993892
30
0
41
1
10
50.9677573595242
20
-20.738907328806
30
0
41
1
10
50.9928332682202
20
-20.7478920543095
30
0
41
1
10
50.998736568945
20
-20.7497319513144
30
0
41
1
10
51.0068788977592
20
-20.7519095172147
30
0
41
1
10
51.0090724396469
20
-20.7524610612231
30
0
41
1
10
51.0112725012798
20
-20.7529796356247
30
0
0
SPLINE
5
20C
100
AcDbEntity
8
1
62
256
6
ByLayer
370
13
48
1
60
0
100
AcDbSpline
70
4
71
3
72
10
73
6
40
0
40
0
40
0
40
0
40
0.735193443551149
40
0.735193443551149
40
1
40
1
40
1
40
1
41
1
10
51.0112725012795
20
-21.2470203643682
30
0
41
1
10
50.9906991613072
20
-21.2518696864525
30
0
41
1
10
50.9704915627687
20
-21.2597146502154
30
0
41
1
10
50.9454099006125
20
-21.2741789474351
30
0
41
1
10
50.9389206110604
20
-21.2784172305679
30
0
41
1
10
50.9327064157472
20
-21.2830078502172
30
0
0
SPLINE
5
20D
100
AcDbEntity
8
1
62
256
6
ByLayer
370
13
48
1
60
0
100
AcDbSpline
70
4
71
3
72
10
73
6
40
0
40
0
40
0
40
0
40
0.333804371559252
40
0.333804371559252
40
1
40
1
40
1
40
1
41
1
10
51.0731579439905
20
-20.7992443482016
30
0
41
1
10
51.0741089610471
20
-20.7996248893469
30
0
41
1
10
51.075060222121
20
-20.8000054369527
30
0
41
1
10
51.0779107035582
20
-20.8011454865963
30
0
41
1
10
51.0798106484521
20
-20.8019050073211
30
0
41
1
10
51.0817115471212
20
-20.8026645496348
30
0
0
SPLINE
5
20E
100
AcDbEntity
8
1
62
256
6
ByLayer
370
13
48
1
60
0
100
AcDbSpline
70
4
71
3
72
10
73
6
40
0
40
0
40
0
40
0
40
0.666195628071545
40
0.666195628071545
40
1
40
1
40
1
40
1
41
1
10
51.0817115471212
20
-21.1973354503649
30
0
41
1
10
51.0798106484531
20
-21.1980949926782
30
0
41
1
10
51.0779107035603
20
-21.1988545134026
30
0
41
1
10
51.0750602221231
20
-21.1999945630462
30
0
41
1
10
51.0741089610481
20
-21.2003751106529
30
0
41
1
10
51.0731579439904
20
-21.2007556517987
30
0
0
SPLINE
5
20F
100
AcDbEntity
8
1
62
256
6
ByLayer
370
13
48
1
60
0
100
AcDbSpline
70
4
71
3
72
10
73
6
40
0
40
0
40
0
40
0
40
0.741839809293022
40
0.741839809293022
40
1
40
1
40
1
40
1
41
1
10
50.8775223795398
20
-20.6493043375585
30
0
41
1
10
50.8872637205793
20
-20.6686558486108
30
0
41
1
10
50.9004639767516
20
-20.6865073122958
30
0
41
1
10
50.9211300943468
20
-20.7071314552811
30
0
41
1
10
50.9267956571449
20
-20.7122199747684
30
0
41
1
10
50.9327064157229
20
-20.7169921497451
30
0
0
SPLINE
5
210
100
AcDbEntity
8
1
62
256
6
ByLayer
370
13
48
1
60
0
100
AcDbSpline
70
4
71
3
72
10
73
6
40
0
40
0
40
0
40
0
40
0.344098564729953
40
0.344098564729953
40
1
40
1
40
1
40
1
41
1
10
50.9327064157477
20
-21.2830078502181
30
0
41
1
10
50.9248480305401
20
-21.2893524824229
30
0
41
1
10
50.9174164333952
20
-21.2962603246457
30
0
41
1
10
50.8974612534847
20
-21.317622047163
30
0
41
1
10
50.8861446779715
20
-21.3335671682507
30
0
41
1
10
50.8775223795393
20
-21.3506956624421
30
0
0
SPLINE
5
211
100
AcDbEntity
8
1
62
256
6
ByLayer
370
13
48
1
60
0
100
AcDbSpline
70
4
71
3
72
8
73
4
40
0
40
0
40
0
40
0
40
1
40
1
40
1
40
1
41
1
10
50.8484695777327
20
-20.611034197691
30
0
41
1
10
50.856844178597
20
-20.6247435705185
30
0
41
1
10
50.8665807416807
20
-20.6376294334293
30
0
41
1
10
50.8775223795411
20
-20.6493043375573
30
0
0
SPLINE
5
212
100
AcDbEntity
8
1
62
256
6
ByLayer
370
13
48
1
60
0
100
AcDbSpline
70
4
71
3
72
8
73
4
40
0
40
0
40
0
40
0
40
1
40
1
40
1
40
1
41
1
10
50.8775223795389
20
-21.3506956624419
30
0
41
1
10
50.866580741679
20
-21.3623705665696
30
0
41
1
10
50.8568441785981
20
-21.3752564294836
30
0
41
1
10
50.8484695777341
20
-21.3889658023104
30
0
0
SPLINE
5
213
100
AcDbEntity
8
1
62
256
6
ByLayer
370
13
48
1
60
0
100
AcDbSpline
70
4
71
3
72
8
73
4
40
0
40
0
40
0
40
0
40
1
40
1
40
1
40
1
41
1
10
50.8484695777332
20
-21.3889658023077
30
0
41
1
10
50.806994641852
20
-21.4854928089329
30
0
41
1
10
50.7641587550012
20
-21.5814898444522
30
0
41
1
10
50.7183319361237
20
-21.6759843313458
30
0
0
SPLINE
5
214
100
AcDbEntity
8
1
62
256
6
ByLayer
370
13
48
1
60
0
100
AcDbSpline
70
4
71
3
72
8
73
4
40
0
40
0
40
0
40
0
40
1
40
1
40
1
40
1
41
1
10
50.7183319361237
20
-20.324015668654
30
0
41
1
10
50.764158755001
20
-20.4185101555472
30
0
41
1
10
50.8069946418517
20
-20.5145071910661
30
0
41
1
10
50.8484695777328
20
-20.6110341976909
30
0
0
SPLINE
5
215
100
AcDbEntity
8
1
62
256
6
ByLayer
370
13
48
1
60
0
100
AcDbSpline
70
4
71
3
72
10
73
6
40
0
40
0
40
0
40
0
40
0.779724613001554
40
0.779724613001554
40
1
40
1
40
1
40
1
41
1
10
50.9487905068831
20
-20.7489756444469
30
0
41
1
10
50.9522814951948
20
-20.7489756444471
30
0
41
1
10
50.9570719807736
20
-20.749635909353
30
0
41
1
10
50.964621012228
20
-20.7514123707386
30
0
41
1
10
50.9664035390181
20
-20.7518685753745
30
0
41
1
10
50.9682618588517
20
-20.7523779696846
30
0
0
SPLINE
5
216
100
AcDbEntity
8
1
62
256
6
ByLayer
370
13
48
1
60
0
100
AcDbSpline
70
4
71
3
72
8
73
4
40
0
40
0
40
0
40
0
40
1
40
1
40
1
40
1
41
1
10
50.8775223795398
20
-20.6493043375584
30
0
41
1
10
50.8675268649006
20
-20.6435122809453
30
0
41
1
10
50.8585032631411
20
-20.6376815006273
30
0
41
1
10
50.8506142807834
20
-20.6320021197221
30
0
0
SPLINE
5
217
100
AcDbEntity
8
1
62
256
6
ByLayer
370
13
48
1
60
0
100
AcDbSpline
70
4
71
3
72
8
73
4
40
0
40
0
40
0
40
0
40
1
40
1
40
1
40
1
41
1
10
50.8506142807802
20
-21.3679978802796
30
0
41
1
10
50.8585032631377
20
-21.3623184993745
30
0
41
1
10
50.8675268648999
20
-21.3564877190549
30
0
41
1
10
50.877522379539
20
-21.3506956624418
30
0
0
SPLINE
5
218
100
AcDbEntity
8
1
62
256
6
ByLayer
370
13
48
1
60
0
100
AcDbSpline
70
4
71
3
72
10
73
6
40
0
40
0
40
0
40
0
40
0.220275387008479
40
0.220275387008479
40
1
40
1
40
1
40
1
41
1
10
50.9682618588517
20
-21.2476220303151
30
0
41
1
10
50.966403539018
20
-21.2481314246252
30
0
41
1
10
50.9646210122277
20
-21.2485876292612
30
0
41
1
10
50.9570719807735
20
-21.2503640906467
30
0
41
1
10
50.9522814951945
20
-21.2510243555527
30
0
41
1
10
50.9487905068828
20
-21.2510243555528
30
0
0
SPLINE
5
219
100
AcDbEntity
8
1
62
256
6
ByLayer
370
13
48
1
60
0
100
AcDbSpline
70
4
71
3
72
10
73
6
40
0
40
0
40
0
40
0
40
0.491839191976824
40
0.491839191976824
40
1
40
1
40
1
40
1
41
1
10
52.4739430174867
20
-21.1309955418564
30
0
41
1
10
52.4840171195627
20
-21.0893988286916
30
0
41
1
10
52.489736079367
20
-21.0455961447976
30
0
41
1
10
52.490089674138
20
-20.9572674285981
30
0
41
1
10
52.4843433987004
20
-20.9119484020194
30
0
41
1
10
52.4739430174867
20
-20.8690044581433
30
0
0
SPLINE
5
21A
100
AcDbEntity
8
1
62
256
6
ByLayer
370
13
48
1
60
0
100
AcDbSpline
70
4
71
3
72
8
73
4
40
0
40
0
40
0
40
0
40
1
40
1
40
1
40
1
41
1
10
50.848469577733
20
-20.6110341976898
30
0
41
1
10
50.8491523507354
20
-20.6179636035523
30
0
41
1
10
50.8498660198604
20
-20.6249552689224
30
0
41
1
10
50.8506142807769
20
-20.6320021197178
30
0
0
SPLINE
5
21B
100
AcDbEntity
8
1
62
256
6
ByLayer
370
13
48
1
60
0
100
AcDbSpline
70
4
71
3
72
8
73
4
40
0
40
0
40
0
40
0
40
1
40
1
40
1
40
1
41
1
10
50.8506142807767
20
-21.3679978802831
30
0
41
1
10
50.8498660198604
20
-21.3750447310773
30
0
41
1
10
50.8491523507355
20
-21.3820363964463
30
0
41
1
10
50.8484695777332
20
-21.3889658023077
30
0
0
SPLINE
5
21C
100
AcDbEntity
8
1
62
256
6
ByLayer
370
13
48
1
60
0
100
AcDbSpline
70
4
71
3
72
8
73
4
40
0
40
0
40
0
40
0
40
1
40
1
40
1
40
1
41
1
10
54.5397600217523
20
-21.843852900317
30
0
41
1
10
54.4220556485929
20
-21.8683261905543
30
0
41
1
10
54.3008781086109
20
-21.8777526806861
30
0
41
1
10
54.1810768987951
20
-21.8748161636666
30
0
0
SPLINE
5
21D
100
AcDbEntity
8
1
62
256
6
ByLayer
370
13
48
1
60
0
100
AcDbSpline
70
4
71
3
72
16
73
12
40
0
40
0
40
0
40
0
40
0.565035752121982
40
0.565035752121982
40
0.802127499925977
40
0.802127499925977
40
0.909039374754918
40
0.909039374754918
40
0.963879000672096
40
0.963879000672096
40
1
40
1
40
1
40
1
41
1
10
54.5753143467793
20
-20.2344641140397
30
0
41
1
10
54.5686286509489
20
-20.2200715408731
30
0
41
1
10
54.5618879302625
20
-20.2053661699027
30
0
41
1
10
54.5523712685777
20
-20.1843437994295
30
0
41
1
10
54.5495577546969
20
-20.1780955828733
30
0
41
1
10
54.5454904861867
20
-20.1690139589529
30
0
41
1
10
54.5442279534699
20
-20.1661880006372
30
0
41
1
10
54.5423215351283
20
-20.1619101976189
30
0
41
1
10
54.5416757755847
20
-20.1604593301533
30
0
41
1
10
54.5406068513424
20
-20.1580546125802
30
0
41
1
10
54.5401828059207
20
-20.1571011122235
30
0
41
1
10
54.5397600217523
20
-20.1561470996827
30
0
0
SPLINE
5
21E
100
AcDbEntity
8
1
62
256
6
ByLayer
370
13
48
1
60
0
100
AcDbSpline
70
4
71
3
72
10
73
6
40
0
40
0
40
0
40
0
40
0.484066971714713
40
0.484066971714713
40
1
40
1
40
1
40
1
41
1
10
54.6636089363248
20
-20.3441969456024
30
0
41
1
10
54.6463854867531
20
-20.3293324764641
30
0
41
1
10
54.6300210449059
20
-20.3132714416235
30
0
41
1
10
54.5997771424429
20
-20.2771788870595
30
0
41
1
10
54.585689560494
20
-20.256799264529
30
0
41
1
10
54.5753143467793
20
-20.2344641140397
30
0
0
SPLINE
5
21F
100
AcDbEntity
8
1
62
256
6
ByLayer
370
13
48
1
60
0
100
AcDbSpline
70
4
71
3
72
16
73
12
40
0
40
0
40
0
40
0
40
0.565035752121982
40
0.565035752121982
40
0.802127499925978
40
0.802127499925978
40
0.909039374754918
40
0.909039374754918
40
0.963879000672096
40
0.963879000672096
40
1
40
1
40
1
40
1
41
1
10
54.5753143467793
20
-21.76553588596
30
0
41
1
10
54.5686286509486
20
-21.7799284591265
30
0
41
1
10
54.5618879302625
20
-21.794633830097
30
0
41
1
10
54.5523712685777
20
-21.8156562005702
30
0
41
1
10
54.5495577546969
20
-21.8219044171264
30
0
41
1
10
54.5454904861867
20
-21.8309860410468
30
0
41
1
10
54.5442279534699
20
-21.8338119993625
30
0
41
1
10
54.5423215351283
20
-21.8380898023808
30
0
41
1
10
54.5416757755847
20
-21.8395406698464
30
0
41
1
10
54.5406068513424
20
-21.8419453874195
30
0
41
1
10
54.5401828059207
20
-21.8428988877762
30
0
41
1
10
54.5397600217523
20
-21.843852900317
30
0
0
SPLINE
5
220
100
AcDbEntity
8
1
62
256
6
ByLayer
370
13
48
1
60
0
100
AcDbSpline
70
4
71
3
72
8
73
4
40
0
40
0
40
0
40
0
40
1
40
1
40
1
40
1
41
1
10
54.5397600217523
20
-20.1561470996827
30
0
41
1
10
54.4220556485929
20
-20.1316738094455
30
0
41
1
10
54.3008781086109
20
-20.1222473193136
30
0
41
1
10
54.1810768987951
20
-20.1251838363331
30
0
0
SPLINE
5
221
100
AcDbEntity
8
1
62
256
6
ByLayer
370
13
48
1
60
0
100
AcDbSpline
70
4
71
3
72
10
73
6
40
0
40
0
40
0
40
0
40
0.484066971714709
40
0.484066971714709
40
1
40
1
40
1
40
1
41
1
10
54.6636089363248
20
-21.6558030543973
30
0
41
1
10
54.6463854867531
20
-21.6706675235356
30
0
41
1
10
54.6300210449059
20
-21.6867285583762
30
0
41
1
10
54.5997771424429
20
-21.7228211129402
30
0
41
1
10
54.585689560494
20
-21.7432007354708
30
0
41
1
10
54.5753143467793
20
-21.76553588596
30
0
0
SPLINE
5
222
100
AcDbEntity
8
1
62
256
6
ByLayer
370
13
48
1
60
0
100
AcDbSpline
70
4
71
3
72
10
73
6
40
0
40
0
40
0
40
0
40
0.176628710800224
40
0.176628710800224
40
1
40
1
40
1
40
1
41
1
10
54.9256635776615
20
-20.4688791127025
30
0
41
1
10
54.9183722025778
20
-20.4578928819911
30
0
41
1
10
54.9104894309624
20
-20.4472891300735
30
0
41
1
10
54.8638040682909
20
-20.3902344246772
30
0
41
1
10
54.8154493527108
20
-20.3513005332015
30
0
41
1
10
54.7642473322785
20
-20.3191306794599
30
0
0
SPLINE
5
223
100
AcDbEntity
8
1
62
256
6
ByLayer
370
13
48
1
60
0
100
AcDbSpline
70
4
71
3
72
8
73
4
40
0
40
0
40
0
40
0
40
1
40
1
40
1
40
1
41
1
10
54.7642473322785
20
-20.3191306794599
30
0
41
1
10
54.7451065349848
20
-20.3071046569662
30
0
41
1
10
54.725925565824
20
-20.2951424320706
30
0
41
1
10
54.7067026707552
20
-20.2832483086262
30
0
0
SPLINE
5
224
100
AcDbEntity
8
1
62
256
6
ByLayer
370
13
48
1
60
0
100
AcDbSpline
70
4
71
3
72
10
73
6
40
0
40
0
40
0
40
0
40
0.502273026272322
40
0.502273026272322
40
1
40
1
40
1
40
1
41
1
10
54.7067026707552
20
-20.2832483086261
30
0
41
1
10
54.6891255877276
20
-20.2723725277109
30
0
41
1
10
54.6719685584501
20
-20.2607479360962
30
0
41
1
10
54.6393998135679
20
-20.2356622755025
30
0
41
1
10
54.6236090237987
20
-20.2222644862227
30
0
41
1
10
54.6105155637419
20
-20.2065462274312
30
0
0
SPLINE
5
225
100
AcDbEntity
8
1
62
256
6
ByLayer
370
13
48
1
60
0
100
AcDbSpline
70
4
71
3
72
10
73
6
40
0
40
0
40
0
40
0
40
0.502273026272322
40
0.502273026272322
40
1
40
1
40
1
40
1
41
1
10
54.7067026707552
20
-21.7167516913736
30
0
41
1
10
54.6891255877276
20
-21.7276274722888
30
0
41
1
10
54.6719685584501
20
-21.7392520639035
30
0
41
1
10
54.6393998135679
20
-21.7643377244973
30
0
41
1
10
54.6236090237987
20
-21.777735513777
30
0
41
1
10
54.6105155637419
20
-21.7934537725685
30
0
0
SPLINE
5
226
100
AcDbEntity
8
1
62
256
6
ByLayer
370
13
48
1
60
0
100
AcDbSpline
70
4
71
3
72
8
73
4
40
0
40
0
40
0
40
0
40
1
40
1
40
1
40
1
41
1
10
54.7642473322785
20
-21.6808693205399
30
0
41
1
10
54.7451065349848
20
-21.6928953430335
30
0
41
1
10
54.725925565824
20
-21.7048575679291
30
0
41
1
10
54.7067026707552
20
-21.7167516913736
30
0
0
SPLINE
5
227
100
AcDbEntity
8
1
62
256
6
ByLayer
370
13
48
1
60
0
100
AcDbSpline
70
4
71
3
72
10
73
6
40
0
40
0
40
0
40
0
40
0.176628710800224
40
0.176628710800224
40
1
40
1
40
1
40
1
41
1
10
54.9256635776615
20
-21.5311208872972
30
0
41
1
10
54.9183722025778
20
-21.5421071180086
30
0
41
1
10
54.9104894309624
20
-21.5527108699263
30
0
41
1
10
54.8638040682909
20
-21.6097655753225
30
0
41
1
10
54.8154493527108
20
-21.6486994667982
30
0
41
1
10
54.7642473322785
20
-21.6808693205399
30
0
0
SPLINE
5
228
100
AcDbEntity
8
1
62
256
6
ByLayer
370
13
48
1
60
0
100
AcDbSpline
70
4
71
3
72
10
73
6
40
0
40
0
40
0
40
0
40
0.828685679108716
40
0.828685679108716
40
1
40
1
40
1
40
1
41
1
10
54.7207683583679
20
-21.6202317681337
30
0
41
1
10
54.7686097493866
20
-21.5948789414492
30
0
41
1
10
54.8147633392972
20
-21.5640732076022
30
0
41
1
10
54.8604070337687
20
-21.5171710550484
30
0
41
1
10
54.8679488590384
20
-21.5086600414273
30
0
41
1
10
54.8749800271743
20
-21.4997620498896
30
0
0
SPLINE
5
229
100
AcDbEntity
8
1
62
256
6
ByLayer
370
13
48
1
60
0
100
AcDbSpline
70
4
71
3
72
12
73
8
40
0
40
0
40
0
40
0
40
0.0880792633922689
40
0.0880792633922689
40
0.576107189837383
40
0.576107189837383
40
1
40
1
40
1
40
1
41
1
10
54.6040818169429
20
-21.3521290402487
30
0
41
1
10
54.6140661440235
20
-21.3524184249714
30
0
41
1
10
54.6240551161812
20
-21.3525607797163
30
0
41
1
10
54.6893799480028
20
-21.3524346063378
30
0
41
1
10
54.7447000295702
20
-21.3503756036338
30
0
41
1
10
54.8480735369365
20
-21.3477193102368
30
0
41
1
10
54.8961214732615
20
-21.3463032538922
30
0
41
1
10
54.9441651422481
20
-21.3447404067389
30
0
0
SPLINE
5
22A
100
AcDbEntity
8
1
62
256
6
ByLayer
370
13
48
1
60
0
100
AcDbSpline
70
4
71
3
72
8
73
4
40
0
40
0
40
0
40
0
40
1
40
1
40
1
40
1
41
1
10
54.8749800271743
20
-20.5002379501101
30
0
41
1
10
54.882226373284
20
-20.5094082508506
30
0
41
1
10
54.8893744966751
20
-20.5186938569201
30
0
41
1
10
54.896439687712
20
-20.5280419591251
30
0
0
SPLINE
5
22B
100
AcDbEntity
8
1
62
256
6
ByLayer
370
13
48
1
60
0
100
AcDbSpline
70
4
71
3
72
10
73
6
40
0
40
0
40
0
40
0
40
0.828685679108716
40
0.828685679108716
40
1
40
1
40
1
40
1
41
1
10
54.7207683583679
20
-20.379768231866
30
0
41
1
10
54.7686097493866
20
-20.4051210585505
30
0
41
1
10
54.8147633392972
20
-20.4359267923975
30
0
41
1
10
54.8604070337687
20
-20.4828289449514
30
0
41
1
10
54.8679488590384
20
-20.4913399585725
30
0
41
1
10
54.8749800271743
20
-20.5002379501101
30
0
0
SPLINE
5
22C
100
AcDbEntity
8
1
62
256
6
ByLayer
370
13
48
1
60
0
100
AcDbSpline
70
4
71
3
72
12
73
8
40
0
40
0
40
0
40
0
40
0.0880792633922689
40
0.0880792633922689
40
0.576107189837383
40
0.576107189837383
40
1
40
1
40
1
40
1
41
1
10
54.6040818169429
20
-20.647870959751
30
0
41
1
10
54.6140661440235
20
-20.6475815750283
30
0
41
1
10
54.6240551161812
20
-20.6474392202834
30
0
41
1
10
54.6893799480028
20
-20.6475653936619
30
0
41
1
10
54.7447000295702
20
-20.6496243963659
30
0
41
1
10
54.8480735369365
20
-20.6522806897629
30
0
41
1
10
54.8961214732615
20
-20.6536967461075
30
0
41
1
10
54.9441651422481
20
-20.6552595932608
30
0
0
SPLINE
5
22D
100
AcDbEntity
8
1
62
256
6
ByLayer
370
13
48
1
60
0
100
AcDbSpline
70
4
71
3
72
8
73
4
40
0
40
0
40
0
40
0
40
1
40
1
40
1
40
1
41
1
10
54.8749800271743
20
-21.4997620498896
30
0
41
1
10
54.882226373284
20
-21.4905917491492
30
0
41
1
10
54.8893744966751
20
-21.4813061430796
30
0
41
1
10
54.896439687712
20
-21.4719580408746
30
0
0
SPLINE
5
22E
100
AcDbEntity
8
1
62
256
6
ByLayer
370
13
48
1
60
0
100
AcDbSpline
70
4
71
3
72
10
73
6
40
0
40
0
40
0
40
0
40
0.595894712070617
40
0.595894712070617
40
1
40
1
40
1
40
1
41
1
10
54.896439687712
20
-20.5280419591251
30
0
41
1
10
54.9128914645872
20
-20.5498096496066
30
0
41
1
10
54.9267183907984
20
-20.5742299013426
30
0
41
1
10
54.940810212682
20
-20.6179010189134
30
0
41
1
10
54.9440390421828
20
-20.6366595569233
30
0
41
1
10
54.9441651422481
20
-20.6552595932608
30
0
0
SPLINE
5
22F
100
AcDbEntity
8
1
62
256
6
ByLayer
370
13
48
1
60
0
100
AcDbSpline
70
4
71
3
72
10
73
6
40
0
40
0
40
0
40
0
40
0.595894712070617
40
0.595894712070617
40
1
40
1
40
1
40
1
41
1
10
54.896439687712
20
-21.4719580408746
30
0
41
1
10
54.9128914645872
20
-21.4501903503931
30
0
41
1
10
54.9267183907984
20
-21.4257700986571
30
0
41
1
10
54.940810212682
20
-21.3820989810863
30
0
41
1
10
54.9440390421828
20
-21.3633404430764
30
0
41
1
10
54.9441651422481
20
-21.3447404067389
30
0
0
SPLINE
5
230
100
AcDbEntity
8
1
62
256
6
ByLayer
370
13
48
1
60
0
100
AcDbSpline
70
4
71
3
72
16
73
12
40
0
40
0
40
0
40
0
40
0.550547840515593
40
0.550547840515593
40
0.792876062772848
40
0.792876062772848
40
0.904227776395907
40
0.904227776395907
40
0.964015152759446
40
0.964015152759446
40
1
40
1
40
1
40
1
41
1
10
54.610515563742
20
-21.7934537725685
30
0
41
1
10
54.5975450008677
20
-21.8024905193636
30
0
41
1
10
54.5844768135886
20
-21.8117082826938
30
0
41
1
10
54.5657548110492
20
-21.8250725082357
30
0
41
1
10
54.560032266874
20
-21.8291789905535
30
0
41
1
10
54.5517104802333
20
-21.8351826967821
30
0
41
1
10
54.5490936305623
20
-21.8370752607353
30
0
41
1
10
54.5450796636702
20
-21.8399854982631
30
0
41
1
10
54.5436787273479
20
-21.8410025790443
30
0
41
1
10
54.5414390369606
20
-21.8426307945084
30
0
41
1
10
54.5405990425508
20
-21.8432415669744
30
0
41
1
10
54.5397600217523
20
-21.843852900317
30
0
0
SPLINE
5
231
100
AcDbEntity
8
1
62
256
6
ByLayer
370
13
48
1
60
0
100
AcDbSpline
70
4
71
3
72
8
73
4
40
0
40
0
40
0
40
0
40
1
40
1
40
1
40
1
41
1
10
54.1810768987951
20
-20.1251838363331
30
0
41
1
10
54.0666740375911
20
-20.1284918621273
30
0
41
1
10
53.9499584372937
20
-20.1374661605719
30
0
41
1
10
53.8337805434613
20
-20.1332382279498
30
0
0
SPLINE
5
232
100
AcDbEntity
8
1
62
256
6
ByLayer
370
13
48
1
60
0
100
AcDbSpline
70
4
71
3
72
16
73
12
40
0
40
0
40
0
40
0
40
0.550547840515593
40
0.550547840515593
40
0.792876062772848
40
0.792876062772848
40
0.904227776395907
40
0.904227776395907
40
0.964015152759446
40
0.964015152759446
40
1
40
1
40
1
40
1
41
1
10
54.610515563742
20
-20.2065462274312
30
0
41
1
10
54.5975450008677
20
-20.1975094806361
30
0
41
1
10
54.5844768135886
20
-20.188291717306
30
0
41
1
10
54.5657548110492
20
-20.174927491764
30
0
41
1
10
54.560032266874
20
-20.1708210094462
30
0
41
1
10
54.5517104802333
20
-20.1648173032177
30
0
41
1
10
54.5490936305623
20
-20.1629247392645
30
0
41
1
10
54.5450796636702
20
-20.1600145017366
30
0
41
1
10
54.5436787273479
20
-20.1589974209554
30
0
41
1
10
54.5414390369606
20
-20.1573692054913
30
0
41
1
10
54.5405990425508
20
-20.1567584330253
30
0
41
1
10
54.5397600217523
20
-20.1561470996827
30
0
0
SPLINE
5
233
100
AcDbEntity
8
1
62
256
6
ByLayer
370
13
48
1
60
0
100
AcDbSpline
70
4
71
3
72
8
73
4
40
0
40
0
40
0
40
0
40
1
40
1
40
1
40
1
41
1
10
54.1810768987951
20
-21.8748161636666
30
0
41
1
10
54.0666740375911
20
-21.8715081378724
30
0
41
1
10
53.9499584372937
20
-21.8625338394279
30
0
41
1
10
53.8337805434613
20
-21.8667617720499
30
0
0
SPLINE
5
234
100
AcDbEntity
8
1
62
256
6
ByLayer
370
13
48
1
60
0
100
AcDbSpline
70
4
71
3
72
10
73
6
40
0
40
0
40
0
40
0
40
0.202374079532489
40
0.202374079532489
40
1
40
1
40
1
40
1
41
1
10
53.9939768523292
20
-21.3533326201232
30
0
41
1
10
54.0366335743463
20
-21.3521473391051
30
0
41
1
10
54.0793460209674
20
-21.3516530985142
30
0
41
1
10
54.2872289032591
20
-21.3488211110945
30
0
41
1
10
54.4524723046481
20
-21.3489066014578
30
0
41
1
10
54.6040818169429
20
-21.3521290402487
30
0
0
SPLINE
5
235
100
AcDbEntity
8
1
62
256
6
ByLayer
370
13
48
1
60
0
100
AcDbSpline
70
4
71
3
72
10
73
6
40
0
40
0
40
0
40
0
40
0.202374079532489
40
0.202374079532489
40
1
40
1
40
1
40
1
41
1
10
53.9939768523292
20
-20.6466673798766
30
0
41
1
10
54.0366335743463
20
-20.6478526608946
30
0
41
1
10
54.0793460209674
20
-20.6483469014855
30
0
41
1
10
54.2872289032591
20
-20.6511788889052
30
0
41
1
10
54.4524723046481
20
-20.6510933985419
30
0
41
1
10
54.6040818169429
20
-20.647870959751
30
0
0
SPLINE
5
236
100
AcDbEntity
8
1
62
256
6
ByLayer
370
13
48
1
60
0
100
AcDbSpline
70
4
71
3
72
10
73
6
40
0
40
0
40
0
40
0
40
0.412056726398416
40
0.412056726398416
40
1
40
1
40
1
40
1
41
1
10
54.9970257408962
20
-20.6552595932608
30
0
41
1
10
54.9970257408962
20
-20.6321400552949
30
0
41
1
10
54.99385361432
20
-20.608846727236
30
0
41
1
10
54.9795476699584
20
-20.5547785364099
30
0
41
1
10
54.9654870839336
20
-20.5243087987378
30
0
41
1
10
54.9480375085945
20
-20.496574721328
30
0
0
SPLINE
5
237
100
AcDbEntity
8
1
62
256
6
ByLayer
370
13
48
1
60
0
100
AcDbSpline
70
4
71
3
72
8
73
4
40
0
40
0
40
0
40
0
40
1
40
1
40
1
40
1
41
1
10
53.8337805434613
20
-21.8667617720499
30
0
41
1
10
53.7338294385697
20
-21.8700103066635
30
0
41
1
10
53.6333593139737
20
-21.8732301528132
30
0
41
1
10
53.5337805434612
20
-21.8640386726323
30
0
0
SPLINE
5
238
100
AcDbEntity
8
1
62
256
6
ByLayer
370
13
48
1
60
0
100
AcDbSpline
70
4
71
3
72
8
73
4
40
0
40
0
40
0
40
0
40
1
40
1
40
1
40
1
41
1
10
53.8337805434613
20
-20.1332382279498
30
0
41
1
10
53.7338294385697
20
-20.1299896933362
30
0
41
1
10
53.6333593139737
20
-20.1267698471866
30
0
41
1
10
53.5337805434612
20
-20.1359613273675
30
0
0
SPLINE
5
239
100
AcDbEntity
8
1
62
256
6
ByLayer
370
13
48
1
60
0
100
AcDbSpline
70
4
71
3
72
16
73
12
40
0
40
0
40
0
40
0
40
0.144623406732697
40
0.144623406732697
40
0.340113210683642
40
0.340113210683642
40
0.361421053906806
40
0.361421053906806
40
0.96509055241744
40
0.96509055241744
40
1
40
1
40
1
40
1
41
1
10
53.4939768523292
20
-20.6503028902877
30
0
41
1
10
53.5176378728546
20
-20.6455711928759
30
0
41
1
10
53.5416309953235
20
-20.6423559652356
30
0
41
1
10
53.598193352456
20
-20.6375989059906
30
0
41
1
10
53.6308631318152
20
-20.6364437641577
30
0
41
1
10
53.6670552818254
20
-20.6364367502267
30
0
41
1
10
53.6706149406199
20
-20.6364528792924
30
0
41
1
10
53.7749938211815
20
-20.6374751896505
30
0
41
1
10
53.8757429102796
20
-20.6422564525768
30
0
41
1
10
53.9823238693043
20
-20.6462276837917
30
0
41
1
10
53.9881503958337
20
-20.6464466114652
30
0
41
1
10
53.9939768523292
20
-20.6466673798766
30
0
0
SPLINE
5
23A
100
AcDbEntity
8
1
62
256
6
ByLayer
370
13
48
1
60
0
100
AcDbSpline
70
4
71
3
72
10
73
6
40
0
40
0
40
0
40
0
40
0.412056726398416
40
0.412056726398416
40
1
40
1
40
1
40
1
41
1
10
54.9970257408962
20
-21.3447404067389
30
0
41
1
10
54.9970257408962
20
-21.3678599447049
30
0
41
1
10
54.99385361432
20
-21.3911532727637
30
0
41
1
10
54.9795476699584
20
-21.4452214635899
30
0
41
1
10
54.9654870839336
20
-21.4756912012619
30
0
41
1
10
54.9480375085945
20
-21.5034252786717
30
0
0
SPLINE
5
23B
100
AcDbEntity
8
1
62
256
6
ByLayer
370
13
48
1
60
0
100
AcDbSpline
70
4
71
3
72
16
73
12
40
0
40
0
40
0
40
0
40
0.144623406732697
40
0.144623406732697
40
0.340113210683642
40
0.340113210683642
40
0.361421053906806
40
0.361421053906806
40
0.96509055241744
40
0.96509055241744
40
1
40
1
40
1
40
1
41
1
10
53.4939768523292
20
-21.349697109712
30
0
41
1
10
53.5176378728546
20
-21.3544288071238
30
0
41
1
10
53.5416309953235
20
-21.3576440347641
30
0
41
1
10
53.598193352456
20
-21.3624010940091
30
0
41
1
10
53.6308631318152
20
-21.3635562358421
30
0
41
1
10
53.6670552818254
20
-21.363563249773
30
0
41
1
10
53.6706149406199
20
-21.3635471207073
30
0
41
1
10
53.7749938211815
20
-21.3625248103492
30
0
41
1
10
53.8757429102796
20
-21.3577435474229
30
0
41
1
10
53.9823238693043
20
-21.3537723162081
30
0
41
1
10
53.9881503958337
20
-21.3535533885346
30
0
41
1
10
53.9939768523292
20
-21.3533326201232
30
0
0
SPLINE
5
23C
100
AcDbEntity
8
1
62
256
6
ByLayer
370
13
48
1
60
0
100
AcDbSpline
70
4
71
3
72
8
73
4
40
0
40
0
40
0
40
0
40
1
40
1
40
1
40
1
41
1
10
54.9480375085945
20
-20.496574721328
30
0
41
1
10
54.9406822121478
20
-20.4872224084122
30
0
41
1
10
54.9332278664848
20
-20.4779738840851
30
0
41
1
10
54.9256635776615
20
-20.4688791127025
30
0
0
SPLINE
5
23D
100
AcDbEntity
8
1
62
256
6
ByLayer
370
13
48
1
60
0
100
AcDbSpline
70
4
71
3
72
8
73
4
40
0
40
0
40
0
40
0
40
1
40
1
40
1
40
1
41
1
10
54.9480375085945
20
-21.5034252786717
30
0
41
1
10
54.9406822121478
20
-21.5127775915876
30
0
41
1
10
54.9332278664848
20
-21.5220261159146
30
0
41
1
10
54.9256635776615
20
-21.5311208872972
30
0
0
SPLINE
5
23E
100
AcDbEntity
8
1
62
256
6
ByLayer
370
13
48
1
60
0
100
AcDbSpline
70
4
71
3
72
16
73
12
40
0
40
0
40
0
40
0
40
0.0002204728141812
40
0.0002204728141812
40
0.28207049074326
40
0.28207049074326
40
0.563941110555105
40
0.563941110555105
40
0.999779527185927
40
0.999779527185927
40
1
40
1
40
1
40
1
41
1
10
53.2289221872924
20
-20.7065481078888
30
0
41
1
10
53.2289414547825
20
-20.7065436902226
30
0
41
1
10
53.2289607223292
20
-20.7065392728709
30
0
41
1
10
53.2536114636835
20
-20.7008875190501
30
0
41
1
10
53.2783272225084
20
-20.6952097446841
30
0
41
1
10
53.327843685161
20
-20.6837294870882
30
0
41
1
10
53.3526291596669
20
-20.6778065022055
30
0
41
1
10
53.4159850762818
20
-20.6636141249571
30
0
41
1
10
53.4548717009099
20
-20.6562967453001
30
0
41
1
10
53.4939373139163
20
-20.6503089494873
30
0
41
1
10
53.4939570830919
20
-20.6503059196862
30
0
41
1
10
53.4939768523292
20
-20.6503028902877
30
0
0
SPLINE
5
23F
100
AcDbEntity
8
1
62
256
6
ByLayer
370
13
48
1
60
0
100
AcDbSpline
70
4
71
3
72
16
73
12
40
0
40
0
40
0
40
0
40
0.0002204728141812
40
0.0002204728141812
40
0.28207049074326
40
0.28207049074326
40
0.563941110555105
40
0.563941110555105
40
0.999779527185927
40
0.999779527185927
40
1
40
1
40
1
40
1
41
1
10
53.2289221872924
20
-21.2934518921109
30
0
41
1
10
53.2289414547824
20
-21.2934563096307
30
0
41
1
10
53.2289607223292
20
-21.2934607271288
30
0
41
1
10
53.2536114636835
20
-21.2991124809496
30
0
41
1
10
53.2783272225084
20
-21.3047902553156
30
0
41
1
10
53.327843685161
20
-21.3162705129115
30
0
41
1
10
53.3526291596669
20
-21.3221934977942
30
0
41
1
10
53.4159850762818
20
-21.3363858750426
30
0
41
1
10
53.4548717009099
20
-21.3437032546997
30
0
41
1
10
53.4939373139163
20
-21.3496910505124
30
0
41
1
10
53.4939570831493
20
-21.3496940799388
30
0
41
1
10
53.4939768523292
20
-21.349697109712
30
0
0
SPLINE
5
240
100
AcDbEntity
8
1
62
256
6
ByLayer
370
13
48
1
60
0
100
AcDbSpline
70
4
71
3
72
8
73
4
40
0
40
0
40
0
40
0
40
1
40
1
40
1
40
1
41
1
10
53.2289221872924
20
-20.9999999999999
30
0
41
1
10
53.3172737423047
20
-20.9999999999999
30
0
41
1
10
53.405625297317
20
-20.9999999999999
30
0
41
1
10
53.4939768523292
20
-20.9999999999999
30
0
0
SPLINE
5
241
100
AcDbEntity
8
1
62
256
6
ByLayer
370
18
48
1
60
0
100
AcDbSpline
70
4
71
3
72
10
73
6
40
0
40
0
40
0
40
0
40
0.756102769204547
40
0.756102769204547
40
1
40
1
40
1
40
1
41
1
10
46.5466320131342
20
-20.1999999999999
30
0
41
1
10
46.5335358577321
20
-20.1999999999999
30
0
41
1
10
46.5207202080259
20
-20.1999999999999
30
0
41
1
10
46.5042092102192
20
-20.1999999999999
30
0
41
1
10
46.5002140960562
20
-20.1999999999999
30
0
41
1
10
46.4962544185031
20
-20.1999999999999
30
0
0
SPLINE
5
242
100
AcDbEntity
8
1
62
256
6
ByLayer
370
18
48
1
60
0
100
AcDbSpline
70
4
71
3
72
14
73
10
40
0
40
0
40
0
40
0
40
0.209394252568555
40
0.209394252568555
40
0.418674140634421
40
0.418674140634421
40
0.627952529466336
40
0.627952529466336
40
1
40
1
40
1
40
1
41
1
10
52.4731203716814
20
-21.8824451136101
30
0
41
1
10
52.5313095888795
20
-21.8824384343236
30
0
41
1
10
52.5945415508062
20
-21.8830246936049
30
0
41
1
10
52.7284652768354
20
-21.8853600098676
30
0
41
1
10
52.7996116692105
20
-21.8871164383184
30
0
41
1
10
52.9473813033078
20
-21.8917351455762
30
0
41
1
10
53.0245105149097
20
-21.8946132249204
30
0
41
1
10
53.2423341909035
20
-21.9039771838994
30
0
41
1
10
53.3889070981155
20
-21.9116608268374
30
0
41
1
10
53.5337805434602
20
-21.9205597975377
30
0
0
SPLINE
5
243
100
AcDbEntity
8
1
62
256
6
ByLayer
370
18
48
1
60
0
100
AcDbSpline
70
4
71
3
72
14
73
10
40
0
40
0
40
0
40
0
40
0.209828521639199
40
0.209828521639199
40
0.4195901540272
40
0.4195901540272
40
0.628965113592846
40
0.628965113592846
40
1
40
1
40
1
40
1
41
1
10
53.5337805434612
20
-20.0794402024615
30
0
41
1
10
53.4514732695809
20
-20.0844959945491
30
0
41
1
10
53.3688292147962
20
-20.0891526677272
30
0
41
1
10
53.2062811533078
20
-20.0974725976373
30
0
41
1
10
53.1258208334326
20
-20.1011645737358
30
0
41
1
10
52.9699639724299
20
-20.1074536640275
30
0
41
1
10
52.8940252483449
20
-20.1100742792955
30
0
41
1
10
52.6941103545506
20
-20.1157168354371
30
0
41
1
10
52.5754747567342
20
-20.1175666352041
30
0
41
1
10
52.4731203716824
20
-20.1175548863904
30
0
0
SPLINE
5
244
100
AcDbEntity
8
1
62
256
6
ByLayer
370
18
48
1
60
0
100
AcDbSpline
70
4
71
3
72
8
73
4
40
0
40
0
40
0
40
0
40
1
40
1
40
1
40
1
41
1
10
54.1810768987951
20
-20.0378096104407
30
0
41
1
10
54.0667232362903
20
-20.0460747607904
30
0
41
1
10
53.9500733165824
20
-20.0538690760074
30
0
41
1
10
53.8337805434612
20
-20.0610124553769
30
0
0
SPLINE
5
245
100
AcDbEntity
8
1
62
256
6
ByLayer
370
18
48
1
60
0
100
AcDbSpline
70
4
71
3
72
10
73
6
40
0
40
0
40
0
40
0
40
0.575849552148122
40
0.575849552148122
40
1
40
1
40
1
40
1
41
1
10
46.4962544185031
20
-21.7999999999999
30
0
41
1
10
46.5055992325651
20
-21.7999999999999
30
0
41
1
10
46.5151434423376
20
-21.7999999999999
30
0
41
1
10
46.5320239080445
20
-21.7999999999999
30
0
41
1
10
46.5392832271312
20
-21.7999999999999
30
0
41
1
10
46.5466320131342
20
-21.7999999999999
30
0
0
SPLINE
5
246
100
AcDbEntity
8
1
62
256
6
ByLayer
370
18
48
1
60
0
100
AcDbSpline
70
4
71
3
72
8
73
4
40
0
40
0
40
0
40
0
40
1
40
1
40
1
40
1
41
1
10
53.8337805434612
20
-21.9389875446228
30
0
41
1
10
53.9500733165824
20
-21.9461309239923
30
0
41
1
10
54.0667232362903
20
-21.9539252392093
30
0
41
1
10
54.1810768987951
20
-21.962190389559
30
0
0
SPLINE
5
247
100
AcDbEntity
8
1
62
256
6
ByLayer
370
18
48
1
60
0
100
AcDbSpline
70
4
71
3
72
16
73
12
40
0
40
0
40
0
40
0
40
0.211440290976243
40
0.211440290976243
40
0.422896736694443
40
0.422896736694443
40
0.633935131411306
40
0.633935131411306
40
0.842399597812144
40
0.842399597812144
40
1
40
1
40
1
40
1
41
1
10
55.0019409516835
20
-20.2532403336562
30
0
41
1
10
55.002182812152
20
-20.2246462633941
30
0
41
1
10
54.997509865013
20
-20.1956592296353
30
0
41
1
10
54.9791355265766
20
-20.1416931201706
30
0
41
1
10
54.9651770288146
20
-20.1159643957908
30
0
41
1
10
54.9300123990849
20
-20.0713834231388
30
0
41
1
10
54.9083234948748
20
-20.0518954100031
30
0
41
1
10
54.8605708510197
20
-20.022079046301
30
0
41
1
10
54.8338898983738
20
-20.0112293981555
30
0
41
1
10
54.7856899076455
20
-20.0008716424995
30
0
41
1
10
54.7640691721776
20
-19.9991529154417
30
0
41
1
10
54.7427579923014
20
-20.0003009398987
30
0
0
SPLINE
5
248
100
AcDbEntity
8
1
62
256
6
ByLayer
370
18
48
1
60
0
100
AcDbSpline
70
4
71
3
72
16
73
12
40
0
40
0
40
0
40
0
40
0.203363754276493
40
0.203363754276493
40
0.40658604208921
40
0.40658604208921
40
0.611967971554986
40
0.611967971554986
40
0.82073821984358
40
0.82073821984358
40
1
40
1
40
1
40
1
41
1
10
54.7427579923014
20
-21.9996990601011
30
0
41
1
10
54.7700970081209
20
-22.0011718015903
30
0
41
1
10
54.7980262240332
20
-21.9978780130138
30
0
41
1
10
54.8504076479783
20
-21.9824110753644
30
0
41
1
10
54.8755789022368
20
-21.9700383132839
30
0
41
1
10
54.9201132665787
20
-21.937977331881
30
0
41
1
10
54.9400202557988
20
-21.9177822526852
30
0
41
1
10
54.9720355922843
20
-21.87219500836
30
0
41
1
10
54.9844520380369
20
-21.8461004327785
30
0
41
1
10
54.9988187436013
20
-21.7956736887767
30
0
41
1
10
55.0021467885115
20
-21.7710948243777
30
0
41
1
10
55.0019409516835
20
-21.7467596663435
30
0
0
LINE
5
70
100
AcDbEntity
8
1
62
256
6
ByLayer
370
13
48
1
60
0
100
AcDbLine
10
0.3
20
16
30
0
11
0
21
15.7
31
0
39
0
210
0
220
0
230
1
0
LINE
5
72
100
AcDbEntity
8
1
62
256
6
ByLayer
370
13
48
1
60
0
100
AcDbLine
10
0
20
-15.7
30
0
11
0.3
21
-16
31
0
39
0
210
0
220
0
230
1
0
LINE
5
73
100
AcDbEntity
8
1
62
256
6
ByLayer
370
13
48
1
60
0
100
AcDbLine
10
16.438319
20
-16.889417
30
0
11
17.740708
21
-21.75
31
0
39
0
210
0
220
0
230
1
0
LINE
5
74
100
AcDbEntity
8
1
62
256
6
ByLayer
370
13
48
1
60
0
100
AcDbLine
10
0.3
20
-16
30
0
11
15.279208
21
-16
31
0
39
0
210
0
220
0
230
1
0
LINE
5
75
100
AcDbEntity
8
1
62
256
6
ByLayer
370
13
48
1
60
0
100
AcDbLine
10
15.033108
20
16
30
0
11
0.3
21
16
31
0
39
0
210
0
220
0
230
1
0
LINE
5
76
100
AcDbEntity
8
80
62
256
6
ByLayer
370
18
48
1
60
0
100
AcDbLine
10
0
20
0
30
0
11
-5
21
0
31
0
39
0
210
0
220
0
230
1
0
LINE
5
77
100
AcDbEntity
8
81
62
256
6
ByLayer
370
18
48
1
60
0
100
AcDbLine
10
55
20
-22
30
0
11
60
21
-22
31
0
39
0
210
0
220
0
230
1
0
LINE
5
78
100
AcDbEntity
8
SK1
62
256
6
ByLayer
370
13
48
1
60
0
100
AcDbLine
10
-1.315435
20
-3.312046
30
0
11
-1.315435
21
3.312047
31
0
39
0
210
0
220
0
230
1
0
LINE
5
7A
100
AcDbEntity
8
SK1
62
256
6
ByLayer
370
13
48
1
60
0
100
AcDbLine
10
-1.29504
20
-10.830291
30
0
11
-1.29504
21
-10.827955
31
0
39
0
210
0
220
0
230
1
0
LINE
5
7B
100
AcDbEntity
8
SK1
62
256
6
ByLayer
370
13
48
1
60
0
100
AcDbLine
10
-1.29504
20
10.827955
30
0
11
-1.29504
21
10.830291
31
0
39
0
210
0
220
0
230
1
0
LINE
5
7C
100
AcDbEntity
8
1
62
256
6
ByLayer
370
13
48
1
60
0
100
AcDbLine
10
19.046351
20
10.5
30
0
11
29.548567
21
10.5
31
0
39
0
210
0
220
0
230
1
0
LINE
5
7D
100
AcDbEntity
8
1
62
256
6
ByLayer
370
13
48
1
60
0
100
AcDbLine
10
46.290738
20
-21.75
30
0
11
50.415611
21
-21.75
31
0
39
0
210
0
220
0
230
1
0
LINE
5
7E
100
AcDbEntity
8
1
62
256
6
ByLayer
370
13
48
1
60
0
100
AcDbLine
10
41.290738
20
-20.25
30
0
11
46.290738
21
-20.25
31
0
39
0
210
0
220
0
230
1
0
LINE
5
7F
100
AcDbEntity
8
1
62
256
6
ByLayer
370
13
48
1
60
0
100
AcDbLine
10
33.6
20
-21.75
30
0
11
25.758061
21
-21.75
31
0
39
0
210
0
220
0
230
1
0
LINE
5
80
100
AcDbEntity
8
1
62
256
6
ByLayer
370
13
48
1
60
0
100
AcDbLine
10
0
20
15.7
30
0
11
0
21
-15.7
31
0
39
0
210
0
220
0
230
1
0
LINE
5
81
100
AcDbEntity
8
1
62
256
6
ByLayer
370
13
48
1
60
0
100
AcDbLine
10
25.758061
20
-20.25
30
0
11
25.758061
21
-21.75
31
0
39
0
210
0
220
0
230
1
0
LINE
5
82
100
AcDbEntity
8
1
62
256
6
ByLayer
370
13
48
1
60
0
100
AcDbLine
10
28.861222
20
-18.65
30
0
11
31.1
21
-18.65
31
0
39
0
210
0
220
0
230
1
0
LINE
5
83
100
AcDbEntity
8
1
62
256
6
ByLayer
370
13
48
1
60
0
100
AcDbLine
10
7.076795
20
4.755463
30
0
11
4.923205
21
4.755463
31
0
39
0
210
0
220
0
230
1
0
LINE
5
84
100
AcDbEntity
8
1
62
256
6
ByLayer
370
13
48
1
60
0
100
AcDbLine
10
15.046503
20
11.921568
30
0
11
15.046503
21
-11.921568
31
0
39
0
210
0
220
0
230
1
0
LINE
5
85
100
AcDbEntity
8
1
62
256
6
ByLayer
370
13
48
1
60
0
100
AcDbLine
10
31.1
20
1.701385
30
0
11
29.548567
21
10.5
31
0
39
0
210
0
220
0
230
1
0
LINE
5
86
100
AcDbEntity
8
1
62
256
6
ByLayer
370
13
48
1
60
0
100
AcDbLine
10
19.046351
20
-21.75
30
0
11
19.046351
21
10.5
31
0
39
0
210
0
220
0
230
1
0
LINE
5
87
100
AcDbEntity
8
1
62
256
6
ByLayer
370
13
48
1
60
0
100
AcDbLine
10
50.415611
20
-20.669571
30
0
11
50.415611
21
-20.25
31
0
39
0
210
0
220
0
230
1
0
LINE
5
88
100
AcDbEntity
8
1
62
256
6
ByLayer
370
13
48
1
60
0
100
AcDbLine
10
7.076795
20
-15.276962
30
0
11
4.923205
21
-15.276962
31
0
39
0
210
0
220
0
230
1
0
LINE
5
89
100
AcDbEntity
8
1
62
256
6
ByLayer
370
13
48
1
60
0
100
AcDbLine
10
31.360196
20
-0.007019
30
0
11
31.360722
21
-0.006926
31
0
39
0
210
0
220
0
230
1
0
LINE
5
8A
100
AcDbEntity
8
1
62
256
6
ByLayer
370
13
48
1
60
0
100
AcDbLine
10
46.290738
20
-21.75
30
0
11
46.290738
21
-20.25
31
0
39
0
210
0
220
0
230
1
0
LINE
5
8B
100
AcDbEntity
8
1
62
256
6
ByLayer
370
13
48
1
60
0
100
AcDbLine
10
41.290738
20
-20.25
30
0
11
41.290738
21
-21.75
31
0
39
0
210
0
220
0
230
1
0
LINE
5
8C
100
AcDbEntity
8
1
62
256
6
ByLayer
370
13
48
1
60
0
100
AcDbLine
10
46.290738
20
-20.25
30
0
11
50.415611
21
-20.25
31
0
39
0
210
0
220
0
230
1
0
LINE
5
8D
100
AcDbEntity
8
1
62
256
6
ByLayer
370
13
48
1
60
0
100
AcDbLine
10
31.1
20
-18.65
30
0
11
31.1
21
1.701385
31
0
39
0
210
0
220
0
230
1
0
LINE
5
8E
100
AcDbEntity
8
1
62
256
6
ByLayer
370
13
48
1
60
0
100
AcDbLine
10
0.3
20
16
30
0
11
0.3
21
-16
31
0
39
0
210
0
220
0
230
1
0
LINE
5
8F
100
AcDbEntity
8
1
62
256
6
ByLayer
370
13
48
1
60
0
100
AcDbLine
10
15.279208
20
-16
30
0
11
15.279208
21
-12.975572
31
0
39
0
210
0
220
0
230
1
0
LINE
5
90
100
AcDbEntity
8
1
62
256
6
ByLayer
370
13
48
1
60
0
100
AcDbLine
10
7.336603
20
-15.175938
30
0
11
7.336603
21
-5.068619
31
0
39
0
210
0
220
0
230
1
0
LINE
5
91
100
AcDbEntity
8
1
62
256
6
ByLayer
370
13
48
1
60
0
100
AcDbLine
10
18.848943
20
-21.75
30
0
11
19.046351
21
-21.75
31
0
39
0
210
0
220
0
230
1
0
LINE
5
92
100
AcDbEntity
8
1
62
256
6
ByLayer
370
13
48
1
60
0
100
AcDbLine
10
33.6
20
-20.25
30
0
11
32.7
21
-20.25
31
0
39
0
210
0
220
0
230
1
0
LINE
5
93
100
AcDbEntity
8
1
62
256
6
ByLayer
370
13
48
1
60
0
100
AcDbLine
10
4.923205
20
4.755463
30
0
11
4.923205
21
15.276962
31
0
39
0
210
0
220
0
230
1
0
LINE
5
94
100
AcDbEntity
8
1
62
256
6
ByLayer
370
13
48
1
60
0
100
AcDbLine
10
4.923205
20
-4.755463
30
0
11
7.076795
21
-4.755463
31
0
39
0
210
0
220
0
230
1
0
LINE
5
95
100
AcDbEntity
8
1
62
256
6
ByLayer
370
13
48
1
60
0
100
AcDbLine
10
4.663397
20
5.068619
30
0
11
4.663397
21
15.175938
31
0
39
0
210
0
220
0
230
1
0
LINE
5
96
100
AcDbEntity
8
1
62
256
6
ByLayer
370
13
48
1
60
0
100
AcDbLine
10
41.290738
20
-21.75
30
0
11
33.6
21
-21.75
31
0
39
0
210
0
220
0
230
1
0
LINE
5
97
100
AcDbEntity
8
1
62
256
6
ByLayer
370
13
48
1
60
0
100
AcDbLine
10
18.011826
20
-21.75
30
0
11
18.848943
21
-21.75
31
0
39
0
210
0
220
0
230
1
0
LINE
5
98
100
AcDbEntity
8
1
62
256
6
ByLayer
370
13
48
1
60
0
100
AcDbLine
10
4.923205
20
15.276962
30
0
11
7.076795
21
15.276962
31
0
39
0
210
0
220
0
230
1
0
LINE
5
99
100
AcDbEntity
8
1
62
256
6
ByLayer
370
13
48
1
60
0
100
AcDbLine
10
50.415611
20
-21.75
30
0
11
50.415611
21
-21.330429
31
0
39
0
210
0
220
0
230
1
0
LINE
5
9A
100
AcDbEntity
8
1
62
256
6
ByLayer
370
13
48
1
60
0
100
AcDbLine
10
7.076795
20
4.755463
30
0
11
7.076795
21
15.276962
31
0
39
0
210
0
220
0
230
1
0
LINE
5
9B
100
AcDbEntity
8
1
62
256
6
ByLayer
370
13
48
1
60
0
100
AcDbLine
10
4.663397
20
-15.175938
30
0
11
4.663397
21
-5.068619
31
0
39
0
210
0
220
0
230
1
0
LINE
5
9C
100
AcDbEntity
8
1
62
256
6
ByLayer
370
13
48
1
60
0
100
AcDbLine
10
41.290738
20
-21.75
30
0
11
46.290738
21
-21.75
31
0
39
0
210
0
220
0
230
1
0
LINE
5
9D
100
AcDbEntity
8
1
62
256
6
ByLayer
370
13
48
1
60
0
100
AcDbLine
10
7.076795
20
-15.276962
30
0
11
7.076795
21
-4.755463
31
0
39
0
210
0
220
0
230
1
0
LINE
5
9E
100
AcDbEntity
8
1
62
256
6
ByLayer
370
13
48
1
60
0
100
AcDbLine
10
33.6
20
-20.25
30
0
11
41.290738
21
-20.25
31
0
39
0
210
0
220
0
230
1
0
LINE
5
9F
100
AcDbEntity
8
1
62
256
6
ByLayer
370
13
48
1
60
0
100
AcDbLine
10
33.6
20
-21.75
30
0
11
33.6
21
-20.25
31
0
39
0
210
0
220
0
230
1
0
LINE
5
A0
100
AcDbEntity
8
1
62
256
6
ByLayer
370
13
48
1
60
0
100
AcDbLine
10
31.360196
20
-18.65
30
0
11
31.1
21
-18.65
31
0
39
0
210
0
220
0
230
1
0
LINE
5
A1
100
AcDbEntity
8
1
62
256
6
ByLayer
370
13
48
1
60
0
100
AcDbLine
10
4.923205
20
-15.276962
30
0
11
4.923205
21
-4.755463
31
0
39
0
210
0
220
0
230
1
0
LINE
5
A2
100
AcDbEntity
8
1
62
256
6
ByLayer
370
13
48
1
60
0
100
AcDbLine
10
16.438319
20
-15.045674
30
0
11
16.438319
21
-16.889417
31
0
39
0
210
0
220
0
230
1
0
LINE
5
A3
100
AcDbEntity
8
1
62
256
6
ByLayer
370
13
48
1
60
0
100
AcDbLine
10
15.046503
20
14.465094
30
0
11
15.033108
21
16
31
0
39
0
210
0
220
0
230
1
0
LINE
5
A4
100
AcDbEntity
8
1
62
256
6
ByLayer
370
13
48
1
60
0
100
AcDbLine
10
25.758061
20
-20.25
30
0
11
32.7
21
-20.25
31
0
39
0
210
0
220
0
230
1
0
LINE
5
A5
100
AcDbEntity
8
1
62
256
6
ByLayer
370
13
48
1
60
0
100
AcDbLine
10
7.336603
20
5.068619
30
0
11
7.336603
21
15.175938
31
0
39
0
210
0
220
0
230
1
0
LINE
5
A6
100
AcDbEntity
8
1
62
256
6
ByLayer
370
13
48
1
60
0
100
AcDbLine
10
25.758061
20
-21.75
30
0
11
19.046351
21
-21.75
31
0
39
0
210
0
220
0
230
1
0
LINE
5
A7
100
AcDbEntity
8
1
62
256
6
ByLayer
370
13
48
1
60
0
100
AcDbLine
10
31.360196
20
-0.007019
30
0
11
31.360196
21
-18.65
31
0
39
0
210
0
220
0
230
1
0
LINE
5
A8
100
AcDbEntity
8
1
62
256
6
ByLayer
370
13
48
1
60
0
100
AcDbLine
10
51.709679
20
-21.8
30
0
11
51.709679
21
-21.676062
31
0
39
0
210
0
220
0
230
1
0
LINE
5
A9
100
AcDbEntity
8
1
62
256
6
ByLayer
370
13
48
1
60
0
100
AcDbLine
10
52.068752
20
-21.695388
30
0
11
52.152761
21
-21.699524
31
0
39
0
210
0
220
0
230
1
0
LINE
5
AA
100
AcDbEntity
8
1
62
256
6
ByLayer
370
13
48
1
60
0
100
AcDbLine
10
52.165017
20
-21.874801
30
0
11
52.152761
21
-21.699524
31
0
39
0
210
0
220
0
230
1
0
LINE
5
AB
100
AcDbEntity
8
1
62
256
6
ByLayer
370
13
48
1
60
0
100
AcDbLine
10
52.165017
20
-20.125199
30
0
11
52.152761
21
-20.300476
31
0
39
0
210
0
220
0
230
1
0
LINE
5
AC
100
AcDbEntity
8
1
62
256
6
ByLayer
370
13
48
1
60
0
100
AcDbLine
10
52.152761
20
-20.300476
30
0
11
52.068752
21
-20.304612
31
0
39
0
210
0
220
0
230
1
0
LINE
5
AD
100
AcDbEntity
8
1
62
256
6
ByLayer
370
13
48
1
60
0
100
AcDbLine
10
51.709679
20
-20.323938
30
0
11
51.709679
21
-20.2
31
0
39
0
210
0
220
0
230
1
0
LINE
5
AE
100
AcDbEntity
8
1
62
256
6
ByLayer
370
13
48
1
60
0
100
AcDbLine
10
52.082448
20
-20.582767
30
0
11
52.068752
21
-20.304612
31
0
39
0
210
0
220
0
230
1
0
LINE
5
AF
100
AcDbEntity
8
1
62
256
6
ByLayer
370
13
48
1
60
0
100
AcDbLine
10
52.068752
20
-21.695388
30
0
11
52.082448
21
-21.417233
31
0
39
0
210
0
220
0
230
1
0
LINE
5
B0
100
AcDbEntity
8
1
62
256
6
ByLayer
370
13
48
1
60
0
100
AcDbLine
10
52.177886
20
-20.582767
30
0
11
52.082448
21
-20.582767
31
0
39
0
210
0
220
0
230
1
0
LINE
5
B1
100
AcDbEntity
8
1
62
256
6
ByLayer
370
13
48
1
60
0
100
AcDbLine
10
52.177886
20
-21.417233
30
0
11
52.082448
21
-21.417233
31
0
39
0
210
0
220
0
230
1
0
LINE
5
B2
100
AcDbEntity
8
1
62
256
6
ByLayer
370
13
48
1
60
0
100
AcDbLine
10
52.47312
20
-21.63848
30
0
11
52.47312
21
-21.882445
31
0
39
0
210
0
220
0
230
1
0
LINE
5
B3
100
AcDbEntity
8
1
62
256
6
ByLayer
370
13
48
1
60
0
100
AcDbLine
10
53.533781
20
-21.864039
30
0
11
53.533781
21
-21.92056
31
0
39
0
210
0
220
0
230
1
0
LINE
5
B4
100
AcDbEntity
8
1
62
256
6
ByLayer
370
13
48
1
60
0
100
AcDbLine
10
53.533781
20
-20.135961
30
0
11
53.533781
21
-20.07944
31
0
39
0
210
0
220
0
230
1
0
LINE
5
B5
100
AcDbEntity
8
1
62
256
6
ByLayer
370
13
48
1
60
0
100
AcDbLine
10
52.47312
20
-20.36152
30
0
11
52.47312
21
-20.117555
31
0
39
0
210
0
220
0
230
1
0
LINE
5
B6
100
AcDbEntity
8
1
62
256
6
ByLayer
370
13
48
1
60
0
100
AcDbLine
10
52.364634
20
-21.684709
30
0
11
52.378462
21
-21.882456
31
0
39
0
210
0
220
0
230
1
0
LINE
5
B7
100
AcDbEntity
8
1
62
256
6
ByLayer
370
13
48
1
60
0
100
AcDbLine
10
52.152761
20
-21.699524
30
0
11
52.364634
21
-21.684709
31
0
39
0
210
0
220
0
230
1
0
LINE
5
B8
100
AcDbEntity
8
1
62
256
6
ByLayer
370
13
48
1
60
0
100
AcDbLine
10
52.364634
20
-20.315291
30
0
11
52.378462
21
-20.117544
31
0
39
0
210
0
220
0
230
1
0
LINE
5
B9
100
AcDbEntity
8
1
62
256
6
ByLayer
370
13
48
1
60
0
100
AcDbLine
10
52.364634
20
-20.315291
30
0
11
52.152761
21
-20.300476
31
0
39
0
210
0
220
0
230
1
0
LINE
5
BA
100
AcDbEntity
8
1
62
256
6
ByLayer
370
13
48
1
60
0
100
AcDbLine
10
52.152761
20
-21.699524
30
0
11
52.166456
21
-21.421369
31
0
39
0
210
0
220
0
230
1
0
LINE
5
BB
100
AcDbEntity
8
1
62
256
6
ByLayer
370
13
48
1
60
0
100
AcDbLine
10
52.166456
20
-20.578631
30
0
11
52.152761
21
-20.300476
31
0
39
0
210
0
220
0
230
1
0
LINE
5
BC
100
AcDbEntity
8
1
62
256
6
ByLayer
370
13
48
1
60
0
100
AcDbLine
10
51.709679
20
-20.323938
30
0
11
51.658376
21
-20.323938
31
0
39
0
210
0
220
0
230
1
0
LINE
5
BD
100
AcDbEntity
8
1
62
256
6
ByLayer
370
13
48
1
60
0
100
AcDbLine
10
51.709679
20
-21.676062
30
0
11
51.658376
21
-21.676062
31
0
39
0
210
0
220
0
230
1
0
LINE
5
BE
100
AcDbEntity
8
1
62
256
6
ByLayer
370
13
48
1
60
0
100
AcDbLine
10
52.166456
20
-21.421369
30
0
11
52.082448
21
-21.417233
31
0
39
0
210
0
220
0
230
1
0
LINE
5
BF
100
AcDbEntity
8
1
62
256
6
ByLayer
370
13
48
1
60
0
100
AcDbLine
10
52.082448
20
-20.582767
30
0
11
52.166456
21
-20.578631
31
0
39
0
210
0
220
0
230
1
0
LINE
5
C0
100
AcDbEntity
8
1
62
256
6
ByLayer
370
13
48
1
60
0
100
AcDbLine
10
51.658376
20
-21.676062
30
0
11
51.658376
21
-21.8
31
0
39
0
210
0
220
0
230
1
0
LINE
5
C1
100
AcDbEntity
8
1
62
256
6
ByLayer
370
13
48
1
60
0
100
AcDbLine
10
51.658376
20
-20.2
30
0
11
51.658376
21
-20.323938
31
0
39
0
210
0
220
0
230
1
0
LINE
5
C2
100
AcDbEntity
8
1
62
256
6
ByLayer
370
13
48
1
60
0
100
AcDbLine
10
50.787198
20
-21.8
30
0
11
50.787198
21
-21.725438
31
0
39
0
210
0
220
0
230
1
0
LINE
5
C3
100
AcDbEntity
8
1
62
256
6
ByLayer
370
13
48
1
60
0
100
AcDbLine
10
50.787198
20
-20.274562
30
0
11
50.787198
21
-20.2
31
0
39
0
210
0
220
0
230
1
0
LINE
5
C4
100
AcDbEntity
8
1
62
256
6
ByLayer
370
13
48
1
60
0
100
AcDbLine
10
52.364634
20
-21.684709
30
0
11
52.376063
21
-21.680572
31
0
39
0
210
0
220
0
230
1
0
LINE
5
C5
100
AcDbEntity
8
1
62
256
6
ByLayer
370
13
48
1
60
0
100
AcDbLine
10
52.376063
20
-20.319428
30
0
11
52.364634
21
-20.315291
31
0
39
0
210
0
220
0
230
1
0
LINE
5
C6
100
AcDbEntity
8
1
62
256
6
ByLayer
370
13
48
1
60
0
100
AcDbLine
10
52.177886
20
-21.417233
30
0
11
52.166456
21
-21.421369
31
0
39
0
210
0
220
0
230
1
0
LINE
5
C7
100
AcDbEntity
8
1
62
256
6
ByLayer
370
13
48
1
60
0
100
AcDbLine
10
52.166456
20
-20.578631
30
0
11
52.177886
21
-20.582767
31
0
39
0
210
0
220
0
230
1
0
LINE
5
C8
100
AcDbEntity
8
1
62
256
6
ByLayer
370
13
48
1
60
0
100
AcDbLine
10
53.228922
20
-21.293452
30
0
11
53.228922
21
-21
31
0
39
0
210
0
220
0
230
1
0
LINE
5
C9
100
AcDbEntity
8
1
62
256
6
ByLayer
370
13
48
1
60
0
100
AcDbLine
10
50.787198
20
-21.725438
30
0
11
50.711215
21
-21.725438
31
0
39
0
210
0
220
0
230
1
0
LINE
5
CA
100
AcDbEntity
8
1
62
256
6
ByLayer
370
13
48
1
60
0
100
AcDbLine
10
53.228922
20
-20.706548
30
0
11
53.228922
21
-21
31
0
39
0
210
0
220
0
230
1
0
LINE
5
CB
100
AcDbEntity
8
1
62
256
6
ByLayer
370
13
48
1
60
0
100
AcDbLine
10
50.711215
20
-21.725438
30
0
11
50.711215
21
-21.8
31
0
39
0
210
0
220
0
230
1
0
LINE
5
CC
100
AcDbEntity
8
1
62
256
6
ByLayer
370
13
48
1
60
0
100
AcDbLine
10
50.787198
20
-20.274562
30
0
11
50.711215
21
-20.274562
31
0
39
0
210
0
220
0
230
1
0
LINE
5
CD
100
AcDbEntity
8
1
62
256
6
ByLayer
370
13
48
1
60
0
100
AcDbLine
10
50.711215
20
-20.2
30
0
11
50.711215
21
-20.274562
31
0
39
0
210
0
220
0
230
1
0
LINE
5
CE
100
AcDbEntity
8
1
62
256
6
ByLayer
370
13
48
1
60
0
100
AcDbLine
10
50.718332
20
-21.675984
30
0
11
50.432668
21
-21.675984
31
0
39
0
210
0
220
0
230
1
0
LINE
5
CF
100
AcDbEntity
8
1
62
256
6
ByLayer
370
13
48
1
60
0
100
AcDbLine
10
50.432668
20
-21.675984
30
0
11
50.469454
21
-21.367998
31
0
39
0
210
0
220
0
230
1
0
LINE
5
D0
100
AcDbEntity
8
1
62
256
6
ByLayer
370
13
48
1
60
0
100
AcDbLine
10
50.469454
20
-21.367998
30
0
11
50.850614
21
-21.367998
31
0
39
0
210
0
220
0
230
1
0
LINE
5
D1
100
AcDbEntity
8
1
62
256
6
ByLayer
370
13
48
1
60
0
100
AcDbLine
10
50.469454
20
-20.632002
30
0
11
50.850614
21
-20.632002
31
0
39
0
210
0
220
0
230
1
0
LINE
5
D2
100
AcDbEntity
8
1
62
256
6
ByLayer
370
13
48
1
60
0
100
AcDbLine
10
50.432668
20
-20.324016
30
0
11
50.469454
21
-20.632002
31
0
39
0
210
0
220
0
230
1
0
LINE
5
D3
100
AcDbEntity
8
1
62
256
6
ByLayer
370
13
48
1
60
0
100
AcDbLine
10
50.718332
20
-20.324016
30
0
11
50.432668
21
-20.324016
31
0
39
0
210
0
220
0
230
1
0
LINE
5
D4
100
AcDbEntity
8
1
62
256
6
ByLayer
370
13
48
1
60
0
100
AcDbLine
10
50.506367
20
-20.748976
30
0
11
50.948791
21
-20.748976
31
0
39
0
210
0
220
0
230
1
0
LINE
5
D5
100
AcDbEntity
8
1
62
256
6
ByLayer
370
13
48
1
60
0
100
AcDbLine
10
50.506367
20
-21.251024
30
0
11
50.948791
21
-21.251024
31
0
39
0
210
0
220
0
230
1
0
LINE
5
D6
100
AcDbEntity
8
1
62
256
6
ByLayer
370
13
48
1
60
0
100
AcDbLine
10
50.549075
20
-20.799244
30
0
11
51.073158
21
-20.799244
31
0
39
0
210
0
220
0
230
1
0
LINE
5
D7
100
AcDbEntity
8
1
62
256
6
ByLayer
370
13
48
1
60
0
100
AcDbLine
10
50.549075
20
-21.200756
30
0
11
51.073158
21
-21.200756
31
0
39
0
210
0
220
0
230
1
0
LINE
5
D8
100
AcDbEntity
8
1
62
256
6
ByLayer
370
13
48
1
60
0
100
AcDbLine
10
50.4298
20
-21.725438
30
0
11
50.711215
21
-21.725438
31
0
39
0
210
0
220
0
230
1
0
LINE
5
D9
100
AcDbEntity
8
1
62
256
6
ByLayer
370
13
48
1
60
0
100
AcDbLine
10
50.4298
20
-20.274562
30
0
11
50.711215
21
-20.274562
31
0
39
0
210
0
220
0
230
1
0
LINE
5
DA
100
AcDbEntity
8
1
62
256
6
ByLayer
370
13
48
1
60
0
100
AcDbLine
10
50.4298
20
-21.8
30
0
11
50.4298
21
-21.725438
31
0
39
0
210
0
220
0
230
1
0
LINE
5
DB
100
AcDbEntity
8
1
62
256
6
ByLayer
370
13
48
1
60
0
100
AcDbLine
10
50.4298
20
-20.2
30
0
11
50.4298
21
-20.274562
31
0
39
0
210
0
220
0
230
1
0
LINE
5
DC
100
AcDbEntity
8
1
62
256
6
ByLayer
370
13
48
1
60
0
100
AcDbLine
10
55.000117
20
-20.468879
30
0
11
54.925664
21
-20.468879
31
0
39
0
210
0
220
0
230
1
0
LINE
5
DD
100
AcDbEntity
8
1
62
256
6
ByLayer
370
13
48
1
60
0
100
AcDbLine
10
54.610516
20
-20.206546
30
0
11
54.610516
21
-20.007425
31
0
39
0
210
0
220
0
230
1
0
LINE
5
DE
100
AcDbEntity
8
1
62
256
6
ByLayer
370
13
48
1
60
0
100
AcDbLine
10
54.610516
20
-21.793454
30
0
11
54.610516
21
-21.992575
31
0
39
0
210
0
220
0
230
1
0
LINE
5
DF
100
AcDbEntity
8
1
62
256
6
ByLayer
370
13
48
1
60
0
100
AcDbLine
10
55.000117
20
-21.531121
30
0
11
54.925664
21
-21.531121
31
0
39
0
210
0
220
0
230
1
0
LINE
5
E0
100
AcDbEntity
8
1
62
256
6
ByLayer
370
13
48
1
60
0
100
AcDbLine
10
50.552289
20
-20.802665
30
0
11
51.081712
21
-20.802665
31
0
39
0
210
0
220
0
230
1
0
LINE
5
E1
100
AcDbEntity
8
1
62
256
6
ByLayer
370
13
48
1
60
0
100
AcDbLine
10
54.53976
20
-20.011885
30
0
11
54.53976
21
-20.156147
31
0
39
0
210
0
220
0
230
1
0
LINE
5
E2
100
AcDbEntity
8
1
62
256
6
ByLayer
370
13
48
1
60
0
100
AcDbLine
10
50.552289
20
-21.197335
30
0
11
51.081712
21
-21.197335
31
0
39
0
210
0
220
0
230
1
0
LINE
5
E3
100
AcDbEntity
8
1
62
256
6
ByLayer
370
13
48
1
60
0
100
AcDbLine
10
54.181077
20
-20.125184
30
0
11
54.181077
21
-20.03781
31
0
39
0
210
0
220
0
230
1
0
LINE
5
E4
100
AcDbEntity
8
1
62
256
6
ByLayer
370
13
48
1
60
0
100
AcDbLine
10
54.181077
20
-21.874816
30
0
11
54.181077
21
-21.96219
31
0
39
0
210
0
220
0
230
1
0
LINE
5
E5
100
AcDbEntity
8
1
62
256
6
ByLayer
370
13
48
1
60
0
100
AcDbLine
10
54.53976
20
-21.988115
30
0
11
54.53976
21
-21.843853
31
0
39
0
210
0
220
0
230
1
0
LINE
5
E6
100
AcDbEntity
8
1
62
256
6
ByLayer
370
13
48
1
60
0
100
AcDbLine
10
50.549075
20
-21.200756
30
0
11
50.552289
21
-21.197335
31
0
39
0
210
0
220
0
230
1
0
LINE
5
E7
100
AcDbEntity
8
1
62
256
6
ByLayer
370
13
48
1
60
0
100
AcDbLine
10
50.549075
20
-20.799244
30
0
11
50.552289
21
-20.802665
31
0
39
0
210
0
220
0
230
1
0
LINE
5
E8
100
AcDbEntity
8
1
62
256
6
ByLayer
370
13
48
1
60
0
100
AcDbLine
10
54.005243
20
-21.650666
30
0
11
53.993977
21
-21.353333
31
0
39
0
210
0
220
0
230
1
0
LINE
5
E9
100
AcDbEntity
8
1
62
256
6
ByLayer
370
13
48
1
60
0
100
AcDbLine
10
53.833781
20
-20.133238
30
0
11
53.833781
21
-20.061012
31
0
39
0
210
0
220
0
230
1
0
LINE
5
EA
100
AcDbEntity
8
1
62
256
6
ByLayer
370
13
48
1
60
0
100
AcDbLine
10
53.833781
20
-21.866762
30
0
11
53.833781
21
-21.938988
31
0
39
0
210
0
220
0
230
1
0
LINE
5
EB
100
AcDbEntity
8
1
62
256
6
ByLayer
370
13
48
1
60
0
100
AcDbLine
10
54.005243
20
-20.349334
30
0
11
53.993977
21
-20.646667
31
0
39
0
210
0
220
0
230
1
0
LINE
5
EC
100
AcDbEntity
8
1
62
256
6
ByLayer
370
13
48
1
60
0
100
AcDbLine
10
54.944165
20
-20.65526
30
0
11
54.997026
21
-20.65526
31
0
39
0
210
0
220
0
230
1
0
LINE
5
ED
100
AcDbEntity
8
1
62
256
6
ByLayer
370
13
48
1
60
0
100
AcDbLine
10
54.944165
20
-21.34474
30
0
11
54.997026
21
-21.34474
31
0
39
0
210
0
220
0
230
1
0
LINE
5
EE
100
AcDbEntity
8
1
62
256
6
ByLayer
370
13
48
1
60
0
100
AcDbLine
10
53.493977
20
-20.650303
30
0
11
53.43288
21
-20.344785
31
0
39
0
210
0
220
0
230
1
0
LINE
5
EF
100
AcDbEntity
8
1
62
256
6
ByLayer
370
13
48
1
60
0
100
AcDbLine
10
53.493977
20
-21.349697
30
0
11
53.43288
21
-21.655215
31
0
39
0
210
0
220
0
230
1
0
LINE
5
F0
100
AcDbEntity
8
1
62
256
6
ByLayer
370
13
48
1
60
0
100
AcDbLine
10
54.948038
20
-21.503425
30
0
11
55
21
-21.503425
31
0
39
0
210
0
220
0
230
1
0
LINE
5
F1
100
AcDbEntity
8
1
62
256
6
ByLayer
370
13
48
1
60
0
100
AcDbLine
10
54.997026
20
-21.34474
30
0
11
54.997026
21
-20.65526
31
0
39
0
210
0
220
0
230
1
0
LINE
5
F2
100
AcDbEntity
8
1
62
256
6
ByLayer
370
13
48
1
60
0
100
AcDbLine
10
54.948038
20
-20.496575
30
0
11
55
21
-20.496575
31
0
39
0
210
0
220
0
230
1
0
LINE
5
F3
100
AcDbEntity
8
1
62
256
6
ByLayer
370
13
48
1
60
0
100
AcDbLine
10
54.944165
20
-20.65526
30
0
11
54.944165
21
-21.34474
31
0
39
0
210
0
220
0
230
1
0
LINE
5
F4
100
AcDbEntity
8
1
62
256
6
ByLayer
370
13
48
1
60
0
100
AcDbLine
10
54.604082
20
-20.647871
30
0
11
54.604082
21
-21.352129
31
0
39
0
210
0
220
0
230
1
0
LINE
5
F5
100
AcDbEntity
8
1
62
256
6
ByLayer
370
13
48
1
60
0
100
AcDbLine
10
53.993977
20
-20.646667
30
0
11
53.993977
21
-21.353333
31
0
39
0
210
0
220
0
230
1
0
LINE
5
F6
100
AcDbEntity
8
1
62
256
6
ByLayer
370
13
48
1
60
0
100
AcDbLine
10
50.415562
20
-20.274562
30
0
11
50.4298
21
-20.274562
31
0
39
0
210
0
220
0
230
1
0
LINE
5
F7
100
AcDbEntity
8
1
62
256
6
ByLayer
370
13
48
1
60
0
100
AcDbLine
10
50.432668
20
-21.675984
30
0
11
50.41556
21
-21.675984
31
0
39
0
210
0
220
0
230
1
0
LINE
5
F8
100
AcDbEntity
8
1
62
256
6
ByLayer
370
13
48
1
60
0
100
AcDbLine
10
50.432668
20
-20.324016
30
0
11
50.41556
21
-20.324016
31
0
39
0
210
0
220
0
230
1
0
LINE
5
F9
100
AcDbEntity
8
1
62
256
6
ByLayer
370
13
48
1
60
0
100
AcDbLine
10
46.732227
20
-21.75
30
0
11
46.732227
21
-21.8
31
0
39
0
210
0
220
0
230
1
0
LINE
5
FA
100
AcDbEntity
8
1
62
256
6
ByLayer
370
13
48
1
60
0
100
AcDbLine
10
50.415562
20
-21.725438
30
0
11
50.4298
21
-21.725438
31
0
39
0
210
0
220
0
230
1
0
LINE
5
FB
100
AcDbEntity
8
1
62
256
6
ByLayer
370
13
48
1
60
0
100
AcDbLine
10
46.732227
20
-20.25
30
0
11
46.732227
21
-20.2
31
0
39
0
210
0
220
0
230
1
0
LINE
5
FC
100
AcDbEntity
8
1
62
256
6
ByLayer
370
13
48
1
60
0
100
AcDbLine
10
50.415577
20
-21.367998
30
0
11
50.469454
21
-21.367998
31
0
39
0
210
0
220
0
230
1
0
LINE
5
FD
100
AcDbEntity
8
1
62
256
6
ByLayer
370
13
48
1
60
0
100
AcDbLine
10
50.415577
20
-20.632002
30
0
11
50.469454
21
-20.632002
31
0
39
0
210
0
220
0
230
1
0
LINE
5
FE
100
AcDbEntity
8
1
62
256
6
ByLayer
370
13
48
1
60
0
100
AcDbLine
10
53.493977
20
-21.349697
30
0
11
53.493977
21
-21
31
0
39
0
210
0
220
0
230
1
0
LINE
5
FF
100
AcDbEntity
8
1
62
256
6
ByLayer
370
13
48
1
60
0
100
AcDbLine
10
53.493977
20
-20.650303
30
0
11
53.493977
21
-21
31
0
39
0
210
0
220
0
230
1
0
LINE
5
100
100
AcDbEntity
8
1
62
256
6
ByLayer
370
13
48
1
60
0
100
AcDbLine
10
50.408099
20
-20.748976
30
0
11
50.506367
21
-20.748976
31
0
39
0
210
0
220
0
230
1
0
LINE
5
101
100
AcDbEntity
8
1
62
256
6
ByLayer
370
13
48
1
60
0
100
AcDbLine
10
50.408099
20
-21.251024
30
0
11
50.506367
21
-21.251024
31
0
39
0
210
0
220
0
230
1
0
LINE
5
102
100
AcDbEntity
8
1
62
256
6
ByLayer
370
13
48
1
60
0
100
AcDbLine
10
50.405078
20
-20.799244
30
0
11
50.549075
21
-20.799244
31
0
39
0
210
0
220
0
230
1
0
LINE
5
103
100
AcDbEntity
8
1
62
256
6
ByLayer
370
13
48
1
60
0
100
AcDbLine
10
50.405078
20
-21.200756
30
0
11
50.549075
21
-21.200756
31
0
39
0
210
0
220
0
230
1
0
LINE
5
104
100
AcDbEntity
8
1
62
256
6
ByLayer
370
13
48
1
60
0
100
AcDbLine
10
50.404895
20
-20.802665
30
0
11
50.552289
21
-20.802665
31
0
39
0
210
0
220
0
230
1
0
LINE
5
105
100
AcDbEntity
8
1
62
256
6
ByLayer
370
13
48
1
60
0
100
AcDbLine
10
46.326482
20
-21.8
30
0
11
46.297265
21
-21.749996
31
0
39
0
210
0
220
0
230
1
0
LINE
5
106
100
AcDbEntity
8
1
62
256
6
ByLayer
370
13
48
1
60
0
100
AcDbLine
10
50.404895
20
-21.197335
30
0
11
50.552289
21
-21.197335
31
0
39
0
210
0
220
0
230
1
0
LINE
5
107
100
AcDbEntity
8
1
62
256
6
ByLayer
370
13
48
1
60
0
100
AcDbLine
10
46.326482
20
-20.2
30
0
11
46.297265
21
-20.250004
31
0
39
0
210
0
220
0
230
1
0
LINE
5
108
100
AcDbEntity
8
1
62
256
6
ByLayer
370
13
48
1
60
0
100
AcDbLine
10
45.665685
20
-20.250008
30
0
11
45.665685
21
-20.2
31
0
39
0
210
0
220
0
230
1
0
LINE
5
109
100
AcDbEntity
8
1
62
256
6
ByLayer
370
13
48
1
60
0
100
AcDbLine
10
45.665685
20
-21.749992
30
0
11
45.665685
21
-21.8
31
0
39
0
210
0
220
0
230
1
0
LINE
5
10A
100
AcDbEntity
8
1
62
256
6
ByLayer
370
18
48
1
60
0
100
AcDbLine
10
51.948426
20
-20.159459
30
0
11
51.925177
21
-20.172882
31
0
39
0
210
0
220
0
230
1
0
LINE
5
10B
100
AcDbEntity
8
1
62
256
6
ByLayer
370
18
48
1
60
0
100
AcDbLine
10
51.709679
20
-20.2
30
0
11
51.82387
21
-20.2
31
0
39
0
210
0
220
0
230
1
0
LINE
5
10C
100
AcDbEntity
8
1
62
256
6
ByLayer
370
18
48
1
60
0
100
AcDbLine
10
46.326482
20
-21.8
30
0
11
46.496254
21
-21.8
31
0
39
0
210
0
220
0
230
1
0
LINE
5
10D
100
AcDbEntity
8
1
62
256
6
ByLayer
370
18
48
1
60
0
100
AcDbLine
10
54.742758
20
-20.000301
30
0
11
54.610516
21
-20.007425
31
0
39
0
210
0
220
0
230
1
0
LINE
5
10E
100
AcDbEntity
8
1
62
256
6
ByLayer
370
18
48
1
60
0
100
AcDbLine
10
51.709679
20
-20.2
30
0
11
51.658376
21
-20.2
31
0
39
0
210
0
220
0
230
1
0
LINE
5
10F
100
AcDbEntity
8
1
62
256
6
ByLayer
370
18
48
1
60
0
100
AcDbLine
10
53.533781
20
-21.92056
30
0
11
53.833781
21
-21.938988
31
0
39
0
210
0
220
0
230
1
0
LINE
5
110
100
AcDbEntity
8
1
62
256
6
ByLayer
370
18
48
1
60
0
100
AcDbLine
10
55.000117
20
-20.468879
30
0
11
55.001941
21
-20.25324
31
0
39
0
210
0
220
0
230
1
0
LINE
5
111
100
AcDbEntity
8
1
62
256
6
ByLayer
370
18
48
1
60
0
100
AcDbLine
10
45.25
20
-21.8
30
0
11
45.665685
21
-21.8
31
0
39
0
210
0
220
0
230
1
0
LINE
5
112
100
AcDbEntity
8
1
62
256
6
ByLayer
370
18
48
1
60
0
100
AcDbLine
10
45.665685
20
-21.8
30
0
11
46.326482
21
-21.8
31
0
39
0
210
0
220
0
230
1
0
LINE
5
113
100
AcDbEntity
8
1
62
256
6
ByLayer
370
18
48
1
60
0
100
AcDbLine
10
52.036053
20
-21.866914
30
0
11
52.165017
21
-21.874801
31
0
39
0
210
0
220
0
230
1
0
LINE
5
114
100
AcDbEntity
8
1
62
256
6
ByLayer
370
18
48
1
60
0
100
AcDbLine
10
54.181077
20
-21.96219
30
0
11
54.53976
21
-21.988115
31
0
39
0
210
0
220
0
230
1
0
LINE
5
115
100
AcDbEntity
8
1
62
256
6
ByLayer
370
18
48
1
60
0
100
AcDbLine
10
50.711215
20
-20.2
30
0
11
50.4298
21
-20.2
31
0
39
0
210
0
220
0
230
1
0
LINE
5
116
100
AcDbEntity
8
1
62
256
6
ByLayer
370
18
48
1
60
0
100
AcDbLine
10
51.658376
20
-21.8
30
0
11
50.787198
21
-21.8
31
0
39
0
210
0
220
0
230
1
0
LINE
5
117
100
AcDbEntity
8
1
62
256
6
ByLayer
370
18
48
1
60
0
100
AcDbLine
10
54.53976
20
-20.011885
30
0
11
54.181077
21
-20.03781
31
0
39
0
210
0
220
0
230
1
0
LINE
5
118
100
AcDbEntity
8
1
62
256
6
ByLayer
370
18
48
1
60
0
100
AcDbLine
10
54.610516
20
-21.992575
30
0
11
54.742758
21
-21.999699
31
0
39
0
210
0
220
0
230
1
0
LINE
5
119
100
AcDbEntity
8
1
62
256
6
ByLayer
370
18
48
1
60
0
100
AcDbLine
10
50.4298
20
-21.8
30
0
11
50.711215
21
-21.8
31
0
39
0
210
0
220
0
230
1
0
LINE
5
11A
100
AcDbEntity
8
1
62
256
6
ByLayer
370
18
48
1
60
0
100
AcDbLine
10
53.833781
20
-20.061012
30
0
11
53.533781
21
-20.07944
31
0
39
0
210
0
220
0
230
1
0
LINE
5
11B
100
AcDbEntity
8
1
62
256
6
ByLayer
370
18
48
1
60
0
100
AcDbLine
10
50.787198
20
-20.2
30
0
11
50.711215
21
-20.2
31
0
39
0
210
0
220
0
230
1
0
LINE
5
11C
100
AcDbEntity
8
1
62
256
6
ByLayer
370
18
48
1
60
0
100
AcDbLine
10
51.82387
20
-21.8
30
0
11
51.709679
21
-21.8
31
0
39
0
210
0
220
0
230
1
0
LINE
5
11D
100
AcDbEntity
8
1
62
256
6
ByLayer
370
18
48
1
60
0
100
AcDbLine
10
46.326482
20
-20.2
30
0
11
45.665685
21
-20.2
31
0
39
0
210
0
220
0
230
1
0
LINE
5
11E
100
AcDbEntity
8
1
62
256
6
ByLayer
370
18
48
1
60
0
100
AcDbLine
10
51.658376
20
-21.8
30
0
11
51.709679
21
-21.8
31
0
39
0
210
0
220
0
230
1
0
LINE
5
11F
100
AcDbEntity
8
1
62
256
6
ByLayer
370
18
48
1
60
0
100
AcDbLine
10
52.378462
20
-21.882456
30
0
11
52.47312
21
-21.882445
31
0
39
0
210
0
220
0
230
1
0
LINE
5
120
100
AcDbEntity
8
1
62
256
6
ByLayer
370
18
48
1
60
0
100
AcDbLine
10
46.732227
20
-20.2
30
0
11
46.546632
21
-20.2
31
0
39
0
210
0
220
0
230
1
0
LINE
5
121
100
AcDbEntity
8
1
62
256
6
ByLayer
370
18
48
1
60
0
100
AcDbLine
10
50.787198
20
-20.2
30
0
11
51.658376
21
-20.2
31
0
39
0
210
0
220
0
230
1
0
LINE
5
122
100
AcDbEntity
8
1
62
256
6
ByLayer
370
18
48
1
60
0
100
AcDbLine
10
45.665685
20
-20.2
30
0
11
45.25
21
-20.2
31
0
39
0
210
0
220
0
230
1
0
LINE
5
123
100
AcDbEntity
8
1
62
256
6
ByLayer
370
18
48
1
60
0
100
AcDbLine
10
51.925177
20
-21.827118
30
0
11
51.948426
21
-21.840541
31
0
39
0
210
0
220
0
230
1
0
LINE
5
124
100
AcDbEntity
8
1
62
256
6
ByLayer
370
18
48
1
60
0
100
AcDbLine
10
52.47312
20
-20.117555
30
0
11
52.378462
21
-20.117544
31
0
39
0
210
0
220
0
230
1
0
LINE
5
125
100
AcDbEntity
8
1
62
256
6
ByLayer
370
18
48
1
60
0
100
AcDbLine
10
46.496254
20
-20.2
30
0
11
46.326482
21
-20.2
31
0
39
0
210
0
220
0
230
1
0
LINE
5
126
100
AcDbEntity
8
1
62
256
6
ByLayer
370
18
48
1
60
0
100
AcDbLine
10
55.001941
20
-21.74676
30
0
11
55.000117
21
-21.531121
31
0
39
0
210
0
220
0
230
1
0
LINE
5
127
100
AcDbEntity
8
1
62
256
6
ByLayer
370
18
48
1
60
0
100
AcDbLine
10
50.711215
20
-21.8
30
0
11
50.787198
21
-21.8
31
0
39
0
210
0
220
0
230
1
0
LINE
5
128
100
AcDbEntity
8
1
62
256
6
ByLayer
370
18
48
1
60
0
100
AcDbLine
10
50.4298
20
-20.2
30
0
11
46.732227
21
-20.2
31
0
39
0
210
0
220
0
230
1
0
LINE
5
129
100
AcDbEntity
8
1
62
256
6
ByLayer
370
18
48
1
60
0
100
AcDbLine
10
46.732227
20
-21.8
30
0
11
50.4298
21
-21.8
31
0
39
0
210
0
220
0
230
1
0
LINE
5
12A
100
AcDbEntity
8
1
62
256
6
ByLayer
370
18
48
1
60
0
100
AcDbLine
10
52.165017
20
-20.125199
30
0
11
52.036053
21
-20.133086
31
0
39
0
210
0
220
0
230
1
0
LINE
5
12B
100
AcDbEntity
8
1
62
256
6
ByLayer
370
18
48
1
60
0
100
AcDbLine
10
55
20
-21.503425
30
0
11
55
21
-20.496575
31
0
39
0
210
0
220
0
230
1
0
LINE
5
12C
100
AcDbEntity
8
1
62
256
6
ByLayer
370
18
48
1
60
0
100
AcDbLine
10
46.546632
20
-21.8
30
0
11
46.732227
21
-21.8
31
0
39
0
210
0
220
0
230
1
0
MTEXT
5
249
100
AcDbEntity
8
SK6
62
256
6
ByLayer
370
18
48
1
60
0
100
AcDbMText
10
-13.625
20
-53.875024
30
0
210
0
220
0
230
1
1
\W0.7811;C3-QD-LFE22C22055A
40
3.5
41
0
44
1.084337
50
0
71
7
72
5
7
iso_b_vert
0
DIMENSION
5
25B
100
AcDbEntity
8
SK2
62
256
6
ByLayer
370
13
48
1
60
0
100
AcDbDimension
2
DimnDraft3D1
10
55
20
38.6
30
0
11
25.409211
21
38.6
31
0
70
32
71
5
72
1
41
1
210
0
220
0
230
1
3
Standard
100
AcDbAlignedDimension
13
0
23
2
33
0
14
55
24
-20
34
0
50
0
100
AcDbRotatedDimension
1001
ACAD
1000
DSTYLE
1002
{
1070
   279
1070
     0
1070
   172
1070
     1
1070
   173
1070
     1
1070
   340
1005
24A
1070
   271
1070
     1
1070
    77
1070
     1
1070
    73
1070
     0
1070
   171
1070
     3
1070
   274
1070
     4
1070
   177
1070
     2
1070
   176
1070
     2
1070
   178
1070
     7
1070
    78
1070
     8
1070
    41
1041
3.175
1070
   147
1041
1.75
1070
    42
1041
2.0
1070
    44
1041
2.0
1070
   140
1041
3.5
1070
   343
1005
25C
1070
   344
1005
25C
1002
}
0
DIMENSION
5
271
100
AcDbEntity
8
2
62
256
6
ByLayer
370
13
48
1
60
0
100
AcDbDimension
2
DimnDraft3D2
10
33
20
-35.100049
30
0
11
41.909211
21
-35.100049
31
0
70
32
71
5
72
1
41
1
210
0
220
0
230
1
3
Standard
100
AcDbAlignedDimension
13
55
23
-24
33
0
14
33
24
-18
34
0
50
0
100
AcDbRotatedDimension
1001
ACAD
1000
DSTYLE
1002
{
1070
   279
1070
     0
1070
   172
1070
     1
1070
   173
1070
     1
1070
   340
1005
24A
1070
   271
1070
     1
1070
    77
1070
     1
1070
    73
1070
     0
1070
   171
1070
     3
1070
   274
1070
     4
1070
   177
1070
     2
1070
   176
1070
     2
1070
   178
1070
     7
1070
    78
1070
     8
1070
    41
1041
3.175
1070
   147
1041
1.75
1070
    42
1041
2.0
1070
    44
1041
2.0
1070
   140
1041
3.5
1070
   343
1005
25C
1070
   344
1005
25C
1002
}
0
DIMENSION
5
27F
100
AcDbEntity
8
SK2
62
256
6
ByLayer
370
13
48
1
60
0
100
AcDbDimension
2
DimnDraft3D3
10
-28.6
20
16
30
0
11
-28.6
21
-2.090789
31
0
70
32
71
5
72
1
41
1
210
0
220
0
230
1
3
Standard
100
AcDbAlignedDimension
13
-2
23
-16
33
0
14
-2
24
16
34
0
50
90
100
AcDbRotatedDimension
1001
ACAD
1000
DSTYLE
1002
{
1070
    74
1070
     0
1070
   279
1070
     0
1070
   172
1070
     1
1070
   173
1070
     1
1070
   340
1005
24A
1070
   271
1070
     1
1070
    77
1070
     1
1070
    73
1070
     0
1070
   171
1070
     3
1070
   274
1070
     4
1070
   177
1070
     2
1070
   176
1070
     2
1070
   178
1070
     7
1070
    78
1070
     8
1070
    41
1041
3.175
1070
   147
1041
1.75
1070
    42
1041
2.0
1070
    44
1041
2.0
1070
   140
1041
3.5
1070
   343
1005
25C
1070
   344
1005
25C
1002
}
0
DIMENSION
5
28D
100
AcDbEntity
8
2
62
256
6
ByLayer
370
13
48
1
60
0
100
AcDbDimension
2
DimnDraft3D4
10
80.1
20
-22
30
0
11
80.1
21
-13.090789
31
0
70
32
71
5
72
1
41
1
210
0
220
0
230
1
3
Standard
100
AcDbAlignedDimension
13
48
23
0
33
0
14
57
24
-22
34
0
50
90
100
AcDbRotatedDimension
1001
ACAD
1000
DSTYLE
1002
{
1070
    74
1070
     0
1070
   279
1070
     0
1070
   172
1070
     1
1070
   173
1070
     1
1070
   340
1005
24A
1070
   271
1070
     1
1070
    77
1070
     1
1070
    73
1070
     0
1070
   171
1070
     3
1070
   274
1070
     4
1070
   177
1070
     2
1070
   176
1070
     2
1070
   178
1070
     7
1070
    78
1070
     8
1070
    41
1041
3.175
1070
   147
1041
1.75
1070
    42
1041
2.0
1070
    44
1041
2.0
1070
   140
1041
3.5
1070
   343
1005
25C
1070
   344
1005
25C
1002
}
0
DIMENSION
5
29B
100
AcDbEntity
8
2
62
256
6
ByLayer
370
13
48
1
60
0
100
AcDbDimension
2
DimnDraft3D5
10
73.1
20
-20
30
0
11
73.1
21
-33.820789
31
0
70
32
71
5
72
1
41
1
210
0
220
0
230
1
3
Standard
100
AcDbAlignedDimension
13
57
23
-22
33
0
14
57
24
-20
34
0
50
90
100
AcDbRotatedDimension
1001
ACAD
1000
DSTYLE
1002
{
1070
    74
1070
     0
1070
   279
1070
     0
1070
   172
1070
     1
1070
   173
1070
     1
1070
   340
1005
24A
1070
   271
1070
     1
1070
    77
1070
     1
1070
    73
1070
     0
1070
   171
1070
     3
1070
   274
1070
     4
1070
   177
1070
     2
1070
   176
1070
     2
1070
   178
1070
     7
1070
    78
1070
     8
1070
    41
1041
3.175
1070
   147
1041
1.75
1070
    42
1041
2.0
1070
    44
1041
2.0
1070
   140
1041
3.5
1070
   343
1005
25C
1070
   344
1005
25C
1002
}
0
ENDSEC
0
SECTION
2
OBJECTS
0
DICTIONARY
5
305
330
0
100
AcDbDictionary
280
0
281
1
3
ACAD_GROUP
350
306
3
ACAD_MLINESTYLE
350
307
0
DICTIONARY
5
306
330
0
100
AcDbDictionary
280
0
281
1
0
DICTIONARY
5
307
330
0
100
AcDbDictionary
280
0
281
1
3
Standard
350
18
0
MLINESTYLE
5
18
330
307
100
AcDbMlineStyle
2
Standard
70
0
3

62
256
51
90
52
90
71
2
49
-0.5
62
256
6
ByLayer
49
0.5
62
256
6
ByLayer
0
RASTERVARIABLES
5
2f4
330

100
AcDbRasterVariables
90
0
70
1
71
1
72
1
0
ENDSEC
0
EOF
