0
SECTION
2
HEADER
9
$ACADVER
1
AC1015
9
$DWGCODEPAGE
3
ANSI_1252
9
$HANDSEED
5
212
9
$ANGBASE
50
0
9
$ANGDIR
70
0
9
$ATTMODE
70
1
9
$AUNITS
70
0
9
$AUPREC
70
0
9
$CECOLOR
62
256
9
$CELTSCALE
40
1
9
$CELTYPE
6
ByLayer
9
$CELWEIGHT
370
18
9
$CLAYER
8
0
9
$CMLJUST
70
0
9
$CMLSCALE
40
1
9
$CMLSTYLE
2
Standard
9
$DIMSTYLE
2
Standard
9
$TEXTSIZE
40
0.2
9
$TEXTSTYLE
7
Standard
9
$LUNITS
70
2
9
$LUPREC
70
4
9
$EXTNAMES
290
1
9
$INSUNITS
70
4
9
$LTSCALE
40
1
9
$LWDISPLAY
290
1
9
$PDMODE
70
0
9
$PDSIZE
40
0
9
$PLINEGEN
70
0
0
ENDSEC
0
SECTION
2
CLASSES
0
CLASS
1
RASTERVARIABLES
2
AcDbRasterVariables
3
ISM
90
0
280
0
281
0
0
ENDSEC
0
SECTION
2
TABLES
0
TABLE
2
VPORT
5
208
100
AcDbSymbolTable
0
VPORT
5
1
100
AcDbSymbolTableRecord
100
AcDbViewportTableRecord
2
*Active
70
0
10
0
20
0
11
1
21
1
12
-1
22
1
13
0
23
0
14
0.5
24
0.5
15
10
25
10
16
0
26
0
36
1
17
0
27
0
37
0
0
ENDTAB
0
TABLE
2
LTYPE
5
209
100
AcDbSymbolTable
0
LTYPE
5
14
100
AcDbSymbolTableRecord
100
AcDbLinetypeTableRecord
70
0
2
ByBlock
3

72
65
73
0
40
0
0
LTYPE
5
15
100
AcDbSymbolTableRecord
100
AcDbLinetypeTableRecord
70
0
2
ByLayer
3

72
65
73
0
40
0
0
LTYPE
5
16
100
AcDbSymbolTableRecord
100
AcDbLinetypeTableRecord
70
0
2
CONTINUOUS
3
Solid line
72
65
73
0
40
0
0
LTYPE
5
6A
100
AcDbSymbolTableRecord
100
AcDbLinetypeTableRecord
70
0
2
CENTER
3
____ _ ____ _ ____ _ ____
72
65
73
4
40
47.5
49
22
74
0
49
-8.5
74
0
49
8.5
74
0
49
-8.5
74
0
0
LTYPE
5
6B
100
AcDbSymbolTableRecord
100
AcDbLinetypeTableRecord
70
0
2
DASHED
3
__ __ __ __ __ __ __ __ __
72
65
73
2
40
25.72
49
12.86
74
0
49
-12.86
74
0
0
ENDTAB
0
TABLE
2
LAYER
5
20a
100
AcDbSymbolTable
0
LAYER
5
10
100
AcDbSymbolTableRecord
100
AcDbLayerTableRecord
2
0
70
0
62
7
6
CONTINUOUS
290
1
370
-3
390
0
0
LAYER
5
6D
100
AcDbSymbolTableRecord
100
AcDbLayerTableRecord
2
80
70
0
62
-6
6
CONTINUOUS
290
1
370
-3
390
0
0
LAYER
5
6F
100
AcDbSymbolTableRecord
100
AcDbLayerTableRecord
2
81
70
0
62
-3
6
CONTINUOUS
290
1
370
-3
390
0
0
LAYER
5
71
100
AcDbSymbolTableRecord
100
AcDbLayerTableRecord
2
1
70
0
62
4
6
CONTINUOUS
290
1
370
-3
390
0
0
LAYER
5
BF
100
AcDbSymbolTableRecord
100
AcDbLayerTableRecord
2
4
70
0
62
-2
6
CENTER
290
1
370
-3
390
0
0
LAYER
5
15E
100
AcDbSymbolTableRecord
100
AcDbLayerTableRecord
2
2
70
0
62
7
6
CONTINUOUS
290
1
370
-3
390
0
0
LAYER
5
1f4
100
AcDbSymbolTableRecord
100
AcDbLayerTableRecord
2
SK1
70
0
62
4
6
CONTINUOUS
290
1
370
-3
390
0
0
LAYER
5
1f5
100
AcDbSymbolTableRecord
100
AcDbLayerTableRecord
2
SK4
70
0
62
2
6
CENTER
290
1
370
-3
390
0
0
LAYER
5
1f6
100
AcDbSymbolTableRecord
100
AcDbLayerTableRecord
2
SK6
70
0
62
5
6
CONTINUOUS
290
1
370
-3
390
0
0
LAYER
5
1f7
100
AcDbSymbolTableRecord
100
AcDbLayerTableRecord
2
SK2
70
0
62
7
6
CONTINUOUS
290
1
370
-3
390
0
0
ENDTAB
0
TABLE
2
STYLE
5
20b
100
AcDbSymbolTable
0
STYLE
5
11
100
AcDbSymbolTableRecord
100
AcDbTextStyleTableRecord
2
Standard
3
txt
70
0
71
0
40
0
41
1
42
0
50
0
0
STYLE
5
157
100
AcDbSymbolTableRecord
100
AcDbTextStyleTableRecord
2
iso_b_vert
3
simplex.shx
70
0
71
0
40
0
41
1
42
0
50
0
0
STYLE
5
158
100
AcDbSymbolTableRecord
100
AcDbTextStyleTableRecord
2
DWGDirectTextStyle
3
simplex
70
0
71
0
40
0
41
1
42
0
50
0
0
ENDTAB
0
TABLE
2
DIMSTYLE
5
20c
100
AcDbSymbolTable
100
AcDbDimStyleTable
0
DIMSTYLE
105
27
100
AcDbSymbolTableRecord
100
AcDbDimStyleTableRecord
2
Standard
70
0
3
<>
41
0.18
42
0.0625
44
0.18
140
0.18
147
0.09
73
0
74
0
77
1
271
2
275
0
278
52
280
0
340
11
0
ENDTAB
0
TABLE
2
VIEW
5
20d
100
AcDbSymbolTable
0
ENDTAB
0
TABLE
2
UCS
5
20e
100
AcDbSymbolTable
0
ENDTAB
0
TABLE
2
APPID
5
20f
100
AcDbSymbolTable
0
APPID
5
12
100
AcDbSymbolTableRecord
100
AcDbRegAppTableRecord
2
ACAD
70
0
0
ENDTAB
0
TABLE
2
BLOCK_RECORD
5
210
100
AcDbSymbolTable
0
BLOCK_RECORD
5
1F
100
AcDbSymbolTableRecord
100
AcDbBlockTableRecord
2
*Model_Space
340
0
70
0
0
BLOCK_RECORD
5
1B
100
AcDbSymbolTableRecord
100
AcDbBlockTableRecord
2
*Paper_Space
340
0
70
0
0
BLOCK_RECORD
5
23
100
AcDbSymbolTableRecord
100
AcDbBlockTableRecord
2
*Paper_Space0
340
0
70
0
0
BLOCK_RECORD
5
15A
100
AcDbSymbolTableRecord
100
AcDbBlockTableRecord
2
DimnDraft3D11
340
0
70
0
0
BLOCK_RECORD
5
169
100
AcDbSymbolTableRecord
100
AcDbBlockTableRecord
2
DimnDraft3D2
340
0
70
0
0
BLOCK_RECORD
5
178
100
AcDbSymbolTableRecord
100
AcDbBlockTableRecord
2
_CLOSED
340
0
70
0
0
BLOCK_RECORD
5
17F
100
AcDbSymbolTableRecord
100
AcDbBlockTableRecord
2
DimnDraft3D3
340
0
70
0
0
BLOCK_RECORD
5
18D
100
AcDbSymbolTableRecord
100
AcDbBlockTableRecord
2
DimnDraft3D4
340
0
70
0
0
ENDTAB
0
ENDSEC
0
SECTION
2
BLOCKS
0
BLOCK
5
20
100
AcDbEntity
8
0
100
AcDbBlockBegin
2
*Model_Space
70
0
10
0
20
0
30
0
3
*Model_Space
0
ENDBLK
5
21
100
AcDbEntity
8
0
100
AcDbBlockEnd
0
BLOCK
5
1C
100
AcDbEntity
8
0
100
AcDbBlockBegin
2
*Paper_Space
70
0
10
0
20
0
30
0
3
*Paper_Space
0
ENDBLK
5
1D
100
AcDbEntity
8
0
100
AcDbBlockEnd
0
BLOCK
5
24
100
AcDbEntity
8
0
100
AcDbBlockBegin
2
*Paper_Space0
70
0
10
0
20
0
30
0
3
*Paper_Space0
0
ENDBLK
5
25
100
AcDbEntity
8
0
100
AcDbBlockEnd
0
BLOCK
5
15B
100
AcDbEntity
8
0
100
AcDbBlockBegin
2
DimnDraft3D11
70
0
10
0
20
0
30
0
3
DimnDraft3D11
0
LINE
5
15D
100
AcDbEntity
8
2
62
256
6
ByLayer
370
25
48
1
60
0
100
AcDbLine
10
51.5875
20
0
30
0
11
62.425
21
0
31
0
39
0
210
0
220
0
230
1
0
LINE
5
15F
100
AcDbEntity
8
2
62
256
6
ByLayer
370
25
48
1
60
0
100
AcDbLine
10
46.5875
20
22
30
0
11
62.425
21
22
31
0
39
0
210
0
220
0
230
1
0
LINE
5
160
100
AcDbEntity
8
2
62
256
6
ByLayer
370
25
48
1
60
0
100
AcDbLine
10
59.25
20
0
30
0
11
59.25
21
22
31
0
39
0
210
0
220
0
230
1
0
LINE
5
161
100
AcDbEntity
8
2
62
256
6
ByLayer
370
25
48
1
60
0
100
AcDbLine
10
59.25
20
0
30
0
11
58.399261
21
3.174997
31
0
39
0
210
0
220
0
230
1
0
LINE
5
162
100
AcDbEntity
8
2
62
256
6
ByLayer
370
25
48
1
60
0
100
AcDbLine
10
59.25
20
0
30
0
11
60.100739
21
3.175003
31
0
39
0
210
0
220
0
230
1
0
LINE
5
163
100
AcDbEntity
8
2
62
256
6
ByLayer
370
25
48
1
60
0
100
AcDbLine
10
58.399261
20
3.174997
30
0
11
60.100739
21
3.175003
31
0
39
0
210
0
220
0
230
1
0
LINE
5
164
100
AcDbEntity
8
2
62
256
6
ByLayer
370
25
48
1
60
0
100
AcDbLine
10
59.25
20
22
30
0
11
60.100739
21
18.825003
31
0
39
0
210
0
220
0
230
1
0
LINE
5
165
100
AcDbEntity
8
2
62
256
6
ByLayer
370
25
48
1
60
0
100
AcDbLine
10
59.25
20
22
30
0
11
58.399261
21
18.824997
31
0
39
0
210
0
220
0
230
1
0
LINE
5
166
100
AcDbEntity
8
2
62
256
6
ByLayer
370
25
48
1
60
0
100
AcDbLine
10
60.100739
20
18.825003
30
0
11
58.399261
21
18.824997
31
0
39
0
210
0
220
0
230
1
0
MTEXT
5
167
100
AcDbEntity
8
2
62
256
6
ByLayer
370
13
48
1
60
0
100
AcDbMText
10
58.125
20
9.436842
30
0
210
0
220
0
230
1
1
\W0.6740;22
40
4.5
41
0
44
1.084337
50
90
71
7
72
5
7
iso_b_vert
0
ENDBLK
5
15C
100
AcDbEntity
8
0
100
AcDbBlockEnd
0
BLOCK
5
175
100
AcDbEntity
8
0
100
AcDbBlockBegin
2
DimnDraft3D2
70
0
10
0
20
0
30
0
3
DimnDraft3D2
0
MTEXT
5
16A
100
AcDbEntity
8
SK2
62
256
6
ByLayer
370
13
48
1
60
0
100
AcDbMText
10
-29.875
20
-1.563158
30
0
210
0
220
0
230
1
1
\W0.6740;32
40
4.5
41
0
44
1.084337
50
90
71
7
72
5
7
iso_b_vert
0
LINE
5
16C
100
AcDbEntity
8
SK2
62
256
6
ByLayer
370
13
48
1
60
0
100
AcDbLine
10
-1.5875
20
16
30
0
11
-31.925
21
16
31
0
39
0
210
0
220
0
230
1
0
LINE
5
16D
100
AcDbEntity
8
SK2
62
256
6
ByLayer
370
13
48
1
60
0
100
AcDbLine
10
-1.5875
20
-16
30
0
11
-31.925
21
-16
31
0
39
0
210
0
220
0
230
1
0
LINE
5
16E
100
AcDbEntity
8
SK2
62
256
6
ByLayer
370
13
48
1
60
0
100
AcDbLine
10
-28.75
20
16
30
0
11
-28.75
21
-16
31
0
39
0
210
0
220
0
230
1
0
LINE
5
16F
100
AcDbEntity
8
SK2
62
256
6
ByLayer
370
13
48
1
60
0
100
AcDbLine
10
-28.75
20
16
30
0
11
-27.899261
21
12.825003
31
0
39
0
210
0
220
0
230
1
0
LINE
5
170
100
AcDbEntity
8
SK2
62
256
6
ByLayer
370
13
48
1
60
0
100
AcDbLine
10
-28.75
20
16
30
0
11
-29.600739
21
12.824997
31
0
39
0
210
0
220
0
230
1
0
LINE
5
171
100
AcDbEntity
8
SK2
62
256
6
ByLayer
370
13
48
1
60
0
100
AcDbLine
10
-27.899261
20
12.825003
30
0
11
-29.600739
21
12.824997
31
0
39
0
210
0
220
0
230
1
0
LINE
5
172
100
AcDbEntity
8
SK2
62
256
6
ByLayer
370
13
48
1
60
0
100
AcDbLine
10
-28.75
20
-16
30
0
11
-29.600739
21
-12.825003
31
0
39
0
210
0
220
0
230
1
0
LINE
5
173
100
AcDbEntity
8
SK2
62
256
6
ByLayer
370
13
48
1
60
0
100
AcDbLine
10
-28.75
20
-16
30
0
11
-27.899261
21
-12.824997
31
0
39
0
210
0
220
0
230
1
0
LINE
5
174
100
AcDbEntity
8
SK2
62
256
6
ByLayer
370
13
48
1
60
0
100
AcDbLine
10
-29.600739
20
-12.825003
30
0
11
-27.899261
21
-12.824997
31
0
39
0
210
0
220
0
230
1
0
ENDBLK
5
176
100
AcDbEntity
8
0
100
AcDbBlockEnd
0
BLOCK
5
179
100
AcDbEntity
8
0
100
AcDbBlockBegin
2
_CLOSED
70
0
10
0
20
0
30
0
3
_CLOSED
0
LINE
5
17B
100
AcDbEntity
8
0
62
256
6
ByLayer
370
-2
48
1
60
0
100
AcDbLine
10
-1
20
0.166667
30
0
11
0
21
0
31
0
39
0
210
0
220
0
230
1
0
LINE
5
17C
100
AcDbEntity
8
0
62
256
6
ByLayer
370
-2
48
1
60
0
100
AcDbLine
10
0
20
0
30
0
11
-1
21
-0.166667
31
0
39
0
210
0
220
0
230
1
0
LINE
5
17D
100
AcDbEntity
8
0
62
256
6
ByLayer
370
-2
48
1
60
0
100
AcDbLine
10
-1
20
0.166667
30
0
11
-1
21
-0.166667
31
0
39
0
210
0
220
0
230
1
0
LINE
5
17E
100
AcDbEntity
8
0
62
256
6
ByLayer
370
-2
48
1
60
0
100
AcDbLine
10
0
20
0
30
0
11
-1
21
0
31
0
39
0
210
0
220
0
230
1
0
ENDBLK
5
17A
100
AcDbEntity
8
0
100
AcDbBlockEnd
0
BLOCK
5
18A
100
AcDbEntity
8
0
100
AcDbBlockBegin
2
DimnDraft3D3
70
0
10
0
20
0
30
0
3
DimnDraft3D3
0
MTEXT
5
180
100
AcDbEntity
8
2
62
256
6
ByLayer
370
13
48
1
60
0
100
AcDbMText
10
20.7
20
40.625
30
0
210
0
220
0
230
1
1
\W0.7361;45
40
4.5
41
0
44
1.084337
50
0
71
7
72
5
7
iso_b_vert
0
LINE
5
181
100
AcDbEntity
8
2
62
256
6
ByLayer
370
13
48
1
60
0
100
AcDbLine
10
45
20
23.5875
30
0
11
45
21
42.675
31
0
39
0
210
0
220
0
230
1
0
LINE
5
182
100
AcDbEntity
8
2
62
256
6
ByLayer
370
13
48
1
60
0
100
AcDbLine
10
0
20
17.5875
30
0
11
0
21
42.675
31
0
39
0
210
0
220
0
230
1
0
LINE
5
183
100
AcDbEntity
8
2
62
256
6
ByLayer
370
13
48
1
60
0
100
AcDbLine
10
45
20
39.5
30
0
11
0
21
39.5
31
0
39
0
210
0
220
0
230
1
0
LINE
5
184
100
AcDbEntity
8
2
62
256
6
ByLayer
370
13
48
1
60
0
100
AcDbLine
10
45
20
39.5
30
0
11
41.825003
21
38.649261
31
0
39
0
210
0
220
0
230
1
0
LINE
5
185
100
AcDbEntity
8
2
62
256
6
ByLayer
370
13
48
1
60
0
100
AcDbLine
10
45
20
39.5
30
0
11
41.824997
21
40.350739
31
0
39
0
210
0
220
0
230
1
0
LINE
5
186
100
AcDbEntity
8
2
62
256
6
ByLayer
370
13
48
1
60
0
100
AcDbLine
10
41.825003
20
38.649261
30
0
11
41.824997
21
40.350739
31
0
39
0
210
0
220
0
230
1
0
LINE
5
187
100
AcDbEntity
8
2
62
256
6
ByLayer
370
13
48
1
60
0
100
AcDbLine
10
0
20
39.5
30
0
11
3.174997
21
40.350739
31
0
39
0
210
0
220
0
230
1
0
LINE
5
188
100
AcDbEntity
8
2
62
256
6
ByLayer
370
13
48
1
60
0
100
AcDbLine
10
0
20
39.5
30
0
11
3.175003
21
38.649261
31
0
39
0
210
0
220
0
230
1
0
LINE
5
189
100
AcDbEntity
8
2
62
256
6
ByLayer
370
13
48
1
60
0
100
AcDbLine
10
3.174997
20
40.350739
30
0
11
3.175003
21
38.649261
31
0
39
0
210
0
220
0
230
1
0
ENDBLK
5
18B
100
AcDbEntity
8
0
100
AcDbBlockEnd
0
BLOCK
5
198
100
AcDbEntity
8
0
100
AcDbBlockBegin
2
DimnDraft3D4
70
0
10
0
20
0
30
0
3
DimnDraft3D4
0
MTEXT
5
18E
100
AcDbEntity
8
2
62
256
6
ByLayer
370
13
48
1
60
0
100
AcDbMText
10
31.396017
20
27.414082
30
0
210
0
220
0
230
1
1
\W0.8292;93%%d0'
40
4.5
41
0
44
1.084337
50
46.5000000000001
71
7
72
5
7
iso_b_vert
0
LINE
5
18F
100
AcDbEntity
8
2
62
256
6
ByLayer
370
13
48
1
60
0
100
AcDbLine
10
45
20
23.5875
30
0
11
45
21
37.658093
31
0
39
0
210
0
220
0
230
1
0
LINE
5
190
100
AcDbEntity
8
2
62
256
6
ByLayer
370
13
48
1
60
0
100
AcDbLine
10
31.594459
20
21.340133
30
0
11
29.405996
21
21.225441
31
0
39
0
210
0
220
0
230
1
0
ARC
5
191
100
AcDbEntity
8
2
62
256
6
ByLayer
370
13
48
1
60
0
100
AcDbCircle
39
0
10
45
20
22.042688
30
0
40
12.440404684557
210
0
220
0
230
1
100
AcDbArc
50
90
51
183
0
LINE
5
192
100
AcDbEntity
8
2
62
256
6
ByLayer
370
13
48
1
60
0
100
AcDbLine
10
45
20
34.483093
30
0
11
41.885347
21
33.432713
31
0
39
0
210
0
220
0
230
1
0
LINE
5
193
100
AcDbEntity
8
2
62
256
6
ByLayer
370
13
48
1
60
0
100
AcDbLine
10
45
20
34.483093
30
0
11
41.777435
21
35.130764
31
0
39
0
210
0
220
0
230
1
0
LINE
5
194
100
AcDbEntity
8
2
62
256
6
ByLayer
370
13
48
1
60
0
100
AcDbLine
10
41.885347
20
33.432713
30
0
11
41.777435
21
35.130764
31
0
39
0
210
0
220
0
230
1
0
LINE
5
195
100
AcDbEntity
8
2
62
256
6
ByLayer
370
13
48
1
60
0
100
AcDbLine
10
32.576644
20
21.391607
30
0
11
31.761204
21
24.575853
31
0
39
0
210
0
220
0
230
1
0
LINE
5
196
100
AcDbEntity
8
2
62
256
6
ByLayer
370
13
48
1
60
0
100
AcDbLine
10
32.576644
20
21.391607
30
0
11
33.462577
21
24.556971
31
0
39
0
210
0
220
0
230
1
0
LINE
5
197
100
AcDbEntity
8
2
62
256
6
ByLayer
370
13
48
1
60
0
100
AcDbLine
10
31.761204
20
24.575853
30
0
11
33.462577
21
24.556971
31
0
39
0
210
0
220
0
230
1
0
ENDBLK
5
199
100
AcDbEntity
8
0
100
AcDbBlockEnd
0
ENDSEC
0
SECTION
2
ENTITIES
0
ARC
5
D7
100
AcDbEntity
8
1
62
256
6
ByLayer
370
18
48
1
60
0
100
AcDbCircle
39
0
10
35.612327
20
15.613699
30
0
40
2.3
210
0
220
0
230
1
100
AcDbArc
50
350.65118
51
358.052823
0
ARC
5
D8
100
AcDbEntity
8
1
62
256
6
ByLayer
370
18
48
1
60
0
100
AcDbCircle
39
0
10
-15.186138
20
16.8
30
0
40
0.8
210
0
220
0
230
-1
100
AcDbArc
50
195
51
270
0
ARC
5
D9
100
AcDbEntity
8
1
62
256
6
ByLayer
370
18
48
1
60
0
100
AcDbCircle
39
0
10
-15.186138
20
-16.8
30
0
40
0.8
210
0
220
0
230
-1
100
AcDbArc
50
90
51
125.659088
0
ARC
5
DA
100
AcDbEntity
8
SK1
62
256
6
ByLayer
370
18
48
1
60
0
100
AcDbCircle
39
0
10
0.6
20
-11.8
30
0
40
0.999999999999989
210
0
220
0
230
-1
100
AcDbArc
50
113.578178
51
126.869898
0
ARC
5
DB
100
AcDbEntity
8
SK1
62
256
6
ByLayer
370
18
48
1
60
0
100
AcDbCircle
39
0
10
0.6
20
11.8
30
0
40
0.999999999999989
210
0
220
0
230
-1
100
AcDbArc
50
233.130102
51
246.421822
0
ELLIPSE
5
DC
100
AcDbEntity
8
1
62
256
6
ByLayer
370
18
48
1
60
0
100
AcDbEllipse
10
27.969222
20
10.55349
30
0
11
-0.127932668372599
21
0.0783149561901598
31
0
210
0
220
0
230
1
40
0.152664
41
1.3064804921976
42
1.53197899149803
0
ELLIPSE
5
DD
100
AcDbEntity
8
1
62
256
6
ByLayer
370
18
48
1
60
0
100
AcDbEllipse
10
29.534589
20
9.555465
30
0
11
-1.3003317782326
21
1.33464972718657
31
0
210
0
220
0
230
1
40
0.987534
41
0.24612957527653
42
0.268611506431015
0
ELLIPSE
5
DE
100
AcDbEntity
8
1
62
256
6
ByLayer
370
18
48
1
60
0
100
AcDbEllipse
10
29.681157
20
9.698264
30
0
11
1.39567650671221
21
-1.43251076387287
31
0
210
0
220
0
230
1
40
0.987534
41
-2.89546307831326
42
-2.82748001630095
0
ELLIPSE
5
DF
100
AcDbEntity
8
1
62
256
6
ByLayer
370
18
48
1
60
0
100
AcDbEllipse
10
13.362466
20
0
30
0
11
-9.79685083057908E-16
21
16.0000000000001
31
0
210
0
220
0
230
-1
40
0.087489
41
-2.7128681684477
42
-0.428724485142093
0
ELLIPSE
5
E0
100
AcDbEntity
8
1
62
256
6
ByLayer
370
18
48
1
60
0
100
AcDbEllipse
10
32.1719
20
14.771371
30
0
11
-1.3956765067122
21
1.43251076387287
31
0
210
0
220
0
230
1
40
0.987534
41
0.246129575276522
42
0.635890308074007
0
ELLIPSE
5
E1
100
AcDbEntity
8
1
62
256
6
ByLayer
370
18
48
1
60
0
100
AcDbEllipse
10
12.449629
20
2.465194
30
0
11
0.0229844865254422
21
4.76712835586894
31
0
210
0
220
0
230
-1
40
0.083402
41
-2.23411552834949
42
0.923022705824512
0
ELLIPSE
5
E2
100
AcDbEntity
8
1
62
256
6
ByLayer
370
18
48
1
60
0
100
AcDbEllipse
10
33.025445
20
11.32577
30
0
11
0.095860292252376
21
0.155667897645388
31
0
210
0
220
0
230
-1
40
0.022144
41
3.0110645265579
42
-1.68968892547048
0
ELLIPSE
5
E3
100
AcDbEntity
8
1
62
256
6
ByLayer
370
18
48
1
60
0
100
AcDbEllipse
10
12.928203
20
0
30
0
11
7.49393430382504
21
15.7933993221994
31
0
210
0
220
0
230
-1
40
0.341999
41
-2.98012608239207
42
-2.05401345238923
0
ELLIPSE
5
E4
100
AcDbEntity
8
1
62
256
6
ByLayer
370
18
48
1
60
0
100
AcDbEllipse
10
-0.928203
20
0
30
0
11
7.49393430382439
21
15.7933993221987
31
0
210
0
220
0
230
-1
40
0.341999
41
0.16146657119773
42
1.0875792012006
0
ELLIPSE
5
E5
100
AcDbEntity
8
1
62
256
6
ByLayer
370
18
48
1
60
0
100
AcDbEllipse
10
17.468486
20
52.077943
30
0
11
0.459413454324991
21
-36.6485921670707
31
0
210
-8.32884498679454E-16
220
1.69984678171537E-16
230
1
40
0.109136
41
-0.289917338277146
42
-0.114361208820267
0
ELLIPSE
5
E6
100
AcDbEntity
8
1
62
256
6
ByLayer
370
18
48
1
60
0
100
AcDbEllipse
10
12.928203
20
0
30
0
11
7.49393430382533
21
-15.7933993221998
31
0
210
0
220
0
230
-1
40
0.341999
41
2.05401345238925
42
2.98012608239208
0
ELLIPSE
5
E7
100
AcDbEntity
8
1
62
256
6
ByLayer
370
18
48
1
60
0
100
AcDbEllipse
10
12.449629
20
2.465194
30
0
11
0.0229844865254265
21
4.76712835586919
31
0
210
0
220
0
230
-1
40
0.083402
41
2.10307868530305
42
3.11136320689664
0
ELLIPSE
5
E8
100
AcDbEntity
8
1
62
256
6
ByLayer
370
18
48
1
60
0
100
AcDbEllipse
10
-0.928203
20
0
30
0
11
7.49393430382567
21
-15.7933993222002
31
0
210
0
220
0
230
-1
40
0.341999
41
-1.08757920120052
42
-0.161466571197717
0
ELLIPSE
5
E9
100
AcDbEntity
8
1
62
256
6
ByLayer
370
18
48
1
60
0
100
AcDbEllipse
10
30.335072
20
10.335365
30
0
11
1.34858002398503
21
-1.38417132552682
31
0
210
0
220
0
230
1
40
0.987534
41
-1.55263789438061
42
0.246129575276536
0
ELLIPSE
5
EA
100
AcDbEntity
8
1
62
256
6
ByLayer
370
18
48
1
60
0
100
AcDbEllipse
10
29.930587
20
10.760729
30
0
11
-1.41836384932063
21
1.45579686372046
31
0
210
0
220
0
230
1
40
0.987534
41
0.246129575276526
42
1.81692590207142
0
ELLIPSE
5
EB
100
AcDbEntity
8
1
62
256
6
ByLayer
370
18
48
1
60
0
100
AcDbEllipse
10
33.277364
20
16.577219
30
0
11
-1.3956765067122
21
1.43251076387287
31
0
210
0
220
0
230
1
40
0.987534
41
-0.143631157520948
42
0.246129575276529
0
ELLIPSE
5
EC
100
AcDbEntity
8
1
62
256
6
ByLayer
370
18
48
1
60
0
100
AcDbEllipse
10
11.827668
20
2.250218
30
0
11
0.468292672479185
21
-1.35484538408637
31
0
210
0
220
0
230
1
40
0.082407
41
0
42
1.32045052866593
0
ELLIPSE
5
ED
100
AcDbEntity
8
1
62
256
6
ByLayer
370
18
48
1
60
0
100
AcDbEllipse
10
12.180888
20
2.372306
30
0
11
-0.539020811219241
21
1.55947316907748
31
0
210
0
220
0
230
1
40
0.082407
41
3.09388249994177
42
-1.11428336161481
0
ELLIPSE
5
EE
100
AcDbEntity
8
1
62
256
6
ByLayer
370
18
48
1
60
0
100
AcDbEllipse
10
14.595347
20
3.206846
30
0
11
0.539020811219241
21
-1.55947316907748
31
0
210
0
220
0
230
1
40
0.082407
41
0
42
3.14159209943104
0
ELLIPSE
5
EF
100
AcDbEntity
8
1
62
256
6
ByLayer
370
18
48
1
60
0
100
AcDbEllipse
10
14.736635
20
3.255682
30
0
11
-0.490018919290219
21
1.41770288097953
31
0
210
0
220
0
230
1
40
0.082407
41
-3.05883381170735
42
-0.0828598414699831
0
ELLIPSE
5
F0
100
AcDbEntity
8
1
62
256
6
ByLayer
370
18
48
1
60
0
100
AcDbEllipse
10
24.9632
20
15.045733
30
0
11
0.90370053809615
21
-0.927550719607682
31
0
210
0
220
0
230
1
40
0.987534
41
0.184520620402689
42
0.804690360736425
0
ELLIPSE
5
F1
100
AcDbEntity
8
1
62
256
6
ByLayer
370
18
48
1
60
0
100
AcDbEllipse
10
24.9632
20
15.045733
30
0
11
0.90370053809615
21
-0.927550719607682
31
0
210
0
220
0
230
1
40
0.987534
41
0.804690360736425
42
2.88118484663025
0
ELLIPSE
5
F2
100
AcDbEntity
8
1
62
256
6
ByLayer
370
18
48
1
60
0
100
AcDbEllipse
10
25.06467
20
15.144593
30
0
11
-0.903700538096151
21
0.92755071960768
31
0
210
0
220
0
230
1
40
0.987534
41
-0.423856761591204
42
-0.20356790284854
0
ELLIPSE
5
F3
100
AcDbEntity
8
1
62
256
6
ByLayer
370
18
48
1
60
0
100
AcDbEllipse
10
25.06467
20
15.144593
30
0
11
-0.903700538096151
21
0.92755071960768
31
0
210
0
220
0
230
1
40
0.987534
41
-3.04015723248268
42
-2.95851502728316
0
ELLIPSE
5
F4
100
AcDbEntity
8
1
62
256
6
ByLayer
370
18
48
1
60
0
100
AcDbEllipse
10
36.711024
20
17.019098
30
0
11
1.32589268137659
21
-1.36088522567922
31
0
210
0
220
0
230
1
40
0.987534
41
-1.3578566314078
42
0.423977161123656
0
ELLIPSE
5
F5
100
AcDbEntity
8
1
62
256
6
ByLayer
370
18
48
1
60
0
100
AcDbEllipse
10
36.181127
20
16.502826
30
0
11
-1.32589268137659
21
1.36088522567922
31
0
210
0
220
0
230
1
40
0.987534
41
3.05967268255673
42
3.14159001299819
0
ELLIPSE
5
F6
100
AcDbEntity
8
1
62
256
6
ByLayer
370
18
48
1
60
0
100
AcDbEllipse
10
35.657425
20
15.657637
30
0
11
1.58056898263113
21
-1.62228286409751
31
0
210
0
220
0
230
1
40
0.987534
41
0.61582301400401
42
0.74817179488405
0
ELLIPSE
5
F7
100
AcDbEntity
8
1
62
256
6
ByLayer
370
18
48
1
60
0
100
AcDbEllipse
10
38.945824
20
13.74105
30
0
11
0.837405904027322
21
-0.85950645832372
31
0
210
0
220
0
230
1
40
0.987534
41
-0.233835969021917
42
4.61459183800666E-06
0
ELLIPSE
5
F8
100
AcDbEntity
8
1
62
256
6
ByLayer
370
18
48
1
60
0
100
AcDbEllipse
10
29.066695
20
12.016898
30
0
11
0.553909113601405
21
-0.568527709412044
31
0
210
0
220
0
230
1
40
0.987534
41
-2.25998540663936
42
-0.713801513320355
0
ELLIPSE
5
F9
100
AcDbEntity
8
1
62
256
6
ByLayer
370
18
48
1
60
0
100
AcDbEllipse
10
36.370531
20
16.352407
30
0
11
-1.32938187264337
21
1.36446650258891
31
0
210
0
220
0
230
1
40
0.987534
41
-2.94097144768561
42
-2.61228230410851
0
ELLIPSE
5
FA
100
AcDbEntity
8
1
62
256
6
ByLayer
370
18
48
1
60
0
100
AcDbEllipse
10
36.370531
20
16.352407
30
0
11
-1.32938187264337
21
1.36446650258891
31
0
210
0
220
0
230
1
40
0.987534
41
-0.715644076794147
42
-0.200619193829608
0
ELLIPSE
5
FB
100
AcDbEntity
8
1
62
256
6
ByLayer
370
18
48
1
60
0
100
AcDbEllipse
10
35.778625
20
15.77572
30
0
11
1.57013607005123
21
-1.61157460935698
31
0
210
0
220
0
230
1
40
0.987534
41
2.37804372805657
42
2.55407115406888
0
ELLIPSE
5
FC
100
AcDbEntity
8
1
62
256
6
ByLayer
370
18
48
1
60
0
100
AcDbEllipse
10
35.778625
20
15.77572
30
0
11
1.57013607005123
21
-1.61157460935698
31
0
210
0
220
0
230
1
40
0.987534
41
0.602411340147379
42
0.741001413981993
0
ELLIPSE
5
FD
100
AcDbEntity
8
1
62
256
6
ByLayer
370
18
48
1
60
0
100
AcDbEllipse
10
36.907475
20
16.875544
30
0
11
-1.32938187264337
21
1.36446650258891
31
0
210
0
220
0
230
1
40
0.987534
41
0
42
6.28318530717959
0
ELLIPSE
5
FE
100
AcDbEntity
8
1
62
256
6
ByLayer
370
18
48
1
60
0
100
AcDbEllipse
10
29.603639
20
12.540035
30
0
11
-0.553909113601405
21
0.568527709412044
31
0
210
0
220
0
230
1
40
0.987534
41
0.24612957527653
42
2.42779114026944
0
ELLIPSE
5
FF
100
AcDbEntity
8
1
62
256
6
ByLayer
370
18
48
1
60
0
100
AcDbEllipse
10
35.81374
20
20.366345
30
0
11
-0.837405904027322
21
0.85950645832372
31
0
210
0
220
0
230
1
40
0.987534
41
-0.713801513320364
42
-0.233835969021918
0
ELLIPSE
5
100
100
AcDbEntity
8
1
62
256
6
ByLayer
370
18
48
1
60
0
100
AcDbEllipse
10
44.211311
20
21.211053
30
0
11
-0.553909113601405
21
0.568527709412044
31
0
210
0
220
0
230
1
40
0.987534
41
-2.89546307831325
42
-0.713801513320366
0
ELLIPSE
5
101
100
AcDbEntity
8
1
62
256
6
ByLayer
370
18
48
1
60
0
100
AcDbEllipse
10
38.001209
20
13.384744
30
0
11
-0.837405904027322
21
0.85950645832372
31
0
210
0
220
0
230
1
40
0.987534
41
2.42779114026945
42
2.90775668456787
0
ELLIPSE
5
102
100
AcDbEntity
8
1
62
256
6
ByLayer
370
18
48
1
60
0
100
AcDbEllipse
10
39.482768
20
14.264187
30
0
11
-0.837405904027322
21
0.85950645832372
31
0
210
0
220
0
230
1
40
0.987534
41
2.90775668456788
42
-2.89546307831326
0
ELLIPSE
5
103
100
AcDbEntity
8
1
62
256
6
ByLayer
370
18
48
1
60
0
100
AcDbEllipse
10
34.332181
20
19.486901
30
0
11
-0.837405904027322
21
0.85950645832372
31
0
210
0
220
0
230
1
40
0.987534
41
-0.233835969021918
42
0.24612957527652
0
ELLIPSE
5
104
100
AcDbEntity
8
1
62
256
6
ByLayer
370
18
48
1
60
0
100
AcDbEllipse
10
36.791061
20
16.42717
30
0
11
1.32589268137659
21
-1.36088522567922
31
0
210
0
220
0
230
1
40
0.987534
41
1.42963880598497
42
-2.71761549246614
0
ELLIPSE
5
105
100
AcDbEntity
8
1
62
256
6
ByLayer
370
18
48
1
60
0
100
AcDbEllipse
10
36.751042
20
16.723134
30
0
11
1.23866289970708
21
-1.27135330293717
31
0
210
0
220
0
230
1
40
0.987534
41
0.572617740167092
42
1.28099822694154
0
ELLIPSE
5
106
100
AcDbEntity
8
1
62
256
6
ByLayer
370
18
48
1
60
0
100
AcDbEllipse
10
36.784866
20
16.756088
30
0
11
-1.02931142370025
21
1.05647668835624
31
0
210
0
220
0
230
1
40
0.987534
41
-2.55387262478585
42
-1.8756967152851
0
ELLIPSE
5
107
100
AcDbEntity
8
1
62
256
6
ByLayer
370
18
48
1
60
0
100
AcDbEllipse
10
36.744847
20
17.052052
30
0
11
-1.11654120536976
21
1.14600861109829
31
0
210
0
220
0
230
1
40
0.987534
41
1.44365404764603
42
-2.73163073412719
0
ELLIPSE
5
108
100
AcDbEntity
8
1
62
256
6
ByLayer
370
18
48
1
60
0
100
AcDbEllipse
10
36.824884
20
16.460124
30
0
11
-1.11654120536976
21
1.14600861109829
31
0
210
0
220
0
230
1
40
0.987534
41
-1.69793860594376
42
0.409961919462597
0
ELLIPSE
5
109
100
AcDbEntity
8
1
62
256
6
ByLayer
370
18
48
1
60
0
100
AcDbEllipse
10
36.784866
20
16.756088
30
0
11
-1.02931142370025
21
1.05647668835624
31
0
210
0
220
0
230
1
40
0.987534
41
0.587720028803932
42
1.26589593830469
0
ELLIPSE
5
10A
100
AcDbEntity
8
1
62
256
6
ByLayer
370
18
48
1
60
0
100
AcDbEllipse
10
25.435034
20
15.505435
30
0
11
-0.903700538096151
21
0.92755071960768
31
0
210
0
220
0
230
1
40
0.987534
41
-0.864119924891989
42
-0.423856761591208
0
ELLIPSE
5
10B
100
AcDbEntity
8
1
62
256
6
ByLayer
370
18
48
1
60
0
100
AcDbEllipse
10
25.435034
20
15.505435
30
0
11
-0.903700538096151
21
0.92755071960768
31
0
210
0
220
0
230
1
40
0.987534
41
-2.95851502728316
42
-2.51825186398441
0
ELLIPSE
5
10C
100
AcDbEntity
8
1
62
256
6
ByLayer
370
18
48
1
60
0
100
AcDbEllipse
10
25.435034
20
15.505435
30
0
11
-0.903700538096151
21
0.92755071960768
31
0
210
0
220
0
230
1
40
0.987534
41
1.23027517750322
42
1.67053834080198
0
ELLIPSE
5
10D
100
AcDbEntity
8
1
62
256
6
ByLayer
370
18
48
1
60
0
100
AcDbEllipse
10
25.459274
20
15.529051
30
0
11
1.1635691698059
21
-1.19427772284002
31
0
210
0
220
0
230
1
40
0.987534
41
0
42
6.28318530717959
0
ELLIPSE
5
10E
100
AcDbEntity
8
1
62
256
6
ByLayer
370
18
48
1
60
0
100
AcDbEllipse
10
25.06467
20
15.144593
30
0
11
-0.903700538096151
21
0.92755071960768
31
0
210
0
220
0
230
1
40
0.987534
41
-2.51825186398441
42
-1.91131747608657
0
ELLIPSE
5
10F
100
AcDbEntity
8
1
62
256
6
ByLayer
370
18
48
1
60
0
100
AcDbEllipse
10
25.373025
20
15.44502
30
0
11
2.0935147600683
21
-2.1487661458093
31
0
210
0
220
0
230
1
40
0.987534
41
0
42
6.28318530717959
0
ELLIPSE
5
110
100
AcDbEntity
8
1
62
256
6
ByLayer
370
18
48
1
60
0
100
AcDbEllipse
10
25.459274
20
15.529051
30
0
11
1.55966849625089
21
-1.60083077862793
31
0
210
0
220
0
230
1
40
0.987534
41
0
42
6.28318530717959
0
ELLIPSE
5
111
100
AcDbEntity
8
1
62
256
6
ByLayer
370
18
48
1
60
0
100
AcDbEllipse
10
25.435034
20
15.505435
30
0
11
-0.903700538096151
21
0.92755071960768
31
0
210
0
220
0
230
1
40
0.987534
41
2.27747272869982
42
2.71773589199858
0
ELLIPSE
5
112
100
AcDbEntity
8
1
62
256
6
ByLayer
370
18
48
1
60
0
100
AcDbEllipse
10
25.435034
20
15.505435
30
0
11
-0.903700538096151
21
0.92755071960768
31
0
210
0
220
0
230
1
40
0.987534
41
0.183077626306626
42
0.623340789605384
0
ELLIPSE
5
113
100
AcDbEntity
8
1
62
256
6
ByLayer
370
18
48
1
60
0
100
AcDbEllipse
10
25.435034
20
15.505435
30
0
11
-0.903700538096151
21
0.92755071960768
31
0
210
0
220
0
230
1
40
0.987534
41
-1.91131747608657
42
-1.4710543127878
0
ELLIPSE
5
114
100
AcDbEntity
8
1
62
256
6
ByLayer
370
18
48
1
60
0
100
AcDbEllipse
10
25.06467
20
15.144593
30
0
11
-0.903700538096151
21
0.92755071960768
31
0
210
0
220
0
230
1
40
0.987534
41
-1.4710543127878
42
-0.864119924889987
0
POINT
5
6C
100
AcDbEntity
8
80
62
256
6
ByLayer
370
18
48
1
60
0
100
AcDbPoint
10
0
20
0
30
0
39
0
210
0
220
0
230
1
50
360
0
POINT
5
6E
100
AcDbEntity
8
81
62
256
6
ByLayer
370
18
48
1
60
0
100
AcDbPoint
10
45
20
22
30
0
39
0
210
0
220
0
230
1
50
360
0
POINT
5
70
100
AcDbEntity
8
1
62
256
6
ByLayer
370
18
48
1
60
0
100
AcDbPoint
10
0
20
0
30
0
39
0
210
0
220
0
230
1
50
360
0
SPLINE
5
115
100
AcDbEntity
8
1
62
256
6
ByLayer
370
18
48
1
60
0
100
AcDbSpline
70
4
71
3
72
10
73
6
40
0
40
0
40
0
40
0
40
0.2300554113283
40
0.716717564331396
40
1
40
1
40
1
40
1
41
1
10
12.0666447204636
20
0.819124507207164
30
0
41
1
10
12.0761191049001
20
0.829892769856883
30
0
41
1
10
12.109783826294
20
0.861728962651654
30
0
41
1
10
12.174551428382
20
0.893450037174148
30
0
41
1
10
12.225475696383
20
0.899338003550326
30
0
41
1
10
12.2450714276816
20
0.899416305867646
30
0
0
SPLINE
5
116
100
AcDbEntity
8
SK1
62
256
6
ByLayer
370
18
48
1
60
0
100
AcDbSpline
70
4
71
2
72
6
73
3
40
0
40
0
40
0
40
1
40
1
40
1
41
1
10
-18
20
-10.607454619207
30
0
41
1
10
-9.84999999997146
20
-10.8121484207173
30
0
41
1
10
-1.69999999999999
20
-11.0168420288686
30
0
0
SPLINE
5
117
100
AcDbEntity
8
SK1
62
256
6
ByLayer
370
18
48
1
60
0
100
AcDbSpline
70
4
71
2
72
6
73
3
40
0
40
0
40
0
40
1
40
1
40
1
41
1
10
-1.69999999999999
20
11.0168421588455
30
0
41
1
10
-9.84999999997149
20
10.8121485451078
30
0
41
1
10
-18
20
10.6074547380105
30
0
0
SPLINE
5
118
100
AcDbEntity
8
SK1
62
256
6
ByLayer
370
18
48
1
60
0
100
AcDbSpline
70
4
71
3
72
13
73
9
40
0
40
0
40
0
40
0
40
0.239456136642675
40
0.368359723042978
40
0.499998985161625
40
0.631638416257728
40
0.760542468443642
40
1
40
1
40
1
40
1
41
1
10
-1.69999999999999
20
-11.0200974665178
30
0
41
1
10
-1.69909198644035
20
-10.9940399940815
30
0
41
1
10
-1.69103284108786
20
-10.9566674150535
30
0
41
1
10
-1.66563592205242
20
-10.9104482477181
30
0
41
1
10
-1.63886378681491
20
-10.8791666984849
30
0
41
1
10
-1.60627712751966
20
-10.8539993323472
30
0
41
1
10
-1.5588406423482
20
-10.8309555342783
30
0
41
1
10
-1.52111030873553
20
-10.8247832816898
30
0
41
1
10
-1.49503997793928
20
-10.8251849228641
30
0
0
SPLINE
5
119
100
AcDbEntity
8
SK1
62
256
6
ByLayer
370
18
48
1
60
0
100
AcDbSpline
70
4
71
3
72
13
73
9
40
0
40
0
40
0
40
0
40
0.239457531496538
40
0.368361583660986
40
0.500001014748407
40
0.631640276873473
40
0.760543863293936
40
1
40
1
40
1
40
1
41
1
10
-1.49503997793931
20
10.8251848163966
30
0
41
1
10
-1.52111030873687
20
10.824783175221
30
0
41
1
10
-1.55884064235073
20
10.8309554278117
30
0
41
1
10
-1.60627712752171
20
10.8539992258967
30
0
41
1
10
-1.63886378681679
20
10.8791665920529
30
0
41
1
10
-1.66563592205384
20
10.9104481413094
30
0
41
1
10
-1.69103284108891
20
10.9566673086802
30
0
41
1
10
-1.69909198644137
20
10.9940398877346
30
0
41
1
10
-1.69999999999999
20
11.0200973601888
30
0
0
SPLINE
5
11A
100
AcDbEntity
8
SK1
62
256
6
ByLayer
370
18
48
1
60
0
100
AcDbSpline
70
4
71
2
72
6
73
3
40
0
40
0
40
0
40
1
40
1
40
1
41
1
10
-19
20
-10.0324637535503
30
0
41
1
10
-18.4999999996377
20
-10.3211141428551
30
0
41
1
10
-18
20
-10.6097644106826
30
0
0
SPLINE
5
11B
100
AcDbEntity
8
SK1
62
256
6
ByLayer
370
18
48
1
60
0
100
AcDbSpline
70
4
71
2
72
6
73
3
40
0
40
0
40
0
40
1
40
1
40
1
41
1
10
-18
20
10.6097643575036
30
0
41
1
10
-18.499999999638
20
10.3211140865705
30
0
41
1
10
-19
20
10.0324636942008
30
0
0
SPLINE
5
11C
100
AcDbEntity
8
SK1
62
256
6
ByLayer
370
18
48
1
60
0
100
AcDbSpline
70
4
71
2
72
6
73
3
40
0
40
0
40
0
40
1
40
1
40
1
41
1
10
-1.49503997793928
20
-10.7285973110991
30
0
41
1
10
-0.945008433407281
20
-10.7423064506887
30
0
41
1
10
-0.394976888875277
20
-10.7560155899517
30
0
0
SPLINE
5
11D
100
AcDbEntity
8
SK1
62
256
6
ByLayer
370
18
48
1
60
0
100
AcDbSpline
70
4
71
2
72
6
73
3
40
0
40
0
40
0
40
1
40
1
40
1
41
1
10
-0.394976888875306
20
10.7560155133454
30
0
41
1
10
-0.94500843340731
20
10.7423063740663
30
0
41
1
10
-1.49503997793928
20
10.7285972344608
30
0
0
SPLINE
5
11E
100
AcDbEntity
8
SK1
62
256
6
ByLayer
370
18
48
1
60
0
100
AcDbSpline
70
4
71
3
72
87
73
83
40
0
40
0
40
0
40
0
40
0.0205878931269496
40
0.0422076488692594
40
0.0638274046115692
40
0.074637282482724
40
0.0854471603538789
40
0.0962570382250338
40
0.107066916096189
40
0.117876793967344
40
0.128686671838498
40
0.139496549709653
40
0.150306427580808
40
0.161116305451963
40
0.171926183323118
40
0.182736061194273
40
0.193545939065428
40
0.204355816936583
40
0.215165694807737
40
0.225975572678892
40
0.236785450550047
40
0.247595328421202
40
0.258405206292357
40
0.280024962034667
40
0.301644717776976
40
0.312454595648131
40
0.323264473519286
40
0.334074351390441
40
0.344884229261596
40
0.355694107132751
40
0.366503985003906
40
0.377313862875061
40
0.388123740746215
40
0.409743496488525
40
0.431363252230835
40
0.44217313010199
40
0.452983007973145
40
0.4637928858443
40
0.474602763715455
40
0.485412641586609
40
0.496222519457764
40
0.507032397328919
40
0.517842275200074
40
0.539462030942384
40
0.561081786684693
40
0.571891664555848
40
0.582701542427003
40
0.593511420298158
40
0.604321298169313
40
0.615131176040468
40
0.625941053911623
40
0.636750931782778
40
0.647560809653932
40
0.669180565396242
40
0.690800321138552
40
0.701610199009707
40
0.712420076880862
40
0.723229954752017
40
0.734039832623172
40
0.744849710494326
40
0.755659588365481
40
0.766469466236636
40
0.777279344107791
40
0.788089221978946
40
0.798899099850101
40
0.809708977721256
40
0.820518855592411
40
0.831328733463565
40
0.84213861133472
40
0.852948489205875
40
0.86375836707703
40
0.874568244948185
40
0.88537812281934
40
0.896188000690495
40
0.90699787856165
40
0.928617634303959
40
0.939427512175114
40
0.950237390046269
40
0.961047267917424
40
0.971857145788579
40
0.993476901530889
40
1
40
1
40
1
40
1
41
1
10
-0.394976888875306
20
4.64126507959355
30
0
41
1
10
-0.394976888875306
20
4.70977032131108
30
0
41
1
10
-0.394976888875306
20
4.84920429303574
30
0
41
1
10
-0.394976888875306
20
5.05691311008317
30
0
41
1
10
-0.394976888875306
20
5.22996081233961
30
0
41
1
10
-0.394976888875306
20
5.36691605746566
30
0
41
1
10
-0.394976888875306
20
5.46873578487436
30
0
41
1
10
-0.394976888875306
20
5.56972484101729
30
0
41
1
10
-0.394976888875306
20
5.66988185892194
30
0
41
1
10
-0.394976888875306
20
5.76920478634827
30
0
41
1
10
-0.394976888875306
20
5.86769175097615
30
0
41
1
10
-0.394976888875306
20
5.96534098944568
30
0
41
1
10
-0.394976888875306
20
6.06215030170887
30
0
41
1
10
-0.394976888875306
20
6.15811803500972
30
0
41
1
10
-0.394976888875306
20
6.25324209742863
30
0
41
1
10
-0.394976888875306
20
6.34752037917039
30
0
41
1
10
-0.394976888875306
20
6.44095110045456
30
0
41
1
10
-0.394976888875306
20
6.53353199667353
30
0
41
1
10
-0.394976888875306
20
6.62526094744774
30
0
41
1
10
-0.394976888875306
20
6.71613593458255
30
0
41
1
10
-0.394976888875306
20
6.80615439018041
30
0
41
1
10
-0.394976888875306
20
6.89531424839751
30
0
41
1
10
-0.394976888875306
20
7.01311656207406
30
0
41
1
10
-0.394976888875306
20
7.1580553064563
30
0
41
1
10
-0.394976888875306
20
7.30009989843438
30
0
41
1
10
-0.394976888875306
20
7.41210658285706
30
0
41
1
10
-0.394976888875306
20
7.49518686307914
30
0
41
1
10
-0.394976888875306
20
7.57738778439318
30
0
41
1
10
-0.394976888875306
20
7.65870659316923
30
0
41
1
10
-0.394976888875306
20
7.73914055621267
30
0
41
1
10
-0.394976888875306
20
7.81868614170457
30
0
41
1
10
-0.394976888875306
20
7.89734055913431
30
0
41
1
10
-0.394976888875306
20
8.00107949685972
30
0
41
1
10
-0.394976888875277
20
8.12837717774204
30
0
41
1
10
-0.394976888875306
20
8.25266066821669
30
0
41
1
10
-0.394976888875306
20
8.35036329562496
30
0
41
1
10
-0.394976888875306
20
8.42268348862098
30
0
41
1
10
-0.394976888875306
20
8.494083889178
30
0
41
1
10
-0.394976888875306
20
8.56456065460728
30
0
41
1
10
-0.394976888875277
20
8.63410995408893
30
0
41
1
10
-0.394976888875306
20
8.70272705940039
30
0
41
1
10
-0.394976888875277
20
8.77040798541609
30
0
41
1
10
-0.394976888875306
20
8.85944472740889
30
0
41
1
10
-0.394976888875306
20
8.96826610167739
30
0
41
1
10
-0.394976888875277
20
9.07390699150645
30
0
41
1
10
-0.394976888875277
20
9.15657415078076
30
0
41
1
10
-0.394976888875277
20
9.21756976623391
30
0
41
1
10
-0.394976888875306
20
9.27758985219697
30
0
41
1
10
-0.394976888875277
20
9.33662897444754
30
0
41
1
10
-0.394976888875306
20
9.39468182193772
30
0
41
1
10
-0.394976888875306
20
9.45174201576444
30
0
41
1
10
-0.394976888875306
20
9.50780390566945
30
0
41
1
10
-0.394976888875306
20
9.58125529483195
30
0
41
1
10
-0.394976888875306
20
9.67044909356338
30
0
41
1
10
-0.394976888875306
20
9.75623204290733
30
0
41
1
10
-0.394976888875277
20
9.8228521774133
30
0
41
1
10
-0.394976888875306
20
9.87174305179948
30
0
41
1
10
-0.394976888875306
20
9.9195810672756
30
0
41
1
10
-0.394976888875306
20
9.96635850688563
30
0
41
1
10
-0.394976888875306
20
10.0120677716559
30
0
41
1
10
-0.394976888875306
20
10.0567002250884
30
0
41
1
10
-0.394976888875306
20
10.1002477857307
30
0
41
1
10
-0.394976888875306
20
10.1427016339893
30
0
41
1
10
-0.394976888875306
20
10.1840526544675
30
0
41
1
10
-0.394976888875306
20
10.2242918912355
30
0
41
1
10
-0.394976888875277
20
10.2634098071932
30
0
41
1
10
-0.394976888875277
20
10.3013963735904
30
0
41
1
10
-0.394976888875306
20
10.3382419186448
30
0
41
1
10
-0.394976888875306
20
10.3739354752827
30
0
41
1
10
-0.394976888875277
20
10.4084665953504
30
0
41
1
10
-0.394976888875306
20
10.4418240333466
30
0
41
1
10
-0.394976888875306
20
10.4739962130972
30
0
41
1
10
-0.394976888875306
20
10.5049713249704
30
0
41
1
10
-0.394976888875306
20
10.5347371860945
30
0
41
1
10
-0.394976888875306
20
10.5728196102718
30
0
41
1
10
-0.394976888875306
20
10.6083610391774
30
0
41
1
10
-0.394976888875306
20
10.6414451731179
30
0
41
1
10
-0.394976888875277
20
10.6649641398451
30
0
41
1
10
-0.394976888875277
20
10.6871899043464
30
0
41
1
10
-0.394976888875306
20
10.7150986230281
30
0
41
1
10
-0.394976888875277
20
10.7378231841744
30
0
41
1
10
-0.394976888875277
20
10.7527120189839
30
0
41
1
10
-0.394976888875249
20
10.7560800796157
30
0
0
SPLINE
5
11F
100
AcDbEntity
8
SK1
62
256
6
ByLayer
370
18
48
1
60
0
100
AcDbSpline
70
4
71
3
72
87
73
83
40
0
40
0
40
0
40
0
40
0.0065232241141267
40
0.0281429409710642
40
0.038952799399533
40
0.0497626578280018
40
0.0605725162564706
40
0.0713823746849393
40
0.0930020915418769
40
0.103811949970346
40
0.114621808398814
40
0.125431666827283
40
0.136241525255752
40
0.147051383684221
40
0.15786124211269
40
0.168671100541158
40
0.179480958969627
40
0.190290817398096
40
0.201100675826565
40
0.211910534255033
40
0.222720392683502
40
0.233530251111971
40
0.24434010954044
40
0.255149967968908
40
0.265959826397377
40
0.276769684825846
40
0.287579543254315
40
0.298389401682783
40
0.309199260111252
40
0.33081897696819
40
0.352438693825127
40
0.363248552253596
40
0.374058410682065
40
0.384868269110534
40
0.395678127539002
40
0.406487985967471
40
0.41729784439594
40
0.428107702824409
40
0.438917561252878
40
0.460537278109815
40
0.482156994966753
40
0.492966853395221
40
0.50377671182369
40
0.514586570252159
40
0.525396428680628
40
0.536206287109096
40
0.547016145537565
40
0.557826003966034
40
0.568635862394503
40
0.59025557925144
40
0.611875296108378
40
0.622685154536846
40
0.633495012965315
40
0.644304871393784
40
0.655114729822253
40
0.665924588250722
40
0.67673444667919
40
0.687544305107659
40
0.698354163536128
40
0.719973880393066
40
0.741593597250003
40
0.752403455678472
40
0.763213314106941
40
0.774023172535409
40
0.784833030963878
40
0.795642889392347
40
0.806452747820816
40
0.817262606249284
40
0.828072464677753
40
0.838882323106222
40
0.849692181534691
40
0.860502039963159
40
0.871311898391628
40
0.882121756820097
40
0.892931615248566
40
0.903741473677035
40
0.914551332105503
40
0.925361190533972
40
0.936171048962441
40
0.957790765819379
40
0.979410482676316
40
1
40
1
40
1
40
1
41
1
10
-0.394976888875277
20
-10.7560803013312
30
0
41
1
10
-0.394976888875277
20
-10.752712173318
30
0
41
1
10
-0.394976888875277
20
-10.7378232718423
30
0
41
1
10
-0.394976888875277
20
-10.7150986110188
30
0
41
1
10
-0.394976888875277
20
-10.687189908093
30
0
41
1
10
-0.394976888875306
20
-10.664964154205
30
0
41
1
10
-0.394976888875277
20
-10.6414451810514
30
0
41
1
10
-0.394976888875306
20
-10.6083610274959
30
0
41
1
10
-0.394976888875277
20
-10.5728196085917
30
0
41
1
10
-0.394976888875277
20
-10.5347371933948
30
0
41
1
10
-0.394976888875277
20
-10.5049713318296
30
0
41
1
10
-0.394976888875306
20
-10.4739962096758
30
0
41
1
10
-0.394976888875277
20
-10.4418240218233
30
0
41
1
10
-0.394976888875277
20
-10.4084665881748
30
0
41
1
10
-0.394976888875277
20
-10.373935478284
30
0
41
1
10
-0.394976888875277
20
-10.3382419231241
30
0
41
1
10
-0.394976888875277
20
-10.3013963717051
30
0
41
1
10
-0.394976888875277
20
-10.2634097977789
30
0
41
1
10
-0.394976888875306
20
-10.2242918789209
30
0
41
1
10
-0.394976888875277
20
-10.1840526482538
30
0
41
1
10
-0.394976888875306
20
-10.1427016347534
30
0
41
1
10
-0.394976888875277
20
-10.1002477853245
30
0
41
1
10
-0.394976888875277
20
-10.0567002175973
30
0
41
1
10
-0.394976888875277
20
-10.0120677589968
30
0
41
1
10
-0.394976888875306
20
-9.9663584938545
30
0
41
1
10
-0.394976888875277
20
-9.91958105894813
30
0
41
1
10
-0.394976888875306
20
-9.87174304842168
30
0
41
1
10
-0.394976888875277
20
-9.8228521720736
30
0
41
1
10
-0.394976888875306
20
-9.75623202994143
30
0
41
1
10
-0.394976888875277
20
-9.67044907777677
30
0
41
1
10
-0.394976888875277
20
-9.58125528659923
30
0
41
1
10
-0.394976888875277
20
-9.50780389645979
30
0
41
1
10
-0.394976888875277
20
-9.45174200258421
30
0
41
1
10
-0.394976888875306
20
-9.39468180573056
30
0
41
1
10
-0.394976888875277
20
-9.33662895751223
30
0
41
1
10
-0.394976888875277
20
-9.27758983691163
30
0
41
1
10
-0.394976888875277
20
-9.21756975316299
30
0
41
1
10
-0.394976888875277
20
-9.156574137538
30
0
41
1
10
-0.394976888875277
20
-9.07390697555735
30
0
41
1
10
-0.394976888875306
20
-8.96826608195681
30
0
41
1
10
-0.394976888875306
20
-8.85944470922473
30
0
41
1
10
-0.394976888875277
20
-8.77040796817133
30
0
41
1
10
-0.394976888875277
20
-8.70272704218718
30
0
41
1
10
-0.394976888875306
20
-8.63410993550619
30
0
41
1
10
-0.394976888875306
20
-8.56456063385824
30
0
41
1
10
-0.394976888875306
20
-8.49408386680085
30
0
41
1
10
-0.394976888875277
20
-8.42268346582151
30
0
41
1
10
-0.394976888875277
20
-8.35036327427801
30
0
41
1
10
-0.394976888875306
20
-8.25266064944725
30
0
41
1
10
-0.394976888875306
20
-8.12837715497497
30
0
41
1
10
-0.394976888875277
20
-8.00107946944797
30
0
41
1
10
-0.394976888875306
20
-7.89734053346649
30
0
41
1
10
-0.394976888875306
20
-7.81868611994122
30
0
41
1
10
-0.394976888875277
20
-7.73914053534185
30
0
41
1
10
-0.394976888875277
20
-7.65870656932981
30
0
41
1
10
-0.394976888875277
20
-7.57738775597255
30
0
41
1
10
-0.394976888875306
20
-7.49518683136168
30
0
41
1
10
-0.394976888875277
20
-7.41210655371302
30
0
41
1
10
-0.394976888875306
20
-7.30009987737762
30
0
41
1
10
-0.394976888875306
20
-7.15805527924184
30
0
41
1
10
-0.394976888875306
20
-7.01311652640493
30
0
41
1
10
-0.394976888875306
20
-6.89531421629039
30
0
41
1
10
-0.394976888875306
20
-6.80615436611961
30
0
41
1
10
-0.394976888875277
20
-6.7161359116314
30
0
41
1
10
-0.394976888875306
20
-6.62526091746003
30
0
41
1
10
-0.394976888875277
20
-6.53353195984096
30
0
41
1
10
-0.394976888875306
20
-6.44095106217856
30
0
41
1
10
-0.394976888875277
20
-6.34752034717766
30
0
41
1
10
-0.394976888875277
20
-6.25324207373163
30
0
41
1
10
-0.394976888875306
20
-6.15811800993771
30
0
41
1
10
-0.394976888875306
20
-6.06215026481468
30
0
41
1
10
-0.394976888875306
20
-5.96534094682289
30
0
41
1
10
-0.394976888875306
20
-5.8676917140148
30
0
41
1
10
-0.394976888875306
20
-5.76920475793781
30
0
41
1
10
-0.394976888875306
20
-5.66988183380954
30
0
41
1
10
-0.394976888875306
20
-5.56972480779478
30
0
41
1
10
-0.394976888875277
20
-5.46873573922787
30
0
41
1
10
-0.394976888875306
20
-5.36691601337117
30
0
41
1
10
-0.394976888875306
20
-5.2299607904209
30
0
41
1
10
-0.394976888875306
20
-5.05691306897958
30
0
41
1
10
-0.394976888875306
20
-4.8491988364276
30
0
41
1
10
-0.394976888875306
20
-4.70975933848081
30
0
41
1
10
-0.394976888875306
20
-4.64126630128294
30
0
0
SPLINE
5
120
100
AcDbEntity
8
SK1
62
256
6
ByLayer
370
18
48
1
60
0
100
AcDbSpline
70
4
71
3
72
113
73
109
40
0
40
0
40
0
40
0
40
0.0016971405998412
40
0.0057942524451649
40
0.0098913642904886
40
0.0180855879811359
40
0.0262798116717832
40
0.0344740353624305
40
0.0426682590530779
40
0.0508624827437252
40
0.0590567064343725
40
0.0672509301250198
40
0.0754451538156671
40
0.0836393775063145
40
0.0918336011969618
40
0.100027824887609
40
0.108222048578256
40
0.116416272268904
40
0.124610495959551
40
0.132804719650198
40
0.149193167031493
40
0.165581614412788
40
0.181970061794082
40
0.198358509175377
40
0.214746956556672
40
0.222941180247319
40
0.231135403937966
40
0.239329627628614
40
0.247523851319261
40
0.255718075009908
40
0.263912298700555
40
0.272106522391203
40
0.28030074608185
40
0.288494969772497
40
0.296689193463145
40
0.304883417153792
40
0.31307764084444
40
0.321271864535087
40
0.329466088225734
40
0.337660311916381
40
0.345854535607029
40
0.354048759297676
40
0.362242982988323
40
0.378631430369618
40
0.395019877750913
40
0.40321410144156
40
0.411408325132207
40
0.419602548822855
40
0.427796772513502
40
0.435990996204149
40
0.444185219894797
40
0.452379443585444
40
0.460573667276091
40
0.476962114657386
40
0.493350562038681
40
0.501544785729328
40
0.509739009419975
40
0.517933233110623
40
0.52612745680127
40
0.534321680491917
40
0.542515904182565
40
0.550710127873212
40
0.558904351563859
40
0.575292798945154
40
0.591681246326448
40
0.599875470017096
40
0.608069693707743
40
0.61626391739839
40
0.624458141089038
40
0.632652364779685
40
0.640846588470332
40
0.64904081216098
40
0.657235035851627
40
0.673623483232922
40
0.690011930614216
40
0.698206154304864
40
0.706400377995511
40
0.714594601686158
40
0.722788825376806
40
0.730983049067453
40
0.7391772727581
40
0.747371496448748
40
0.755565720139395
40
0.763759943830042
40
0.771954167520689
40
0.780148391211337
40
0.788342614901984
40
0.796536838592632
40
0.804731062283279
40
0.812925285973926
40
0.821119509664573
40
0.829313733355221
40
0.837507957045868
40
0.845702180736515
40
0.853896404427163
40
0.870284851808457
40
0.878479075499105
40
0.886673299189752
40
0.894867522880399
40
0.903061746571047
40
0.919450193952341
40
0.935838641333636
40
0.952227088714931
40
0.968615536096225
40
0.976809759786872
40
0.98500398347752
40
0.993198207168167
40
1
40
1
40
1
40
1
41
1
10
-1.70000000000002
20
2.34751178615289
30
0
41
1
10
-1.70000000000002
20
2.35621966593379
30
0
41
1
10
-1.70000000000002
20
2.38592951909064
30
0
41
1
10
-1.70000000000002
20
2.43652882976181
30
0
41
1
10
-1.70000000000002
20
2.52010006268682
30
0
41
1
10
-1.70000000000002
20
2.62409378657782
30
0
41
1
10
-1.70000000000002
20
2.74807054514892
30
0
41
1
10
-1.70000000000002
20
2.87123918356852
30
0
41
1
10
-1.70000000000002
20
2.993594380779
30
0
41
1
10
-1.70000000000002
20
3.11513187517292
30
0
41
1
10
-1.70000000000002
20
3.23584780039647
30
0
41
1
10
-1.70000000000002
20
3.3557387899657
30
0
41
1
10
-1.70000000000002
20
3.47480210546814
30
0
41
1
10
-1.70000000000002
20
3.5930354415236
30
0
41
1
10
-1.70000000000002
20
3.71043651779695
30
0
41
1
10
-1.70000000000002
20
3.8270034595304
30
0
41
1
10
-1.70000000000002
20
3.94273458524899
30
0
41
1
10
-1.70000000000002
20
4.05762856057328
30
0
41
1
10
-1.70000000000002
20
4.171683851729
30
0
41
1
10
-1.70000000000002
20
4.32262158144502
30
0
41
1
10
-1.70000000000002
20
4.50922638794765
30
0
41
1
10
-1.70000000000002
20
4.72976236922625
30
0
41
1
10
-1.70000000000002
20
4.94691863630067
30
0
41
1
10
-1.70000000000002
20
5.16068772031301
30
0
41
1
10
-1.70000000000002
20
5.33601329758696
30
0
41
1
10
-1.70000000000002
20
5.47454903301667
30
0
41
1
10
-1.70000000000002
20
5.57760872375084
30
0
41
1
10
-1.70000000000002
20
5.67981554633889
30
0
41
1
10
-1.70000000000002
20
5.7811685540097
30
0
41
1
10
-1.70000000000002
20
5.88166662352432
30
0
41
1
10
-1.70000000000002
20
5.98130844183515
30
0
41
1
10
-1.70000000000002
20
6.08009295106382
30
0
41
1
10
-1.70000000000002
20
6.17801861138651
30
0
41
1
10
-1.70000000000002
20
6.27508414397229
30
0
41
1
10
-1.69999999999999
20
6.37128819193615
30
0
41
1
10
-1.70000000000002
20
6.46662906510224
30
0
41
1
10
-1.70000000000002
20
6.56110537660942
30
0
41
1
10
-1.70000000000002
20
6.6547154979545
30
0
41
1
10
-1.70000000000002
20
6.74745760354551
30
0
41
1
10
-1.70000000000002
20
6.83933016168689
30
0
41
1
10
-1.70000000000002
20
6.93033109954712
30
0
41
1
10
-1.70000000000002
20
7.0204585412456
30
0
41
1
10
-1.69999999999999
20
7.13945164867539
30
0
41
1
10
-1.70000000000002
20
7.28602039903603
30
0
41
1
10
-1.70000000000002
20
7.42964989475425
30
0
41
1
10
-1.70000000000002
20
7.54276403355829
30
0
41
1
10
-1.70000000000002
20
7.62671726605947
30
0
41
1
10
-1.70000000000002
20
7.70977883874548
30
0
41
1
10
-1.70000000000002
20
7.79194600202328
30
0
41
1
10
-1.70000000000002
20
7.87321640404122
30
0
41
1
10
-1.70000000000002
20
7.95358683542918
30
0
41
1
10
-1.70000000000002
20
8.0330544924083
30
0
41
1
10
-1.70000000000002
20
8.13779573224099
30
0
41
1
10
-1.70000000000002
20
8.26646749990718
30
0
41
1
10
-1.70000000000002
20
8.39208806457805
30
0
41
1
10
-1.70000000000002
20
8.49072598449763
30
0
41
1
10
-1.70000000000002
20
8.56378402232568
30
0
41
1
10
-1.70000000000002
20
8.63591216394966
30
0
41
1
10
-1.70000000000002
20
8.707106481632
30
0
41
1
10
-1.70000000000002
20
8.77736342146704
30
0
41
1
10
-1.70000000000002
20
8.8466784551658
30
0
41
1
10
-1.70000000000002
20
8.9150475069234
30
0
41
1
10
-1.70000000000002
20
9.00493248750243
30
0
41
1
10
-1.70000000000002
20
9.11491649636679
30
0
41
1
10
-1.70000000000002
20
9.22168704652847
30
0
41
1
10
-1.70000000000002
20
9.3051437774476
30
0
41
1
10
-1.69999999999999
20
9.36676193872179
30
0
41
1
10
-1.69999999999999
20
9.42739551695706
30
0
41
1
10
-1.70000000000002
20
9.48703893408199
30
0
41
1
10
-1.70000000000002
20
9.54568704168656
30
0
41
1
10
-1.69999999999999
20
9.60333356924752
30
0
41
1
10
-1.69999999999999
20
9.65997272044626
30
0
41
1
10
-1.70000000000002
20
9.73413471042335
30
0
41
1
10
-1.70000000000002
20
9.8242999772026
30
0
41
1
10
-1.70000000000002
20
9.91102211065427
30
0
41
1
10
-1.70000000000002
20
9.97829626766938
30
0
41
1
10
-1.69999999999999
20
10.027701522966
30
0
41
1
10
-1.69999999999999
20
10.0760448810433
30
0
41
1
10
-1.70000000000002
20
10.1233184687774
30
0
41
1
10
-1.70000000000002
20
10.1695147146772
30
0
41
1
10
-1.70000000000002
20
10.2146249480068
30
0
41
1
10
-1.70000000000002
20
10.2586409327216
30
0
41
1
10
-1.70000000000002
20
10.3015538720295
30
0
41
1
10
-1.70000000000002
20
10.3433544990447
30
0
41
1
10
-1.69999999999999
20
10.3840337022625
30
0
41
1
10
-1.69999999999999
20
10.4235819316408
30
0
41
1
10
-1.69999999999999
20
10.4619889498579
30
0
41
1
10
-1.69999999999999
20
10.4992449887466
30
0
41
1
10
-1.69999999999999
20
10.5353389624728
30
0
41
1
10
-1.69999999999999
20
10.5702601848038
30
0
41
1
10
-1.69999999999999
20
10.6039972898543
30
0
41
1
10
-1.70000000000002
20
10.6365384864303
30
0
41
1
10
-1.70000000000002
20
10.667871716058
30
0
41
1
10
-1.69999999999999
20
10.6979846247737
30
0
41
1
10
-1.69999999999999
20
10.7364870109124
30
0
41
1
10
-1.69999999999999
20
10.7725058279894
30
0
41
1
10
-1.70000000000002
20
10.805964526766
30
0
41
1
10
-1.69999999999999
20
10.8297709040831
30
0
41
1
10
-1.70000000000002
20
10.8522711554431
30
0
41
1
10
-1.69999999999999
20
10.8805066572373
30
0
41
1
10
-1.69999999999999
20
10.9124599273339
30
0
41
1
10
-1.69999999999999
20
10.9453046871603
30
0
41
1
10
-1.69999999999999
20
10.9724987271428
30
0
41
1
10
-1.70000000000002
20
10.9903135656216
30
0
41
1
10
-1.69999999999999
20
11.0015627517285
30
0
41
1
10
-1.69999999999999
20
11.0084756345047
30
0
41
1
10
-1.70000000000002
20
11.0135340498355
30
0
41
1
10
-1.70000000000005
20
11.0159250072985
30
0
41
1
10
-1.70000000000002
20
11.0168257860479
30
0
0
SPLINE
5
121
100
AcDbEntity
8
SK1
62
256
6
ByLayer
370
18
48
1
60
0
100
AcDbSpline
70
4
71
3
72
114
73
110
40
0
40
0
40
0
40
0
40
0.0068018284849098
40
0.0149960518557886
40
0.0231902752266674
40
0.0313844985975462
40
0.0477729453393039
40
0.0641613920810616
40
0.0805498388228192
40
0.0969382855645769
40
0.105132508935456
40
0.113326732306335
40
0.121520955677213
40
0.129715179048092
40
0.14610362578985
40
0.154297849160729
40
0.162492072531607
40
0.170686295902486
40
0.178880519273365
40
0.187074742644244
40
0.195268966015123
40
0.203463189386002
40
0.211657412756881
40
0.219851636127759
40
0.228045859498638
40
0.236240082869517
40
0.244434306240396
40
0.252628529611275
40
0.260822752982154
40
0.269016976353032
40
0.277211199723911
40
0.28540542309479
40
0.293599646465669
40
0.301793869836548
40
0.309988093207426
40
0.326376539949184
40
0.342764986690942
40
0.350959210061821
40
0.3591534334327
40
0.367347656803578
40
0.375541880174457
40
0.383736103545336
40
0.391930326916215
40
0.400124550287094
40
0.408318773657972
40
0.42470722039973
40
0.441095667141488
40
0.449289890512367
40
0.457484113883245
40
0.465678337254124
40
0.473872560625003
40
0.482066783995882
40
0.490261007366761
40
0.49845523073764
40
0.506649454108518
40
0.523037900850276
40
0.539426347592034
40
0.547620570962913
40
0.555814794333791
40
0.56400901770467
40
0.572203241075549
40
0.580397464446428
40
0.588591687817307
40
0.596785911188185
40
0.604980134559064
40
0.621368581300822
40
0.63775702804258
40
0.645951251413459
40
0.654145474784337
40
0.662339698155216
40
0.670533921526095
40
0.678728144896974
40
0.686922368267853
40
0.695116591638732
40
0.70331081500961
40
0.711505038380489
40
0.719699261751368
40
0.727893485122247
40
0.736087708493126
40
0.744281931864005
40
0.752476155234883
40
0.760670378605762
40
0.768864601976641
40
0.77705882534752
40
0.785253048718399
40
0.801641495460156
40
0.818029942201914
40
0.834418388943672
40
0.850806835685429
40
0.859001059056308
40
0.867195282427187
40
0.875389505798066
40
0.883583729168945
40
0.891777952539823
40
0.899972175910702
40
0.908166399281581
40
0.91636062265246
40
0.924554846023339
40
0.932749069394218
40
0.940943292765096
40
0.949137516135975
40
0.957331739506854
40
0.965525962877733
40
0.973720186248612
40
0.981914409619491
40
0.990108632990369
40
0.994205744675809
40
0.998302856361248
40
1
40
1
40
1
40
1
41
1
10
-1.69999999999999
20
-11.0168256816488
30
0
41
1
10
-1.69999999999996
20
-11.0159248555707
30
0
41
1
10
-1.69999999999999
20
-11.013533800329
30
0
41
1
10
-1.69999999999999
20
-11.0084752989365
30
0
41
1
10
-1.69999999999999
20
-11.0015624988159
30
0
41
1
10
-1.69999999999999
20
-10.9903135336491
30
0
41
1
10
-1.69999999999999
20
-10.9724987368511
30
0
41
1
10
-1.69999999999999
20
-10.9453046900679
30
0
41
1
10
-1.69999999999999
20
-10.9124599417153
30
0
41
1
10
-1.69999999999999
20
-10.8805066448562
30
0
41
1
10
-1.69999999999999
20
-10.8522711614578
30
0
41
1
10
-1.69999999999999
20
-10.8297709184935
30
0
41
1
10
-1.69999999999999
20
-10.8059645321906
30
0
41
1
10
-1.69999999999999
20
-10.7725058156908
30
0
41
1
10
-1.69999999999999
20
-10.7364870112034
30
0
41
1
10
-1.69999999999999
20
-10.6979846325427
30
0
41
1
10
-1.69999999999999
20
-10.6678717210084
30
0
41
1
10
-1.69999999999999
20
-10.6365384804889
30
0
41
1
10
-1.69999999999999
20
-10.6039972784095
30
0
41
1
10
-1.69999999999999
20
-10.5702601801729
30
0
41
1
10
-1.69999999999999
20
-10.5353389668746
30
0
41
1
10
-1.70000000000002
20
-10.4992449917908
30
0
41
1
10
-1.69999999999999
20
-10.4619889454751
30
0
41
1
10
-1.69999999999999
20
-10.4235819208782
30
0
41
1
10
-1.69999999999999
20
-10.3840336911891
30
0
41
1
10
-1.69999999999999
20
-10.3433544952797
30
0
41
1
10
-1.69999999999999
20
-10.3015538731596
30
0
41
1
10
-1.69999999999999
20
-10.2586409300894
30
0
41
1
10
-1.70000000000002
20
-10.214624938185
30
0
41
1
10
-1.69999999999999
20
-10.1695147015167
30
0
41
1
10
-1.69999999999999
20
-10.1233184572166
30
0
41
1
10
-1.69999999999999
20
-10.0760448746501
30
0
41
1
10
-1.69999999999999
20
-10.0277015194443
30
0
41
1
10
-1.69999999999999
20
-9.9782962601187
30
0
41
1
10
-1.70000000000002
20
-9.91102209624654
30
0
41
1
10
-1.70000000000002
20
-9.82429996242755
30
0
41
1
10
-1.69999999999999
20
-9.73413470277157
30
0
41
1
10
-1.69999999999999
20
-9.65997270948603
30
0
41
1
10
-1.70000000000002
20
-9.60333355436057
30
0
41
1
10
-1.69999999999999
20
-9.54568702498426
30
0
41
1
10
-1.70000000000002
20
-9.48703891782515
30
0
41
1
10
-1.69999999999999
20
-9.42739550269755
30
0
41
1
10
-1.70000000000002
20
-9.36676192571937
30
0
41
1
10
-1.70000000000002
20
-9.30514376314053
30
0
41
1
10
-1.69999999999999
20
-9.22168702931728
30
0
41
1
10
-1.70000000000002
20
-9.11491647650138
30
0
41
1
10
-1.69999999999999
20
-9.00493246986304
30
0
41
1
10
-1.69999999999999
20
-8.91504748954583
30
0
41
1
10
-1.69999999999999
20
-8.84667843706413
30
0
41
1
10
-1.69999999999999
20
-8.77736340151236
30
0
41
1
10
-1.69999999999999
20
-8.70710645983874
30
0
41
1
10
-1.69999999999999
20
-8.63591214139896
30
0
41
1
10
-1.70000000000002
20
-8.56378400031386
30
0
41
1
10
-1.70000000000002
20
-8.49072596407868
30
0
41
1
10
-1.69999999999999
20
-8.39208804491184
30
0
41
1
10
-1.70000000000002
20
-8.26646747522287
30
0
41
1
10
-1.69999999999999
20
-8.13779570521024
30
0
41
1
10
-1.69999999999999
20
-8.0330544688868
30
0
41
1
10
-1.70000000000002
20
-7.95358681402573
30
0
41
1
10
-1.69999999999999
20
-7.87321638075602
30
0
41
1
10
-1.70000000000002
20
-7.79194597495291
30
0
41
1
10
-1.70000000000002
20
-7.70977880868622
30
0
41
1
10
-1.70000000000002
20
-7.62671723619306
30
0
41
1
10
-1.69999999999999
20
-7.54276400792273
30
0
41
1
10
-1.69999999999999
20
-7.42964987262871
30
0
41
1
10
-1.70000000000002
20
-7.28602036791511
30
0
41
1
10
-1.69999999999999
20
-7.13945161440037
30
0
41
1
10
-1.70000000000002
20
-7.02045851391139
30
0
41
1
10
-1.70000000000002
20
-6.93033107540649
30
0
41
1
10
-1.69999999999999
20
-6.83933013294538
30
0
41
1
10
-1.69999999999999
20
-6.74745756863808
30
0
41
1
10
-1.70000000000002
20
-6.65471546144812
30
0
41
1
10
-1.70000000000002
20
-6.56110534348878
30
0
41
1
10
-1.69999999999999
20
-6.46662903768907
30
0
41
1
10
-1.69999999999999
20
-6.37128816532112
30
0
41
1
10
-1.70000000000002
20
-6.27508411030436
30
0
41
1
10
-1.70000000000002
20
-6.17801857115037
30
0
41
1
10
-1.70000000000002
20
-6.08009291387742
30
0
41
1
10
-1.69999999999999
20
-5.98130841102724
30
0
41
1
10
-1.70000000000002
20
-5.88166659485614
30
0
41
1
10
-1.70000000000002
20
-5.78116852113124
30
0
41
1
10
-1.70000000000002
20
-5.67981550565051
30
0
41
1
10
-1.70000000000002
20
-5.57760868171391
30
0
41
1
10
-1.70000000000002
20
-5.4745489994917
30
0
41
1
10
-1.70000000000002
20
-5.33601327110074
30
0
41
1
10
-1.70000000000002
20
-5.16068767245523
30
0
41
1
10
-1.70000000000002
20
-4.94691859926491
30
0
41
1
10
-1.70000000000002
20
-4.7297623506839
30
0
41
1
10
-1.70000000000002
20
-4.54596815109079
30
0
41
1
10
-1.70000000000002
20
-4.39727377856164
30
0
41
1
10
-1.70000000000002
20
-4.28489934734066
30
0
41
1
10
-1.69999999999999
20
-4.17168365277391
30
0
41
1
10
-1.70000000000002
20
-4.05762829513469
30
0
41
1
10
-1.69999999999999
20
-3.94273451640885
30
0
41
1
10
-1.70000000000002
20
-3.82700351079481
30
0
41
1
10
-1.69999999999999
20
-3.71043643743553
30
0
41
1
10
-1.70000000000002
20
-3.59303526241621
30
0
41
1
10
-1.70000000000002
20
-3.47480199284001
30
0
41
1
10
-1.69999999999999
20
-3.35573880021465
30
0
41
1
10
-1.70000000000002
20
-3.23584791746731
30
0
41
1
10
-1.69999999999999
20
-3.115131944757
30
0
41
1
10
-1.70000000000002
20
-2.99359419383882
30
0
41
1
10
-1.70000000000002
20
-2.8712390381817
30
0
41
1
10
-1.70000000000002
20
-2.74807047639385
30
0
41
1
10
-1.70000000000002
20
-2.62409374349514
30
0
41
1
10
-1.70000000000002
20
-2.52010001413041
30
0
41
1
10
-1.70000000000002
20
-2.43652877485599
30
0
41
1
10
-1.70000000000002
20
-2.38592944625574
30
0
41
1
10
-1.70000000000002
20
-2.35621957733798
30
0
41
1
10
-1.70000000000002
20
-2.34751168175015
30
0
0
SPLINE
5
122
100
AcDbEntity
8
SK1
62
256
6
ByLayer
370
18
48
1
60
0
100
AcDbSpline
70
4
71
3
72
282
73
278
40
0
40
0
40
0
40
0
40
0.000568915832209
40
0.0040614416502971
40
0.0075539674683852
40
0.0110464932864734
40
0.0145390191045615
40
0.0180315449226496
40
0.0215240707407378
40
0.0250165965588259
40
0.0320016481950022
40
0.0389866998311784
40
0.0459717514673547
40
0.052956803103531
40
0.0564493289216191
40
0.0599418547397073
40
0.0634343805577954
40
0.0669269063758835
40
0.0739119580120598
40
0.0774044838301479
40
0.080897009648236
40
0.0843895354663242
40
0.0878820612844124
40
0.0913745871025004
40
0.0948671129205886
40
0.0983596387386767
40
0.101852164556765
40
0.105344690374853
40
0.108837216192941
40
0.112329742011029
40
0.115822267829117
40
0.119314793647206
40
0.122807319465294
40
0.126299845283382
40
0.12979237110147
40
0.133284896919558
40
0.136777422737646
40
0.140269948555734
40
0.143762474373823
40
0.150747526009999
40
0.157732577646175
40
0.161225103464263
40
0.164717629282351
40
0.168210155100439
40
0.171702680918528
40
0.175195206736616
40
0.178687732554704
40
0.182180258372792
40
0.18567278419088
40
0.192657835827056
40
0.199642887463233
40
0.203135413281321
40
0.206627939099409
40
0.210120464917497
40
0.213612990735585
40
0.217105516553673
40
0.220598042371761
40
0.22409056818985
40
0.227583094007938
40
0.234568145644114
40
0.24155319728029
40
0.245045723098378
40
0.248538248916467
40
0.252030774734554
40
0.255523300552643
40
0.259015826370731
40
0.262508352188819
40
0.266000878006907
40
0.269493403824995
40
0.276478455461172
40
0.283463507097348
40
0.286956032915436
40
0.290448558733524
40
0.293941084551612
40
0.2974336103697
40
0.300926136187788
40
0.304418662005877
40
0.307911187823965
40
0.311403713642053
40
0.314896239460141
40
0.318388765278229
40
0.321881291096317
40
0.325373816914405
40
0.328866342732493
40
0.332358868550582
40
0.33585139436867
40
0.339343920186758
40
0.342836446004846
40
0.346328971822934
40
0.35331402345911
40
0.360299075095287
40
0.367284126731463
40
0.374269178367639
40
0.377761704185727
40
0.381254230003815
40
0.384746755821904
40
0.388239281639992
40
0.39173180745808
40
0.395224333276168
40
0.398716859094256
40
0.402209384912344
40
0.405701910730432
40
0.409194436548521
40
0.412686962366609
40
0.416179488184697
40
0.419672014002785
40
0.423164539820873
40
0.426657065638961
40
0.43014959145705
40
0.433642117275138
40
0.435388380184182
40
0.437134643093226
40
0.440627168911314
40
0.444119694729402
40
0.44761222054749
40
0.451104746365578
40
0.454597272183666
40
0.458089798001754
40
0.461582323819842
40
0.465074849637931
40
0.466821112546975
40
0.468567375456019
40
0.470313638365063
40
0.472059901274107
40
0.473806164183151
40
0.475552427092195
40
0.477298690001239
40
0.479044952910283
40
0.480791215819327
40
0.482537478728371
40
0.484283741637415
40
0.48603000454646
40
0.487776267455504
40
0.489522530364548
40
0.491268793273592
40
0.493015056182636
40
0.49476131909168
40
0.496507582000724
40
0.498253844909768
40
0.500000107818812
40
0.501746370727856
40
0.5034926336369
40
0.505238896545944
40
0.506985159454988
40
0.508731422364032
40
0.510477685273076
40
0.51222394818212
40
0.513970211091164
40
0.515716474000209
40
0.517462736909253
40
0.519208999818297
40
0.520955262727341
40
0.522701525636385
40
0.524447788545429
40
0.526194051454473
40
0.527940314363517
40
0.529686577272561
40
0.531432840181605
40
0.533179103090649
40
0.534925365999693
40
0.538417891817782
40
0.54191041763587
40
0.545402943453958
40
0.548895469272046
40
0.552387995090134
40
0.555880520908222
40
0.55937304672631
40
0.562865572544399
40
0.564611835453442
40
0.566358098362487
40
0.569850624180575
40
0.573343149998663
40
0.576835675816751
40
0.580328201634839
40
0.583820727452927
40
0.587313253271015
40
0.590805779089103
40
0.594298304907191
40
0.59779083072528
40
0.601283356543368
40
0.604775882361456
40
0.608268408179544
40
0.611760933997632
40
0.61525345981572
40
0.618745985633809
40
0.625731037269985
40
0.632716088906161
40
0.639701140542337
40
0.646686192178514
40
0.65367124381469
40
0.657163769632778
40
0.660656295450866
40
0.664148821268954
40
0.667641347087042
40
0.67113387290513
40
0.674626398723219
40
0.678118924541307
40
0.681611450359395
40
0.685103976177483
40
0.688596501995571
40
0.692089027813659
40
0.695581553631748
40
0.699074079449836
40
0.702566605267924
40
0.706059131086012
40
0.7095516569041
40
0.713044182722188
40
0.716536708540276
40
0.723521760176453
40
0.730506811812629
40
0.733999337630717
40
0.737491863448805
40
0.740984389266893
40
0.744476915084981
40
0.74796944090307
40
0.751461966721158
40
0.754954492539246
40
0.758447018357334
40
0.76543206999351
40
0.772417121629686
40
0.775909647447775
40
0.779402173265863
40
0.782894699083951
40
0.786387224902039
40
0.789879750720127
40
0.793372276538215
40
0.796864802356303
40
0.800357328174391
40
0.807342379810568
40
0.814327431446744
40
0.817819957264832
40
0.82131248308292
40
0.824805008901008
40
0.828297534719097
40
0.831790060537185
40
0.835282586355273
40
0.838775112173361
40
0.842267637991449
40
0.849252689627625
40
0.856237741263802
40
0.85973026708189
40
0.863222792899978
40
0.866715318718066
40
0.870207844536154
40
0.873700370354242
40
0.87719289617233
40
0.880685421990418
40
0.884177947808507
40
0.887670473626595
40
0.891162999444683
40
0.894655525262771
40
0.898148051080859
40
0.901640576898947
40
0.905133102717035
40
0.908625628535124
40
0.912118154353212
40
0.9156106801713
40
0.919103205989388
40
0.922595731807476
40
0.926088257625564
40
0.933073309261741
40
0.936565835079829
40
0.940058360897917
40
0.943550886716005
40
0.947043412534093
40
0.954028464170269
40
0.961013515806445
40
0.967998567442622
40
0.974983619078798
40
0.978476144896886
40
0.981968670714974
40
0.985461196533063
40
0.988953722351151
40
0.992446248169239
40
0.995938773987327
40
0.999431299805415
40
1
40
1
40
1
40
1
41
1
10
-18
20
-10.609154525594
30
0
41
1
10
-18
20
-10.609271695101
30
0
41
1
10
-18
20
-10.6100565003757
30
0
41
1
10
-18
20
-10.6108322853176
30
0
41
1
10
-18
20
-10.6103051294408
30
0
41
1
10
-18
20
-10.6082029107285
30
0
41
1
10
-18
20
-10.6045521568697
30
0
41
1
10
-18
20
-10.5993778692674
30
0
41
1
10
-18
20
-10.592703485268
30
0
41
1
10
-18
20
-10.5818120325131
30
0
41
1
10
-18
20
-10.5646169600635
30
0
41
1
10
-18
20
-10.5383008623823
30
0
41
1
10
-18
20
-10.506489279177
30
0
41
1
10
-18
20
-10.4755678604265
30
0
41
1
10
-18
20
-10.4481323749746
30
0
41
1
10
-18
20
-10.4263041143214
30
0
41
1
10
-18
20
-10.4032013500169
30
0
41
1
10
-18
20
-10.3706596087076
30
0
41
1
10
-18
20
-10.3358095016122
30
0
41
1
10
-18
20
-10.2983352440808
30
0
41
1
10
-18
20
-10.2690719526608
30
0
41
1
10
-18
20
-10.2386154290236
30
0
41
1
10
-18
20
-10.2069776182064
30
0
41
1
10
-18
20
-10.1741699845987
30
0
41
1
10
-18
20
-10.1402037914164
30
0
41
1
10
-18
20
-10.1050900925226
30
0
41
1
10
-18
20
-10.0688389871438
30
0
41
1
10
-18
20
-10.0314612764173
30
0
41
1
10
-18
20
-9.99296649945873
30
0
41
1
10
-18
20
-9.95336439144063
30
0
41
1
10
-18
20
-9.91266446536125
30
0
41
1
10
-18
20
-9.87087543880679
30
0
41
1
10
-18
20
-9.82800620569321
30
0
41
1
10
-18
20
-9.78406562726659
30
0
41
1
10
-18
20
-9.73906156658435
30
0
41
1
10
-18
20
-9.69300261323349
30
0
41
1
10
-18
20
-9.6458964026537
30
0
41
1
10
-18
20
-9.59775041479642
30
0
41
1
10
-18
20
-9.5320773748978
30
0
41
1
10
-18
20
-9.44765447086007
30
0
41
1
10
-18
20
-9.3598674830186
30
0
41
1
10
-18
20
-9.28744513180197
30
0
41
1
10
-18
20
-9.23221918172709
30
0
41
1
10
-18
20
-9.17600806496941
30
0
41
1
10
-18
20
-9.1188172233754
30
0
41
1
10
-18
20
-9.06065319401594
30
0
41
1
10
-18
20
-9.00152152233744
30
0
41
1
10
-18
20
-8.94142742966559
30
0
41
1
10
-18
20
-8.85990366278926
30
0
41
1
10
-18
20
-8.75589865176036
30
0
41
1
10
-18
20
-8.64876091292308
30
0
41
1
10
-18
20
-8.56095252446428
30
0
41
1
10
-18
20
-8.4942680885093
30
0
41
1
10
-18
20
-8.42666166687422
30
0
41
1
10
-18
20
-8.35813711319386
30
0
41
1
10
-18
20
-8.28869944694208
30
0
41
1
10
-18
20
-8.21835290126668
30
0
41
1
10
-18
20
-8.14710119768421
30
0
41
1
10
-18
20
-8.05075299167547
30
0
41
1
10
-18
20
-7.9284057431208
30
0
41
1
10
-18
20
-7.80309789738925
30
0
41
1
10
-18
20
-7.70081041299485
30
0
41
1
10
-18
20
-7.62333367085023
30
0
41
1
10
-18
20
-7.54498256644959
30
0
41
1
10
-18
20
-7.46575986597483
30
0
41
1
10
-18
20
-7.3856695697848
30
0
41
1
10
-18
20
-7.30471496694233
30
0
41
1
10
-18
20
-7.22289882691013
30
0
41
1
10
-18
20
-7.11249588450139
30
0
41
1
10
-18
20
-6.97274642193665
30
0
41
1
10
-18
20
-6.83016810635769
30
0
41
1
10
-18
20
-6.71409020409422
30
0
41
1
10
-18
20
-6.62633153834341
30
0
41
1
10
-18
20
-6.53773584474615
30
0
41
1
10
-18
20
-6.44830545225392
30
0
41
1
10
-18
20
-6.35804365721185
30
0
41
1
10
-18
20
-6.26695319447285
30
0
41
1
10
-18
20
-6.17503662085343
30
0
41
1
10
-18
20
-6.08229711859906
30
0
41
1
10
-18
20
-5.98873701214285
30
0
41
1
10
-18
20
-5.89435900496747
30
0
41
1
10
-18
20
-5.79916628067869
30
0
41
1
10
-18
20
-5.70316105559496
30
0
41
1
10
-18
20
-5.60634647599673
30
0
41
1
10
-18
20
-5.50872530998984
30
0
41
1
10
-18
20
-5.41030022073681
30
0
41
1
10
-18
20
-5.31107460858112
30
0
41
1
10
-18
20
-5.2110504888509
30
0
41
1
10
-18
20
-5.07638402809525
30
0
41
1
10
-18
20
-4.90663494713598
30
0
41
1
10
-18
20
-4.69948150824786
30
0
41
1
10
-18
20
-4.48921431467912
30
0
41
1
10
-18
20
-4.31169460692024
30
0
41
1
10
-18
20
-4.16763243265373
30
0
41
1
10
-18
20
-4.05905436847678
30
0
41
1
10
-18
20
-3.94972277737918
30
0
41
1
10
-18
20
-3.83964235720097
30
0
41
1
10
-18
20
-3.72881992966333
30
0
41
1
10
-18
20
-3.61726245308643
30
0
41
1
10
-18
20
-3.50497537086059
30
0
41
1
10
-18
20
-3.39196474884636
30
0
41
1
10
-18
20
-3.27823874237259
30
0
41
1
10
-18
20
-3.1638065993838
30
0
41
1
10
-18
20
-3.04867826135629
30
0
41
1
10
-18
20
-2.93286301922586
30
0
41
1
10
-18
20
-2.81636991600769
30
0
41
1
10
-18
20
-2.69921210979672
30
0
41
1
10
-18
20
-2.58140376430018
30
0
41
1
10
-18
20
-2.4629597502701
30
0
41
1
10
-18
20
-2.36395705803145
30
0
41
1
10
-18
20
-2.28404204181248
30
0
41
1
10
-18
20
-2.20393495183686
30
0
41
1
10
-18
20
-2.10398004111116
30
0
41
1
10
-18
20
-1.98317119500538
30
0
41
1
10
-18
20
-1.86182467095802
30
0
41
1
10
-18
20
-1.73996860709434
30
0
41
1
10
-18
20
-1.61763137476075
30
0
41
1
10
-18
20
-1.49484382588881
30
0
41
1
10
-18
20
-1.37164017880389
30
0
41
1
10
-18
20
-1.26895273622944
30
0
41
1
10
-18
20
-1.186063589047
30
0
41
1
10
-18
20
-1.12406372316545
30
0
41
1
10
-18
20
-1.0619896949724
30
0
41
1
10
-18
20
-0.999845111434894
30
0
41
1
10
-18
20
-0.937636300485195
30
0
41
1
10
-18
20
-0.875367170941672
30
0
41
1
10
-18
20
-0.813044890326779
30
0
41
1
10
-18
20
-0.750672562259211
30
0
41
1
10
-18
20
-0.688256665460756
30
0
41
1
10
-18
20
-0.62580094788143
30
0
41
1
10
-18
20
-0.563310894882505
30
0
41
1
10
-18
20
-0.500790472931612
30
0
41
1
10
-18
20
-0.438244302653686
30
0
41
1
10
-18
20
-0.375676054943824
30
0
41
1
10
-18
20
-0.313089739834197
30
0
41
1
10
-18
20
-0.250488634444707
30
0
41
1
10
-18
20
-0.187876220606341
30
0
41
1
10
-18
20
-0.125255331589216
30
0
41
1
10
-18
20
-0.0626290271069365
30
0
41
1
10
-18
20
3.20922311E-08
30
0
41
1
10
-18
20
0.0626290839053922
30
0
41
1
10
-18
20
0.125255374427184
30
0
41
1
10
-18
20
0.187876264694836
30
0
41
1
10
-18
20
0.250488699287644
30
0
41
1
10
-18
20
0.313089809374958
30
0
41
1
10
-18
20
0.375676097210004
30
0
41
1
10
-18
20
0.43824433367962
30
0
41
1
10
-18
20
0.500790536511772
30
0
41
1
10
-18
20
0.563310977461924
30
0
41
1
10
-18
20
0.625800994862885
30
0
41
1
10
-18
20
0.688256683922077
30
0
41
1
10
-18
20
0.750672614854494
30
0
41
1
10
-18
20
0.813044982640463
30
0
41
1
10
-18
20
0.875367234899159
30
0
41
1
10
-18
20
0.937636316394475
30
0
41
1
10
-18
20
0.999845142204208
30
0
41
1
10
-18
20
1.06198977283731
30
0
41
1
10
-18
20
1.12406381547396
30
0
41
1
10
-18
20
1.18606363592943
30
0
41
1
10
-18
20
1.26895275020124
30
0
41
1
10
-18
20
1.37164025517353
30
0
41
1
10
-18
20
1.49484387929499
30
0
41
1
10
-18
20
1.61763140130913
30
0
41
1
10
-18
20
1.73996869594836
30
0
41
1
10
-18
20
1.86182470164047
30
0
41
1
10
-18
20
1.98317122682144
30
0
41
1
10
-18
20
2.10398013562451
30
0
41
1
10
-18
20
2.20393499577068
30
0
41
1
10
-18
20
2.2840420412912
30
0
41
1
10
-18
20
2.36395709248046
30
0
41
1
10
-18
20
2.46295993427742
30
0
41
1
10
-18
20
2.58140420660004
30
0
41
1
10
-18
20
2.69921228427648
30
0
41
1
10
-18
20
2.81636932516915
30
0
41
1
10
-18
20
2.93286234661062
30
0
41
1
10
-18
20
3.04867846612535
30
0
41
1
10
-18
20
3.16380725793991
30
0
41
1
10
-18
20
3.27823925856785
30
0
41
1
10
-18
20
3.39196471421937
30
0
41
1
10
-18
20
3.5049748957627
30
0
41
1
10
-18
20
3.61726252861362
30
0
41
1
10
-18
20
3.72882077112345
30
0
41
1
10
-18
20
3.83964277700957
30
0
41
1
10
-18
20
3.94972228937704
30
0
41
1
10
-18
20
4.09581338934953
30
0
41
1
10
-18
20
4.27586319348595
30
0
41
1
10
-18
20
4.48921424352019
30
0
41
1
10
-18
20
4.69948157884704
30
0
41
1
10
-18
20
4.9066349784587
30
0
41
1
10
-18
20
5.07638404339966
30
0
41
1
10
-18
20
5.21105054825136
30
0
41
1
10
-18
20
5.31107465945468
30
0
41
1
10
-18
20
5.41030024314784
30
0
41
1
10
-18
20
5.50872532385608
30
0
41
1
10
-18
20
5.60634650403392
30
0
41
1
10
-18
20
5.70316110146726
30
0
41
1
10
-18
20
5.79916633117398
30
0
41
1
10
-18
20
5.89435903702207
30
0
41
1
10
-18
20
5.98873702476692
30
0
41
1
10
-18
20
6.0822971380704
30
0
41
1
10
-18
20
6.17503665947791
30
0
41
1
10
-18
20
6.26695324021441
30
0
41
1
10
-18
20
6.35804369451674
30
0
41
1
10
-18
20
6.44830547511725
30
0
41
1
10
-18
20
6.53773585931216
30
0
41
1
10
-18
20
6.62633156228856
30
0
41
1
10
-18
20
6.71409024311311
30
0
41
1
10
-18
20
6.83016814404567
30
0
41
1
10
-18
20
6.97274644349412
30
0
41
1
10
-18
20
7.11249590401042
30
0
41
1
10
-18
20
7.22289886113486
30
0
41
1
10
-18
20
7.30471500134038
30
0
41
1
10
-18
20
7.3856695958325
30
0
41
1
10
-18
20
7.4657598851355
30
0
41
1
10
-18
20
7.54498258382409
30
0
41
1
10
-18
20
7.62333369313473
30
0
41
1
10
-18
20
7.70081044177078
30
0
41
1
10
-18
20
7.80309792535269
30
0
41
1
10
-18
20
7.92840576311144
30
0
41
1
10
-18
20
8.05075300914629
30
0
41
1
10
-18
20
8.14710122037499
30
0
41
1
10
-18
20
8.21835292520672
30
0
41
1
10
-18
20
8.28869946906789
30
0
41
1
10
-18
20
8.35813713243078
30
0
41
1
10
-18
20
8.42666168347023
30
0
41
1
10
-18
20
8.49426810443586
30
0
41
1
10
-18
20
8.56095254151674
30
0
41
1
10
-18
20
8.64876093189611
30
0
41
1
10
-18
20
8.75589867127121
30
0
41
1
10
-18
20
8.8599036769107
30
0
41
1
10
-18
20
8.94142744136704
30
0
41
1
10
-18
20
9.00152153550755
30
0
41
1
10
-18
20
9.06065321078685
30
0
41
1
10
-18
20
9.11881724129319
30
0
41
1
10
-18
20
9.17600808045955
30
0
41
1
10
-18
20
9.23221919243571
30
0
41
1
10
-18
20
9.28744513847656
30
0
41
1
10
-18
20
9.3598674920926
30
0
41
1
10
-18
20
9.44765448811151
30
0
41
1
10
-18
20
9.53207738577581
30
0
41
1
10
-18
20
9.59775041693439
30
0
41
1
10
-18
20
9.64589640582304
30
0
41
1
10
-18
20
9.69300262436195
30
0
41
1
10
-18
20
9.73906158174464
30
0
41
1
10
-18
20
9.7840656391997
30
0
41
1
10
-18
20
9.82800620980922
30
0
41
1
10
-18
20
9.87087543598923
30
0
41
1
10
-18
20
9.91266446512716
30
0
41
1
10
-18
20
9.9533644012005
30
0
41
1
10
-18
20
9.99296651357056
30
0
41
1
10
-18
20
10.0314612838791
30
0
41
1
10
-18
20
10.0688389854125
30
0
41
1
10
-18
20
10.1050900859652
30
0
41
1
10
-18
20
10.1402037904431
30
0
41
1
10
-18
20
10.1741699954592
30
0
41
1
10
-18
20
10.2069776298432
30
0
41
1
10
-18
20
10.2386154287957
30
0
41
1
10
-18
20
10.2690719430376
30
0
41
1
10
-18
20
10.2983352374592
30
0
41
1
10
-18
20
10.3358095061466
30
0
41
1
10
-18
20
10.3706596194956
30
0
41
1
10
-18
20
10.4032013384501
30
0
41
1
10
-18
20
10.4263041000347
30
0
41
1
10
-18
20
10.4481323745122
30
0
41
1
10
-18
20
10.4755678718975
30
0
41
1
10
-18
20
10.5064892630525
30
0
41
1
10
-18
20
10.5383008597592
30
0
41
1
10
-18
20
10.5646169538388
30
0
41
1
10
-18
20
10.5818120868309
30
0
41
1
10
-18
20
10.592703758728
30
0
41
1
10
-18
20
10.599378203272
30
0
41
1
10
-18
20
10.6045523963069
30
0
41
1
10
-18
20
10.6082029915013
30
0
41
1
10
-18
20
10.6103050545653
30
0
41
1
10
-18
20
10.6108321487841
30
0
41
1
10
-18
20
10.6100564651506
30
0
41
1
10
-18
20
10.6092717682028
30
0
41
1
10
-18
20
10.6091546551863
30
0
0
SPLINE
5
123
100
AcDbEntity
8
SK1
62
256
6
ByLayer
370
18
48
1
60
0
100
AcDbSpline
70
4
71
3
72
126
73
122
40
0
40
0
40
0
40
0
40
0.0020690055861514
40
0.0095366726046714
40
0.0170043396231915
40
0.0244720066417116
40
0.0319396736602316
40
0.0394073406787517
40
0.0468750076972718
40
0.0543426747157919
40
0.0618103417343119
40
0.069278008752832
40
0.0767456757713521
40
0.0842133427898722
40
0.0916810098083922
40
0.0991486768269123
40
0.106616343845432
40
0.114084010863953
40
0.121551677882472
40
0.136487011919513
40
0.151422345956553
40
0.166357679993593
40
0.181293014030633
40
0.188760681049153
40
0.196228348067673
40
0.203696015086193
40
0.211163682104713
40
0.226099016141754
40
0.233566683160274
40
0.241034350178794
40
0.248502017197314
40
0.255969684215834
40
0.263437351234354
40
0.270905018252874
40
0.278372685271394
40
0.285840352289914
40
0.293308019308434
40
0.300775686326954
40
0.308243353345474
40
0.315711020363994
40
0.323178687382514
40
0.330646354401035
40
0.338114021419555
40
0.345581688438075
40
0.353049355456595
40
0.360517022475115
40
0.367984689493635
40
0.375452356512155
40
0.390387690549195
40
0.405323024586235
40
0.412790691604755
40
0.420258358623275
40
0.427726025641795
40
0.435193692660315
40
0.442661359678836
40
0.450129026697356
40
0.457596693715876
40
0.465064360734396
40
0.479999694771436
40
0.494935028808476
40
0.502402695826996
40
0.509870362845516
40
0.517338029864036
40
0.524805696882556
40
0.532273363901076
40
0.539741030919597
40
0.547208697938117
40
0.554676364956637
40
0.569611698993677
40
0.584547033030717
40
0.592014700049237
40
0.599482367067757
40
0.606950034086277
40
0.614417701104797
40
0.621885368123317
40
0.629353035141837
40
0.636820702160357
40
0.644288369178878
40
0.659223703215918
40
0.674159037252958
40
0.681626704271478
40
0.689094371289998
40
0.696562038308518
40
0.704029705327038
40
0.711497372345558
40
0.718965039364078
40
0.726432706382598
40
0.733900373401118
40
0.741368040419638
40
0.748835707438159
40
0.756303374456679
40
0.763771041475199
40
0.771238708493719
40
0.778706375512239
40
0.786174042530759
40
0.793641709549279
40
0.801109376567799
40
0.808577043586319
40
0.823512377623359
40
0.838447711660399
40
0.85338304569744
40
0.86831837973448
40
0.875786046753
40
0.88325371377152
40
0.89072138079004
40
0.89818904780856
40
0.90565671482708
40
0.9131243818456
40
0.92059204886412
40
0.92805971588264
40
0.93552738290116
40
0.94299504991968
40
0.9504627169382
40
0.957930383956721
40
0.965398050975241
40
0.972865717993761
40
0.980333385012281
40
0.987801052030801
40
0.995268719049321
40
0.999002552558581
40
1
40
1
40
1
40
1
41
1
10
-1.49503997793928
20
-10.7298066485944
30
0
41
1
10
-1.49503997793928
20
-10.7315567160328
30
0
41
1
10
-1.49503997793928
20
-10.7395035937881
30
0
41
1
10
-1.49503997793931
20
-10.7526959893359
30
0
41
1
10
-1.49503997793928
20
-10.7681073023501
30
0
41
1
10
-1.49503997793928
20
-10.7815935790482
30
0
41
1
10
-1.49503997793928
20
-10.7931979208608
30
0
41
1
10
-1.49503997793928
20
-10.8029600332534
30
0
41
1
10
-1.49503997793928
20
-10.8109186076979
30
0
41
1
10
-1.49503997793928
20
-10.817111019218
30
0
41
1
10
-1.49503997793928
20
-10.8215726393987
30
0
41
1
10
-1.49503997793928
20
-10.8243367154328
30
0
41
1
10
-1.49503997793928
20
-10.8254348117255
30
0
41
1
10
-1.49503997793928
20
-10.8248970595992
30
0
41
1
10
-1.49503997793928
20
-10.8227533881918
30
0
41
1
10
-1.49503997793928
20
-10.8190319435411
30
0
41
1
10
-1.49503997793928
20
-10.8137591702554
30
0
41
1
10
-1.49503997793928
20
-10.8069598479051
30
0
41
1
10
-1.49503997793931
20
-10.7958810461951
30
0
41
1
10
-1.49503997793928
20
-10.7783612166035
30
0
41
1
10
-1.49503997793928
20
-10.751585043016
30
0
41
1
10
-1.49503997793928
20
-10.719232045291
30
0
41
1
10
-1.49503997793928
20
-10.6877698864739
30
0
41
1
10
-1.49503997793928
20
-10.659915174236
30
0
41
1
10
-1.49503997793928
20
-10.6377347714484
30
0
41
1
10
-1.49503997793928
20
-10.6142632847113
30
0
41
1
10
-1.49503997793928
20
-10.5812410164663
30
0
41
1
10
-1.49503997793928
20
-10.5457784712346
30
0
41
1
10
-1.49503997793928
20
-10.5077654424246
30
0
41
1
10
-1.49503997793928
20
-10.4780569204745
30
0
41
1
10
-1.49503997793928
20
-10.4471409666571
30
0
41
1
10
-1.49503997793928
20
-10.4150297473557
30
0
41
1
10
-1.49503997793928
20
-10.3817350419115
30
0
41
1
10
-1.49503997793928
20
-10.3472683849274
30
0
41
1
10
-1.49503997793928
20
-10.3116409871695
30
0
41
1
10
-1.49503997793928
20
-10.2748632577402
30
0
41
1
10
-1.49503997793928
20
-10.2369461506972
30
0
41
1
10
-1.49503997793928
20
-10.1978993278187
30
0
41
1
10
-1.49503997793931
20
-10.1577327882333
30
0
41
1
10
-1.49503997793928
20
-10.1164560590941
30
0
41
1
10
-1.49503997793928
20
-10.0740780611422
30
0
41
1
10
-1.49503997793928
20
-10.0306078864835
30
0
41
1
10
-1.49503997793928
20
-9.98605436640193
30
0
41
1
10
-1.49503997793928
20
-9.94042555998314
30
0
41
1
10
-1.49503997793928
20
-9.89373009862078
30
0
41
1
10
-1.49503997793928
20
-9.84597558117031
30
0
41
1
10
-1.49503997793928
20
-9.79716969120636
30
0
41
1
10
-1.49503997793931
20
-9.73065760658244
30
0
41
1
10
-1.49503997793928
20
-9.64502982606291
30
0
41
1
10
-1.49503997793928
20
-9.55599654096136
30
0
41
1
10
-1.49503997793928
20
-9.48266255671322
30
0
41
1
10
-1.49503997793928
20
-9.42669603797344
30
0
41
1
10
-1.49503997793928
20
-9.36973271501176
30
0
41
1
10
-1.49503997793931
20
-9.31177821550872
30
0
41
1
10
-1.49503997793931
20
-9.25283893648347
30
0
41
1
10
-1.49503997793931
20
-9.19292021412031
30
0
41
1
10
-1.49503997793931
20
-9.13202745573767
30
0
41
1
10
-1.49503997793928
20
-9.04949074686073
30
0
41
1
10
-1.49503997793928
20
-8.94403649561852
30
0
41
1
10
-1.49503997793928
20
-8.83540721332508
30
0
41
1
10
-1.49503997793928
20
-8.74651061840999
30
0
41
1
10
-1.49503997793928
20
-8.67894338472402
30
0
41
1
10
-1.49503997793928
20
-8.61044158988983
30
0
41
1
10
-1.49503997793931
20
-8.54100920456628
30
0
41
1
10
-1.49503997793928
20
-8.47065099138817
30
0
41
1
10
-1.49503997793931
20
-8.39937082766957
30
0
41
1
10
-1.49503997793931
20
-8.327172542867
30
0
41
1
10
-1.49503997793931
20
-8.22962444741844
30
0
41
1
10
-1.49503997793931
20
-8.10556186458783
30
0
41
1
10
-1.49503997793931
20
-7.97849120537592
30
0
41
1
10
-1.49503997793928
20
-7.87491786951264
30
0
41
1
10
-1.49503997793931
20
-7.79639781976607
30
0
41
1
10
-1.49503997793931
20
-7.71698851670988
30
0
41
1
10
-1.49503997793928
20
-7.63669274732658
30
0
41
1
10
-1.49503997793928
20
-7.5555140988842
30
0
41
1
10
-1.49503997793931
20
-7.47345537056427
30
0
41
1
10
-1.49503997793931
20
-7.39051932186584
30
0
41
1
10
-1.49503997793931
20
-7.27869561996113
30
0
41
1
10
-1.49503997793931
20
-7.13691288017824
30
0
41
1
10
-1.49503997793931
20
-6.99224343614395
30
0
41
1
10
-1.49503997793931
20
-6.87463786848124
30
0
41
1
10
-1.49503997793928
20
-6.78563788330885
30
0
41
1
10
-1.49503997793931
20
-6.69578175553812
30
0
41
1
10
-1.49503997793928
20
-6.60507157996005
30
0
41
1
10
-1.49503997793931
20
-6.5135100149694
30
0
41
1
10
-1.49503997793931
20
-6.42109916514167
30
0
41
1
10
-1.49503997793931
20
-6.32784120271069
30
0
41
1
10
-1.49503997793931
20
-6.23373849191756
30
0
41
1
10
-1.49503997793931
20
-6.13879286433351
30
0
41
1
10
-1.49503997793931
20
-6.0430064968013
30
0
41
1
10
-1.49503997793931
20
-5.9463816204476
30
0
41
1
10
-1.49503997793931
20
-5.84891995701895
30
0
41
1
10
-1.49503997793931
20
-5.75062380699094
30
0
41
1
10
-1.49503997793931
20
-5.65149504114433
30
0
41
1
10
-1.49503997793931
20
-5.55153561657562
30
0
41
1
10
-1.49503997793931
20
-5.4507477456186
30
0
41
1
10
-1.49503997793931
20
-5.34913288542151
30
0
41
1
10
-1.49503997793931
20
-5.21243879366801
30
0
41
1
10
-1.49503997793931
20
-5.03976742322499
30
0
41
1
10
-1.49503997793931
20
-4.82914716155648
30
0
41
1
10
-1.49503997793931
20
-4.61526986323273
30
0
41
1
10
-1.49503997793931
20
-4.43446210322787
30
0
41
1
10
-1.49503997793931
20
-4.28797249574384
30
0
41
1
10
-1.49503997793931
20
-4.17740500301781
30
0
41
1
10
-1.49503997793928
20
-4.06603800642878
30
0
41
1
10
-1.49503997793931
20
-3.95387458058386
30
0
41
1
10
-1.49503997793931
20
-3.84091862322862
30
0
41
1
10
-1.49503997793931
20
-3.72717407208265
30
0
41
1
10
-1.49503997793931
20
-3.61264412544148
30
0
41
1
10
-1.49503997793931
20
-3.4973327007406
30
0
41
1
10
-1.49503997793928
20
-3.38124473142446
30
0
41
1
10
-1.49503997793931
20
-3.2643857571382
30
0
41
1
10
-1.49503997793931
20
-3.14676167981
30
0
41
1
10
-1.49503997793931
20
-3.02837828417549
30
0
41
1
10
-1.49503997793931
20
-2.90924160987004
30
0
41
1
10
-1.49503997793931
20
-2.78936021153859
30
0
41
1
10
-1.49503997793931
20
-2.66874292602245
30
0
41
1
10
-1.49503997793931
20
-2.54739957461444
30
0
41
1
10
-1.49503997793931
20
-2.44578140509634
30
0
41
1
10
-1.49503997793931
20
-2.37894311658403
30
0
41
1
10
-1.49503997793931
20
-2.35297422288198
30
0
41
1
10
-1.49503997793931
20
-2.34749772747685
30
0
0
SPLINE
5
124
100
AcDbEntity
8
SK1
62
256
6
ByLayer
370
18
48
1
60
0
100
AcDbSpline
70
4
71
3
72
125
73
121
40
0
40
0
40
0
40
0
40
0.0009974457344553
40
0.0047312788473693
40
0.0121989450731971
40
0.019666611299025
40
0.0271342775248529
40
0.0346019437506808
40
0.0420696099765087
40
0.0495372762023365
40
0.0570049424281644
40
0.0644726086539923
40
0.0719402748798202
40
0.079407941105648
40
0.0868756073314759
40
0.0943432735573038
40
0.101810939783132
40
0.10927860600896
40
0.116746272234787
40
0.131681604686443
40
0.146616937138099
40
0.161552269589755
40
0.176487602041411
40
0.191422934493066
40
0.198890600718894
40
0.206358266944722
40
0.21382593317055
40
0.221293599396378
40
0.228761265622206
40
0.236228931848034
40
0.243696598073861
40
0.251164264299689
40
0.258631930525517
40
0.266099596751345
40
0.273567262977173
40
0.281034929203001
40
0.288502595428829
40
0.295970261654657
40
0.303437927880484
40
0.310905594106312
40
0.31837326033214
40
0.325840926557968
40
0.340776259009624
40
0.35571159146128
40
0.363179257687108
40
0.370646923912935
40
0.378114590138763
40
0.385582256364591
40
0.393049922590419
40
0.400517588816247
40
0.407985255042075
40
0.415452921267903
40
0.430388253719558
40
0.445323586171214
40
0.452791252397042
40
0.46025891862287
40
0.467726584848698
40
0.475194251074526
40
0.482661917300354
40
0.490129583526181
40
0.497597249752009
40
0.505064915977837
40
0.520000248429493
40
0.534935580881149
40
0.542403247106977
40
0.549870913332804
40
0.557338579558632
40
0.56480624578446
40
0.572273912010288
40
0.579741578236116
40
0.587209244461944
40
0.594676910687772
40
0.609612243139427
40
0.624547575591083
40
0.632015241816911
40
0.639482908042739
40
0.646950574268567
40
0.654418240494395
40
0.661885906720223
40
0.66935357294605
40
0.676821239171878
40
0.684288905397706
40
0.691756571623534
40
0.699224237849362
40
0.70669190407519
40
0.714159570301018
40
0.721627236526846
40
0.729094902752674
40
0.736562568978501
40
0.744030235204329
40
0.751497901430157
40
0.758965567655985
40
0.766433233881813
40
0.773900900107641
40
0.788836232559296
40
0.796303898785124
40
0.803771565010952
40
0.81123923123678
40
0.818706897462608
40
0.833642229914264
40
0.84857756236592
40
0.863512894817575
40
0.878448227269231
40
0.885915893495059
40
0.893383559720887
40
0.900851225946715
40
0.908318892172543
40
0.91578655839837
40
0.923254224624198
40
0.930721890850026
40
0.938189557075854
40
0.945657223301682
40
0.95312488952751
40
0.960592555753338
40
0.968060221979166
40
0.975527888204993
40
0.982995554430821
40
0.990463220656649
40
0.997930886882477
40
1
40
1
40
1
40
1
41
1
10
-1.49503997793931
20
2.34749778874226
30
0
41
1
10
-1.49503997793931
20
2.35297427447952
30
0
41
1
10
-1.49503997793931
20
2.37894315632079
30
0
41
1
10
-1.49503997793931
20
2.44578144693816
30
0
41
1
10
-1.49503997793931
20
2.54739968477233
30
0
41
1
10
-1.49503997793931
20
2.66874317257185
30
0
41
1
10
-1.49503997793931
20
2.78936037077264
30
0
41
1
10
-1.49503997793931
20
2.90924142661461
30
0
41
1
10
-1.49503997793931
20
3.02837792756958
30
0
41
1
10
-1.49503997793931
20
3.1467617159237
30
0
41
1
10
-1.49503997793931
20
3.26438606521717
30
0
41
1
10
-1.49503997793931
20
3.38124503613648
30
0
41
1
10
-1.49503997793931
20
3.49733277811788
30
0
41
1
10
-1.49503997793931
20
3.61264394142364
30
0
41
1
10
-1.49503997793931
20
3.72717408116662
30
0
41
1
10
-1.49503997793931
20
3.84091905980895
30
0
41
1
10
-1.49503997793931
20
3.9538749194972
30
0
41
1
10
-1.49503997793931
20
4.06603787841615
30
0
41
1
10
-1.49503997793931
20
4.21466878117025
30
0
41
1
10
-1.49503997793931
20
4.39815363484092
30
0
41
1
10
-1.49503997793931
20
4.61526983908041
30
0
41
1
10
-1.49503997793931
20
4.82914721456726
30
0
41
1
10
-1.49503997793931
20
5.03976746321263
30
0
41
1
10
-1.49503997793931
20
5.21243881483207
30
0
41
1
10
-1.49503997793931
20
5.34913293126229
30
0
41
1
10
-1.49503997793931
20
5.45074779186143
30
0
41
1
10
-1.49503997793931
20
5.55153564856462
30
0
41
1
10
-1.49503997793931
20
5.65149506497363
30
0
41
1
10
-1.49503997793931
20
5.75062383535882
30
0
41
1
10
-1.49503997793931
20
5.848919994997
30
0
41
1
10
-1.49503997793931
20
5.94638166396859
30
0
41
1
10
-1.49503997793931
20
6.04300653314334
30
0
41
1
10
-1.49503997793931
20
6.13879288798532
30
0
41
1
10
-1.49503997793931
20
6.23373851513244
30
0
41
1
10
-1.49503997793931
20
6.32784123546006
30
0
41
1
10
-1.49503997793931
20
6.42109920426941
30
0
41
1
10
-1.49503997793931
20
6.51351005185586
30
0
41
1
10
-1.49503997793931
20
6.60507160913491
30
0
41
1
10
-1.49503997793931
20
6.69578177753257
30
0
41
1
10
-1.49503997793931
20
6.78563790735643
30
0
41
1
10
-1.49503997793931
20
6.87463790137696
30
0
41
1
10
-1.49503997793931
20
6.99224347204341
30
0
41
1
10
-1.49503997793931
20
7.13691290674728
30
0
41
1
10
-1.49503997793931
20
7.27869564084133
30
0
41
1
10
-1.49503997793931
20
7.39051935158955
30
0
41
1
10
-1.49503997793931
20
7.4734554025876
30
0
41
1
10
-1.49503997793931
20
7.55551412703412
30
0
41
1
10
-1.49503997793928
20
7.63669277063221
30
0
41
1
10
-1.49503997793931
20
7.71698853718178
30
0
41
1
10
-1.49503997793931
20
7.79639784158888
30
0
41
1
10
-1.49503997793931
20
7.87491789553508
30
0
41
1
10
-1.49503997793928
20
7.97849123285059
30
0
41
1
10
-1.49503997793931
20
8.10556188703811
30
0
41
1
10
-1.49503997793931
20
8.22962446603972
30
0
41
1
10
-1.49503997793931
20
8.32717256436729
30
0
41
1
10
-1.49503997793931
20
8.39937085059915
30
0
41
1
10
-1.49503997793931
20
8.47065101373664
30
0
41
1
10
-1.49503997793931
20
8.5410092251428
30
0
41
1
10
-1.49503997793931
20
8.61044160824594
30
0
41
1
10
-1.49503997793931
20
8.67894340179043
30
0
41
1
10
-1.49503997793931
20
8.74651063563283
30
0
41
1
10
-1.49503997793928
20
8.83540723159925
30
0
41
1
10
-1.49503997793928
20
8.94403651531519
30
0
41
1
10
-1.49503997793931
20
9.04949076260132
30
0
41
1
10
-1.49503997793931
20
9.13202746880455
30
0
41
1
10
-1.49503997793931
20
9.19292022720256
30
0
41
1
10
-1.49503997793931
20
9.25283895193832
30
0
41
1
10
-1.49503997793931
20
9.31177823255615
30
0
41
1
10
-1.49503997793931
20
9.36973273113713
30
0
41
1
10
-1.49503997793928
20
9.4266960508717
30
0
41
1
10
-1.49503997793928
20
9.48266256563366
30
0
41
1
10
-1.49503997793931
20
9.55599654929009
30
0
41
1
10
-1.49503997793931
20
9.64502984201664
30
0
41
1
10
-1.49503997793931
20
9.73065761931014
30
0
41
1
10
-1.49503997793931
20
9.79716969618076
30
0
41
1
10
-1.49503997793928
20
9.84597558452433
30
0
41
1
10
-1.49503997793931
20
9.89373010726783
30
0
41
1
10
-1.49503997793931
20
9.94042557325719
30
0
41
1
10
-1.49503997793931
20
9.9860543789782
30
0
41
1
10
-1.49503997793931
20
10.0306078935895
30
0
41
1
10
-1.49503997793931
20
10.0740780611805
30
0
41
1
10
-1.49503997793931
20
10.1164560583904
30
0
41
1
10
-1.49503997793931
20
10.1577327948517
30
0
41
1
10
-1.49503997793931
20
10.1978993403383
30
0
41
1
10
-1.49503997793931
20
10.2369461598887
30
0
41
1
10
-1.49503997793928
20
10.274863259213
30
0
41
1
10
-1.49503997793928
20
10.3116409824532
30
0
41
1
10
-1.49503997793928
20
10.3472683821575
30
0
41
1
10
-1.49503997793931
20
10.3817350495075
30
0
41
1
10
-1.49503997793928
20
10.4150297588919
30
0
41
1
10
-1.49503997793931
20
10.4471409696622
30
0
41
1
10
-1.49503997793931
20
10.4780569133
30
0
41
1
10
-1.49503997793931
20
10.5077654352017
30
0
41
1
10
-1.49503997793928
20
10.5457784732404
30
0
41
1
10
-1.49503997793928
20
10.5812410280458
30
0
41
1
10
-1.49503997793931
20
10.6142632763632
30
0
41
1
10
-1.49503997793928
20
10.6377347570968
30
0
41
1
10
-1.49503997793928
20
10.659915170864
30
0
41
1
10
-1.49503997793928
20
10.6877698984218
30
0
41
1
10
-1.49503997793928
20
10.7192320300799
30
0
41
1
10
-1.49503997793928
20
10.7515850402438
30
0
41
1
10
-1.49503997793931
20
10.7783612085532
30
0
41
1
10
-1.49503997793931
20
10.7958810888031
30
0
41
1
10
-1.49503997793928
20
10.8069601105976
30
0
41
1
10
-1.49503997793931
20
10.8137595050794
30
0
41
1
10
-1.49503997793928
20
10.8190321898994
30
0
41
1
10
-1.49503997793931
20
10.8227534746688
30
0
41
1
10
-1.49503997793928
20
10.8248969860907
30
0
41
1
10
-1.49503997793931
20
10.8254346743866
30
0
41
1
10
-1.49503997793928
20
10.8243366914961
30
0
41
1
10
-1.49503997793928
20
10.8215727465919
30
0
41
1
10
-1.49503997793931
20
10.817111144712
30
0
41
1
10
-1.49503997793928
20
10.8109188052265
30
0
41
1
10
-1.49503997793928
20
10.8029604091164
30
0
41
1
10
-1.49503997793928
20
10.7931982131186
30
0
41
1
10
-1.49503997793931
20
10.7815935432216
30
0
41
1
10
-1.49503997793928
20
10.7681071704704
30
0
41
1
10
-1.49503997793928
20
10.7526959362134
30
0
41
1
10
-1.49503997793931
20
10.7395034932438
30
0
41
1
10
-1.49503997793931
20
10.731556528203
30
0
41
1
10
-1.49503997793928
20
10.7298063682895
30
0
0
SPLINE
5
125
100
AcDbEntity
8
SK1
62
256
6
ByLayer
370
18
48
1
60
0
100
AcDbSpline
70
4
71
3
72
280
73
276
40
0
40
0
40
0
40
0
40
0.0015800101674553
40
0.0050901158661792
40
0.0086002215649031
40
0.0121103272636269
40
0.0156204329623508
40
0.0191305386610747
40
0.0226406443597986
40
0.0296608557572463
40
0.0366810671546941
40
0.0437012785521419
40
0.0507214899495896
40
0.0542315956483135
40
0.0577417013470374
40
0.0612518070457612
40
0.0647619127444851
40
0.0717821241419329
40
0.0752922298406568
40
0.0788023355393807
40
0.0823124412381046
40
0.0858225469368283
40
0.0893326526355523
40
0.0928427583342761
40
0.096352864033
40
0.0998629697317239
40
0.103373075430448
40
0.106883181129172
40
0.110393286827895
40
0.113903392526619
40
0.117413498225343
40
0.120923603924067
40
0.124433709622791
40
0.127943815321515
40
0.131453921020239
40
0.134964026718963
40
0.138474132417686
40
0.141984238116411
40
0.149004449513858
40
0.156024660911306
40
0.15953476661003
40
0.163044872308754
40
0.166554978007478
40
0.170065083706201
40
0.173575189404925
40
0.177085295103649
40
0.180595400802373
40
0.184105506501097
40
0.191125717898545
40
0.198145929295993
40
0.201656034994716
40
0.20516614069344
40
0.208676246392164
40
0.212186352090888
40
0.215696457789612
40
0.219206563488336
40
0.22271666918706
40
0.226226774885783
40
0.233246986283231
40
0.240267197680679
40
0.243777303379403
40
0.247287409078127
40
0.250797514776851
40
0.254307620475574
40
0.257817726174298
40
0.261327831873022
40
0.264837937571746
40
0.26834804327047
40
0.275368254667918
40
0.282388466065366
40
0.28589857176409
40
0.289408677462813
40
0.292918783161537
40
0.296428888860261
40
0.299938994558985
40
0.303449100257709
40
0.306959205956433
40
0.310469311655157
40
0.313979417353881
40
0.317489523052604
40
0.320999628751328
40
0.324509734450052
40
0.328019840148776
40
0.3315299458475
40
0.335040051546224
40
0.338550157244948
40
0.342060262943671
40
0.345570368642395
40
0.352590580039843
40
0.359610791437291
40
0.366631002834739
40
0.373651214232186
40
0.380671425629634
40
0.384181531328358
40
0.387691637027082
40
0.391201742725806
40
0.39471184842453
40
0.398221954123254
40
0.401732059821978
40
0.405242165520701
40
0.408752271219425
40
0.412262376918149
40
0.415772482616873
40
0.419282588315597
40
0.422792694014321
40
0.426302799713045
40
0.429812905411768
40
0.433323011110492
40
0.435078063959854
40
0.436833116809216
40
0.44034322250794
40
0.443853328206664
40
0.447363433905388
40
0.450873539604112
40
0.454383645302836
40
0.457893751001559
40
0.461403856700283
40
0.464913962399007
40
0.466669015248369
40
0.468424068097731
40
0.470179120947093
40
0.471934173796455
40
0.473689226645817
40
0.475444279495179
40
0.477199332344541
40
0.478954385193903
40
0.480709438043265
40
0.482464490892627
40
0.484219543741989
40
0.485974596591351
40
0.487729649440713
40
0.489484702290074
40
0.491239755139436
40
0.492994807988798
40
0.49474986083816
40
0.496504913687522
40
0.498259966536884
40
0.500015019386246
40
0.501770072235608
40
0.50352512508497
40
0.505280177934332
40
0.507035230783694
40
0.508790283633056
40
0.510545336482418
40
0.51230038933178
40
0.514055442181142
40
0.515810495030503
40
0.517565547879865
40
0.519320600729227
40
0.521075653578589
40
0.522830706427951
40
0.524585759277313
40
0.526340812126675
40
0.528095864976037
40
0.529850917825399
40
0.531605970674761
40
0.533361023524123
40
0.535116076373485
40
0.538626182072209
40
0.542136287770932
40
0.545646393469657
40
0.54915649916838
40
0.552666604867104
40
0.556176710565828
40
0.559686816264552
40
0.563196921963276
40
0.564951974812638
40
0.566707027662
40
0.570217133360724
40
0.573727239059447
40
0.577237344758171
40
0.580747450456895
40
0.584257556155619
40
0.587767661854343
40
0.591277767553067
40
0.594787873251791
40
0.598297978950515
40
0.601808084649238
40
0.605318190347963
40
0.608828296046686
40
0.61233840174541
40
0.615848507444134
40
0.619358613142858
40
0.622868718841582
40
0.626378824540306
40
0.633399035937753
40
0.640419247335201
40
0.647439458732649
40
0.654459670130097
40
0.65796977582882
40
0.661479881527545
40
0.664989987226268
40
0.668500092924992
40
0.672010198623716
40
0.67552030432244
40
0.679030410021164
40
0.682540515719888
40
0.686050621418612
40
0.689560727117335
40
0.693070832816059
40
0.696580938514783
40
0.700091044213507
40
0.703601149912231
40
0.707111255610955
40
0.710621361309679
40
0.714131467008402
40
0.717641572707126
40
0.724661784104574
40
0.731681995502022
40
0.735192101200746
40
0.73870220689947
40
0.742212312598194
40
0.745722418296918
40
0.749232523995641
40
0.752742629694365
40
0.756252735393089
40
0.759762841091813
40
0.766783052489261
40
0.773803263886709
40
0.777313369585432
40
0.780823475284156
40
0.78433358098288
40
0.787843686681604
40
0.791353792380328
40
0.794863898079052
40
0.798374003777776
40
0.8018841094765
40
0.808904320873947
40
0.815924532271395
40
0.819434637970119
40
0.822944743668843
40
0.826454849367567
40
0.829964955066291
40
0.833475060765014
40
0.836985166463738
40
0.840495272162462
40
0.844005377861186
40
0.851025589258634
40
0.858045800656082
40
0.861555906354806
40
0.865066012053529
40
0.868576117752253
40
0.872086223450977
40
0.875596329149701
40
0.879106434848425
40
0.882616540547149
40
0.886126646245873
40
0.889636751944597
40
0.89314685764332
40
0.896656963342044
40
0.900167069040768
40
0.903677174739492
40
0.907187280438216
40
0.91069738613694
40
0.914207491835664
40
0.917717597534388
40
0.921227703233111
40
0.924737808931835
40
0.928247914630559
40
0.935268126028007
40
0.938778231726731
40
0.942288337425455
40
0.945798443124179
40
0.949308548822902
40
0.95632876022035
40
0.963348971617798
40
0.970369183015246
40
0.977389394412693
40
0.980899500111417
40
0.984409605810141
40
0.987919711508865
40
0.991429817207589
40
0.994939922906313
40
0.998450028605037
40
1
40
1
40
1
40
1
41
1
10
-19
20
10.0329492536597
30
0
41
1
10
-19
20
10.0330908019085
30
0
41
1
10
-19
20
10.0333808348338
30
0
41
1
10
-19
20
10.0329736292638
30
0
41
1
10
-19
20
10.0309830775664
30
0
41
1
10
-19
20
10.0275226633951
30
0
41
1
10
-19
20
10.0226134495803
30
0
41
1
10
-19
20
10.0162751664439
30
0
41
1
10
-19
20
10.0058875348545
30
0
41
1
10
-19
20
9.98956609173456
30
0
41
1
10
-19
20
9.9644877669829
30
0
41
1
10
-19
20
9.93413277211897
30
0
41
1
10
-19
20
9.90466617231218
30
0
41
1
10
-19
20
9.87835855867948
30
0
41
1
10
-19
20
9.85747766874042
30
0
41
1
10
-19
20
9.83536689762977
30
0
41
1
10
-19
20
9.80411797985391
30
0
41
1
10
-19
20
9.77091555985692
30
0
41
1
10
-19
20
9.73489077939223
30
0
41
1
10
-19
20
9.70682531106704
30
0
41
1
10
-19
20
9.67760483131215
30
0
41
1
10
-19
20
9.64724068471727
30
0
41
1
10
-19
20
9.6157434616903
30
0
41
1
10
-19
20
9.58312368489487
30
0
41
1
10
-19
20
9.54939200999823
30
0
41
1
10
-19
20
9.51455771866412
30
0
41
1
10
-19
20
9.47863119608741
30
0
41
1
10
-19
20
9.4416216418046
30
0
41
1
10
-19
20
9.40353806264946
30
0
41
1
10
-19
20
9.36438993231127
30
0
41
1
10
-19
20
9.32418544446557
30
0
41
1
10
-19
20
9.28293297227461
30
0
41
1
10
-19
20
9.24064144704931
30
0
41
1
10
-19
20
9.19731819280184
30
0
41
1
10
-19
20
9.1529716782799
30
0
41
1
10
-19
20
9.10760963710962
30
0
41
1
10
-19
20
9.06123902108874
30
0
41
1
10
-19
20
8.99782333228856
30
0
41
1
10
-19
20
8.91664200511914
30
0
41
1
10
-19
20
8.83220800680832
30
0
41
1
10
-19
20
8.76223827415896
30
0
41
1
10
-19
20
8.70900473105829
30
0
41
1
10
-19
20
8.65481733532434
30
0
41
1
10
-19
20
8.59968102157819
30
0
41
1
10
-19
20
8.5436026997406
30
0
41
1
10
-19
20
8.48658847771898
30
0
41
1
10
-19
20
8.42864308493384
30
0
41
1
10
-19
20
8.34984450729289
30
0
41
1
10
-19
20
8.24973849608213
30
0
41
1
10
-19
20
8.14661356098193
30
0
41
1
10
-19
20
8.06173284490114
30
0
41
1
10
-19
20
7.99742345663478
30
0
41
1
10
-19
20
7.93222591806958
30
0
41
1
10
-19
20
7.86614377003909
30
0
41
1
10
-19
20
7.79918272035923
30
0
41
1
10
-19
20
7.73134795661787
30
0
41
1
10
-19
20
7.66264290479879
30
0
41
1
10
-19
20
7.56952283231726
30
0
41
1
10
-19
20
7.45179046448189
30
0
41
1
10
-19
20
7.33122525294459
30
0
41
1
10
-19
20
7.23239719005699
30
0
41
1
10
-19
20
7.15772731741785
30
0
41
1
10
-19
20
7.08222314311985
30
0
41
1
10
-19
20
7.00588739266459
30
0
41
1
10
-19
20
6.92872517773969
30
0
41
1
10
-19
20
6.8507410999662
30
0
41
1
10
-19
20
6.77193793275302
30
0
41
1
10
-19
20
6.66535732677102
30
0
41
1
10
-19
20
6.5310781219363
30
0
41
1
10
-19
20
6.39412574741868
30
0
41
1
10
-19
20
6.28215784138942
30
0
41
1
10
-19
20
6.19773875078891
30
0
41
1
10
-19
20
6.11253406080701
30
0
41
1
10
-19
20
6.02654676803036
30
0
41
1
10
-19
20
5.93978186598008
30
0
41
1
10
-19
20
5.85224375649918
30
0
41
1
10
-19
20
5.76393600430757
30
0
41
1
10
-19
20
5.67486399066652
30
0
41
1
10
-19
20
5.58503142050256
30
0
41
1
10
-19
20
5.49444245957596
30
0
41
1
10
-19
20
5.40310280117828
30
0
41
1
10
-19
20
5.31101593014734
30
0
41
1
10
-19
20
5.2181872813623
30
0
41
1
10
-19
20
5.12462207475713
30
0
41
1
10
-19
20
5.03032492286113
30
0
41
1
10
-19
20
4.93530242964377
30
0
41
1
10
-19
20
4.8395580208946
30
0
41
1
10
-19
20
4.71034653885877
30
0
41
1
10
-19
20
4.54845950265877
30
0
41
1
10
-19
20
4.35063320532774
30
0
41
1
10
-19
20
4.15007820921218
30
0
41
1
10
-19
20
3.94685681236828
30
0
41
1
10
-19
20
3.77604855813308
30
0
41
1
10
-19
20
3.63679046418028
30
0
41
1
10
-19
20
3.53231619129491
30
0
41
1
10
-19
20
3.42723503898236
30
0
41
1
10
-19
20
3.32155992301486
30
0
41
1
10
-19
20
3.2153054606147
30
0
41
1
10
-19
20
3.10848576848568
30
0
41
1
10
-19
20
3.00111573414051
30
0
41
1
10
-19
20
2.89321317852722
30
0
41
1
10
-19
20
2.78479835655281
30
0
41
1
10
-19
20
2.67589021302877
30
0
41
1
10
-19
20
2.56650912624585
30
0
41
1
10
-19
20
2.45668069003122
30
0
41
1
10
-19
20
2.34643018241178
30
0
41
1
10
-19
20
2.23578586879043
30
0
41
1
10
-19
20
2.14381940674537
30
0
41
1
10
-19
20
2.06905901211775
30
0
41
1
10
-19
20
1.99420804195603
30
0
41
1
10
-19
20
1.90180866816087
30
0
41
1
10
-19
20
1.78992235940532
30
0
41
1
10
-19
20
1.67782006325021
30
0
41
1
10
-19
20
1.56555014993987
30
0
41
1
10
-19
20
1.45315823265884
30
0
41
1
10
-19
20
1.34069259518992
30
0
41
1
10
-19
20
1.22820431977141
30
0
41
1
10
-19
20
1.13522914745167
30
0
41
1
10
-19
20
1.05947688607969
30
0
41
1
10
-19
20
1.00330201206953
30
0
41
1
10
-19
20
0.947161044590956
30
0
41
1
10
-19
20
0.891055246744145
30
0
41
1
10
-19
20
0.834992891996194
30
0
41
1
10
-19
20
0.778974983835127
30
0
41
1
10
-19
20
0.723010172894845
30
0
41
1
10
-19
20
0.667096437512441
30
0
41
1
10
-19
20
0.611239537520504
30
0
41
1
10
-19
20
0.555438256952783
30
0
41
1
10
-19
20
0.499694285660439
30
0
41
1
10
-19
20
0.444005417542485
30
0
41
1
10
-19
20
0.388370253126254
30
0
41
1
10
-19
20
0.332784951295196
30
0
41
1
10
-19
20
0.27724537907406
30
0
41
1
10
-19
20
0.221745399560149
30
0
41
1
10
-19
20
0.166278832055241
30
0
41
1
10
-19
20
0.110837824934066
30
0
41
1
10
-19
20
0.0554145387399103
30
0
41
1
10
-19
20
3.86551449E-08
30
0
41
1
10
-19
20
-0.0554144797882259
30
0
41
1
10
-19
20
-0.110837800625205
30
0
41
1
10
-19
20
-0.166278804490219
30
0
41
1
10
-19
20
-0.221745320409724
30
0
41
1
10
-19
20
-0.277245288582151
30
0
41
1
10
-19
20
-0.332784928641019
30
0
41
1
10
-19
20
-0.388370257726166
30
0
41
1
10
-19
20
-0.444005340907694
30
0
41
1
10
-19
20
-0.499694162742941
30
0
41
1
10
-19
20
-0.555438223077687
30
0
41
1
10
-19
20
-0.611239573198077
30
0
41
1
10
-19
20
-0.667096387172222
30
0
41
1
10
-19
20
-0.72301002513845
30
0
41
1
10
-19
20
-0.778974908352069
30
0
41
1
10
-19
20
-0.834992934518169
30
0
41
1
10
-19
20
-0.891055249962079
30
0
41
1
10
-19
20
-0.947160931144765
30
0
41
1
10
-19
20
-1.00330186501549
30
0
41
1
10
-19
20
-1.05947685359391
30
0
41
1
10
-19
20
-1.13522919275331
30
0
41
1
10
-19
20
-1.22820420682382
30
0
41
1
10
-19
20
-1.34069255012383
30
0
41
1
10
-19
20
-1.45315824122116
30
0
41
1
10
-19
20
-1.56555001007138
30
0
41
1
10
-19
20
-1.67782007270242
30
0
41
1
10
-19
20
-1.78992235147862
30
0
41
1
10
-19
20
-1.90180851379787
30
0
41
1
10
-19
20
-1.99420801826724
30
0
41
1
10
-19
20
-2.0690590907827
30
0
41
1
10
-19
20
-2.14381939218558
30
0
41
1
10
-19
20
-2.23578548610092
30
0
41
1
10
-19
20
-2.34642921347088
30
0
41
1
10
-19
20
-2.45668047453484
30
0
41
1
10
-19
20
-2.56651081363336
30
0
41
1
10
-19
20
-2.67589173582562
30
0
41
1
10
-19
20
-2.7847976980388
30
0
41
1
10
-19
20
-2.89321157705834
30
0
41
1
10
-19
20
-3.00111464897742
30
0
41
1
10
-19
20
-3.1084861044454
30
0
41
1
10
-19
20
-3.21530671882519
30
0
41
1
10
-19
20
-3.32155966873089
30
0
41
1
10
-19
20
-3.42723310824633
30
0
41
1
10
-19
20
-3.53231555384818
30
0
41
1
10
-19
20
-3.63679192068699
30
0
41
1
10
-19
20
-3.74064752046886
30
0
41
1
10
-19
20
-3.84387328825898
30
0
41
1
10
-19
20
-3.98140477206883
30
0
41
1
10
-19
20
-4.15007840683617
30
0
41
1
10
-19
20
-4.35063308740936
30
0
41
1
10
-19
20
-4.548459494648
30
0
41
1
10
-19
20
-4.710346539319
30
0
41
1
10
-19
20
-4.83955792501368
30
0
41
1
10
-19
20
-4.93530236631196
30
0
41
1
10
-19
20
-5.03032492621836
30
0
41
1
10
-19
20
-5.1246220876952
30
0
41
1
10
-19
20
-5.21818725421468
30
0
41
1
10
-19
20
-5.3110158630366
30
0
41
1
10
-19
20
-5.40310273191946
30
0
41
1
10
-19
20
-5.494442439056
30
0
41
1
10
-19
20
-5.58503143754709
30
0
41
1
10
-19
20
-5.67486398126673
30
0
41
1
10
-19
20
-5.76393594987684
30
0
41
1
10
-19
20
-5.85224369296404
30
0
41
1
10
-19
20
-5.93978182754935
30
0
41
1
10
-19
20
-6.02654676214735
30
0
41
1
10
-19
20
-6.11253406622629
30
0
41
1
10
-19
20
-6.19773872711932
30
0
41
1
10
-19
20
-6.28215778589691
30
0
41
1
10
-19
20
-6.39412570491888
30
0
41
1
10
-19
20
-6.53107811386184
30
0
41
1
10
-19
20
-6.66535731095081
30
0
41
1
10
-19
20
-6.77193788641881
30
0
41
1
10
-19
20
-6.85074105917917
30
0
41
1
10
-19
20
-6.9287251573476
30
0
41
1
10
-19
20
-7.00588738465538
30
0
41
1
10
-19
20
-7.08222313407848
30
0
41
1
10
-19
20
-7.15772729389116
30
0
41
1
10
-19
20
-7.23239715387311
30
0
41
1
10
-19
20
-7.33122522366617
30
0
41
1
10
-19
20
-7.45179045110856
30
0
41
1
10
-19
20
-7.5695228179415
30
0
41
1
10
-19
20
-7.66264287890505
30
0
41
1
10
-19
20
-7.73134792995933
30
0
41
1
10
-19
20
-7.7991826988324
30
0
41
1
10
-19
20
-7.86614375440624
30
0
41
1
10
-19
20
-7.9322259062088
30
0
41
1
10
-19
20
-7.99742344377475
30
0
41
1
10
-19
20
-8.06173282830699
30
0
41
1
10
-19
20
-8.14661354012861
30
0
41
1
10
-19
20
-8.24973847707108
30
0
41
1
10
-19
20
-8.34984449752756
30
0
41
1
10
-19
20
-8.4286430769059
30
0
41
1
10
-19
20
-8.48658846431246
30
0
41
1
10
-19
20
-8.54360267942897
30
0
41
1
10
-19
20
-8.59968100131871
30
0
41
1
10
-19
20
-8.65481732154311
30
0
41
1
10
-19
20
-8.70900472624047
30
0
41
1
10
-19
20
-8.76223827352649
30
0
41
1
10
-19
20
-8.83220799572914
30
0
41
1
10
-19
20
-8.91664198437633
30
0
41
1
10
-19
20
-8.99782332638691
30
0
41
1
10
-19
20
-9.06123902658183
30
0
41
1
10
-19
20
-9.10760963443713
30
0
41
1
10
-19
20
-9.15297166047552
30
0
41
1
10
-19
20
-9.19731817256692
30
0
41
1
10
-19
20
-9.24064143684652
30
0
41
1
10
-19
20
-9.2829329762028
30
0
41
1
10
-19
20
-9.32418545496637
30
0
41
1
10
-19
20
-9.36438993128212
30
0
41
1
10
-19
20
-9.4035380444378
30
0
41
1
10
-19
20
-9.44162162340905
30
0
41
1
10
-19
20
-9.47863119327923
30
0
41
1
10
-19
20
-9.51455772901525
30
0
41
1
10
-19
20
-9.54939202150851
30
0
41
1
10
-19
20
-9.58312368103438
30
0
41
1
10
-19
20
-9.61574344204712
30
0
41
1
10
-19
20
-9.6472406728098
30
0
41
1
10
-19
20
-9.67760484023773
30
0
41
1
10
-19
20
-9.70682532727795
30
0
41
1
10
-19
20
-9.7348907843963
30
0
41
1
10
-19
20
-9.77091554851933
30
0
41
1
10
-19
20
-9.8041179711955
30
0
41
1
10
-19
20
-9.83536691785611
30
0
41
1
10
-19
20
-9.85747768285276
30
0
41
1
10
-19
20
-9.8783585513138
30
0
41
1
10
-19
20
-9.90466616212436
30
0
41
1
10
-19
20
-9.93413279070077
30
0
41
1
10
-19
20
-9.96448776920468
30
0
41
1
10
-19
20
-9.9895660930479
30
0
41
1
10
-19
20
-10.0058874490332
30
0
41
1
10
-19
20
-10.0162748640149
30
0
41
1
10
-19
20
-10.0226131177802
30
0
41
1
10
-19
20
-10.0275224425779
30
0
41
1
10
-19
20
-10.0309830121398
30
0
41
1
10
-19
20
-10.0329737078169
30
0
41
1
10
-19
20
-10.0333795365275
30
0
41
1
10
-19
20
-10.0330943033981
30
0
41
1
10
-19
20
-10.0329573562787
30
0
0
SPLINE
5
126
100
AcDbEntity
8
SK1
62
256
6
ByLayer
370
18
48
1
60
0
100
AcDbSpline
70
4
71
3
72
24
73
20
40
0
40
0
40
0
40
0
40
0.050180554984332
40
0.050180554984332
40
0.100361109968664
40
0.100361109968664
40
0.150541664952996
40
0.150541664952996
40
0.200722219937328
40
0.200722219937328
40
0.30108332990599
40
0.30108332990599
40
0.401444439874652
40
0.401444439874652
40
0.602166659811976
40
0.602166659811976
40
0.8028888797493
40
0.8028888797493
40
1
40
1
40
1
40
1
41
1
10
-0.394976888875277
20
-10.7863556154697
30
0
41
1
10
-0.388229723946807
20
-10.7872339754396
30
0
41
1
10
-0.380746207620859
20
-10.7883866177815
30
0
41
1
10
-0.364126187236963
20
-10.7915913284423
30
0
41
1
10
-0.354764882875145
20
-10.7937223561149
30
0
41
1
10
-0.336462108145696
20
-10.7987165168013
30
0
41
1
10
-0.327842670130309
20
-10.801482093034
30
0
41
1
10
-0.313368169427036
20
-10.8066138265058
30
0
41
1
10
-0.307158527568134
20
-10.8090774621456
30
0
41
1
10
-0.290903658928926
20
-10.8159406487968
30
0
41
1
10
-0.282715487075364
20
-10.8199974787336
30
0
41
1
10
-0.268787290911746
20
-10.8273487980068
30
0
41
1
10
-0.263080297789088
20
-10.8306636269559
30
0
41
1
10
-0.247968148818728
20
-10.8399131272224
30
0
41
1
10
-0.240545595772318
20
-10.8451697506636
30
0
41
1
10
-0.22829263615688
20
-10.8543964009072
30
0
41
1
10
-0.223536988817415
20
-10.8583532007604
30
0
41
1
10
-0.215734079735512
20
-10.8652064042841
30
0
41
1
10
-0.212649136668404
20
-10.8681232834562
30
0
41
1
10
-0.210160738286618
20
-10.8706202011295
30
0
0
SPLINE
5
127
100
AcDbEntity
8
1
62
256
6
ByLayer
370
18
48
1
60
0
100
AcDbSpline
70
4
71
3
72
10
73
6
40
0
40
0
40
0
40
0
40
0.632008739010904
40
0.632008739010904
40
1
40
1
40
1
40
1
41
1
10
12.7805459037027
20
5.34021061993576
30
0
41
1
10
12.7919482033857
20
5.14453278079722
30
0
41
1
10
12.8083086434842
20
4.94206518069149
30
0
41
1
10
12.8356351546645
20
4.61049206830637
30
0
41
1
10
12.8460034320928
20
4.4860732593306
30
0
41
1
10
12.8560483712286
20
4.3591524585718
30
0
0
SPLINE
5
128
100
AcDbEntity
8
1
62
256
6
ByLayer
370
18
48
1
60
0
100
AcDbSpline
70
4
71
3
72
10
73
6
40
0
40
0
40
0
40
0
40
0.226910391164499
40
0.226910391164499
40
1
40
1
40
1
40
1
41
1
10
12.8371468231624
20
0.855243877643801
30
0
41
1
10
12.8322783479678
20
0.791317105001127
30
0
41
1
10
12.8274249284421
20
0.72786328614734
30
0
41
1
10
12.8064858709701
20
0.451248462678166
30
0
41
1
10
12.7913354675001
20
0.244185472954115
30
0
41
1
10
12.7805459037027
20
0.0442189241659321
30
0
0
SPLINE
5
129
100
AcDbEntity
8
1
62
256
6
ByLayer
370
18
48
1
60
0
100
AcDbSpline
70
4
71
3
72
8
73
4
40
0
40
0
40
0
40
0
40
1
40
1
40
1
40
1
41
1
10
31.9300016786346
20
18.0509979380349
30
0
41
1
10
31.9774859992019
20
18.0907965202858
30
0
41
1
10
32.0249695081954
20
18.1305937771244
30
0
41
1
10
32.0724521969972
20
18.1703896944777
30
0
0
SPLINE
5
12A
100
AcDbEntity
8
1
62
256
6
ByLayer
370
18
48
1
60
0
100
AcDbSpline
70
4
71
3
72
14
73
10
40
0
40
0
40
0
40
0
40
0.25
40
0.25
40
0.5
40
0.5
40
0.75
40
0.75
40
1
40
1
40
1
40
1
41
1
10
7.33660254037844
20
15.1759383782004
30
0
41
1
10
7.32728982767742
20
15.1873778358498
30
0
41
1
10
7.31614231629334
20
15.198472208594
30
0
41
1
10
7.28887004110388
20
15.2198416823914
30
0
41
1
10
7.27269635160141
20
15.2301915117671
30
0
41
1
10
7.23273141305904
20
15.2494254085199
30
0
41
1
10
7.20888443598326
20
15.2583500685585
30
0
41
1
10
7.15069584045267
20
15.2721173071439
30
0
41
1
10
7.11461224097539
20
15.2769622091386
30
0
41
1
10
7.07679491924313
20
15.2769622091386
30
0
0
SPLINE
5
12B
100
AcDbEntity
8
1
62
256
6
ByLayer
370
18
48
1
60
0
100
AcDbSpline
70
4
71
3
72
14
73
10
40
0
40
0
40
0
40
0
40
0.25
40
0.25
40
0.5
40
0.5
40
0.75
40
0.75
40
1
40
1
40
1
40
1
41
1
10
7.33660254037844
20
-5.06861858311171
30
0
41
1
10
7.32728982767742
20
-5.03436773122368
30
0
41
1
10
7.31614231629334
20
-5.00076260618599
30
0
41
1
10
7.28887004110388
20
-4.93534226591984
30
0
41
1
10
7.27269635160141
20
-4.90329108735244
30
0
41
1
10
7.23273141305904
20
-4.84314171611766
30
0
41
1
10
7.20888443598326
20
-4.81490199488556
30
0
41
1
10
7.15069584045267
20
-4.77105449474931
30
0
41
1
10
7.11461224097539
20
-4.75546271781747
30
0
41
1
10
7.0767949192431
20
-4.75546271781747
30
0
0
SPLINE
5
12C
100
AcDbEntity
8
1
62
256
6
ByLayer
370
18
48
1
60
0
100
AcDbSpline
70
4
71
3
72
14
73
10
40
0
40
0
40
0
40
0
40
0.25
40
0.25
40
0.5
40
0.5
40
0.75
40
0.75
40
1
40
1
40
1
40
1
41
1
10
7.0767949192431
20
4.75546271781755
30
0
41
1
10
7.11466817344115
20
4.75546271781755
30
0
41
1
10
7.15018729089476
20
4.77068116219561
30
0
41
1
10
7.20931301339434
20
4.81521507849266
30
0
41
1
10
7.2327434544832
20
4.84315978484935
30
0
41
1
10
7.27268471918069
20
4.90327363414829
30
0
41
1
10
7.28871702938673
20
4.93501774293344
30
0
41
1
10
7.31604838234074
20
5.00049514204591
30
0
41
1
10
7.32728622413811
20
5.03435447791105
30
0
41
1
10
7.33660254037849
20
5.06861858311169
30
0
0
SPLINE
5
12D
100
AcDbEntity
8
1
62
256
6
ByLayer
370
18
48
1
60
0
100
AcDbSpline
70
4
71
3
72
14
73
10
40
0
40
0
40
0
40
0
40
0.25
40
0.25
40
0.5
40
0.5
40
0.75
40
0.75
40
1
40
1
40
1
40
1
41
1
10
7.07679491924313
20
-15.2769622091386
30
0
41
1
10
7.11466817344117
20
-15.2769622091386
30
0
41
1
10
7.15018729089479
20
-15.2722344777971
30
0
41
1
10
7.20931301339436
20
-15.2582518148049
30
0
41
1
10
7.23274345448323
20
-15.249419631371
30
0
41
1
10
7.27268471918069
20
-15.2301970920895
30
0
41
1
10
7.28871702938673
20
-15.219946979117
30
0
41
1
10
7.31604838234074
20
-15.198560277361
30
0
41
1
10
7.32728622413813
20
-15.1873822623297
30
0
41
1
10
7.33660254037849
20
-15.1759383782004
30
0
0
SPLINE
5
12E
100
AcDbEntity
8
1
62
256
6
ByLayer
370
18
48
1
60
0
100
AcDbSpline
70
4
71
3
72
8
73
4
40
0
40
0
40
0
40
0
40
1
40
1
40
1
40
1
41
1
10
16.7653246960697
20
16.9444540946494
30
0
41
1
10
16.6382668867933
20
17.2787189209766
30
0
41
1
10
16.5125412002747
20
17.613197539491
30
0
41
1
10
16.3895801793366
20
17.9484276920238
30
0
0
SPLINE
5
12F
100
AcDbEntity
8
1
62
256
6
ByLayer
370
18
48
1
60
0
100
AcDbSpline
70
4
71
3
72
24
73
20
40
0
40
0
40
0
40
0
40
0.249999999999998
40
0.249999999999998
40
0.312499999999998
40
0.312499999999998
40
0.374999999999998
40
0.374999999999998
40
0.499999999999998
40
0.499999999999998
40
0.562499999999998
40
0.562499999999998
40
0.624999999999998
40
0.624999999999998
40
0.749999999999999
40
0.749999999999999
40
0.874999999999999
40
0.874999999999999
40
1
40
1
40
1
40
1
41
1
10
15.1861384096168
20
-15.6507146384232
30
0
41
1
10
14.841969543289
20
-15.6192960544084
30
0
41
1
10
14.5274253801871
20
-15.5766181810142
30
0
41
1
10
14.1701483905311
20
-15.5036620004852
30
0
41
1
10
14.1002699285102
20
-15.4880057747998
30
0
41
1
10
13.9655509204928
20
-15.4547861226025
30
0
41
1
10
13.9008618435616
20
-15.43727315882
30
0
41
1
10
13.7145579455953
20
-15.3818565871958
30
0
41
1
10
13.6006761074355
20
-15.3410851705853
30
0
41
1
10
13.4449536471372
20
-15.2733471123287
30
0
41
1
10
13.3955707320062
20
-15.2496685759795
30
0
41
1
10
13.3018819526065
20
-15.199940803421
30
0
41
1
10
13.2574662029623
20
-15.1738040091493
30
0
41
1
10
13.1336294105223
20
-15.0927229609056
30
0
41
1
10
13.0630062162085
20
-15.0348674406526
30
0
41
1
10
12.9441444612883
20
-14.911011362348
30
0
41
1
10
12.8959123630523
20
-14.8450119932998
30
0
41
1
10
12.8214107933176
20
-14.7041910548992
30
0
41
1
10
12.7954388074876
20
-14.6297546474353
30
0
41
1
10
12.7805459037027
20
-14.5519477602817
30
0
0
SPLINE
5
130
100
AcDbEntity
8
1
62
256
6
ByLayer
370
18
48
1
60
0
100
AcDbSpline
70
4
71
3
72
8
73
4
40
0
40
0
40
0
40
0
40
1
40
1
40
1
40
1
41
1
10
16.694070927122
20
19.1369084339429
30
0
41
1
10
16.5917026876082
20
18.7397159630687
30
0
41
1
10
16.4901505183078
20
18.3435558981165
30
0
41
1
10
16.3895801793365
20
17.9484276920238
30
0
0
SPLINE
5
131
100
AcDbEntity
8
1
62
256
6
ByLayer
370
18
48
1
60
0
100
AcDbSpline
70
4
71
3
72
9
73
5
40
0
40
0
40
0
40
0
40
0.5
40
1
40
1
40
1
40
1
41
1
10
16.3895801793365
20
17.9484276920238
30
0
41
1
10
16.3174157898654
20
17.6741816659821
30
0
41
1
10
16.173436720704
20
17.1259012075683
30
0
41
1
10
16.0302473317083
20
16.578023110913
30
0
41
1
10
15.9588790706481
20
16.304178712583
30
0
0
SPLINE
5
132
100
AcDbEntity
8
1
62
256
6
ByLayer
370
18
48
1
60
0
100
AcDbSpline
70
4
71
3
72
14
73
10
40
0
40
0
40
0
40
0
40
0.25
40
0.25
40
0.5
40
0.5
40
0.75
40
0.75
40
1
40
1
40
1
40
1
41
1
10
4.66339745962154
20
5.06861858311171
30
0
41
1
10
4.67271017232258
20
5.03436773122371
30
0
41
1
10
4.68385768370663
20
5.00076260618602
30
0
41
1
10
4.71112995889609
20
4.93534226591984
30
0
41
1
10
4.72730364839856
20
4.90329108735247
30
0
41
1
10
4.76726858694093
20
4.84314171611769
30
0
41
1
10
4.79111556401671
20
4.81490199488556
30
0
41
1
10
4.8493041595473
20
4.77105449474934
30
0
41
1
10
4.88538775902458
20
4.75546271781749
30
0
41
1
10
4.92320508075687
20
4.75546271781749
30
0
0
SPLINE
5
133
100
AcDbEntity
8
1
62
256
6
ByLayer
370
18
48
1
60
0
100
AcDbSpline
70
4
71
3
72
20
73
16
40
0
40
0
40
0
40
0
40
0.125000000000002
40
0.125000000000002
40
0.250000000000004
40
0.250000000000004
40
0.375000000000006
40
0.375000000000006
40
0.500000000000008
40
0.500000000000008
40
0.750000000000007
40
0.750000000000007
40
0.875000000000003
40
0.875000000000003
40
1
40
1
40
1
40
1
41
1
10
15.1861384096169
20
15.6507146384232
30
0
41
1
10
15.2285138443495
20
15.6545830189961
30
0
41
1
10
15.2714651027448
20
15.6617864386609
30
0
41
1
10
15.3553867464741
20
15.6824300764021
30
0
41
1
10
15.3966570035319
20
15.6958653319921
30
0
41
1
10
15.4777120226777
20
15.7290730237304
30
0
41
1
10
15.5177823146142
20
15.7490199528848
30
0
41
1
10
15.5948211443559
20
15.7949783649511
30
0
41
1
10
15.6314523031069
20
15.8207269178484
30
0
41
1
10
15.7355470815164
20
15.9062521769055
30
0
41
1
10
15.7980273232437
20
15.9756494366204
30
0
41
1
10
15.8725150396233
20
16.0906238891272
30
0
41
1
10
15.8943766991864
20
16.1308840596191
30
0
41
1
10
15.931826731826
20
16.2154445031301
30
0
41
1
10
15.9472665301668
20
16.259620681969
30
0
41
1
10
15.9588790706481
20
16.304178712583
30
0
0
SPLINE
5
134
100
AcDbEntity
8
1
62
256
6
ByLayer
370
18
48
1
60
0
100
AcDbSpline
70
4
71
3
72
22
73
18
40
0
40
0
40
0
40
0
40
0.25
40
0.25
40
0.375
40
0.375
40
0.5
40
0.5
40
0.625
40
0.625
40
0.6875
40
0.6875
40
0.75
40
0.75
40
0.875
40
0.875
40
1
40
1
40
1
40
1
41
1
10
12.7805459037027
20
14.5519477602817
30
0
41
1
10
12.8103568184847
20
14.7076927053842
30
0
41
1
10
12.8831469262534
20
14.8469321204185
30
0
41
1
10
13.0616184783435
20
15.0336760548657
30
0
41
1
10
13.1334836198805
20
15.0925880286792
30
0
41
1
10
13.2980518504373
20
15.200416380444
30
0
41
1
10
13.3908187592236
20
15.2496454437978
30
0
41
1
10
13.5975336510369
20
15.3398677096513
30
0
41
1
10
13.7114749933185
20
15.3808591374884
30
0
41
1
10
13.8992138672835
20
15.4368221573921
30
0
41
1
10
13.9645734551214
20
15.4545258332344
30
0
41
1
10
14.0987724834747
20
15.4876554371345
30
0
41
1
10
14.1678702170304
20
15.5031620881395
30
0
41
1
10
14.3810807014334
20
15.5468020093885
30
0
41
1
10
14.531083913404
20
15.5720698918043
30
0
41
1
10
14.847040586041
20
15.6161324947209
30
0
41
1
10
15.0138317849511
20
15.6349850629357
30
0
41
1
10
15.1861384096168
20
15.6507146384232
30
0
0
SPLINE
5
135
100
AcDbEntity
8
1
62
256
6
ByLayer
370
18
48
1
60
0
100
AcDbSpline
70
4
71
3
72
14
73
10
40
0
40
0
40
0
40
0
40
0.25
40
0.25
40
0.5
40
0.5
40
0.75
40
0.75
40
1
40
1
40
1
40
1
41
1
10
4.66339745962156
20
-15.1759383782004
30
0
41
1
10
4.67271017232258
20
-15.1873778358497
30
0
41
1
10
4.68385768370666
20
-15.198472208594
30
0
41
1
10
4.71112995889609
20
-15.2198416823914
30
0
41
1
10
4.72730364839859
20
-15.2301915117671
30
0
41
1
10
4.76726858694093
20
-15.2494254085199
30
0
41
1
10
4.79111556401671
20
-15.2583500685585
30
0
41
1
10
4.8493041595473
20
-15.2721173071439
30
0
41
1
10
4.88538775902458
20
-15.2769622091386
30
0
41
1
10
4.92320508075687
20
-15.2769622091386
30
0
0
SPLINE
5
136
100
AcDbEntity
8
1
62
256
6
ByLayer
370
18
48
1
60
0
100
AcDbSpline
70
4
71
3
72
10
73
6
40
0
40
0
40
0
40
0
40
0.5
40
0.5
40
1
40
1
40
1
40
1
41
1
10
15.6525073622713
20
-15.8382476823774
30
0
41
1
10
15.5843586140279
20
-15.7844535746389
30
0
41
1
10
15.5080670310731
20
-15.7407051580696
30
0
41
1
10
15.3510381648529
20
-15.6780620146413
30
0
41
1
10
15.2684715431704
20
-15.6582306886149
30
0
41
1
10
15.1861384096168
20
-15.6507146384232
30
0
0
SPLINE
5
137
100
AcDbEntity
8
1
62
256
6
ByLayer
370
18
48
1
60
0
100
AcDbSpline
70
4
71
3
72
14
73
10
40
0
40
0
40
0
40
0
40
0.25
40
0.25
40
0.5
40
0.5
40
0.75
40
0.75
40
1
40
1
40
1
40
1
41
1
10
4.92320508075687
20
15.2769622091386
30
0
41
1
10
4.88533182655883
20
15.2769622091386
30
0
41
1
10
4.84981270910521
20
15.2722344777971
30
0
41
1
10
4.79068698660564
20
15.2582518148049
30
0
41
1
10
4.76725654551677
20
15.249419631371
30
0
41
1
10
4.72731528081931
20
15.2301970920895
30
0
41
1
10
4.71128297061327
20
15.219946979117
30
0
41
1
10
4.68395161765926
20
15.1985602773611
30
0
41
1
10
4.67271377586187
20
15.1873822623297
30
0
41
1
10
4.66339745962151
20
15.1759383782004
30
0
0
SPLINE
5
138
100
AcDbEntity
8
1
62
256
6
ByLayer
370
18
48
1
60
0
100
AcDbSpline
70
4
71
3
72
14
73
10
40
0
40
0
40
0
40
0
40
0.25
40
0.25
40
0.5
40
0.5
40
0.75
40
0.75
40
1
40
1
40
1
40
1
41
1
10
4.92320508075687
20
-4.75546271781755
30
0
41
1
10
4.88533182655883
20
-4.75546271781755
30
0
41
1
10
4.84981270910521
20
-4.77068116219559
30
0
41
1
10
4.79068698660564
20
-4.81521507849266
30
0
41
1
10
4.76725654551677
20
-4.84315978484935
30
0
41
1
10
4.72731528081931
20
-4.90327363414829
30
0
41
1
10
4.71128297061327
20
-4.93501774293344
30
0
41
1
10
4.68395161765926
20
-5.00049514204591
30
0
41
1
10
4.67271377586187
20
-5.03435447791105
30
0
41
1
10
4.66339745962151
20
-5.06861858311169
30
0
0
SPLINE
5
139
100
AcDbEntity
8
1
62
256
6
ByLayer
370
18
48
1
60
0
100
AcDbSpline
70
4
71
3
72
8
73
4
40
0
40
0
40
0
40
0
40
1
40
1
40
1
40
1
41
1
10
16.7653246960697
20
-15.8689161570663
30
0
41
1
10
16.385259570467
20
-15.8689161570663
30
0
41
1
10
16.014382755516
20
-15.8591458691218
30
0
41
1
10
15.6525073622713
20
-15.8382476823774
30
0
0
SPLINE
5
13A
100
AcDbEntity
8
SK1
62
256
6
ByLayer
370
18
48
1
60
0
100
AcDbSpline
70
4
71
3
72
28
73
24
40
0
40
0
40
0
40
0
40
0.0312499999999995
40
0.0312499999999995
40
0.062499999999999
40
0.062499999999999
40
0.0937499999999985
40
0.0937499999999985
40
0.124999999999998
40
0.124999999999998
40
0.156249999999997
40
0.156249999999997
40
0.187499999999997
40
0.187499999999997
40
0.249999999999997
40
0.249999999999997
40
0.374999999999997
40
0.374999999999997
40
0.499999999999997
40
0.499999999999997
40
0.749999999999998
40
0.749999999999998
40
1
40
1
40
1
40
1
41
1
10
-0.394976888875306
20
-4.64126630128334
30
0
41
1
10
-0.410538103580563
20
-4.65364186521262
30
0
41
1
10
-0.427010604500793
20
-4.665082487902
30
0
41
1
10
-0.462648633838029
20
-4.68523662122519
30
0
41
1
10
-0.481821634374171
20
-4.69389268221389
30
0
41
1
10
-0.522184828139046
20
-4.706347312541
30
0
41
1
10
-0.544038833004578
20
-4.71022283513202
30
0
41
1
10
-0.587715077659624
20
-4.71138007136679
30
0
41
1
10
-0.609988656333826
20
-4.70866658407053
30
0
41
1
10
-0.651936333293122
20
-4.69780462997821
30
0
41
1
10
-0.672053792922583
20
-4.68964247903688
30
0
41
1
10
-0.709050896813864
20
-4.67034838331301
30
0
41
1
10
-0.726206785925086
20
-4.65916835210865
30
0
41
1
10
-0.774929279627912
20
-4.62246089456249
30
0
41
1
10
-0.802611101405404
20
-4.59486378444373
30
0
41
1
10
-0.878364934839823
20
-4.50792816081182
30
0
41
1
10
-0.919508324728469
20
-4.44378947618989
30
0
41
1
10
-0.992167313863263
20
-4.31355680330893
30
0
41
1
10
-1.02373064440482
20
-4.24668451829362
30
0
41
1
10
-1.11033810342741
20
-4.04239794781449
30
0
41
1
10
-1.15739594615661
20
-3.90123471857601
30
0
41
1
10
-1.24036363182
20
-3.61194658874774
30
0
41
1
10
-1.27578264448559
20
-3.46438627450036
30
0
41
1
10
-1.30710678118655
20
-3.31403252781453
30
0
0
SPLINE
5
13B
100
AcDbEntity
8
SK1
62
256
6
ByLayer
370
18
48
1
60
0
100
AcDbSpline
70
4
71
3
72
8
73
4
40
0
40
0
40
0
40
0
40
1
40
1
40
1
40
1
41
1
10
-1.49503997793943
20
-2.34749772747679
30
0
41
1
10
-1.43626560612748
20
-2.67902807993096
30
0
41
1
10
-1.37243775634695
20
-3.00044824666469
30
0
41
1
10
-1.30710678118655
20
-3.31403252781453
30
0
0
SPLINE
5
13C
100
AcDbEntity
8
SK1
62
256
6
ByLayer
370
18
48
1
60
0
100
AcDbSpline
70
4
71
3
72
24
73
20
40
0
40
0
40
0
40
0
40
0.250000000000001
40
0.250000000000001
40
0.500000000000002
40
0.500000000000002
40
0.625000000000002
40
0.625000000000002
40
0.750000000000002
40
0.750000000000002
40
0.812500000000001
40
0.812500000000001
40
0.875
40
0.875
40
0.90625
40
0.90625
40
0.9375
40
0.9375
40
1
40
1
40
1
40
1
41
1
10
-1.30710678118655
20
3.31403271963526
30
0
41
1
10
-1.2757494799078
20
3.46454711728401
30
0
41
1
10
-1.24031009287512
20
3.61214255513721
30
0
41
1
10
-1.15739630350021
20
3.90122349826424
30
0
41
1
10
-1.11012157217945
20
4.04313436218038
30
0
41
1
10
-1.02289253731746
20
4.24855125063863
30
0
41
1
10
-0.990963079693017
20
4.31599126643184
30
0
41
1
10
-0.918035594195459
20
4.44616891840178
30
0
41
1
10
-0.877605368911418
20
4.50901937908475
30
0
41
1
10
-0.801610001723759
20
4.59589845469475
30
0
41
1
10
-0.773445750781548
20
4.62376040356415
30
0
41
1
10
-0.708881579743149
20
4.67202946940961
30
0
41
1
10
-0.671775564957699
20
4.69287070208492
30
0
41
1
10
-0.608870282791003
20
4.7088494057308
30
0
41
1
10
-0.586919259134504
20
4.7114327189997
30
0
41
1
10
-0.543256086641435
20
4.71012444539568
30
0
41
1
10
-0.521784547080472
20
4.70626601243146
30
0
41
1
10
-0.460997604342367
20
4.68737906849933
30
0
41
1
10
-0.425968808471112
20
4.66591256446631
30
0
41
1
10
-0.394976888875306
20
4.64126507959355
30
0
0
SPLINE
5
13D
100
AcDbEntity
8
SK1
62
256
6
ByLayer
370
18
48
1
60
0
100
AcDbSpline
70
4
71
3
72
26
73
22
40
0
40
0
40
0
40
0
40
0.25
40
0.25
40
0.5
40
0.5
40
0.625
40
0.625
40
0.75
40
0.75
40
0.8125
40
0.8125
40
0.875
40
0.875
40
0.90625
40
0.90625
40
0.9375
40
0.9375
40
0.96875
40
0.96875
40
1
40
1
40
1
40
1
41
1
10
-0.199999999999989
20
10.8830974324245
30
0
41
1
10
-0.199999999999989
20
10.8824645943826
30
0
41
1
10
-0.201187513292353
20
10.8805342384832
30
0
41
1
10
-0.207122203656127
20
10.8736239540415
30
0
41
1
10
-0.211794067452075
20
10.8686560710883
30
0
41
1
10
-0.223700935835382
20
10.8582147381252
30
0
41
1
10
-0.228491814250987
20
10.8542368899611
30
0
41
1
10
-0.240792613043794
20
10.8449936136375
30
0
41
1
10
-0.248216122890199
20
10.8397475078909
30
0
41
1
10
-0.26336156208427
20
10.830498675013
30
0
41
1
10
-0.269082760992802
20
10.8271830435623
30
0
41
1
10
-0.283069792502459
20
10.8198207388364
30
0
41
1
10
-0.291209812579695
20
10.8157954409435
30
0
41
1
10
-0.307599008254016
20
10.8088998867936
30
0
41
1
10
-0.313694145561414
20
10.806488718077
30
0
41
1
10
-0.328298858095224
20
10.8013304121265
30
0
41
1
10
-0.336778157208187
20
10.7986240120535
30
0
41
1
10
-0.354898271374481
20
10.7936923742731
30
0
41
1
10
-0.364327685730132
20
10.7915489208813
30
0
41
1
10
-0.380847600244238
20
10.7883706781472
30
0
41
1
10
-0.388267203768805
20
10.7872290918977
30
0
41
1
10
-0.394976888893893
20
10.7863556111439
30
0
0
SPLINE
5
13E
100
AcDbEntity
8
SK1
62
256
6
ByLayer
370
18
48
1
60
0
100
AcDbSpline
70
4
71
3
72
30
73
26
40
0
40
0
40
0
40
0
40
0.249999999999999
40
0.249999999999999
40
0.374999999999999
40
0.374999999999999
40
0.406249999999999
40
0.406249999999999
40
0.4375
40
0.4375
40
0.453125
40
0.453125
40
0.46875
40
0.46875
40
0.484375
40
0.484375
40
0.5
40
0.5
40
0.5625
40
0.5625
40
0.625
40
0.625
40
0.75
40
0.75
40
1
40
1
40
1
40
1
41
1
10
-1.70000000000019
20
-2.3475116817483
30
0
41
1
10
-1.6996066854698
20
-2.25623396154072
30
0
41
1
10
-1.69768973423007
20
-2.16466871102159
30
0
41
1
10
-1.68840878636888
20
-2.02653832803941
30
0
41
1
10
-1.68447381012007
20
-1.98015033474314
30
0
41
1
10
-1.67500700264603
20
-1.92237117894842
30
0
41
1
10
-1.67286556273913
20
-1.91086845959944
30
0
41
1
10
-1.667616432496
20
-1.88806909845482
30
0
41
1
10
-1.66458097363636
20
-1.87674186892284
30
0
41
1
10
-1.65820304509464
20
-1.86077504854933
30
0
41
1
10
-1.65573672845014
20
-1.85556337213336
30
0
41
1
10
-1.64962232235669
20
-1.84672595826834
30
0
41
1
10
-1.64578432291506
20
-1.84310386516225
30
0
41
1
10
-1.63744105795172
20
-1.8410487553646
30
0
41
1
10
-1.63336738073843
20
-1.84262996287558
30
0
41
1
10
-1.62638521764794
20
-1.84784090568601
30
0
41
1
10
-1.62337884195341
20
-1.85136525078434
30
0
41
1
10
-1.60950691675959
20
-1.87066936025502
30
0
41
1
10
-1.60202770662036
20
-1.89002969081321
30
0
41
1
10
-1.58788655238161
20
-1.92906899596341
30
0
41
1
10
-1.58172364169809
20
-1.94916743771566
30
0
41
1
10
-1.56438502382096
20
-2.01014726079796
30
0
41
1
10
-1.55440302834043
20
-2.0517421190855
30
0
41
1
10
-1.52628861644465
20
-2.17740701281988
30
0
41
1
10
-1.51012717698117
20
-2.26239491373991
30
0
41
1
10
-1.49503997793821
20
-2.34749772746753
30
0
0
SPLINE
5
13F
100
AcDbEntity
8
SK1
62
256
6
ByLayer
370
18
48
1
60
0
100
AcDbSpline
70
4
71
3
72
26
73
22
40
0
40
0
40
0
40
0
40
0.0312500000000005
40
0.0312500000000005
40
0.0625000000000009
40
0.0625000000000009
40
0.0937500000000014
40
0.0937500000000014
40
0.125000000000002
40
0.125000000000002
40
0.187500000000002
40
0.187500000000002
40
0.250000000000002
40
0.250000000000002
40
0.375000000000002
40
0.375000000000002
40
0.500000000000003
40
0.500000000000003
40
0.750000000000002
40
0.750000000000002
40
1
40
1
40
1
40
1
41
1
10
-0.394976888875306
20
4.64126507959352
30
0
41
1
10
-0.388229750847472
20
4.63589916536026
30
0
41
1
10
-0.380746262232663
20
4.63125993946144
30
0
41
1
10
-0.364126288101289
20
4.62555337087159
30
0
41
1
10
-0.354765000102134
20
4.6246512136812
30
0
41
1
10
-0.336462236204795
20
4.62886400864082
30
0
41
1
10
-0.327842804624367
20
4.63385912175337
30
0
41
1
10
-0.313368319475018
20
4.64605803968357
30
0
41
1
10
-0.307158686942017
20
4.65334903515713
30
0
41
1
10
-0.290903848595747
20
4.67602684096889
30
0
41
1
10
-0.2827156915763
20
4.69267611811986
30
0
41
1
10
-0.268787510495315
20
4.72597732550804
30
0
41
1
10
-0.26308051174712
20
4.74282823214691
30
0
41
1
10
-0.247968322277558
20
4.79366001026494
30
0
41
1
10
-0.240545716778598
20
4.82803961499471
30
0
41
1
10
-0.22829270700575
20
4.89636228055082
30
0
41
1
10
-0.223537065882226
20
4.9303117851901
30
0
41
1
10
-0.211726479729606
20
5.03163791327492
30
0
41
1
10
-0.207092626945581
20
5.09849503928629
30
0
41
1
10
-0.201186640396742
20
5.23108027913526
30
0
41
1
10
-0.200000000000046
20
5.29680323555488
30
0
41
1
10
-0.200000000000046
20
5.36201916429005
30
0
0
SPLINE
5
140
100
AcDbEntity
8
SK1
62
256
6
ByLayer
370
18
48
1
60
0
100
AcDbSpline
70
4
71
3
72
26
73
22
40
0
40
0
40
0
40
0
40
0.250000000000001
40
0.250000000000001
40
0.500000000000003
40
0.500000000000003
40
0.625000000000003
40
0.625000000000003
40
0.750000000000004
40
0.750000000000004
40
0.812500000000003
40
0.812500000000003
40
0.875000000000002
40
0.875000000000002
40
0.906250000000001
40
0.906250000000001
40
0.937500000000001
40
0.937500000000001
40
0.96875
40
0.96875
40
1
40
1
40
1
40
1
41
1
10
-0.200000000000017
20
-5.36201916124898
30
0
41
1
10
-0.200000000000017
20
-5.2967520626737
30
0
41
1
10
-0.201187505702677
20
-5.23092296375003
30
0
41
1
10
-0.207122231944624
20
-5.09796886159594
30
0
41
1
10
-0.211794119514963
20
-5.0307395361431
30
0
41
1
10
-0.223700934218584
20
-4.92906885664189
30
0
41
1
10
-0.228491790652385
20
-4.89506905509066
30
0
41
1
10
-0.240792603174498
20
-4.8268528819907
30
0
41
1
10
-0.248216142554213
20
-4.79265006972088
30
0
41
1
10
-0.263361632838951
20
-4.74197486929811
30
0
41
1
10
-0.269082848553239
20
-4.72516942352704
30
0
41
1
10
-0.283069915142249
20
-4.69193708071452
30
0
41
1
10
-0.291209949024307
20
-4.67546427087299
30
0
41
1
10
-0.307599171561805
20
-4.65280751148737
30
0
41
1
10
-0.313694332721269
20
-4.64571002360921
30
0
41
1
10
-0.328299048109756
20
-4.63355422885837
30
0
41
1
10
-0.336778349987412
20
-4.62874696522633
30
0
41
1
10
-0.354898435363282
20
-4.6246684030194
30
0
41
1
10
-0.364327807714147
20
-4.62559851438348
30
0
41
1
10
-0.380847649097603
20
-4.63132181882537
30
0
41
1
10
-0.388267224060115
20
-4.63593022132775
30
0
41
1
10
-0.394976888875334
20
-4.6412663012828
30
0
0
SPLINE
5
141
100
AcDbEntity
8
SK1
62
256
6
ByLayer
370
18
48
1
60
0
100
AcDbSpline
70
4
71
3
72
30
73
26
40
0
40
0
40
0
40
0
40
0.250000000000018
40
0.250000000000018
40
0.375000000000026
40
0.375000000000026
40
0.437500000000029
40
0.437500000000029
40
0.468750000000029
40
0.468750000000029
40
0.50000000000003
40
0.50000000000003
40
0.515625000000029
40
0.515625000000029
40
0.531250000000028
40
0.531250000000028
40
0.546875000000026
40
0.546875000000026
40
0.562500000000025
40
0.562500000000025
40
0.625000000000021
40
0.625000000000021
40
0.750000000000014
40
0.750000000000014
40
1
40
1
40
1
40
1
41
1
10
-1.49503997793931
20
2.3474977887422
30
0
41
1
10
-1.51026622701843
20
2.2616107098022
30
0
41
1
10
-1.52656456425205
20
2.17591837283686
30
0
41
1
10
-1.55502350324264
20
2.0491015211598
30
0
41
1
10
-1.56515245003862
20
2.00704316685875
30
0
41
1
10
-1.58284145733663
20
1.94546560785196
30
0
41
1
10
-1.58913338529342
20
1.92520635057332
30
0
41
1
10
-1.60001688760866
20
1.89586019314885
30
0
41
1
10
-1.60388081298518
20
1.88626855833911
30
0
41
1
10
-1.61252833179691
20
1.8679665481456
30
0
41
1
10
-1.61726538174463
20
1.85911369906151
30
0
41
1
10
-1.62604214908876
20
1.84834715114528
30
0
41
1
10
-1.62930177076188
20
1.84512630100264
30
0
41
1
10
-1.63680843250106
20
1.8413768309037
30
0
41
1
10
-1.64117553963126
20
1.8411888947835
30
0
41
1
10
-1.64912521229269
20
1.8459279928698
30
0
41
1
10
-1.65244707684411
20
1.8503376250074
30
0
41
1
10
-1.65786489797694
20
1.85988754180073
30
0
41
1
10
-1.66008884696504
20
1.86520158775264
30
0
41
1
10
-1.66974701779972
20
1.89198140797464
30
0
41
1
10
-1.67393397902595
20
1.91514867286566
30
0
41
1
10
-1.68475730363912
20
1.98342364346897
30
0
41
1
10
-1.68861901323911
20
2.02910574454489
30
0
41
1
10
-1.69771675857876
20
2.16623612355895
30
0
41
1
10
-1.69961052068052
20
2.25712412228782
30
0
41
1
10
-1.69999999999999
20
2.34751178615272
30
0
0
SPLINE
5
142
100
AcDbEntity
8
SK1
62
256
6
ByLayer
370
18
48
1
60
0
100
AcDbSpline
70
4
71
3
72
8
73
4
40
0
40
0
40
0
40
0
40
1
40
1
40
1
40
1
41
1
10
-1.30710678118655
20
3.31403271963526
30
0
41
1
10
-1.37243719891021
20
3.00044806563702
30
0
41
1
10
-1.43626555044062
20
2.67902815239273
30
0
41
1
10
-1.49503997793931
20
2.34749778874226
30
0
0
SPLINE
5
143
100
AcDbEntity
8
SK1
62
256
6
ByLayer
370
18
48
1
60
0
100
AcDbSpline
70
4
71
3
72
20
73
16
40
0
40
0
40
0
40
0
40
0.25
40
0.25
40
0.375
40
0.375
40
0.4375
40
0.4375
40
0.5
40
0.5
40
0.75
40
0.75
40
0.875
40
0.875
40
1
40
1
40
1
40
1
41
1
10
-1.70000000000002
20
2.34751178615286
30
0
41
1
10
-1.76414637505067
20
1.97300140449076
30
0
41
1
10
-1.82089672312665
20
1.59136711260308
30
0
41
1
10
-1.88290119130042
20
1.00406423386133
30
0
41
1
10
-1.89963532428709
20
0.80578768741762
30
0
41
1
10
-1.91684572834015
20
0.50384310844882
30
0
41
1
10
-1.92127360849332
20
0.402041495273124
30
0
41
1
10
-1.92714189282555
20
0.199131560733349
30
0
41
1
10
-1.92859516318973
20
0.0980575004784612
30
0
41
1
10
-1.92846658615326
20
-0.405427822128928
30
0
41
1
10
-1.90405295512119
20
-0.802099906254
30
0
41
1
10
-1.84225469644395
20
-1.38985537635656
30
0
41
1
10
-1.81747808484104
20
-1.58519589538625
30
0
41
1
10
-1.76235990768899
20
-1.97047153963902
30
0
41
1
10
-1.73208064140053
20
-2.16021295650691
30
0
41
1
10
-1.69999999999842
20
-2.34751168173503
30
0
0
SPLINE
5
144
100
AcDbEntity
8
1
62
256
6
ByLayer
370
18
48
1
60
0
100
AcDbSpline
70
4
71
3
72
8
73
4
40
0
40
0
40
0
40
0
40
1
40
1
40
1
40
1
41
1
10
35.4806823919105
20
16.103643563222
30
0
41
1
10
35.4133117247164
20
16.0591659634076
30
0
41
1
10
35.3459637711347
20
16.014681492674
30
0
41
1
10
35.2786317780585
20
15.9701922033466
30
0
0
SPLINE
5
145
100
AcDbEntity
8
1
62
256
6
ByLayer
370
18
48
1
60
0
100
AcDbSpline
70
4
71
3
72
10
73
6
40
0
40
0
40
0
40
0
40
0.794705456196124
40
0.794705456196124
40
1
40
1
40
1
40
1
41
1
10
37.6394531679595
20
15.160388126683
30
0
41
1
10
37.6825776101108
20
15.2230719013286
30
0
41
1
10
37.7221246166878
20
15.288589367873
30
0
41
1
10
37.766629766542
20
15.3727891957985
30
0
41
1
10
37.7754978680293
20
15.3901809318913
30
0
41
1
10
37.7840908509033
20
15.4076311090763
30
0
0
SPLINE
5
146
100
AcDbEntity
8
1
62
256
6
ByLayer
370
18
48
1
60
0
100
AcDbSpline
70
4
71
3
72
10
73
6
40
0
40
0
40
0
40
0
40
0.621661637024571
40
0.621661637024571
40
1
40
1
40
1
40
1
41
1
10
35.626946595211
20
17.8900321340731
30
0
41
1
10
35.5575157906003
20
17.8762990905359
30
0
41
1
10
35.4892028661549
20
17.8625533251944
30
0
41
1
10
35.379547110835
20
17.8404393568066
30
0
41
1
10
35.3381107950316
20
17.8320722176463
30
0
41
1
10
35.2966474752336
20
17.8237053857994
30
0
0
SPLINE
5
147
100
AcDbEntity
8
1
62
256
6
ByLayer
370
18
48
1
60
0
100
AcDbSpline
70
4
71
3
72
8
73
4
40
0
40
0
40
0
40
0
40
1
40
1
40
1
40
1
41
1
10
38.2199426572001
20
16.4404828900537
30
0
41
1
10
38.3041366467146
20
16.3994650098444
30
0
41
1
10
38.3882805468375
20
16.3584215016155
30
0
41
1
10
38.4723955011243
20
16.3173632081782
30
0
0
SPLINE
5
148
100
AcDbEntity
8
1
62
256
6
ByLayer
370
18
48
1
60
0
100
AcDbSpline
70
4
71
3
72
8
73
4
40
0
40
0
40
0
40
0
40
1
40
1
40
1
40
1
41
1
10
35.0296891850005
20
17.1289051399039
30
0
41
1
10
35.1363590869296
20
17.1098218370414
30
0
41
1
10
35.2430530088295
20
17.0907485201812
30
0
41
1
10
35.3497884773124
20
17.0716925081938
30
0
0
SPLINE
5
149
100
AcDbEntity
8
1
62
256
6
ByLayer
370
18
48
1
60
0
100
AcDbSpline
70
4
71
3
72
8
73
4
40
0
40
0
40
0
40
0
40
1
40
1
40
1
40
1
41
1
10
38.3081528184757
20
17.5320488270282
30
0
41
1
10
38.2351571429573
20
17.4908725405493
30
0
41
1
10
38.1621300932189
20
17.4496994284009
30
0
41
1
10
38.089048742602
20
17.4085318350256
30
0
0
SPLINE
5
14A
100
AcDbEntity
8
1
62
256
6
ByLayer
370
18
48
1
60
0
100
AcDbSpline
70
4
71
3
72
8
73
4
40
0
40
0
40
0
40
0
40
1
40
1
40
1
40
1
41
1
10
26.3327149313084
20
14.357443962024
30
0
41
1
10
26.1841580866699
20
14.3351297128509
30
0
41
1
10
26.0322180942381
20
14.3132099653807
30
0
41
1
10
25.8820390149007
20
14.2929235431001
30
0
0
SPLINE
5
14B
100
AcDbEntity
8
1
62
256
6
ByLayer
370
18
48
1
60
0
100
AcDbSpline
70
4
71
3
72
10
73
6
40
0
40
0
40
0
40
0
40
0.5
40
0.5
40
1
40
1
40
1
40
1
41
1
10
25.3251846666934
20
14.2244486901735
30
0
41
1
10
25.2517519015951
20
14.2163345092073
30
0
41
1
10
25.1785502669748
20
14.2086068250908
30
0
41
1
10
25.0354789821902
20
14.1940971311326
30
0
41
1
10
24.9652065352244
20
14.1872680223139
30
0
41
1
10
24.8958921086201
20
14.1807617976807
30
0
0
SPLINE
5
14C
100
AcDbEntity
8
1
62
256
6
ByLayer
370
18
48
1
60
0
100
AcDbSpline
70
4
71
3
72
10
73
6
40
0
40
0
40
0
40
0
40
0.5
40
0.5
40
1
40
1
40
1
40
1
41
1
10
26.8825483201574
20
15.6925334306497
30
0
41
1
10
26.8355745605917
20
15.7484372532724
30
0
41
1
10
26.7881790115311
20
15.8054314939537
30
0
41
1
10
26.6938908184128
20
15.9203241175554
30
0
41
1
10
26.6469475299095
20
15.9782812240666
30
0
41
1
10
26.6002425189665
20
16.0368444363284
30
0
0
SPLINE
5
14D
100
AcDbEntity
8
1
62
256
6
ByLayer
370
18
48
1
60
0
100
AcDbSpline
70
4
71
3
72
10
73
6
40
0
40
0
40
0
40
0
40
0.5
40
0.5
40
1
40
1
40
1
40
1
41
1
10
24.9880286217031
20
16.7179454630818
30
0
41
1
10
24.9145958566048
20
16.7098312821156
30
0
41
1
10
24.8413942219846
20
16.7021035979991
30
0
41
1
10
24.6983229371999
20
16.6875939040408
30
0
41
1
10
24.6280504902341
20
16.6807647952222
30
0
41
1
10
24.5587360636298
20
16.674258570589
30
0
0
SPLINE
5
14E
100
AcDbEntity
8
1
62
256
6
ByLayer
370
18
48
1
60
0
100
AcDbSpline
70
4
71
3
72
8
73
4
40
0
40
0
40
0
40
0
40
1
40
1
40
1
40
1
41
1
10
26.7034865257735
20
15.2732852428316
30
0
41
1
10
26.7631536569859
20
15.415013792441
30
0
41
1
10
26.8228439775829
20
15.554462799586
30
0
41
1
10
26.8825483201574
20
15.6925334306497
30
0
0
SPLINE
5
14F
100
AcDbEntity
8
1
62
256
6
ByLayer
370
18
48
1
60
0
100
AcDbSpline
70
4
71
3
72
8
73
4
40
0
40
0
40
0
40
0
40
1
40
1
40
1
40
1
41
1
10
25.9955588863181
20
16.8509407349322
30
0
41
1
10
25.8470020416806
20
16.8286264857593
30
0
41
1
10
25.6950620492496
20
16.8067067382892
30
0
41
1
10
25.544882969913
20
16.7864203160088
30
0
0
SPLINE
5
150
100
AcDbEntity
8
1
62
256
6
ByLayer
370
18
48
1
60
0
100
AcDbSpline
70
4
71
3
72
8
73
4
40
0
40
0
40
0
40
0
40
1
40
1
40
1
40
1
41
1
10
24.6135863074291
20
14.5250728033594
30
0
41
1
10
24.7085111177188
20
14.4060469921739
30
0
41
1
10
24.8024881582176
20
14.2919225377159
30
0
41
1
10
24.8958921086201
20
14.1807617976807
30
0
0
SPLINE
5
151
100
AcDbEntity
8
1
62
256
6
ByLayer
370
18
48
1
60
0
100
AcDbSpline
70
4
71
3
72
8
73
4
40
0
40
0
40
0
40
0
40
1
40
1
40
1
40
1
41
1
10
26.2564813291747
20
16.4857962028225
30
0
41
1
10
26.1658944794009
20
16.6090484322185
30
0
41
1
10
26.0794686546643
20
16.730529937459
30
0
41
1
10
25.9955588863181
20
16.8509407349322
30
0
0
SPLINE
5
152
100
AcDbEntity
8
1
62
256
6
ByLayer
370
18
48
1
60
0
100
AcDbSpline
70
4
71
3
72
8
73
4
40
0
40
0
40
0
40
0
40
1
40
1
40
1
40
1
41
1
10
24.1665811108304
20
15.7375837633503
30
0
41
1
10
24.1112519401339
20
15.6000816319513
30
0
41
1
10
24.059112835299
20
15.4679896755889
30
0
41
1
10
24.0089026747808
20
15.3391691019632
30
0
0
SPLINE
5
153
100
AcDbEntity
8
1
62
256
6
ByLayer
370
18
48
1
60
0
100
AcDbSpline
70
4
71
3
72
10
73
6
40
0
40
0
40
0
40
0
40
0.5
40
0.5
40
1
40
1
40
1
40
1
41
1
10
26.3327149313084
20
14.357443962024
30
0
41
1
10
26.3579661117753
20
14.4222290875624
30
0
41
1
10
26.3838620519624
20
14.4882357817931
30
0
41
1
10
26.4364510575493
20
14.6211894919464
30
0
41
1
10
26.4631702471331
20
14.6882046714877
30
0
41
1
10
26.490393367358
20
14.755858623411
30
0
0
SPLINE
5
154
100
AcDbEntity
8
1
62
256
6
ByLayer
370
18
48
1
60
0
100
AcDbSpline
70
4
71
3
72
10
73
6
40
0
40
0
40
0
40
0
40
0.5
40
0.5
40
1
40
1
40
1
40
1
41
1
10
24.0089026747808
20
15.3391691019632
30
0
41
1
10
24.0511017173964
20
15.278613335047
30
0
41
1
10
24.0941957896398
20
15.2174282217459
30
0
41
1
10
24.1812500992522
20
15.0954877200297
30
0
41
1
10
24.2252544748616
20
15.0346672691132
30
0
41
1
10
24.2698251176373
20
14.9740245698535
30
0
0
SPLINE
5
155
100
AcDbEntity
8
1
62
256
6
ByLayer
370
18
48
1
60
0
100
AcDbSpline
70
4
71
3
72
10
73
6
40
0
40
0
40
0
40
0
40
0.5
40
0.5
40
1
40
1
40
1
40
1
41
1
10
24.5587360636298
20
16.674258570589
30
0
41
1
10
24.5287101662128
20
16.6048215007571
30
0
41
1
10
24.4985127492085
20
16.5346239339065
30
0
41
1
10
24.4386898601157
20
16.3946223456387
30
0
41
1
10
24.409031757638
20
16.324743821692
30
0
41
1
10
24.3796742692459
20
16.2550103827709
30
0
0
INSERT
5
168
100
AcDbEntity
8
2
62
256
6
ByLayer
370
25
48
1
60
0
100
AcDbBlockReference
2
DimnDraft3D11
10
0
20
0
30
0
41
1
42
1
43
1
50
0
210
0
220
0
230
1
0
LINE
5
72
100
AcDbEntity
8
1
62
256
6
ByLayer
370
18
48
1
60
0
100
AcDbLine
10
15.186138
20
16
30
0
11
0.3
21
16
31
0
39
0
210
0
220
0
230
1
0
LINE
5
73
100
AcDbEntity
8
1
62
256
6
ByLayer
370
18
48
1
60
0
100
AcDbLine
10
14.056326
20
4.766319
30
0
11
12.083449
21
4.084409
31
0
39
0
210
0
220
0
230
1
0
LINE
5
74
100
AcDbEntity
8
1
62
256
6
ByLayer
370
18
48
1
60
0
100
AcDbLine
10
27.386395
20
13.21817
30
0
11
27.466539
21
13.296254
31
0
39
0
210
0
220
0
230
1
0
LINE
5
75
100
AcDbEntity
8
1
62
256
6
ByLayer
370
18
48
1
60
0
100
AcDbLine
10
23.27951
20
17.593786
30
0
11
23.199365
21
17.515702
31
0
39
0
210
0
220
0
230
1
0
LINE
5
76
100
AcDbEntity
8
1
62
256
6
ByLayer
370
18
48
1
60
0
100
AcDbLine
10
0.3
20
-16
30
0
11
15.186138
21
-16
31
0
39
0
210
0
220
0
230
1
0
LINE
5
77
100
AcDbEntity
8
1
62
256
6
ByLayer
370
18
48
1
60
0
100
AcDbLine
10
14.257954
20
4.671868
30
0
11
14.068798
21
4.764652
31
0
39
0
210
0
220
0
230
1
0
LINE
5
78
100
AcDbEntity
8
1
62
256
6
ByLayer
370
18
48
1
60
0
100
AcDbLine
10
15.143148
20
1.656387
30
0
11
15.234636
21
1.846173
31
0
39
0
210
0
220
0
230
1
0
LINE
5
79
100
AcDbEntity
8
1
62
256
6
ByLayer
370
18
48
1
60
0
100
AcDbLine
10
39.78323
20
12.881544
30
0
11
40.320174
21
13.404681
31
0
39
0
210
0
220
0
230
1
0
LINE
5
7A
100
AcDbEntity
8
1
62
256
6
ByLayer
370
18
48
1
60
0
100
AcDbLine
10
33.494776
20
20.346408
30
0
11
33.137884
21
19.998693
31
0
39
0
210
0
220
0
230
1
0
LINE
5
7B
100
AcDbEntity
8
1
62
256
6
ByLayer
370
18
48
1
60
0
100
AcDbLine
10
0.3
20
16
30
0
11
0
21
15.7
31
0
39
0
210
0
220
0
230
1
0
LINE
5
7C
100
AcDbEntity
8
1
62
256
6
ByLayer
370
18
48
1
60
0
100
AcDbLine
10
0
20
-15.7
30
0
11
0.3
21
-16
31
0
39
0
210
0
220
0
230
1
0
LINE
5
7D
100
AcDbEntity
8
1
62
256
6
ByLayer
370
18
48
1
60
0
100
AcDbLine
10
15.652507
20
-16.15
30
0
11
21.206288
21
-16.15
31
0
39
0
210
0
220
0
230
1
0
LINE
5
7E
100
AcDbEntity
8
1
62
256
6
ByLayer
370
18
48
1
60
0
100
AcDbLine
10
16.641211
20
19.139442
30
0
11
15.958879
21
16.592945
31
0
39
0
210
0
220
0
230
1
0
LINE
5
7F
100
AcDbEntity
8
1
62
256
6
ByLayer
370
18
48
1
60
0
100
AcDbLine
10
37.507019
20
15.141941
30
0
11
38.036917
21
15.658213
31
0
39
0
210
0
220
0
230
1
0
LINE
5
80
100
AcDbEntity
8
1
62
256
6
ByLayer
370
18
48
1
60
0
100
AcDbLine
10
35.465168
20
17.788055
30
0
11
35.168095
21
17.498621
31
0
39
0
210
0
220
0
230
1
0
LINE
5
81
100
AcDbEntity
8
1
62
256
6
ByLayer
370
18
48
1
60
0
100
AcDbLine
10
12.719909
20
0.812833
30
0
11
15.134367
21
1.647373
31
0
39
0
210
0
220
0
230
1
0
LINE
5
82
100
AcDbEntity
8
1
62
256
6
ByLayer
370
18
48
1
60
0
100
AcDbLine
10
12.290097
20
0.895075
30
0
11
12.713159
21
0.81249
31
0
39
0
210
0
220
0
230
1
0
LINE
5
83
100
AcDbEntity
8
1
62
256
6
ByLayer
370
18
48
1
60
0
100
AcDbLine
10
28.516472
20
11.45861
30
0
11
27.95231
21
10.537013
31
0
39
0
210
0
220
0
230
1
0
LINE
5
84
100
AcDbEntity
8
1
62
256
6
ByLayer
370
18
48
1
60
0
100
AcDbLine
10
31.116869
20
8.573917
30
0
11
32.862322
21
11.42523
31
0
39
0
210
0
220
0
230
1
0
LINE
5
85
100
AcDbEntity
8
SK1
62
256
6
ByLayer
370
18
48
1
60
0
100
AcDbLine
10
-0.2
20
5.362019
30
0
11
-0.2
21
10.883485
31
0
39
0
210
0
220
0
230
1
0
LINE
5
87
100
AcDbEntity
8
SK1
62
256
6
ByLayer
370
18
48
1
60
0
100
AcDbLine
10
-0.2
20
-10.883485
30
0
11
-0.2
21
-5.362019
31
0
39
0
210
0
220
0
230
1
0
LINE
5
88
100
AcDbEntity
8
1
62
256
6
ByLayer
370
18
48
1
60
0
100
AcDbLine
10
15.186138
20
-15.650715
30
0
11
15.186138
21
-16
31
0
39
0
210
0
220
0
230
1
0
LINE
5
89
100
AcDbEntity
8
1
62
256
6
ByLayer
370
18
48
1
60
0
100
AcDbLine
10
15.186138
20
16
30
0
11
15.186138
21
15.650715
31
0
39
0
210
0
220
0
230
1
0
LINE
5
8A
100
AcDbEntity
8
1
62
256
6
ByLayer
370
18
48
1
60
0
100
AcDbLine
10
0.3
20
-16
30
0
11
0.3
21
16
31
0
39
0
210
0
220
0
230
1
0
LINE
5
8B
100
AcDbEntity
8
1
62
256
6
ByLayer
370
18
48
1
60
0
100
AcDbLine
10
0
20
-15.7
30
0
11
0
21
15.7
31
0
39
0
210
0
220
0
230
1
0
LINE
5
8C
100
AcDbEntity
8
1
62
256
6
ByLayer
370
18
48
1
60
0
100
AcDbLine
10
15.958879
20
16.304179
30
0
11
15.958879
21
16.592945
31
0
39
0
210
0
220
0
230
1
0
LINE
5
8D
100
AcDbEntity
8
1
62
256
6
ByLayer
370
18
48
1
60
0
100
AcDbLine
10
15.652507
20
-16.15
30
0
11
15.652507
21
-15.838248
31
0
39
0
210
0
220
0
230
1
0
LINE
5
8E
100
AcDbEntity
8
1
62
256
6
ByLayer
370
18
48
1
60
0
100
AcDbLine
10
21.206288
20
-16.15
30
0
11
21.378356
21
-15.868916
31
0
39
0
210
0
220
0
230
1
0
LINE
5
8F
100
AcDbEntity
8
1
62
256
6
ByLayer
370
18
48
1
60
0
100
AcDbLine
10
28.804872
20
12.811823
30
0
11
28.204683
21
11.831373
31
0
39
0
210
0
220
0
230
1
0
LINE
5
90
100
AcDbEntity
8
1
62
256
6
ByLayer
370
18
48
1
60
0
100
AcDbLine
10
33.529406
20
11.854888
30
0
11
36.561876
21
12.027108
31
0
39
0
210
0
220
0
230
1
0
LINE
5
91
100
AcDbEntity
8
1
62
256
6
ByLayer
370
18
48
1
60
0
100
AcDbLine
10
38.11022
20
12.115041
30
0
11
38.52331
21
12.138501
31
0
39
0
210
0
220
0
230
1
0
LINE
5
92
100
AcDbEntity
8
1
62
256
6
ByLayer
370
18
48
1
60
0
100
AcDbLine
10
17.424459
20
19.175186
30
0
11
33.203367
21
20.002124
31
0
39
0
210
0
220
0
230
1
0
LINE
5
93
100
AcDbEntity
8
1
62
256
6
ByLayer
370
18
48
1
60
0
100
AcDbLine
10
31.976062
20
9.317397
30
0
11
31.537145
21
8.822535
31
0
39
0
210
0
220
0
230
1
0
LINE
5
94
100
AcDbEntity
8
1
62
256
6
ByLayer
370
18
48
1
60
0
100
AcDbLine
10
33.051007
20
11.435115
30
0
11
31.385509
21
8.714414
31
0
39
0
210
0
220
0
230
1
0
LINE
5
95
100
AcDbEntity
8
1
62
256
6
ByLayer
370
18
48
1
60
0
100
AcDbLine
10
33.088847
20
11.437151
30
0
11
33.010652
21
11.309414
31
0
39
0
210
0
220
0
230
1
0
LINE
5
96
100
AcDbEntity
8
1
62
256
6
ByLayer
370
18
48
1
60
0
100
AcDbLine
10
27.982859
20
10.751782
30
0
11
28.45625
21
11.525098
31
0
39
0
210
0
220
0
230
1
0
LINE
5
97
100
AcDbEntity
8
1
62
256
6
ByLayer
370
18
48
1
60
0
100
AcDbLine
10
33.010652
20
11.309414
30
0
11
33.054095
21
11.311881
31
0
39
0
210
0
220
0
230
1
0
LINE
5
98
100
AcDbEntity
8
1
62
256
6
ByLayer
370
18
48
1
60
0
100
AcDbLine
10
12.122197
20
-0.468586
30
0
11
12.438672
21
-2.299814
31
0
39
0
210
0
220
0
230
1
0
LINE
5
99
100
AcDbEntity
8
1
62
256
6
ByLayer
370
18
48
1
60
0
100
AcDbLine
10
7.336603
20
-5.068619
30
0
11
7.336603
21
-15.175938
31
0
39
0
210
0
220
0
230
1
0
LINE
5
9A
100
AcDbEntity
8
1
62
256
6
ByLayer
370
18
48
1
60
0
100
AcDbLine
10
12.780546
20
5.340211
30
0
11
12.780546
21
14.551948
31
0
39
0
210
0
220
0
230
1
0
LINE
5
9B
100
AcDbEntity
8
1
62
256
6
ByLayer
370
18
48
1
60
0
100
AcDbLine
10
17.424459
20
19.175186
30
0
11
17.468486
21
15.663022
31
0
39
0
210
0
220
0
230
1
0
LINE
5
9C
100
AcDbEntity
8
1
62
256
6
ByLayer
370
18
48
1
60
0
100
AcDbLine
10
16.765325
20
-15.868916
30
0
11
21.378356
21
-15.868916
31
0
39
0
210
0
220
0
230
1
0
LINE
5
9D
100
AcDbEntity
8
1
62
256
6
ByLayer
370
18
48
1
60
0
100
AcDbLine
10
4.923205
20
15.276962
30
0
11
4.923205
21
4.755463
31
0
39
0
210
0
220
0
230
1
0
LINE
5
9E
100
AcDbEntity
8
1
62
256
6
ByLayer
370
18
48
1
60
0
100
AcDbLine
10
7.076795
20
15.276962
30
0
11
4.923205
21
15.276962
31
0
39
0
210
0
220
0
230
1
0
LINE
5
9F
100
AcDbEntity
8
1
62
256
6
ByLayer
370
18
48
1
60
0
100
AcDbLine
10
33.529406
20
11.854888
30
0
11
32.930849
21
11.17115
31
0
39
0
210
0
220
0
230
1
0
LINE
5
A0
100
AcDbEntity
8
1
62
256
6
ByLayer
370
18
48
1
60
0
100
AcDbLine
10
28.881852
20
9.047551
30
0
11
28.992869
21
8.978684
31
0
39
0
210
0
220
0
230
1
0
LINE
5
A1
100
AcDbEntity
8
1
62
256
6
ByLayer
370
18
48
1
60
0
100
AcDbLine
10
16.694071
20
19.136908
30
0
11
17.424459
21
19.175186
31
0
39
0
210
0
220
0
230
1
0
LINE
5
A2
100
AcDbEntity
8
1
62
256
6
ByLayer
370
18
48
1
60
0
100
AcDbLine
10
7.076795
20
15.276962
30
0
11
7.076795
21
4.755463
31
0
39
0
210
0
220
0
230
1
0
LINE
5
A3
100
AcDbEntity
8
1
62
256
6
ByLayer
370
18
48
1
60
0
100
AcDbLine
10
7.336603
20
15.175938
30
0
11
7.336603
21
5.068619
31
0
39
0
210
0
220
0
230
1
0
LINE
5
A4
100
AcDbEntity
8
1
62
256
6
ByLayer
370
18
48
1
60
0
100
AcDbLine
10
4.923205
20
-15.276962
30
0
11
7.076795
21
-15.276962
31
0
39
0
210
0
220
0
230
1
0
LINE
5
A5
100
AcDbEntity
8
1
62
256
6
ByLayer
370
18
48
1
60
0
100
AcDbLine
10
21.378356
20
-15.868916
30
0
11
31.723963
21
1.031319
31
0
39
0
210
0
220
0
230
1
0
LINE
5
A6
100
AcDbEntity
8
1
62
256
6
ByLayer
370
18
48
1
60
0
100
AcDbLine
10
31.579066
20
17.630737
30
0
11
30.473603
21
15.824889
31
0
39
0
210
0
220
0
230
1
0
LINE
5
A7
100
AcDbEntity
8
1
62
256
6
ByLayer
370
18
48
1
60
0
100
AcDbLine
10
4.923205
20
-4.755463
30
0
11
4.923205
21
-15.276962
31
0
39
0
210
0
220
0
230
1
0
LINE
5
A8
100
AcDbEntity
8
1
62
256
6
ByLayer
370
18
48
1
60
0
100
AcDbLine
10
4.663397
20
-5.068619
30
0
11
4.663397
21
-15.175938
31
0
39
0
210
0
220
0
230
1
0
LINE
5
A9
100
AcDbEntity
8
1
62
256
6
ByLayer
370
18
48
1
60
0
100
AcDbLine
10
12.780546
20
-14.551948
30
0
11
12.780546
21
0.044219
31
0
39
0
210
0
220
0
230
1
0
LINE
5
AA
100
AcDbEntity
8
1
62
256
6
ByLayer
370
18
48
1
60
0
100
AcDbLine
10
7.076795
20
-4.755463
30
0
11
4.923205
21
-4.755463
31
0
39
0
210
0
220
0
230
1
0
LINE
5
AB
100
AcDbEntity
8
1
62
256
6
ByLayer
370
18
48
1
60
0
100
AcDbLine
10
16.765325
20
16.944454
30
0
11
16.765325
21
-15.868916
31
0
39
0
210
0
220
0
230
1
0
LINE
5
AC
100
AcDbEntity
8
1
62
256
6
ByLayer
370
18
48
1
60
0
100
AcDbLine
10
33.529406
20
11.854888
30
0
11
31.976062
21
9.317397
31
0
39
0
210
0
220
0
230
1
0
LINE
5
AD
100
AcDbEntity
8
1
62
256
6
ByLayer
370
18
48
1
60
0
100
AcDbLine
10
17.468486
20
15.663022
30
0
11
31.723963
21
1.031319
31
0
39
0
210
0
220
0
230
1
0
LINE
5
AE
100
AcDbEntity
8
1
62
256
6
ByLayer
370
18
48
1
60
0
100
AcDbLine
10
4.923205
20
4.755463
30
0
11
7.076795
21
4.755463
31
0
39
0
210
0
220
0
230
1
0
LINE
5
AF
100
AcDbEntity
8
1
62
256
6
ByLayer
370
18
48
1
60
0
100
AcDbLine
10
38.52331
20
12.138501
30
0
11
31.723963
21
1.031319
31
0
39
0
210
0
220
0
230
1
0
LINE
5
B0
100
AcDbEntity
8
1
62
256
6
ByLayer
370
18
48
1
60
0
100
AcDbLine
10
4.663397
20
15.175938
30
0
11
4.663397
21
5.068619
31
0
39
0
210
0
220
0
230
1
0
LINE
5
B1
100
AcDbEntity
8
1
62
256
6
ByLayer
370
18
48
1
60
0
100
AcDbLine
10
7.076795
20
-4.755463
30
0
11
7.076795
21
-15.276962
31
0
39
0
210
0
220
0
230
1
0
LINE
5
B2
100
AcDbEntity
8
SK1
62
256
6
ByLayer
370
18
48
1
60
0
100
AcDbLine
10
-1.307107
20
-3.314033
30
0
11
-1.307107
21
3.314033
31
0
39
0
210
0
220
0
230
1
0
LINE
5
B3
100
AcDbEntity
8
1
62
256
6
ByLayer
370
18
48
1
60
0
100
AcDbLine
10
12.292581
20
0.894823
30
0
11
12.295961
21
0.895373
31
0
39
0
210
0
220
0
230
1
0
LINE
5
B4
100
AcDbEntity
8
1
62
256
6
ByLayer
370
18
48
1
60
0
100
AcDbLine
10
26.120029
20
14.395018
30
0
11
26.089901
21
14.321862
31
0
39
0
210
0
220
0
230
1
0
LINE
5
B5
100
AcDbEntity
8
1
62
256
6
ByLayer
370
18
48
1
60
0
100
AcDbLine
10
24.41237
20
16.33186
30
0
11
24.617664
21
16.357104
31
0
39
0
210
0
220
0
230
1
0
LINE
5
B6
100
AcDbEntity
8
1
62
256
6
ByLayer
370
18
48
1
60
0
100
AcDbLine
10
35.029689
20
17.128905
30
0
11
35.028467
21
17.127715
31
0
39
0
210
0
220
0
230
1
0
LINE
5
B7
100
AcDbEntity
8
1
62
256
6
ByLayer
370
18
48
1
60
0
100
AcDbLine
10
39.563766
20
12.713318
30
0
11
38.482182
21
12.071297
31
0
39
0
210
0
220
0
230
1
0
LINE
5
B8
100
AcDbEntity
8
1
62
256
6
ByLayer
370
18
48
1
60
0
100
AcDbLine
10
37.984046
20
12.101638
30
0
11
38.078472
21
12.193636
31
0
39
0
210
0
220
0
230
1
0
LINE
5
B9
100
AcDbEntity
8
1
62
256
6
ByLayer
370
18
48
1
60
0
100
AcDbLine
10
33.167376
20
11.441259
30
0
11
29.117801
21
11.22903
31
0
39
0
210
0
220
0
230
1
0
LINE
5
BA
100
AcDbEntity
8
1
62
256
6
ByLayer
370
18
48
1
60
0
100
AcDbLine
10
28.8352
20
12.866152
30
0
11
28.929627
21
12.95815
31
0
39
0
210
0
220
0
230
1
0
LINE
5
BB
100
AcDbEntity
8
1
62
256
6
ByLayer
370
18
48
1
60
0
100
AcDbLine
10
33.313203
20
20.119012
30
0
11
33.192651
21
20.00156
31
0
39
0
210
0
220
0
230
1
0
LINE
5
BC
100
AcDbEntity
8
1
62
256
6
ByLayer
370
18
48
1
60
0
100
AcDbLine
10
38.619151
20
12.357012
30
0
11
38.386922
21
12.130755
31
0
39
0
210
0
220
0
230
1
0
LINE
5
BD
100
AcDbEntity
8
80
62
256
6
ByLayer
370
18
48
1
60
0
100
AcDbLine
10
0
20
0
30
0
11
-5
21
0
31
0
39
0
210
0
220
0
230
1
0
LINE
5
BE
100
AcDbEntity
8
4
62
256
6
ByLayer
370
18
48
0.05
60
0
100
AcDbLine
10
0
20
0
30
0
11
45
21
0
31
0
39
0
210
0
220
0
230
1
0
LINE
5
C0
100
AcDbEntity
8
81
62
256
6
ByLayer
370
18
48
1
60
0
100
AcDbLine
10
45
20
22
30
0
11
55
21
22
31
0
39
0
210
0
220
0
230
1
0
LINE
5
C1
100
AcDbEntity
8
SK4
62
256
6
ByLayer
370
18
48
0.05
60
0
100
AcDbLine
10
-24
20
0
30
0
11
45
21
0
31
0
39
0
210
0
220
0
230
1
0
LINE
5
C3
100
AcDbEntity
8
1
62
256
6
ByLayer
370
18
48
1
60
0
100
AcDbLine
10
35.736477
20
21.557452
30
0
11
44.160205
21
21.998921
31
0
39
0
210
0
220
0
230
1
0
LINE
5
C4
100
AcDbEntity
8
1
62
256
6
ByLayer
370
18
48
1
60
0
100
AcDbLine
10
39.563766
20
12.713318
30
0
11
40.10071
21
13.236455
31
0
39
0
210
0
220
0
230
1
0
LINE
5
C5
100
AcDbEntity
8
1
62
256
6
ByLayer
370
18
48
1
60
0
100
AcDbLine
10
28.929627
20
12.95815
30
0
11
33.313203
21
20.119012
31
0
39
0
210
0
220
0
230
1
0
LINE
5
C6
100
AcDbEntity
8
1
62
256
6
ByLayer
370
18
48
1
60
0
100
AcDbLine
10
38.078472
20
12.193636
30
0
11
29.654745
21
11.752167
31
0
39
0
210
0
220
0
230
1
0
LINE
5
C7
100
AcDbEntity
8
1
62
256
6
ByLayer
370
18
48
1
60
0
100
AcDbLine
10
29.654745
20
11.752167
30
0
11
29.117801
21
11.22903
31
0
39
0
210
0
220
0
230
1
0
LINE
5
C8
100
AcDbEntity
8
1
62
256
6
ByLayer
370
18
48
1
60
0
100
AcDbLine
10
44.885323
20
20.792938
30
0
11
40.501747
21
13.632076
31
0
39
0
210
0
220
0
230
1
0
LINE
5
C9
100
AcDbEntity
8
1
62
256
6
ByLayer
370
18
48
1
60
0
100
AcDbLine
10
33.71424
20
20.514633
30
0
11
35.195799
21
21.394077
31
0
39
0
210
0
220
0
230
1
0
LINE
5
CA
100
AcDbEntity
8
1
62
256
6
ByLayer
370
18
48
1
60
0
100
AcDbLine
10
40.10071
20
13.236455
30
0
11
38.619151
21
12.357012
31
0
39
0
210
0
220
0
230
1
0
LINE
5
CB
100
AcDbEntity
8
1
62
256
6
ByLayer
370
18
48
1
60
0
100
AcDbLine
10
26.229878
20
15.676003
30
0
11
26.501492
21
15.321276
31
0
39
0
210
0
220
0
230
1
0
LINE
5
CC
100
AcDbEntity
8
1
62
256
6
ByLayer
370
18
48
1
60
0
100
AcDbLine
10
24.988029
20
16.717945
30
0
11
24.617664
21
16.357104
31
0
39
0
210
0
220
0
230
1
0
LINE
5
CD
100
AcDbEntity
8
1
62
256
6
ByLayer
370
18
48
1
60
0
100
AcDbLine
10
26.229878
20
15.676003
30
0
11
26.600243
21
16.036844
31
0
39
0
210
0
220
0
230
1
0
LINE
5
CE
100
AcDbEntity
8
1
62
256
6
ByLayer
370
18
48
1
60
0
100
AcDbLine
10
25.614503
20
16.479683
30
0
11
25.886117
21
16.124955
31
0
39
0
210
0
220
0
230
1
0
LINE
5
CF
100
AcDbEntity
8
1
62
256
6
ByLayer
370
18
48
1
60
0
100
AcDbLine
10
26.882548
20
15.692533
30
0
11
26.501492
21
15.321276
31
0
39
0
210
0
220
0
230
1
0
LINE
5
D0
100
AcDbEntity
8
1
62
256
6
ByLayer
370
18
48
1
60
0
100
AcDbLine
10
25.174519
20
16.425579
30
0
11
25.614503
21
16.479683
31
0
39
0
210
0
220
0
230
1
0
LINE
5
D1
100
AcDbEntity
8
1
62
256
6
ByLayer
370
18
48
1
60
0
100
AcDbLine
10
26.703487
20
15.273285
30
0
11
26.333122
21
14.912444
31
0
39
0
210
0
220
0
230
1
0
LINE
5
D2
100
AcDbEntity
8
1
62
256
6
ByLayer
370
18
48
1
60
0
100
AcDbLine
10
26.501492
20
15.321276
30
0
11
26.333122
21
14.912444
31
0
39
0
210
0
220
0
230
1
0
LINE
5
D3
100
AcDbEntity
8
1
62
256
6
ByLayer
370
18
48
1
60
0
100
AcDbLine
10
25.995559
20
16.850941
30
0
11
25.614503
21
16.479683
31
0
39
0
210
0
220
0
230
1
0
LINE
5
D4
100
AcDbEntity
8
1
62
256
6
ByLayer
370
18
48
1
60
0
100
AcDbLine
10
26.120029
20
14.395018
30
0
11
26.490393
21
14.755859
31
0
39
0
210
0
220
0
230
1
0
LINE
5
D5
100
AcDbEntity
8
1
62
256
6
ByLayer
370
18
48
1
60
0
100
AcDbLine
10
25.174519
20
16.425579
30
0
11
25.544883
21
16.78642
31
0
39
0
210
0
220
0
230
1
0
LINE
5
D6
100
AcDbEntity
8
1
62
256
6
ByLayer
370
18
48
1
60
0
100
AcDbLine
10
26.256481
20
16.485796
30
0
11
25.886117
21
16.124955
31
0
39
0
210
0
220
0
230
1
0
MTEXT
5
156
100
AcDbEntity
8
SK6
62
256
6
ByLayer
370
13
48
1
60
0
100
AcDbMText
10
1.306874
20
-31.297905
30
0
210
0
220
0
230
1
1
\W0.7366;C3-PDJNR-22045-11
40
3.5
41
0
44
1.084337
50
0
71
7
72
5
7
iso_b_vert
0
DIMENSION
5
177
100
AcDbEntity
8
SK2
62
256
6
ByLayer
370
13
48
1
60
0
100
AcDbDimension
2
DimnDraft3D2
10
-28.75
20
-16
30
0
11
-28.75
21
0
31
0
70
32
71
5
72
1
41
1
210
0
220
0
230
1
3
Standard
100
AcDbAlignedDimension
13
-1.5875
23
16
33
0
14
-1.5875
24
-16
34
0
50
90
100
AcDbRotatedDimension
1001
ACAD
1000
DSTYLE
1002
{
1070
    74
1070
     0
1070
   279
1070
     0
1070
   172
1070
     1
1070
   173
1070
     1
1070
   340
1005
157
1070
   271
1070
     1
1070
   272
1070
     2
1070
    77
1070
     1
1070
    73
1070
     0
1070
   171
1070
     3
1070
   274
1070
     4
1070
   177
1070
   150
1070
   176
1070
     9
1070
   178
1070
    43
1070
    78
1070
     8
1070
    48
1040
-0.005
1070
    41
1041
3.175
1070
   147
1041
2.25
1070
    42
1041
1.5875
1070
    44
1041
3.175
1070
   140
1041
4.5
1070
   343
1005
178
1070
   344
1005
178
1002
}
0
DIMENSION
5
18C
100
AcDbEntity
8
2
62
256
6
ByLayer
370
13
48
1
60
0
100
AcDbDimension
2
DimnDraft3D3
10
0
20
39.5
30
0
11
22.5
21
39.5
31
0
70
32
71
5
72
1
41
1
210
0
220
0
230
1
3
Standard
100
AcDbAlignedDimension
13
45
23
23.5875
33
0
14
0
24
17.5875
34
0
50
0
100
AcDbRotatedDimension
1001
ACAD
1000
DSTYLE
1002
{
1070
   279
1070
     0
1070
   172
1070
     1
1070
   173
1070
     1
1070
   340
1005
157
1070
   271
1070
     1
1070
   272
1070
     2
1070
    77
1070
     1
1070
    73
1070
     0
1070
   171
1070
     3
1070
   274
1070
     4
1070
   177
1070
   150
1070
   176
1070
     9
1070
   178
1070
    43
1070
    78
1070
     8
1070
    48
1040
-0.005
1070
    41
1041
3.175
1070
   147
1041
2.25
1070
    42
1041
1.5875
1070
    44
1041
3.175
1070
   140
1041
4.5
1070
   343
1005
178
1070
   344
1005
178
1002
}
0
DIMENSION
5
19A
100
AcDbEntity
8
2
62
256
6
ByLayer
370
13
48
1
60
0
100
AcDbDimension
2
DimnDraft3D4
10
33.179783
20
21.423217
30
0
11
32.711865
21
33.703693
31
0
70
34
71
5
72
1
41
1
210
0
220
0
230
1
3
Standard
100
AcDb2LineAngularDimension
13
45
23
22
33
0
14
45
24
20.4125
34
0
15
44.164708
25
21.998912
35
0
16
35.976049
26
30.606097
36
0
40
0
0
ENDSEC
0
SECTION
2
OBJECTS
0
DICTIONARY
5
205
330
0
100
AcDbDictionary
280
0
281
1
3
ACAD_GROUP
350
206
3
ACAD_MLINESTYLE
350
207
0
DICTIONARY
5
206
330
0
100
AcDbDictionary
280
0
281
1
0
DICTIONARY
5
207
330
0
100
AcDbDictionary
280
0
281
1
3
Standard
350
18
0
MLINESTYLE
5
18
330
207
100
AcDbMlineStyle
2
Standard
70
0
3

62
256
51
90
52
90
71
2
49
-0.5
62
256
6
ByLayer
49
0.5
62
256
6
ByLayer
0
RASTERVARIABLES
5
1f3
330

100
AcDbRasterVariables
90
0
70
1
71
1
72
1
0
ENDSEC
0
EOF
