  0
SECTION
  2
HEADER
  9
$ACADVER
  1
AC1015
  9
$ACADMAINTVER
 70
    20
  9
$DWGCODEPAGE
  3
ANSI_1252
  9
$INSBASE
 10
0.0
 20
0.0
 30
0.0
  9
$EXTMIN
 10
-27.25033392297382
 20
-17.62740971011499
 30
-0.0006418577654301
  9
$EXTMAX
 10
52.1251231310016
 20
40.70236280642257
 30
0.0009628845953387
  9
$LIMMIN
 10
-170.0
 20
-170.0
  9
$LIMMAX
 10
519.0
 20
260.0
  9
$ORTHOMODE
 70
     0
  9
$REGENMODE
 70
     1
  9
$FILLMODE
 70
     1
  9
$QTEXTMODE
 70
     0
  9
$MIRRTEXT
 70
     0
  9
$LTSCALE
 40
1.0
  9
$ATTMODE
 70
     1
  9
$TEXTSIZE
 40
3.5
  9
$TRACEWID
 40
1.0
  9
$TEXTSTYLE
  7
SIMPLEX
  9
$CLAYER
  8
1
  9
$CELTYPE
  6
BYLAYER
  9
$CECOLOR
 62
   256
  9
$CELTSCALE
 40
1.0
  9
$DISPSILH
 70
     0
  9
$DIMSCALE
 40
1.0
  9
$DIMASZ
 40
2.5
  9
$DIMEXO
 40
0.0
  9
$DIMDLI
 40
3.75
  9
$DIMRND
 40
0.0
  9
$DIMDLE
 40
0.0
  9
$DIMEXE
 40
1.25
  9
$DIMTP
 40
0.0
  9
$DIMTM
 40
0.0
  9
$DIMTXT
 40
3.5
  9
$DIMCEN
 40
0.0
  9
$DIMTSZ
 40
0.0
  9
$DIMTOL
 70
     0
  9
$DIMLIM
 70
     0
  9
$DIMTIH
 70
     0
  9
$DIMTOH
 70
     0
  9
$DIMSE1
 70
     0
  9
$DIMSE2
 70
     0
  9
$DIMTAD
 70
     1
  9
$DIMZIN
 70
     8
  9
$DIMBLK
  1

  9
$DIMASO
 70
     1
  9
$DIMSHO
 70
     1
  9
$DIMPOST
  1

  9
$DIMAPOST
  1

  9
$DIMALT
 70
     0
  9
$DIMALTD
 70
     3
  9
$DIMALTF
 40
0.039370078
  9
$DIMLFAC
 40
1.0
  9
$DIMTOFL
 70
     0
  9
$DIMTVP
 40
0.0
  9
$DIMTIX
 70
     0
  9
$DIMSOXD
 70
     0
  9
$DIMSAH
 70
     0
  9
$DIMBLK1
  1

  9
$DIMBLK2
  1

  9
$DIMSTYLE
  2
SANDVIK_STYLE
  9
$DIMCLRD
 70
     0
  9
$DIMCLRE
 70
     0
  9
$DIMCLRT
 70
     0
  9
$DIMTFAC
 40
1.0
  9
$DIMGAP
 40
0.625
  9
$DIMJUST
 70
     0
  9
$DIMSD1
 70
     0
  9
$DIMSD2
 70
     0
  9
$DIMTOLJ
 70
     0
  9
$DIMTZIN
 70
     8
  9
$DIMALTZ
 70
     0
  9
$DIMALTTZ
 70
     0
  9
$DIMUPT
 70
     0
  9
$DIMDEC
 70
     2
  9
$DIMTDEC
 70
     2
  9
$DIMALTU
 70
     2
  9
$DIMALTTD
 70
     3
  9
$DIMTXSTY
  7
SIMPLEX
  9
$DIMAUNIT
 70
     0
  9
$DIMADEC
 70
     2
  9
$DIMALTRND
 40
0.0
  9
$DIMAZIN
 70
     2
  9
$DIMDSEP
 70
    46
  9
$DIMATFIT
 70
     3
  9
$DIMFRAC
 70
     0
  9
$DIMLDRBLK
  1

  9
$DIMLUNIT
 70
     2
  9
$DIMLWD
 70
    -2
  9
$DIMLWE
 70
    -2
  9
$DIMTMOVE
 70
     0
  9
$LUNITS
 70
     2
  9
$LUPREC
 70
     4
  9
$SKETCHINC
 40
1.0
  9
$FILLETRAD
 40
0.0
  9
$AUNITS
 70
     0
  9
$AUPREC
 70
     0
  9
$MENU
  1
c:\tdm21\cad\caduti13\tdm13
  9
$ELEVATION
 40
0.0
  9
$PELEVATION
 40
0.0
  9
$THICKNESS
 40
0.0
  9
$LIMCHECK
 70
     0
  9
$CHAMFERA
 40
0.0
  9
$CHAMFERB
 40
0.0
  9
$CHAMFERC
 40
0.0
  9
$CHAMFERD
 40
0.0
  9
$SKPOLY
 70
     0
  9
$TDCREATE
 40
2455883.652280521
  9
$TDUCREATE
 40
2455883.568947188
  9
$TDUPDATE
 40
2456818.430458970
  9
$TDUUPDATE
 40
2456818.347125636
  9
$TDINDWG
 40
0.0035811227
  9
$TDUSRTIMER
 40
0.0035810995
  9
$USRTIMER
 70
     1
  9
$ANGBASE
 50
0.0
  9
$ANGDIR
 70
     0
  9
$PDMODE
 70
     1
  9
$PDSIZE
 40
0.0
  9
$PLINEWID
 40
0.0
  9
$SPLFRAME
 70
     0
  9
$SPLINETYPE
 70
     6
  9
$SPLINESEGS
 70
     8
  9
$HANDSEED
  5
E8AE7
  9
$SURFTAB1
 70
     6
  9
$SURFTAB2
 70
     6
  9
$SURFTYPE
 70
     6
  9
$SURFU
 70
     6
  9
$SURFV
 70
     6
  9
$UCSBASE
  2

  9
$UCSNAME
  2

  9
$UCSORG
 10
0.0
 20
0.0
 30
0.0
  9
$UCSXDIR
 10
1.0
 20
0.0
 30
0.0
  9
$UCSYDIR
 10
0.0
 20
1.0
 30
0.0
  9
$UCSORTHOREF
  2

  9
$UCSORTHOVIEW
 70
     0
  9
$UCSORGTOP
 10
0.0
 20
0.0
 30
0.0
  9
$UCSORGBOTTOM
 10
0.0
 20
0.0
 30
0.0
  9
$UCSORGLEFT
 10
0.0
 20
0.0
 30
0.0
  9
$UCSORGRIGHT
 10
0.0
 20
0.0
 30
0.0
  9
$UCSORGFRONT
 10
0.0
 20
0.0
 30
0.0
  9
$UCSORGBACK
 10
0.0
 20
0.0
 30
0.0
  9
$PUCSBASE
  2

  9
$PUCSNAME
  2

  9
$PUCSORG
 10
0.0
 20
0.0
 30
0.0
  9
$PUCSXDIR
 10
1.0
 20
0.0
 30
0.0
  9
$PUCSYDIR
 10
0.0
 20
1.0
 30
0.0
  9
$PUCSORTHOREF
  2

  9
$PUCSORTHOVIEW
 70
     0
  9
$PUCSORGTOP
 10
0.0
 20
0.0
 30
0.0
  9
$PUCSORGBOTTOM
 10
0.0
 20
0.0
 30
0.0
  9
$PUCSORGLEFT
 10
0.0
 20
0.0
 30
0.0
  9
$PUCSORGRIGHT
 10
0.0
 20
0.0
 30
0.0
  9
$PUCSORGFRONT
 10
0.0
 20
0.0
 30
0.0
  9
$PUCSORGBACK
 10
0.0
 20
0.0
 30
0.0
  9
$USERI1
 70
     0
  9
$USERI2
 70
     0
  9
$USERI3
 70
     0
  9
$USERI4
 70
     0
  9
$USERI5
 70
     0
  9
$USERR1
 40
0.0
  9
$USERR2
 40
0.0
  9
$USERR3
 40
0.0
  9
$USERR4
 40
0.0
  9
$USERR5
 40
0.0
  9
$WORLDVIEW
 70
     1
  9
$SHADEDGE
 70
     3
  9
$SHADEDIF
 70
    70
  9
$TILEMODE
 70
     1
  9
$MAXACTVP
 70
    64
  9
$PINSBASE
 10
0.0
 20
0.0
 30
0.0
  9
$PLIMCHECK
 70
     0
  9
$PEXTMIN
 10
0.0
 20
0.0
 30
0.0
  9
$PEXTMAX
 10
0.0
 20
0.0
 30
0.0
  9
$PLIMMIN
 10
0.0
 20
0.0
  9
$PLIMMAX
 10
12.0
 20
9.0
  9
$UNITMODE
 70
     0
  9
$VISRETAIN
 70
     0
  9
$PLINEGEN
 70
     0
  9
$PSLTSCALE
 70
     1
  9
$TREEDEPTH
 70
  3020
  9
$CMLSTYLE
  2
STANDARD
  9
$CMLJUST
 70
     0
  9
$CMLSCALE
 40
20.0
  9
$PROXYGRAPHICS
 70
     1
  9
$MEASUREMENT
 70
     1
  9
$CELWEIGHT
370
    -1
  9
$ENDCAPS
280
     0
  9
$JOINSTYLE
280
     0
  9
$LWDISPLAY
290
     0
  9
$INSUNITS
 70
     4
  9
$HYPERLINKBASE
  1

  9
$STYLESHEET
  1
MONOCHROME.CTB
  9
$XEDIT
290
     1
  9
$CEPSNTYPE
380
     0
  9
$PSTYLEMODE
290
     1
  9
$FINGERPRINTGUID
  2
{36B768E0-36AF-4475-81FB-06B9C40D017C}
  9
$VERSIONGUID
  2
{5AF70856-35C1-4874-8297-56F0F8A7F876}
  9
$EXTNAMES
290
     1
  9
$PSVPSCALE
 40
0.0
  9
$OLESTARTUP
290
     0
  0
ENDSEC
  0
SECTION
  2
CLASSES
  0
CLASS
  1
ACDBDICTIONARYWDFLT
  2
AcDbDictionaryWithDefault
  3
ObjectDBX Classes
 90
        0
280
     0
281
     0
  0
CLASS
  1
ACDBPLACEHOLDER
  2
AcDbPlaceHolder
  3
ObjectDBX Classes
 90
        0
280
     0
281
     0
  0
CLASS
  1
LAYOUT
  2
AcDbLayout
  3
ObjectDBX Classes
 90
        0
280
     0
281
     0
  0
CLASS
  1
DICTIONARYVAR
  2
AcDbDictionaryVar
  3
ObjectDBX Classes
 90
        0
280
     0
281
     0
  0
CLASS
  1
TABLESTYLE
  2
AcDbTableStyle
  3
ObjectDBX Classes
 90
     4095
280
     0
281
     0
  0
CLASS
  1
MATERIAL
  2
AcDbMaterial
  3
ObjectDBX Classes
 90
     1153
280
     0
281
     0
  0
CLASS
  1
VISUALSTYLE
  2
AcDbVisualStyle
  3
ObjectDBX Classes
 90
     4095
280
     0
281
     0
  0
CLASS
  1
SCALE
  2
AcDbScale
  3
ObjectDBX Classes
 90
     1153
280
     0
281
     0
  0
CLASS
  1
MLEADERSTYLE
  2
AcDbMLeaderStyle
  3
ACDB_MLEADERSTYLE_CLASS
 90
     4095
280
     0
281
     0
  0
CLASS
  1
CELLSTYLEMAP
  2
AcDbCellStyleMap
  3
ObjectDBX Classes
 90
     1152
280
     0
281
     0
  0
CLASS
  1
SORTENTSTABLE
  2
AcDbSortentsTable
  3
ObjectDBX Classes
 90
        0
280
     0
281
     0
  0
CLASS
  1
ACDBSECTIONVIEWSTYLE
  2
AcDbSectionViewStyle
  3
ObjectDBX Classes
 90
     1025
280
     0
281
     0
  0
CLASS
  1
ACDBDETAILVIEWSTYLE
  2
AcDbDetailViewStyle
  3
ObjectDBX Classes
 90
     1025
280
     0
281
     0
  0
CLASS
  1
EXACXREFPANELOBJECT
  2
ExAcXREFPanelObject
  3
EXAC_ESW
 90
     1025
280
     0
281
     0
  0
CLASS
  1
NPOCOLLECTION
  2
AcDbImpNonPersistentObjectsCollection
  3
ObjectDBX Classes
 90
     1153
280
     0
281
     0
  0
ENDSEC
  0
SECTION
  2
TABLES
  0
TABLE
  2
VPORT
  5
8
330
0
100
AcDbSymbolTable
 70
     1
  0
VPORT
  5
3ED
330
8
100
AcDbSymbolTableRecord
100
AcDbViewportTableRecord
  2
*Active
 70
     0
 10
0.0
 20
0.0
 11
1.0
 21
1.0
 12
12.43739460401388
 22
11.53747654815379
 13
0.0
 23
0.0
 14
5.0
 24
5.0
 15
5.0
 25
5.0
 16
0.0
 26
0.0
 36
1.0
 17
0.0
 27
0.0
 37
0.0
 40
65.27600805279721
 41
2.2
 42
50.0
 43
0.0
 44
0.0
 50
0.0
 51
0.0
 71
     0
 72
  2000
 73
     1
 74
     1
 75
     0
 76
     0
 77
     0
 78
     0
281
     0
 65
     1
110
0.0
120
0.0
130
0.0
111
1.0
121
0.0
131
0.0
112
0.0
122
1.0
132
0.0
 79
     0
146
0.0
1001
ACAD_NAV_VCDISPLAY
1070
     3
  0
ENDTAB
  0
TABLE
  2
LTYPE
  5
5
330
0
100
AcDbSymbolTable
 70
     3
  0
LTYPE
  5
12
330
5
100
AcDbSymbolTableRecord
100
AcDbLinetypeTableRecord
  2
BYBLOCK
 70
     0
  3

 72
    65
 73
     0
 40
0.0
  0
LTYPE
  5
13
330
5
100
AcDbSymbolTableRecord
100
AcDbLinetypeTableRecord
  2
BYLAYER
 70
     0
  3

 72
    65
 73
     0
 40
0.0
  0
LTYPE
  5
14
330
5
100
AcDbSymbolTableRecord
100
AcDbLinetypeTableRecord
  2
CONTINUOUS
 70
     0
  3
Solid line
 72
    65
 73
     0
 40
0.0
  0
LTYPE
  5
E8611
330
5
100
AcDbSymbolTableRecord
100
AcDbLinetypeTableRecord
  2
CENTER
 70
     0
  3
____ _ ____ _ ____ _ ____ _ ____ _ ____ _ ____
 72
    65
 73
     4
 40
0.1992
 49
0.1245
 74
     0
 49
-0.0249
 74
     0
 49
0.0249
 74
     0
 49
-0.0249
 74
     0
  0
LTYPE
  5
E8612
330
5
100
AcDbSymbolTableRecord
100
AcDbLinetypeTableRecord
  2
DASHED
 70
     0
  3
__ __ __ __ __ __ __ __ __ __ __ __ __ __ __ __
 72
    65
 73
     2
 40
0.29881
 49
0.1992
 74
     0
 49
-0.099604
 74
     0
  0
ENDTAB
  0
TABLE
  2
LAYER
  5
2
330
0
100
AcDbSymbolTable
 70
    39
  0
LAYER
  5
F
102
{ACAD_XDICTIONARY
360
E8A58
102
}
330
2
100
AcDbSymbolTableRecord
100
AcDbLayerTableRecord
  2
0
 70
     0
 62
     7
  6
CONTINUOUS
370
    -3
390
300
  0
LAYER
  5
23
102
{ACAD_XDICTIONARY
360
E8A5A
102
}
330
2
100
AcDbSymbolTableRecord
100
AcDbLayerTableRecord
  2
1
 70
     0
 62
     4
  6
CONTINUOUS
370
    -3
390
300
  0
LAYER
  5
E8613
102
{ACAD_XDICTIONARY
360
E8A5C
102
}
330
2
100
AcDbSymbolTableRecord
100
AcDbLayerTableRecord
  2
2
 70
     0
 62
     7
  6
CONTINUOUS
370
    -3
390
300
  0
LAYER
  5
E8614
102
{ACAD_XDICTIONARY
360
E8A5E
102
}
330
2
100
AcDbSymbolTableRecord
100
AcDbLayerTableRecord
  2
61
 70
     0
 62
     5
  6
CONTINUOUS
370
    -3
390
300
  0
LAYER
  5
E8615
102
{ACAD_XDICTIONARY
360
E8A60
102
}
330
2
100
AcDbSymbolTableRecord
100
AcDbLayerTableRecord
  2
62
 70
     0
 62
    -5
  6
CONTINUOUS
370
    -3
390
300
  0
LAYER
  5
E8616
102
{ACAD_XDICTIONARY
360
E8A62
102
}
330
2
100
AcDbSymbolTableRecord
100
AcDbLayerTableRecord
  2
63
 70
     0
 62
    -5
  6
CONTINUOUS
370
    -3
390
300
  0
LAYER
  5
E8617
102
{ACAD_XDICTIONARY
360
E8A64
102
}
330
2
100
AcDbSymbolTableRecord
100
AcDbLayerTableRecord
  2
64
 70
     0
 62
    -5
  6
CONTINUOUS
370
    -3
390
300
  0
LAYER
  5
E8618
102
{ACAD_XDICTIONARY
360
E8A66
102
}
330
2
100
AcDbSymbolTableRecord
100
AcDbLayerTableRecord
  2
65
 70
     0
 62
    -5
  6
CONTINUOUS
370
    -3
390
300
  0
LAYER
  5
E8619
102
{ACAD_XDICTIONARY
360
E8A68
102
}
330
2
100
AcDbSymbolTableRecord
100
AcDbLayerTableRecord
  2
66
 70
     0
 62
    -5
  6
CONTINUOUS
370
    -3
390
300
  0
LAYER
  5
E861A
102
{ACAD_XDICTIONARY
360
E8A6A
102
}
330
2
100
AcDbSymbolTableRecord
100
AcDbLayerTableRecord
  2
67
 70
     0
 62
    -5
  6
CONTINUOUS
370
    -3
390
300
  0
LAYER
  5
E861B
102
{ACAD_XDICTIONARY
360
E8A6C
102
}
330
2
100
AcDbSymbolTableRecord
100
AcDbLayerTableRecord
  2
68
 70
     0
 62
    -5
  6
CONTINUOUS
370
    -3
390
300
  0
LAYER
  5
E861C
102
{ACAD_XDICTIONARY
360
E8A6E
102
}
330
2
100
AcDbSymbolTableRecord
100
AcDbLayerTableRecord
  2
69
 70
     0
 62
    -5
  6
CONTINUOUS
370
    -3
390
300
  0
LAYER
  5
E861D
102
{ACAD_XDICTIONARY
360
E8A70
102
}
330
2
100
AcDbSymbolTableRecord
100
AcDbLayerTableRecord
  2
70
 70
     0
 62
     5
  6
CONTINUOUS
370
    -3
390
300
  0
LAYER
  5
E861E
102
{ACAD_XDICTIONARY
360
E8A72
102
}
330
2
100
AcDbSymbolTableRecord
100
AcDbLayerTableRecord
  2
3
 70
     0
 62
     1
  6
DASHED
370
    -3
390
300
  0
LAYER
  5
E861F
102
{ACAD_XDICTIONARY
360
E8A74
102
}
330
2
100
AcDbSymbolTableRecord
100
AcDbLayerTableRecord
  2
4
 70
     0
 62
    -2
  6
CENTER
370
    -3
390
300
  0
LAYER
  5
E8620
102
{ACAD_XDICTIONARY
360
E8A76
102
}
330
2
100
AcDbSymbolTableRecord
100
AcDbLayerTableRecord
  2
5
 70
     0
 62
    -7
  6
CONTINUOUS
370
    -3
390
300
  0
LAYER
  5
E8621
102
{ACAD_XDICTIONARY
360
E8A78
102
}
330
2
100
AcDbSymbolTableRecord
100
AcDbLayerTableRecord
  2
SK1
 70
     0
 62
     4
  6
CONTINUOUS
370
    -3
390
300
  0
LAYER
  5
E8622
102
{ACAD_XDICTIONARY
360
E8A7A
102
}
330
2
100
AcDbSymbolTableRecord
100
AcDbLayerTableRecord
  2
6
 70
     0
 62
     5
  6
CONTINUOUS
370
    -3
390
300
  0
LAYER
  5
E8623
102
{ACAD_XDICTIONARY
360
E8A7C
102
}
330
2
100
AcDbSymbolTableRecord
100
AcDbLayerTableRecord
  2
SK2
 70
     0
 62
     7
  6
CONTINUOUS
370
    -3
390
300
  0
LAYER
  5
E8624
102
{ACAD_XDICTIONARY
360
E8A7E
102
}
330
2
100
AcDbSymbolTableRecord
100
AcDbLayerTableRecord
  2
SK3
 70
     0
 62
     1
  6
DASHED
370
    -3
390
300
  0
LAYER
  5
E8625
102
{ACAD_XDICTIONARY
360
E8A80
102
}
330
2
100
AcDbSymbolTableRecord
100
AcDbLayerTableRecord
  2
SK4
 70
     0
 62
     2
  6
CENTER
370
    -3
390
300
  0
LAYER
  5
E8626
102
{ACAD_XDICTIONARY
360
E8A82
102
}
330
2
100
AcDbSymbolTableRecord
100
AcDbLayerTableRecord
  2
CUT
 70
     0
 62
    -1
  6
CONTINUOUS
370
    -3
390
300
  0
LAYER
  5
E8627
102
{ACAD_XDICTIONARY
360
E8A84
102
}
330
2
100
AcDbSymbolTableRecord
100
AcDbLayerTableRecord
  2
SK6
 70
     0
 62
     5
  6
CONTINUOUS
370
    -3
390
300
  0
LAYER
  5
E8628
102
{ACAD_XDICTIONARY
360
E8A86
102
}
330
2
100
AcDbSymbolTableRecord
100
AcDbLayerTableRecord
  2
80
 70
     0
 62
    -2
  6
CENTER
370
    -3
390
300
  0
LAYER
  5
E8629
102
{ACAD_XDICTIONARY
360
E8A88
102
}
330
2
100
AcDbSymbolTableRecord
100
AcDbLayerTableRecord
  2
81
 70
     0
 62
    -2
  6
CENTER
370
    -3
390
300
  0
LAYER
  5
E862A
102
{ACAD_XDICTIONARY
360
E8A8A
102
}
330
2
100
AcDbSymbolTableRecord
100
AcDbLayerTableRecord
  2
82
 70
     0
 62
    -2
  6
CENTER
370
    -3
390
300
  0
LAYER
  5
E862B
102
{ACAD_XDICTIONARY
360
E8A8C
102
}
330
2
100
AcDbSymbolTableRecord
100
AcDbLayerTableRecord
  2
NOCUT
 70
     0
 62
     7
  6
CONTINUOUS
370
    -3
390
300
  0
LAYER
  5
E862C
102
{ACAD_XDICTIONARY
360
E8A8E
102
}
330
2
100
AcDbSymbolTableRecord
100
AcDbLayerTableRecord
  2
50
 70
     0
 62
    -7
  6
CONTINUOUS
370
    -3
390
300
  0
LAYER
  5
E862D
102
{ACAD_XDICTIONARY
360
E8A90
102
}
330
2
100
AcDbSymbolTableRecord
100
AcDbLayerTableRecord
  2
51
 70
     0
 62
     7
  6
CONTINUOUS
370
    -3
390
300
  0
LAYER
  5
E862E
102
{ACAD_XDICTIONARY
360
E8A92
102
}
330
2
100
AcDbSymbolTableRecord
100
AcDbLayerTableRecord
  2
52
 70
     0
 62
    -7
  6
CONTINUOUS
370
    -3
390
300
  0
LAYER
  5
E862F
102
{ACAD_XDICTIONARY
360
E8A94
102
}
330
2
100
AcDbSymbolTableRecord
100
AcDbLayerTableRecord
  2
53
 70
     0
 62
    -7
  6
CONTINUOUS
370
    -3
390
300
  0
LAYER
  5
E8630
102
{ACAD_XDICTIONARY
360
E8A96
102
}
330
2
100
AcDbSymbolTableRecord
100
AcDbLayerTableRecord
  2
54
 70
     0
 62
    -7
  6
CONTINUOUS
370
    -3
390
300
  0
LAYER
  5
E8631
102
{ACAD_XDICTIONARY
360
E8A98
102
}
330
2
100
AcDbSymbolTableRecord
100
AcDbLayerTableRecord
  2
55
 70
     0
 62
    -7
  6
CONTINUOUS
370
    -3
390
300
  0
LAYER
  5
E8632
102
{ACAD_XDICTIONARY
360
E8A9A
102
}
330
2
100
AcDbSymbolTableRecord
100
AcDbLayerTableRecord
  2
56
 70
     0
 62
    -7
  6
CONTINUOUS
370
    -3
390
300
  0
LAYER
  5
E8633
102
{ACAD_XDICTIONARY
360
E8A9C
102
}
330
2
100
AcDbSymbolTableRecord
100
AcDbLayerTableRecord
  2
57
 70
     0
 62
    -7
  6
CONTINUOUS
370
    -3
390
300
  0
LAYER
  5
E8634
102
{ACAD_XDICTIONARY
360
E8A9E
102
}
330
2
100
AcDbSymbolTableRecord
100
AcDbLayerTableRecord
  2
58
 70
     0
 62
    -7
  6
CONTINUOUS
370
    -3
390
300
  0
LAYER
  5
E8635
102
{ACAD_XDICTIONARY
360
E8AA0
102
}
330
2
100
AcDbSymbolTableRecord
100
AcDbLayerTableRecord
  2
2L
 70
     0
 62
     7
  6
CONTINUOUS
370
    -3
390
300
  0
LAYER
  5
E8636
102
{ACAD_XDICTIONARY
360
E8AA2
102
}
330
2
100
AcDbSymbolTableRecord
100
AcDbLayerTableRecord
  2
59
 70
     0
 62
    -7
  6
CONTINUOUS
370
    -3
390
300
  0
LAYER
  5
E8637
330
2
100
AcDbSymbolTableRecord
100
AcDbLayerTableRecord
  2
Defpoints
 70
     0
 62
     7
  6
CONTINUOUS
290
     0
370
    -3
390
300
  0
ENDTAB
  0
TABLE
  2
STYLE
  5
3
330
0
100
AcDbSymbolTable
 70
     4
  0
STYLE
  5
10
330
3
100
AcDbSymbolTableRecord
100
AcDbTextStyleTableRecord
  2
STANDARD
 70
     0
 40
0.0
 41
1.0
 50
0.0
 71
     0
 42
5.0
  3
txt
  4

  0
STYLE
  5
1E
330
3
100
AcDbSymbolTableRecord
100
AcDbTextStyleTableRecord
  2
SIMPLEX
 70
     0
 40
0.0
 41
1.0
 50
0.0
 71
     0
 42
3.5
  3
simplex
  4

  0
STYLE
  5
E8638
330
3
100
AcDbSymbolTableRecord
100
AcDbTextStyleTableRecord
  2
Annotative
 70
     0
 40
0.0
 41
1.0
 50
0.0
 71
     0
 42
0.2
  3
txt
  4

1001
AcadAnnotative
1000
AnnotativeData
1002
{
1070
     1
1070
     1
1002
}
  0
STYLE
  5
E8639
330
3
100
AcDbSymbolTableRecord
100
AcDbTextStyleTableRecord
  2
SANDVIK_STYLE
 70
     0
 40
0.11811
 41
1.0
 50
0.0
 71
     0
 42
0.11811
  3
simplex.shx
  4

  0
ENDTAB
  0
TABLE
  2
VIEW
  5
6
330
0
100
AcDbSymbolTable
 70
     0
  0
ENDTAB
  0
TABLE
  2
UCS
  5
7
330
0
100
AcDbSymbolTable
 70
     0
  0
ENDTAB
  0
TABLE
  2
APPID
  5
9
330
0
100
AcDbSymbolTable
 70
    11
  0
APPID
  5
11
330
9
100
AcDbSymbolTableRecord
100
AcDbRegAppTableRecord
  2
ACAD
 70
     0
  0
APPID
  5
3A6
330
9
100
AcDbSymbolTableRecord
100
AcDbRegAppTableRecord
  2
ACAD_PSEXT
 70
     0
  0
APPID
  5
3A8
330
9
100
AcDbSymbolTableRecord
100
AcDbRegAppTableRecord
  2
ACAD_EXEMPT_FROM_CAD_STANDARDS
 70
     0
  0
APPID
  5
43E
330
9
100
AcDbSymbolTableRecord
100
AcDbRegAppTableRecord
  2
ACAD_MLEADERVER
 70
     0
  0
APPID
  5
454
330
9
100
AcDbSymbolTableRecord
100
AcDbRegAppTableRecord
  2
ACAD_DSTYLE_DIMJAG
 70
     0
  0
APPID
  5
455
330
9
100
AcDbSymbolTableRecord
100
AcDbRegAppTableRecord
  2
ACAD_DSTYLE_DIMBREAK
 70
     0
  0
APPID
  5
456
330
9
100
AcDbSymbolTableRecord
100
AcDbRegAppTableRecord
  2
ACAD_DSTYLE_DIMTALN
 70
     0
  0
APPID
  5
4EE
330
9
100
AcDbSymbolTableRecord
100
AcDbRegAppTableRecord
  2
AcadAnnotative
 70
     0
  0
APPID
  5
4EF
330
9
100
AcDbSymbolTableRecord
100
AcDbRegAppTableRecord
  2
ACADIGES
 70
     0
  0
APPID
  5
4F0
330
9
100
AcDbSymbolTableRecord
100
AcDbRegAppTableRecord
  2
ACAD_DSTYLE_DIMJOGGED_JOGANGLE_SYMBOL
 70
     0
  0
APPID
  5
E8AA7
330
9
100
AcDbSymbolTableRecord
100
AcDbRegAppTableRecord
  2
ACAD_NAV_VCDISPLAY
 70
     0
  0
ENDTAB
  0
TABLE
  2
DIMSTYLE
  5
A
330
0
100
AcDbSymbolTable
 70
     5
100
AcDbDimStyleTable
 71
     1
340
457
  0
DIMSTYLE
105
457
102
{ACAD_REACTORS
330
E89D8
330
E89D7
330
E89D6
102
}
330
A
100
AcDbSymbolTableRecord
100
AcDbDimStyleTableRecord
  2
SANDVIK_STYLE
 70
     0
 41
2.5
 42
0.0
 43
3.75
 44
1.25
 73
     0
 74
     0
 77
     1
 78
     8
 79
     2
140
3.5
141
0.0
143
0.039370078
147
0.625
171
     3
179
     2
271
     2
272
     2
274
     3
283
     0
284
     8
340
1E
1001
ACAD_DSTYLE_DIMBREAK
1070
   391
1040
3.75
1001
ACAD_DSTYLE_DIMJAG
1070
   388
1040
1.5
1001
ACAD_DSTYLE_DIMTALN
1070
   392
1070
     0
  0
DIMSTYLE
105
E863A
330
A
100
AcDbSymbolTableRecord
100
AcDbDimStyleTableRecord
  2
ISO-25
 70
     0
 41
2.5
 42
0.625
 43
3.75
 44
1.25
 73
     0
 74
     0
 77
     1
 78
     8
140
2.5
141
2.5
143
0.03937007874016
147
0.625
171
     3
172
     1
271
     2
272
     2
274
     3
278
    44
283
     0
284
     8
340
10
1001
ACAD_DSTYLE_DIMJOGGED_JOGANGLE_SYMBOL
1070
   384
1040
1.570796326794896
  0
DIMSTYLE
105
E863B
330
A
100
AcDbSymbolTableRecord
100
AcDbDimStyleTableRecord
  2
STANDARD
 70
     0
  4
 
 43
0.18
 44
2.5
 46
1.25
 73
     0
 74
     0
140
0.11811
141
-3.0
143
0.039
145
1.5
146
0.75
147
1.5
271
     2
272
     2
279
     2
340
E8639
  0
DIMSTYLE
105
E863C
330
A
100
AcDbSymbolTableRecord
100
AcDbDimStyleTableRecord
  2
Annotative
 70
     0
340
10
1001
AcadAnnotative
1000
AnnotativeData
1002
{
1070
     1
1070
     1
1002
}
  0
DIMSTYLE
105
E863D
330
A
100
AcDbSymbolTableRecord
100
AcDbDimStyleTableRecord
  2
SANDVIK_DIM
 70
     0
  4
 
 40
0.0
 42
0.0
 73
     0
 74
     0
 77
     1
 78
     8
173
     1
176
   256
177
   256
178
   256
271
     2
272
     2
279
     2
340
E8639
  0
ENDTAB
  0
TABLE
  2
BLOCK_RECORD
  5
1
330
0
100
AcDbSymbolTable
 70
     8
  0
BLOCK_RECORD
  5
18
330
1
100
AcDbSymbolTableRecord
100
AcDbBlockTableRecord
  2
*MODEL_SPACE
340
303
  0
BLOCK_RECORD
  5
338
330
1
100
AcDbSymbolTableRecord
100
AcDbBlockTableRecord
  2
*Paper_Space
340
33B
  0
BLOCK_RECORD
  5
E85C5
330
1
100
AcDbSymbolTableRecord
100
AcDbBlockTableRecord
  2
*D0
340
0
  0
BLOCK_RECORD
  5
E85CE
330
1
100
AcDbSymbolTableRecord
100
AcDbBlockTableRecord
  2
*D1
340
0
  0
BLOCK_RECORD
  5
E85D7
330
1
100
AcDbSymbolTableRecord
100
AcDbBlockTableRecord
  2
*D2
340
0
  0
BLOCK_RECORD
  5
E85E0
330
1
100
AcDbSymbolTableRecord
100
AcDbBlockTableRecord
  2
*D3
340
0
  0
BLOCK_RECORD
  5
E85EC
330
1
100
AcDbSymbolTableRecord
100
AcDbBlockTableRecord
  2
*D4
340
0
  0
BLOCK_RECORD
  5
E85F8
330
1
100
AcDbSymbolTableRecord
100
AcDbBlockTableRecord
  2
*D5
340
0
  0
BLOCK_RECORD
  5
E8604
102
{ACAD_XDICTIONARY
360
E8605
102
}
330
1
100
AcDbSymbolTableRecord
100
AcDbBlockTableRecord
  2
_Zeropoint.dwg
340
0
102
{BLKREFS
331
E860F
102
}
  0
BLOCK_RECORD
  5
E860D
330
1
100
AcDbSymbolTableRecord
100
AcDbBlockTableRecord
  2
_nullpunkt
340
0
102
{BLKREFS
331
E89D9
102
}
1001
ACAD
1000
DesignCenter Data
1002
{
1070
     1
1070
     4
1002
}
  0
ENDTAB
  0
ENDSEC
  0
SECTION
  2
BLOCKS
  0
BLOCK
  5
32
330
18
100
AcDbEntity
  8
0
100
AcDbBlockBegin
  2
*MODEL_SPACE
 70
     0
 10
0.0
 20
0.0
 30
0.0
  3
*MODEL_SPACE
  1

  0
ENDBLK
  5
33
330
18
100
AcDbEntity
  8
0
100
AcDbBlockEnd
  0
BLOCK
  5
339
330
338
100
AcDbEntity
 67
     1
  8
0
100
AcDbBlockBegin
  2
*Paper_Space
 70
     0
 10
0.0
 20
0.0
 30
0.0
  3
*Paper_Space
  1

  0
ENDBLK
  5
33A
330
338
100
AcDbEntity
 67
     1
  8
0
100
AcDbBlockEnd
  0
BLOCK
  5
E85C6
330
E85C5
100
AcDbEntity
  8
0
100
AcDbBlockBegin
  2
*D0
 70
     1
 10
0.0
 20
0.0
 30
0.0
  3
*D0
  1

  0
LINE
  5
E85C7
330
E85C5
100
AcDbEntity
  8
0
100
AcDbLine
 10
-16.0
 20
0.0625
 30
0.0
 11
-16.0
 21
23.248378
 31
0.0
  0
LINE
  5
E85C8
330
E85C5
100
AcDbEntity
  8
0
100
AcDbLine
 10
16.0
 20
0.0625
 30
0.0
 11
16.0
 21
23.248378
 31
0.0
  0
LINE
  5
E85C9
330
E85C5
100
AcDbEntity
  8
0
100
AcDbLine
 10
-16.0
 20
23.123378
 30
0.0
 11
16.0
 21
23.123378
 31
0.0
  0
SOLID
  5
E85CA
330
E85C5
100
AcDbEntity
  8
0
100
AcDbTrace
 10
-16.0
 20
23.123378
 30
0.0
 11
-13.0
 21
23.927226
 31
0.0
 12
-13.0
 22
22.319531
 32
0.0
 13
-13.0
 23
22.319531
 33
0.0
  0
SOLID
  5
E85CB
330
E85C5
100
AcDbEntity
  8
0
100
AcDbTrace
 10
16.0
 20
23.123378
 30
0.0
 11
13.0
 21
22.319531
 31
0.0
 12
13.0
 22
23.927226
 32
0.0
 13
13.0
 23
23.927226
 33
0.0
  0
TEXT
  5
E85CC
330
E85C5
100
AcDbEntity
  8
0
100
AcDbText
 10
-5.352691
 20
25.373378
 30
0.0
 40
3.0
  1
%%c32
100
AcDbText
  0
ENDBLK
  5
E85CD
330
E85C5
100
AcDbEntity
  8
0
100
AcDbBlockEnd
  0
BLOCK
  5
E85CF
330
E85CE
100
AcDbEntity
  8
0
100
AcDbBlockBegin
  2
*D1
 70
     1
 10
0.0
 20
0.0
 30
0.0
  3
*D1
  1

  0
LINE
  5
E85D0
330
E85CE
100
AcDbEntity
  8
0
100
AcDbLine
 10
22.0
 20
-40.0625
 30
0.0
 11
22.0
 21
-49.036309
 31
0.0
  0
LINE
  5
E85D1
330
E85CE
100
AcDbEntity
  8
0
100
AcDbLine
 10
0.0
 20
-41.599962
 30
0.0
 11
0.0
 21
-49.036309
 31
0.0
  0
LINE
  5
E85D2
330
E85CE
100
AcDbEntity
  8
0
100
AcDbLine
 10
22.0
 20
-48.911309
 30
0.0
 11
0.0
 21
-48.911309
 31
0.0
  0
SOLID
  5
E85D3
330
E85CE
100
AcDbEntity
  8
0
100
AcDbTrace
 10
22.0
 20
-48.911309
 30
0.0
 11
19.0
 21
-49.715157
 31
0.0
 12
19.0
 22
-48.107462
 32
0.0
 13
19.0
 23
-48.107462
 33
0.0
  0
SOLID
  5
E85D4
330
E85CE
100
AcDbEntity
  8
0
100
AcDbTrace
 10
0.0
 20
-48.911309
 30
0.0
 11
3.0
 21
-48.107462
 31
0.0
 12
3.0
 22
-49.715157
 32
0.0
 13
3.0
 23
-49.715157
 33
0.0
  0
TEXT
  5
E85D5
330
E85CE
100
AcDbEntity
  8
0
100
AcDbText
 10
7.355245
 20
-47.411309
 30
0.0
 40
3.0
  1
22
100
AcDbText
  0
ENDBLK
  5
E85D6
330
E85CE
100
AcDbEntity
  8
0
100
AcDbBlockEnd
  0
BLOCK
  5
E85D8
330
E85D7
100
AcDbEntity
  8
0
100
AcDbBlockBegin
  2
*D2
 70
     1
 10
0.0
 20
0.0
 30
0.0
  3
*D2
  1

  0
LINE
  5
E85D9
330
E85D7
100
AcDbEntity
  8
0
100
AcDbLine
 10
22.0625
 20
-40.0
 30
0.0
 11
36.682189
 21
-40.0
 31
0.0
  0
LINE
  5
E85DA
330
E85D7
100
AcDbEntity
  8
0
100
AcDbLine
 10
16.0625
 20
0.0
 30
0.0
 11
36.682189
 21
0.0
 31
0.0
  0
LINE
  5
E85DB
330
E85D7
100
AcDbEntity
  8
0
100
AcDbLine
 10
36.557189
 20
-40.0
 30
0.0
 11
36.557189
 21
0.0
 31
0.0
  0
SOLID
  5
E85DC
330
E85D7
100
AcDbEntity
  8
0
100
AcDbTrace
 10
36.557189
 20
-40.0
 30
0.0
 11
35.753341
 21
-37.0
 31
0.0
 12
37.361036
 22
-37.0
 32
0.0
 13
37.361036
 23
-37.0
 33
0.0
  0
SOLID
  5
E85DD
330
E85D7
100
AcDbEntity
  8
0
100
AcDbTrace
 10
36.557189
 20
0.0
 30
0.0
 11
37.361036
 21
-3.0
 31
0.0
 12
35.753341
 22
-3.0
 32
0.0
 13
35.753341
 23
-3.0
 33
0.0
  0
TEXT
  5
E85DE
330
E85D7
100
AcDbEntity
  8
0
100
AcDbText
 10
35.057189
 20
-23.279011
 30
0.0
 40
3.0
  1
40
 50
90.0
100
AcDbText
  0
ENDBLK
  5
E85DF
330
E85D7
100
AcDbEntity
  8
0
100
AcDbBlockEnd
  0
BLOCK
  5
E85E1
330
E85E0
100
AcDbEntity
  8
0
100
AcDbBlockBegin
  2
*D3
 70
     1
 10
0.0
 20
0.0
 30
0.0
  3
*D3
  1

  0
LINE
  5
E8A08
330
E85E0
100
AcDbEntity
  8
SK2
 62
     0
370
    -2
100
AcDbLine
 10
-0.062500000000001
 20
-16.0
 30
0.0
 11
-24.37337800000001
 21
-15.99999999999999
 31
0.0
  0
LINE
  5
E8A09
330
E85E0
100
AcDbEntity
  8
SK2
 62
     0
370
    -2
100
AcDbLine
 10
-0.062499999999999
 20
16.0
 30
0.0
 11
-24.373378
 21
16.0
 31
0.0
  0
LINE
  5
E8A0A
330
E85E0
100
AcDbEntity
  8
SK2
 62
     0
370
    -2
100
AcDbLine
 10
-23.12337800000001
 20
-13.49999999999999
 30
0.0
 11
-23.123378
 21
13.5
 31
0.0
  0
SOLID
  5
E8A0B
330
E85E0
100
AcDbEntity
  8
SK2
 62
     0
100
AcDbTrace
 10
-23.54004466666667
 20
-13.49999999999999
 30
0.0
 11
-22.70671133333334
 21
-13.49999999999999
 31
0.0
 12
-23.12337800000001
 22
-15.99999999999999
 32
0.0
 13
-23.12337800000001
 23
-15.99999999999999
 33
0.0
  0
SOLID
  5
E8A0C
330
E85E0
100
AcDbEntity
  8
SK2
 62
     0
100
AcDbTrace
 10
-23.54004466666667
 20
13.5
 30
0.0
 11
-22.70671133333333
 21
13.5
 31
0.0
 12
-23.123378
 22
16.0
 32
0.0
 13
-23.123378
 23
16.0
 33
0.0
  0
MTEXT
  5
E8A0D
330
E85E0
100
AcDbEntity
  8
SK2
 62
     0
100
AcDbMText
 10
-25.49837800000001
 20
0.0000000000000026
 30
0.0
 40
3.5
 41
0.0
 71
     5
 72
     1
  1
%%c32
  7
SIMPLEX
 11
0.0000000000000001
 21
1.0
 31
0.0
 73
     1
 44
1.0
1001
ACAD
1000
MTEXTBEGIN
1070
    73
1070
     1
1070
    44
1040
1.0
1070
    74
1070
     0
1000
MTEXTEND
  0
POINT
  5
E8A0E
330
E85E0
100
AcDbEntity
  8
Defpoints
 62
     0
100
AcDbPoint
 10
-0.062500000000001
 20
-16.0
 30
0.0
  0
POINT
  5
E8A0F
330
E85E0
100
AcDbEntity
  8
Defpoints
 62
     0
100
AcDbPoint
 10
-0.062499999999999
 20
16.0
 30
0.0
  0
POINT
  5
E8A10
330
E85E0
100
AcDbEntity
  8
Defpoints
 62
     0
100
AcDbPoint
 10
-23.123378
 20
16.0
 30
0.0
  0
ENDBLK
  5
E85EB
330
E85E0
100
AcDbEntity
  8
0
100
AcDbBlockEnd
  0
BLOCK
  5
E85ED
330
E85EC
100
AcDbEntity
  8
0
100
AcDbBlockBegin
  2
*D4
 70
     1
 10
0.0
 20
0.0
 30
0.0
  3
*D4
  1

  0
LINE
  5
E89FF
330
E85EC
100
AcDbEntity
  8
2L
 62
     0
370
    -2
100
AcDbLine
 10
40.0625
 20
22.0
 30
0.0
 11
50.16130900000001
 21
22.0
 31
0.0
  0
LINE
  5
E8A00
330
E85EC
100
AcDbEntity
  8
2L
 62
     0
370
    -2
100
AcDbLine
 10
41.599962
 20
-0.0000000000000025
 30
0.0
 11
50.161309
 21
-0.0000000000000049
 31
0.0
  0
LINE
  5
E8A01
330
E85EC
100
AcDbEntity
  8
2L
 62
     0
370
    -2
100
AcDbLine
 10
48.91130900000001
 20
19.5
 30
0.0
 11
48.911309
 21
2.499999999999995
 31
0.0
  0
SOLID
  5
E8A02
330
E85EC
100
AcDbEntity
  8
2L
 62
     0
100
AcDbTrace
 10
48.49464233333335
 20
19.5
 30
0.0
 11
49.32797566666668
 21
19.5
 31
0.0
 12
48.91130900000001
 22
22.0
 32
0.0
 13
48.91130900000001
 23
22.0
 33
0.0
  0
SOLID
  5
E8A03
330
E85EC
100
AcDbEntity
  8
2L
 62
     0
100
AcDbTrace
 10
48.49464233333334
 20
2.499999999999995
 30
0.0
 11
49.32797566666667
 21
2.499999999999995
 31
0.0
 12
48.911309
 22
-0.0000000000000046
 32
0.0
 13
48.911309
 23
-0.0000000000000046
 33
0.0
  0
MTEXT
  5
E8A04
330
E85EC
100
AcDbEntity
  8
2L
 62
     0
100
AcDbMText
 10
46.536309
 20
11.0
 30
0.0
 40
3.5
 41
0.0
 71
     5
 72
     1
  1
22
  7
SIMPLEX
 11
0.0000000000000001
 21
1.0
 31
0.0
 73
     1
 44
1.0
1001
ACAD
1000
MTEXTBEGIN
1070
    73
1070
     1
1070
    44
1040
1.0
1070
    74
1070
     0
1000
MTEXTEND
  0
POINT
  5
E8A05
330
E85EC
100
AcDbEntity
  8
Defpoints
 62
     0
100
AcDbPoint
 10
40.0625
 20
22.0
 30
0.0
  0
POINT
  5
E8A06
330
E85EC
100
AcDbEntity
  8
Defpoints
 62
     0
100
AcDbPoint
 10
41.599962
 20
-0.0000000000000025
 30
0.0
  0
POINT
  5
E8A07
330
E85EC
100
AcDbEntity
  8
Defpoints
 62
     0
100
AcDbPoint
 10
48.911309
 20
-0.0000000000000046
 30
0.0
  0
ENDBLK
  5
E85F7
330
E85EC
100
AcDbEntity
  8
0
100
AcDbBlockEnd
  0
BLOCK
  5
E85F9
330
E85F8
100
AcDbEntity
  8
0
100
AcDbBlockBegin
  2
*D5
 70
     1
 10
0.0
 20
0.0
 30
0.0
  3
*D5
  1

  0
LINE
  5
E89F6
330
E85F8
100
AcDbEntity
  8
2L
 62
     0
370
    -2
100
AcDbLine
 10
40.0
 20
22.0625
 30
0.0
 11
40.0
 21
37.807189
 31
0.0
  0
LINE
  5
E89F7
330
E85F8
100
AcDbEntity
  8
2L
 62
     0
370
    -2
100
AcDbLine
 10
0.000000000000001
 20
16.0625
 30
0.0
 11
0.0000000000000023
 21
37.807189
 31
0.0
  0
LINE
  5
E89F8
330
E85F8
100
AcDbEntity
  8
2L
 62
     0
370
    -2
100
AcDbLine
 10
37.5
 20
36.557189
 30
0.0
 11
2.500000000000002
 21
36.557189
 31
0.0
  0
SOLID
  5
E89F9
330
E85F8
100
AcDbEntity
  8
2L
 62
     0
100
AcDbTrace
 10
37.5
 20
36.97385566666667
 30
0.0
 11
37.5
 21
36.14052233333334
 31
0.0
 12
40.0
 22
36.557189
 32
0.0
 13
40.0
 23
36.557189
 33
0.0
  0
SOLID
  5
E89FA
330
E85F8
100
AcDbEntity
  8
2L
 62
     0
100
AcDbTrace
 10
2.500000000000002
 20
36.97385566666667
 30
0.0
 11
2.500000000000002
 21
36.14052233333334
 31
0.0
 12
0.0000000000000023
 22
36.557189
 32
0.0
 13
0.0000000000000023
 23
36.557189
 33
0.0
  0
MTEXT
  5
E89FB
330
E85F8
100
AcDbEntity
  8
2L
 62
     0
100
AcDbMText
 10
20.0
 20
38.932189
 30
0.0
 40
3.5
 41
0.0
 71
     5
 72
     1
  1
40
  7
SIMPLEX
 73
     1
 44
1.0
1001
ACAD
1000
MTEXTBEGIN
1070
    73
1070
     1
1070
    44
1040
1.0
1070
    74
1070
     0
1000
MTEXTEND
  0
POINT
  5
E89FC
330
E85F8
100
AcDbEntity
  8
Defpoints
 62
     0
100
AcDbPoint
 10
40.0
 20
22.0625
 30
0.0
  0
POINT
  5
E89FD
330
E85F8
100
AcDbEntity
  8
Defpoints
 62
     0
100
AcDbPoint
 10
0.000000000000001
 20
16.0625
 30
0.0
  0
POINT
  5
E89FE
330
E85F8
100
AcDbEntity
  8
Defpoints
 62
     0
100
AcDbPoint
 10
0.0000000000000023
 20
36.557189
 30
0.0
  0
ENDBLK
  5
E8603
330
E85F8
100
AcDbEntity
  8
0
100
AcDbBlockEnd
  0
BLOCK
  5
E8607
330
E8604
100
AcDbEntity
  8
0
100
AcDbBlockBegin
  2
_Zeropoint.dwg
 70
     0
 10
0.0
 20
0.0
 30
0.0
  3
_Zeropoint.dwg
  1

  0
HATCH
  5
E8608
330
E8604
100
AcDbEntity
  8
2
100
AcDbHatch
 10
0.0
 20
0.0
 30
0.0
210
0.0
220
0.0
230
1.0
  2
_USER
 70
     0
 71
     1
 91
        2
 92
        7
 72
     1
 73
     1
 93
        3
 10
-2.5
 20
0.0
 42
0.4142135623730951
 10
0.0
 20
-2.5
 42
0.0
 10
0.0
 20
0.0
 42
0.0
 97
        3
330
E8609
330
E860B
330
E860A
 92
        7
 72
     1
 73
     1
 93
        3
 10
0.0
 20
2.5
 42
0.0
 10
0.0
 20
0.0
 42
0.0
 10
2.5
 20
0.0
 42
0.4142135623730951
 97
        3
330
E860A
330
E8609
330
E860B
 75
     0
 76
     0
 52
45.0
 41
0.5
 77
     0
 78
     1
 53
45.0
 43
0.0
 44
0.0
 45
-0.3535533905932737
 46
0.3535533905932738
 79
     0
 47
0.0807540860238484
 98
        2
 10
-1.081351813010084
 20
-0.6749528531090621
 10
1.100054950607727
 20
1.263145885468702
  0
LINE
  5
E8609
102
{ACAD_REACTORS
330
E8608
102
}
330
E8604
100
AcDbEntity
  8
2
100
AcDbLine
 10
5.0
 20
0.0
 30
0.0
 11
-5.0
 21
0.0
 31
0.0
  0
LINE
  5
E860A
102
{ACAD_REACTORS
330
E8608
102
}
330
E8604
100
AcDbEntity
  8
2
100
AcDbLine
 10
0.0
 20
5.0
 30
0.0
 11
0.0
 21
-5.0
 31
0.0
  0
CIRCLE
  5
E860B
102
{ACAD_REACTORS
330
E8608
102
}
330
E8604
100
AcDbEntity
  8
2
100
AcDbCircle
 10
0.0
 20
0.0
 30
0.0
 40
2.5
  0
ENDBLK
  5
E860C
330
E8604
100
AcDbEntity
  8
0
100
AcDbBlockEnd
  0
BLOCK
  5
E860E
330
E860D
100
AcDbEntity
  8
0
100
AcDbBlockBegin
  2
_nullpunkt
 70
     0
 10
0.0
 20
0.0
 30
0.0
  3
_nullpunkt
  1

  0
INSERT
  5
E860F
330
E860D
100
AcDbEntity
  8
0
100
AcDbBlockReference
  2
_Zeropoint.dwg
 10
0.0
 20
0.0
 30
0.0
  0
ENDBLK
  5
E8610
330
E860D
100
AcDbEntity
  8
0
100
AcDbBlockEnd
  0
ENDSEC
  0
SECTION
  2
ENTITIES
  0
LINE
  5
E863E
330
18
100
AcDbEntity
  8
1
100
AcDbLine
 10
34.598928
 20
21.960154
 30
0.0
 11
15.955208
 21
19.476147
 31
0.0
  0
LINE
  5
E863F
330
18
100
AcDbEntity
  8
1
100
AcDbLine
 10
39.87649600000001
 20
16.53310899999999
 30
0.0
 11
37.80718
 21
0.1463869999999977
 31
0.0
  0
LINE
  5
E8640
330
18
100
AcDbEntity
  8
1
100
AcDbLine
 10
37.80718
 20
0.1463869999999977
 30
0.0
 11
30.428315
 21
-7.766477
 31
0.0
  0
LINE
  5
E8641
330
18
100
AcDbEntity
  8
1
100
AcDbLine
 10
30.428315
 20
-7.766477
 30
0.0
 11
21.246718
 21
-17.612534
 31
0.0
  0
LINE
  5
E8642
330
18
100
AcDbEntity
  8
1
100
AcDbLine
 10
14.3
 20
8.361836999999999
 30
0.0
 11
14.3
 21
15.716234
 31
0.0
  0
LINE
  5
E8643
330
18
100
AcDbEntity
  8
1
100
AcDbLine
 10
14.3
 20
8.361836999999999
 30
0.0
 11
30.428315
 21
-7.766477
 31
0.0
  0
LINE
  5
E8644
330
18
100
AcDbEntity
  8
1
100
AcDbLine
 10
0.100000000000001
 20
16.0
 30
0.0
 11
0.000000000000001
 21
16.0
 31
0.0
  0
LINE
  5
E8645
330
18
100
AcDbEntity
  8
1
100
AcDbLine
 10
0.099999999999999
 20
-16.0
 30
0.0
 11
-0.000000000000001
 21
-16.0
 31
0.0
  0
LINE
  5
E8646
330
18
100
AcDbEntity
  8
1
100
AcDbLine
 10
-0.000000000000001
 20
-16.0
 30
0.0
 11
-0.000000000000001
 21
-15.9
 31
0.0
  0
LINE
  5
E8647
330
18
100
AcDbEntity
  8
1
100
AcDbLine
 10
40.0
 20
21.89999999999999
 30
0.0
 11
40.0
 21
22.0
 31
0.0
  0
LINE
  5
E8648
330
18
100
AcDbEntity
  8
1
100
AcDbLine
 10
0.000000000000001
 20
16.0
 30
0.0
 11
-0.000000000000001
 21
-16.0
 31
0.0
  0
LINE
  5
E8649
330
18
100
AcDbEntity
  8
1
100
AcDbLine
 10
15.0
 20
-16.0
 30
0.0
 11
-0.000000000000001
 21
-16.0
 31
0.0
  0
LINE
  5
E864A
330
18
100
AcDbEntity
  8
SK1
100
AcDbLine
 10
-19.0
 20
10.303388
 30
0.0
 11
-19.0
 21
-10.30338799999999
 31
0.0
  0
LINE
  5
E864B
330
18
100
AcDbEntity
  8
SK1
100
AcDbLine
 10
-1.599999999999999
 20
11.022946
 30
0.0
 11
-1.6
 21
-10.981132
 31
0.0
  0
LINE
  5
E864C
330
18
100
AcDbEntity
  8
SK1
100
AcDbLine
 10
-0.0000000000000007
 20
-10.868286
 30
0.0
 11
-1.6
 21
-10.828282
 31
0.0
  0
LINE
  5
E864D
330
18
100
AcDbEntity
  8
SK1
100
AcDbLine
 10
-1.599999999999999
 20
10.828246
 30
0.0
 11
0.0037490000000007
 21
10.868344
 31
0.0
  0
LINE
  5
E864E
330
18
100
AcDbEntity
  8
1
100
AcDbLine
 10
4.663409999999998
 20
5.068621
 30
0.0
 11
4.663409999999998
 21
15.175958
 31
0.0
  0
LINE
  5
E864F
330
18
100
AcDbEntity
  8
1
100
AcDbLine
 10
4.923205
 20
4.755537999999996
 30
0.0
 11
4.923205000000001
 21
15.276939
 31
0.0
  0
LINE
  5
E8650
330
18
100
AcDbEntity
  8
1
100
AcDbLine
 10
7.076794999999997
 20
15.276939
 30
0.0
 11
7.076794999999997
 21
4.755537999999996
 31
0.0
  0
LINE
  5
E8651
330
18
100
AcDbEntity
  8
1
100
AcDbLine
 10
7.336589999999997
 20
5.068620999999998
 30
0.0
 11
7.336589999999997
 21
15.175958
 31
0.0
  0
LINE
  5
E8652
330
18
100
AcDbEntity
  8
1
100
AcDbLine
 10
4.663409999999998
 20
-5.068621
 30
0.0
 11
4.663409999999998
 21
-15.175958
 31
0.0
  0
LINE
  5
E8653
330
18
100
AcDbEntity
  8
1
100
AcDbLine
 10
4.923205
 20
-4.755537999999996
 30
0.0
 11
4.923204999999998
 21
-15.276939
 31
0.0
  0
LINE
  5
E8654
330
18
100
AcDbEntity
  8
1
100
AcDbLine
 10
7.076794999999997
 20
-15.276939
 30
0.0
 11
7.076794999999997
 21
-4.755537999999996
 31
0.0
  0
LINE
  5
E8655
330
18
100
AcDbEntity
  8
1
100
AcDbLine
 10
7.336589999999997
 20
-5.068621000000001
 30
0.0
 11
7.336589999999997
 21
-15.175958
 31
0.0
  0
LINE
  5
E8656
330
18
100
AcDbEntity
  8
SK1
100
AcDbLine
 10
-18.5
 20
10.592063
 30
0.0
 11
-18.5
 21
-10.592063
 31
0.0
  0
LINE
  5
E8657
330
18
100
AcDbEntity
  8
1
100
AcDbLine
 10
15.0
 20
16.0
 30
0.0
 11
0.000000000000001
 21
16.0
 31
0.0
  0
LINE
  5
E8658
330
18
100
AcDbEntity
  8
SK1
100
AcDbLine
 10
-19.0
 20
-10.30338799999999
 30
0.0
 11
-18.5
 21
-10.592063
 31
0.0
  0
LINE
  5
E8659
330
18
100
AcDbEntity
  8
SK1
100
AcDbLine
 10
-19.0
 20
10.303388
 30
0.0
 11
-18.5
 21
10.592063
 31
0.0
  0
LINE
  5
E865A
330
18
100
AcDbEntity
  8
SK1
100
AcDbLine
 10
-1.6
 20
-11.022946
 30
0.0
 11
-18.5
 21
-10.592063
 31
0.0
  0
LINE
  5
E865B
330
18
100
AcDbEntity
  8
SK1
100
AcDbLine
 10
-1.599999999999999
 20
11.022946
 30
0.0
 11
-18.5
 21
10.592063
 31
0.0
  0
LINE
  5
E865C
330
18
100
AcDbEntity
  8
1
100
AcDbLine
 10
23.516979
 20
8.345405999999996
 30
0.0
 11
24.123569
 21
6.123568999999998
 31
0.0
  0
LINE
  5
E865D
330
18
100
AcDbEntity
  8
1
100
AcDbLine
 10
26.345406
 20
5.516978999999997
 30
0.0
 11
24.123569
 21
6.123568999999998
 31
0.0
  0
LINE
  5
E865E
330
18
100
AcDbEntity
  8
1
100
AcDbLine
 10
27.960653
 20
7.132225999999997
 30
0.0
 11
26.345406
 21
5.516978999999997
 31
0.0
  0
LINE
  5
E865F
330
18
100
AcDbEntity
  8
1
100
AcDbLine
 10
27.354063
 20
9.354062999999998
 30
0.0
 11
27.960653
 21
7.132225999999997
 31
0.0
  0
LINE
  5
E8660
330
18
100
AcDbEntity
  8
1
100
AcDbLine
 10
25.132226
 20
9.960652999999997
 30
0.0
 11
27.354063
 21
9.354062999999998
 31
0.0
  0
LINE
  5
E8661
330
18
100
AcDbEntity
  8
1
100
AcDbLine
 10
25.132226
 20
9.960652999999997
 30
0.0
 11
23.516979
 21
8.345405999999996
 31
0.0
  0
LINE
  5
E8662
330
18
100
AcDbEntity
  8
1
100
AcDbLine
 10
21.974524
 20
11.39914499999999
 30
0.0
 11
21.891354
 21
11.315976
 31
0.0
  0
LINE
  5
E8663
330
18
100
AcDbEntity
  8
1
100
AcDbLine
 10
29.315976
 20
3.891353999999998
 30
0.0
 11
29.399145
 21
3.974523999999997
 31
0.0
  0
LINE
  5
E8664
330
18
100
AcDbEntity
  8
1
100
AcDbLine
 10
27.354063
 20
9.354062999999998
 30
0.0
 11
26.938215
 21
8.938214999999997
 31
0.0
  0
LINE
  5
E8665
330
18
100
AcDbEntity
  8
1
100
AcDbLine
 10
26.938215
 20
8.938214999999997
 30
0.0
 11
24.716377
 21
9.544804999999998
 31
0.0
  0
LINE
  5
E8666
330
18
100
AcDbEntity
  8
1
100
AcDbLine
 10
26.938215
 20
8.938214999999997
 30
0.0
 11
27.544805
 21
6.716376999999997
 31
0.0
  0
LINE
  5
E8667
330
18
100
AcDbEntity
  8
1
100
AcDbLine
 10
35.725813
 20
9.853709999999999
 30
0.0
 11
27.85371
 21
17.725813
 31
0.0
  0
LINE
  5
E8668
330
18
100
AcDbEntity
  8
1
100
AcDbLine
 10
34.64004
 20
7.659782999999997
 30
0.0
 11
35.725813
 21
9.853709999999999
 31
0.0
  0
LINE
  5
E8669
330
18
100
AcDbEntity
  8
1
100
AcDbLine
 10
34.64004
 20
7.659782999999997
 30
0.0
 11
27.645814
 21
0.6655579999999983
 31
0.0
  0
LINE
  5
E866A
330
18
100
AcDbEntity
  8
1
100
AcDbLine
 10
23.426226
 20
0.6886109999999988
 30
0.0
 11
18.688611
 21
5.426225999999997
 31
0.0
  0
LINE
  5
E866B
330
18
100
AcDbEntity
  8
1
100
AcDbLine
 10
18.665558
 20
9.645813999999996
 30
0.0
 11
25.659783
 21
16.64004
 31
0.0
  0
LINE
  5
E866C
330
18
100
AcDbEntity
  8
1
100
AcDbLine
 10
25.659783
 20
16.64004
 30
0.0
 11
27.85371
 21
17.725813
 31
0.0
  0
LINE
  5
E866D
330
18
100
AcDbEntity
  8
1
100
AcDbLine
 10
17.960876
 20
4.698491999999999
 30
0.0
 11
18.688611
 21
5.426225999999997
 31
0.0
  0
LINE
  5
E866E
330
18
100
AcDbEntity
  8
1
100
AcDbLine
 10
17.937824
 20
8.918079999999998
 30
0.0
 11
18.665558
 21
9.645813999999996
 31
0.0
  0
LINE
  5
E866F
330
18
100
AcDbEntity
  8
1
100
AcDbLine
 10
26.91808
 20
-0.0621760000000017
 30
0.0
 11
27.645814
 21
0.6655579999999983
 31
0.0
  0
LINE
  5
E8670
330
18
100
AcDbEntity
  8
1
100
AcDbLine
 10
22.698492
 20
-0.0391240000000014
 30
0.0
 11
23.426226
 21
0.6886109999999988
 31
0.0
  0
LINE
  5
E8671
330
18
100
AcDbEntity
  8
1
100
AcDbLine
 10
22.698492
 20
-0.0391240000000014
 30
0.0
 11
17.960876
 21
4.698491999999999
 31
0.0
  0
LINE
  5
E8672
330
18
100
AcDbEntity
  8
1
100
AcDbLine
 10
36.60745900000001
 20
11.742565
 30
0.0
 11
29.742565
 21
18.60745899999999
 31
0.0
  0
LINE
  5
E8673
330
18
100
AcDbEntity
  8
1
100
AcDbLine
 10
38.311755
 20
15.821627
 30
0.0
 11
33.821627
 21
20.31175499999999
 31
0.0
  0
LINE
  5
E8674
330
18
100
AcDbEntity
  8
1
100
AcDbLine
 10
29.742565
 20
18.60745899999999
 30
0.0
 11
33.821627
 21
20.31175499999999
 31
0.0
  0
LINE
  5
E8675
330
18
100
AcDbEntity
  8
1
100
AcDbLine
 10
36.60745900000001
 20
11.742565
 30
0.0
 11
38.311755
 21
15.821627
 31
0.0
  0
LINE
  5
E8676
330
18
100
AcDbEntity
  8
1
100
AcDbLine
 10
39.962785
 20
16.61939699999999
 30
0.0
 11
39.999733
 21
17.161225
 31
0.0
  0
LINE
  5
E8677
330
18
100
AcDbEntity
  8
1
100
AcDbLine
 10
39.999733
 20
17.161225
 30
0.0
 11
39.974317
 21
17.70439599999999
 31
0.0
  0
LINE
  5
E8678
330
18
100
AcDbEntity
  8
1
100
AcDbLine
 10
39.974317
 20
17.70439599999999
 30
0.0
 11
39.886872
 21
18.24175999999999
 31
0.0
  0
LINE
  5
E8679
330
18
100
AcDbEntity
  8
1
100
AcDbLine
 10
39.886872
 20
18.24175999999999
 30
0.0
 11
39.738549
 21
18.766241
 31
0.0
  0
LINE
  5
E867A
330
18
100
AcDbEntity
  8
1
100
AcDbLine
 10
39.738549
 20
18.766241
 30
0.0
 11
39.531302
 21
19.27093299999999
 31
0.0
  0
LINE
  5
E867B
330
18
100
AcDbEntity
  8
1
100
AcDbLine
 10
39.531302
 20
19.27093299999999
 30
0.0
 11
39.26785800000001
 21
19.74918999999999
 31
0.0
  0
LINE
  5
E867C
330
18
100
AcDbEntity
  8
1
100
AcDbLine
 10
39.26785800000001
 20
19.74918999999999
 30
0.0
 11
38.951687
 21
20.194717
 31
0.0
  0
LINE
  5
E867D
330
18
100
AcDbEntity
  8
1
100
AcDbLine
 10
38.951687
 20
20.194717
 30
0.0
 11
38.58695200000001
 21
20.601646
 31
0.0
  0
LINE
  5
E867E
330
18
100
AcDbEntity
  8
1
100
AcDbLine
 10
38.58695200000001
 20
20.601646
 30
0.0
 11
38.17845399999999
 21
20.96461899999999
 31
0.0
  0
LINE
  5
E867F
330
18
100
AcDbEntity
  8
1
100
AcDbLine
 10
38.17845399999999
 20
20.96461899999999
 30
0.0
 11
37.731574
 21
21.278858
 31
0.0
  0
LINE
  5
E8680
330
18
100
AcDbEntity
  8
1
100
AcDbLine
 10
37.731574
 20
21.278858
 30
0.0
 11
37.252194
 21
21.54022499999999
 31
0.0
  0
LINE
  5
E8681
330
18
100
AcDbEntity
  8
1
100
AcDbLine
 10
37.252194
 20
21.54022499999999
 30
0.0
 11
36.74662700000001
 21
21.74527799999999
 31
0.0
  0
LINE
  5
E8682
330
18
100
AcDbEntity
  8
1
100
AcDbLine
 10
36.74662700000001
 20
21.74527799999999
 30
0.0
 11
36.221529
 21
21.891318
 31
0.0
  0
LINE
  5
E8683
330
18
100
AcDbEntity
  8
1
100
AcDbLine
 10
36.221529
 20
21.891318
 30
0.0
 11
35.683814
 21
21.97642099999999
 31
0.0
  0
LINE
  5
E8684
330
18
100
AcDbEntity
  8
1
100
AcDbLine
 10
35.683814
 20
21.97642099999999
 30
0.0
 11
35.140563
 21
21.999468
 31
0.0
  0
LINE
  5
E8685
330
18
100
AcDbEntity
  8
1
100
AcDbLine
 10
35.140563
 20
21.999468
 30
0.0
 11
34.598928
 21
21.960154
 31
0.0
  0
LINE
  5
E8686
330
18
100
AcDbEntity
  8
1
100
AcDbLine
 10
12.000001
 20
-0.0233940000000007
 30
0.0
 11
12.014496
 21
-2.296653
 31
0.0
  0
LINE
  5
E8687
330
18
100
AcDbEntity
  8
1
100
AcDbLine
 10
12.014496
 20
-2.296653
 30
0.0
 11
12.057104
 21
-4.523304000000001
 31
0.0
  0
LINE
  5
E8688
330
18
100
AcDbEntity
  8
1
100
AcDbLine
 10
12.057104
 20
-4.523304000000001
 30
0.0
 11
12.12696
 21
-6.658161999999999
 31
0.0
  0
LINE
  5
E8689
330
18
100
AcDbEntity
  8
1
100
AcDbLine
 10
12.12696
 20
-6.658161999999999
 30
0.0
 11
12.222647
 21
-8.657901999999998
 31
0.0
  0
LINE
  5
E868A
330
18
100
AcDbEntity
  8
1
100
AcDbLine
 10
12.222647
 20
-8.657901999999998
 30
0.0
 11
12.342223
 21
-10.481942
 31
0.0
  0
LINE
  5
E868B
330
18
100
AcDbEntity
  8
1
100
AcDbLine
 10
12.342223
 20
-10.481942
 30
0.0
 11
12.483261
 21
-12.093266
 31
0.0
  0
LINE
  5
E868C
330
18
100
AcDbEntity
  8
1
100
AcDbLine
 10
12.483261
 20
-12.093266
 30
0.0
 11
12.642899
 21
-13.459174
 31
0.0
  0
LINE
  5
E868D
330
18
100
AcDbEntity
  8
1
100
AcDbLine
 10
12.642899
 20
-13.459174
 30
0.0
 11
12.817899
 21
-14.551948
 31
0.0
  0
LINE
  5
E868E
330
18
100
AcDbEntity
  8
1
100
AcDbLine
 10
12.612421
 20
7.696232000000001
 30
0.0
 11
12.583327
 21
7.677041999999997
 31
0.0
  0
LINE
  5
E868F
330
18
100
AcDbEntity
  8
1
100
AcDbLine
 10
12.583327
 20
7.677041999999997
 30
0.0
 11
12.525944
 21
7.555020999999999
 31
0.0
  0
LINE
  5
E8690
330
18
100
AcDbEntity
  8
1
100
AcDbLine
 10
12.525944
 20
7.555020999999999
 30
0.0
 11
12.444831
 21
7.170642999999997
 31
0.0
  0
LINE
  5
E8691
330
18
100
AcDbEntity
  8
1
100
AcDbLine
 10
12.444831
 20
7.170642999999997
 30
0.0
 11
12.353631
 21
6.323085999999999
 31
0.0
  0
LINE
  5
E8692
330
18
100
AcDbEntity
  8
1
100
AcDbLine
 10
12.353631
 20
6.323085999999999
 30
0.0
 11
12.290852
 21
5.180269999999998
 31
0.0
  0
LINE
  5
E8693
330
18
100
AcDbEntity
  8
1
100
AcDbLine
 10
12.290852
 20
5.180269999999998
 30
0.0
 11
12.272421
 21
4.536451999999997
 31
0.0
  0
LINE
  5
E8694
330
18
100
AcDbEntity
  8
1
100
AcDbLine
 10
12.272421
 20
4.536451999999997
 30
0.0
 11
12.264006
 21
3.192498999999998
 31
0.0
  0
LINE
  5
E8695
330
18
100
AcDbEntity
  8
1
100
AcDbLine
 10
12.264006
 20
3.192498999999998
 30
0.0
 11
12.293854
 21
1.897090999999999
 31
0.0
  0
LINE
  5
E8696
330
18
100
AcDbEntity
  8
1
100
AcDbLine
 10
12.293854
 20
1.897090999999999
 30
0.0
 11
12.358687
 21
0.7924889999999996
 31
0.0
  0
LINE
  5
E8697
330
18
100
AcDbEntity
  8
1
100
AcDbLine
 10
12.358687
 20
0.7924889999999996
 30
0.0
 11
12.426113
 21
0.1634109999999993
 31
0.0
  0
LINE
  5
E8698
330
18
100
AcDbEntity
  8
1
100
AcDbLine
 10
12.426113
 20
0.1634109999999993
 30
0.0
 11
12.451386
 21
-0.0000000000000008
 31
0.0
  0
LINE
  5
E8699
330
18
100
AcDbEntity
  8
1
100
AcDbLine
 10
12.817899
 20
6.958602999999999
 30
0.0
 11
12.746185
 21
7.411394999999997
 31
0.0
  0
LINE
  5
E869A
330
18
100
AcDbEntity
  8
1
100
AcDbLine
 10
12.746185
 20
7.411394999999997
 30
0.0
 11
12.694017
 21
7.598670999999997
 31
0.0
  0
LINE
  5
E869B
330
18
100
AcDbEntity
  8
1
100
AcDbLine
 10
12.694017
 20
7.598670999999997
 30
0.0
 11
12.639844
 21
7.688577999999997
 31
0.0
  0
LINE
  5
E869C
330
18
100
AcDbEntity
  8
1
100
AcDbLine
 10
12.639844
 20
7.688577999999997
 30
0.0
 11
12.612421
 21
7.696232000000001
 31
0.0
  0
LINE
  5
E869D
330
18
100
AcDbEntity
  8
1
100
AcDbLine
 10
25.738816
 20
5.252510999999998
 30
0.0
 11
25.982531
 21
5.261819999999994
 31
0.0
  0
LINE
  5
E869E
330
18
100
AcDbEntity
  8
1
100
AcDbLine
 10
25.982531
 20
5.261819999999994
 30
0.0
 11
26.223899
 21
5.294983999999995
 31
0.0
  0
LINE
  5
E869F
330
18
100
AcDbEntity
  8
1
100
AcDbLine
 10
26.223899
 20
5.294983999999995
 30
0.0
 11
26.460595
 21
5.351683999999996
 31
0.0
  0
LINE
  5
E86A0
330
18
100
AcDbEntity
  8
1
100
AcDbLine
 10
26.460595
 20
5.351683999999996
 30
0.0
 11
26.69034
 21
5.431372999999998
 31
0.0
  0
LINE
  5
E86A1
330
18
100
AcDbEntity
  8
1
100
AcDbLine
 10
26.69034
 20
5.431372999999998
 30
0.0
 11
26.910922
 21
5.533283999999997
 31
0.0
  0
LINE
  5
E86A2
330
18
100
AcDbEntity
  8
1
100
AcDbLine
 10
26.910922
 20
5.533283999999997
 30
0.0
 11
27.120215
 21
5.656434999999997
 31
0.0
  0
LINE
  5
E86A3
330
18
100
AcDbEntity
  8
1
100
AcDbLine
 10
27.120215
 20
5.656434999999997
 30
0.0
 11
27.316205
 21
5.799640999999997
 31
0.0
  0
LINE
  5
E86A4
330
18
100
AcDbEntity
  8
1
100
AcDbLine
 10
27.316205
 20
5.799640999999997
 30
0.0
 11
27.497004
 21
5.961521999999997
 31
0.0
  0
LINE
  5
E86A5
330
18
100
AcDbEntity
  8
1
100
AcDbLine
 10
27.497004
 20
5.961521999999997
 30
0.0
 11
27.66087000000001
 21
6.140519999999997
 31
0.0
  0
LINE
  5
E86A6
330
18
100
AcDbEntity
  8
1
100
AcDbLine
 10
27.66087000000001
 20
6.140519999999997
 30
0.0
 11
27.806226
 21
6.334909999999998
 31
0.0
  0
LINE
  5
E86A7
330
18
100
AcDbEntity
  8
1
100
AcDbLine
 10
27.806226
 20
6.334909999999998
 30
0.0
 11
27.931672
 21
6.542819999999997
 31
0.0
  0
LINE
  5
E86A8
330
18
100
AcDbEntity
  8
1
100
AcDbLine
 10
27.931672
 20
6.542819999999997
 30
0.0
 11
28.035999
 21
6.762248999999997
 31
0.0
  0
LINE
  5
E86A9
330
18
100
AcDbEntity
  8
1
100
AcDbLine
 10
28.035999
 20
6.762248999999997
 30
0.0
 11
28.118203
 21
6.991081999999997
 31
0.0
  0
LINE
  5
E86AA
330
18
100
AcDbEntity
  8
1
100
AcDbLine
 10
28.118203
 20
6.991081999999997
 30
0.0
 11
28.177492
 21
7.227115999999997
 31
0.0
  0
LINE
  5
E86AB
330
18
100
AcDbEntity
  8
1
100
AcDbLine
 10
28.177492
 20
7.227115999999997
 30
0.0
 11
28.213296
 21
7.468078999999997
 31
0.0
  0
LINE
  5
E86AC
330
18
100
AcDbEntity
  8
1
100
AcDbLine
 10
28.213296
 20
7.468078999999997
 30
0.0
 11
28.225269
 21
7.711647999999997
 31
0.0
  0
LINE
  5
E86AD
330
18
100
AcDbEntity
  8
1
100
AcDbLine
 10
28.225269
 20
7.711647999999997
 30
0.0
 11
28.213296
 21
7.955478999999997
 31
0.0
  0
LINE
  5
E86AE
330
18
100
AcDbEntity
  8
1
100
AcDbLine
 10
28.213296
 20
7.955478999999997
 30
0.0
 11
28.177492
 21
8.197223999999996
 31
0.0
  0
LINE
  5
E86AF
330
18
100
AcDbEntity
  8
1
100
AcDbLine
 10
28.177492
 20
8.197223999999996
 30
0.0
 11
28.118203
 21
8.434553999999996
 31
0.0
  0
LINE
  5
E86B0
330
18
100
AcDbEntity
  8
1
100
AcDbLine
 10
28.118203
 20
8.434553999999996
 30
0.0
 11
28.035999
 21
8.665183999999998
 31
0.0
  0
LINE
  5
E86B1
330
18
100
AcDbEntity
  8
1
100
AcDbLine
 10
28.035999
 20
8.665183999999998
 30
0.0
 11
27.931672
 21
8.886891999999997
 31
0.0
  0
LINE
  5
E86B2
330
18
100
AcDbEntity
  8
1
100
AcDbLine
 10
27.931672
 20
8.886891999999997
 30
0.0
 11
27.806226
 21
9.097543999999999
 31
0.0
  0
LINE
  5
E86B3
330
18
100
AcDbEntity
  8
1
100
AcDbLine
 10
27.806226
 20
9.097543999999999
 30
0.0
 11
27.66087000000001
 21
9.295109999999999
 31
0.0
  0
LINE
  5
E86B4
330
18
100
AcDbEntity
  8
1
100
AcDbLine
 10
27.66087000000001
 20
9.295109999999999
 30
0.0
 11
27.497004
 21
9.477687999999997
 31
0.0
  0
LINE
  5
E86B5
330
18
100
AcDbEntity
  8
1
100
AcDbLine
 10
27.497004
 20
9.477687999999997
 30
0.0
 11
27.316205
 21
9.643519999999996
 31
0.0
  0
LINE
  5
E86B6
330
18
100
AcDbEntity
  8
1
100
AcDbLine
 10
27.316205
 20
9.643519999999996
 30
0.0
 11
27.120215
 21
9.791008999999997
 31
0.0
  0
LINE
  5
E86B7
330
18
100
AcDbEntity
  8
1
100
AcDbLine
 10
27.120215
 20
9.791008999999997
 30
0.0
 11
26.910922
 21
9.918733999999997
 31
0.0
  0
LINE
  5
E86B8
330
18
100
AcDbEntity
  8
1
100
AcDbLine
 10
26.910922
 20
9.918733999999997
 30
0.0
 11
26.69034
 21
10.025465
 31
0.0
  0
LINE
  5
E86B9
330
18
100
AcDbEntity
  8
1
100
AcDbLine
 10
26.69034
 20
10.025465
 30
0.0
 11
26.460595
 21
10.110175
 31
0.0
  0
LINE
  5
E86BA
330
18
100
AcDbEntity
  8
1
100
AcDbLine
 10
26.460595
 20
10.110175
 30
0.0
 11
26.223899
 21
10.172047
 31
0.0
  0
LINE
  5
E86BB
330
18
100
AcDbEntity
  8
1
100
AcDbLine
 10
26.223899
 20
10.172047
 30
0.0
 11
25.982531
 21
10.210485
 31
0.0
  0
LINE
  5
E86BC
330
18
100
AcDbEntity
  8
1
100
AcDbLine
 10
25.982531
 20
10.210485
 30
0.0
 11
25.738816
 21
10.22512
 31
0.0
  0
LINE
  5
E86BD
330
18
100
AcDbEntity
  8
1
100
AcDbLine
 10
25.738816
 20
10.22512
 30
0.0
 11
25.495101
 21
10.215811
 31
0.0
  0
LINE
  5
E86BE
330
18
100
AcDbEntity
  8
1
100
AcDbLine
 10
25.495101
 20
10.215811
 30
0.0
 11
25.253733
 21
10.182647
 31
0.0
  0
LINE
  5
E86BF
330
18
100
AcDbEntity
  8
1
100
AcDbLine
 10
25.253733
 20
10.182647
 30
0.0
 11
25.017036
 21
10.125947
 31
0.0
  0
LINE
  5
E86C0
330
18
100
AcDbEntity
  8
1
100
AcDbLine
 10
25.017036
 20
10.125947
 30
0.0
 11
24.787291
 21
10.046258
 31
0.0
  0
LINE
  5
E86C1
330
18
100
AcDbEntity
  8
1
100
AcDbLine
 10
24.787291
 20
10.046258
 30
0.0
 11
24.56671
 21
9.944346999999996
 31
0.0
  0
LINE
  5
E86C2
330
18
100
AcDbEntity
  8
1
100
AcDbLine
 10
24.56671
 20
9.944346999999996
 30
0.0
 11
24.357416
 21
9.821195999999996
 31
0.0
  0
LINE
  5
E86C3
330
18
100
AcDbEntity
  8
1
100
AcDbLine
 10
24.357416
 20
9.821195999999996
 30
0.0
 11
24.16142600000001
 21
9.677989999999995
 31
0.0
  0
LINE
  5
E86C4
330
18
100
AcDbEntity
  8
1
100
AcDbLine
 10
24.16142600000001
 20
9.677989999999995
 30
0.0
 11
23.980628
 21
9.516108999999998
 31
0.0
  0
LINE
  5
E86C5
330
18
100
AcDbEntity
  8
1
100
AcDbLine
 10
23.980628
 20
9.516108999999998
 30
0.0
 11
23.816761
 21
9.337110999999998
 31
0.0
  0
LINE
  5
E86C6
330
18
100
AcDbEntity
  8
1
100
AcDbLine
 10
23.816761
 20
9.337110999999998
 30
0.0
 11
23.671405
 21
9.142721999999999
 31
0.0
  0
LINE
  5
E86C7
330
18
100
AcDbEntity
  8
1
100
AcDbLine
 10
23.671405
 20
9.142721999999999
 30
0.0
 11
23.54596
 21
8.934810999999998
 31
0.0
  0
LINE
  5
E86C8
330
18
100
AcDbEntity
  8
1
100
AcDbLine
 10
23.54596
 20
8.934810999999998
 30
0.0
 11
23.441632
 21
8.715382999999999
 31
0.0
  0
LINE
  5
E86C9
330
18
100
AcDbEntity
  8
1
100
AcDbLine
 10
23.441632
 20
8.715382999999999
 30
0.0
 11
23.359428
 21
8.486549999999997
 31
0.0
  0
LINE
  5
E86CA
330
18
100
AcDbEntity
  8
1
100
AcDbLine
 10
23.359428
 20
8.486549999999997
 30
0.0
 11
23.300139
 21
8.250514999999998
 31
0.0
  0
LINE
  5
E86CB
330
18
100
AcDbEntity
  8
1
100
AcDbLine
 10
23.300139
 20
8.250514999999998
 30
0.0
 11
23.264335
 21
8.009552999999996
 31
0.0
  0
LINE
  5
E86CC
330
18
100
AcDbEntity
  8
1
100
AcDbLine
 10
23.264335
 20
8.009552999999996
 30
0.0
 11
23.252363
 21
7.765982999999997
 31
0.0
  0
LINE
  5
E86CD
330
18
100
AcDbEntity
  8
1
100
AcDbLine
 10
23.252363
 20
7.765982999999997
 30
0.0
 11
23.264335
 21
7.522151999999997
 31
0.0
  0
LINE
  5
E86CE
330
18
100
AcDbEntity
  8
1
100
AcDbLine
 10
23.264335
 20
7.522151999999997
 30
0.0
 11
23.300139
 21
7.280406999999997
 31
0.0
  0
LINE
  5
E86CF
330
18
100
AcDbEntity
  8
1
100
AcDbLine
 10
23.300139
 20
7.280406999999997
 30
0.0
 11
23.359428
 21
7.043076999999997
 31
0.0
  0
LINE
  5
E86D0
330
18
100
AcDbEntity
  8
1
100
AcDbLine
 10
23.359428
 20
7.043076999999997
 30
0.0
 11
23.441632
 21
6.812447999999997
 31
0.0
  0
LINE
  5
E86D1
330
18
100
AcDbEntity
  8
1
100
AcDbLine
 10
23.441632
 20
6.812447999999997
 30
0.0
 11
23.54596
 21
6.590738999999997
 31
0.0
  0
LINE
  5
E86D2
330
18
100
AcDbEntity
  8
1
100
AcDbLine
 10
23.54596
 20
6.590738999999997
 30
0.0
 11
23.671405
 21
6.380087999999997
 31
0.0
  0
LINE
  5
E86D3
330
18
100
AcDbEntity
  8
1
100
AcDbLine
 10
23.671405
 20
6.380087999999997
 30
0.0
 11
23.816761
 21
6.182520999999997
 31
0.0
  0
LINE
  5
E86D4
330
18
100
AcDbEntity
  8
1
100
AcDbLine
 10
23.816761
 20
6.182520999999997
 30
0.0
 11
23.980628
 21
5.999942999999997
 31
0.0
  0
LINE
  5
E86D5
330
18
100
AcDbEntity
  8
1
100
AcDbLine
 10
23.980628
 20
5.999942999999997
 30
0.0
 11
24.16142600000001
 21
5.834110999999997
 31
0.0
  0
LINE
  5
E86D6
330
18
100
AcDbEntity
  8
1
100
AcDbLine
 10
24.16142600000001
 20
5.834110999999997
 30
0.0
 11
24.357416
 21
5.686621999999997
 31
0.0
  0
LINE
  5
E86D7
330
18
100
AcDbEntity
  8
1
100
AcDbLine
 10
24.357416
 20
5.686621999999997
 30
0.0
 11
24.56671
 21
5.558896999999997
 31
0.0
  0
LINE
  5
E86D8
330
18
100
AcDbEntity
  8
1
100
AcDbLine
 10
24.56671
 20
5.558896999999997
 30
0.0
 11
24.787291
 21
5.452165999999997
 31
0.0
  0
LINE
  5
E86D9
330
18
100
AcDbEntity
  8
1
100
AcDbLine
 10
24.787291
 20
5.452165999999997
 30
0.0
 11
25.017036
 21
5.367456999999998
 31
0.0
  0
LINE
  5
E86DA
330
18
100
AcDbEntity
  8
1
100
AcDbLine
 10
25.017036
 20
5.367456999999998
 30
0.0
 11
25.253733
 21
5.305584999999997
 31
0.0
  0
LINE
  5
E86DB
330
18
100
AcDbEntity
  8
1
100
AcDbLine
 10
25.253733
 20
5.305584999999997
 30
0.0
 11
25.495101
 21
5.267145999999998
 31
0.0
  0
LINE
  5
E86DC
330
18
100
AcDbEntity
  8
1
100
AcDbLine
 10
25.495101
 20
5.267145999999998
 30
0.0
 11
25.738816
 21
5.252510999999998
 31
0.0
  0
LINE
  5
E86DD
330
18
100
AcDbEntity
  8
1
100
AcDbLine
 10
21.974524
 20
11.39914499999999
 30
0.0
 11
21.632484
 21
11.02135399999999
 31
0.0
  0
LINE
  5
E86DE
330
18
100
AcDbEntity
  8
1
100
AcDbLine
 10
21.632484
 20
11.02135399999999
 30
0.0
 11
21.32949
 21
10.611449
 31
0.0
  0
LINE
  5
E86DF
330
18
100
AcDbEntity
  8
1
100
AcDbLine
 10
21.32949
 20
10.611449
 30
0.0
 11
21.068459
 21
10.17337799999999
 31
0.0
  0
LINE
  5
E86E0
330
18
100
AcDbEntity
  8
1
100
AcDbLine
 10
21.068459
 20
10.17337799999999
 30
0.0
 11
20.851905
 21
9.711360999999998
 31
0.0
  0
LINE
  5
E86E1
330
18
100
AcDbEntity
  8
1
100
AcDbLine
 10
20.851905
 20
9.711360999999998
 30
0.0
 11
20.681915
 21
9.229845999999998
 31
0.0
  0
LINE
  5
E86E2
330
18
100
AcDbEntity
  8
1
100
AcDbLine
 10
20.681915
 20
9.229845999999998
 30
0.0
 11
20.560125
 21
8.733471999999999
 31
0.0
  0
LINE
  5
E86E3
330
18
100
AcDbEntity
  8
1
100
AcDbLine
 10
20.560125
 20
8.733471999999999
 30
0.0
 11
20.487708
 21
8.227016999999998
 31
0.0
  0
LINE
  5
E86E4
330
18
100
AcDbEntity
  8
1
100
AcDbLine
 10
20.487708
 20
8.227016999999998
 30
0.0
 11
20.465361
 21
7.715360999999997
 31
0.0
  0
LINE
  5
E86E5
330
18
100
AcDbEntity
  8
1
100
AcDbLine
 10
20.465361
 20
7.715360999999997
 30
0.0
 11
20.4933
 21
7.203429999999999
 31
0.0
  0
LINE
  5
E86E6
330
18
100
AcDbEntity
  8
1
100
AcDbLine
 10
20.4933
 20
7.203429999999999
 30
0.0
 11
20.571255
 21
6.696153999999997
 31
0.0
  0
LINE
  5
E86E7
330
18
100
AcDbEntity
  8
1
100
AcDbLine
 10
20.571255
 20
6.696153999999997
 30
0.0
 11
20.698477
 21
6.198418999999997
 31
0.0
  0
LINE
  5
E86E8
330
18
100
AcDbEntity
  8
1
100
AcDbLine
 10
20.698477
 20
6.198418999999997
 30
0.0
 11
20.873738
 21
5.715017999999997
 31
0.0
  0
LINE
  5
E86E9
330
18
100
AcDbEntity
  8
1
100
AcDbLine
 10
20.873738
 20
5.715017999999997
 30
0.0
 11
21.095353
 21
5.250606999999996
 31
0.0
  0
LINE
  5
E86EA
330
18
100
AcDbEntity
  8
1
100
AcDbLine
 10
21.095353
 20
5.250606999999996
 30
0.0
 11
21.361186
 21
4.809657999999997
 31
0.0
  0
LINE
  5
E86EB
330
18
100
AcDbEntity
  8
1
100
AcDbLine
 10
21.361186
 20
4.809657999999997
 30
0.0
 11
21.668678
 21
4.396417999999997
 31
0.0
  0
LINE
  5
E86EC
330
18
100
AcDbEntity
  8
1
100
AcDbLine
 10
21.668678
 20
4.396417999999997
 30
0.0
 11
22.014866
 21
4.014865999999996
 31
0.0
  0
LINE
  5
E86ED
330
18
100
AcDbEntity
  8
1
100
AcDbLine
 10
22.014866
 20
4.014865999999996
 30
0.0
 11
22.396418
 21
3.668677999999998
 31
0.0
  0
LINE
  5
E86EE
330
18
100
AcDbEntity
  8
1
100
AcDbLine
 10
22.396418
 20
3.668677999999998
 30
0.0
 11
22.809658
 21
3.361185999999998
 31
0.0
  0
LINE
  5
E86EF
330
18
100
AcDbEntity
  8
1
100
AcDbLine
 10
22.809658
 20
3.361185999999998
 30
0.0
 11
23.250607
 21
3.095352999999998
 31
0.0
  0
LINE
  5
E86F0
330
18
100
AcDbEntity
  8
1
100
AcDbLine
 10
23.250607
 20
3.095352999999998
 30
0.0
 11
23.715018
 21
2.873737999999998
 31
0.0
  0
LINE
  5
E86F1
330
18
100
AcDbEntity
  8
1
100
AcDbLine
 10
23.715018
 20
2.873737999999998
 30
0.0
 11
24.198419
 21
2.698476999999998
 31
0.0
  0
LINE
  5
E86F2
330
18
100
AcDbEntity
  8
1
100
AcDbLine
 10
24.198419
 20
2.698476999999998
 30
0.0
 11
24.696154
 21
2.571254999999998
 31
0.0
  0
LINE
  5
E86F3
330
18
100
AcDbEntity
  8
1
100
AcDbLine
 10
24.696154
 20
2.571254999999998
 30
0.0
 11
25.20343
 21
2.493299999999996
 31
0.0
  0
LINE
  5
E86F4
330
18
100
AcDbEntity
  8
1
100
AcDbLine
 10
25.20343
 20
2.493299999999996
 30
0.0
 11
25.715361
 21
2.465360999999997
 31
0.0
  0
LINE
  5
E86F5
330
18
100
AcDbEntity
  8
1
100
AcDbLine
 10
25.715361
 20
2.465360999999997
 30
0.0
 11
26.227017
 21
2.487707999999996
 31
0.0
  0
LINE
  5
E86F6
330
18
100
AcDbEntity
  8
1
100
AcDbLine
 10
26.227017
 20
2.487707999999996
 30
0.0
 11
26.733472
 21
2.560124999999997
 31
0.0
  0
LINE
  5
E86F7
330
18
100
AcDbEntity
  8
1
100
AcDbLine
 10
26.733472
 20
2.560124999999997
 30
0.0
 11
27.229846
 21
2.681914999999996
 31
0.0
  0
LINE
  5
E86F8
330
18
100
AcDbEntity
  8
1
100
AcDbLine
 10
27.229846
 20
2.681914999999996
 30
0.0
 11
27.711361
 21
2.851904999999998
 31
0.0
  0
LINE
  5
E86F9
330
18
100
AcDbEntity
  8
1
100
AcDbLine
 10
27.711361
 20
2.851904999999998
 30
0.0
 11
28.17337800000001
 21
3.068458999999998
 31
0.0
  0
LINE
  5
E86FA
330
18
100
AcDbEntity
  8
1
100
AcDbLine
 10
28.17337800000001
 20
3.068458999999998
 30
0.0
 11
28.611449
 21
3.329489999999998
 31
0.0
  0
LINE
  5
E86FB
330
18
100
AcDbEntity
  8
1
100
AcDbLine
 10
28.611449
 20
3.329489999999998
 30
0.0
 11
29.021354
 21
3.632483999999998
 31
0.0
  0
LINE
  5
E86FC
330
18
100
AcDbEntity
  8
1
100
AcDbLine
 10
29.021354
 20
3.632483999999998
 30
0.0
 11
29.399145
 21
3.974523999999997
 31
0.0
  0
LINE
  5
E86FD
330
18
100
AcDbEntity
  8
1
100
AcDbLine
 10
12.763943
 20
0.0000029999999992
 30
0.0
 11
12.817898
 21
0.3829079999999992
 31
0.0
  0
LINE
  5
E86FE
330
18
100
AcDbEntity
  8
1
100
AcDbLine
 10
12.817899
 20
14.551948
 30
0.0
 11
12.643012
 21
13.460002
 31
0.0
  0
LINE
  5
E86FF
330
18
100
AcDbEntity
  8
1
100
AcDbLine
 10
12.643012
 20
13.460002
 30
0.0
 11
12.483463
 21
12.095271
 31
0.0
  0
LINE
  5
E8700
330
18
100
AcDbEntity
  8
1
100
AcDbLine
 10
12.483463
 20
12.095271
 30
0.0
 11
12.342486
 21
10.485413
 31
0.0
  0
LINE
  5
E8701
330
18
100
AcDbEntity
  8
1
100
AcDbLine
 10
12.342486
 20
10.485413
 30
0.0
 11
12.222937
 21
8.663052999999999
 31
0.0
  0
LINE
  5
E8702
330
18
100
AcDbEntity
  8
1
100
AcDbLine
 10
12.222937
 20
8.663052999999999
 30
0.0
 11
12.127239
 21
6.665124999999997
 31
0.0
  0
LINE
  5
E8703
330
18
100
AcDbEntity
  8
1
100
AcDbLine
 10
12.127239
 20
6.665124999999997
 30
0.0
 11
12.057331
 21
4.532118999999998
 31
0.0
  0
LINE
  5
E8704
330
18
100
AcDbEntity
  8
1
100
AcDbLine
 10
12.057331
 20
4.532118999999998
 30
0.0
 11
12.014631
 21
2.307262999999998
 31
0.0
  0
LINE
  5
E8705
330
18
100
AcDbEntity
  8
1
100
AcDbLine
 10
12.014631
 20
2.307262999999998
 30
0.0
 11
12.000003
 21
0.0356469999999993
 31
0.0
  0
LINE
  5
E8706
330
18
100
AcDbEntity
  8
1
100
AcDbLine
 10
17.937824
 20
8.918079999999998
 30
0.0
 11
17.742372
 21
8.702198999999998
 31
0.0
  0
LINE
  5
E8707
330
18
100
AcDbEntity
  8
1
100
AcDbLine
 10
17.742372
 20
8.702198999999998
 30
0.0
 11
17.56923299999999
 21
8.467967999999997
 31
0.0
  0
LINE
  5
E8708
330
18
100
AcDbEntity
  8
1
100
AcDbLine
 10
17.56923299999999
 20
8.467967999999997
 30
0.0
 11
17.420072
 21
8.217641999999997
 31
0.0
  0
LINE
  5
E8709
330
18
100
AcDbEntity
  8
1
100
AcDbLine
 10
17.420072
 20
8.217641999999997
 30
0.0
 11
17.29632699999999
 21
7.953631999999998
 31
0.0
  0
LINE
  5
E870A
330
18
100
AcDbEntity
  8
1
100
AcDbLine
 10
17.29632699999999
 20
7.953631999999998
 30
0.0
 11
17.19919
 21
7.678479999999997
 31
0.0
  0
LINE
  5
E870B
330
18
100
AcDbEntity
  8
1
100
AcDbLine
 10
17.19919
 20
7.678479999999997
 30
0.0
 11
17.129596
 21
7.394837999999999
 31
0.0
  0
LINE
  5
E870C
330
18
100
AcDbEntity
  8
1
100
AcDbLine
 10
17.129596
 20
7.394837999999999
 30
0.0
 11
17.088214
 21
7.105434999999999
 31
0.0
  0
LINE
  5
E870D
330
18
100
AcDbEntity
  8
1
100
AcDbLine
 10
17.088214
 20
7.105434999999999
 30
0.0
 11
17.075445
 21
6.813060000000001
 31
0.0
  0
LINE
  5
E870E
330
18
100
AcDbEntity
  8
1
100
AcDbLine
 10
17.075445
 20
6.813060000000001
 30
0.0
 11
17.09141
 21
6.520527999999997
 31
0.0
  0
LINE
  5
E870F
330
18
100
AcDbEntity
  8
1
100
AcDbLine
 10
17.09141
 20
6.520527999999997
 30
0.0
 11
17.135956
 21
6.230655999999997
 31
0.0
  0
LINE
  5
E8710
330
18
100
AcDbEntity
  8
1
100
AcDbLine
 10
17.135956
 20
6.230655999999997
 30
0.0
 11
17.208654
 21
5.946235999999997
 31
0.0
  0
LINE
  5
E8711
330
18
100
AcDbEntity
  8
1
100
AcDbLine
 10
17.208654
 20
5.946235999999997
 30
0.0
 11
17.308803
 21
5.670006999999999
 31
0.0
  0
LINE
  5
E8712
330
18
100
AcDbEntity
  8
1
100
AcDbLine
 10
17.308803
 20
5.670006999999999
 30
0.0
 11
17.43544
 21
5.404628999999999
 31
0.0
  0
LINE
  5
E8713
330
18
100
AcDbEntity
  8
1
100
AcDbLine
 10
17.43544
 20
5.404628999999999
 30
0.0
 11
17.587345
 21
5.152658999999998
 31
0.0
  0
LINE
  5
E8714
330
18
100
AcDbEntity
  8
1
100
AcDbLine
 10
17.587345
 20
5.152658999999998
 30
0.0
 11
17.763054
 21
4.916520999999998
 31
0.0
  0
LINE
  5
E8715
330
18
100
AcDbEntity
  8
1
100
AcDbLine
 10
17.763054
 20
4.916520999999998
 30
0.0
 11
17.960876
 21
4.698491999999999
 31
0.0
  0
LINE
  5
E8716
330
18
100
AcDbEntity
  8
1
100
AcDbLine
 10
12.451386
 20
-0.0000000000000008
 30
0.0
 11
12.526966
 21
-0.3192920000000008
 31
0.0
  0
LINE
  5
E8717
330
18
100
AcDbEntity
  8
1
100
AcDbLine
 10
12.526966
 20
-0.3192920000000008
 30
0.0
 11
12.56673
 21
-0.4004690000000008
 31
0.0
  0
LINE
  5
E8718
330
18
100
AcDbEntity
  8
1
100
AcDbLine
 10
12.56673
 20
-0.4004690000000008
 30
0.0
 11
12.607105
 21
-0.4276490000000008
 31
0.0
  0
LINE
  5
E8719
330
18
100
AcDbEntity
  8
1
100
AcDbLine
 10
12.607105
 20
-0.4276490000000008
 30
0.0
 11
12.647551
 21
-0.4004680000000009
 31
0.0
  0
LINE
  5
E871A
330
18
100
AcDbEntity
  8
1
100
AcDbLine
 10
12.647551
 20
-0.4004680000000009
 30
0.0
 11
12.687528
 21
-0.3192910000000007
 31
0.0
  0
LINE
  5
E871B
330
18
100
AcDbEntity
  8
1
100
AcDbLine
 10
12.687528
 20
-0.3192910000000007
 30
0.0
 11
12.763943
 21
0.0000029999999992
 31
0.0
  0
LINE
  5
E871C
330
18
100
AcDbEntity
  8
1
100
AcDbLine
 10
23.426226
 20
0.6886109999999988
 30
0.0
 11
23.644256
 21
0.4907889999999986
 31
0.0
  0
LINE
  5
E871D
330
18
100
AcDbEntity
  8
1
100
AcDbLine
 10
23.644256
 20
0.4907889999999986
 30
0.0
 11
23.880393
 21
0.3150789999999985
 31
0.0
  0
LINE
  5
E871E
330
18
100
AcDbEntity
  8
1
100
AcDbLine
 10
23.880393
 20
0.3150789999999985
 30
0.0
 11
24.13236400000001
 21
0.1631749999999985
 31
0.0
  0
LINE
  5
E871F
330
18
100
AcDbEntity
  8
1
100
AcDbLine
 10
24.13236400000001
 20
0.1631749999999985
 30
0.0
 11
24.397741
 21
0.0365379999999985
 31
0.0
  0
LINE
  5
E8720
330
18
100
AcDbEntity
  8
1
100
AcDbLine
 10
24.397741
 20
0.0365379999999985
 30
0.0
 11
24.67397
 21
-0.0636120000000015
 31
0.0
  0
LINE
  5
E8721
330
18
100
AcDbEntity
  8
1
100
AcDbLine
 10
24.67397
 20
-0.0636120000000015
 30
0.0
 11
24.95839
 21
-0.1363100000000015
 31
0.0
  0
LINE
  5
E8722
330
18
100
AcDbEntity
  8
1
100
AcDbLine
 10
24.95839
 20
-0.1363100000000015
 30
0.0
 11
25.248262
 21
-0.1808560000000015
 31
0.0
  0
LINE
  5
E8723
330
18
100
AcDbEntity
  8
1
100
AcDbLine
 10
25.248262
 20
-0.1808560000000015
 30
0.0
 11
25.540795
 21
-0.1968210000000016
 31
0.0
  0
LINE
  5
E8724
330
18
100
AcDbEntity
  8
1
100
AcDbLine
 10
25.540795
 20
-0.1968210000000016
 30
0.0
 11
25.83317
 21
-0.1840510000000016
 31
0.0
  0
LINE
  5
E8725
330
18
100
AcDbEntity
  8
1
100
AcDbLine
 10
25.83317
 20
-0.1840510000000016
 30
0.0
 11
26.122572
 21
-0.1426700000000016
 31
0.0
  0
LINE
  5
E8726
330
18
100
AcDbEntity
  8
1
100
AcDbLine
 10
26.122572
 20
-0.1426700000000016
 30
0.0
 11
26.406215
 21
-0.0730760000000016
 31
0.0
  0
LINE
  5
E8727
330
18
100
AcDbEntity
  8
1
100
AcDbLine
 10
26.406215
 20
-0.0730760000000016
 30
0.0
 11
26.681366
 21
0.0240619999999984
 31
0.0
  0
LINE
  5
E8728
330
18
100
AcDbEntity
  8
1
100
AcDbLine
 10
26.681366
 20
0.0240619999999984
 30
0.0
 11
26.945376
 21
0.1478059999999983
 31
0.0
  0
LINE
  5
E8729
330
18
100
AcDbEntity
  8
1
100
AcDbLine
 10
26.945376
 20
0.1478059999999983
 30
0.0
 11
27.195702
 21
0.2969669999999983
 31
0.0
  0
LINE
  5
E872A
330
18
100
AcDbEntity
  8
1
100
AcDbLine
 10
27.195702
 20
0.2969669999999983
 30
0.0
 11
27.429933
 21
0.4701069999999984
 31
0.0
  0
LINE
  5
E872B
330
18
100
AcDbEntity
  8
1
100
AcDbLine
 10
27.429933
 20
0.4701069999999984
 30
0.0
 11
27.645814
 21
0.6655579999999983
 31
0.0
  0
LINE
  5
E872C
330
18
100
AcDbEntity
  8
1
100
AcDbLine
 10
22.698492
 20
-0.0391240000000014
 30
0.0
 11
22.916521
 21
-0.2369460000000014
 31
0.0
  0
LINE
  5
E872D
330
18
100
AcDbEntity
  8
1
100
AcDbLine
 10
22.916521
 20
-0.2369460000000014
 30
0.0
 11
23.152659
 21
-0.4126550000000015
 31
0.0
  0
LINE
  5
E872E
330
18
100
AcDbEntity
  8
1
100
AcDbLine
 10
23.152659
 20
-0.4126550000000015
 30
0.0
 11
23.404629
 21
-0.5645600000000015
 31
0.0
  0
LINE
  5
E872F
330
18
100
AcDbEntity
  8
1
100
AcDbLine
 10
23.404629
 20
-0.5645600000000015
 30
0.0
 11
23.670007
 21
-0.6911970000000017
 31
0.0
  0
LINE
  5
E8730
330
18
100
AcDbEntity
  8
1
100
AcDbLine
 10
23.670007
 20
-0.6911970000000017
 30
0.0
 11
23.946236
 21
-0.7913460000000016
 31
0.0
  0
LINE
  5
E8731
330
18
100
AcDbEntity
  8
1
100
AcDbLine
 10
23.946236
 20
-0.7913460000000016
 30
0.0
 11
24.230656
 21
-0.8640440000000014
 31
0.0
  0
LINE
  5
E8732
330
18
100
AcDbEntity
  8
1
100
AcDbLine
 10
24.230656
 20
-0.8640440000000014
 30
0.0
 11
24.520528
 21
-0.9085900000000016
 31
0.0
  0
LINE
  5
E8733
330
18
100
AcDbEntity
  8
1
100
AcDbLine
 10
24.520528
 20
-0.9085900000000016
 30
0.0
 11
24.81306
 21
-0.9245550000000012
 31
0.0
  0
LINE
  5
E8734
330
18
100
AcDbEntity
  8
1
100
AcDbLine
 10
24.81306
 20
-0.9245550000000012
 30
0.0
 11
25.105435
 21
-0.9117860000000016
 31
0.0
  0
LINE
  5
E8735
330
18
100
AcDbEntity
  8
1
100
AcDbLine
 10
25.105435
 20
-0.9117860000000016
 30
0.0
 11
25.394838
 21
-0.8704040000000016
 31
0.0
  0
LINE
  5
E8736
330
18
100
AcDbEntity
  8
1
100
AcDbLine
 10
25.394838
 20
-0.8704040000000016
 30
0.0
 11
25.67848
 21
-0.8008100000000016
 31
0.0
  0
LINE
  5
E8737
330
18
100
AcDbEntity
  8
1
100
AcDbLine
 10
25.67848
 20
-0.8008100000000016
 30
0.0
 11
25.953632
 21
-0.7036730000000016
 31
0.0
  0
LINE
  5
E8738
330
18
100
AcDbEntity
  8
1
100
AcDbLine
 10
25.953632
 20
-0.7036730000000016
 30
0.0
 11
26.217642
 21
-0.5799280000000016
 31
0.0
  0
LINE
  5
E8739
330
18
100
AcDbEntity
  8
1
100
AcDbLine
 10
26.217642
 20
-0.5799280000000016
 30
0.0
 11
26.467968
 21
-0.4307670000000016
 31
0.0
  0
LINE
  5
E873A
330
18
100
AcDbEntity
  8
1
100
AcDbLine
 10
26.467968
 20
-0.4307670000000016
 30
0.0
 11
26.702199
 21
-0.2576280000000017
 31
0.0
  0
LINE
  5
E873B
330
18
100
AcDbEntity
  8
1
100
AcDbLine
 10
26.702199
 20
-0.2576280000000017
 30
0.0
 11
26.91808
 21
-0.0621760000000017
 31
0.0
  0
LINE
  5
E873C
330
18
100
AcDbEntity
  8
1
100
AcDbLine
 10
18.665558
 20
9.645813999999996
 30
0.0
 11
18.470107
 21
9.429932999999998
 31
0.0
  0
LINE
  5
E873D
330
18
100
AcDbEntity
  8
1
100
AcDbLine
 10
18.470107
 20
9.429932999999998
 30
0.0
 11
18.296967
 21
9.195701999999997
 31
0.0
  0
LINE
  5
E873E
330
18
100
AcDbEntity
  8
1
100
AcDbLine
 10
18.296967
 20
9.195701999999997
 30
0.0
 11
18.147806
 21
8.945375999999997
 31
0.0
  0
LINE
  5
E873F
330
18
100
AcDbEntity
  8
1
100
AcDbLine
 10
18.147806
 20
8.945375999999997
 30
0.0
 11
18.024062
 21
8.681365999999997
 31
0.0
  0
LINE
  5
E8740
330
18
100
AcDbEntity
  8
1
100
AcDbLine
 10
18.024062
 20
8.681365999999997
 30
0.0
 11
17.926924
 21
8.406214999999997
 31
0.0
  0
LINE
  5
E8741
330
18
100
AcDbEntity
  8
1
100
AcDbLine
 10
17.926924
 20
8.406214999999997
 30
0.0
 11
17.85733
 21
8.122571999999998
 31
0.0
  0
LINE
  5
E8742
330
18
100
AcDbEntity
  8
1
100
AcDbLine
 10
17.85733
 20
8.122571999999998
 30
0.0
 11
17.815949
 21
7.833169999999999
 31
0.0
  0
LINE
  5
E8743
330
18
100
AcDbEntity
  8
1
100
AcDbLine
 10
17.815949
 20
7.833169999999999
 30
0.0
 11
17.803179
 21
7.540794999999999
 31
0.0
  0
LINE
  5
E8744
330
18
100
AcDbEntity
  8
1
100
AcDbLine
 10
17.803179
 20
7.540794999999999
 30
0.0
 11
17.819144
 21
7.248261999999997
 31
0.0
  0
LINE
  5
E8745
330
18
100
AcDbEntity
  8
1
100
AcDbLine
 10
17.819144
 20
7.248261999999997
 30
0.0
 11
17.86369
 21
6.958389999999997
 31
0.0
  0
LINE
  5
E8746
330
18
100
AcDbEntity
  8
1
100
AcDbLine
 10
17.86369
 20
6.958389999999997
 30
0.0
 11
17.936388
 21
6.673969999999997
 31
0.0
  0
LINE
  5
E8747
330
18
100
AcDbEntity
  8
1
100
AcDbLine
 10
17.936388
 20
6.673969999999997
 30
0.0
 11
18.036538
 21
6.397740999999999
 31
0.0
  0
LINE
  5
E8748
330
18
100
AcDbEntity
  8
1
100
AcDbLine
 10
18.036538
 20
6.397740999999999
 30
0.0
 11
18.163175
 21
6.132363999999999
 31
0.0
  0
LINE
  5
E8749
330
18
100
AcDbEntity
  8
1
100
AcDbLine
 10
18.163175
 20
6.132363999999999
 30
0.0
 11
18.315079
 21
5.880392999999997
 31
0.0
  0
LINE
  5
E874A
330
18
100
AcDbEntity
  8
1
100
AcDbLine
 10
18.315079
 20
5.880392999999997
 30
0.0
 11
18.490789
 21
5.644255999999997
 31
0.0
  0
LINE
  5
E874B
330
18
100
AcDbEntity
  8
1
100
AcDbLine
 10
18.490789
 20
5.644255999999997
 30
0.0
 11
18.688611
 21
5.426225999999997
 31
0.0
  0
LINE
  5
E874C
330
18
100
AcDbEntity
  8
1
100
AcDbLine
 10
31.895711
 20
20.630903
 30
0.0
 11
31.581679
 21
20.283604
 31
0.0
  0
LINE
  5
E874D
330
18
100
AcDbEntity
  8
1
100
AcDbLine
 10
31.581679
 20
20.283604
 30
0.0
 11
31.304017
 21
19.906468
 31
0.0
  0
LINE
  5
E874E
330
18
100
AcDbEntity
  8
1
100
AcDbLine
 10
31.304017
 20
19.906468
 30
0.0
 11
31.065469
 21
19.50322099999999
 31
0.0
  0
LINE
  5
E874F
330
18
100
AcDbEntity
  8
1
100
AcDbLine
 10
31.065469
 20
19.50322099999999
 30
0.0
 11
30.868389
 21
19.07784599999999
 31
0.0
  0
LINE
  5
E8750
330
18
100
AcDbEntity
  8
1
100
AcDbLine
 10
37.077846
 20
12.868389
 30
0.0
 11
37.503221
 21
13.065469
 31
0.0
  0
LINE
  5
E8751
330
18
100
AcDbEntity
  8
1
100
AcDbLine
 10
37.503221
 20
13.065469
 30
0.0
 11
37.906468
 21
13.304017
 31
0.0
  0
LINE
  5
E8752
330
18
100
AcDbEntity
  8
1
100
AcDbLine
 10
37.906468
 20
13.304017
 30
0.0
 11
38.283604
 21
13.581679
 31
0.0
  0
LINE
  5
E8753
330
18
100
AcDbEntity
  8
1
100
AcDbLine
 10
38.283604
 20
13.581679
 30
0.0
 11
38.63090300000001
 21
13.89571099999999
 31
0.0
  0
LINE
  5
E8754
330
18
100
AcDbEntity
  8
1
100
AcDbLine
 10
37.074734
 20
12.860941
 30
0.0
 11
37.498036
 21
13.057816
 31
0.0
  0
LINE
  5
E8755
330
18
100
AcDbEntity
  8
1
100
AcDbLine
 10
37.498036
 20
13.057816
 30
0.0
 11
37.899344
 21
13.295788
 31
0.0
  0
LINE
  5
E8756
330
18
100
AcDbEntity
  8
1
100
AcDbLine
 10
37.899344
 20
13.295788
 30
0.0
 11
38.274726
 21
13.572524
 31
0.0
  0
LINE
  5
E8757
330
18
100
AcDbEntity
  8
1
100
AcDbLine
 10
38.274726
 20
13.572524
 30
0.0
 11
38.62050700000001
 21
13.885314
 31
0.0
  0
LINE
  5
E8758
330
18
100
AcDbEntity
  8
1
100
AcDbLine
 10
31.885314
 20
20.620507
 30
0.0
 11
31.572524
 21
20.274726
 31
0.0
  0
LINE
  5
E8759
330
18
100
AcDbEntity
  8
1
100
AcDbLine
 10
31.572524
 20
20.274726
 30
0.0
 11
31.295788
 21
19.89934399999999
 31
0.0
  0
LINE
  5
E875A
330
18
100
AcDbEntity
  8
1
100
AcDbLine
 10
31.295788
 20
19.89934399999999
 30
0.0
 11
31.057816
 21
19.49803599999999
 31
0.0
  0
LINE
  5
E875B
330
18
100
AcDbEntity
  8
1
100
AcDbLine
 10
31.057816
 20
19.49803599999999
 30
0.0
 11
30.860941
 21
19.07473399999999
 31
0.0
  0
LINE
  5
E875C
330
18
100
AcDbEntity
  8
1
100
AcDbLine
 10
29.399145
 20
3.974523999999997
 30
0.0
 11
29.741185
 21
4.352315999999998
 31
0.0
  0
LINE
  5
E875D
330
18
100
AcDbEntity
  8
1
100
AcDbLine
 10
29.741185
 20
4.352315999999998
 30
0.0
 11
30.04418
 21
4.762220999999998
 31
0.0
  0
LINE
  5
E875E
330
18
100
AcDbEntity
  8
1
100
AcDbLine
 10
30.04418
 20
4.762220999999998
 30
0.0
 11
30.305211
 21
5.200290999999998
 31
0.0
  0
LINE
  5
E875F
330
18
100
AcDbEntity
  8
1
100
AcDbLine
 10
30.305211
 20
5.200290999999998
 30
0.0
 11
30.521764
 21
5.662307999999997
 31
0.0
  0
LINE
  5
E8760
330
18
100
AcDbEntity
  8
1
100
AcDbLine
 10
30.521764
 20
5.662307999999997
 30
0.0
 11
30.691754
 21
6.143822999999997
 31
0.0
  0
LINE
  5
E8761
330
18
100
AcDbEntity
  8
1
100
AcDbLine
 10
30.691754
 20
6.143822999999997
 30
0.0
 11
30.813544
 21
6.640197999999998
 31
0.0
  0
LINE
  5
E8762
330
18
100
AcDbEntity
  8
1
100
AcDbLine
 10
30.813544
 20
6.640197999999998
 30
0.0
 11
30.885962
 21
7.146651999999997
 31
0.0
  0
LINE
  5
E8763
330
18
100
AcDbEntity
  8
1
100
AcDbLine
 10
30.885962
 20
7.146651999999997
 30
0.0
 11
30.908308
 21
7.658307999999997
 31
0.0
  0
LINE
  5
E8764
330
18
100
AcDbEntity
  8
1
100
AcDbLine
 10
30.908308
 20
7.658307999999997
 30
0.0
 11
30.880369
 21
8.170239999999997
 31
0.0
  0
LINE
  5
E8765
330
18
100
AcDbEntity
  8
1
100
AcDbLine
 10
30.880369
 20
8.170239999999997
 30
0.0
 11
30.802414
 21
8.677514999999997
 31
0.0
  0
LINE
  5
E8766
330
18
100
AcDbEntity
  8
1
100
AcDbLine
 10
30.802414
 20
8.677514999999997
 30
0.0
 11
30.675193
 21
9.175250999999995
 31
0.0
  0
LINE
  5
E8767
330
18
100
AcDbEntity
  8
1
100
AcDbLine
 10
30.675193
 20
9.175250999999995
 30
0.0
 11
30.499931
 21
9.658650999999997
 31
0.0
  0
LINE
  5
E8768
330
18
100
AcDbEntity
  8
1
100
AcDbLine
 10
30.499931
 20
9.658650999999997
 30
0.0
 11
30.278316
 21
10.123062
 31
0.0
  0
LINE
  5
E8769
330
18
100
AcDbEntity
  8
1
100
AcDbLine
 10
30.278316
 20
10.123062
 30
0.0
 11
30.012483
 21
10.564011
 31
0.0
  0
LINE
  5
E876A
330
18
100
AcDbEntity
  8
1
100
AcDbLine
 10
30.012483
 20
10.564011
 30
0.0
 11
29.704992
 21
10.97725099999999
 31
0.0
  0
LINE
  5
E876B
330
18
100
AcDbEntity
  8
1
100
AcDbLine
 10
29.704992
 20
10.97725099999999
 30
0.0
 11
29.358803
 21
11.358803
 31
0.0
  0
LINE
  5
E876C
330
18
100
AcDbEntity
  8
1
100
AcDbLine
 10
29.358803
 20
11.358803
 30
0.0
 11
28.977251
 21
11.704992
 31
0.0
  0
LINE
  5
E876D
330
18
100
AcDbEntity
  8
1
100
AcDbLine
 10
28.977251
 20
11.704992
 30
0.0
 11
28.564011
 21
12.012483
 31
0.0
  0
LINE
  5
E876E
330
18
100
AcDbEntity
  8
1
100
AcDbLine
 10
28.564011
 20
12.012483
 30
0.0
 11
28.123062
 21
12.278316
 31
0.0
  0
LINE
  5
E876F
330
18
100
AcDbEntity
  8
1
100
AcDbLine
 10
28.123062
 20
12.278316
 30
0.0
 11
27.658651
 21
12.499931
 31
0.0
  0
LINE
  5
E8770
330
18
100
AcDbEntity
  8
1
100
AcDbLine
 10
27.658651
 20
12.499931
 30
0.0
 11
27.175251
 21
12.675193
 31
0.0
  0
LINE
  5
E8771
330
18
100
AcDbEntity
  8
1
100
AcDbLine
 10
27.175251
 20
12.675193
 30
0.0
 11
26.677515
 21
12.802414
 31
0.0
  0
LINE
  5
E8772
330
18
100
AcDbEntity
  8
1
100
AcDbLine
 10
26.677515
 20
12.802414
 30
0.0
 11
26.17024
 21
12.880369
 31
0.0
  0
LINE
  5
E8773
330
18
100
AcDbEntity
  8
1
100
AcDbLine
 10
26.17024
 20
12.880369
 30
0.0
 11
25.658308
 21
12.908308
 31
0.0
  0
LINE
  5
E8774
330
18
100
AcDbEntity
  8
1
100
AcDbLine
 10
25.658308
 20
12.908308
 30
0.0
 11
25.146652
 21
12.88596199999999
 31
0.0
  0
LINE
  5
E8775
330
18
100
AcDbEntity
  8
1
100
AcDbLine
 10
25.146652
 20
12.88596199999999
 30
0.0
 11
24.640198
 21
12.813544
 31
0.0
  0
LINE
  5
E8776
330
18
100
AcDbEntity
  8
1
100
AcDbLine
 10
24.640198
 20
12.813544
 30
0.0
 11
24.143823
 21
12.691754
 31
0.0
  0
LINE
  5
E8777
330
18
100
AcDbEntity
  8
1
100
AcDbLine
 10
24.143823
 20
12.691754
 30
0.0
 11
23.662308
 21
12.52176399999999
 31
0.0
  0
LINE
  5
E8778
330
18
100
AcDbEntity
  8
1
100
AcDbLine
 10
23.662308
 20
12.52176399999999
 30
0.0
 11
23.200291
 21
12.305211
 31
0.0
  0
LINE
  5
E8779
330
18
100
AcDbEntity
  8
1
100
AcDbLine
 10
23.200291
 20
12.305211
 30
0.0
 11
22.762221
 21
12.04418
 31
0.0
  0
LINE
  5
E877A
330
18
100
AcDbEntity
  8
1
100
AcDbLine
 10
22.762221
 20
12.04418
 30
0.0
 11
22.352316
 21
11.741185
 31
0.0
  0
LINE
  5
E877B
330
18
100
AcDbEntity
  8
1
100
AcDbLine
 10
22.352316
 20
11.741185
 30
0.0
 11
21.974524
 21
11.39914499999999
 31
0.0
  0
LINE
  5
E877C
330
18
100
AcDbEntity
  8
1
100
AcDbLine
 10
38.63090300000001
 20
13.89571099999999
 30
0.0
 11
38.941182
 21
14.238422
 31
0.0
  0
LINE
  5
E877D
330
18
100
AcDbEntity
  8
1
100
AcDbLine
 10
38.941182
 20
14.238422
 30
0.0
 11
39.216041
 21
14.610264
 31
0.0
  0
LINE
  5
E877E
330
18
100
AcDbEntity
  8
1
100
AcDbLine
 10
39.216041
 20
14.610264
 30
0.0
 11
39.452833
 21
15.007656
 31
0.0
  0
LINE
  5
E877F
330
18
100
AcDbEntity
  8
1
100
AcDbLine
 10
39.452833
 20
15.007656
 30
0.0
 11
39.649278
 21
15.426772
 31
0.0
  0
LINE
  5
E8780
330
18
100
AcDbEntity
  8
1
100
AcDbLine
 10
39.649278
 20
15.426772
 30
0.0
 11
39.803484
 21
15.863575
 31
0.0
  0
LINE
  5
E8781
330
18
100
AcDbEntity
  8
1
100
AcDbLine
 10
39.803484
 20
15.863575
 30
0.0
 11
39.913965
 21
16.313857
 31
0.0
  0
LINE
  5
E8782
330
18
100
AcDbEntity
  8
1
100
AcDbLine
 10
39.913965
 20
16.313857
 30
0.0
 11
39.979658
 21
16.77328399999999
 31
0.0
  0
LINE
  5
E8783
330
18
100
AcDbEntity
  8
1
100
AcDbLine
 10
39.979658
 20
16.77328399999999
 30
0.0
 11
39.999929
 21
17.237429
 31
0.0
  0
LINE
  5
E8784
330
18
100
AcDbEntity
  8
1
100
AcDbLine
 10
39.999929
 20
17.237429
 30
0.0
 11
39.974585
 21
17.70182399999999
 31
0.0
  0
LINE
  5
E8785
330
18
100
AcDbEntity
  8
1
100
AcDbLine
 10
39.974585
 20
17.70182399999999
 30
0.0
 11
39.903868
 21
18.16199599999999
 31
0.0
  0
LINE
  5
E8786
330
18
100
AcDbEntity
  8
1
100
AcDbLine
 10
39.903868
 20
18.16199599999999
 30
0.0
 11
39.78846
 21
18.613513
 31
0.0
  0
LINE
  5
E8787
330
18
100
AcDbEntity
  8
1
100
AcDbLine
 10
39.78846
 20
18.613513
 30
0.0
 11
39.629473
 21
19.052026
 31
0.0
  0
LINE
  5
E8788
330
18
100
AcDbEntity
  8
1
100
AcDbLine
 10
39.629473
 20
19.052026
 30
0.0
 11
39.428436
 21
19.473313
 31
0.0
  0
LINE
  5
E8789
330
18
100
AcDbEntity
  8
1
100
AcDbLine
 10
39.428436
 20
19.473313
 30
0.0
 11
39.187288
 21
19.873317
 31
0.0
  0
LINE
  5
E878A
330
18
100
AcDbEntity
  8
1
100
AcDbLine
 10
39.187288
 20
19.873317
 30
0.0
 11
38.908349
 21
20.248185
 31
0.0
  0
LINE
  5
E878B
330
18
100
AcDbEntity
  8
1
100
AcDbLine
 10
38.908349
 20
20.248185
 30
0.0
 11
38.594307
 21
20.594307
 31
0.0
  0
LINE
  5
E878C
330
18
100
AcDbEntity
  8
1
100
AcDbLine
 10
38.594307
 20
20.594307
 30
0.0
 11
38.248185
 21
20.90834899999999
 31
0.0
  0
LINE
  5
E878D
330
18
100
AcDbEntity
  8
1
100
AcDbLine
 10
38.248185
 20
20.90834899999999
 30
0.0
 11
37.873317
 21
21.18728799999999
 31
0.0
  0
LINE
  5
E878E
330
18
100
AcDbEntity
  8
1
100
AcDbLine
 10
37.873317
 20
21.18728799999999
 30
0.0
 11
37.473313
 21
21.42843599999999
 31
0.0
  0
LINE
  5
E878F
330
18
100
AcDbEntity
  8
1
100
AcDbLine
 10
37.473313
 20
21.42843599999999
 30
0.0
 11
37.052026
 21
21.629473
 31
0.0
  0
LINE
  5
E8790
330
18
100
AcDbEntity
  8
1
100
AcDbLine
 10
37.052026
 20
21.629473
 30
0.0
 11
36.613513
 21
21.78846
 31
0.0
  0
LINE
  5
E8791
330
18
100
AcDbEntity
  8
1
100
AcDbLine
 10
36.613513
 20
21.78846
 30
0.0
 11
36.161996
 21
21.903868
 31
0.0
  0
LINE
  5
E8792
330
18
100
AcDbEntity
  8
1
100
AcDbLine
 10
36.161996
 20
21.903868
 30
0.0
 11
35.701824
 21
21.974585
 31
0.0
  0
LINE
  5
E8793
330
18
100
AcDbEntity
  8
1
100
AcDbLine
 10
35.701824
 20
21.974585
 30
0.0
 11
35.237429
 21
21.999929
 31
0.0
  0
LINE
  5
E8794
330
18
100
AcDbEntity
  8
1
100
AcDbLine
 10
35.237429
 20
21.999929
 30
0.0
 11
34.77328400000001
 21
21.97965799999999
 31
0.0
  0
LINE
  5
E8795
330
18
100
AcDbEntity
  8
1
100
AcDbLine
 10
34.77328400000001
 20
21.97965799999999
 30
0.0
 11
34.313857
 21
21.913965
 31
0.0
  0
LINE
  5
E8796
330
18
100
AcDbEntity
  8
1
100
AcDbLine
 10
34.313857
 20
21.913965
 30
0.0
 11
33.863575
 21
21.803484
 31
0.0
  0
LINE
  5
E8797
330
18
100
AcDbEntity
  8
1
100
AcDbLine
 10
33.863575
 20
21.803484
 30
0.0
 11
33.426772
 21
21.649278
 31
0.0
  0
LINE
  5
E8798
330
18
100
AcDbEntity
  8
1
100
AcDbLine
 10
33.426772
 20
21.649278
 30
0.0
 11
33.007656
 21
21.452833
 31
0.0
  0
LINE
  5
E8799
330
18
100
AcDbEntity
  8
1
100
AcDbLine
 10
33.007656
 20
21.452833
 30
0.0
 11
32.610264
 21
21.216041
 31
0.0
  0
LINE
  5
E879A
330
18
100
AcDbEntity
  8
1
100
AcDbLine
 10
32.610264
 20
21.216041
 30
0.0
 11
32.238422
 21
20.941182
 31
0.0
  0
LINE
  5
E879B
330
18
100
AcDbEntity
  8
1
100
AcDbLine
 10
32.238422
 20
20.941182
 30
0.0
 11
31.895711
 21
20.630903
 31
0.0
  0
LINE
  5
E879C
330
18
100
AcDbEntity
  8
1
100
AcDbLine
 10
21.891354
 20
11.315976
 30
0.0
 11
21.549314
 21
10.93818399999999
 31
0.0
  0
LINE
  5
E879D
330
18
100
AcDbEntity
  8
1
100
AcDbLine
 10
21.549314
 20
10.93818399999999
 30
0.0
 11
21.24632
 21
10.528279
 31
0.0
  0
LINE
  5
E879E
330
18
100
AcDbEntity
  8
1
100
AcDbLine
 10
21.24632
 20
10.528279
 30
0.0
 11
20.985289
 21
10.090209
 31
0.0
  0
LINE
  5
E879F
330
18
100
AcDbEntity
  8
1
100
AcDbLine
 10
20.985289
 20
10.090209
 30
0.0
 11
20.768736
 21
9.628190999999999
 31
0.0
  0
LINE
  5
E87A0
330
18
100
AcDbEntity
  8
1
100
AcDbLine
 10
20.768736
 20
9.628190999999999
 30
0.0
 11
20.598745
 21
9.146676999999996
 31
0.0
  0
LINE
  5
E87A1
330
18
100
AcDbEntity
  8
1
100
AcDbLine
 10
20.598745
 20
9.146676999999996
 30
0.0
 11
20.476955
 21
8.650301999999998
 31
0.0
  0
LINE
  5
E87A2
330
18
100
AcDbEntity
  8
1
100
AcDbLine
 10
20.476955
 20
8.650301999999998
 30
0.0
 11
20.404538
 21
8.143847999999998
 31
0.0
  0
LINE
  5
E87A3
330
18
100
AcDbEntity
  8
1
100
AcDbLine
 10
20.404538
 20
8.143847999999998
 30
0.0
 11
20.382191
 21
7.632190999999997
 31
0.0
  0
LINE
  5
E87A4
330
18
100
AcDbEntity
  8
1
100
AcDbLine
 10
20.382191
 20
7.632190999999997
 30
0.0
 11
20.41013
 21
7.12026
 31
0.0
  0
LINE
  5
E87A5
330
18
100
AcDbEntity
  8
1
100
AcDbLine
 10
20.41013
 20
7.12026
 30
0.0
 11
20.488086
 21
6.612983999999999
 31
0.0
  0
LINE
  5
E87A6
330
18
100
AcDbEntity
  8
1
100
AcDbLine
 10
20.488086
 20
6.612983999999999
 30
0.0
 11
20.615307
 21
6.115248999999997
 31
0.0
  0
LINE
  5
E87A7
330
18
100
AcDbEntity
  8
1
100
AcDbLine
 10
20.615307
 20
6.115248999999997
 30
0.0
 11
20.790569
 21
5.631847999999997
 31
0.0
  0
LINE
  5
E87A8
330
18
100
AcDbEntity
  8
1
100
AcDbLine
 10
20.790569
 20
5.631847999999997
 30
0.0
 11
21.012184
 21
5.167436999999996
 31
0.0
  0
LINE
  5
E87A9
330
18
100
AcDbEntity
  8
1
100
AcDbLine
 10
21.012184
 20
5.167436999999996
 30
0.0
 11
21.278017
 21
4.726487999999998
 31
0.0
  0
LINE
  5
E87AA
330
18
100
AcDbEntity
  8
1
100
AcDbLine
 10
21.278017
 20
4.726487999999998
 30
0.0
 11
21.585508
 21
4.313247999999997
 31
0.0
  0
LINE
  5
E87AB
330
18
100
AcDbEntity
  8
1
100
AcDbLine
 10
21.585508
 20
4.313247999999997
 30
0.0
 11
21.931697
 21
3.931696999999997
 31
0.0
  0
LINE
  5
E87AC
330
18
100
AcDbEntity
  8
1
100
AcDbLine
 10
21.931697
 20
3.931696999999997
 30
0.0
 11
22.313248
 21
3.585507999999999
 31
0.0
  0
LINE
  5
E87AD
330
18
100
AcDbEntity
  8
1
100
AcDbLine
 10
22.313248
 20
3.585507999999999
 30
0.0
 11
22.726488
 21
3.278016999999998
 31
0.0
  0
LINE
  5
E87AE
330
18
100
AcDbEntity
  8
1
100
AcDbLine
 10
22.726488
 20
3.278016999999998
 30
0.0
 11
23.167437
 21
3.012183999999998
 31
0.0
  0
LINE
  5
E87AF
330
18
100
AcDbEntity
  8
1
100
AcDbLine
 10
23.167437
 20
3.012183999999998
 30
0.0
 11
23.631848
 21
2.790568999999998
 31
0.0
  0
LINE
  5
E87B0
330
18
100
AcDbEntity
  8
1
100
AcDbLine
 10
23.631848
 20
2.790568999999998
 30
0.0
 11
24.115249
 21
2.615306999999996
 31
0.0
  0
LINE
  5
E87B1
330
18
100
AcDbEntity
  8
1
100
AcDbLine
 10
24.115249
 20
2.615306999999996
 30
0.0
 11
24.612984
 21
2.488085999999996
 31
0.0
  0
LINE
  5
E87B2
330
18
100
AcDbEntity
  8
1
100
AcDbLine
 10
24.612984
 20
2.488085999999996
 30
0.0
 11
25.12026
 21
2.410129999999996
 31
0.0
  0
LINE
  5
E87B3
330
18
100
AcDbEntity
  8
1
100
AcDbLine
 10
25.12026
 20
2.410129999999996
 30
0.0
 11
25.632191
 21
2.382190999999997
 31
0.0
  0
LINE
  5
E87B4
330
18
100
AcDbEntity
  8
1
100
AcDbLine
 10
25.632191
 20
2.382190999999997
 30
0.0
 11
26.143848
 21
2.404537999999996
 31
0.0
  0
LINE
  5
E87B5
330
18
100
AcDbEntity
  8
1
100
AcDbLine
 10
26.143848
 20
2.404537999999996
 30
0.0
 11
26.650302
 21
2.476954999999998
 31
0.0
  0
LINE
  5
E87B6
330
18
100
AcDbEntity
  8
1
100
AcDbLine
 10
26.650302
 20
2.476954999999998
 30
0.0
 11
27.146677
 21
2.598744999999996
 31
0.0
  0
LINE
  5
E87B7
330
18
100
AcDbEntity
  8
1
100
AcDbLine
 10
27.146677
 20
2.598744999999996
 30
0.0
 11
27.628191
 21
2.768735999999998
 31
0.0
  0
LINE
  5
E87B8
330
18
100
AcDbEntity
  8
1
100
AcDbLine
 10
27.628191
 20
2.768735999999998
 30
0.0
 11
28.090209
 21
2.985288999999998
 31
0.0
  0
LINE
  5
E87B9
330
18
100
AcDbEntity
  8
1
100
AcDbLine
 10
28.090209
 20
2.985288999999998
 30
0.0
 11
28.528279
 21
3.246319999999998
 31
0.0
  0
LINE
  5
E87BA
330
18
100
AcDbEntity
  8
1
100
AcDbLine
 10
28.528279
 20
3.246319999999998
 30
0.0
 11
28.93818400000001
 21
3.549313999999998
 31
0.0
  0
LINE
  5
E87BB
330
18
100
AcDbEntity
  8
1
100
AcDbLine
 10
28.93818400000001
 20
3.549313999999998
 30
0.0
 11
29.315976
 21
3.891353999999998
 31
0.0
  0
LINE
  5
E87BC
330
18
100
AcDbEntity
  8
1
100
AcDbLine
 10
21.246718
 20
-17.612534
 30
0.0
 11
15.500047
 21
-17.612534
 31
0.0
  0
LINE
  5
E87BD
330
18
100
AcDbEntity
  8
1
100
AcDbLine
 10
27.85371
 20
17.725813
 30
0.0
 11
29.07825
 21
18.31302399999999
 31
0.0
  0
LINE
  5
E87BE
330
18
100
AcDbEntity
  8
1
100
AcDbLine
 10
29.07825
 20
18.31302399999999
 30
0.0
 11
29.742565
 21
18.60745899999999
 31
0.0
  0
LINE
  5
E87BF
330
18
100
AcDbEntity
  8
1
100
AcDbLine
 10
35.725813
 20
9.853709999999999
 30
0.0
 11
36.313024
 21
11.07825
 31
0.0
  0
LINE
  5
E87C0
330
18
100
AcDbEntity
  8
1
100
AcDbLine
 10
36.313024
 20
11.07825
 30
0.0
 11
36.60745900000001
 21
11.742565
 31
0.0
  0
LINE
  5
E87C1
330
18
100
AcDbEntity
  8
80
100
AcDbLine
 10
0.0
 20
0.0
 30
0.0
 11
-20.758286
 21
0.0000000000000013
 31
0.0
  0
LINE
  5
E87C2
330
18
100
AcDbEntity
  8
81
100
AcDbLine
 10
0.0
 20
0.0
 30
0.0
 11
41.53746199999999
 21
-0.0000000000000025
 31
0.0
  0
LINE
  5
E87C3
330
18
100
AcDbEntity
  8
4
100
AcDbLine
 10
0.0
 20
0.0
 30
0.0
 11
39.27102
 21
-0.0000000000000024
 31
0.0
  0
LINE
  5
E87C4
330
18
100
AcDbEntity
  8
SK4
100
AcDbLine
 10
52.12174199999999
 20
-0.0000000000000032
 30
0.0
 11
-26.553234
 21
0.0000000000000016
 31
0.0
  0
POINT
  5
E87C5
330
18
100
AcDbEntity
  8
81
100
AcDbPoint
 10
40.0
 20
22.0
 30
0.0
 50
90.0
  0
POINT
  5
E87C6
330
18
100
AcDbEntity
  8
80
100
AcDbPoint
 10
0.0
 20
0.0
 30
0.0
 50
90.0
  0
TEXT
  5
E87C7
330
18
100
AcDbEntity
  8
SK6
100
AcDbText
 10
2.949999999999998
 20
-15.492632
 30
0.0
 40
2.2
  1
C3-CRSNR-22040-09ID
 50
90.0
 41
0.6427450859632597
  7
SANDVIK_STYLE
 72
     5
 11
2.95
 21
10.498755
 31
0.0
100
AcDbText
  0
POLYLINE
  5
E87C8
330
18
100
AcDbEntity
  8
1
100
AcDb3dPolyline
 66
     1
 10
0.0
 20
0.0
 30
0.0
 70
     8
  0
VERTEX
  5
E87C9
330
E87C8
100
AcDbEntity
  8
1
100
AcDbVertex
100
AcDb3dPolylineVertex
 10
7.076794999999997
 20
-4.755537999999996
 30
0.0
 70
    32
  0
VERTEX
  5
E87CA
330
E87C8
100
AcDbEntity
  8
1
100
AcDbVertex
100
AcDb3dPolylineVertex
 10
6.358932
 20
-4.755537999999996
 30
0.0
 70
    32
  0
VERTEX
  5
E87CB
330
E87C8
100
AcDbEntity
  8
1
100
AcDbVertex
100
AcDb3dPolylineVertex
 10
5.641067999999997
 20
-4.755537999999996
 30
0.0
 70
    32
  0
VERTEX
  5
E87CC
330
E87C8
100
AcDbEntity
  8
1
100
AcDbVertex
100
AcDb3dPolylineVertex
 10
4.923205
 20
-4.755537999999996
 30
0.0
 70
    32
  0
SEQEND
  5
E87CD
330
E87C8
100
AcDbEntity
  8
1
  0
POLYLINE
  5
E87CE
330
18
100
AcDbEntity
  8
1
100
AcDb3dPolyline
 66
     1
 10
0.0
 20
0.0
 30
0.0
 70
     8
  0
VERTEX
  5
E87CF
330
E87CE
100
AcDbEntity
  8
1
100
AcDbVertex
100
AcDb3dPolylineVertex
 10
7.076794999999997
 20
4.755537999999996
 30
0.0
 70
    32
  0
VERTEX
  5
E87D0
330
E87CE
100
AcDbEntity
  8
1
100
AcDbVertex
100
AcDb3dPolylineVertex
 10
6.358932
 20
4.755537999999996
 30
0.0
 70
    32
  0
VERTEX
  5
E87D1
330
E87CE
100
AcDbEntity
  8
1
100
AcDbVertex
100
AcDb3dPolylineVertex
 10
5.641067999999997
 20
4.755537999999996
 30
0.0
 70
    32
  0
VERTEX
  5
E87D2
330
E87CE
100
AcDbEntity
  8
1
100
AcDbVertex
100
AcDb3dPolylineVertex
 10
4.923205
 20
4.755537999999996
 30
0.0
 70
    32
  0
SEQEND
  5
E87D3
330
E87CE
100
AcDbEntity
  8
1
  0
POLYLINE
  5
E87D4
330
18
100
AcDbEntity
  8
1
100
AcDb3dPolyline
 66
     1
 10
0.0
 20
0.0
 30
0.0
 70
     8
  0
VERTEX
  5
E87D5
330
E87D4
100
AcDbEntity
  8
1
100
AcDbVertex
100
AcDb3dPolylineVertex
 10
4.923205000000001
 20
15.276939
 30
0.0
 70
    32
  0
VERTEX
  5
E87D6
330
E87D4
100
AcDbEntity
  8
1
100
AcDbVertex
100
AcDb3dPolylineVertex
 10
5.641067999999997
 20
15.276939
 30
0.0
 70
    32
  0
VERTEX
  5
E87D7
330
E87D4
100
AcDbEntity
  8
1
100
AcDbVertex
100
AcDb3dPolylineVertex
 10
6.358932000000001
 20
15.276939
 30
0.0
 70
    32
  0
VERTEX
  5
E87D8
330
E87D4
100
AcDbEntity
  8
1
100
AcDbVertex
100
AcDb3dPolylineVertex
 10
7.076794999999997
 20
15.276939
 30
0.0
 70
    32
  0
SEQEND
  5
E87D9
330
E87D4
100
AcDbEntity
  8
1
  0
POLYLINE
  5
E87DA
330
18
100
AcDbEntity
  8
1
100
AcDb3dPolyline
 66
     1
 10
0.0
 20
0.0
 30
0.0
 70
     8
  0
VERTEX
  5
E87DB
330
E87DA
100
AcDbEntity
  8
1
100
AcDbVertex
100
AcDb3dPolylineVertex
 10
4.923204999999998
 20
-15.276939
 30
0.0
 70
    32
  0
VERTEX
  5
E87DC
330
E87DA
100
AcDbEntity
  8
1
100
AcDbVertex
100
AcDb3dPolylineVertex
 10
5.641067999999997
 20
-15.276939
 30
0.0
 70
    32
  0
VERTEX
  5
E87DD
330
E87DA
100
AcDbEntity
  8
1
100
AcDbVertex
100
AcDb3dPolylineVertex
 10
6.358931999999997
 20
-15.276939
 30
0.0
 70
    32
  0
VERTEX
  5
E87DE
330
E87DA
100
AcDbEntity
  8
1
100
AcDbVertex
100
AcDb3dPolylineVertex
 10
7.076794999999997
 20
-15.276939
 30
0.0
 70
    32
  0
SEQEND
  5
E87DF
330
E87DA
100
AcDbEntity
  8
1
  0
POLYLINE
  5
E87E0
330
18
100
AcDbEntity
  8
1
100
AcDb3dPolyline
 66
     1
 10
0.0
 20
0.0
 30
0.0
 70
     8
  0
VERTEX
  5
E87E1
330
E87E0
100
AcDbEntity
  8
1
100
AcDbVertex
100
AcDb3dPolylineVertex
 10
7.336589999999997
 20
-15.175958
 30
0.0
 70
    32
  0
VERTEX
  5
E87E2
330
E87E0
100
AcDbEntity
  8
1
100
AcDbVertex
100
AcDb3dPolylineVertex
 10
7.454355999999997
 20
-15.014455
 30
0.0
 70
    32
  0
VERTEX
  5
E87E3
330
E87E0
100
AcDbEntity
  8
1
100
AcDbVertex
100
AcDb3dPolylineVertex
 10
7.565141999999998
 20
-14.848378
 30
0.0
 70
    32
  0
VERTEX
  5
E87E4
330
E87E0
100
AcDbEntity
  8
1
100
AcDbVertex
100
AcDb3dPolylineVertex
 10
7.666188
 20
-14.67592
 30
0.0
 70
    32
  0
VERTEX
  5
E87E5
330
E87E0
100
AcDbEntity
  8
1
100
AcDbVertex
100
AcDb3dPolylineVertex
 10
7.753882999999999
 20
-14.496412
 30
0.0
 70
    32
  0
VERTEX
  5
E87E6
330
E87E0
100
AcDbEntity
  8
1
100
AcDbVertex
100
AcDb3dPolylineVertex
 10
7.835128999999997
 20
-14.313921
 30
0.0
 70
    32
  0
VERTEX
  5
E87E7
330
E87E0
100
AcDbEntity
  8
1
100
AcDbVertex
100
AcDb3dPolylineVertex
 10
7.906625999999997
 20
-14.127265
 30
0.0
 70
    32
  0
VERTEX
  5
E87E8
330
E87E0
100
AcDbEntity
  8
1
100
AcDbVertex
100
AcDb3dPolylineVertex
 10
7.965627999999997
 20
-13.936445
 30
0.0
 70
    32
  0
VERTEX
  5
E87E9
330
E87E0
100
AcDbEntity
  8
1
100
AcDbVertex
100
AcDb3dPolylineVertex
 10
8.020414999999998
 20
-13.74422
 30
0.0
 70
    32
  0
VERTEX
  5
E87EA
330
E87E0
100
AcDbEntity
  8
1
100
AcDbVertex
100
AcDb3dPolylineVertex
 10
8.075200999999998
 20
-13.551994
 30
0.0
 70
    32
  0
VERTEX
  5
E87EB
330
E87E0
100
AcDbEntity
  8
1
100
AcDbVertex
100
AcDb3dPolylineVertex
 10
8.120053
 20
-13.357356
 30
0.0
 70
    32
  0
VERTEX
  5
E87EC
330
E87E0
100
AcDbEntity
  8
1
100
AcDbVertex
100
AcDb3dPolylineVertex
 10
8.159527
 20
-13.161413
 30
0.0
 70
    32
  0
VERTEX
  5
E87ED
330
E87E0
100
AcDbEntity
  8
1
100
AcDbVertex
100
AcDb3dPolylineVertex
 10
8.194926999999998
 20
-12.964775
 30
0.0
 70
    32
  0
VERTEX
  5
E87EE
330
E87E0
100
AcDbEntity
  8
1
100
AcDbVertex
100
AcDb3dPolylineVertex
 10
8.222578999999999
 20
-12.766816
 30
0.0
 70
    32
  0
VERTEX
  5
E87EF
330
E87E0
100
AcDbEntity
  8
1
100
AcDbVertex
100
AcDb3dPolylineVertex
 10
8.249821
 20
-12.568812
 30
0.0
 70
    32
  0
VERTEX
  5
E87F0
330
E87E0
100
AcDbEntity
  8
1
100
AcDbVertex
100
AcDb3dPolylineVertex
 10
8.267057000000001
 20
-12.369676
 30
0.0
 70
    32
  0
VERTEX
  5
E87F1
330
E87E0
100
AcDbEntity
  8
1
100
AcDbVertex
100
AcDb3dPolylineVertex
 10
8.284292999999998
 20
-12.17054
 30
0.0
 70
    32
  0
VERTEX
  5
E87F2
330
E87E0
100
AcDbEntity
  8
1
100
AcDbVertex
100
AcDb3dPolylineVertex
 10
8.294997
 20
-11.970986
 30
0.0
 70
    32
  0
VERTEX
  5
E87F3
330
E87E0
100
AcDbEntity
  8
1
100
AcDbVertex
100
AcDb3dPolylineVertex
 10
8.303272999999999
 20
-11.771277
 30
0.0
 70
    32
  0
VERTEX
  5
E87F4
330
E87E0
100
AcDbEntity
  8
1
100
AcDbVertex
100
AcDb3dPolylineVertex
 10
8.307195
 20
-11.571503
 30
0.0
 70
    32
  0
VERTEX
  5
E87F5
330
E87E0
100
AcDbEntity
  8
1
100
AcDbVertex
100
AcDb3dPolylineVertex
 10
8.304930999999998
 20
-11.371635
 30
0.0
 70
    32
  0
VERTEX
  5
E87F6
330
E87E0
100
AcDbEntity
  8
1
100
AcDbVertex
100
AcDb3dPolylineVertex
 10
8.302667999999997
 20
-11.171768
 30
0.0
 70
    32
  0
VERTEX
  5
E87F7
330
E87E0
100
AcDbEntity
  8
1
100
AcDbVertex
100
AcDb3dPolylineVertex
 10
8.300403999999996
 20
-10.9719
 30
0.0
 70
    32
  0
VERTEX
  5
E87F8
330
E87E0
100
AcDbEntity
  8
1
100
AcDbVertex
100
AcDb3dPolylineVertex
 10
8.298141000000001
 20
-10.772033
 30
0.0
 70
    32
  0
VERTEX
  5
E87F9
330
E87E0
100
AcDbEntity
  8
1
100
AcDbVertex
100
AcDb3dPolylineVertex
 10
8.287587
 20
-10.572482
 30
0.0
 70
    32
  0
VERTEX
  5
E87FA
330
E87E0
100
AcDbEntity
  8
1
100
AcDbVertex
100
AcDb3dPolylineVertex
 10
8.274582999999998
 20
-10.373025
 30
0.0
 70
    32
  0
VERTEX
  5
E87FB
330
E87E0
100
AcDbEntity
  8
1
100
AcDbVertex
100
AcDb3dPolylineVertex
 10
8.261578999999999
 20
-10.173568
 30
0.0
 70
    32
  0
VERTEX
  5
E87FC
330
E87E0
100
AcDbEntity
  8
1
100
AcDbVertex
100
AcDb3dPolylineVertex
 10
8.248574000000001
 20
-9.974111999999999
 30
0.0
 70
    32
  0
VERTEX
  5
E87FD
330
E87E0
100
AcDbEntity
  8
1
100
AcDbVertex
100
AcDb3dPolylineVertex
 10
8.235569999999999
 20
-9.774655
 30
0.0
 70
    32
  0
VERTEX
  5
E87FE
330
E87E0
100
AcDbEntity
  8
1
100
AcDbVertex
100
AcDb3dPolylineVertex
 10
8.213275999999996
 20
-9.576029
 30
0.0
 70
    32
  0
VERTEX
  5
E87FF
330
E87E0
100
AcDbEntity
  8
1
100
AcDbVertex
100
AcDb3dPolylineVertex
 10
8.190671
 20
-9.377430999999999
 30
0.0
 70
    32
  0
VERTEX
  5
E8800
330
E87E0
100
AcDbEntity
  8
1
100
AcDbVertex
100
AcDb3dPolylineVertex
 10
8.168065999999999
 20
-9.178833
 30
0.0
 70
    32
  0
VERTEX
  5
E8801
330
E87E0
100
AcDbEntity
  8
1
100
AcDbVertex
100
AcDb3dPolylineVertex
 10
8.145460999999999
 20
-8.980235
 30
0.0
 70
    32
  0
VERTEX
  5
E8802
330
E87E0
100
AcDbEntity
  8
1
100
AcDbVertex
100
AcDb3dPolylineVertex
 10
8.121346
 20
-8.781841999999999
 30
0.0
 70
    32
  0
VERTEX
  5
E8803
330
E87E0
100
AcDbEntity
  8
1
100
AcDbVertex
100
AcDb3dPolylineVertex
 10
8.090207000000001
 20
-8.584402
 30
0.0
 70
    32
  0
VERTEX
  5
E8804
330
E87E0
100
AcDbEntity
  8
1
100
AcDbVertex
100
AcDb3dPolylineVertex
 10
8.059069
 20
-8.386961999999996
 30
0.0
 70
    32
  0
VERTEX
  5
E8805
330
E87E0
100
AcDbEntity
  8
1
100
AcDbVertex
100
AcDb3dPolylineVertex
 10
8.027929999999999
 20
-8.189522
 30
0.0
 70
    32
  0
VERTEX
  5
E8806
330
E87E0
100
AcDbEntity
  8
1
100
AcDbVertex
100
AcDb3dPolylineVertex
 10
7.996791999999999
 20
-7.992082
 30
0.0
 70
    32
  0
VERTEX
  5
E8807
330
E87E0
100
AcDbEntity
  8
1
100
AcDbVertex
100
AcDb3dPolylineVertex
 10
7.962752999999997
 20
-7.795155999999997
 30
0.0
 70
    32
  0
VERTEX
  5
E8808
330
E87E0
100
AcDbEntity
  8
1
100
AcDbVertex
100
AcDb3dPolylineVertex
 10
7.924177999999997
 20
-7.599033000000001
 30
0.0
 70
    32
  0
VERTEX
  5
E8809
330
E87E0
100
AcDbEntity
  8
1
100
AcDbVertex
100
AcDb3dPolylineVertex
 10
7.885601999999997
 20
-7.402910000000001
 30
0.0
 70
    32
  0
VERTEX
  5
E880A
330
E87E0
100
AcDbEntity
  8
1
100
AcDbVertex
100
AcDb3dPolylineVertex
 10
7.847027
 20
-7.206788000000001
 30
0.0
 70
    32
  0
VERTEX
  5
E880B
330
E87E0
100
AcDbEntity
  8
1
100
AcDbVertex
100
AcDb3dPolylineVertex
 10
7.808452
 20
-7.010664999999997
 30
0.0
 70
    32
  0
VERTEX
  5
E880C
330
E87E0
100
AcDbEntity
  8
1
100
AcDbVertex
100
AcDb3dPolylineVertex
 10
7.766071000000001
 20
-6.815355000000001
 30
0.0
 70
    32
  0
VERTEX
  5
E880D
330
E87E0
100
AcDbEntity
  8
1
100
AcDbVertex
100
AcDb3dPolylineVertex
 10
7.721157
 20
-6.620586000000001
 30
0.0
 70
    32
  0
VERTEX
  5
E880E
330
E87E0
100
AcDbEntity
  8
1
100
AcDbVertex
100
AcDb3dPolylineVertex
 10
7.676242999999997
 20
-6.425816999999997
 30
0.0
 70
    32
  0
VERTEX
  5
E880F
330
E87E0
100
AcDbEntity
  8
1
100
AcDbVertex
100
AcDb3dPolylineVertex
 10
7.631328999999999
 20
-6.231048999999997
 30
0.0
 70
    32
  0
VERTEX
  5
E8810
330
E87E0
100
AcDbEntity
  8
1
100
AcDbVertex
100
AcDb3dPolylineVertex
 10
7.586414999999997
 20
-6.036280000000001
 30
0.0
 70
    32
  0
VERTEX
  5
E8811
330
E87E0
100
AcDbEntity
  8
1
100
AcDbVertex
100
AcDb3dPolylineVertex
 10
7.537274
 20
-5.842545999999997
 30
0.0
 70
    32
  0
VERTEX
  5
E8812
330
E87E0
100
AcDbEntity
  8
1
100
AcDbVertex
100
AcDb3dPolylineVertex
 10
7.487103
 20
-5.649065000000001
 30
0.0
 70
    32
  0
VERTEX
  5
E8813
330
E87E0
100
AcDbEntity
  8
1
100
AcDbVertex
100
AcDb3dPolylineVertex
 10
7.436932
 20
-5.455583999999999
 30
0.0
 70
    32
  0
VERTEX
  5
E8814
330
E87E0
100
AcDbEntity
  8
1
100
AcDbVertex
100
AcDb3dPolylineVertex
 10
7.386760999999999
 20
-5.262101999999997
 30
0.0
 70
    32
  0
VERTEX
  5
E8815
330
E87E0
100
AcDbEntity
  8
1
100
AcDbVertex
100
AcDb3dPolylineVertex
 10
7.336589999999997
 20
-5.068621000000001
 30
0.0
 70
    32
  0
SEQEND
  5
E8816
330
E87E0
100
AcDbEntity
  8
1
  0
POLYLINE
  5
E8817
330
18
100
AcDbEntity
  8
1
100
AcDb3dPolyline
 66
     1
 10
0.0
 20
0.0
 30
0.0
 70
     8
  0
VERTEX
  5
E8818
330
E8817
100
AcDbEntity
  8
1
100
AcDbVertex
100
AcDb3dPolylineVertex
 10
12.802677
 20
7.185613999999997
 30
0.0
 70
    32
  0
VERTEX
  5
E8819
330
E8817
100
AcDbEntity
  8
1
100
AcDbVertex
100
AcDb3dPolylineVertex
 10
12.812098
 20
7.020007999999998
 30
0.0
 70
    32
  0
VERTEX
  5
E881A
330
E8817
100
AcDbEntity
  8
1
100
AcDbVertex
100
AcDb3dPolylineVertex
 10
12.825852
 20
6.854856999999999
 30
0.0
 70
    32
  0
VERTEX
  5
E881B
330
E8817
100
AcDbEntity
  8
1
100
AcDbVertex
100
AcDb3dPolylineVertex
 10
12.851004
 20
6.690901999999997
 30
0.0
 70
    32
  0
VERTEX
  5
E881C
330
E8817
100
AcDbEntity
  8
1
100
AcDbVertex
100
AcDb3dPolylineVertex
 10
12.884085
 20
6.528514999999997
 30
0.0
 70
    32
  0
VERTEX
  5
E881D
330
E8817
100
AcDbEntity
  8
1
100
AcDbVertex
100
AcDb3dPolylineVertex
 10
12.923263
 20
6.367334999999997
 30
0.0
 70
    32
  0
VERTEX
  5
E881E
330
E8817
100
AcDbEntity
  8
1
100
AcDbVertex
100
AcDb3dPolylineVertex
 10
12.962442
 20
6.206153999999997
 30
0.0
 70
    32
  0
VERTEX
  5
E881F
330
E8817
100
AcDbEntity
  8
1
100
AcDbVertex
100
AcDb3dPolylineVertex
 10
13.00162
 20
6.044973999999997
 30
0.0
 70
    32
  0
VERTEX
  5
E8820
330
E8817
100
AcDbEntity
  8
1
100
AcDbVertex
100
AcDb3dPolylineVertex
 10
13.040799
 20
5.883793999999999
 30
0.0
 70
    32
  0
VERTEX
  5
E8821
330
E8817
100
AcDbEntity
  8
1
100
AcDbVertex
100
AcDb3dPolylineVertex
 10
13.079977
 20
5.722612999999999
 30
0.0
 70
    32
  0
VERTEX
  5
E8822
330
E8817
100
AcDbEntity
  8
1
100
AcDbVertex
100
AcDb3dPolylineVertex
 10
13.119156
 20
5.561432999999999
 30
0.0
 70
    32
  0
VERTEX
  5
E8823
330
E8817
100
AcDbEntity
  8
1
100
AcDbVertex
100
AcDb3dPolylineVertex
 10
13.15187
 20
5.398868999999997
 30
0.0
 70
    32
  0
VERTEX
  5
E8824
330
E8817
100
AcDbEntity
  8
1
100
AcDbVertex
100
AcDb3dPolylineVertex
 10
13.182104
 20
5.235773999999998
 30
0.0
 70
    32
  0
VERTEX
  5
E8825
330
E8817
100
AcDbEntity
  8
1
100
AcDbVertex
100
AcDb3dPolylineVertex
 10
13.212339
 20
5.072679999999999
 30
0.0
 70
    32
  0
VERTEX
  5
E8826
330
E8817
100
AcDbEntity
  8
1
100
AcDbVertex
100
AcDb3dPolylineVertex
 10
13.235426
 20
4.908428999999999
 30
0.0
 70
    32
  0
VERTEX
  5
E8827
330
E8817
100
AcDbEntity
  8
1
100
AcDbVertex
100
AcDb3dPolylineVertex
 10
13.258125
 20
4.744115999999999
 30
0.0
 70
    32
  0
VERTEX
  5
E8828
330
E8817
100
AcDbEntity
  8
1
100
AcDbVertex
100
AcDb3dPolylineVertex
 10
13.279382
 20
4.579640999999996
 30
0.0
 70
    32
  0
VERTEX
  5
E8829
330
E8817
100
AcDbEntity
  8
1
100
AcDbVertex
100
AcDb3dPolylineVertex
 10
13.293672
 20
4.414383999999999
 30
0.0
 70
    32
  0
VERTEX
  5
E882A
330
E8817
100
AcDbEntity
  8
1
100
AcDbVertex
100
AcDb3dPolylineVertex
 10
13.307962
 20
4.249127999999998
 30
0.0
 70
    32
  0
VERTEX
  5
E882B
330
E8817
100
AcDbEntity
  8
1
100
AcDbVertex
100
AcDb3dPolylineVertex
 10
13.318611
 20
4.083658999999999
 30
0.0
 70
    32
  0
VERTEX
  5
E882C
330
E8817
100
AcDbEntity
  8
1
100
AcDbVertex
100
AcDb3dPolylineVertex
 10
13.323615
 20
3.917860999999998
 30
0.0
 70
    32
  0
VERTEX
  5
E882D
330
E8817
100
AcDbEntity
  8
1
100
AcDbVertex
100
AcDb3dPolylineVertex
 10
13.328618
 20
3.752061999999998
 30
0.0
 70
    32
  0
VERTEX
  5
E882E
330
E8817
100
AcDbEntity
  8
1
100
AcDbVertex
100
AcDb3dPolylineVertex
 10
13.327454
 20
3.586266999999998
 30
0.0
 70
    32
  0
VERTEX
  5
E882F
330
E8817
100
AcDbEntity
  8
1
100
AcDbVertex
100
AcDb3dPolylineVertex
 10
13.322323
 20
3.420472999999998
 30
0.0
 70
    32
  0
VERTEX
  5
E8830
330
E8817
100
AcDbEntity
  8
1
100
AcDbVertex
100
AcDb3dPolylineVertex
 10
13.317192
 20
3.254677999999998
 30
0.0
 70
    32
  0
VERTEX
  5
E8831
330
E8817
100
AcDbEntity
  8
1
100
AcDbVertex
100
AcDb3dPolylineVertex
 10
13.303148
 20
3.089454999999998
 30
0.0
 70
    32
  0
VERTEX
  5
E8832
330
E8817
100
AcDbEntity
  8
1
100
AcDbVertex
100
AcDb3dPolylineVertex
 10
13.287102
 20
2.924358999999998
 30
0.0
 70
    32
  0
VERTEX
  5
E8833
330
E8817
100
AcDbEntity
  8
1
100
AcDbVertex
100
AcDb3dPolylineVertex
 10
13.27095
 20
2.759277999999998
 30
0.0
 70
    32
  0
VERTEX
  5
E8834
330
E8817
100
AcDbEntity
  8
1
100
AcDbVertex
100
AcDb3dPolylineVertex
 10
13.243225
 20
2.595737999999998
 30
0.0
 70
    32
  0
VERTEX
  5
E8835
330
E8817
100
AcDbEntity
  8
1
100
AcDbVertex
100
AcDb3dPolylineVertex
 10
13.2155
 20
2.432197999999999
 30
0.0
 70
    32
  0
VERTEX
  5
E8836
330
E8817
100
AcDbEntity
  8
1
100
AcDbVertex
100
AcDb3dPolylineVertex
 10
13.187774
 20
2.268657999999998
 30
0.0
 70
    32
  0
VERTEX
  5
E8837
330
E8817
100
AcDbEntity
  8
1
100
AcDbVertex
100
AcDb3dPolylineVertex
 10
13.160049
 20
2.105117999999999
 30
0.0
 70
    32
  0
VERTEX
  5
E8838
330
E8817
100
AcDbEntity
  8
1
100
AcDbVertex
100
AcDb3dPolylineVertex
 10
13.129035
 20
1.942215999999999
 30
0.0
 70
    32
  0
VERTEX
  5
E8839
330
E8817
100
AcDbEntity
  8
1
100
AcDbVertex
100
AcDb3dPolylineVertex
 10
13.093527
 20
1.780187999999999
 30
0.0
 70
    32
  0
VERTEX
  5
E883A
330
E8817
100
AcDbEntity
  8
1
100
AcDbVertex
100
AcDb3dPolylineVertex
 10
13.058019
 20
1.618158999999999
 30
0.0
 70
    32
  0
VERTEX
  5
E883B
330
E8817
100
AcDbEntity
  8
1
100
AcDbVertex
100
AcDb3dPolylineVertex
 10
13.022511
 20
1.456130999999995
 30
0.0
 70
    32
  0
VERTEX
  5
E883C
330
E8817
100
AcDbEntity
  8
1
100
AcDbVertex
100
AcDb3dPolylineVertex
 10
12.987004
 20
1.294101999999998
 30
0.0
 70
    32
  0
VERTEX
  5
E883D
330
E8817
100
AcDbEntity
  8
1
100
AcDbVertex
100
AcDb3dPolylineVertex
 10
12.951496
 20
1.132073999999998
 30
0.0
 70
    32
  0
VERTEX
  5
E883E
330
E8817
100
AcDbEntity
  8
1
100
AcDbVertex
100
AcDb3dPolylineVertex
 10
12.915988
 20
0.9700449999999991
 30
0.0
 70
    32
  0
VERTEX
  5
E883F
330
E8817
100
AcDbEntity
  8
1
100
AcDbVertex
100
AcDb3dPolylineVertex
 10
12.88048
 20
0.8080169999999991
 30
0.0
 70
    32
  0
VERTEX
  5
E8840
330
E8817
100
AcDbEntity
  8
1
100
AcDbVertex
100
AcDb3dPolylineVertex
 10
12.845438
 20
0.6459079999999993
 30
0.0
 70
    32
  0
VERTEX
  5
E8841
330
E8817
100
AcDbEntity
  8
1
100
AcDbVertex
100
AcDb3dPolylineVertex
 10
12.824432
 20
0.4813699999999992
 30
0.0
 70
    32
  0
VERTEX
  5
E8842
330
E8817
100
AcDbEntity
  8
1
100
AcDbVertex
100
AcDb3dPolylineVertex
 10
12.810391
 20
0.3162259999999992
 30
0.0
 70
    32
  0
VERTEX
  5
E8843
330
E8817
100
AcDbEntity
  8
1
100
AcDbVertex
100
AcDb3dPolylineVertex
 10
12.802677
 20
0.1505319999999992
 30
0.0
 70
    32
  0
SEQEND
  5
E8844
330
E8817
100
AcDbEntity
  8
1
  0
POLYLINE
  5
E8845
330
18
100
AcDbEntity
  8
1
100
AcDb3dPolyline
 66
     1
 10
0.0
 20
0.0
 30
0.0
 70
     8
  0
VERTEX
  5
E8846
330
E8845
100
AcDbEntity
  8
1
100
AcDbVertex
100
AcDb3dPolylineVertex
 10
4.663409999999998
 20
15.175958
 30
0.0
 70
    32
  0
VERTEX
  5
E8847
330
E8845
100
AcDbEntity
  8
1
100
AcDbVertex
100
AcDb3dPolylineVertex
 10
4.552160999999999
 20
15.023342
 30
0.0
 70
    32
  0
VERTEX
  5
E8848
330
E8845
100
AcDbEntity
  8
1
100
AcDbVertex
100
AcDb3dPolylineVertex
 10
4.445408999999997
 20
14.867417
 30
0.0
 70
    32
  0
VERTEX
  5
E8849
330
E8845
100
AcDbEntity
  8
1
100
AcDbVertex
100
AcDb3dPolylineVertex
 10
4.352344999999997
 20
14.703071
 30
0.0
 70
    32
  0
VERTEX
  5
E884A
330
E8845
100
AcDbEntity
  8
1
100
AcDbVertex
100
AcDb3dPolylineVertex
 10
4.263892000000001
 20
14.536201
 30
0.0
 70
    32
  0
VERTEX
  5
E884B
330
E8845
100
AcDbEntity
  8
1
100
AcDbVertex
100
AcDb3dPolylineVertex
 10
4.187319999999997
 20
14.363444
 30
0.0
 70
    32
  0
VERTEX
  5
E884C
330
E8845
100
AcDbEntity
  8
1
100
AcDbVertex
100
AcDb3dPolylineVertex
 10
4.116976999999998
 20
14.188198
 30
0.0
 70
    32
  0
VERTEX
  5
E884D
330
E8845
100
AcDbEntity
  8
1
100
AcDbVertex
100
AcDb3dPolylineVertex
 10
4.053399999999999
 20
14.010247
 30
0.0
 70
    32
  0
VERTEX
  5
E884E
330
E8845
100
AcDbEntity
  8
1
100
AcDbVertex
100
AcDb3dPolylineVertex
 10
4.002229999999999
 20
13.828482
 30
0.0
 70
    32
  0
VERTEX
  5
E884F
330
E8845
100
AcDbEntity
  8
1
100
AcDbVertex
100
AcDb3dPolylineVertex
 10
3.954836000000001
 20
13.645556
 30
0.0
 70
    32
  0
VERTEX
  5
E8850
330
E8845
100
AcDbEntity
  8
1
100
AcDbVertex
100
AcDb3dPolylineVertex
 10
3.907441000000001
 20
13.462629
 30
0.0
 70
    32
  0
VERTEX
  5
E8851
330
E8845
100
AcDbEntity
  8
1
100
AcDbVertex
100
AcDb3dPolylineVertex
 10
3.865126999999998
 20
13.278616
 30
0.0
 70
    32
  0
VERTEX
  5
E8852
330
E8845
100
AcDbEntity
  8
1
100
AcDbVertex
100
AcDb3dPolylineVertex
 10
3.833506999999998
 20
13.092314
 30
0.0
 70
    32
  0
VERTEX
  5
E8853
330
E8845
100
AcDbEntity
  8
1
100
AcDbVertex
100
AcDb3dPolylineVertex
 10
3.801887999999998
 20
12.906012
 30
0.0
 70
    32
  0
VERTEX
  5
E8854
330
E8845
100
AcDbEntity
  8
1
100
AcDbVertex
100
AcDb3dPolylineVertex
 10
3.773552999999998
 20
12.719238
 30
0.0
 70
    32
  0
VERTEX
  5
E8855
330
E8845
100
AcDbEntity
  8
1
100
AcDbVertex
100
AcDb3dPolylineVertex
 10
3.751514999999998
 20
12.531561
 30
0.0
 70
    32
  0
VERTEX
  5
E8856
330
E8845
100
AcDbEntity
  8
1
100
AcDbVertex
100
AcDb3dPolylineVertex
 10
3.737045999999998
 20
12.343179
 30
0.0
 70
    32
  0
VERTEX
  5
E8857
330
E8845
100
AcDbEntity
  8
1
100
AcDbVertex
100
AcDb3dPolylineVertex
 10
3.724033999999998
 20
12.154662
 30
0.0
 70
    32
  0
VERTEX
  5
E8858
330
E8845
100
AcDbEntity
  8
1
100
AcDbVertex
100
AcDb3dPolylineVertex
 10
3.711022000000001
 20
11.966144
 30
0.0
 70
    32
  0
VERTEX
  5
E8859
330
E8845
100
AcDbEntity
  8
1
100
AcDbVertex
100
AcDb3dPolylineVertex
 10
3.698008999999998
 20
11.777626
 30
0.0
 70
    32
  0
VERTEX
  5
E885A
330
E8845
100
AcDbEntity
  8
1
100
AcDbVertex
100
AcDb3dPolylineVertex
 10
3.693052999999998
 20
11.588802
 30
0.0
 70
    32
  0
VERTEX
  5
E885B
330
E8845
100
AcDbEntity
  8
1
100
AcDbVertex
100
AcDb3dPolylineVertex
 10
3.691719000000001
 20
11.39984
 30
0.0
 70
    32
  0
VERTEX
  5
E885C
330
E8845
100
AcDbEntity
  8
1
100
AcDbVertex
100
AcDb3dPolylineVertex
 10
3.690383999999998
 20
11.210879
 30
0.0
 70
    32
  0
VERTEX
  5
E885D
330
E8845
100
AcDbEntity
  8
1
100
AcDbVertex
100
AcDb3dPolylineVertex
 10
3.689049999999998
 20
11.021917
 30
0.0
 70
    32
  0
VERTEX
  5
E885E
330
E8845
100
AcDbEntity
  8
1
100
AcDbVertex
100
AcDb3dPolylineVertex
 10
3.693794
 20
10.833079
 30
0.0
 70
    32
  0
VERTEX
  5
E885F
330
E8845
100
AcDbEntity
  8
1
100
AcDbVertex
100
AcDb3dPolylineVertex
 10
3.702809999999998
 20
10.644328
 30
0.0
 70
    32
  0
VERTEX
  5
E8860
330
E8845
100
AcDbEntity
  8
1
100
AcDbVertex
100
AcDb3dPolylineVertex
 10
3.711826
 20
10.455577
 30
0.0
 70
    32
  0
VERTEX
  5
E8861
330
E8845
100
AcDbEntity
  8
1
100
AcDbVertex
100
AcDb3dPolylineVertex
 10
3.720841
 20
10.266826
 30
0.0
 70
    32
  0
VERTEX
  5
E8862
330
E8845
100
AcDbEntity
  8
1
100
AcDbVertex
100
AcDb3dPolylineVertex
 10
3.734348999999998
 20
10.078395
 30
0.0
 70
    32
  0
VERTEX
  5
E8863
330
E8845
100
AcDbEntity
  8
1
100
AcDbVertex
100
AcDb3dPolylineVertex
 10
3.752209999999998
 20
9.890273999999999
 30
0.0
 70
    32
  0
VERTEX
  5
E8864
330
E8845
100
AcDbEntity
  8
1
100
AcDbVertex
100
AcDb3dPolylineVertex
 10
3.770070999999998
 20
9.702154
 30
0.0
 70
    32
  0
VERTEX
  5
E8865
330
E8845
100
AcDbEntity
  8
1
100
AcDbVertex
100
AcDb3dPolylineVertex
 10
3.787933
 20
9.514033999999996
 30
0.0
 70
    32
  0
VERTEX
  5
E8866
330
E8845
100
AcDbEntity
  8
1
100
AcDbVertex
100
AcDb3dPolylineVertex
 10
3.808933
 20
9.326273
 30
0.0
 70
    32
  0
VERTEX
  5
E8867
330
E8845
100
AcDbEntity
  8
1
100
AcDbVertex
100
AcDb3dPolylineVertex
 10
3.834042999999999
 20
9.138982
 30
0.0
 70
    32
  0
VERTEX
  5
E8868
330
E8845
100
AcDbEntity
  8
1
100
AcDbVertex
100
AcDb3dPolylineVertex
 10
3.859151999999999
 20
8.951691
 30
0.0
 70
    32
  0
VERTEX
  5
E8869
330
E8845
100
AcDbEntity
  8
1
100
AcDbVertex
100
AcDb3dPolylineVertex
 10
3.884261
 20
8.764400999999999
 30
0.0
 70
    32
  0
VERTEX
  5
E886A
330
E8845
100
AcDbEntity
  8
1
100
AcDbVertex
100
AcDb3dPolylineVertex
 10
3.911337999999998
 20
8.577403999999999
 30
0.0
 70
    32
  0
VERTEX
  5
E886B
330
E8845
100
AcDbEntity
  8
1
100
AcDbVertex
100
AcDb3dPolylineVertex
 10
3.942066999999998
 20
8.390952999999999
 30
0.0
 70
    32
  0
VERTEX
  5
E886C
330
E8845
100
AcDbEntity
  8
1
100
AcDbVertex
100
AcDb3dPolylineVertex
 10
3.972795999999997
 20
8.204501999999997
 30
0.0
 70
    32
  0
VERTEX
  5
E886D
330
E8845
100
AcDbEntity
  8
1
100
AcDbVertex
100
AcDb3dPolylineVertex
 10
4.003525999999999
 20
8.018050999999998
 30
0.0
 70
    32
  0
VERTEX
  5
E886E
330
E8845
100
AcDbEntity
  8
1
100
AcDbVertex
100
AcDb3dPolylineVertex
 10
4.035537999999998
 20
7.831828999999999
 30
0.0
 70
    32
  0
VERTEX
  5
E886F
330
E8845
100
AcDbEntity
  8
1
100
AcDbVertex
100
AcDb3dPolylineVertex
 10
4.071418000000001
 20
7.646300999999997
 30
0.0
 70
    32
  0
VERTEX
  5
E8870
330
E8845
100
AcDbEntity
  8
1
100
AcDbVertex
100
AcDb3dPolylineVertex
 10
4.107298000000001
 20
7.460772
 30
0.0
 70
    32
  0
VERTEX
  5
E8871
330
E8845
100
AcDbEntity
  8
1
100
AcDbVertex
100
AcDb3dPolylineVertex
 10
4.143176999999997
 20
7.275242999999997
 30
0.0
 70
    32
  0
VERTEX
  5
E8872
330
E8845
100
AcDbEntity
  8
1
100
AcDbVertex
100
AcDb3dPolylineVertex
 10
4.179057
 20
7.089713999999997
 30
0.0
 70
    32
  0
VERTEX
  5
E8873
330
E8845
100
AcDbEntity
  8
1
100
AcDbVertex
100
AcDb3dPolylineVertex
 10
4.217814999999998
 20
6.904786999999998
 30
0.0
 70
    32
  0
VERTEX
  5
E8874
330
E8845
100
AcDbEntity
  8
1
100
AcDbVertex
100
AcDb3dPolylineVertex
 10
4.259196
 20
6.720407
 30
0.0
 70
    32
  0
VERTEX
  5
E8875
330
E8845
100
AcDbEntity
  8
1
100
AcDbVertex
100
AcDb3dPolylineVertex
 10
4.300576999999996
 20
6.536026999999998
 30
0.0
 70
    32
  0
VERTEX
  5
E8876
330
E8845
100
AcDbEntity
  8
1
100
AcDbVertex
100
AcDb3dPolylineVertex
 10
4.341957999999999
 20
6.351646999999998
 30
0.0
 70
    32
  0
VERTEX
  5
E8877
330
E8845
100
AcDbEntity
  8
1
100
AcDbVertex
100
AcDb3dPolylineVertex
 10
4.383339
 20
6.167267999999999
 30
0.0
 70
    32
  0
VERTEX
  5
E8878
330
E8845
100
AcDbEntity
  8
1
100
AcDbVertex
100
AcDb3dPolylineVertex
 10
4.429183999999998
 20
5.983959999999997
 30
0.0
 70
    32
  0
VERTEX
  5
E8879
330
E8845
100
AcDbEntity
  8
1
100
AcDbVertex
100
AcDb3dPolylineVertex
 10
4.476029
 20
5.800892
 30
0.0
 70
    32
  0
VERTEX
  5
E887A
330
E8845
100
AcDbEntity
  8
1
100
AcDbVertex
100
AcDb3dPolylineVertex
 10
4.522873999999998
 20
5.617823999999997
 30
0.0
 70
    32
  0
VERTEX
  5
E887B
330
E8845
100
AcDbEntity
  8
1
100
AcDbVertex
100
AcDb3dPolylineVertex
 10
4.569719999999998
 20
5.434757
 30
0.0
 70
    32
  0
VERTEX
  5
E887C
330
E8845
100
AcDbEntity
  8
1
100
AcDbVertex
100
AcDb3dPolylineVertex
 10
4.616565
 20
5.251688999999998
 30
0.0
 70
    32
  0
VERTEX
  5
E887D
330
E8845
100
AcDbEntity
  8
1
100
AcDbVertex
100
AcDb3dPolylineVertex
 10
4.663409999999998
 20
5.068621
 30
0.0
 70
    32
  0
SEQEND
  5
E887E
330
E8845
100
AcDbEntity
  8
1
  0
POLYLINE
  5
E887F
330
18
100
AcDbEntity
  8
1
100
AcDb3dPolyline
 66
     1
 10
0.0
 20
0.0
 30
0.0
 70
     8
  0
VERTEX
  5
E8880
330
E887F
100
AcDbEntity
  8
1
100
AcDbVertex
100
AcDb3dPolylineVertex
 10
12.802677
 20
-14.387495
 30
0.0
 70
    32
  0
VERTEX
  5
E8881
330
E887F
100
AcDbEntity
  8
1
100
AcDbVertex
100
AcDb3dPolylineVertex
 10
12.812745
 20
-14.467568
 30
0.0
 70
    32
  0
VERTEX
  5
E8882
330
E887F
100
AcDbEntity
  8
1
100
AcDbVertex
100
AcDb3dPolylineVertex
 10
12.822813
 20
-14.547641
 30
0.0
 70
    32
  0
VERTEX
  5
E8883
330
E887F
100
AcDbEntity
  8
1
100
AcDbVertex
100
AcDb3dPolylineVertex
 10
12.840491
 20
-14.625909
 30
0.0
 70
    32
  0
VERTEX
  5
E8884
330
E887F
100
AcDbEntity
  8
1
100
AcDbVertex
100
AcDb3dPolylineVertex
 10
12.86743699999999
 20
-14.701981
 30
0.0
 70
    32
  0
VERTEX
  5
E8885
330
E887F
100
AcDbEntity
  8
1
100
AcDbVertex
100
AcDb3dPolylineVertex
 10
12.90316
 20
-14.77408
 30
0.0
 70
    32
  0
VERTEX
  5
E8886
330
E887F
100
AcDbEntity
  8
1
100
AcDbVertex
100
AcDb3dPolylineVertex
 10
12.942802
 20
-14.844336
 30
0.0
 70
    32
  0
VERTEX
  5
E8887
330
E887F
100
AcDbEntity
  8
1
100
AcDbVertex
100
AcDb3dPolylineVertex
 10
12.996558
 20
-14.90453
 30
0.0
 70
    32
  0
VERTEX
  5
E8888
330
E887F
100
AcDbEntity
  8
1
100
AcDbVertex
100
AcDb3dPolylineVertex
 10
13.050313
 20
-14.964725
 30
0.0
 70
    32
  0
VERTEX
  5
E8889
330
E887F
100
AcDbEntity
  8
1
100
AcDbVertex
100
AcDb3dPolylineVertex
 10
13.104069
 20
-15.024919
 30
0.0
 70
    32
  0
VERTEX
  5
E888A
330
E887F
100
AcDbEntity
  8
1
100
AcDbVertex
100
AcDb3dPolylineVertex
 10
13.166297
 20
-15.075642
 30
0.0
 70
    32
  0
VERTEX
  5
E888B
330
E887F
100
AcDbEntity
  8
1
100
AcDbVertex
100
AcDb3dPolylineVertex
 10
13.232085
 20
-15.122386
 30
0.0
 70
    32
  0
VERTEX
  5
E888C
330
E887F
100
AcDbEntity
  8
1
100
AcDbVertex
100
AcDb3dPolylineVertex
 10
13.297872
 20
-15.16913
 30
0.0
 70
    32
  0
VERTEX
  5
E888D
330
E887F
100
AcDbEntity
  8
1
100
AcDbVertex
100
AcDb3dPolylineVertex
 10
13.366116
 20
-15.211836
 30
0.0
 70
    32
  0
VERTEX
  5
E888E
330
E887F
100
AcDbEntity
  8
1
100
AcDbVertex
100
AcDb3dPolylineVertex
 10
13.437877
 20
-15.24876
 30
0.0
 70
    32
  0
VERTEX
  5
E888F
330
E887F
100
AcDbEntity
  8
1
100
AcDbVertex
100
AcDb3dPolylineVertex
 10
13.509638
 20
-15.285684
 30
0.0
 70
    32
  0
VERTEX
  5
E8890
330
E887F
100
AcDbEntity
  8
1
100
AcDbVertex
100
AcDb3dPolylineVertex
 10
13.583885
 20
-15.317124
 30
0.0
 70
    32
  0
VERTEX
  5
E8891
330
E887F
100
AcDbEntity
  8
1
100
AcDbVertex
100
AcDb3dPolylineVertex
 10
13.65895
 20
-15.34676
 30
0.0
 70
    32
  0
VERTEX
  5
E8892
330
E887F
100
AcDbEntity
  8
1
100
AcDbVertex
100
AcDb3dPolylineVertex
 10
13.734271
 20
-15.375624
 30
0.0
 70
    32
  0
VERTEX
  5
E8893
330
E887F
100
AcDbEntity
  8
1
100
AcDbVertex
100
AcDb3dPolylineVertex
 10
13.81216
 20
-15.396751
 30
0.0
 70
    32
  0
VERTEX
  5
E8894
330
E887F
100
AcDbEntity
  8
1
100
AcDbVertex
100
AcDb3dPolylineVertex
 10
13.89004899999999
 20
-15.417877
 30
0.0
 70
    32
  0
VERTEX
  5
E8895
330
E887F
100
AcDbEntity
  8
1
100
AcDbVertex
100
AcDb3dPolylineVertex
 10
13.967937
 20
-15.439004
 30
0.0
 70
    32
  0
VERTEX
  5
E8896
330
E887F
100
AcDbEntity
  8
1
100
AcDbVertex
100
AcDb3dPolylineVertex
 10
14.045826
 20
-15.46013
 30
0.0
 70
    32
  0
VERTEX
  5
E8897
330
E887F
100
AcDbEntity
  8
1
100
AcDbVertex
100
AcDb3dPolylineVertex
 10
14.123715
 20
-15.481257
 30
0.0
 70
    32
  0
VERTEX
  5
E8898
330
E887F
100
AcDbEntity
  8
1
100
AcDbVertex
100
AcDb3dPolylineVertex
 10
14.202792
 20
-15.49701
 30
0.0
 70
    32
  0
VERTEX
  5
E8899
330
E887F
100
AcDbEntity
  8
1
100
AcDbVertex
100
AcDb3dPolylineVertex
 10
14.282328
 20
-15.510685
 30
0.0
 70
    32
  0
VERTEX
  5
E889A
330
E887F
100
AcDbEntity
  8
1
100
AcDbVertex
100
AcDb3dPolylineVertex
 10
14.36186499999999
 20
-15.52436
 30
0.0
 70
    32
  0
VERTEX
  5
E889B
330
E887F
100
AcDbEntity
  8
1
100
AcDbVertex
100
AcDb3dPolylineVertex
 10
14.441401
 20
-15.538035
 30
0.0
 70
    32
  0
VERTEX
  5
E889C
330
E887F
100
AcDbEntity
  8
1
100
AcDbVertex
100
AcDb3dPolylineVertex
 10
14.52093699999999
 20
-15.551709
 30
0.0
 70
    32
  0
VERTEX
  5
E889D
330
E887F
100
AcDbEntity
  8
1
100
AcDbVertex
100
AcDb3dPolylineVertex
 10
14.600473
 20
-15.565384
 30
0.0
 70
    32
  0
VERTEX
  5
E889E
330
E887F
100
AcDbEntity
  8
1
100
AcDbVertex
100
AcDb3dPolylineVertex
 10
14.68001
 20
-15.579059
 30
0.0
 70
    32
  0
VERTEX
  5
E889F
330
E887F
100
AcDbEntity
  8
1
100
AcDbVertex
100
AcDb3dPolylineVertex
 10
14.759829
 20
-15.59084
 30
0.0
 70
    32
  0
VERTEX
  5
E88A0
330
E887F
100
AcDbEntity
  8
1
100
AcDbVertex
100
AcDb3dPolylineVertex
 10
14.83988599999999
 20
-15.601033
 30
0.0
 70
    32
  0
VERTEX
  5
E88A1
330
E887F
100
AcDbEntity
  8
1
100
AcDbVertex
100
AcDb3dPolylineVertex
 10
14.919943
 20
-15.611225
 30
0.0
 70
    32
  0
VERTEX
  5
E88A2
330
E887F
100
AcDbEntity
  8
1
100
AcDbVertex
100
AcDb3dPolylineVertex
 10
15.0
 20
-15.621418
 30
0.0
 70
    32
  0
SEQEND
  5
E88A3
330
E887F
100
AcDbEntity
  8
1
  0
POLYLINE
  5
E88A4
330
18
100
AcDbEntity
  8
1
100
AcDb3dPolyline
 66
     1
 10
0.0
 20
0.0
 30
0.0
 70
     8
  0
VERTEX
  5
E88A5
330
E88A4
100
AcDbEntity
  8
1
100
AcDbVertex
100
AcDb3dPolylineVertex
 10
7.336589999999997
 20
15.175958
 30
0.0
 70
    32
  0
VERTEX
  5
E88A6
330
E88A4
100
AcDbEntity
  8
1
100
AcDbVertex
100
AcDb3dPolylineVertex
 10
7.467147999999999
 20
14.991548
 30
0.0
 70
    32
  0
VERTEX
  5
E88A7
330
E88A4
100
AcDbEntity
  8
1
100
AcDbVertex
100
AcDb3dPolylineVertex
 10
7.593666999999999
 20
14.804567
 30
0.0
 70
    32
  0
VERTEX
  5
E88A8
330
E88A4
100
AcDbEntity
  8
1
100
AcDbVertex
100
AcDb3dPolylineVertex
 10
7.700922000000001
 20
14.605831
 30
0.0
 70
    32
  0
VERTEX
  5
E88A9
330
E88A4
100
AcDbEntity
  8
1
100
AcDbVertex
100
AcDb3dPolylineVertex
 10
7.798886000000001
 20
14.402224
 30
0.0
 70
    32
  0
VERTEX
  5
E88AA
330
E88A4
100
AcDbEntity
  8
1
100
AcDbVertex
100
AcDb3dPolylineVertex
 10
7.882759
 20
14.192489
 30
0.0
 70
    32
  0
VERTEX
  5
E88AB
330
E88A4
100
AcDbEntity
  8
1
100
AcDbVertex
100
AcDb3dPolylineVertex
 10
7.955265999999999
 20
13.978768
 30
0.0
 70
    32
  0
VERTEX
  5
E88AC
330
E88A4
100
AcDbEntity
  8
1
100
AcDbVertex
100
AcDb3dPolylineVertex
 10
8.016688999999999
 20
13.761329
 30
0.0
 70
    32
  0
VERTEX
  5
E88AD
330
E88A4
100
AcDbEntity
  8
1
100
AcDbVertex
100
AcDb3dPolylineVertex
 10
8.078113
 20
13.543889
 30
0.0
 70
    32
  0
VERTEX
  5
E88AE
330
E88A4
100
AcDbEntity
  8
1
100
AcDbVertex
100
AcDb3dPolylineVertex
 10
8.126088000000001
 20
13.32335
 30
0.0
 70
    32
  0
VERTEX
  5
E88AF
330
E88A4
100
AcDbEntity
  8
1
100
AcDbVertex
100
AcDb3dPolylineVertex
 10
8.166043999999999
 20
13.100963
 30
0.0
 70
    32
  0
VERTEX
  5
E88B0
330
E88A4
100
AcDbEntity
  8
1
100
AcDbVertex
100
AcDb3dPolylineVertex
 10
8.206000999999996
 20
12.878575
 30
0.0
 70
    32
  0
VERTEX
  5
E88B1
330
E88A4
100
AcDbEntity
  8
1
100
AcDbVertex
100
AcDb3dPolylineVertex
 10
8.233584999999997
 20
12.654409
 30
0.0
 70
    32
  0
VERTEX
  5
E88B2
330
E88A4
100
AcDbEntity
  8
1
100
AcDbVertex
100
AcDb3dPolylineVertex
 10
8.257913999999999
 20
12.429774
 30
0.0
 70
    32
  0
VERTEX
  5
E88B3
330
E88A4
100
AcDbEntity
  8
1
100
AcDbVertex
100
AcDb3dPolylineVertex
 10
8.282242999999999
 20
12.205139
 30
0.0
 70
    32
  0
VERTEX
  5
E88B4
330
E88A4
100
AcDbEntity
  8
1
100
AcDbVertex
100
AcDb3dPolylineVertex
 10
8.293732
 20
11.979513
 30
0.0
 70
    32
  0
VERTEX
  5
E88B5
330
E88A4
100
AcDbEntity
  8
1
100
AcDbVertex
100
AcDb3dPolylineVertex
 10
8.304166
 20
11.753806
 30
0.0
 70
    32
  0
VERTEX
  5
E88B6
330
E88A4
100
AcDbEntity
  8
1
100
AcDbVertex
100
AcDb3dPolylineVertex
 10
8.313936999999999
 20
11.528086
 30
0.0
 70
    32
  0
VERTEX
  5
E88B7
330
E88A4
100
AcDbEntity
  8
1
100
AcDbVertex
100
AcDb3dPolylineVertex
 10
8.312307
 20
11.302143
 30
0.0
 70
    32
  0
VERTEX
  5
E88B8
330
E88A4
100
AcDbEntity
  8
1
100
AcDbVertex
100
AcDb3dPolylineVertex
 10
8.310677999999999
 20
11.076201
 30
0.0
 70
    32
  0
VERTEX
  5
E88B9
330
E88A4
100
AcDbEntity
  8
1
100
AcDbVertex
100
AcDb3dPolylineVertex
 10
8.307219999999999
 20
10.850313
 30
0.0
 70
    32
  0
VERTEX
  5
E88BA
330
E88A4
100
AcDbEntity
  8
1
100
AcDbVertex
100
AcDb3dPolylineVertex
 10
8.295392999999997
 20
10.624674
 30
0.0
 70
    32
  0
VERTEX
  5
E88BB
330
E88A4
100
AcDbEntity
  8
1
100
AcDbVertex
100
AcDb3dPolylineVertex
 10
8.283566999999999
 20
10.399035
 30
0.0
 70
    32
  0
VERTEX
  5
E88BC
330
E88A4
100
AcDbEntity
  8
1
100
AcDbVertex
100
AcDb3dPolylineVertex
 10
8.268292
 20
10.173667
 30
0.0
 70
    32
  0
VERTEX
  5
E88BD
330
E88A4
100
AcDbEntity
  8
1
100
AcDbVertex
100
AcDb3dPolylineVertex
 10
8.244825
 20
9.948939999999996
 30
0.0
 70
    32
  0
VERTEX
  5
E88BE
330
E88A4
100
AcDbEntity
  8
1
100
AcDbVertex
100
AcDb3dPolylineVertex
 10
8.221358
 20
9.724213999999999
 30
0.0
 70
    32
  0
VERTEX
  5
E88BF
330
E88A4
100
AcDbEntity
  8
1
100
AcDbVertex
100
AcDb3dPolylineVertex
 10
8.197891
 20
9.499487
 30
0.0
 70
    32
  0
VERTEX
  5
E88C0
330
E88A4
100
AcDbEntity
  8
1
100
AcDbVertex
100
AcDb3dPolylineVertex
 10
8.174424
 20
9.274760999999999
 30
0.0
 70
    32
  0
VERTEX
  5
E88C1
330
E88A4
100
AcDbEntity
  8
1
100
AcDbVertex
100
AcDb3dPolylineVertex
 10
8.150957
 20
9.050034
 30
0.0
 70
    32
  0
VERTEX
  5
E88C2
330
E88A4
100
AcDbEntity
  8
1
100
AcDbVertex
100
AcDb3dPolylineVertex
 10
8.121966
 20
8.826017999999997
 30
0.0
 70
    32
  0
VERTEX
  5
E88C3
330
E88A4
100
AcDbEntity
  8
1
100
AcDbVertex
100
AcDb3dPolylineVertex
 10
8.087855000000001
 20
8.602658999999999
 30
0.0
 70
    32
  0
VERTEX
  5
E88C4
330
E88A4
100
AcDbEntity
  8
1
100
AcDbVertex
100
AcDb3dPolylineVertex
 10
8.053742999999997
 20
8.379300999999998
 30
0.0
 70
    32
  0
VERTEX
  5
E88C5
330
E88A4
100
AcDbEntity
  8
1
100
AcDbVertex
100
AcDb3dPolylineVertex
 10
8.019631
 20
8.155941999999999
 30
0.0
 70
    32
  0
VERTEX
  5
E88C6
330
E88A4
100
AcDbEntity
  8
1
100
AcDbVertex
100
AcDb3dPolylineVertex
 10
7.984628999999999
 20
7.932739999999997
 30
0.0
 70
    32
  0
VERTEX
  5
E88C7
330
E88A4
100
AcDbEntity
  8
1
100
AcDbVertex
100
AcDb3dPolylineVertex
 10
7.940585999999997
 20
7.711125999999997
 30
0.0
 70
    32
  0
VERTEX
  5
E88C8
330
E88A4
100
AcDbEntity
  8
1
100
AcDbVertex
100
AcDb3dPolylineVertex
 10
7.896542999999997
 20
7.489510999999997
 30
0.0
 70
    32
  0
VERTEX
  5
E88C9
330
E88A4
100
AcDbEntity
  8
1
100
AcDbVertex
100
AcDb3dPolylineVertex
 10
7.8525
 20
7.267896999999997
 30
0.0
 70
    32
  0
VERTEX
  5
E88CA
330
E88A4
100
AcDbEntity
  8
1
100
AcDbVertex
100
AcDb3dPolylineVertex
 10
7.808455999999997
 20
7.046282999999997
 30
0.0
 70
    32
  0
VERTEX
  5
E88CB
330
E88A4
100
AcDbEntity
  8
1
100
AcDbVertex
100
AcDb3dPolylineVertex
 10
7.764413
 20
6.824667999999997
 30
0.0
 70
    32
  0
VERTEX
  5
E88CC
330
E88A4
100
AcDbEntity
  8
1
100
AcDbVertex
100
AcDb3dPolylineVertex
 10
7.717954999999999
 20
6.603593999999997
 30
0.0
 70
    32
  0
VERTEX
  5
E88CD
330
E88A4
100
AcDbEntity
  8
1
100
AcDbVertex
100
AcDb3dPolylineVertex
 10
7.663474
 20
6.384311999999997
 30
0.0
 70
    32
  0
VERTEX
  5
E88CE
330
E88A4
100
AcDbEntity
  8
1
100
AcDbVertex
100
AcDb3dPolylineVertex
 10
7.608994
 20
6.165029999999998
 30
0.0
 70
    32
  0
VERTEX
  5
E88CF
330
E88A4
100
AcDbEntity
  8
1
100
AcDbVertex
100
AcDb3dPolylineVertex
 10
7.554513
 20
5.945747999999999
 30
0.0
 70
    32
  0
VERTEX
  5
E88D0
330
E88A4
100
AcDbEntity
  8
1
100
AcDbVertex
100
AcDb3dPolylineVertex
 10
7.500032
 20
5.726466999999997
 30
0.0
 70
    32
  0
VERTEX
  5
E88D1
330
E88A4
100
AcDbEntity
  8
1
100
AcDbVertex
100
AcDb3dPolylineVertex
 10
7.445550999999999
 20
5.507184999999997
 30
0.0
 70
    32
  0
VERTEX
  5
E88D2
330
E88A4
100
AcDbEntity
  8
1
100
AcDbVertex
100
AcDb3dPolylineVertex
 10
7.391071000000001
 20
5.287902999999999
 30
0.0
 70
    32
  0
VERTEX
  5
E88D3
330
E88A4
100
AcDbEntity
  8
1
100
AcDbVertex
100
AcDb3dPolylineVertex
 10
7.336589999999997
 20
5.068620999999998
 30
0.0
 70
    32
  0
SEQEND
  5
E88D4
330
E88A4
100
AcDbEntity
  8
1
  0
POLYLINE
  5
E88D5
330
18
100
AcDbEntity
  8
1
100
AcDb3dPolyline
 66
     1
 10
0.0
 20
0.0
 30
0.0
 70
     8
  0
VERTEX
  5
E88D6
330
E88D5
100
AcDbEntity
  8
1
100
AcDbVertex
100
AcDb3dPolylineVertex
 10
15.955208
 20
19.476147
 30
0.0
 70
    32
  0
VERTEX
  5
E88D7
330
E88D5
100
AcDbEntity
  8
1
100
AcDbVertex
100
AcDb3dPolylineVertex
 10
15.636805
 20
18.26957
 30
0.0
 70
    32
  0
VERTEX
  5
E88D8
330
E88D5
100
AcDbEntity
  8
1
100
AcDbVertex
100
AcDb3dPolylineVertex
 10
15.318403
 20
17.062992
 30
0.0
 70
    32
  0
VERTEX
  5
E88D9
330
E88D5
100
AcDbEntity
  8
1
100
AcDbVertex
100
AcDb3dPolylineVertex
 10
15.0
 20
15.856415
 30
0.0
 70
    32
  0
SEQEND
  5
E88DA
330
E88D5
100
AcDbEntity
  8
1
  0
POLYLINE
  5
E88DB
330
18
100
AcDbEntity
  8
1
100
AcDb3dPolyline
 66
     1
 10
0.0
 20
0.0
 30
0.0
 70
     8
  0
VERTEX
  5
E88DC
330
E88DB
100
AcDbEntity
  8
1
100
AcDbVertex
100
AcDb3dPolylineVertex
 10
15.0
 20
15.621958
 30
0.0
 70
    32
  0
VERTEX
  5
E88DD
330
E88DB
100
AcDbEntity
  8
1
100
AcDbVertex
100
AcDb3dPolylineVertex
 10
14.926374
 20
15.612288
 30
0.0
 70
    32
  0
VERTEX
  5
E88DE
330
E88DB
100
AcDbEntity
  8
1
100
AcDbVertex
100
AcDb3dPolylineVertex
 10
14.852748
 20
15.602617
 30
0.0
 70
    32
  0
VERTEX
  5
E88DF
330
E88DB
100
AcDbEntity
  8
1
100
AcDbVertex
100
AcDb3dPolylineVertex
 10
14.779122
 20
15.592947
 30
0.0
 70
    32
  0
VERTEX
  5
E88E0
330
E88DB
100
AcDbEntity
  8
1
100
AcDbVertex
100
AcDb3dPolylineVertex
 10
14.705496
 20
15.58327699999999
 30
0.0
 70
    32
  0
VERTEX
  5
E88E1
330
E88DB
100
AcDbEntity
  8
1
100
AcDbVertex
100
AcDb3dPolylineVertex
 10
14.63187
 20
15.573606
 30
0.0
 70
    32
  0
VERTEX
  5
E88E2
330
E88DB
100
AcDbEntity
  8
1
100
AcDbVertex
100
AcDb3dPolylineVertex
 10
14.558351
 20
15.56325
 30
0.0
 70
    32
  0
VERTEX
  5
E88E3
330
E88DB
100
AcDbEntity
  8
1
100
AcDbVertex
100
AcDb3dPolylineVertex
 10
14.485292
 20
15.549958
 30
0.0
 70
    32
  0
VERTEX
  5
E88E4
330
E88DB
100
AcDbEntity
  8
1
100
AcDbVertex
100
AcDb3dPolylineVertex
 10
14.412233
 20
15.536665
 30
0.0
 70
    32
  0
VERTEX
  5
E88E5
330
E88DB
100
AcDbEntity
  8
1
100
AcDbVertex
100
AcDb3dPolylineVertex
 10
14.339174
 20
15.523373
 30
0.0
 70
    32
  0
VERTEX
  5
E88E6
330
E88DB
100
AcDbEntity
  8
1
100
AcDbVertex
100
AcDb3dPolylineVertex
 10
14.266115
 20
15.51008
 30
0.0
 70
    32
  0
VERTEX
  5
E88E7
330
E88DB
100
AcDbEntity
  8
1
100
AcDbVertex
100
AcDb3dPolylineVertex
 10
14.193056
 20
15.496788
 30
0.0
 70
    32
  0
VERTEX
  5
E88E8
330
E88DB
100
AcDbEntity
  8
1
100
AcDbVertex
100
AcDb3dPolylineVertex
 10
14.120522
 20
15.481174
 30
0.0
 70
    32
  0
VERTEX
  5
E88E9
330
E88DB
100
AcDbEntity
  8
1
100
AcDbVertex
100
AcDb3dPolylineVertex
 10
14.048849
 20
15.46175
 30
0.0
 70
    32
  0
VERTEX
  5
E88EA
330
E88DB
100
AcDbEntity
  8
1
100
AcDbVertex
100
AcDb3dPolylineVertex
 10
13.977176
 20
15.442326
 30
0.0
 70
    32
  0
VERTEX
  5
E88EB
330
E88DB
100
AcDbEntity
  8
1
100
AcDbVertex
100
AcDb3dPolylineVertex
 10
13.905503
 20
15.422902
 30
0.0
 70
    32
  0
VERTEX
  5
E88EC
330
E88DB
100
AcDbEntity
  8
1
100
AcDbVertex
100
AcDb3dPolylineVertex
 10
13.83383
 20
15.403478
 30
0.0
 70
    32
  0
VERTEX
  5
E88ED
330
E88DB
100
AcDbEntity
  8
1
100
AcDbVertex
100
AcDb3dPolylineVertex
 10
13.762157
 20
15.384054
 30
0.0
 70
    32
  0
VERTEX
  5
E88EE
330
E88DB
100
AcDbEntity
  8
1
100
AcDbVertex
100
AcDb3dPolylineVertex
 10
13.691661
 20
15.360974
 30
0.0
 70
    32
  0
VERTEX
  5
E88EF
330
E88DB
100
AcDbEntity
  8
1
100
AcDbVertex
100
AcDb3dPolylineVertex
 10
13.622117
 20
15.334938
 30
0.0
 70
    32
  0
VERTEX
  5
E88F0
330
E88DB
100
AcDbEntity
  8
1
100
AcDbVertex
100
AcDb3dPolylineVertex
 10
13.552572
 20
15.308901
 30
0.0
 70
    32
  0
VERTEX
  5
E88F1
330
E88DB
100
AcDbEntity
  8
1
100
AcDbVertex
100
AcDb3dPolylineVertex
 10
13.485542
 20
15.277096
 30
0.0
 70
    32
  0
VERTEX
  5
E88F2
330
E88DB
100
AcDbEntity
  8
1
100
AcDbVertex
100
AcDb3dPolylineVertex
 10
13.419129
 20
15.243875
 30
0.0
 70
    32
  0
VERTEX
  5
E88F3
330
E88DB
100
AcDbEntity
  8
1
100
AcDbVertex
100
AcDb3dPolylineVertex
 10
13.353034
 20
15.210112
 30
0.0
 70
    32
  0
VERTEX
  5
E88F4
330
E88DB
100
AcDbEntity
  8
1
100
AcDbVertex
100
AcDb3dPolylineVertex
 10
13.291634
 20
15.168347
 30
0.0
 70
    32
  0
VERTEX
  5
E88F5
330
E88DB
100
AcDbEntity
  8
1
100
AcDbVertex
100
AcDb3dPolylineVertex
 10
13.230234
 20
15.126582
 30
0.0
 70
    32
  0
VERTEX
  5
E88F6
330
E88DB
100
AcDbEntity
  8
1
100
AcDbVertex
100
AcDb3dPolylineVertex
 10
13.170249
 20
15.083039
 30
0.0
 70
    32
  0
VERTEX
  5
E88F7
330
E88DB
100
AcDbEntity
  8
1
100
AcDbVertex
100
AcDb3dPolylineVertex
 10
13.115767
 20
15.03258
 30
0.0
 70
    32
  0
VERTEX
  5
E88F8
330
E88DB
100
AcDbEntity
  8
1
100
AcDbVertex
100
AcDb3dPolylineVertex
 10
13.061286
 20
14.982121
 30
0.0
 70
    32
  0
VERTEX
  5
E88F9
330
E88DB
100
AcDbEntity
  8
1
100
AcDbVertex
100
AcDb3dPolylineVertex
 10
13.006805
 20
14.931662
 30
0.0
 70
    32
  0
VERTEX
  5
E88FA
330
E88DB
100
AcDbEntity
  8
1
100
AcDbVertex
100
AcDb3dPolylineVertex
 10
12.964604
 20
14.870935
 30
0.0
 70
    32
  0
VERTEX
  5
E88FB
330
E88DB
100
AcDbEntity
  8
1
100
AcDbVertex
100
AcDb3dPolylineVertex
 10
12.92459
 20
14.80838
 30
0.0
 70
    32
  0
VERTEX
  5
E88FC
330
E88DB
100
AcDbEntity
  8
1
100
AcDbVertex
100
AcDb3dPolylineVertex
 10
12.884576
 20
14.745825
 30
0.0
 70
    32
  0
VERTEX
  5
E88FD
330
E88DB
100
AcDbEntity
  8
1
100
AcDbVertex
100
AcDb3dPolylineVertex
 10
12.854873
 20
14.678326
 30
0.0
 70
    32
  0
VERTEX
  5
E88FE
330
E88DB
100
AcDbEntity
  8
1
100
AcDbVertex
100
AcDb3dPolylineVertex
 10
12.83116
 20
14.607955
 30
0.0
 70
    32
  0
VERTEX
  5
E88FF
330
E88DB
100
AcDbEntity
  8
1
100
AcDbVertex
100
AcDb3dPolylineVertex
 10
12.818743
 20
14.534836
 30
0.0
 70
    32
  0
VERTEX
  5
E8900
330
E88DB
100
AcDbEntity
  8
1
100
AcDbVertex
100
AcDb3dPolylineVertex
 10
12.807465
 20
14.461438
 30
0.0
 70
    32
  0
VERTEX
  5
E8901
330
E88DB
100
AcDbEntity
  8
1
100
AcDbVertex
100
AcDb3dPolylineVertex
 10
12.802677
 20
14.387495
 30
0.0
 70
    32
  0
SEQEND
  5
E8902
330
E88DB
100
AcDbEntity
  8
1
  0
POLYLINE
  5
E8903
330
18
100
AcDbEntity
  8
1
100
AcDb3dPolyline
 66
     1
 10
0.0
 20
0.0
 30
0.0
 70
     8
  0
VERTEX
  5
E8904
330
E8903
100
AcDbEntity
  8
1
100
AcDbVertex
100
AcDb3dPolylineVertex
 10
4.663409999999998
 20
-15.175958
 30
0.0
 70
    32
  0
VERTEX
  5
E8905
330
E8903
100
AcDbEntity
  8
1
100
AcDbVertex
100
AcDb3dPolylineVertex
 10
4.551992999999998
 20
-15.023473
 30
0.0
 70
    32
  0
VERTEX
  5
E8906
330
E8903
100
AcDbEntity
  8
1
100
AcDbVertex
100
AcDb3dPolylineVertex
 10
4.445829999999999
 20
-14.867147
 30
0.0
 70
    32
  0
VERTEX
  5
E8907
330
E8903
100
AcDbEntity
  8
1
100
AcDbVertex
100
AcDb3dPolylineVertex
 10
4.352363999999997
 20
-14.70307
 30
0.0
 70
    32
  0
VERTEX
  5
E8908
330
E8903
100
AcDbEntity
  8
1
100
AcDbVertex
100
AcDb3dPolylineVertex
 10
4.263561999999998
 20
-14.536352
 30
0.0
 70
    32
  0
VERTEX
  5
E8909
330
E8903
100
AcDbEntity
  8
1
100
AcDbVertex
100
AcDb3dPolylineVertex
 10
4.187461999999999
 20
-14.363386
 30
0.0
 70
    32
  0
VERTEX
  5
E890A
330
E8903
100
AcDbEntity
  8
1
100
AcDbVertex
100
AcDb3dPolylineVertex
 10
4.116782999999998
 20
-14.18827
 30
0.0
 70
    32
  0
VERTEX
  5
E890B
330
E8903
100
AcDbEntity
  8
1
100
AcDbVertex
100
AcDb3dPolylineVertex
 10
4.053619999999996
 20
-14.010172
 30
0.0
 70
    32
  0
VERTEX
  5
E890C
330
E8903
100
AcDbEntity
  8
1
100
AcDbVertex
100
AcDb3dPolylineVertex
 10
4.001839999999996
 20
-13.828601
 30
0.0
 70
    32
  0
VERTEX
  5
E890D
330
E8903
100
AcDbEntity
  8
1
100
AcDbVertex
100
AcDb3dPolylineVertex
 10
3.954786999999998
 20
-13.645587
 30
0.0
 70
    32
  0
VERTEX
  5
E890E
330
E8903
100
AcDbEntity
  8
1
100
AcDbVertex
100
AcDb3dPolylineVertex
 10
3.907732999999998
 20
-13.462572
 30
0.0
 70
    32
  0
VERTEX
  5
E890F
330
E8903
100
AcDbEntity
  8
1
100
AcDbVertex
100
AcDb3dPolylineVertex
 10
3.864799999999998
 20
-13.278683
 30
0.0
 70
    32
  0
VERTEX
  5
E8910
330
E8903
100
AcDbEntity
  8
1
100
AcDbVertex
100
AcDb3dPolylineVertex
 10
3.833448999999998
 20
-13.092336
 30
0.0
 70
    32
  0
VERTEX
  5
E8911
330
E8903
100
AcDbEntity
  8
1
100
AcDbVertex
100
AcDb3dPolylineVertex
 10
3.802096999999998
 20
-12.905988
 30
0.0
 70
    32
  0
VERTEX
  5
E8912
330
E8903
100
AcDbEntity
  8
1
100
AcDbVertex
100
AcDb3dPolylineVertex
 10
3.773444999999998
 20
-12.719257
 30
0.0
 70
    32
  0
VERTEX
  5
E8913
330
E8903
100
AcDbEntity
  8
1
100
AcDbVertex
100
AcDb3dPolylineVertex
 10
3.751631999999998
 20
-12.531554
 30
0.0
 70
    32
  0
VERTEX
  5
E8914
330
E8903
100
AcDbEntity
  8
1
100
AcDbVertex
100
AcDb3dPolylineVertex
 10
3.736815999999998
 20
-12.343207
 30
0.0
 70
    32
  0
VERTEX
  5
E8915
330
E8903
100
AcDbEntity
  8
1
100
AcDbVertex
100
AcDb3dPolylineVertex
 10
3.723987999999998
 20
-12.154677
 30
0.0
 70
    32
  0
VERTEX
  5
E8916
330
E8903
100
AcDbEntity
  8
1
100
AcDbVertex
100
AcDb3dPolylineVertex
 10
3.711159999999998
 20
-11.966146
 30
0.0
 70
    32
  0
VERTEX
  5
E8917
330
E8903
100
AcDbEntity
  8
1
100
AcDbVertex
100
AcDb3dPolylineVertex
 10
3.698331999999998
 20
-11.777616
 30
0.0
 70
    32
  0
VERTEX
  5
E8918
330
E8903
100
AcDbEntity
  8
1
100
AcDbVertex
100
AcDb3dPolylineVertex
 10
3.692931999999998
 20
-11.588809
 30
0.0
 70
    32
  0
VERTEX
  5
E8919
330
E8903
100
AcDbEntity
  8
1
100
AcDbVertex
100
AcDb3dPolylineVertex
 10
3.691722999999998
 20
-11.399847
 30
0.0
 70
    32
  0
VERTEX
  5
E891A
330
E8903
100
AcDbEntity
  8
1
100
AcDbVertex
100
AcDb3dPolylineVertex
 10
3.690513999999998
 20
-11.210884
 30
0.0
 70
    32
  0
VERTEX
  5
E891B
330
E8903
100
AcDbEntity
  8
1
100
AcDbVertex
100
AcDb3dPolylineVertex
 10
3.689305999999998
 20
-11.021922
 30
0.0
 70
    32
  0
VERTEX
  5
E891C
330
E8903
100
AcDbEntity
  8
1
100
AcDbVertex
100
AcDb3dPolylineVertex
 10
3.693715999999998
 20
-10.833077
 30
0.0
 70
    32
  0
VERTEX
  5
E891D
330
E8903
100
AcDbEntity
  8
1
100
AcDbVertex
100
AcDb3dPolylineVertex
 10
3.702809999999998
 20
-10.644329
 30
0.0
 70
    32
  0
VERTEX
  5
E891E
330
E8903
100
AcDbEntity
  8
1
100
AcDbVertex
100
AcDb3dPolylineVertex
 10
3.711903999999998
 20
-10.455582
 30
0.0
 70
    32
  0
VERTEX
  5
E891F
330
E8903
100
AcDbEntity
  8
1
100
AcDbVertex
100
AcDb3dPolylineVertex
 10
3.720996999999998
 20
-10.266834
 30
0.0
 70
    32
  0
VERTEX
  5
E8920
330
E8903
100
AcDbEntity
  8
1
100
AcDbVertex
100
AcDb3dPolylineVertex
 10
3.734269999999998
 20
-10.078387
 30
0.0
 70
    32
  0
VERTEX
  5
E8921
330
E8903
100
AcDbEntity
  8
1
100
AcDbVertex
100
AcDb3dPolylineVertex
 10
3.752176999999998
 20
-9.890271
 30
0.0
 70
    32
  0
VERTEX
  5
E8922
330
E8903
100
AcDbEntity
  8
1
100
AcDbVertex
100
AcDb3dPolylineVertex
 10
3.770082999999998
 20
-9.702154999999999
 30
0.0
 70
    32
  0
VERTEX
  5
E8923
330
E8903
100
AcDbEntity
  8
1
100
AcDbVertex
100
AcDb3dPolylineVertex
 10
3.787989999999998
 20
-9.514039
 30
0.0
 70
    32
  0
VERTEX
  5
E8924
330
E8903
100
AcDbEntity
  8
1
100
AcDbVertex
100
AcDb3dPolylineVertex
 10
3.808844999999998
 20
-9.326261
 30
0.0
 70
    32
  0
VERTEX
  5
E8925
330
E8903
100
AcDbEntity
  8
1
100
AcDbVertex
100
AcDb3dPolylineVertex
 10
3.833981999999998
 20
-9.138973999999999
 30
0.0
 70
    32
  0
VERTEX
  5
E8926
330
E8903
100
AcDbEntity
  8
1
100
AcDbVertex
100
AcDb3dPolylineVertex
 10
3.859118999999998
 20
-8.951686999999997
 30
0.0
 70
    32
  0
VERTEX
  5
E8927
330
E8903
100
AcDbEntity
  8
1
100
AcDbVertex
100
AcDb3dPolylineVertex
 10
3.884255999999998
 20
-8.7644
 30
0.0
 70
    32
  0
VERTEX
  5
E8928
330
E8903
100
AcDbEntity
  8
1
100
AcDbVertex
100
AcDb3dPolylineVertex
 10
3.911263999999998
 20
-8.577392999999997
 30
0.0
 70
    32
  0
VERTEX
  5
E8929
330
E8903
100
AcDbEntity
  8
1
100
AcDbVertex
100
AcDb3dPolylineVertex
 10
3.942017999999998
 20
-8.390946000000001
 30
0.0
 70
    32
  0
VERTEX
  5
E892A
330
E8903
100
AcDbEntity
  8
1
100
AcDbVertex
100
AcDb3dPolylineVertex
 10
3.972771999999998
 20
-8.204499
 30
0.0
 70
    32
  0
VERTEX
  5
E892B
330
E8903
100
AcDbEntity
  8
1
100
AcDbVertex
100
AcDb3dPolylineVertex
 10
4.003525999999999
 20
-8.018052
 30
0.0
 70
    32
  0
VERTEX
  5
E892C
330
E8903
100
AcDbEntity
  8
1
100
AcDbVertex
100
AcDb3dPolylineVertex
 10
4.035514999999998
 20
-7.831825999999997
 30
0.0
 70
    32
  0
VERTEX
  5
E892D
330
E8903
100
AcDbEntity
  8
1
100
AcDbVertex
100
AcDb3dPolylineVertex
 10
4.071399999999997
 20
-7.646299
 30
0.0
 70
    32
  0
VERTEX
  5
E892E
330
E8903
100
AcDbEntity
  8
1
100
AcDbVertex
100
AcDb3dPolylineVertex
 10
4.107284999999999
 20
-7.460771
 30
0.0
 70
    32
  0
VERTEX
  5
E892F
330
E8903
100
AcDbEntity
  8
1
100
AcDbVertex
100
AcDb3dPolylineVertex
 10
4.143169999999996
 20
-7.275242999999997
 30
0.0
 70
    32
  0
VERTEX
  5
E8930
330
E8903
100
AcDbEntity
  8
1
100
AcDbVertex
100
AcDb3dPolylineVertex
 10
4.179054999999999
 20
-7.089714999999999
 30
0.0
 70
    32
  0
VERTEX
  5
E8931
330
E8903
100
AcDbEntity
  8
1
100
AcDbVertex
100
AcDb3dPolylineVertex
 10
4.217867
 20
-6.904799
 30
0.0
 70
    32
  0
VERTEX
  5
E8932
330
E8903
100
AcDbEntity
  8
1
100
AcDbVertex
100
AcDb3dPolylineVertex
 10
4.259218999999998
 20
-6.720411999999997
 30
0.0
 70
    32
  0
VERTEX
  5
E8933
330
E8903
100
AcDbEntity
  8
1
100
AcDbVertex
100
AcDb3dPolylineVertex
 10
4.300569999999996
 20
-6.536026
 30
0.0
 70
    32
  0
VERTEX
  5
E8934
330
E8903
100
AcDbEntity
  8
1
100
AcDbVertex
100
AcDb3dPolylineVertex
 10
4.341922
 20
-6.351639999999997
 30
0.0
 70
    32
  0
VERTEX
  5
E8935
330
E8903
100
AcDbEntity
  8
1
100
AcDbVertex
100
AcDb3dPolylineVertex
 10
4.383272999999999
 20
-6.167252999999997
 30
0.0
 70
    32
  0
VERTEX
  5
E8936
330
E8903
100
AcDbEntity
  8
1
100
AcDbVertex
100
AcDb3dPolylineVertex
 10
4.429276999999999
 20
-5.983983
 30
0.0
 70
    32
  0
VERTEX
  5
E8937
330
E8903
100
AcDbEntity
  8
1
100
AcDbVertex
100
AcDb3dPolylineVertex
 10
4.476103
 20
-5.800911
 30
0.0
 70
    32
  0
VERTEX
  5
E8938
330
E8903
100
AcDbEntity
  8
1
100
AcDbVertex
100
AcDb3dPolylineVertex
 10
4.52293
 20
-5.617837999999997
 30
0.0
 70
    32
  0
VERTEX
  5
E8939
330
E8903
100
AcDbEntity
  8
1
100
AcDbVertex
100
AcDb3dPolylineVertex
 10
4.569757
 20
-5.434766
 30
0.0
 70
    32
  0
VERTEX
  5
E893A
330
E8903
100
AcDbEntity
  8
1
100
AcDbVertex
100
AcDb3dPolylineVertex
 10
4.616583
 20
-5.251693
 30
0.0
 70
    32
  0
VERTEX
  5
E893B
330
E8903
100
AcDbEntity
  8
1
100
AcDbVertex
100
AcDb3dPolylineVertex
 10
4.663409999999998
 20
-5.068621
 30
0.0
 70
    32
  0
SEQEND
  5
E893C
330
E8903
100
AcDbEntity
  8
1
  0
POLYLINE
  5
E893D
330
18
100
AcDbEntity
  8
1
100
AcDb3dPolyline
 66
     1
 10
0.0
 20
0.0
 30
0.0
 70
     8
  0
VERTEX
  5
E893E
330
E893D
100
AcDbEntity
  8
1
100
AcDbVertex
100
AcDb3dPolylineVertex
 10
15.0
 20
-15.716234
 30
0.0
 70
    32
  0
VERTEX
  5
E893F
330
E893D
100
AcDbEntity
  8
1
100
AcDbVertex
100
AcDb3dPolylineVertex
 10
15.166683
 20
-16.348334
 30
0.0
 70
    32
  0
VERTEX
  5
E8940
330
E893D
100
AcDbEntity
  8
1
100
AcDbVertex
100
AcDb3dPolylineVertex
 10
15.333365
 20
-16.980434
 30
0.0
 70
    32
  0
VERTEX
  5
E8941
330
E893D
100
AcDbEntity
  8
1
100
AcDbVertex
100
AcDb3dPolylineVertex
 10
15.500048
 20
-17.612534
 30
0.0
 70
    32
  0
SEQEND
  5
E8942
330
E893D
100
AcDbEntity
  8
1
  0
POLYLINE
  5
E8943
330
18
100
AcDbEntity
  8
1
100
AcDb3dPolyline
 66
     1
 10
0.0
 20
0.0
 30
0.0
 70
     8
  0
VERTEX
  5
E8944
330
E8943
100
AcDbEntity
  8
1
100
AcDbVertex
100
AcDb3dPolylineVertex
 10
4.660208999999999
 20
-15.171523
 30
0.0
 70
    32
  0
VERTEX
  5
E8945
330
E8943
100
AcDbEntity
  8
1
100
AcDbVertex
100
AcDb3dPolylineVertex
 10
4.684188999999999
 20
-15.187989
 30
0.0
 70
    32
  0
VERTEX
  5
E8946
330
E8943
100
AcDbEntity
  8
1
100
AcDbVertex
100
AcDb3dPolylineVertex
 10
4.708167999999997
 20
-15.204454
 30
0.0
 70
    32
  0
VERTEX
  5
E8947
330
E8943
100
AcDbEntity
  8
1
100
AcDbVertex
100
AcDb3dPolylineVertex
 10
4.732147999999996
 20
-15.22092
 30
0.0
 70
    32
  0
VERTEX
  5
E8948
330
E8943
100
AcDbEntity
  8
1
100
AcDbVertex
100
AcDb3dPolylineVertex
 10
4.756126999999998
 20
-15.237386
 30
0.0
 70
    32
  0
VERTEX
  5
E8949
330
E8943
100
AcDbEntity
  8
1
100
AcDbVertex
100
AcDb3dPolylineVertex
 10
4.780106999999999
 20
-15.253852
 30
0.0
 70
    32
  0
VERTEX
  5
E894A
330
E8943
100
AcDbEntity
  8
1
100
AcDbVertex
100
AcDb3dPolylineVertex
 10
4.808068999999997
 20
-15.260147
 30
0.0
 70
    32
  0
VERTEX
  5
E894B
330
E8943
100
AcDbEntity
  8
1
100
AcDbVertex
100
AcDb3dPolylineVertex
 10
4.836852999999996
 20
-15.264345
 30
0.0
 70
    32
  0
VERTEX
  5
E894C
330
E8943
100
AcDbEntity
  8
1
100
AcDbVertex
100
AcDb3dPolylineVertex
 10
4.865636999999996
 20
-15.268543
 30
0.0
 70
    32
  0
VERTEX
  5
E894D
330
E8943
100
AcDbEntity
  8
1
100
AcDbVertex
100
AcDb3dPolylineVertex
 10
4.894420999999998
 20
-15.272741
 30
0.0
 70
    32
  0
VERTEX
  5
E894E
330
E8943
100
AcDbEntity
  8
1
100
AcDbVertex
100
AcDb3dPolylineVertex
 10
4.923204999999998
 20
-15.276939
 30
0.0
 70
    32
  0
SEQEND
  5
E894F
330
E8943
100
AcDbEntity
  8
1
  0
POLYLINE
  5
E8950
330
18
100
AcDbEntity
  8
1
100
AcDb3dPolyline
 66
     1
 10
0.0
 20
0.0
 30
0.0
 70
     8
  0
VERTEX
  5
E8951
330
E8950
100
AcDbEntity
  8
1
100
AcDbVertex
100
AcDb3dPolylineVertex
 10
7.336602999999997
 20
-15.175912
 30
0.0
 70
    32
  0
VERTEX
  5
E8952
330
E8950
100
AcDbEntity
  8
1
100
AcDbVertex
100
AcDb3dPolylineVertex
 10
7.319346999999997
 20
-15.189593
 30
0.0
 70
    32
  0
VERTEX
  5
E8953
330
E8950
100
AcDbEntity
  8
1
100
AcDbVertex
100
AcDb3dPolylineVertex
 10
7.302090999999997
 20
-15.203275
 30
0.0
 70
    32
  0
VERTEX
  5
E8954
330
E8950
100
AcDbEntity
  8
1
100
AcDbVertex
100
AcDb3dPolylineVertex
 10
7.284834999999997
 20
-15.216956
 30
0.0
 70
    32
  0
VERTEX
  5
E8955
330
E8950
100
AcDbEntity
  8
1
100
AcDbVertex
100
AcDb3dPolylineVertex
 10
7.267578999999997
 20
-15.230637
 30
0.0
 70
    32
  0
VERTEX
  5
E8956
330
E8950
100
AcDbEntity
  8
1
100
AcDbVertex
100
AcDb3dPolylineVertex
 10
7.247819999999999
 20
-15.239572
 30
0.0
 70
    32
  0
VERTEX
  5
E8957
330
E8950
100
AcDbEntity
  8
1
100
AcDbVertex
100
AcDb3dPolylineVertex
 10
7.226784999999997
 20
-15.246087
 30
0.0
 70
    32
  0
VERTEX
  5
E8958
330
E8950
100
AcDbEntity
  8
1
100
AcDbVertex
100
AcDb3dPolylineVertex
 10
7.205748999999999
 20
-15.252602
 30
0.0
 70
    32
  0
VERTEX
  5
E8959
330
E8950
100
AcDbEntity
  8
1
100
AcDbVertex
100
AcDb3dPolylineVertex
 10
7.184712999999997
 20
-15.259116
 30
0.0
 70
    32
  0
VERTEX
  5
E895A
330
E8950
100
AcDbEntity
  8
1
100
AcDbVertex
100
AcDb3dPolylineVertex
 10
7.163676999999997
 20
-15.265631
 30
0.0
 70
    32
  0
VERTEX
  5
E895B
330
E8950
100
AcDbEntity
  8
1
100
AcDbVertex
100
AcDb3dPolylineVertex
 10
7.142641999999997
 20
-15.272146
 30
0.0
 70
    32
  0
VERTEX
  5
E895C
330
E8950
100
AcDbEntity
  8
1
100
AcDbVertex
100
AcDb3dPolylineVertex
 10
7.120738999999997
 20
-15.273994
 30
0.0
 70
    32
  0
VERTEX
  5
E895D
330
E8950
100
AcDbEntity
  8
1
100
AcDbVertex
100
AcDb3dPolylineVertex
 10
7.098766999999997
 20
-15.275467
 30
0.0
 70
    32
  0
VERTEX
  5
E895E
330
E8950
100
AcDbEntity
  8
1
100
AcDbVertex
100
AcDb3dPolylineVertex
 10
7.076794999999997
 20
-15.276939
 30
0.0
 70
    32
  0
SEQEND
  5
E895F
330
E8950
100
AcDbEntity
  8
1
  0
POLYLINE
  5
E8960
330
18
100
AcDbEntity
  8
1
100
AcDb3dPolyline
 66
     1
 10
0.0
 20
0.0
 30
0.0
 70
     8
  0
VERTEX
  5
E8961
330
E8960
100
AcDbEntity
  8
1
100
AcDbVertex
100
AcDb3dPolylineVertex
 10
7.339761999999997
 20
-5.081818000000001
 30
0.0
 70
    32
  0
VERTEX
  5
E8962
330
E8960
100
AcDbEntity
  8
1
100
AcDbVertex
100
AcDb3dPolylineVertex
 10
7.329432999999997
 20
-5.055971999999997
 30
0.0
 70
    32
  0
VERTEX
  5
E8963
330
E8960
100
AcDbEntity
  8
1
100
AcDbVertex
100
AcDb3dPolylineVertex
 10
7.319103999999997
 20
-5.030126
 30
0.0
 70
    32
  0
VERTEX
  5
E8964
330
E8960
100
AcDbEntity
  8
1
100
AcDbVertex
100
AcDb3dPolylineVertex
 10
7.308774999999998
 20
-5.004280000000001
 30
0.0
 70
    32
  0
VERTEX
  5
E8965
330
E8960
100
AcDbEntity
  8
1
100
AcDbVertex
100
AcDb3dPolylineVertex
 10
7.298446
 20
-4.978434
 30
0.0
 70
    32
  0
VERTEX
  5
E8966
330
E8960
100
AcDbEntity
  8
1
100
AcDbVertex
100
AcDb3dPolylineVertex
 10
7.288116999999997
 20
-4.952587999999997
 30
0.0
 70
    32
  0
VERTEX
  5
E8967
330
E8960
100
AcDbEntity
  8
1
100
AcDbVertex
100
AcDb3dPolylineVertex
 10
7.277788
 20
-4.926741999999999
 30
0.0
 70
    32
  0
VERTEX
  5
E8968
330
E8960
100
AcDbEntity
  8
1
100
AcDbVertex
100
AcDb3dPolylineVertex
 10
7.267458999999997
 20
-4.900895999999998
 30
0.0
 70
    32
  0
VERTEX
  5
E8969
330
E8960
100
AcDbEntity
  8
1
100
AcDbVertex
100
AcDb3dPolylineVertex
 10
7.252063
 20
-4.877883999999998
 30
0.0
 70
    32
  0
VERTEX
  5
E896A
330
E8960
100
AcDbEntity
  8
1
100
AcDbVertex
100
AcDb3dPolylineVertex
 10
7.235446
 20
-4.855555
 30
0.0
 70
    32
  0
VERTEX
  5
E896B
330
E8960
100
AcDbEntity
  8
1
100
AcDbVertex
100
AcDb3dPolylineVertex
 10
7.218828999999997
 20
-4.833225999999998
 30
0.0
 70
    32
  0
VERTEX
  5
E896C
330
E8960
100
AcDbEntity
  8
1
100
AcDbVertex
100
AcDb3dPolylineVertex
 10
7.201602
 20
-4.811551
 30
0.0
 70
    32
  0
VERTEX
  5
E896D
330
E8960
100
AcDbEntity
  8
1
100
AcDbVertex
100
AcDb3dPolylineVertex
 10
7.178199
 20
-4.796483999999998
 30
0.0
 70
    32
  0
VERTEX
  5
E896E
330
E8960
100
AcDbEntity
  8
1
100
AcDbVertex
100
AcDb3dPolylineVertex
 10
7.154796000000001
 20
-4.781417
 30
0.0
 70
    32
  0
VERTEX
  5
E896F
330
E8960
100
AcDbEntity
  8
1
100
AcDbVertex
100
AcDb3dPolylineVertex
 10
7.131392999999999
 20
-4.76635
 30
0.0
 70
    32
  0
VERTEX
  5
E8970
330
E8960
100
AcDbEntity
  8
1
100
AcDbVertex
100
AcDb3dPolylineVertex
 10
7.104103
 20
-4.760923
 30
0.0
 70
    32
  0
VERTEX
  5
E8971
330
E8960
100
AcDbEntity
  8
1
100
AcDbVertex
100
AcDb3dPolylineVertex
 10
7.076794999999997
 20
-4.755537999999996
 30
0.0
 70
    32
  0
SEQEND
  5
E8972
330
E8960
100
AcDbEntity
  8
1
  0
POLYLINE
  5
E8973
330
18
100
AcDbEntity
  8
1
100
AcDb3dPolyline
 66
     1
 10
0.0
 20
0.0
 30
0.0
 70
     8
  0
VERTEX
  5
E8974
330
E8973
100
AcDbEntity
  8
1
100
AcDbVertex
100
AcDb3dPolylineVertex
 10
7.336603
 20
-5.068696
 30
0.0
 70
    32
  0
VERTEX
  5
E8975
330
E8973
100
AcDbEntity
  8
1
100
AcDbVertex
100
AcDb3dPolylineVertex
 10
7.336972
 20
-5.070026999999997
 30
0.0
 70
    32
  0
VERTEX
  5
E8976
330
E8973
100
AcDbEntity
  8
1
100
AcDbVertex
100
AcDb3dPolylineVertex
 10
7.337339999999997
 20
-5.071356999999999
 30
0.0
 70
    32
  0
VERTEX
  5
E8977
330
E8973
100
AcDbEntity
  8
1
100
AcDbVertex
100
AcDb3dPolylineVertex
 10
7.337708999999997
 20
-5.072687999999998
 30
0.0
 70
    32
  0
VERTEX
  5
E8978
330
E8973
100
AcDbEntity
  8
1
100
AcDbVertex
100
AcDb3dPolylineVertex
 10
7.338077
 20
-5.074017999999997
 30
0.0
 70
    32
  0
VERTEX
  5
E8979
330
E8973
100
AcDbEntity
  8
1
100
AcDbVertex
100
AcDb3dPolylineVertex
 10
7.338446
 20
-5.075349
 30
0.0
 70
    32
  0
VERTEX
  5
E897A
330
E8973
100
AcDbEntity
  8
1
100
AcDbVertex
100
AcDb3dPolylineVertex
 10
7.338814999999997
 20
-5.076679000000001
 30
0.0
 70
    32
  0
VERTEX
  5
E897B
330
E8973
100
AcDbEntity
  8
1
100
AcDbVertex
100
AcDb3dPolylineVertex
 10
7.339183
 20
-5.078009999999999
 30
0.0
 70
    32
  0
VERTEX
  5
E897C
330
E8973
100
AcDbEntity
  8
1
100
AcDbVertex
100
AcDb3dPolylineVertex
 10
7.339552
 20
-5.079340000000001
 30
0.0
 70
    32
  0
VERTEX
  5
E897D
330
E8973
100
AcDbEntity
  8
1
100
AcDbVertex
100
AcDb3dPolylineVertex
 10
7.339919999999997
 20
-5.080670999999997
 30
0.0
 70
    32
  0
VERTEX
  5
E897E
330
E8973
100
AcDbEntity
  8
1
100
AcDbVertex
100
AcDb3dPolylineVertex
 10
7.339752
 20
-5.081820999999997
 30
0.0
 70
    32
  0
SEQEND
  5
E897F
330
E8973
100
AcDbEntity
  8
1
  0
POLYLINE
  5
E8980
330
18
100
AcDbEntity
  8
1
100
AcDb3dPolyline
 66
     1
 10
0.0
 20
0.0
 30
0.0
 70
     8
  0
VERTEX
  5
E8981
330
E8980
100
AcDbEntity
  8
1
100
AcDbVertex
100
AcDb3dPolylineVertex
 10
4.663396999999998
 20
-5.068696
 30
0.0
 70
    32
  0
VERTEX
  5
E8982
330
E8980
100
AcDbEntity
  8
1
100
AcDbVertex
100
AcDb3dPolylineVertex
 10
4.673727999999996
 20
-5.043639999999999
 30
0.0
 70
    32
  0
VERTEX
  5
E8983
330
E8980
100
AcDbEntity
  8
1
100
AcDbVertex
100
AcDb3dPolylineVertex
 10
4.684058999999998
 20
-5.018584999999998
 30
0.0
 70
    32
  0
VERTEX
  5
E8984
330
E8980
100
AcDbEntity
  8
1
100
AcDbVertex
100
AcDb3dPolylineVertex
 10
4.69439
 20
-4.993528999999996
 30
0.0
 70
    32
  0
VERTEX
  5
E8985
330
E8980
100
AcDbEntity
  8
1
100
AcDbVertex
100
AcDb3dPolylineVertex
 10
4.704721
 20
-4.968473
 30
0.0
 70
    32
  0
VERTEX
  5
E8986
330
E8980
100
AcDbEntity
  8
1
100
AcDbVertex
100
AcDb3dPolylineVertex
 10
4.715052
 20
-4.943417
 30
0.0
 70
    32
  0
VERTEX
  5
E8987
330
E8980
100
AcDbEntity
  8
1
100
AcDbVertex
100
AcDb3dPolylineVertex
 10
4.725382999999999
 20
-4.918362
 30
0.0
 70
    32
  0
VERTEX
  5
E8988
330
E8980
100
AcDbEntity
  8
1
100
AcDbVertex
100
AcDb3dPolylineVertex
 10
4.735713999999997
 20
-4.893305999999999
 30
0.0
 70
    32
  0
VERTEX
  5
E8989
330
E8980
100
AcDbEntity
  8
1
100
AcDbVertex
100
AcDb3dPolylineVertex
 10
4.751116
 20
-4.871319
 30
0.0
 70
    32
  0
VERTEX
  5
E898A
330
E8980
100
AcDbEntity
  8
1
100
AcDbVertex
100
AcDb3dPolylineVertex
 10
4.768517
 20
-4.850541
 30
0.0
 70
    32
  0
VERTEX
  5
E898B
330
E8980
100
AcDbEntity
  8
1
100
AcDbVertex
100
AcDb3dPolylineVertex
 10
4.785917999999997
 20
-4.829762999999998
 30
0.0
 70
    32
  0
VERTEX
  5
E898C
330
E8980
100
AcDbEntity
  8
1
100
AcDbVertex
100
AcDb3dPolylineVertex
 10
4.803319
 20
-4.808984999999998
 30
0.0
 70
    32
  0
VERTEX
  5
E898D
330
E8980
100
AcDbEntity
  8
1
100
AcDbVertex
100
AcDb3dPolylineVertex
 10
4.822459999999998
 20
-4.790226999999998
 30
0.0
 70
    32
  0
VERTEX
  5
E898E
330
E8980
100
AcDbEntity
  8
1
100
AcDbVertex
100
AcDb3dPolylineVertex
 10
4.845582
 20
-4.776088999999998
 30
0.0
 70
    32
  0
VERTEX
  5
E898F
330
E8980
100
AcDbEntity
  8
1
100
AcDbVertex
100
AcDb3dPolylineVertex
 10
4.869813999999998
 20
-4.764889
 30
0.0
 70
    32
  0
VERTEX
  5
E8990
330
E8980
100
AcDbEntity
  8
1
100
AcDbVertex
100
AcDb3dPolylineVertex
 10
4.896509
 20
-4.760212999999998
 30
0.0
 70
    32
  0
VERTEX
  5
E8991
330
E8980
100
AcDbEntity
  8
1
100
AcDbVertex
100
AcDb3dPolylineVertex
 10
4.923205
 20
-4.755537999999996
 30
0.0
 70
    32
  0
SEQEND
  5
E8992
330
E8980
100
AcDbEntity
  8
1
  0
POLYLINE
  5
E8993
330
18
100
AcDbEntity
  8
1
100
AcDb3dPolyline
 66
     1
 10
0.0
 20
0.0
 30
0.0
 70
     8
  0
VERTEX
  5
E8994
330
E8993
100
AcDbEntity
  8
1
100
AcDbVertex
100
AcDb3dPolylineVertex
 10
7.336603
 20
5.068695999999999
 30
0.0
 70
    32
  0
VERTEX
  5
E8995
330
E8993
100
AcDbEntity
  8
1
100
AcDbVertex
100
AcDb3dPolylineVertex
 10
7.326624999999999
 20
5.043587999999997
 30
0.0
 70
    32
  0
VERTEX
  5
E8996
330
E8993
100
AcDbEntity
  8
1
100
AcDbVertex
100
AcDb3dPolylineVertex
 10
7.316646
 20
5.018478999999999
 30
0.0
 70
    32
  0
VERTEX
  5
E8997
330
E8993
100
AcDbEntity
  8
1
100
AcDbVertex
100
AcDb3dPolylineVertex
 10
7.306667999999997
 20
4.993370999999998
 30
0.0
 70
    32
  0
VERTEX
  5
E8998
330
E8993
100
AcDbEntity
  8
1
100
AcDbVertex
100
AcDb3dPolylineVertex
 10
7.296688999999997
 20
4.968262999999998
 30
0.0
 70
    32
  0
VERTEX
  5
E8999
330
E8993
100
AcDbEntity
  8
1
100
AcDbVertex
100
AcDb3dPolylineVertex
 10
7.286711
 20
4.943153999999998
 30
0.0
 70
    32
  0
VERTEX
  5
E899A
330
E8993
100
AcDbEntity
  8
1
100
AcDbVertex
100
AcDb3dPolylineVertex
 10
7.276733
 20
4.918045999999998
 30
0.0
 70
    32
  0
VERTEX
  5
E899B
330
E8993
100
AcDbEntity
  8
1
100
AcDbVertex
100
AcDb3dPolylineVertex
 10
7.262407999999997
 20
4.895211999999999
 30
0.0
 70
    32
  0
VERTEX
  5
E899C
330
E8993
100
AcDbEntity
  8
1
100
AcDbVertex
100
AcDb3dPolylineVertex
 10
7.247471
 20
4.872697
 30
0.0
 70
    32
  0
VERTEX
  5
E899D
330
E8993
100
AcDbEntity
  8
1
100
AcDbVertex
100
AcDb3dPolylineVertex
 10
7.232535
 20
4.850183
 30
0.0
 70
    32
  0
VERTEX
  5
E899E
330
E8993
100
AcDbEntity
  8
1
100
AcDbVertex
100
AcDb3dPolylineVertex
 10
7.217597999999997
 20
4.827669
 30
0.0
 70
    32
  0
VERTEX
  5
E899F
330
E8993
100
AcDbEntity
  8
1
100
AcDbVertex
100
AcDb3dPolylineVertex
 10
7.196903999999999
 20
4.810569999999998
 30
0.0
 70
    32
  0
VERTEX
  5
E89A0
330
E8993
100
AcDbEntity
  8
1
100
AcDbVertex
100
AcDb3dPolylineVertex
 10
7.175347
 20
4.794281999999999
 30
0.0
 70
    32
  0
VERTEX
  5
E89A1
330
E8993
100
AcDbEntity
  8
1
100
AcDbVertex
100
AcDb3dPolylineVertex
 10
7.153788999999997
 20
4.777994999999997
 30
0.0
 70
    32
  0
VERTEX
  5
E89A2
330
E8993
100
AcDbEntity
  8
1
100
AcDbVertex
100
AcDb3dPolylineVertex
 10
7.129455
 20
4.767657999999999
 30
0.0
 70
    32
  0
VERTEX
  5
E89A3
330
E8993
100
AcDbEntity
  8
1
100
AcDbVertex
100
AcDb3dPolylineVertex
 10
7.103125
 20
4.761598
 30
0.0
 70
    32
  0
VERTEX
  5
E89A4
330
E8993
100
AcDbEntity
  8
1
100
AcDbVertex
100
AcDb3dPolylineVertex
 10
7.076794999999997
 20
4.755537999999996
 30
0.0
 70
    32
  0
SEQEND
  5
E89A5
330
E8993
100
AcDbEntity
  8
1
  0
POLYLINE
  5
E89A6
330
18
100
AcDbEntity
  8
1
100
AcDb3dPolyline
 66
     1
 10
0.0
 20
0.0
 30
0.0
 70
     8
  0
VERTEX
  5
E89A7
330
E89A6
100
AcDbEntity
  8
1
100
AcDbVertex
100
AcDb3dPolylineVertex
 10
4.663396999999998
 20
5.068696
 30
0.0
 70
    32
  0
VERTEX
  5
E89A8
330
E89A6
100
AcDbEntity
  8
1
100
AcDbVertex
100
AcDb3dPolylineVertex
 10
4.672565
 20
5.043314999999997
 30
0.0
 70
    32
  0
VERTEX
  5
E89A9
330
E89A6
100
AcDbEntity
  8
1
100
AcDbVertex
100
AcDb3dPolylineVertex
 10
4.681732
 20
5.017934999999996
 30
0.0
 70
    32
  0
VERTEX
  5
E89AA
330
E89A6
100
AcDbEntity
  8
1
100
AcDbVertex
100
AcDb3dPolylineVertex
 10
4.6909
 20
4.992554
 30
0.0
 70
    32
  0
VERTEX
  5
E89AB
330
E89A6
100
AcDbEntity
  8
1
100
AcDbVertex
100
AcDb3dPolylineVertex
 10
4.700066999999997
 20
4.967173999999999
 30
0.0
 70
    32
  0
VERTEX
  5
E89AC
330
E89A6
100
AcDbEntity
  8
1
100
AcDbVertex
100
AcDb3dPolylineVertex
 10
4.709234999999996
 20
4.941792999999996
 30
0.0
 70
    32
  0
VERTEX
  5
E89AD
330
E89A6
100
AcDbEntity
  8
1
100
AcDbVertex
100
AcDb3dPolylineVertex
 10
4.723249
 20
4.918791
 30
0.0
 70
    32
  0
VERTEX
  5
E89AE
330
E89A6
100
AcDbEntity
  8
1
100
AcDbVertex
100
AcDb3dPolylineVertex
 10
4.737719999999998
 20
4.896014
 30
0.0
 70
    32
  0
VERTEX
  5
E89AF
330
E89A6
100
AcDbEntity
  8
1
100
AcDbVertex
100
AcDb3dPolylineVertex
 10
4.75219
 20
4.873236
 30
0.0
 70
    32
  0
VERTEX
  5
E89B0
330
E89A6
100
AcDbEntity
  8
1
100
AcDbVertex
100
AcDb3dPolylineVertex
 10
4.766661
 20
4.850458999999998
 30
0.0
 70
    32
  0
VERTEX
  5
E89B1
330
E89A6
100
AcDbEntity
  8
1
100
AcDbVertex
100
AcDb3dPolylineVertex
 10
4.782545999999999
 20
4.829037999999997
 30
0.0
 70
    32
  0
VERTEX
  5
E89B2
330
E89A6
100
AcDbEntity
  8
1
100
AcDbVertex
100
AcDb3dPolylineVertex
 10
4.804704
 20
4.813635999999998
 30
0.0
 70
    32
  0
VERTEX
  5
E89B3
330
E89A6
100
AcDbEntity
  8
1
100
AcDbVertex
100
AcDb3dPolylineVertex
 10
4.826862
 20
4.798232999999997
 30
0.0
 70
    32
  0
VERTEX
  5
E89B4
330
E89A6
100
AcDbEntity
  8
1
100
AcDbVertex
100
AcDb3dPolylineVertex
 10
4.849020999999996
 20
4.782830999999998
 30
0.0
 70
    32
  0
VERTEX
  5
E89B5
330
E89A6
100
AcDbEntity
  8
1
100
AcDbVertex
100
AcDb3dPolylineVertex
 10
4.871178999999997
 20
4.767428999999999
 30
0.0
 70
    32
  0
VERTEX
  5
E89B6
330
E89A6
100
AcDbEntity
  8
1
100
AcDbVertex
100
AcDb3dPolylineVertex
 10
4.896593
 20
4.760015
 30
0.0
 70
    32
  0
VERTEX
  5
E89B7
330
E89A6
100
AcDbEntity
  8
1
100
AcDbVertex
100
AcDb3dPolylineVertex
 10
4.923205
 20
4.755537999999996
 30
0.0
 70
    32
  0
SEQEND
  5
E89B8
330
E89A6
100
AcDbEntity
  8
1
  0
POLYLINE
  5
E89B9
330
18
100
AcDbEntity
  8
1
100
AcDb3dPolyline
 66
     1
 10
0.0
 20
0.0
 30
0.0
 70
     8
  0
VERTEX
  5
E89BA
330
E89B9
100
AcDbEntity
  8
1
100
AcDbVertex
100
AcDb3dPolylineVertex
 10
7.336603000000001
 20
15.175912
 30
0.0
 70
    32
  0
VERTEX
  5
E89BB
330
E89B9
100
AcDbEntity
  8
1
100
AcDbVertex
100
AcDb3dPolylineVertex
 10
7.319136999999997
 20
15.189261
 30
0.0
 70
    32
  0
VERTEX
  5
E89BC
330
E89B9
100
AcDbEntity
  8
1
100
AcDbVertex
100
AcDb3dPolylineVertex
 10
7.301671999999999
 20
15.20261
 30
0.0
 70
    32
  0
VERTEX
  5
E89BD
330
E89B9
100
AcDbEntity
  8
1
100
AcDbVertex
100
AcDb3dPolylineVertex
 10
7.284206000000001
 20
15.215959
 30
0.0
 70
    32
  0
VERTEX
  5
E89BE
330
E89B9
100
AcDbEntity
  8
1
100
AcDbVertex
100
AcDb3dPolylineVertex
 10
7.266741000000001
 20
15.229308
 30
0.0
 70
    32
  0
VERTEX
  5
E89BF
330
E89B9
100
AcDbEntity
  8
1
100
AcDbVertex
100
AcDb3dPolylineVertex
 10
7.248325999999997
 20
15.240685
 30
0.0
 70
    32
  0
VERTEX
  5
E89C0
330
E89B9
100
AcDbEntity
  8
1
100
AcDbVertex
100
AcDb3dPolylineVertex
 10
7.226992999999997
 20
15.245991
 30
0.0
 70
    32
  0
VERTEX
  5
E89C1
330
E89B9
100
AcDbEntity
  8
1
100
AcDbVertex
100
AcDb3dPolylineVertex
 10
7.205661
 20
15.251297
 30
0.0
 70
    32
  0
VERTEX
  5
E89C2
330
E89B9
100
AcDbEntity
  8
1
100
AcDbVertex
100
AcDb3dPolylineVertex
 10
7.184327999999998
 20
15.256603
 30
0.0
 70
    32
  0
VERTEX
  5
E89C3
330
E89B9
100
AcDbEntity
  8
1
100
AcDbVertex
100
AcDb3dPolylineVertex
 10
7.162994999999997
 20
15.261909
 30
0.0
 70
    32
  0
VERTEX
  5
E89C4
330
E89B9
100
AcDbEntity
  8
1
100
AcDbVertex
100
AcDb3dPolylineVertex
 10
7.141661999999997
 20
15.267215
 30
0.0
 70
    32
  0
VERTEX
  5
E89C5
330
E89B9
100
AcDbEntity
  8
1
100
AcDbVertex
100
AcDb3dPolylineVertex
 10
7.120328999999999
 20
15.272521
 30
0.0
 70
    32
  0
VERTEX
  5
E89C6
330
E89B9
100
AcDbEntity
  8
1
100
AcDbVertex
100
AcDb3dPolylineVertex
 10
7.098764999999997
 20
15.276174
 30
0.0
 70
    32
  0
VERTEX
  5
E89C7
330
E89B9
100
AcDbEntity
  8
1
100
AcDbVertex
100
AcDb3dPolylineVertex
 10
7.076794999999997
 20
15.276939
 30
0.0
 70
    32
  0
SEQEND
  5
E89C8
330
E89B9
100
AcDbEntity
  8
1
  0
POLYLINE
  5
E89C9
330
18
100
AcDbEntity
  8
1
100
AcDb3dPolyline
 66
     1
 10
0.0
 20
0.0
 30
0.0
 70
     8
  0
VERTEX
  5
E89CA
330
E89C9
100
AcDbEntity
  8
1
100
AcDbVertex
100
AcDb3dPolylineVertex
 10
4.660224999999997
 20
15.171507
 30
0.0
 70
    32
  0
VERTEX
  5
E89CB
330
E89C9
100
AcDbEntity
  8
1
100
AcDbVertex
100
AcDb3dPolylineVertex
 10
4.684142999999997
 20
15.188059
 30
0.0
 70
    32
  0
VERTEX
  5
E89CC
330
E89C9
100
AcDbEntity
  8
1
100
AcDbVertex
100
AcDb3dPolylineVertex
 10
4.708061999999999
 20
15.20461
 30
0.0
 70
    32
  0
VERTEX
  5
E89CD
330
E89C9
100
AcDbEntity
  8
1
100
AcDbVertex
100
AcDb3dPolylineVertex
 10
4.73198
 20
15.221162
 30
0.0
 70
    32
  0
VERTEX
  5
E89CE
330
E89C9
100
AcDbEntity
  8
1
100
AcDbVertex
100
AcDb3dPolylineVertex
 10
4.755898999999998
 20
15.237713
 30
0.0
 70
    32
  0
VERTEX
  5
E89CF
330
E89C9
100
AcDbEntity
  8
1
100
AcDbVertex
100
AcDb3dPolylineVertex
 10
4.779816999999998
 20
15.254265
 30
0.0
 70
    32
  0
VERTEX
  5
E89D0
330
E89C9
100
AcDbEntity
  8
1
100
AcDbVertex
100
AcDb3dPolylineVertex
 10
4.808144000000001
 20
15.259686
 30
0.0
 70
    32
  0
VERTEX
  5
E89D1
330
E89C9
100
AcDbEntity
  8
1
100
AcDbVertex
100
AcDb3dPolylineVertex
 10
4.836908999999998
 20
15.264
 30
0.0
 70
    32
  0
VERTEX
  5
E89D2
330
E89C9
100
AcDbEntity
  8
1
100
AcDbVertex
100
AcDb3dPolylineVertex
 10
4.865673999999998
 20
15.268313
 30
0.0
 70
    32
  0
VERTEX
  5
E89D3
330
E89C9
100
AcDbEntity
  8
1
100
AcDbVertex
100
AcDb3dPolylineVertex
 10
4.894440000000001
 20
15.272626
 30
0.0
 70
    32
  0
VERTEX
  5
E89D4
330
E89C9
100
AcDbEntity
  8
1
100
AcDbVertex
100
AcDb3dPolylineVertex
 10
4.923205000000001
 20
15.276939
 30
0.0
 70
    32
  0
SEQEND
  5
E89D5
330
E89C9
100
AcDbEntity
  8
1
  0
DIMENSION
  5
E89D6
330
18
100
AcDbEntity
  8
SK2
100
AcDbDimension
  2
*D3
 10
-23.123378
 20
16.0
 30
0.0
 11
-25.49837800000001
 21
0.0000000000000026
 31
0.0
 70
    32
  1
%%c32
 71
     5
 42
32.0
  3
SANDVIK_STYLE
100
AcDbAlignedDimension
 13
-0.062500000000001
 23
-16.0
 33
0.0
 14
-0.062499999999999
 24
16.0
 34
0.0
 50
90.0
100
AcDbRotatedDimension
  0
DIMENSION
  5
E89D7
330
18
100
AcDbEntity
  8
2L
100
AcDbDimension
  2
*D4
 10
48.911309
 20
-0.0000000000000046
 30
0.0
 11
46.536309
 21
11.0
 31
0.0
 70
    32
  1
22
 71
     5
 42
22.00000000000001
  3
SANDVIK_STYLE
100
AcDbAlignedDimension
 13
40.0625
 23
22.0
 33
0.0
 14
41.599962
 24
-0.0000000000000025
 34
0.0
 50
90.0
100
AcDbRotatedDimension
  0
DIMENSION
  5
E89D8
330
18
100
AcDbEntity
  8
2L
100
AcDbDimension
  2
*D5
 10
0.0000000000000023
 20
36.557189
 30
0.0
 11
20.0
 21
38.932189
 31
0.0
 70
    32
  1
40
 71
     5
 42
40.0
  3
SANDVIK_STYLE
100
AcDbAlignedDimension
 13
40.0
 23
22.0625
 33
0.0
 14
0.000000000000001
 24
16.0625
 34
0.0
 50
180.0
100
AcDbRotatedDimension
  0
INSERT
  5
E89D9
330
18
100
AcDbEntity
  8
5
100
AcDbBlockReference
  2
_nullpunkt
 10
0.0
 20
0.0
 30
0.0
  0
TEXT
  5
E89DA
330
18
100
AcDbEntity
  8
5
100
AcDbText
 10
0.0
 20
0.0
 30
0.0
 40
0.1
  1
ISOORIENTED
100
AcDbText
  0
ENDSEC
  0
SECTION
  2
OBJECTS
  0
DICTIONARY
  5
C
330
0
100
AcDbDictionary
281
     1
  3
ACAD_2007HEADERVARS_RT
350
E8AAB
  3
ACAD_CIP_PREVIOUS_PRODUCT_INFO
350
E8A55
  3
ACAD_COLOR
350
387
  3
ACAD_DETAILVIEWSTYLE
350
E8A52
  3
ACAD_GROUP
350
D
  3
ACAD_LAYOUT
350
301
  3
ACAD_MATERIAL
350
386
  3
ACAD_MLEADERSTYLE
350
43C
  3
ACAD_MLINESTYLE
350
E
  3
ACAD_PLOTSETTINGS
350
302
  3
ACAD_PLOTSTYLENAME
350
2FF
  3
ACAD_SCALELIST
350
41A
  3
ACAD_SECTIONVIEWSTYLE
350
E8A50
  3
ACAD_TABLESTYLE
350
388
  3
ACAD_VISUALSTYLE
350
3F2
  3
ACDB_RECOMPOSE_DATA
350
E8AA9
  3
AcDbVariableDictionary
350
357
  3
DWGPROPS
350
E8AAA
  0
DICTIONARY
  5
E8A58
330
F
100
AcDbDictionary
280
     1
281
     1
  3
ADSK_XREC_LAYER_RECONCILED
360
E8A59
  0
DICTIONARY
  5
E8A5A
330
23
100
AcDbDictionary
280
     1
281
     1
  3
ADSK_XREC_LAYER_RECONCILED
360
E8A5B
  0
DICTIONARY
  5
E8A5C
330
E8613
100
AcDbDictionary
280
     1
281
     1
  3
ADSK_XREC_LAYER_RECONCILED
360
E8A5D
  0
DICTIONARY
  5
E8A5E
330
E8614
100
AcDbDictionary
280
     1
281
     1
  3
ADSK_XREC_LAYER_RECONCILED
360
E8A5F
  0
DICTIONARY
  5
E8A60
330
E8615
100
AcDbDictionary
280
     1
281
     1
  3
ADSK_XREC_LAYER_RECONCILED
360
E8A61
  0
DICTIONARY
  5
E8A62
330
E8616
100
AcDbDictionary
280
     1
281
     1
  3
ADSK_XREC_LAYER_RECONCILED
360
E8A63
  0
DICTIONARY
  5
E8A64
330
E8617
100
AcDbDictionary
280
     1
281
     1
  3
ADSK_XREC_LAYER_RECONCILED
360
E8A65
  0
DICTIONARY
  5
E8A66
330
E8618
100
AcDbDictionary
280
     1
281
     1
  3
ADSK_XREC_LAYER_RECONCILED
360
E8A67
  0
DICTIONARY
  5
E8A68
330
E8619
100
AcDbDictionary
280
     1
281
     1
  3
ADSK_XREC_LAYER_RECONCILED
360
E8A69
  0
DICTIONARY
  5
E8A6A
330
E861A
100
AcDbDictionary
280
     1
281
     1
  3
ADSK_XREC_LAYER_RECONCILED
360
E8A6B
  0
DICTIONARY
  5
E8A6C
330
E861B
100
AcDbDictionary
280
     1
281
     1
  3
ADSK_XREC_LAYER_RECONCILED
360
E8A6D
  0
DICTIONARY
  5
E8A6E
330
E861C
100
AcDbDictionary
280
     1
281
     1
  3
ADSK_XREC_LAYER_RECONCILED
360
E8A6F
  0
DICTIONARY
  5
E8A70
330
E861D
100
AcDbDictionary
280
     1
281
     1
  3
ADSK_XREC_LAYER_RECONCILED
360
E8A71
  0
DICTIONARY
  5
E8A72
330
E861E
100
AcDbDictionary
280
     1
281
     1
  3
ADSK_XREC_LAYER_RECONCILED
360
E8A73
  0
DICTIONARY
  5
E8A74
330
E861F
100
AcDbDictionary
280
     1
281
     1
  3
ADSK_XREC_LAYER_RECONCILED
360
E8A75
  0
DICTIONARY
  5
E8A76
330
E8620
100
AcDbDictionary
280
     1
281
     1
  3
ADSK_XREC_LAYER_RECONCILED
360
E8A77
  0
DICTIONARY
  5
E8A78
330
E8621
100
AcDbDictionary
280
     1
281
     1
  3
ADSK_XREC_LAYER_RECONCILED
360
E8A79
  0
DICTIONARY
  5
E8A7A
330
E8622
100
AcDbDictionary
280
     1
281
     1
  3
ADSK_XREC_LAYER_RECONCILED
360
E8A7B
  0
DICTIONARY
  5
E8A7C
330
E8623
100
AcDbDictionary
280
     1
281
     1
  3
ADSK_XREC_LAYER_RECONCILED
360
E8A7D
  0
DICTIONARY
  5
E8A7E
330
E8624
100
AcDbDictionary
280
     1
281
     1
  3
ADSK_XREC_LAYER_RECONCILED
360
E8A7F
  0
DICTIONARY
  5
E8A80
330
E8625
100
AcDbDictionary
280
     1
281
     1
  3
ADSK_XREC_LAYER_RECONCILED
360
E8A81
  0
DICTIONARY
  5
E8A82
330
E8626
100
AcDbDictionary
280
     1
281
     1
  3
ADSK_XREC_LAYER_RECONCILED
360
E8A83
  0
DICTIONARY
  5
E8A84
330
E8627
100
AcDbDictionary
280
     1
281
     1
  3
ADSK_XREC_LAYER_RECONCILED
360
E8A85
  0
DICTIONARY
  5
E8A86
330
E8628
100
AcDbDictionary
280
     1
281
     1
  3
ADSK_XREC_LAYER_RECONCILED
360
E8A87
  0
DICTIONARY
  5
E8A88
330
E8629
100
AcDbDictionary
280
     1
281
     1
  3
ADSK_XREC_LAYER_RECONCILED
360
E8A89
  0
DICTIONARY
  5
E8A8A
330
E862A
100
AcDbDictionary
280
     1
281
     1
  3
ADSK_XREC_LAYER_RECONCILED
360
E8A8B
  0
DICTIONARY
  5
E8A8C
330
E862B
100
AcDbDictionary
280
     1
281
     1
  3
ADSK_XREC_LAYER_RECONCILED
360
E8A8D
  0
DICTIONARY
  5
E8A8E
330
E862C
100
AcDbDictionary
280
     1
281
     1
  3
ADSK_XREC_LAYER_RECONCILED
360
E8A8F
  0
DICTIONARY
  5
E8A90
330
E862D
100
AcDbDictionary
280
     1
281
     1
  3
ADSK_XREC_LAYER_RECONCILED
360
E8A91
  0
DICTIONARY
  5
E8A92
330
E862E
100
AcDbDictionary
280
     1
281
     1
  3
ADSK_XREC_LAYER_RECONCILED
360
E8A93
  0
DICTIONARY
  5
E8A94
330
E862F
100
AcDbDictionary
280
     1
281
     1
  3
ADSK_XREC_LAYER_RECONCILED
360
E8A95
  0
DICTIONARY
  5
E8A96
330
E8630
100
AcDbDictionary
280
     1
281
     1
  3
ADSK_XREC_LAYER_RECONCILED
360
E8A97
  0
DICTIONARY
  5
E8A98
330
E8631
100
AcDbDictionary
280
     1
281
     1
  3
ADSK_XREC_LAYER_RECONCILED
360
E8A99
  0
DICTIONARY
  5
E8A9A
330
E8632
100
AcDbDictionary
280
     1
281
     1
  3
ADSK_XREC_LAYER_RECONCILED
360
E8A9B
  0
DICTIONARY
  5
E8A9C
330
E8633
100
AcDbDictionary
280
     1
281
     1
  3
ADSK_XREC_LAYER_RECONCILED
360
E8A9D
  0
DICTIONARY
  5
E8A9E
330
E8634
100
AcDbDictionary
280
     1
281
     1
  3
ADSK_XREC_LAYER_RECONCILED
360
E8A9F
  0
DICTIONARY
  5
E8AA0
330
E8635
100
AcDbDictionary
280
     1
281
     1
  3
ADSK_XREC_LAYER_RECONCILED
360
E8AA1
  0
DICTIONARY
  5
E8AA2
330
E8636
100
AcDbDictionary
280
     1
281
     1
  3
ADSK_XREC_LAYER_RECONCILED
360
E8AA3
  0
DICTIONARY
  5
E8605
330
E8604
100
AcDbDictionary
280
     1
281
     1
  3
ACAD_SORTENTS
360
E8606
  0
DICTIONARY
  5
E8AAB
102
{ACAD_REACTORS
330
C
102
}
330
C
100
AcDbDictionary
281
     1
  3
DIMJOGANG
350
E8AAC
  0
XRECORD
  5
E8A55
102
{ACAD_REACTORS
330
C
102
}
330
C
100
AcDbXrecord
280
     1
300
AMECH_PP
300
2013
300
PDSU_F_S
  0
DICTIONARY
  5
387
102
{ACAD_REACTORS
330
C
102
}
330
C
100
AcDbDictionary
281
     1
  0
DICTIONARY
  5
E8A52
102
{ACAD_REACTORS
330
C
102
}
330
C
100
AcDbDictionary
281
     1
  3
Metric50
350
E8A53
  0
DICTIONARY
  5
D
102
{ACAD_REACTORS
330
C
102
}
330
C
100
AcDbDictionary
281
     1
  0
DICTIONARY
  5
301
102
{ACAD_REACTORS
330
C
102
}
330
C
100
AcDbDictionary
281
     1
  3
Layout1
350
33B
  3
Model
350
303
  0
DICTIONARY
  5
386
102
{ACAD_REACTORS
330
C
102
}
330
C
100
AcDbDictionary
281
     1
  3
ByBlock
350
3F0
  3
ByLayer
350
3EF
  3
Global
350
3F1
  0
DICTIONARY
  5
43C
102
{ACAD_REACTORS
330
C
102
}
330
C
100
AcDbDictionary
281
     1
  3
Standard
350
43D
  0
DICTIONARY
  5
E
102
{ACAD_REACTORS
330
C
102
}
330
C
100
AcDbDictionary
281
     1
  3
STANDARD
350
1B
  0
DICTIONARY
  5
302
102
{ACAD_REACTORS
330
C
102
}
330
C
100
AcDbDictionary
281
     1
  0
ACDBDICTIONARYWDFLT
  5
2FF
102
{ACAD_REACTORS
330
C
102
}
330
C
100
AcDbDictionary
281
     1
  3
Normal
350
300
100
AcDbDictionaryWithDefault
340
300
  0
DICTIONARY
  5
41A
102
{ACAD_REACTORS
330
C
102
}
330
C
100
AcDbDictionary
281
     1
  3
A0
350
41B
  3
A1
350
41C
  3
A2
350
41D
  3
A3
350
41E
  3
A4
350
41F
  3
A5
350
420
  3
A6
350
421
  3
A7
350
422
  3
A8
350
423
  3
A9
350
424
  3
B0
350
425
  3
B1
350
426
  3
B2
350
427
  3
B3
350
428
  3
B4
350
429
  3
B5
350
42A
  3
B6
350
42B
  3
B7
350
42C
  3
B8
350
42D
  3
B9
350
42E
  3
C0
350
42F
  3
C1
350
430
  3
C2
350
431
  3
C3
350
432
  3
C4
350
433
  3
C5
350
434
  3
C6
350
435
  3
C7
350
436
  3
C8
350
437
  3
C9
350
438
  3
D0
350
439
  3
D1
350
43A
  3
D2
350
43B
  0
DICTIONARY
  5
E8A50
102
{ACAD_REACTORS
330
C
102
}
330
C
100
AcDbDictionary
281
     1
  3
Metric50
350
E8A51
  0
DICTIONARY
  5
388
102
{ACAD_REACTORS
330
C
102
}
330
C
100
AcDbDictionary
281
     1
  3
Standard
350
389
  0
DICTIONARY
  5
3F2
102
{ACAD_REACTORS
330
C
102
}
330
C
100
AcDbDictionary
281
     1
  3
2dWireframe
350
3F8
  3
3D Hidden
350
3FA
  3
3dWireframe
350
3F9
  3
Basic
350
3F7
  3
Brighten
350
3FE
  3
ColorChange
350
402
  3
Conceptual
350
3FB
  3
Dim
350
3FD
  3
EdgeColorOff
350
44E
  3
Facepattern
350
401
  3
Flat
350
3F3
  3
FlatWithEdges
350
3F4
  3
Gouraud
350
3F5
  3
GouraudWithEdges
350
3F6
  3
Hidden
350
E8A4A
  3
JitterOff
350
44C
  3
Linepattern
350
400
  3
OverhangOff
350
44D
  3
Realistic
350
3FC
  3
Shaded
350
E8A4F
  3
Shaded with edges
350
E8A4E
  3
Shades of Gray
350
E8A4B
  3
Sketchy
350
E8A4C
  3
Thicken
350
3FF
  3
Wireframe
350
E8A49
  3
X-Ray
350
E8A4D
  0
XRECORD
  5
E8AA9
102
{ACAD_REACTORS
330
C
102
}
330
C
100
AcDbXrecord
280
     1
 90
        1
330
389
  0
DICTIONARY
  5
357
102
{ACAD_REACTORS
330
C
102
}
330
C
100
AcDbDictionary
281
     1
  3
CANNOSCALE
350
449
  3
CMLEADERSTYLE
350
447
  3
CTABLESTYLE
350
38E
  3
CVIEWDETAILSTYLE
350
E8AA4
  3
CVIEWSECTIONSTYLE
350
E8AA5
  3
DIMASSOC
350
359
  3
HIDETEXT
350
358
  3
INDEXCTL
350
1260
  3
LAYEREVAL
350
458
  3
LAYERNOTIFY
350
459
  3
LIGHTINGUNITS
350
44A
  3
MSLTSCALE
350
448
  3
SORTENTS
350
125F
  3
XCLIPFRAME
350
E8AA6
  0
XRECORD
  5
E8AAA
102
{ACAD_REACTORS
330
C
102
}
330
C
100
AcDbXrecord
280
     1
  1
DWGPROPS COOKIE
  2

  3

  4

  6

  7

  8
Micke
  9

300
=
301
=
302
=
303
=
304
=
305
=
306
=
307
=
308
=
309
=
 40
0.0035802199074074
 41
2455883.652280521
 42
2456818.43045897
  1

 90
        0
  0
XRECORD
  5
E8A59
102
{ACAD_REACTORS
330
E8A58
102
}
330
E8A58
100
AcDbXrecord
280
     1
290
     1
  0
XRECORD
  5
E8A5B
102
{ACAD_REACTORS
330
E8A5A
102
}
330
E8A5A
100
AcDbXrecord
280
     1
290
     1
  0
XRECORD
  5
E8A5D
102
{ACAD_REACTORS
330
E8A5C
102
}
330
E8A5C
100
AcDbXrecord
280
     1
290
     1
  0
XRECORD
  5
E8A5F
102
{ACAD_REACTORS
330
E8A5E
102
}
330
E8A5E
100
AcDbXrecord
280
     1
290
     1
  0
XRECORD
  5
E8A61
102
{ACAD_REACTORS
330
E8A60
102
}
330
E8A60
100
AcDbXrecord
280
     1
290
     1
  0
XRECORD
  5
E8A63
102
{ACAD_REACTORS
330
E8A62
102
}
330
E8A62
100
AcDbXrecord
280
     1
290
     1
  0
XRECORD
  5
E8A65
102
{ACAD_REACTORS
330
E8A64
102
}
330
E8A64
100
AcDbXrecord
280
     1
290
     1
  0
XRECORD
  5
E8A67
102
{ACAD_REACTORS
330
E8A66
102
}
330
E8A66
100
AcDbXrecord
280
     1
290
     1
  0
XRECORD
  5
E8A69
102
{ACAD_REACTORS
330
E8A68
102
}
330
E8A68
100
AcDbXrecord
280
     1
290
     1
  0
XRECORD
  5
E8A6B
102
{ACAD_REACTORS
330
E8A6A
102
}
330
E8A6A
100
AcDbXrecord
280
     1
290
     1
  0
XRECORD
  5
E8A6D
102
{ACAD_REACTORS
330
E8A6C
102
}
330
E8A6C
100
AcDbXrecord
280
     1
290
     1
  0
XRECORD
  5
E8A6F
102
{ACAD_REACTORS
330
E8A6E
102
}
330
E8A6E
100
AcDbXrecord
280
     1
290
     1
  0
XRECORD
  5
E8A71
102
{ACAD_REACTORS
330
E8A70
102
}
330
E8A70
100
AcDbXrecord
280
     1
290
     1
  0
XRECORD
  5
E8A73
102
{ACAD_REACTORS
330
E8A72
102
}
330
E8A72
100
AcDbXrecord
280
     1
290
     1
  0
XRECORD
  5
E8A75
102
{ACAD_REACTORS
330
E8A74
102
}
330
E8A74
100
AcDbXrecord
280
     1
290
     1
  0
XRECORD
  5
E8A77
102
{ACAD_REACTORS
330
E8A76
102
}
330
E8A76
100
AcDbXrecord
280
     1
290
     1
  0
XRECORD
  5
E8A79
102
{ACAD_REACTORS
330
E8A78
102
}
330
E8A78
100
AcDbXrecord
280
     1
290
     1
  0
XRECORD
  5
E8A7B
102
{ACAD_REACTORS
330
E8A7A
102
}
330
E8A7A
100
AcDbXrecord
280
     1
290
     1
  0
XRECORD
  5
E8A7D
102
{ACAD_REACTORS
330
E8A7C
102
}
330
E8A7C
100
AcDbXrecord
280
     1
290
     1
  0
XRECORD
  5
E8A7F
102
{ACAD_REACTORS
330
E8A7E
102
}
330
E8A7E
100
AcDbXrecord
280
     1
290
     1
  0
XRECORD
  5
E8A81
102
{ACAD_REACTORS
330
E8A80
102
}
330
E8A80
100
AcDbXrecord
280
     1
290
     1
  0
XRECORD
  5
E8A83
102
{ACAD_REACTORS
330
E8A82
102
}
330
E8A82
100
AcDbXrecord
280
     1
290
     1
  0
XRECORD
  5
E8A85
102
{ACAD_REACTORS
330
E8A84
102
}
330
E8A84
100
AcDbXrecord
280
     1
290
     1
  0
XRECORD
  5
E8A87
102
{ACAD_REACTORS
330
E8A86
102
}
330
E8A86
100
AcDbXrecord
280
     1
290
     1
  0
XRECORD
  5
E8A89
102
{ACAD_REACTORS
330
E8A88
102
}
330
E8A88
100
AcDbXrecord
280
     1
290
     1
  0
XRECORD
  5
E8A8B
102
{ACAD_REACTORS
330
E8A8A
102
}
330
E8A8A
100
AcDbXrecord
280
     1
290
     1
  0
XRECORD
  5
E8A8D
102
{ACAD_REACTORS
330
E8A8C
102
}
330
E8A8C
100
AcDbXrecord
280
     1
290
     1
  0
XRECORD
  5
E8A8F
102
{ACAD_REACTORS
330
E8A8E
102
}
330
E8A8E
100
AcDbXrecord
280
     1
290
     1
  0
XRECORD
  5
E8A91
102
{ACAD_REACTORS
330
E8A90
102
}
330
E8A90
100
AcDbXrecord
280
     1
290
     1
  0
XRECORD
  5
E8A93
102
{ACAD_REACTORS
330
E8A92
102
}
330
E8A92
100
AcDbXrecord
280
     1
290
     1
  0
XRECORD
  5
E8A95
102
{ACAD_REACTORS
330
E8A94
102
}
330
E8A94
100
AcDbXrecord
280
     1
290
     1
  0
XRECORD
  5
E8A97
102
{ACAD_REACTORS
330
E8A96
102
}
330
E8A96
100
AcDbXrecord
280
     1
290
     1
  0
XRECORD
  5
E8A99
102
{ACAD_REACTORS
330
E8A98
102
}
330
E8A98
100
AcDbXrecord
280
     1
290
     1
  0
XRECORD
  5
E8A9B
102
{ACAD_REACTORS
330
E8A9A
102
}
330
E8A9A
100
AcDbXrecord
280
     1
290
     1
  0
XRECORD
  5
E8A9D
102
{ACAD_REACTORS
330
E8A9C
102
}
330
E8A9C
100
AcDbXrecord
280
     1
290
     1
  0
XRECORD
  5
E8A9F
102
{ACAD_REACTORS
330
E8A9E
102
}
330
E8A9E
100
AcDbXrecord
280
     1
290
     1
  0
XRECORD
  5
E8AA1
102
{ACAD_REACTORS
330
E8AA0
102
}
330
E8AA0
100
AcDbXrecord
280
     1
290
     1
  0
XRECORD
  5
E8AA3
102
{ACAD_REACTORS
330
E8AA2
102
}
330
E8AA2
100
AcDbXrecord
280
     1
290
     1
  0
SORTENTSTABLE
  5
E8606
102
{ACAD_REACTORS
330
E8605
102
}
330
E8605
100
AcDbSortentsTable
330
E8604
  0
XRECORD
  5
E8AAC
102
{ACAD_REACTORS
330
E8AAB
102
}
330
E8AAB
100
AcDbXrecord
280
     1
 40
1.570796326794896
  0
ACDBDETAILVIEWSTYLE
  5
E8A53
102
{ACAD_REACTORS
330
E8A52
102
}
330
E8A52
100
AcDbModelDocViewStyle
 70
     0
  3
Metric50
290
     0
100
AcDbDetailViewStyle
 70
     0
 71
     0
 90
        3
 71
     1
340
10
 40
5.0
340
0
 40
5.0
300

 40
0.0
280
     1
 71
     2
340
14
 90
       25
 71
     3
340
10
 40
5.0
 90
        0
 40
15.0
 90
        1
300
%<\AcVar ViewDetailId>% (%<\AcVar ViewScale \f "%sn">%)
 71
     4
340
14
 90
       25
340
14
 90
       25
280
     0
  0
LAYOUT
  5
33B
102
{ACAD_XDICTIONARY
360
E8AAF
102
}
102
{ACAD_REACTORS
330
301
102
}
330
301
100
AcDbPlotSettings
  1

  2
Lexmark Optra PS2
  4

  6

 40
0.0
 41
0.0
 42
0.0
 43
0.0
 44
0.0
 45
0.0
 46
0.0
 47
0.0
 48
0.0
 49
0.0
140
0.0
141
0.0
142
1.0
143
1.0
 70
   688
 72
     0
 73
     0
 74
     5
  7
monochrome.ctb
 75
    16
147
1.0
148
0.0
149
0.0
100
AcDbLayout
  1
Layout1
 70
     1
 71
     1
 10
0.0
 20
0.0
 11
12.0
 21
9.0
 12
0.0
 22
0.0
 32
0.0
 14
0.0
 24
0.0
 34
0.0
 15
0.0
 25
0.0
 35
0.0
146
0.0
 13
0.0
 23
0.0
 33
0.0
 16
1.0
 26
0.0
 36
0.0
 17
0.0
 27
1.0
 37
0.0
 76
     0
330
338
  0
LAYOUT
  5
303
102
{ACAD_XDICTIONARY
360
E8AAD
102
}
102
{ACAD_REACTORS
330
301
102
}
330
301
100
AcDbPlotSettings
  1

  2
Default Windows System Printer.pc3
  4
A4
  6

 40
6.805083274841307
 41
5.535083293914794
 42
6.974411010742187
 43
7.14373779296875
 44
209.9733276367186
 45
296.9259948730469
 46
67.83299579489725
 47
0.0
 48
0.0
 49
0.0
140
0.0
141
0.0
142
1.0
143
0.3604333568168785
 70
  3764
 72
     1
 73
     1
 74
     1
  7
monochrome.ctb
 75
     0
147
2.774437995504559
148
-82.35087775247029
149
-53.69369632994493
100
AcDbLayout
  1
Model
 70
     1
 71
     0
 10
0.0
 20
0.0
 11
12.0
 21
9.0
 12
0.0
 22
0.0
 32
0.0
 14
0.0
 24
0.0
 34
0.0
 15
0.0
 25
0.0
 35
0.0
146
0.0
 13
0.0
 23
0.0
 33
0.0
 16
1.0
 26
0.0
 36
0.0
 17
0.0
 27
1.0
 37
0.0
 76
     0
330
18
331
3ED
1001
ACAD_PSEXT
1000
Default Windows System Printer.pc3
1000
Lexmark Optra Rx
1000
Lexmark Rx
1000
Erstellt von Lexmark Benutzerdefinierte Installation,Nov 13,2005,10:03
1070
     0
  0
MATERIAL
  5
3F0
102
{ACAD_XDICTIONARY
360
E8A1B
102
}
102
{ACAD_REACTORS
330
386
102
}
330
386
100
AcDbMaterial
  1
ByBlock
 73
     1
 78
     1
172
     1
176
     1
270
     1
274
     1
  0
MATERIAL
  5
3EF
102
{ACAD_XDICTIONARY
360
E8A19
102
}
102
{ACAD_REACTORS
330
386
102
}
330
386
100
AcDbMaterial
  1
ByLayer
 73
     1
 78
     1
172
     1
176
     1
270
     1
274
     1
  0
MATERIAL
  5
3F1
102
{ACAD_XDICTIONARY
360
E8A1D
102
}
102
{ACAD_REACTORS
330
386
102
}
330
386
100
AcDbMaterial
  1
Global
 73
     1
 78
     1
172
     1
176
     1
270
     1
274
     1
  0
MLEADERSTYLE
  5
43D
102
{ACAD_REACTORS
330
43C
102
}
330
43C
100
AcDbMLeaderStyle
170
     2
171
     1
172
     0
 90
        2
 40
0.0
 41
0.0
173
     1
 91
-1056964608
340
12
 92
       -2
290
     1
 42
2.0
291
     1
 43
0.36
  3
Standard
 44
4.0
300

342
10
174
     1
178
     6
175
     1
176
     0
 93
-1056964608
 45
4.0
292
     0
297
     0
 46
4.0
 94
-1056964608
 47
1.0
 49
1.0
140
1.0
293
     1
141
0.0
294
     1
177
     0
142
1.0
295
     0
296
     0
143
0.125
1001
ACAD_MLEADERVER
1070
     2
  0
MLINESTYLE
  5
1B
102
{ACAD_REACTORS
330
E
102
}
330
E
100
AcDbMlineStyle
  2
STANDARD
 70
     0
  3

 62
     0
 51
90.0
 52
90.0
 71
     2
 49
0.5
 62
   256
  6
BYLAYER
 49
-0.5
 62
   256
  6
BYLAYER
  0
ACDBPLACEHOLDER
  5
300
102
{ACAD_REACTORS
330
2FF
102
}
330
2FF
  0
SCALE
  5
41B
102
{ACAD_REACTORS
330
41A
102
}
330
41A
100
AcDbScale
 70
     0
300
1:1
140
1.0
141
1.0
290
     1
  0
SCALE
  5
41C
102
{ACAD_REACTORS
330
41A
102
}
330
41A
100
AcDbScale
 70
     0
300
1:2
140
1.0
141
2.0
290
     0
  0
SCALE
  5
41D
102
{ACAD_REACTORS
330
41A
102
}
330
41A
100
AcDbScale
 70
     0
300
1:4
140
1.0
141
4.0
290
     0
  0
SCALE
  5
41E
102
{ACAD_REACTORS
330
41A
102
}
330
41A
100
AcDbScale
 70
     0
300
1:5
140
1.0
141
5.0
290
     0
  0
SCALE
  5
41F
102
{ACAD_REACTORS
330
41A
102
}
330
41A
100
AcDbScale
 70
     0
300
1:8
140
1.0
141
8.0
290
     0
  0
SCALE
  5
420
102
{ACAD_REACTORS
330
41A
102
}
330
41A
100
AcDbScale
 70
     0
300
1:10
140
1.0
141
10.0
290
     0
  0
SCALE
  5
421
102
{ACAD_REACTORS
330
41A
102
}
330
41A
100
AcDbScale
 70
     0
300
1:16
140
1.0
141
16.0
290
     0
  0
SCALE
  5
422
102
{ACAD_REACTORS
330
41A
102
}
330
41A
100
AcDbScale
 70
     0
300
1:20
140
1.0
141
20.0
290
     0
  0
SCALE
  5
423
102
{ACAD_REACTORS
330
41A
102
}
330
41A
100
AcDbScale
 70
     0
300
1:30
140
1.0
141
30.0
290
     0
  0
SCALE
  5
424
102
{ACAD_REACTORS
330
41A
102
}
330
41A
100
AcDbScale
 70
     0
300
1:40
140
1.0
141
40.0
290
     0
  0
SCALE
  5
425
102
{ACAD_REACTORS
330
41A
102
}
330
41A
100
AcDbScale
 70
     0
300
1:50
140
1.0
141
50.0
290
     0
  0
SCALE
  5
426
102
{ACAD_REACTORS
330
41A
102
}
330
41A
100
AcDbScale
 70
     0
300
1:100
140
1.0
141
100.0
290
     0
  0
SCALE
  5
427
102
{ACAD_REACTORS
330
41A
102
}
330
41A
100
AcDbScale
 70
     0
300
2:1
140
2.0
141
1.0
290
     0
  0
SCALE
  5
428
102
{ACAD_REACTORS
330
41A
102
}
330
41A
100
AcDbScale
 70
     0
300
4:1
140
4.0
141
1.0
290
     0
  0
SCALE
  5
429
102
{ACAD_REACTORS
330
41A
102
}
330
41A
100
AcDbScale
 70
     0
300
8:1
140
8.0
141
1.0
290
     0
  0
SCALE
  5
42A
102
{ACAD_REACTORS
330
41A
102
}
330
41A
100
AcDbScale
 70
     0
300
10:1
140
10.0
141
1.0
290
     0
  0
SCALE
  5
42B
102
{ACAD_REACTORS
330
41A
102
}
330
41A
100
AcDbScale
 70
     0
300
100:1
140
100.0
141
1.0
290
     0
  0
SCALE
  5
42C
102
{ACAD_REACTORS
330
41A
102
}
330
41A
100
AcDbScale
 70
     0
300
1/128" = 1'-0"
140
0.0078125
141
12.0
290
     0
  0
SCALE
  5
42D
102
{ACAD_REACTORS
330
41A
102
}
330
41A
100
AcDbScale
 70
     0
300
1/64" = 1'-0"
140
0.015625
141
12.0
290
     0
  0
SCALE
  5
42E
102
{ACAD_REACTORS
330
41A
102
}
330
41A
100
AcDbScale
 70
     0
300
1/32" = 1'-0"
140
0.03125
141
12.0
290
     0
  0
SCALE
  5
42F
102
{ACAD_REACTORS
330
41A
102
}
330
41A
100
AcDbScale
 70
     0
300
1/16" = 1'-0"
140
0.0625
141
12.0
290
     0
  0
SCALE
  5
430
102
{ACAD_REACTORS
330
41A
102
}
330
41A
100
AcDbScale
 70
     0
300
3/32" = 1'-0"
140
0.09375
141
12.0
290
     0
  0
SCALE
  5
431
102
{ACAD_REACTORS
330
41A
102
}
330
41A
100
AcDbScale
 70
     0
300
1/8" = 1'-0"
140
0.125
141
12.0
290
     0
  0
SCALE
  5
432
102
{ACAD_REACTORS
330
41A
102
}
330
41A
100
AcDbScale
 70
     0
300
3/16" = 1'-0"
140
0.1875
141
12.0
290
     0
  0
SCALE
  5
433
102
{ACAD_REACTORS
330
41A
102
}
330
41A
100
AcDbScale
 70
     0
300
1/4" = 1'-0"
140
0.25
141
12.0
290
     0
  0
SCALE
  5
434
102
{ACAD_REACTORS
330
41A
102
}
330
41A
100
AcDbScale
 70
     0
300
3/8" = 1'-0"
140
0.375
141
12.0
290
     0
  0
SCALE
  5
435
102
{ACAD_REACTORS
330
41A
102
}
330
41A
100
AcDbScale
 70
     0
300
1/2" = 1'-0"
140
0.5
141
12.0
290
     0
  0
SCALE
  5
436
102
{ACAD_REACTORS
330
41A
102
}
330
41A
100
AcDbScale
 70
     0
300
3/4" = 1'-0"
140
0.75
141
12.0
290
     0
  0
SCALE
  5
437
102
{ACAD_REACTORS
330
41A
102
}
330
41A
100
AcDbScale
 70
     0
300
1" = 1'-0"
140
1.0
141
12.0
290
     0
  0
SCALE
  5
438
102
{ACAD_REACTORS
330
41A
102
}
330
41A
100
AcDbScale
 70
     0
300
1-1/2" = 1'-0"
140
1.5
141
12.0
290
     0
  0
SCALE
  5
439
102
{ACAD_REACTORS
330
41A
102
}
330
41A
100
AcDbScale
 70
     0
300
3" = 1'-0"
140
3.0
141
12.0
290
     0
  0
SCALE
  5
43A
102
{ACAD_REACTORS
330
41A
102
}
330
41A
100
AcDbScale
 70
     0
300
6" = 1'-0"
140
6.0
141
12.0
290
     0
  0
SCALE
  5
43B
102
{ACAD_REACTORS
330
41A
102
}
330
41A
100
AcDbScale
 70
     0
300
1'-0" = 1'-0"
140
12.0
141
12.0
290
     0
  0
ACDBSECTIONVIEWSTYLE
  5
E8A51
102
{ACAD_REACTORS
330
E8A50
102
}
330
E8A50
100
AcDbModelDocViewStyle
 70
     0
  3
Metric50
290
     0
100
AcDbSectionViewStyle
 70
     0
 71
     0
 90
      102
 71
     1
340
10
 40
5.0
340
0
340
0
 40
5.0
300
I, O, Q, S, X, Z
 40
10.0
 90
        0
 40
2.5
 90
        0
 71
     2
340
14
 90
       25
340
14
 90
       50
 40
5.0
 40
2.5
 40
5.0
 71
     3
340
10
 40
5.0
 90
        0
 40
15.0
 90
        1
300
%<\AcVar ViewSectionStartId>%-%<\AcVar ViewSectionEndId>% (%<\AcVar ViewScale \f "%sn">%)
 71
     4
300
ANSI31
 40
1.0
 90
        0
290
     0
290
     0
 90
        6
 40
0.0
 40
1.570796326794896
 40
0.2617993877991494
 40
1.308996938995747
 40
-0.2617993877991494
 40
1.832595714594046
  0
TABLESTYLE
  5
389
102
{ACAD_XDICTIONARY
360
444
102
}
102
{ACAD_REACTORS
330
388
102
}
330
388
100
AcDbTableStyle
  3
Standard
 70
     0
 71
     0
 40
1.5
 41
1.5
280
     0
281
     0
  7
STANDARD
140
4.5
170
     2
 62
     0
 63
     7
283
     0
274
    -2
284
     1
 64
     0
275
    -2
285
     1
 65
     0
276
    -2
286
     1
 66
     0
277
    -2
287
     1
 67
     0
278
    -2
288
     1
 68
     0
279
    -2
289
     1
 69
     0
  7
STANDARD
140
6.0
170
     5
 62
     0
 63
     7
283
     0
274
    -2
284
     1
 64
     0
275
    -2
285
     1
 65
     0
276
    -2
286
     1
 66
     0
277
    -2
287
     1
 67
     0
278
    -2
288
     1
 68
     0
279
    -2
289
     1
 69
     0
  7
STANDARD
140
4.5
170
     5
 62
     0
 63
     7
283
     0
274
    -2
284
     1
 64
     0
275
    -2
285
     1
 65
     0
276
    -2
286
     1
 66
     0
277
    -2
287
     1
 67
     0
278
    -2
288
     1
 68
     0
279
    -2
289
     1
 69
     0
  0
VISUALSTYLE
  5
3F8
102
{ACAD_XDICTIONARY
360
E8ABC
102
}
102
{ACAD_REACTORS
330
3F2
102
}
330
3F2
100
AcDbVisualStyle
  2

 70
     4
 71
     0
 72
     2
 73
     0
 90
        0
 40
-0.6
 41
-30.0
 62
     5
 63
     7
 74
     1
 91
        4
 64
     7
 65
   257
 75
     1
175
     1
 42
1.0
 92
        0
 66
   257
 43
1.0
 76
     1
 77
     6
 78
     2
 67
     7
 79
     5
170
     0
171
     0
290
     0
174
     0
 93
        1
 44
0.0
173
     0
291
     0
 45
0.0
1001
ACAD
1000
AcDbSavedByObjectVersion
1070
     0
  0
VISUALSTYLE
  5
3FA
102
{ACAD_XDICTIONARY
360
E8AC0
102
}
102
{ACAD_REACTORS
330
3F2
102
}
330
3F2
100
AcDbVisualStyle
  2

 70
     6
 71
     1
 72
     2
 73
     2
 90
        0
 40
-0.6
 41
-30.0
 62
     5
 63
     7
 74
     2
 91
        2
 64
     7
 65
   257
 75
     2
175
     1
 42
40.0
 92
        0
 66
   257
 43
1.0
 76
     1
 77
     6
 78
     2
 67
     7
 79
     3
170
     0
171
     0
290
     0
174
     0
 93
        1
 44
0.0
173
     0
291
     0
 45
0.0
1001
ACAD
1000
AcDbSavedByObjectVersion
1070
     0
  0
VISUALSTYLE
  5
3F9
102
{ACAD_XDICTIONARY
360
E8ABE
102
}
102
{ACAD_REACTORS
330
3F2
102
}
330
3F2
100
AcDbVisualStyle
  2

 70
     5
 71
     0
 72
     2
 73
     0
 90
        0
 40
-0.6
 41
-30.0
 62
     5
 63
     7
 74
     1
 91
        4
 64
     7
 65
   257
 75
     1
175
     1
 42
1.0
 92
        0
 66
   257
 43
1.0
 76
     1
 77
     6
 78
     2
 67
     7
 79
     5
170
     0
171
     0
290
     0
174
     0
 93
        1
 44
0.0
173
     0
291
     0
 45
0.0
1001
ACAD
1000
AcDbSavedByObjectVersion
1070
     0
  0
VISUALSTYLE
  5
3F7
102
{ACAD_XDICTIONARY
360
E8ABA
102
}
102
{ACAD_REACTORS
330
3F2
102
}
330
3F2
100
AcDbVisualStyle
  2

 70
     7
 71
     1
 72
     0
 73
     1
 90
        0
 40
-0.6
 41
-30.0
 62
     5
 63
     7
 74
     0
 91
        4
 64
     7
 65
   257
 75
     1
175
     1
 42
1.0
 92
        8
 66
     7
 43
1.0
 76
     1
 77
     6
 78
     2
 67
     7
 79
     5
170
     0
171
     0
290
     0
174
     0
 93
        1
 44
0.0
173
     0
291
     1
 45
0.0
1001
ACAD
1000
AcDbSavedByObjectVersion
1070
     0
  0
VISUALSTYLE
  5
3FE
102
{ACAD_XDICTIONARY
360
E8AC8
102
}
102
{ACAD_REACTORS
330
3F2
102
}
330
3F2
100
AcDbVisualStyle
  2

 70
    12
 71
     2
 72
     2
 73
     0
 90
        0
 40
-0.6
 41
-30.0
 62
     5
 63
     7
 74
     1
 91
        4
 64
     7
 65
   257
 75
     1
175
     1
 42
1.0
 92
        8
 66
     7
 43
1.0
 76
     1
 77
     6
 78
     2
 67
     7
 79
     5
170
     0
171
     0
290
     0
174
     0
 93
        1
 44
50.0
173
     0
291
     1
 45
0.0
1001
ACAD
1000
AcDbSavedByObjectVersion
1070
     0
  0
VISUALSTYLE
  5
402
102
{ACAD_XDICTIONARY
360
E8AD0
102
}
102
{ACAD_REACTORS
330
3F2
102
}
330
3F2
100
AcDbVisualStyle
  2

 70
    16
 71
     2
 72
     2
 73
     3
 90
        0
 40
-0.6
 41
-30.0
 62
     5
 63
     8
 74
     1
 91
        4
 64
     7
 65
   257
 75
     1
175
     1
 42
1.0
 92
        8
 66
     8
 43
1.0
 76
     1
 77
     6
 78
     2
 67
     7
 79
     5
170
     0
171
     0
290
     0
174
     0
 93
        1
 44
0.0
173
     0
291
     1
 45
0.0
1001
ACAD
1000
AcDbSavedByObjectVersion
1070
     0
  0
VISUALSTYLE
  5
3FB
102
{ACAD_XDICTIONARY
360
E8AC2
102
}
102
{ACAD_REACTORS
330
3F2
102
}
330
3F2
100
AcDbVisualStyle
  2

 70
     9
 71
     3
 72
     2
 73
     0
 90
        0
 40
-0.6
 41
-30.0
 62
     5
 63
     7
 74
     2
 91
        2
 64
     7
 65
   257
 75
     1
175
     1
 42
40.0
 92
        8
 66
     7
 43
1.0
 76
     1
 77
     6
 78
     2
 67
     7
 79
     3
170
     0
171
     0
290
     0
174
     0
 93
        1
 44
0.0
173
     0
291
     0
 45
0.0
1001
ACAD
1000
AcDbSavedByObjectVersion
1070
     0
  0
VISUALSTYLE
  5
3FD
102
{ACAD_XDICTIONARY
360
E8AC6
102
}
102
{ACAD_REACTORS
330
3F2
102
}
330
3F2
100
AcDbVisualStyle
  2

 70
    11
 71
     2
 72
     2
 73
     0
 90
        0
 40
-0.6
 41
-30.0
 62
     5
 63
     7
 74
     1
 91
        4
 64
     7
 65
   257
 75
     1
175
     1
 42
1.0
 92
        8
 66
     7
 43
1.0
 76
     1
 77
     6
 78
     2
 67
     7
 79
     5
170
     0
171
     0
290
     0
174
     0
 93
        1
 44
-50.0
173
     0
291
     1
 45
0.0
1001
ACAD
1000
AcDbSavedByObjectVersion
1070
     0
  0
VISUALSTYLE
  5
44E
102
{ACAD_XDICTIONARY
360
E8AD6
102
}
102
{ACAD_REACTORS
330
3F2
102
}
330
3F2
100
AcDbVisualStyle
  2

 70
    22
 71
     2
 72
     2
 73
     0
 90
        0
 40
-0.6
 41
-30.0
 62
     5
 63
     7
 74
     1
 91
        4
 64
     7
 65
   257
 75
     1
175
     1
 42
1.0
 92
        8
 66
     7
 43
1.0
 76
     1
 77
     6
 78
     2
 67
     7
 79
     5
170
     0
171
     0
290
     0
174
     0
 93
        1
 44
0.0
173
     0
291
     1
 45
0.0
1001
ACAD
1000
AcDbSavedByObjectVersion
1070
     0
  0
VISUALSTYLE
  5
401
102
{ACAD_XDICTIONARY
360
E8ACE
102
}
102
{ACAD_REACTORS
330
3F2
102
}
330
3F2
100
AcDbVisualStyle
  2

 70
    15
 71
     2
 72
     2
 73
     0
 90
        0
 40
-0.6
 41
-30.0
 62
     5
 63
     7
 74
     1
 91
        4
 64
     7
 65
   257
 75
     1
175
     1
 42
1.0
 92
        8
 66
     7
 43
1.0
 76
     1
 77
     6
 78
     2
 67
     7
 79
     5
170
     0
171
     0
290
     0
174
     0
 93
        1
 44
0.0
173
     0
291
     1
 45
0.0
1001
ACAD
1000
AcDbSavedByObjectVersion
1070
     0
  0
VISUALSTYLE
  5
3F3
102
{ACAD_XDICTIONARY
360
E8AB2
102
}
102
{ACAD_REACTORS
330
3F2
102
}
330
3F2
100
AcDbVisualStyle
  2

 70
     0
 71
     2
 72
     1
 73
     1
 90
        2
 40
-0.6
 41
30.0
 62
     5
 63
     7
 74
     0
 91
        4
 64
     7
 65
   257
 75
     1
175
     1
 42
1.0
 92
        8
 66
     7
 43
1.0
 76
     1
 77
     6
 78
     2
 67
     7
 79
     5
170
     0
171
     0
290
     0
174
     0
 93
       13
 44
0.0
173
     0
291
     1
 45
0.0
1001
ACAD
1000
AcDbSavedByObjectVersion
1070
     0
  0
VISUALSTYLE
  5
3F4
102
{ACAD_XDICTIONARY
360
E8AB4
102
}
102
{ACAD_REACTORS
330
3F2
102
}
330
3F2
100
AcDbVisualStyle
  2

 70
     1
 71
     2
 72
     1
 73
     1
 90
        2
 40
-0.6
 41
30.0
 62
     5
 63
     7
 74
     1
 91
        4
 64
     7
 65
   257
 75
     1
175
     1
 42
1.0
 92
        0
 66
   257
 43
1.0
 76
     1
 77
     6
 78
     2
 67
     7
 79
     5
170
     0
171
     0
290
     0
174
     0
 93
       13
 44
0.0
173
     0
291
     1
 45
0.0
1001
ACAD
1000
AcDbSavedByObjectVersion
1070
     0
  0
VISUALSTYLE
  5
3F5
102
{ACAD_XDICTIONARY
360
E8AB6
102
}
102
{ACAD_REACTORS
330
3F2
102
}
330
3F2
100
AcDbVisualStyle
  2

 70
     2
 71
     2
 72
     2
 73
     1
 90
        2
 40
-0.6
 41
30.0
 62
     5
 63
     7
 74
     0
 91
        4
 64
     7
 65
   257
 75
     1
175
     1
 42
1.0
 92
        0
 66
     7
 43
1.0
 76
     1
 77
     6
 78
     2
 67
     7
 79
     5
170
     0
171
     0
290
     0
174
     0
 93
       13
 44
0.0
173
     0
291
     1
 45
0.0
1001
ACAD
1000
AcDbSavedByObjectVersion
1070
     0
  0
VISUALSTYLE
  5
3F6
102
{ACAD_XDICTIONARY
360
E8AB8
102
}
102
{ACAD_REACTORS
330
3F2
102
}
330
3F2
100
AcDbVisualStyle
  2

 70
     3
 71
     2
 72
     2
 73
     1
 90
        2
 40
-0.6
 41
30.0
 62
     5
 63
     7
 74
     1
 91
        4
 64
     7
 65
   257
 75
     1
175
     1
 42
1.0
 92
        0
 66
   257
 43
1.0
 76
     1
 77
     6
 78
     2
 67
     7
 79
     5
170
     0
171
     0
290
     0
174
     0
 93
       13
 44
0.0
173
     0
291
     1
 45
0.0
1001
ACAD
1000
AcDbSavedByObjectVersion
1070
     0
  0
VISUALSTYLE
  5
E8A4A
102
{ACAD_XDICTIONARY
360
E8ADB
102
}
102
{ACAD_REACTORS
330
3F2
102
}
330
3F2
100
AcDbVisualStyle
  2
Hidden
 70
     6
 71
     1
 72
     2
 73
     2
 90
        0
 40
-0.6
 41
-30.0
 62
     5
 63
     7
 74
     2
 91
        2
 64
     7
 65
   257
 75
     2
175
     1
 42
40.0
 92
        0
 66
   257
 43
1.0
 76
     1
 77
     6
 78
     2
 67
     7
 79
     3
170
     0
171
     0
290
     0
174
     0
 93
        1
 44
0.0
173
     0
291
     0
 45
0.0
1001
ACAD
1000
AcDbSavedByObjectVersion
1070
     0
  0
VISUALSTYLE
  5
44C
102
{ACAD_XDICTIONARY
360
E8AD2
102
}
102
{ACAD_REACTORS
330
3F2
102
}
330
3F2
100
AcDbVisualStyle
  2

 70
    20
 71
     2
 72
     2
 73
     0
 90
        0
 40
-0.6
 41
-30.0
 62
     5
 63
     7
 74
     1
 91
        4
 64
     7
 65
   257
 75
     1
175
     1
 42
1.0
 92
       10
 66
     7
 43
1.0
 76
     1
 77
     6
 78
     2
 67
     7
 79
     5
170
     0
171
     0
290
     0
174
     0
 93
        1
 44
0.0
173
     0
291
     1
 45
0.0
1001
ACAD
1000
AcDbSavedByObjectVersion
1070
     0
  0
VISUALSTYLE
  5
400
102
{ACAD_XDICTIONARY
360
E8ACC
102
}
102
{ACAD_REACTORS
330
3F2
102
}
330
3F2
100
AcDbVisualStyle
  2

 70
    14
 71
     2
 72
     2
 73
     0
 90
        0
 40
-0.6
 41
-30.0
 62
     5
 63
     7
 74
     1
 91
        4
 64
     7
 65
   257
 75
     7
175
     7
 42
1.0
 92
        8
 66
     7
 43
1.0
 76
     1
 77
     6
 78
     2
 67
     7
 79
     5
170
     0
171
     0
290
     0
174
     0
 93
        1
 44
0.0
173
     0
291
     1
 45
0.0
1001
ACAD
1000
AcDbSavedByObjectVersion
1070
     0
  0
VISUALSTYLE
  5
44D
102
{ACAD_XDICTIONARY
360
E8AD4
102
}
102
{ACAD_REACTORS
330
3F2
102
}
330
3F2
100
AcDbVisualStyle
  2

 70
    21
 71
     2
 72
     2
 73
     0
 90
        0
 40
-0.6
 41
-30.0
 62
     5
 63
     7
 74
     1
 91
        4
 64
     7
 65
   257
 75
     1
175
     1
 42
1.0
 92
        9
 66
     7
 43
1.0
 76
     1
 77
     6
 78
     2
 67
     7
 79
     5
170
     0
171
     0
290
     0
174
     0
 93
        1
 44
0.0
173
     0
291
     1
 45
0.0
1001
ACAD
1000
AcDbSavedByObjectVersion
1070
     0
  0
VISUALSTYLE
  5
3FC
102
{ACAD_XDICTIONARY
360
E8AC4
102
}
102
{ACAD_REACTORS
330
3F2
102
}
330
3F2
100
AcDbVisualStyle
  2

 70
     8
 71
     2
 72
     2
 73
     0
 90
        0
 40
-0.6
 41
-30.0
 62
     5
 63
     7
 74
     1
 91
        0
 64
     7
 65
   257
 75
     1
175
     1
 42
1.0
 92
        8
 66
     8
 43
1.0
 76
     1
 77
     6
 78
     2
 67
     7
 79
     5
170
     0
171
     0
290
     0
174
     0
 93
       13
 44
0.0
173
     0
291
     0
 45
0.0
1001
ACAD
1000
AcDbSavedByObjectVersion
1070
     0
  0
VISUALSTYLE
  5
E8A4F
102
{ACAD_XDICTIONARY
360
E8AE5
102
}
102
{ACAD_REACTORS
330
3F2
102
}
330
3F2
100
AcDbVisualStyle
  2
Shaded
 70
    27
 71
     2
 72
     2
 73
     1
 90
        2
 40
-0.6
 41
30.0
 62
     5
 63
     7
 74
     0
 91
        4
 64
     7
 65
   257
 75
     1
175
     1
 42
1.0
 92
        8
 66
   257
 43
1.0
 76
     1
 77
     6
 78
     2
 67
     8
 79
     3
170
     0
171
     0
290
     0
174
     0
 93
        5
 44
0.0
173
     0
291
     0
 45
0.0
1001
ACAD
1000
AcDbSavedByObjectVersion
1070
     0
  0
VISUALSTYLE
  5
E8A4E
102
{ACAD_XDICTIONARY
360
E8AE3
102
}
102
{ACAD_REACTORS
330
3F2
102
}
330
3F2
100
AcDbVisualStyle
  2
Shaded with edges
 70
    26
 71
     2
 72
     2
 73
     1
 90
        2
 40
-0.6
 41
30.0
 62
     5
 63
     7
 74
     1
 91
       10
 64
     7
 65
   257
 75
     2
175
     1
 42
1.0
 92
        8
 66
   257
 43
1.0
 76
     1
 77
     6
 78
     2
 67
     7
 79
     3
170
     0
171
     0
290
     0
174
     0
 93
        5
 44
0.0
173
     0
291
     0
 45
0.0
1001
ACAD
1000
AcDbSavedByObjectVersion
1070
     0
  0
VISUALSTYLE
  5
E8A4B
102
{ACAD_XDICTIONARY
360
E8ADD
102
}
102
{ACAD_REACTORS
330
3F2
102
}
330
3F2
100
AcDbVisualStyle
  2
Shades of Gray
 70
    23
 71
     2
 72
     2
 73
     3
 90
        0
 40
-0.6
 41
-30.0
 62
     5
 63
     7
 74
     2
 91
        2
 64
     7
 65
     7
 75
     1
175
     1
 42
40.0
 92
        8
 66
     7
 43
1.0
 76
     1
 77
     6
 78
     2
 67
     7
 79
     3
170
     0
171
     0
290
     0
174
     0
 93
        1
 44
0.0
173
     0
291
     0
 45
0.0
1001
ACAD
1000
AcDbSavedByObjectVersion
1070
     0
  0
VISUALSTYLE
  5
E8A4C
102
{ACAD_XDICTIONARY
360
E8ADF
102
}
102
{ACAD_REACTORS
330
3F2
102
}
330
3F2
100
AcDbVisualStyle
  2
Sketchy
 70
    24
 71
     1
 72
     2
 73
     2
 90
        0
 40
-0.6
 41
-30.0
 62
     5
 63
     7
 74
     2
 91
        2
 64
     7
 65
     7
 75
     1
175
     1
 42
40.0
 92
       11
 66
     7
 43
1.0
 76
     1
 77
     6
 78
     2
 67
     7
 79
     6
170
     0
171
     0
290
     0
174
     0
 93
        1
 44
0.0
173
     0
291
     0
 45
0.0
1001
ACAD
1000
AcDbSavedByObjectVersion
1070
     0
  0
VISUALSTYLE
  5
3FF
102
{ACAD_XDICTIONARY
360
E8ACA
102
}
102
{ACAD_REACTORS
330
3F2
102
}
330
3F2
100
AcDbVisualStyle
  2

 70
    13
 71
     2
 72
     2
 73
     0
 90
        0
 40
-0.6
 41
-30.0
 62
     5
 63
     7
 74
     1
 91
        4
 64
     7
 65
   257
 75
     1
175
     1
 42
1.0
 92
       12
 66
     7
 43
1.0
 76
     1
 77
     6
 78
     2
 67
     7
 79
     5
170
     0
171
     0
290
     0
174
     0
 93
        1
 44
0.0
173
     0
291
     1
 45
0.0
1001
ACAD
1000
AcDbSavedByObjectVersion
1070
     0
  0
VISUALSTYLE
  5
E8A49
102
{ACAD_XDICTIONARY
360
E8AD9
102
}
102
{ACAD_REACTORS
330
3F2
102
}
330
3F2
100
AcDbVisualStyle
  2
Wireframe
 70
     5
 71
     0
 72
     2
 73
     0
 90
        0
 40
-0.6
 41
-30.0
 62
     5
 63
     7
 74
     1
 91
        4
 64
     7
 65
   257
 75
     1
175
     1
 42
1.0
 92
        0
 66
   257
 43
1.0
 76
     1
 77
     6
 78
     2
 67
     7
 79
     3
170
     0
171
     0
290
     0
174
     0
 93
        1
 44
0.0
173
     0
291
     0
 45
0.0
1001
ACAD
1000
AcDbSavedByObjectVersion
1070
     0
  0
VISUALSTYLE
  5
E8A4D
102
{ACAD_XDICTIONARY
360
E8AE1
102
}
102
{ACAD_REACTORS
330
3F2
102
}
330
3F2
100
AcDbVisualStyle
  2
X-Ray
 70
    25
 71
     2
 72
     2
 73
     1
 90
        1
 40
0.5
 41
-30.0
 62
     5
 63
     7
 74
     1
 91
        0
 64
     7
 65
   257
 75
     1
175
     1
 42
1.0
 92
        8
 66
     7
 43
1.0
 76
     1
 77
     6
 78
     2
 67
     7
 79
     3
170
     0
171
     0
290
     0
174
     0
 93
       13
 44
0.0
173
     0
291
     0
 45
0.0
1001
ACAD
1000
AcDbSavedByObjectVersion
1070
     0
  0
DICTIONARYVAR
  5
449
102
{ACAD_REACTORS
330
357
102
}
330
357
100
DictionaryVariables
280
     0
  1
1:1
  0
DICTIONARYVAR
  5
447
102
{ACAD_REACTORS
330
357
102
}
330
357
100
DictionaryVariables
280
     0
  1
STANDARD
  0
DICTIONARYVAR
  5
38E
102
{ACAD_REACTORS
330
357
102
}
330
357
100
DictionaryVariables
280
     0
  1
STANDARD
  0
DICTIONARYVAR
  5
E8AA4
102
{ACAD_REACTORS
330
357
102
}
330
357
100
DictionaryVariables
280
     0
  1
Metric50
  0
DICTIONARYVAR
  5
E8AA5
102
{ACAD_REACTORS
330
357
102
}
330
357
100
DictionaryVariables
280
     0
  1
Metric50
  0
DICTIONARYVAR
  5
359
102
{ACAD_REACTORS
330
357
102
}
330
357
100
DictionaryVariables
280
     0
  1
2
  0
DICTIONARYVAR
  5
358
102
{ACAD_REACTORS
330
357
102
}
330
357
100
DictionaryVariables
280
     0
  1
1
  0
DICTIONARYVAR
  5
1260
102
{ACAD_REACTORS
330
357
102
}
330
357
100
DictionaryVariables
280
     0
  1
0
  0
DICTIONARYVAR
  5
458
102
{ACAD_REACTORS
330
357
102
}
330
357
100
DictionaryVariables
280
     0
  1
1
  0
DICTIONARYVAR
  5
459
102
{ACAD_REACTORS
330
357
102
}
330
357
100
DictionaryVariables
280
     0
  1
15
  0
DICTIONARYVAR
  5
44A
102
{ACAD_REACTORS
330
357
102
}
330
357
100
DictionaryVariables
280
     0
  1
0
  0
DICTIONARYVAR
  5
448
102
{ACAD_REACTORS
330
357
102
}
330
357
100
DictionaryVariables
280
     0
  1
0
  0
DICTIONARYVAR
  5
125F
102
{ACAD_REACTORS
330
357
102
}
330
357
100
DictionaryVariables
280
     0
  1
127
  0
DICTIONARYVAR
  5
E8AA6
102
{ACAD_REACTORS
330
357
102
}
330
357
100
DictionaryVariables
280
     0
  1
2
  0
DICTIONARY
  5
E8AAF
330
33B
100
AcDbDictionary
280
     1
281
     1
  3
ACAD_XREC_ROUNDTRIP
360
E8AB0
  0
DICTIONARY
  5
E8AAD
330
303
100
AcDbDictionary
280
     1
281
     1
  3
ACAD_XREC_ROUNDTRIP
360
E8AAE
  0
DICTIONARY
  5
E8A1B
330
3F0
100
AcDbDictionary
280
     1
281
     1
  3
ACAD_XREC_ROUNDTRIP
360
E8A1C
  0
DICTIONARY
  5
E8A19
330
3EF
100
AcDbDictionary
280
     1
281
     1
  3
ACAD_XREC_ROUNDTRIP
360
E8A1A
  0
DICTIONARY
  5
E8A1D
330
3F1
100
AcDbDictionary
280
     1
281
     1
  3
ACAD_XREC_ROUNDTRIP
360
E8A1E
  0
DICTIONARY
  5
444
330
389
100
AcDbDictionary
280
     1
281
     1
  3
ACAD_ROUNDTRIP_2008_TABLESTYLE_CELLSTYLEMAP
360
E8AA8
  3
ACAD_XREC_ROUNDTRIP
360
E8AB1
  0
DICTIONARY
  5
E8ABC
330
3F8
100
AcDbDictionary
280
     1
281
     1
  3
ACAD_XREC_ROUNDTRIP
360
E8ABD
  0
DICTIONARY
  5
E8AC0
330
3FA
100
AcDbDictionary
280
     1
281
     1
  3
ACAD_XREC_ROUNDTRIP
360
E8AC1
  0
DICTIONARY
  5
E8ABE
330
3F9
100
AcDbDictionary
280
     1
281
     1
  3
ACAD_XREC_ROUNDTRIP
360
E8ABF
  0
DICTIONARY
  5
E8ABA
330
3F7
100
AcDbDictionary
280
     1
281
     1
  3
ACAD_XREC_ROUNDTRIP
360
E8ABB
  0
DICTIONARY
  5
E8AC8
330
3FE
100
AcDbDictionary
280
     1
281
     1
  3
ACAD_XREC_ROUNDTRIP
360
E8AC9
  0
DICTIONARY
  5
E8AD0
330
402
100
AcDbDictionary
280
     1
281
     1
  3
ACAD_XREC_ROUNDTRIP
360
E8AD1
  0
DICTIONARY
  5
E8AC2
330
3FB
100
AcDbDictionary
280
     1
281
     1
  3
ACAD_XREC_ROUNDTRIP
360
E8AC3
  0
DICTIONARY
  5
E8AC6
330
3FD
100
AcDbDictionary
280
     1
281
     1
  3
ACAD_XREC_ROUNDTRIP
360
E8AC7
  0
DICTIONARY
  5
E8AD6
330
44E
100
AcDbDictionary
280
     1
281
     1
  3
ACAD_XREC_ROUNDTRIP
360
E8AD7
  0
DICTIONARY
  5
E8ACE
330
401
100
AcDbDictionary
280
     1
281
     1
  3
ACAD_XREC_ROUNDTRIP
360
E8ACF
  0
DICTIONARY
  5
E8AB2
330
3F3
100
AcDbDictionary
280
     1
281
     1
  3
ACAD_XREC_ROUNDTRIP
360
E8AB3
  0
DICTIONARY
  5
E8AB4
330
3F4
100
AcDbDictionary
280
     1
281
     1
  3
ACAD_XREC_ROUNDTRIP
360
E8AB5
  0
DICTIONARY
  5
E8AB6
330
3F5
100
AcDbDictionary
280
     1
281
     1
  3
ACAD_XREC_ROUNDTRIP
360
E8AB7
  0
DICTIONARY
  5
E8AB8
330
3F6
100
AcDbDictionary
280
     1
281
     1
  3
ACAD_XREC_ROUNDTRIP
360
E8AB9
  0
DICTIONARY
  5
E8ADB
330
E8A4A
100
AcDbDictionary
280
     1
281
     1
  3
ACAD_XREC_ROUNDTRIP
360
E8ADC
  0
DICTIONARY
  5
E8AD2
330
44C
100
AcDbDictionary
280
     1
281
     1
  3
ACAD_XREC_ROUNDTRIP
360
E8AD3
  0
DICTIONARY
  5
E8ACC
330
400
100
AcDbDictionary
280
     1
281
     1
  3
ACAD_XREC_ROUNDTRIP
360
E8ACD
  0
DICTIONARY
  5
E8AD4
330
44D
100
AcDbDictionary
280
     1
281
     1
  3
ACAD_XREC_ROUNDTRIP
360
E8AD5
  0
DICTIONARY
  5
E8AC4
330
3FC
100
AcDbDictionary
280
     1
281
     1
  3
ACAD_XREC_ROUNDTRIP
360
E8AC5
  0
DICTIONARY
  5
E8AE5
330
E8A4F
100
AcDbDictionary
280
     1
281
     1
  3
ACAD_XREC_ROUNDTRIP
360
E8AE6
  0
DICTIONARY
  5
E8AE3
330
E8A4E
100
AcDbDictionary
280
     1
281
     1
  3
ACAD_XREC_ROUNDTRIP
360
E8AE4
  0
DICTIONARY
  5
E8ADD
330
E8A4B
100
AcDbDictionary
280
     1
281
     1
  3
ACAD_XREC_ROUNDTRIP
360
E8ADE
  0
DICTIONARY
  5
E8ADF
330
E8A4C
100
AcDbDictionary
280
     1
281
     1
  3
ACAD_XREC_ROUNDTRIP
360
E8AE0
  0
DICTIONARY
  5
E8ACA
330
3FF
100
AcDbDictionary
280
     1
281
     1
  3
ACAD_XREC_ROUNDTRIP
360
E8ACB
  0
DICTIONARY
  5
E8AD9
330
E8A49
100
AcDbDictionary
280
     1
281
     1
  3
ACAD_XREC_ROUNDTRIP
360
E8ADA
  0
DICTIONARY
  5
E8AE1
330
E8A4D
100
AcDbDictionary
280
     1
281
     1
  3
ACAD_XREC_ROUNDTRIP
360
E8AE2
  0
XRECORD
  5
E8AB0
102
{ACAD_REACTORS
330
E8AAF
102
}
330
E8AAF
100
AcDbXrecord
280
     1
102
SHADEPLOT
 70
     0
102
SHADEPLOTRESLEVEL
 70
     2
102
SHADEPLOTCUSTOMDPI
 70
   300
  0
XRECORD
  5
E8AAE
102
{ACAD_REACTORS
330
E8AAD
102
}
330
E8AAD
100
AcDbXrecord
280
     1
102
SHADEPLOT
 70
     1
102
SHADEPLOTRESLEVEL
 70
     2
102
SHADEPLOTCUSTOMDPI
 70
   300
  0
XRECORD
  5
E8A1C
102
{ACAD_REACTORS
330
E8A1B
102
}
330
E8A1B
100
AcDbXrecord
280
     1
102
MATERIAL
148
0.0
149
0.0
149
0.0
 93
        0
 94
      127
282
     0
 72
     1
 77
     1
171
     1
175
     1
179
     1
273
     0
  0
XRECORD
  5
E8A1A
102
{ACAD_REACTORS
330
E8A19
102
}
330
E8A19
100
AcDbXrecord
280
     1
102
MATERIAL
148
0.0
149
0.0
149
0.0
 93
        0
 94
      127
282
     0
 72
     1
 77
     1
171
     1
175
     1
179
     1
273
     0
  0
XRECORD
  5
E8A1E
102
{ACAD_REACTORS
330
E8A1D
102
}
330
E8A1D
100
AcDbXrecord
280
     1
102
MATERIAL
148
0.0
149
0.0
149
0.0
 93
        0
 94
      127
282
     0
 72
     1
 77
     1
171
     1
175
     1
179
     1
273
     0
  0
CELLSTYLEMAP
  5
E8AA8
102
{ACAD_REACTORS
330
444
102
}
330
444
100
AcDbCellStyleMap
 90
        3
300
CELLSTYLE
  1
TABLEFORMAT_BEGIN
 90
        5
170
     1
 91
        0
 92
    32768
 62
   257
 93
        1
300
CONTENTFORMAT
  1
CONTENTFORMAT_BEGIN
 90
        0
 91
        0
 92
        4
 93
        0
300

 40
0.0
140
1.0
 94
        5
 62
     0
340
10
144
6.0
309
CONTENTFORMAT_END
171
     1
301
MARGIN
  1
CELLMARGIN_BEGIN
 40
1.5
 40
1.5
 40
1.5
 40
1.5
 40
0.18
 40
0.18
309
CELLMARGIN_END
 94
        6
 95
        1
302
GRIDFORMAT
  1
GRIDFORMAT_BEGIN
 90
        0
 91
        1
 62
     0
 92
       -2
340
0
 93
        0
 40
0.045
309
GRIDFORMAT_END
 95
        2
302
GRIDFORMAT
  1
GRIDFORMAT_BEGIN
 90
        0
 91
        1
 62
     0
 92
       -2
340
0
 93
        0
 40
0.045
309
GRIDFORMAT_END
 95
        4
302
GRIDFORMAT
  1
GRIDFORMAT_BEGIN
 90
        0
 91
        1
 62
     0
 92
       -2
340
0
 93
        0
 40
0.045
309
GRIDFORMAT_END
 95
        8
302
GRIDFORMAT
  1
GRIDFORMAT_BEGIN
 90
        0
 91
        1
 62
     0
 92
       -2
340
0
 93
        0
 40
0.045
309
GRIDFORMAT_END
 95
       16
302
GRIDFORMAT
  1
GRIDFORMAT_BEGIN
 90
        0
 91
        1
 62
     0
 92
       -2
340
0
 93
        0
 40
0.045
309
GRIDFORMAT_END
 95
       32
302
GRIDFORMAT
  1
GRIDFORMAT_BEGIN
 90
        0
 91
        1
 62
     0
 92
       -2
340
0
 93
        0
 40
0.045
309
GRIDFORMAT_END
309
TABLEFORMAT_END
  1
CELLSTYLE_BEGIN
 90
        1
 91
        1
300
_TITLE
309
CELLSTYLE_END
300
CELLSTYLE
  1
TABLEFORMAT_BEGIN
 90
        5
170
     1
 91
        0
 92
        0
 62
   257
 93
        1
300
CONTENTFORMAT
  1
CONTENTFORMAT_BEGIN
 90
        0
 91
        0
 92
        4
 93
        0
300

 40
0.0
140
1.0
 94
        5
 62
     0
340
10
144
4.5
309
CONTENTFORMAT_END
171
     1
301
MARGIN
  1
CELLMARGIN_BEGIN
 40
1.5
 40
1.5
 40
1.5
 40
1.5
 40
0.18
 40
0.18
309
CELLMARGIN_END
 94
        6
 95
        1
302
GRIDFORMAT
  1
GRIDFORMAT_BEGIN
 90
        0
 91
        1
 62
     0
 92
       -2
340
0
 93
        0
 40
0.045
309
GRIDFORMAT_END
 95
        2
302
GRIDFORMAT
  1
GRIDFORMAT_BEGIN
 90
        0
 91
        1
 62
     0
 92
       -2
340
0
 93
        0
 40
0.045
309
GRIDFORMAT_END
 95
        4
302
GRIDFORMAT
  1
GRIDFORMAT_BEGIN
 90
        0
 91
        1
 62
     0
 92
       -2
340
0
 93
        0
 40
0.045
309
GRIDFORMAT_END
 95
        8
302
GRIDFORMAT
  1
GRIDFORMAT_BEGIN
 90
        0
 91
        1
 62
     0
 92
       -2
340
0
 93
        0
 40
0.045
309
GRIDFORMAT_END
 95
       16
302
GRIDFORMAT
  1
GRIDFORMAT_BEGIN
 90
        0
 91
        1
 62
     0
 92
       -2
340
0
 93
        0
 40
0.045
309
GRIDFORMAT_END
 95
       32
302
GRIDFORMAT
  1
GRIDFORMAT_BEGIN
 90
        0
 91
        1
 62
     0
 92
       -2
340
0
 93
        0
 40
0.045
309
GRIDFORMAT_END
309
TABLEFORMAT_END
  1
CELLSTYLE_BEGIN
 90
        2
 91
        1
300
_HEADER
309
CELLSTYLE_END
300
CELLSTYLE
  1
TABLEFORMAT_BEGIN
 90
        5
170
     1
 91
        0
 92
        0
 62
   257
 93
        1
300
CONTENTFORMAT
  1
CONTENTFORMAT_BEGIN
 90
        0
 91
        0
 92
        4
 93
        0
300

 40
0.0
140
1.0
 94
        2
 62
     0
340
10
144
4.5
309
CONTENTFORMAT_END
171
     1
301
MARGIN
  1
CELLMARGIN_BEGIN
 40
1.5
 40
1.5
 40
1.5
 40
1.5
 40
0.18
 40
0.18
309
CELLMARGIN_END
 94
        6
 95
        1
302
GRIDFORMAT
  1
GRIDFORMAT_BEGIN
 90
        0
 91
        1
 62
     0
 92
       -2
340
0
 93
        0
 40
0.045
309
GRIDFORMAT_END
 95
        2
302
GRIDFORMAT
  1
GRIDFORMAT_BEGIN
 90
        0
 91
        1
 62
     0
 92
       -2
340
0
 93
        0
 40
0.045
309
GRIDFORMAT_END
 95
        4
302
GRIDFORMAT
  1
GRIDFORMAT_BEGIN
 90
        0
 91
        1
 62
     0
 92
       -2
340
0
 93
        0
 40
0.045
309
GRIDFORMAT_END
 95
        8
302
GRIDFORMAT
  1
GRIDFORMAT_BEGIN
 90
        0
 91
        1
 62
     0
 92
       -2
340
0
 93
        0
 40
0.045
309
GRIDFORMAT_END
 95
       16
302
GRIDFORMAT
  1
GRIDFORMAT_BEGIN
 90
        0
 91
        1
 62
     0
 92
       -2
340
0
 93
        0
 40
0.045
309
GRIDFORMAT_END
 95
       32
302
GRIDFORMAT
  1
GRIDFORMAT_BEGIN
 90
        0
 91
        1
 62
     0
 92
       -2
340
0
 93
        0
 40
0.045
309
GRIDFORMAT_END
309
TABLEFORMAT_END
  1
CELLSTYLE_BEGIN
 90
        3
 91
        2
300
_DATA
309
CELLSTYLE_END
  0
XRECORD
  5
E8AB1
102
{ACAD_REACTORS
330
444
102
}
330
444
100
AcDbXrecord
280
     1
102
ACAD_ROUNDTRIP_PRE2007_TABLESTYLE
 90
        4
 91
        0
  1

 92
        4
 93
        0
  2

 94
        4
 95
        0
  3

  0
XRECORD
  5
E8ABD
102
{ACAD_REACTORS
330
E8ABC
102
}
330
E8ABC
100
AcDbXrecord
280
     1
102
RTVSPost2010Prop28
280
     1
102
RTVSPost2010PropOp28
 70
     1
102
RTVSPost2010Prop29
280
     1
102
RTVSPost2010PropOp29
 70
     1
102
RTVSPost2010Prop30
280
     0
102
RTVSPost2010PropOp30
 70
     1
102
RTVSPost2010Prop31
280
     0
102
RTVSPost2010PropOp31
 70
     1
102
RTVSPost2010Prop32
280
     0
102
RTVSPost2010PropOp32
 70
     1
102
RTVSPost2010Prop33
280
     0
102
RTVSPost2010PropOp33
 70
     1
102
RTVSPost2010Prop34
280
     0
102
RTVSPost2010PropOp34
 70
     1
102
RTVSPost2010Prop35
280
     0
102
RTVSPost2010PropOp35
 70
     1
102
RTVSPost2010Prop36
280
     0
102
RTVSPost2010PropOp36
 70
     1
102
RTVSPost2010Prop37
 90
       50
102
RTVSPost2010PropOp37
 70
     1
102
RTVSPost2010Prop38
140
0.0
102
RTVSPost2010PropOp38
 70
     1
102
RTVSPost2010Prop39
140
1.0
102
RTVSPost2010PropOp39
 70
     1
102
RTVSPost2010Prop40
 90
        0
102
RTVSPost2010PropOp40
 70
     1
102
RTVSPost2010Prop41ColorIndex
 90
       18
102
RTVSPost2010Prop41ColorRGB
 90
        0
102
RTVSPost2010PropOp41
 70
     1
102
RTVSPost2010Prop42
 90
       50
102
RTVSPost2010PropOp42
 70
     1
102
RTVSPost2010Prop43
 90
        3
102
RTVSPost2010PropOp43
 70
     1
102
RTVSPost2010Prop44ColorIndex
 90
        5
102
RTVSPost2010Prop44ColorRGB
 90
      255
102
RTVSPost2010PropOp44
 70
     1
102
RTVSPost2010Prop45
280
     0
102
RTVSPost2010PropOp45
 70
     1
102
RTVSPost2010Prop46
 90
       50
102
RTVSPost2010PropOp46
 70
     1
102
RTVSPost2010Prop47
 90
       50
102
RTVSPost2010PropOp47
 70
     1
102
RTVSPost2010Prop48
 90
       50
102
RTVSPost2010PropOp48
 70
     1
102
RTVSPost2010Prop49
280
     0
102
RTVSPost2010PropOp49
 70
     1
102
RTVSPost2010Prop50
 90
       50
102
RTVSPost2010PropOp50
 70
     1
102
RTVSPost2010Prop51ColorIndex
 90
      256
102
RTVSPost2010Prop51ColorRGB
 90
-16777216
102
RTVSPost2010PropOp51
 70
     0
102
RTVSPost2010Prop52
140
1.0
102
RTVSPost2010PropOp52
 70
     0
102
RTVSPost2010Prop53
 90
        2
102
RTVSPost2010PropOp53
 70
     1
102
RTVSPost2010Prop54
  1
strokes_ogs.tif
102
RTVSPost2010PropOp54
 70
     1
102
RTVSPost2010Prop55
280
     0
102
RTVSPost2010PropOp55
 70
     1
102
RTVSPost2010Prop56
140
1.0
102
RTVSPost2010PropOp56
 70
     1
102
RTVSPost2010Prop57
140
1.0
102
RTVSPost2010PropOp57
 70
     1
102
RTVSPropertyOp0
 70
     1
102
RTVSPropertyOp1
 70
     1
102
RTVSPropertyOp2
 70
     1
102
RTVSPropertyOp3
 70
     1
102
RTVSPropertyOp4
 70
     1
102
RTVSPropertyOp5
 70
     1
102
RTVSPropertyOp6
 70
     1
102
RTVSPropertyOp7
 70
     1
102
RTVSPropertyOp8
 70
     1
102
RTVSPropertyOp9
 70
     1
102
RTVSPropertyOp10
 70
     1
102
RTVSPropertyOp11
 70
     1
102
RTVSPropertyOp12
 70
     1
102
RTVSPropertyOp13
 70
     1
102
RTVSPropertyOp14
 70
     1
102
RTVSPropertyOp15
 70
     1
102
RTVSPropertyOp16
 70
     1
102
RTVSPropertyOp17
 70
     1
102
RTVSPropertyOp18
 70
     1
102
RTVSPropertyOp19
 70
     1
102
RTVSPropertyOp20
 70
     1
102
RTVSPropertyOp21
 70
     1
102
RTVSPropertyOp22
 70
     1
102
RTVSPropertyOp23
 70
     1
102
RTVSPropertyOp24
 70
     1
102
RTVSPropertyOp25
 70
     1
102
RTVSPropertyOp26
 70
     1
102
RTVSPropertyOp27
 70
     1
102
RTVSPropertyOp28
 70
     1
102
RTVSPropertyOp29
 70
     1
102
RTVSPropertyOp30
 70
     1
102
RTVSPropertyOp31
 70
     1
102
RTVSPropertyOp32
 70
     1
102
RTVSPropertyOp33
 70
     1
102
RTVSPropertyOp34
 70
     1
102
RTVSPropertyOp35
 70
     1
102
RTVSPropertyOp36
 70
     1
102
RTVSPropertyOp37
 70
     1
102
RTVSPropertyOp38
 70
     1
102
RTVSPropertyOp39
 70
     1
102
RTVSPropertyOp40
 70
     1
102
RTVSPropertyOp41
 70
     1
102
RTVSPropertyOp42
 70
     1
102
RTVSPropertyOp43
 70
     1
102
RTVSPropertyOp44
 70
     1
102
RTVSPropertyOp45
 70
     1
102
RTVSPropertyOp46
 70
     1
102
RTVSPropertyOp47
 70
     1
102
RTVSPropertyOp48
 70
     1
102
RTVSPropertyOp49
 70
     1
102
RTVSPropertyOp50
 70
     1
102
RTVSPropertyOp51
 70
     0
102
RTVSPropertyOp52
 70
     0
102
RTVSPropertyOp53
 70
     1
102
RTVSPropertyOp54
 70
     1
102
RTVSPropertyOp55
 70
     1
102
RTVSPropertyOp56
 70
     1
102
RTVSPropertyOp57
 70
     1
102
RTVSPropertyOp58
 70
     1
102
RTVSPropertyOp59
 70
     1
102
RTVSPropertyOp60
 70
     1
102
RTVSPropertyOp61
 70
     1
102
RTVSPropertyOp62
 70
     1
  0
XRECORD
  5
E8AC1
102
{ACAD_REACTORS
330
E8AC0
102
}
330
E8AC0
100
AcDbXrecord
280
     1
102
RTVSPost2010Prop28
280
     0
102
RTVSPost2010PropOp28
 70
     1
102
RTVSPost2010Prop29
280
     1
102
RTVSPost2010PropOp29
 70
     1
102
RTVSPost2010Prop30
280
     1
102
RTVSPost2010PropOp30
 70
     1
102
RTVSPost2010Prop31
280
     0
102
RTVSPost2010PropOp31
 70
     1
102
RTVSPost2010Prop32
280
     0
102
RTVSPost2010PropOp32
 70
     1
102
RTVSPost2010Prop33
280
     0
102
RTVSPost2010PropOp33
 70
     1
102
RTVSPost2010Prop34
280
     0
102
RTVSPost2010PropOp34
 70
     1
102
RTVSPost2010Prop35
280
     0
102
RTVSPost2010PropOp35
 70
     1
102
RTVSPost2010Prop36
280
     0
102
RTVSPost2010PropOp36
 70
     1
102
RTVSPost2010Prop37
 90
       50
102
RTVSPost2010PropOp37
 70
     1
102
RTVSPost2010Prop38
140
0.0
102
RTVSPost2010PropOp38
 70
     1
102
RTVSPost2010Prop39
140
1.0
102
RTVSPost2010PropOp39
 70
     1
102
RTVSPost2010Prop40
 90
        0
102
RTVSPost2010PropOp40
 70
     1
102
RTVSPost2010Prop41ColorIndex
 90
       18
102
RTVSPost2010Prop41ColorRGB
 90
        0
102
RTVSPost2010PropOp41
 70
     1
102
RTVSPost2010Prop42
 90
       50
102
RTVSPost2010PropOp42
 70
     1
102
RTVSPost2010Prop43
 90
        3
102
RTVSPost2010PropOp43
 70
     1
102
RTVSPost2010Prop44ColorIndex
 90
        5
102
RTVSPost2010Prop44ColorRGB
 90
      255
102
RTVSPost2010PropOp44
 70
     1
102
RTVSPost2010Prop45
280
     0
102
RTVSPost2010PropOp45
 70
     1
102
RTVSPost2010Prop46
 90
       50
102
RTVSPost2010PropOp46
 70
     1
102
RTVSPost2010Prop47
 90
       50
102
RTVSPost2010PropOp47
 70
     1
102
RTVSPost2010Prop48
 90
       50
102
RTVSPost2010PropOp48
 70
     1
102
RTVSPost2010Prop49
280
     0
102
RTVSPost2010PropOp49
 70
     1
102
RTVSPost2010Prop50
 90
       50
102
RTVSPost2010PropOp50
 70
     1
102
RTVSPost2010Prop51ColorIndex
 90
      256
102
RTVSPost2010Prop51ColorRGB
 90
-16777216
102
RTVSPost2010PropOp51
 70
     0
102
RTVSPost2010Prop52
140
1.0
102
RTVSPost2010PropOp52
 70
     0
102
RTVSPost2010Prop53
 90
        2
102
RTVSPost2010PropOp53
 70
     1
102
RTVSPost2010Prop54
  1
strokes_ogs.tif
102
RTVSPost2010PropOp54
 70
     1
102
RTVSPost2010Prop55
280
     0
102
RTVSPost2010PropOp55
 70
     1
102
RTVSPost2010Prop56
140
1.0
102
RTVSPost2010PropOp56
 70
     1
102
RTVSPost2010Prop57
140
1.0
102
RTVSPost2010PropOp57
 70
     1
102
RTVSPropertyOp0
 70
     1
102
RTVSPropertyOp1
 70
     1
102
RTVSPropertyOp2
 70
     1
102
RTVSPropertyOp3
 70
     1
102
RTVSPropertyOp4
 70
     1
102
RTVSPropertyOp5
 70
     1
102
RTVSPropertyOp6
 70
     1
102
RTVSPropertyOp7
 70
     1
102
RTVSPropertyOp8
 70
     1
102
RTVSPropertyOp9
 70
     1
102
RTVSPropertyOp10
 70
     1
102
RTVSPropertyOp11
 70
     1
102
RTVSPropertyOp12
 70
     1
102
RTVSPropertyOp13
 70
     1
102
RTVSPropertyOp14
 70
     1
102
RTVSPropertyOp15
 70
     1
102
RTVSPropertyOp16
 70
     1
102
RTVSPropertyOp17
 70
     1
102
RTVSPropertyOp18
 70
     1
102
RTVSPropertyOp19
 70
     1
102
RTVSPropertyOp20
 70
     1
102
RTVSPropertyOp21
 70
     1
102
RTVSPropertyOp22
 70
     1
102
RTVSPropertyOp23
 70
     1
102
RTVSPropertyOp24
 70
     1
102
RTVSPropertyOp25
 70
     1
102
RTVSPropertyOp26
 70
     1
102
RTVSPropertyOp27
 70
     1
102
RTVSPropertyOp28
 70
     1
102
RTVSPropertyOp29
 70
     1
102
RTVSPropertyOp30
 70
     1
102
RTVSPropertyOp31
 70
     1
102
RTVSPropertyOp32
 70
     1
102
RTVSPropertyOp33
 70
     1
102
RTVSPropertyOp34
 70
     1
102
RTVSPropertyOp35
 70
     1
102
RTVSPropertyOp36
 70
     1
102
RTVSPropertyOp37
 70
     1
102
RTVSPropertyOp38
 70
     1
102
RTVSPropertyOp39
 70
     1
102
RTVSPropertyOp40
 70
     1
102
RTVSPropertyOp41
 70
     1
102
RTVSPropertyOp42
 70
     1
102
RTVSPropertyOp43
 70
     1
102
RTVSPropertyOp44
 70
     1
102
RTVSPropertyOp45
 70
     1
102
RTVSPropertyOp46
 70
     1
102
RTVSPropertyOp47
 70
     1
102
RTVSPropertyOp48
 70
     1
102
RTVSPropertyOp49
 70
     1
102
RTVSPropertyOp50
 70
     1
102
RTVSPropertyOp51
 70
     0
102
RTVSPropertyOp52
 70
     0
102
RTVSPropertyOp53
 70
     1
102
RTVSPropertyOp54
 70
     1
102
RTVSPropertyOp55
 70
     1
102
RTVSPropertyOp56
 70
     1
102
RTVSPropertyOp57
 70
     1
102
RTVSPropertyOp58
 70
     1
102
RTVSPropertyOp59
 70
     1
102
RTVSPropertyOp60
 70
     1
102
RTVSPropertyOp61
 70
     1
102
RTVSPropertyOp62
 70
     1
  0
XRECORD
  5
E8ABF
102
{ACAD_REACTORS
330
E8ABE
102
}
330
E8ABE
100
AcDbXrecord
280
     1
102
RTVSPost2010Prop28
280
     0
102
RTVSPost2010PropOp28
 70
     1
102
RTVSPost2010Prop29
280
     1
102
RTVSPost2010PropOp29
 70
     1
102
RTVSPost2010Prop30
280
     1
102
RTVSPost2010PropOp30
 70
     1
102
RTVSPost2010Prop31
280
     0
102
RTVSPost2010PropOp31
 70
     1
102
RTVSPost2010Prop32
280
     0
102
RTVSPost2010PropOp32
 70
     1
102
RTVSPost2010Prop33
280
     0
102
RTVSPost2010PropOp33
 70
     1
102
RTVSPost2010Prop34
280
     0
102
RTVSPost2010PropOp34
 70
     1
102
RTVSPost2010Prop35
280
     0
102
RTVSPost2010PropOp35
 70
     1
102
RTVSPost2010Prop36
280
     0
102
RTVSPost2010PropOp36
 70
     1
102
RTVSPost2010Prop37
 90
       50
102
RTVSPost2010PropOp37
 70
     1
102
RTVSPost2010Prop38
140
0.0
102
RTVSPost2010PropOp38
 70
     1
102
RTVSPost2010Prop39
140
1.0
102
RTVSPost2010PropOp39
 70
     1
102
RTVSPost2010Prop40
 90
        0
102
RTVSPost2010PropOp40
 70
     1
102
RTVSPost2010Prop41ColorIndex
 90
       18
102
RTVSPost2010Prop41ColorRGB
 90
        0
102
RTVSPost2010PropOp41
 70
     1
102
RTVSPost2010Prop42
 90
       50
102
RTVSPost2010PropOp42
 70
     1
102
RTVSPost2010Prop43
 90
        3
102
RTVSPost2010PropOp43
 70
     1
102
RTVSPost2010Prop44ColorIndex
 90
        5
102
RTVSPost2010Prop44ColorRGB
 90
      255
102
RTVSPost2010PropOp44
 70
     1
102
RTVSPost2010Prop45
280
     0
102
RTVSPost2010PropOp45
 70
     1
102
RTVSPost2010Prop46
 90
       50
102
RTVSPost2010PropOp46
 70
     1
102
RTVSPost2010Prop47
 90
       50
102
RTVSPost2010PropOp47
 70
     1
102
RTVSPost2010Prop48
 90
       50
102
RTVSPost2010PropOp48
 70
     1
102
RTVSPost2010Prop49
280
     0
102
RTVSPost2010PropOp49
 70
     1
102
RTVSPost2010Prop50
 90
       50
102
RTVSPost2010PropOp50
 70
     1
102
RTVSPost2010Prop51ColorIndex
 90
      256
102
RTVSPost2010Prop51ColorRGB
 90
-16777216
102
RTVSPost2010PropOp51
 70
     0
102
RTVSPost2010Prop52
140
1.0
102
RTVSPost2010PropOp52
 70
     0
102
RTVSPost2010Prop53
 90
        2
102
RTVSPost2010PropOp53
 70
     1
102
RTVSPost2010Prop54
  1
strokes_ogs.tif
102
RTVSPost2010PropOp54
 70
     1
102
RTVSPost2010Prop55
280
     0
102
RTVSPost2010PropOp55
 70
     1
102
RTVSPost2010Prop56
140
1.0
102
RTVSPost2010PropOp56
 70
     1
102
RTVSPost2010Prop57
140
1.0
102
RTVSPost2010PropOp57
 70
     1
102
RTVSPropertyOp0
 70
     1
102
RTVSPropertyOp1
 70
     1
102
RTVSPropertyOp2
 70
     1
102
RTVSPropertyOp3
 70
     1
102
RTVSPropertyOp4
 70
     1
102
RTVSPropertyOp5
 70
     1
102
RTVSPropertyOp6
 70
     1
102
RTVSPropertyOp7
 70
     1
102
RTVSPropertyOp8
 70
     1
102
RTVSPropertyOp9
 70
     1
102
RTVSPropertyOp10
 70
     1
102
RTVSPropertyOp11
 70
     1
102
RTVSPropertyOp12
 70
     1
102
RTVSPropertyOp13
 70
     1
102
RTVSPropertyOp14
 70
     1
102
RTVSPropertyOp15
 70
     1
102
RTVSPropertyOp16
 70
     1
102
RTVSPropertyOp17
 70
     1
102
RTVSPropertyOp18
 70
     1
102
RTVSPropertyOp19
 70
     1
102
RTVSPropertyOp20
 70
     1
102
RTVSPropertyOp21
 70
     1
102
RTVSPropertyOp22
 70
     1
102
RTVSPropertyOp23
 70
     1
102
RTVSPropertyOp24
 70
     1
102
RTVSPropertyOp25
 70
     1
102
RTVSPropertyOp26
 70
     1
102
RTVSPropertyOp27
 70
     1
102
RTVSPropertyOp28
 70
     1
102
RTVSPropertyOp29
 70
     1
102
RTVSPropertyOp30
 70
     1
102
RTVSPropertyOp31
 70
     1
102
RTVSPropertyOp32
 70
     1
102
RTVSPropertyOp33
 70
     1
102
RTVSPropertyOp34
 70
     1
102
RTVSPropertyOp35
 70
     1
102
RTVSPropertyOp36
 70
     1
102
RTVSPropertyOp37
 70
     1
102
RTVSPropertyOp38
 70
     1
102
RTVSPropertyOp39
 70
     1
102
RTVSPropertyOp40
 70
     1
102
RTVSPropertyOp41
 70
     1
102
RTVSPropertyOp42
 70
     1
102
RTVSPropertyOp43
 70
     1
102
RTVSPropertyOp44
 70
     1
102
RTVSPropertyOp45
 70
     1
102
RTVSPropertyOp46
 70
     1
102
RTVSPropertyOp47
 70
     1
102
RTVSPropertyOp48
 70
     1
102
RTVSPropertyOp49
 70
     1
102
RTVSPropertyOp50
 70
     1
102
RTVSPropertyOp51
 70
     0
102
RTVSPropertyOp52
 70
     0
102
RTVSPropertyOp53
 70
     1
102
RTVSPropertyOp54
 70
     1
102
RTVSPropertyOp55
 70
     1
102
RTVSPropertyOp56
 70
     1
102
RTVSPropertyOp57
 70
     1
102
RTVSPropertyOp58
 70
     1
102
RTVSPropertyOp59
 70
     1
102
RTVSPropertyOp60
 70
     1
102
RTVSPropertyOp61
 70
     1
102
RTVSPropertyOp62
 70
     1
  0
XRECORD
  5
E8ABB
102
{ACAD_REACTORS
330
E8ABA
102
}
330
E8ABA
100
AcDbXrecord
280
     1
102
RTVSPost2010Prop28
280
     0
102
RTVSPost2010PropOp28
 70
     1
102
RTVSPost2010Prop29
280
     1
102
RTVSPost2010PropOp29
 70
     1
102
RTVSPost2010Prop30
280
     1
102
RTVSPost2010PropOp30
 70
     1
102
RTVSPost2010Prop31
280
     0
102
RTVSPost2010PropOp31
 70
     1
102
RTVSPost2010Prop32
280
     0
102
RTVSPost2010PropOp32
 70
     1
102
RTVSPost2010Prop33
280
     0
102
RTVSPost2010PropOp33
 70
     1
102
RTVSPost2010Prop34
280
     0
102
RTVSPost2010PropOp34
 70
     1
102
RTVSPost2010Prop35
280
     0
102
RTVSPost2010PropOp35
 70
     1
102
RTVSPost2010Prop36
280
     0
102
RTVSPost2010PropOp36
 70
     1
102
RTVSPost2010Prop37
 90
       50
102
RTVSPost2010PropOp37
 70
     1
102
RTVSPost2010Prop38
140
0.0
102
RTVSPost2010PropOp38
 70
     1
102
RTVSPost2010Prop39
140
1.0
102
RTVSPost2010PropOp39
 70
     1
102
RTVSPost2010Prop40
 90
        0
102
RTVSPost2010PropOp40
 70
     1
102
RTVSPost2010Prop41ColorIndex
 90
       18
102
RTVSPost2010Prop41ColorRGB
 90
        0
102
RTVSPost2010PropOp41
 70
     1
102
RTVSPost2010Prop42
 90
       50
102
RTVSPost2010PropOp42
 70
     1
102
RTVSPost2010Prop43
 90
        3
102
RTVSPost2010PropOp43
 70
     1
102
RTVSPost2010Prop44ColorIndex
 90
        5
102
RTVSPost2010Prop44ColorRGB
 90
      255
102
RTVSPost2010PropOp44
 70
     1
102
RTVSPost2010Prop45
280
     0
102
RTVSPost2010PropOp45
 70
     1
102
RTVSPost2010Prop46
 90
       50
102
RTVSPost2010PropOp46
 70
     1
102
RTVSPost2010Prop47
 90
       50
102
RTVSPost2010PropOp47
 70
     1
102
RTVSPost2010Prop48
 90
       50
102
RTVSPost2010PropOp48
 70
     1
102
RTVSPost2010Prop49
280
     0
102
RTVSPost2010PropOp49
 70
     1
102
RTVSPost2010Prop50
 90
       50
102
RTVSPost2010PropOp50
 70
     1
102
RTVSPost2010Prop51ColorIndex
 90
      256
102
RTVSPost2010Prop51ColorRGB
 90
-16777216
102
RTVSPost2010PropOp51
 70
     0
102
RTVSPost2010Prop52
140
1.0
102
RTVSPost2010PropOp52
 70
     0
102
RTVSPost2010Prop53
 90
        2
102
RTVSPost2010PropOp53
 70
     1
102
RTVSPost2010Prop54
  1
strokes_ogs.tif
102
RTVSPost2010PropOp54
 70
     1
102
RTVSPost2010Prop55
280
     0
102
RTVSPost2010PropOp55
 70
     1
102
RTVSPost2010Prop56
140
1.0
102
RTVSPost2010PropOp56
 70
     1
102
RTVSPost2010Prop57
140
1.0
102
RTVSPost2010PropOp57
 70
     1
102
RTVSPropertyOp0
 70
     1
102
RTVSPropertyOp1
 70
     1
102
RTVSPropertyOp2
 70
     1
102
RTVSPropertyOp3
 70
     1
102
RTVSPropertyOp4
 70
     1
102
RTVSPropertyOp5
 70
     1
102
RTVSPropertyOp6
 70
     1
102
RTVSPropertyOp7
 70
     1
102
RTVSPropertyOp8
 70
     1
102
RTVSPropertyOp9
 70
     1
102
RTVSPropertyOp10
 70
     1
102
RTVSPropertyOp11
 70
     1
102
RTVSPropertyOp12
 70
     1
102
RTVSPropertyOp13
 70
     1
102
RTVSPropertyOp14
 70
     1
102
RTVSPropertyOp15
 70
     1
102
RTVSPropertyOp16
 70
     1
102
RTVSPropertyOp17
 70
     1
102
RTVSPropertyOp18
 70
     1
102
RTVSPropertyOp19
 70
     1
102
RTVSPropertyOp20
 70
     1
102
RTVSPropertyOp21
 70
     1
102
RTVSPropertyOp22
 70
     1
102
RTVSPropertyOp23
 70
     1
102
RTVSPropertyOp24
 70
     1
102
RTVSPropertyOp25
 70
     1
102
RTVSPropertyOp26
 70
     1
102
RTVSPropertyOp27
 70
     1
102
RTVSPropertyOp28
 70
     1
102
RTVSPropertyOp29
 70
     1
102
RTVSPropertyOp30
 70
     1
102
RTVSPropertyOp31
 70
     1
102
RTVSPropertyOp32
 70
     1
102
RTVSPropertyOp33
 70
     1
102
RTVSPropertyOp34
 70
     1
102
RTVSPropertyOp35
 70
     1
102
RTVSPropertyOp36
 70
     1
102
RTVSPropertyOp37
 70
     1
102
RTVSPropertyOp38
 70
     1
102
RTVSPropertyOp39
 70
     1
102
RTVSPropertyOp40
 70
     1
102
RTVSPropertyOp41
 70
     1
102
RTVSPropertyOp42
 70
     1
102
RTVSPropertyOp43
 70
     1
102
RTVSPropertyOp44
 70
     1
102
RTVSPropertyOp45
 70
     1
102
RTVSPropertyOp46
 70
     1
102
RTVSPropertyOp47
 70
     1
102
RTVSPropertyOp48
 70
     1
102
RTVSPropertyOp49
 70
     1
102
RTVSPropertyOp50
 70
     1
102
RTVSPropertyOp51
 70
     0
102
RTVSPropertyOp52
 70
     0
102
RTVSPropertyOp53
 70
     1
102
RTVSPropertyOp54
 70
     1
102
RTVSPropertyOp55
 70
     1
102
RTVSPropertyOp56
 70
     1
102
RTVSPropertyOp57
 70
     1
102
RTVSPropertyOp58
 70
     1
102
RTVSPropertyOp59
 70
     1
102
RTVSPropertyOp60
 70
     1
102
RTVSPropertyOp61
 70
     1
102
RTVSPropertyOp62
 70
     1
  0
XRECORD
  5
E8AC9
102
{ACAD_REACTORS
330
E8AC8
102
}
330
E8AC8
100
AcDbXrecord
280
     1
102
RTVSPost2010Prop28
280
     0
102
RTVSPost2010PropOp28
 70
     1
102
RTVSPost2010Prop29
280
     1
102
RTVSPost2010PropOp29
 70
     1
102
RTVSPost2010Prop30
280
     1
102
RTVSPost2010PropOp30
 70
     1
102
RTVSPost2010Prop31
280
     0
102
RTVSPost2010PropOp31
 70
     1
102
RTVSPost2010Prop32
280
     0
102
RTVSPost2010PropOp32
 70
     1
102
RTVSPost2010Prop33
280
     0
102
RTVSPost2010PropOp33
 70
     1
102
RTVSPost2010Prop34
280
     0
102
RTVSPost2010PropOp34
 70
     1
102
RTVSPost2010Prop35
280
     0
102
RTVSPost2010PropOp35
 70
     1
102
RTVSPost2010Prop36
280
     0
102
RTVSPost2010PropOp36
 70
     1
102
RTVSPost2010Prop37
 90
       50
102
RTVSPost2010PropOp37
 70
     1
102
RTVSPost2010Prop38
140
0.0
102
RTVSPost2010PropOp38
 70
     1
102
RTVSPost2010Prop39
140
1.0
102
RTVSPost2010PropOp39
 70
     1
102
RTVSPost2010Prop40
 90
        0
102
RTVSPost2010PropOp40
 70
     1
102
RTVSPost2010Prop41ColorIndex
 90
       18
102
RTVSPost2010Prop41ColorRGB
 90
        0
102
RTVSPost2010PropOp41
 70
     1
102
RTVSPost2010Prop42
 90
       50
102
RTVSPost2010PropOp42
 70
     1
102
RTVSPost2010Prop43
 90
        3
102
RTVSPost2010PropOp43
 70
     1
102
RTVSPost2010Prop44ColorIndex
 90
        5
102
RTVSPost2010Prop44ColorRGB
 90
      255
102
RTVSPost2010PropOp44
 70
     1
102
RTVSPost2010Prop45
280
     0
102
RTVSPost2010PropOp45
 70
     1
102
RTVSPost2010Prop46
 90
       50
102
RTVSPost2010PropOp46
 70
     1
102
RTVSPost2010Prop47
 90
       50
102
RTVSPost2010PropOp47
 70
     1
102
RTVSPost2010Prop48
 90
       50
102
RTVSPost2010PropOp48
 70
     1
102
RTVSPost2010Prop49
280
     0
102
RTVSPost2010PropOp49
 70
     1
102
RTVSPost2010Prop50
 90
       50
102
RTVSPost2010PropOp50
 70
     1
102
RTVSPost2010Prop51ColorIndex
 90
      256
102
RTVSPost2010Prop51ColorRGB
 90
-16777216
102
RTVSPost2010PropOp51
 70
     0
102
RTVSPost2010Prop52
140
1.0
102
RTVSPost2010PropOp52
 70
     0
102
RTVSPost2010Prop53
 90
        2
102
RTVSPost2010PropOp53
 70
     1
102
RTVSPost2010Prop54
  1
strokes_ogs.tif
102
RTVSPost2010PropOp54
 70
     1
102
RTVSPost2010Prop55
280
     0
102
RTVSPost2010PropOp55
 70
     1
102
RTVSPost2010Prop56
140
1.0
102
RTVSPost2010PropOp56
 70
     1
102
RTVSPost2010Prop57
140
1.0
102
RTVSPost2010PropOp57
 70
     1
102
RTVSPropertyOp0
 70
     1
102
RTVSPropertyOp1
 70
     1
102
RTVSPropertyOp2
 70
     1
102
RTVSPropertyOp3
 70
     1
102
RTVSPropertyOp4
 70
     1
102
RTVSPropertyOp5
 70
     1
102
RTVSPropertyOp6
 70
     1
102
RTVSPropertyOp7
 70
     1
102
RTVSPropertyOp8
 70
     1
102
RTVSPropertyOp9
 70
     1
102
RTVSPropertyOp10
 70
     1
102
RTVSPropertyOp11
 70
     1
102
RTVSPropertyOp12
 70
     1
102
RTVSPropertyOp13
 70
     1
102
RTVSPropertyOp14
 70
     1
102
RTVSPropertyOp15
 70
     1
102
RTVSPropertyOp16
 70
     1
102
RTVSPropertyOp17
 70
     1
102
RTVSPropertyOp18
 70
     1
102
RTVSPropertyOp19
 70
     1
102
RTVSPropertyOp20
 70
     1
102
RTVSPropertyOp21
 70
     1
102
RTVSPropertyOp22
 70
     1
102
RTVSPropertyOp23
 70
     1
102
RTVSPropertyOp24
 70
     1
102
RTVSPropertyOp25
 70
     1
102
RTVSPropertyOp26
 70
     1
102
RTVSPropertyOp27
 70
     1
102
RTVSPropertyOp28
 70
     1
102
RTVSPropertyOp29
 70
     1
102
RTVSPropertyOp30
 70
     1
102
RTVSPropertyOp31
 70
     1
102
RTVSPropertyOp32
 70
     1
102
RTVSPropertyOp33
 70
     1
102
RTVSPropertyOp34
 70
     1
102
RTVSPropertyOp35
 70
     1
102
RTVSPropertyOp36
 70
     1
102
RTVSPropertyOp37
 70
     1
102
RTVSPropertyOp38
 70
     1
102
RTVSPropertyOp39
 70
     1
102
RTVSPropertyOp40
 70
     1
102
RTVSPropertyOp41
 70
     1
102
RTVSPropertyOp42
 70
     1
102
RTVSPropertyOp43
 70
     1
102
RTVSPropertyOp44
 70
     1
102
RTVSPropertyOp45
 70
     1
102
RTVSPropertyOp46
 70
     1
102
RTVSPropertyOp47
 70
     1
102
RTVSPropertyOp48
 70
     1
102
RTVSPropertyOp49
 70
     1
102
RTVSPropertyOp50
 70
     1
102
RTVSPropertyOp51
 70
     0
102
RTVSPropertyOp52
 70
     0
102
RTVSPropertyOp53
 70
     1
102
RTVSPropertyOp54
 70
     1
102
RTVSPropertyOp55
 70
     1
102
RTVSPropertyOp56
 70
     1
102
RTVSPropertyOp57
 70
     1
102
RTVSPropertyOp58
 70
     1
102
RTVSPropertyOp59
 70
     1
102
RTVSPropertyOp60
 70
     1
102
RTVSPropertyOp61
 70
     1
102
RTVSPropertyOp62
 70
     1
  0
XRECORD
  5
E8AD1
102
{ACAD_REACTORS
330
E8AD0
102
}
330
E8AD0
100
AcDbXrecord
280
     1
102
RTVSPost2010Prop28
280
     0
102
RTVSPost2010PropOp28
 70
     1
102
RTVSPost2010Prop29
280
     1
102
RTVSPost2010PropOp29
 70
     1
102
RTVSPost2010Prop30
280
     1
102
RTVSPost2010PropOp30
 70
     1
102
RTVSPost2010Prop31
280
     0
102
RTVSPost2010PropOp31
 70
     1
102
RTVSPost2010Prop32
280
     0
102
RTVSPost2010PropOp32
 70
     1
102
RTVSPost2010Prop33
280
     0
102
RTVSPost2010PropOp33
 70
     1
102
RTVSPost2010Prop34
280
     0
102
RTVSPost2010PropOp34
 70
     1
102
RTVSPost2010Prop35
280
     0
102
RTVSPost2010PropOp35
 70
     1
102
RTVSPost2010Prop36
280
     0
102
RTVSPost2010PropOp36
 70
     1
102
RTVSPost2010Prop37
 90
       50
102
RTVSPost2010PropOp37
 70
     1
102
RTVSPost2010Prop38
140
0.0
102
RTVSPost2010PropOp38
 70
     1
102
RTVSPost2010Prop39
140
1.0
102
RTVSPost2010PropOp39
 70
     1
102
RTVSPost2010Prop40
 90
        0
102
RTVSPost2010PropOp40
 70
     1
102
RTVSPost2010Prop41ColorIndex
 90
       18
102
RTVSPost2010Prop41ColorRGB
 90
        0
102
RTVSPost2010PropOp41
 70
     1
102
RTVSPost2010Prop42
 90
       50
102
RTVSPost2010PropOp42
 70
     1
102
RTVSPost2010Prop43
 90
        3
102
RTVSPost2010PropOp43
 70
     1
102
RTVSPost2010Prop44ColorIndex
 90
        5
102
RTVSPost2010Prop44ColorRGB
 90
      255
102
RTVSPost2010PropOp44
 70
     1
102
RTVSPost2010Prop45
280
     0
102
RTVSPost2010PropOp45
 70
     1
102
RTVSPost2010Prop46
 90
       50
102
RTVSPost2010PropOp46
 70
     1
102
RTVSPost2010Prop47
 90
       50
102
RTVSPost2010PropOp47
 70
     1
102
RTVSPost2010Prop48
 90
       50
102
RTVSPost2010PropOp48
 70
     1
102
RTVSPost2010Prop49
280
     0
102
RTVSPost2010PropOp49
 70
     1
102
RTVSPost2010Prop50
 90
       50
102
RTVSPost2010PropOp50
 70
     1
102
RTVSPost2010Prop51ColorIndex
 90
      256
102
RTVSPost2010Prop51ColorRGB
 90
-16777216
102
RTVSPost2010PropOp51
 70
     0
102
RTVSPost2010Prop52
140
1.0
102
RTVSPost2010PropOp52
 70
     0
102
RTVSPost2010Prop53
 90
        2
102
RTVSPost2010PropOp53
 70
     1
102
RTVSPost2010Prop54
  1
strokes_ogs.tif
102
RTVSPost2010PropOp54
 70
     1
102
RTVSPost2010Prop55
280
     0
102
RTVSPost2010PropOp55
 70
     1
102
RTVSPost2010Prop56
140
1.0
102
RTVSPost2010PropOp56
 70
     1
102
RTVSPost2010Prop57
140
1.0
102
RTVSPost2010PropOp57
 70
     1
102
RTVSPropertyOp0
 70
     1
102
RTVSPropertyOp1
 70
     1
102
RTVSPropertyOp2
 70
     1
102
RTVSPropertyOp3
 70
     1
102
RTVSPropertyOp4
 70
     1
102
RTVSPropertyOp5
 70
     1
102
RTVSPropertyOp6
 70
     1
102
RTVSPropertyOp7
 70
     1
102
RTVSPropertyOp8
 70
     1
102
RTVSPropertyOp9
 70
     1
102
RTVSPropertyOp10
 70
     1
102
RTVSPropertyOp11
 70
     1
102
RTVSPropertyOp12
 70
     1
102
RTVSPropertyOp13
 70
     1
102
RTVSPropertyOp14
 70
     1
102
RTVSPropertyOp15
 70
     1
102
RTVSPropertyOp16
 70
     1
102
RTVSPropertyOp17
 70
     1
102
RTVSPropertyOp18
 70
     1
102
RTVSPropertyOp19
 70
     1
102
RTVSPropertyOp20
 70
     1
102
RTVSPropertyOp21
 70
     1
102
RTVSPropertyOp22
 70
     1
102
RTVSPropertyOp23
 70
     1
102
RTVSPropertyOp24
 70
     1
102
RTVSPropertyOp25
 70
     1
102
RTVSPropertyOp26
 70
     1
102
RTVSPropertyOp27
 70
     1
102
RTVSPropertyOp28
 70
     1
102
RTVSPropertyOp29
 70
     1
102
RTVSPropertyOp30
 70
     1
102
RTVSPropertyOp31
 70
     1
102
RTVSPropertyOp32
 70
     1
102
RTVSPropertyOp33
 70
     1
102
RTVSPropertyOp34
 70
     1
102
RTVSPropertyOp35
 70
     1
102
RTVSPropertyOp36
 70
     1
102
RTVSPropertyOp37
 70
     1
102
RTVSPropertyOp38
 70
     1
102
RTVSPropertyOp39
 70
     1
102
RTVSPropertyOp40
 70
     1
102
RTVSPropertyOp41
 70
     1
102
RTVSPropertyOp42
 70
     1
102
RTVSPropertyOp43
 70
     1
102
RTVSPropertyOp44
 70
     1
102
RTVSPropertyOp45
 70
     1
102
RTVSPropertyOp46
 70
     1
102
RTVSPropertyOp47
 70
     1
102
RTVSPropertyOp48
 70
     1
102
RTVSPropertyOp49
 70
     1
102
RTVSPropertyOp50
 70
     1
102
RTVSPropertyOp51
 70
     0
102
RTVSPropertyOp52
 70
     0
102
RTVSPropertyOp53
 70
     1
102
RTVSPropertyOp54
 70
     1
102
RTVSPropertyOp55
 70
     1
102
RTVSPropertyOp56
 70
     1
102
RTVSPropertyOp57
 70
     1
102
RTVSPropertyOp58
 70
     1
102
RTVSPropertyOp59
 70
     1
102
RTVSPropertyOp60
 70
     1
102
RTVSPropertyOp61
 70
     1
102
RTVSPropertyOp62
 70
     1
  0
XRECORD
  5
E8AC3
102
{ACAD_REACTORS
330
E8AC2
102
}
330
E8AC2
100
AcDbXrecord
280
     1
102
RTVSPost2010Prop28
280
     0
102
RTVSPost2010PropOp28
 70
     1
102
RTVSPost2010Prop29
280
     1
102
RTVSPost2010PropOp29
 70
     1
102
RTVSPost2010Prop30
280
     1
102
RTVSPost2010PropOp30
 70
     1
102
RTVSPost2010Prop31
280
     0
102
RTVSPost2010PropOp31
 70
     1
102
RTVSPost2010Prop32
280
     0
102
RTVSPost2010PropOp32
 70
     1
102
RTVSPost2010Prop33
280
     0
102
RTVSPost2010PropOp33
 70
     1
102
RTVSPost2010Prop34
280
     0
102
RTVSPost2010PropOp34
 70
     1
102
RTVSPost2010Prop35
280
     0
102
RTVSPost2010PropOp35
 70
     1
102
RTVSPost2010Prop36
280
     0
102
RTVSPost2010PropOp36
 70
     1
102
RTVSPost2010Prop37
 90
       50
102
RTVSPost2010PropOp37
 70
     1
102
RTVSPost2010Prop38
140
0.0
102
RTVSPost2010PropOp38
 70
     1
102
RTVSPost2010Prop39
140
1.0
102
RTVSPost2010PropOp39
 70
     1
102
RTVSPost2010Prop40
 90
        0
102
RTVSPost2010PropOp40
 70
     1
102
RTVSPost2010Prop41ColorIndex
 90
       18
102
RTVSPost2010Prop41ColorRGB
 90
        0
102
RTVSPost2010PropOp41
 70
     1
102
RTVSPost2010Prop42
 90
       50
102
RTVSPost2010PropOp42
 70
     1
102
RTVSPost2010Prop43
 90
        3
102
RTVSPost2010PropOp43
 70
     1
102
RTVSPost2010Prop44ColorIndex
 90
        5
102
RTVSPost2010Prop44ColorRGB
 90
      255
102
RTVSPost2010PropOp44
 70
     1
102
RTVSPost2010Prop45
280
     0
102
RTVSPost2010PropOp45
 70
     1
102
RTVSPost2010Prop46
 90
       50
102
RTVSPost2010PropOp46
 70
     1
102
RTVSPost2010Prop47
 90
       50
102
RTVSPost2010PropOp47
 70
     1
102
RTVSPost2010Prop48
 90
       50
102
RTVSPost2010PropOp48
 70
     1
102
RTVSPost2010Prop49
280
     0
102
RTVSPost2010PropOp49
 70
     1
102
RTVSPost2010Prop50
 90
       50
102
RTVSPost2010PropOp50
 70
     1
102
RTVSPost2010Prop51ColorIndex
 90
      256
102
RTVSPost2010Prop51ColorRGB
 90
-16777216
102
RTVSPost2010PropOp51
 70
     0
102
RTVSPost2010Prop52
140
1.0
102
RTVSPost2010PropOp52
 70
     0
102
RTVSPost2010Prop53
 90
        2
102
RTVSPost2010PropOp53
 70
     1
102
RTVSPost2010Prop54
  1
strokes_ogs.tif
102
RTVSPost2010PropOp54
 70
     1
102
RTVSPost2010Prop55
280
     0
102
RTVSPost2010PropOp55
 70
     1
102
RTVSPost2010Prop56
140
1.0
102
RTVSPost2010PropOp56
 70
     1
102
RTVSPost2010Prop57
140
1.0
102
RTVSPost2010PropOp57
 70
     1
102
RTVSPropertyOp0
 70
     1
102
RTVSPropertyOp1
 70
     1
102
RTVSPropertyOp2
 70
     1
102
RTVSPropertyOp3
 70
     1
102
RTVSPropertyOp4
 70
     1
102
RTVSPropertyOp5
 70
     1
102
RTVSPropertyOp6
 70
     1
102
RTVSPropertyOp7
 70
     1
102
RTVSPropertyOp8
 70
     1
102
RTVSPropertyOp9
 70
     1
102
RTVSPropertyOp10
 70
     1
102
RTVSPropertyOp11
 70
     1
102
RTVSPropertyOp12
 70
     1
102
RTVSPropertyOp13
 70
     1
102
RTVSPropertyOp14
 70
     1
102
RTVSPropertyOp15
 70
     1
102
RTVSPropertyOp16
 70
     1
102
RTVSPropertyOp17
 70
     1
102
RTVSPropertyOp18
 70
     1
102
RTVSPropertyOp19
 70
     1
102
RTVSPropertyOp20
 70
     1
102
RTVSPropertyOp21
 70
     1
102
RTVSPropertyOp22
 70
     1
102
RTVSPropertyOp23
 70
     1
102
RTVSPropertyOp24
 70
     1
102
RTVSPropertyOp25
 70
     1
102
RTVSPropertyOp26
 70
     1
102
RTVSPropertyOp27
 70
     1
102
RTVSPropertyOp28
 70
     1
102
RTVSPropertyOp29
 70
     1
102
RTVSPropertyOp30
 70
     1
102
RTVSPropertyOp31
 70
     1
102
RTVSPropertyOp32
 70
     1
102
RTVSPropertyOp33
 70
     1
102
RTVSPropertyOp34
 70
     1
102
RTVSPropertyOp35
 70
     1
102
RTVSPropertyOp36
 70
     1
102
RTVSPropertyOp37
 70
     1
102
RTVSPropertyOp38
 70
     1
102
RTVSPropertyOp39
 70
     1
102
RTVSPropertyOp40
 70
     1
102
RTVSPropertyOp41
 70
     1
102
RTVSPropertyOp42
 70
     1
102
RTVSPropertyOp43
 70
     1
102
RTVSPropertyOp44
 70
     1
102
RTVSPropertyOp45
 70
     1
102
RTVSPropertyOp46
 70
     1
102
RTVSPropertyOp47
 70
     1
102
RTVSPropertyOp48
 70
     1
102
RTVSPropertyOp49
 70
     1
102
RTVSPropertyOp50
 70
     1
102
RTVSPropertyOp51
 70
     0
102
RTVSPropertyOp52
 70
     0
102
RTVSPropertyOp53
 70
     1
102
RTVSPropertyOp54
 70
     1
102
RTVSPropertyOp55
 70
     1
102
RTVSPropertyOp56
 70
     1
102
RTVSPropertyOp57
 70
     1
102
RTVSPropertyOp58
 70
     1
102
RTVSPropertyOp59
 70
     1
102
RTVSPropertyOp60
 70
     1
102
RTVSPropertyOp61
 70
     1
102
RTVSPropertyOp62
 70
     1
  0
XRECORD
  5
E8AC7
102
{ACAD_REACTORS
330
E8AC6
102
}
330
E8AC6
100
AcDbXrecord
280
     1
102
RTVSPost2010Prop28
280
     0
102
RTVSPost2010PropOp28
 70
     1
102
RTVSPost2010Prop29
280
     1
102
RTVSPost2010PropOp29
 70
     1
102
RTVSPost2010Prop30
280
     1
102
RTVSPost2010PropOp30
 70
     1
102
RTVSPost2010Prop31
280
     0
102
RTVSPost2010PropOp31
 70
     1
102
RTVSPost2010Prop32
280
     0
102
RTVSPost2010PropOp32
 70
     1
102
RTVSPost2010Prop33
280
     0
102
RTVSPost2010PropOp33
 70
     1
102
RTVSPost2010Prop34
280
     0
102
RTVSPost2010PropOp34
 70
     1
102
RTVSPost2010Prop35
280
     0
102
RTVSPost2010PropOp35
 70
     1
102
RTVSPost2010Prop36
280
     0
102
RTVSPost2010PropOp36
 70
     1
102
RTVSPost2010Prop37
 90
       50
102
RTVSPost2010PropOp37
 70
     1
102
RTVSPost2010Prop38
140
0.0
102
RTVSPost2010PropOp38
 70
     1
102
RTVSPost2010Prop39
140
1.0
102
RTVSPost2010PropOp39
 70
     1
102
RTVSPost2010Prop40
 90
        0
102
RTVSPost2010PropOp40
 70
     1
102
RTVSPost2010Prop41ColorIndex
 90
       18
102
RTVSPost2010Prop41ColorRGB
 90
        0
102
RTVSPost2010PropOp41
 70
     1
102
RTVSPost2010Prop42
 90
       50
102
RTVSPost2010PropOp42
 70
     1
102
RTVSPost2010Prop43
 90
        3
102
RTVSPost2010PropOp43
 70
     1
102
RTVSPost2010Prop44ColorIndex
 90
        5
102
RTVSPost2010Prop44ColorRGB
 90
      255
102
RTVSPost2010PropOp44
 70
     1
102
RTVSPost2010Prop45
280
     0
102
RTVSPost2010PropOp45
 70
     1
102
RTVSPost2010Prop46
 90
       50
102
RTVSPost2010PropOp46
 70
     1
102
RTVSPost2010Prop47
 90
       50
102
RTVSPost2010PropOp47
 70
     1
102
RTVSPost2010Prop48
 90
       50
102
RTVSPost2010PropOp48
 70
     1
102
RTVSPost2010Prop49
280
     0
102
RTVSPost2010PropOp49
 70
     1
102
RTVSPost2010Prop50
 90
       50
102
RTVSPost2010PropOp50
 70
     1
102
RTVSPost2010Prop51ColorIndex
 90
      256
102
RTVSPost2010Prop51ColorRGB
 90
-16777216
102
RTVSPost2010PropOp51
 70
     0
102
RTVSPost2010Prop52
140
1.0
102
RTVSPost2010PropOp52
 70
     0
102
RTVSPost2010Prop53
 90
        2
102
RTVSPost2010PropOp53
 70
     1
102
RTVSPost2010Prop54
  1
strokes_ogs.tif
102
RTVSPost2010PropOp54
 70
     1
102
RTVSPost2010Prop55
280
     0
102
RTVSPost2010PropOp55
 70
     1
102
RTVSPost2010Prop56
140
1.0
102
RTVSPost2010PropOp56
 70
     1
102
RTVSPost2010Prop57
140
1.0
102
RTVSPost2010PropOp57
 70
     1
102
RTVSPropertyOp0
 70
     1
102
RTVSPropertyOp1
 70
     1
102
RTVSPropertyOp2
 70
     1
102
RTVSPropertyOp3
 70
     1
102
RTVSPropertyOp4
 70
     1
102
RTVSPropertyOp5
 70
     1
102
RTVSPropertyOp6
 70
     1
102
RTVSPropertyOp7
 70
     1
102
RTVSPropertyOp8
 70
     1
102
RTVSPropertyOp9
 70
     1
102
RTVSPropertyOp10
 70
     1
102
RTVSPropertyOp11
 70
     1
102
RTVSPropertyOp12
 70
     1
102
RTVSPropertyOp13
 70
     1
102
RTVSPropertyOp14
 70
     1
102
RTVSPropertyOp15
 70
     1
102
RTVSPropertyOp16
 70
     1
102
RTVSPropertyOp17
 70
     1
102
RTVSPropertyOp18
 70
     1
102
RTVSPropertyOp19
 70
     1
102
RTVSPropertyOp20
 70
     1
102
RTVSPropertyOp21
 70
     1
102
RTVSPropertyOp22
 70
     1
102
RTVSPropertyOp23
 70
     1
102
RTVSPropertyOp24
 70
     1
102
RTVSPropertyOp25
 70
     1
102
RTVSPropertyOp26
 70
     1
102
RTVSPropertyOp27
 70
     1
102
RTVSPropertyOp28
 70
     1
102
RTVSPropertyOp29
 70
     1
102
RTVSPropertyOp30
 70
     1
102
RTVSPropertyOp31
 70
     1
102
RTVSPropertyOp32
 70
     1
102
RTVSPropertyOp33
 70
     1
102
RTVSPropertyOp34
 70
     1
102
RTVSPropertyOp35
 70
     1
102
RTVSPropertyOp36
 70
     1
102
RTVSPropertyOp37
 70
     1
102
RTVSPropertyOp38
 70
     1
102
RTVSPropertyOp39
 70
     1
102
RTVSPropertyOp40
 70
     1
102
RTVSPropertyOp41
 70
     1
102
RTVSPropertyOp42
 70
     1
102
RTVSPropertyOp43
 70
     1
102
RTVSPropertyOp44
 70
     1
102
RTVSPropertyOp45
 70
     1
102
RTVSPropertyOp46
 70
     1
102
RTVSPropertyOp47
 70
     1
102
RTVSPropertyOp48
 70
     1
102
RTVSPropertyOp49
 70
     1
102
RTVSPropertyOp50
 70
     1
102
RTVSPropertyOp51
 70
     0
102
RTVSPropertyOp52
 70
     0
102
RTVSPropertyOp53
 70
     1
102
RTVSPropertyOp54
 70
     1
102
RTVSPropertyOp55
 70
     1
102
RTVSPropertyOp56
 70
     1
102
RTVSPropertyOp57
 70
     1
102
RTVSPropertyOp58
 70
     1
102
RTVSPropertyOp59
 70
     1
102
RTVSPropertyOp60
 70
     1
102
RTVSPropertyOp61
 70
     1
102
RTVSPropertyOp62
 70
     1
  0
XRECORD
  5
E8AD7
102
{ACAD_REACTORS
330
E8AD6
102
}
330
E8AD6
100
AcDbXrecord
280
     1
102
RTVSPost2010Prop28
280
     0
102
RTVSPost2010PropOp28
 70
     1
102
RTVSPost2010Prop29
280
     1
102
RTVSPost2010PropOp29
 70
     1
102
RTVSPost2010Prop30
280
     1
102
RTVSPost2010PropOp30
 70
     1
102
RTVSPost2010Prop31
280
     0
102
RTVSPost2010PropOp31
 70
     1
102
RTVSPost2010Prop32
280
     0
102
RTVSPost2010PropOp32
 70
     1
102
RTVSPost2010Prop33
280
     0
102
RTVSPost2010PropOp33
 70
     1
102
RTVSPost2010Prop34
280
     0
102
RTVSPost2010PropOp34
 70
     1
102
RTVSPost2010Prop35
280
     0
102
RTVSPost2010PropOp35
 70
     1
102
RTVSPost2010Prop36
280
     0
102
RTVSPost2010PropOp36
 70
     1
102
RTVSPost2010Prop37
 90
       50
102
RTVSPost2010PropOp37
 70
     1
102
RTVSPost2010Prop38
140
0.0
102
RTVSPost2010PropOp38
 70
     1
102
RTVSPost2010Prop39
140
1.0
102
RTVSPost2010PropOp39
 70
     1
102
RTVSPost2010Prop40
 90
        0
102
RTVSPost2010PropOp40
 70
     1
102
RTVSPost2010Prop41ColorIndex
 90
       18
102
RTVSPost2010Prop41ColorRGB
 90
        0
102
RTVSPost2010PropOp41
 70
     1
102
RTVSPost2010Prop42
 90
       50
102
RTVSPost2010PropOp42
 70
     1
102
RTVSPost2010Prop43
 90
        3
102
RTVSPost2010PropOp43
 70
     1
102
RTVSPost2010Prop44ColorIndex
 90
        5
102
RTVSPost2010Prop44ColorRGB
 90
      255
102
RTVSPost2010PropOp44
 70
     1
102
RTVSPost2010Prop45
280
     0
102
RTVSPost2010PropOp45
 70
     1
102
RTVSPost2010Prop46
 90
       50
102
RTVSPost2010PropOp46
 70
     1
102
RTVSPost2010Prop47
 90
       50
102
RTVSPost2010PropOp47
 70
     1
102
RTVSPost2010Prop48
 90
       50
102
RTVSPost2010PropOp48
 70
     1
102
RTVSPost2010Prop49
280
     0
102
RTVSPost2010PropOp49
 70
     1
102
RTVSPost2010Prop50
 90
       50
102
RTVSPost2010PropOp50
 70
     1
102
RTVSPost2010Prop51ColorIndex
 90
      256
102
RTVSPost2010Prop51ColorRGB
 90
-16777216
102
RTVSPost2010PropOp51
 70
     0
102
RTVSPost2010Prop52
140
1.0
102
RTVSPost2010PropOp52
 70
     0
102
RTVSPost2010Prop53
 90
        2
102
RTVSPost2010PropOp53
 70
     1
102
RTVSPost2010Prop54
  1
strokes_ogs.tif
102
RTVSPost2010PropOp54
 70
     1
102
RTVSPost2010Prop55
280
     0
102
RTVSPost2010PropOp55
 70
     1
102
RTVSPost2010Prop56
140
1.0
102
RTVSPost2010PropOp56
 70
     1
102
RTVSPost2010Prop57
140
1.0
102
RTVSPost2010PropOp57
 70
     1
102
RTVSPropertyOp0
 70
     0
102
RTVSPropertyOp1
 70
     0
102
RTVSPropertyOp2
 70
     0
102
RTVSPropertyOp3
 70
     0
102
RTVSPropertyOp4
 70
     0
102
RTVSPropertyOp5
 70
     0
102
RTVSPropertyOp6
 70
     0
102
RTVSPropertyOp7
 70
     0
102
RTVSPropertyOp8
 70
     0
102
RTVSPropertyOp9
 70
     0
102
RTVSPropertyOp10
 70
     0
102
RTVSPropertyOp11
 70
     0
102
RTVSPropertyOp12
 70
     0
102
RTVSPropertyOp13
 70
     0
102
RTVSPropertyOp14
 70
     2
102
RTVSPropertyOp15
 70
     0
102
RTVSPropertyOp16
 70
     0
102
RTVSPropertyOp17
 70
     0
102
RTVSPropertyOp18
 70
     0
102
RTVSPropertyOp19
 70
     0
102
RTVSPropertyOp20
 70
     0
102
RTVSPropertyOp21
 70
     0
102
RTVSPropertyOp22
 70
     0
102
RTVSPropertyOp23
 70
     0
102
RTVSPropertyOp24
 70
     0
102
RTVSPropertyOp25
 70
     0
102
RTVSPropertyOp26
 70
     0
102
RTVSPropertyOp27
 70
     0
102
RTVSPropertyOp28
 70
     1
102
RTVSPropertyOp29
 70
     1
102
RTVSPropertyOp30
 70
     1
102
RTVSPropertyOp31
 70
     1
102
RTVSPropertyOp32
 70
     1
102
RTVSPropertyOp33
 70
     1
102
RTVSPropertyOp34
 70
     1
102
RTVSPropertyOp35
 70
     1
102
RTVSPropertyOp36
 70
     1
102
RTVSPropertyOp37
 70
     1
102
RTVSPropertyOp38
 70
     1
102
RTVSPropertyOp39
 70
     1
102
RTVSPropertyOp40
 70
     1
102
RTVSPropertyOp41
 70
     1
102
RTVSPropertyOp42
 70
     1
102
RTVSPropertyOp43
 70
     1
102
RTVSPropertyOp44
 70
     1
102
RTVSPropertyOp45
 70
     1
102
RTVSPropertyOp46
 70
     1
102
RTVSPropertyOp47
 70
     1
102
RTVSPropertyOp48
 70
     1
102
RTVSPropertyOp49
 70
     1
102
RTVSPropertyOp50
 70
     1
102
RTVSPropertyOp51
 70
     0
102
RTVSPropertyOp52
 70
     0
102
RTVSPropertyOp53
 70
     1
102
RTVSPropertyOp54
 70
     1
102
RTVSPropertyOp55
 70
     1
102
RTVSPropertyOp56
 70
     1
102
RTVSPropertyOp57
 70
     1
102
RTVSPropertyOp58
 70
     1
102
RTVSPropertyOp59
 70
     1
102
RTVSPropertyOp60
 70
     1
102
RTVSPropertyOp61
 70
     1
102
RTVSPropertyOp62
 70
     1
  0
XRECORD
  5
E8ACF
102
{ACAD_REACTORS
330
E8ACE
102
}
330
E8ACE
100
AcDbXrecord
280
     1
102
RTVSPost2010Prop28
280
     0
102
RTVSPost2010PropOp28
 70
     1
102
RTVSPost2010Prop29
280
     1
102
RTVSPost2010PropOp29
 70
     1
102
RTVSPost2010Prop30
280
     1
102
RTVSPost2010PropOp30
 70
     1
102
RTVSPost2010Prop31
280
     0
102
RTVSPost2010PropOp31
 70
     1
102
RTVSPost2010Prop32
280
     0
102
RTVSPost2010PropOp32
 70
     1
102
RTVSPost2010Prop33
280
     0
102
RTVSPost2010PropOp33
 70
     1
102
RTVSPost2010Prop34
280
     0
102
RTVSPost2010PropOp34
 70
     1
102
RTVSPost2010Prop35
280
     0
102
RTVSPost2010PropOp35
 70
     1
102
RTVSPost2010Prop36
280
     0
102
RTVSPost2010PropOp36
 70
     1
102
RTVSPost2010Prop37
 90
       50
102
RTVSPost2010PropOp37
 70
     1
102
RTVSPost2010Prop38
140
0.0
102
RTVSPost2010PropOp38
 70
     1
102
RTVSPost2010Prop39
140
1.0
102
RTVSPost2010PropOp39
 70
     1
102
RTVSPost2010Prop40
 90
        0
102
RTVSPost2010PropOp40
 70
     1
102
RTVSPost2010Prop41ColorIndex
 90
       18
102
RTVSPost2010Prop41ColorRGB
 90
        0
102
RTVSPost2010PropOp41
 70
     1
102
RTVSPost2010Prop42
 90
       50
102
RTVSPost2010PropOp42
 70
     1
102
RTVSPost2010Prop43
 90
        3
102
RTVSPost2010PropOp43
 70
     1
102
RTVSPost2010Prop44ColorIndex
 90
        5
102
RTVSPost2010Prop44ColorRGB
 90
      255
102
RTVSPost2010PropOp44
 70
     1
102
RTVSPost2010Prop45
280
     0
102
RTVSPost2010PropOp45
 70
     1
102
RTVSPost2010Prop46
 90
       50
102
RTVSPost2010PropOp46
 70
     1
102
RTVSPost2010Prop47
 90
       50
102
RTVSPost2010PropOp47
 70
     1
102
RTVSPost2010Prop48
 90
       50
102
RTVSPost2010PropOp48
 70
     1
102
RTVSPost2010Prop49
280
     0
102
RTVSPost2010PropOp49
 70
     1
102
RTVSPost2010Prop50
 90
       50
102
RTVSPost2010PropOp50
 70
     1
102
RTVSPost2010Prop51ColorIndex
 90
      256
102
RTVSPost2010Prop51ColorRGB
 90
-16777216
102
RTVSPost2010PropOp51
 70
     0
102
RTVSPost2010Prop52
140
1.0
102
RTVSPost2010PropOp52
 70
     0
102
RTVSPost2010Prop53
 90
        2
102
RTVSPost2010PropOp53
 70
     1
102
RTVSPost2010Prop54
  1
strokes_ogs.tif
102
RTVSPost2010PropOp54
 70
     1
102
RTVSPost2010Prop55
280
     0
102
RTVSPost2010PropOp55
 70
     1
102
RTVSPost2010Prop56
140
1.0
102
RTVSPost2010PropOp56
 70
     1
102
RTVSPost2010Prop57
140
1.0
102
RTVSPost2010PropOp57
 70
     1
102
RTVSPropertyOp0
 70
     1
102
RTVSPropertyOp1
 70
     1
102
RTVSPropertyOp2
 70
     1
102
RTVSPropertyOp3
 70
     1
102
RTVSPropertyOp4
 70
     1
102
RTVSPropertyOp5
 70
     1
102
RTVSPropertyOp6
 70
     1
102
RTVSPropertyOp7
 70
     1
102
RTVSPropertyOp8
 70
     1
102
RTVSPropertyOp9
 70
     1
102
RTVSPropertyOp10
 70
     1
102
RTVSPropertyOp11
 70
     1
102
RTVSPropertyOp12
 70
     1
102
RTVSPropertyOp13
 70
     1
102
RTVSPropertyOp14
 70
     1
102
RTVSPropertyOp15
 70
     1
102
RTVSPropertyOp16
 70
     1
102
RTVSPropertyOp17
 70
     1
102
RTVSPropertyOp18
 70
     1
102
RTVSPropertyOp19
 70
     1
102
RTVSPropertyOp20
 70
     1
102
RTVSPropertyOp21
 70
     1
102
RTVSPropertyOp22
 70
     1
102
RTVSPropertyOp23
 70
     1
102
RTVSPropertyOp24
 70
     1
102
RTVSPropertyOp25
 70
     1
102
RTVSPropertyOp26
 70
     1
102
RTVSPropertyOp27
 70
     1
102
RTVSPropertyOp28
 70
     1
102
RTVSPropertyOp29
 70
     1
102
RTVSPropertyOp30
 70
     1
102
RTVSPropertyOp31
 70
     1
102
RTVSPropertyOp32
 70
     1
102
RTVSPropertyOp33
 70
     1
102
RTVSPropertyOp34
 70
     1
102
RTVSPropertyOp35
 70
     1
102
RTVSPropertyOp36
 70
     1
102
RTVSPropertyOp37
 70
     1
102
RTVSPropertyOp38
 70
     1
102
RTVSPropertyOp39
 70
     1
102
RTVSPropertyOp40
 70
     1
102
RTVSPropertyOp41
 70
     1
102
RTVSPropertyOp42
 70
     1
102
RTVSPropertyOp43
 70
     1
102
RTVSPropertyOp44
 70
     1
102
RTVSPropertyOp45
 70
     1
102
RTVSPropertyOp46
 70
     1
102
RTVSPropertyOp47
 70
     1
102
RTVSPropertyOp48
 70
     1
102
RTVSPropertyOp49
 70
     1
102
RTVSPropertyOp50
 70
     1
102
RTVSPropertyOp51
 70
     0
102
RTVSPropertyOp52
 70
     0
102
RTVSPropertyOp53
 70
     1
102
RTVSPropertyOp54
 70
     1
102
RTVSPropertyOp55
 70
     1
102
RTVSPropertyOp56
 70
     1
102
RTVSPropertyOp57
 70
     1
102
RTVSPropertyOp58
 70
     1
102
RTVSPropertyOp59
 70
     1
102
RTVSPropertyOp60
 70
     1
102
RTVSPropertyOp61
 70
     1
102
RTVSPropertyOp62
 70
     1
  0
XRECORD
  5
E8AB3
102
{ACAD_REACTORS
330
E8AB2
102
}
330
E8AB2
100
AcDbXrecord
280
     1
102
RTVSPost2010Prop28
280
     0
102
RTVSPost2010PropOp28
 70
     1
102
RTVSPost2010Prop29
280
     1
102
RTVSPost2010PropOp29
 70
     1
102
RTVSPost2010Prop30
280
     1
102
RTVSPost2010PropOp30
 70
     1
102
RTVSPost2010Prop31
280
     0
102
RTVSPost2010PropOp31
 70
     1
102
RTVSPost2010Prop32
280
     0
102
RTVSPost2010PropOp32
 70
     1
102
RTVSPost2010Prop33
280
     0
102
RTVSPost2010PropOp33
 70
     1
102
RTVSPost2010Prop34
280
     0
102
RTVSPost2010PropOp34
 70
     1
102
RTVSPost2010Prop35
280
     0
102
RTVSPost2010PropOp35
 70
     1
102
RTVSPost2010Prop36
280
     0
102
RTVSPost2010PropOp36
 70
     1
102
RTVSPost2010Prop37
 90
       50
102
RTVSPost2010PropOp37
 70
     1
102
RTVSPost2010Prop38
140
0.0
102
RTVSPost2010PropOp38
 70
     1
102
RTVSPost2010Prop39
140
1.0
102
RTVSPost2010PropOp39
 70
     1
102
RTVSPost2010Prop40
 90
        0
102
RTVSPost2010PropOp40
 70
     1
102
RTVSPost2010Prop41ColorIndex
 90
       18
102
RTVSPost2010Prop41ColorRGB
 90
        0
102
RTVSPost2010PropOp41
 70
     1
102
RTVSPost2010Prop42
 90
       50
102
RTVSPost2010PropOp42
 70
     1
102
RTVSPost2010Prop43
 90
        3
102
RTVSPost2010PropOp43
 70
     1
102
RTVSPost2010Prop44ColorIndex
 90
        5
102
RTVSPost2010Prop44ColorRGB
 90
      255
102
RTVSPost2010PropOp44
 70
     1
102
RTVSPost2010Prop45
280
     0
102
RTVSPost2010PropOp45
 70
     1
102
RTVSPost2010Prop46
 90
       50
102
RTVSPost2010PropOp46
 70
     1
102
RTVSPost2010Prop47
 90
       50
102
RTVSPost2010PropOp47
 70
     1
102
RTVSPost2010Prop48
 90
       50
102
RTVSPost2010PropOp48
 70
     1
102
RTVSPost2010Prop49
280
     0
102
RTVSPost2010PropOp49
 70
     1
102
RTVSPost2010Prop50
 90
       50
102
RTVSPost2010PropOp50
 70
     1
102
RTVSPost2010Prop51ColorIndex
 90
      256
102
RTVSPost2010Prop51ColorRGB
 90
-16777216
102
RTVSPost2010PropOp51
 70
     0
102
RTVSPost2010Prop52
140
1.0
102
RTVSPost2010PropOp52
 70
     0
102
RTVSPost2010Prop53
 90
        2
102
RTVSPost2010PropOp53
 70
     1
102
RTVSPost2010Prop54
  1
strokes_ogs.tif
102
RTVSPost2010PropOp54
 70
     1
102
RTVSPost2010Prop55
280
     0
102
RTVSPost2010PropOp55
 70
     1
102
RTVSPost2010Prop56
140
1.0
102
RTVSPost2010PropOp56
 70
     1
102
RTVSPost2010Prop57
140
1.0
102
RTVSPost2010PropOp57
 70
     1
102
RTVSPropertyOp0
 70
     1
102
RTVSPropertyOp1
 70
     1
102
RTVSPropertyOp2
 70
     1
102
RTVSPropertyOp3
 70
     1
102
RTVSPropertyOp4
 70
     1
102
RTVSPropertyOp5
 70
     1
102
RTVSPropertyOp6
 70
     1
102
RTVSPropertyOp7
 70
     1
102
RTVSPropertyOp8
 70
     1
102
RTVSPropertyOp9
 70
     1
102
RTVSPropertyOp10
 70
     1
102
RTVSPropertyOp11
 70
     1
102
RTVSPropertyOp12
 70
     1
102
RTVSPropertyOp13
 70
     1
102
RTVSPropertyOp14
 70
     1
102
RTVSPropertyOp15
 70
     1
102
RTVSPropertyOp16
 70
     1
102
RTVSPropertyOp17
 70
     1
102
RTVSPropertyOp18
 70
     1
102
RTVSPropertyOp19
 70
     1
102
RTVSPropertyOp20
 70
     1
102
RTVSPropertyOp21
 70
     1
102
RTVSPropertyOp22
 70
     1
102
RTVSPropertyOp23
 70
     1
102
RTVSPropertyOp24
 70
     1
102
RTVSPropertyOp25
 70
     1
102
RTVSPropertyOp26
 70
     1
102
RTVSPropertyOp27
 70
     1
102
RTVSPropertyOp28
 70
     1
102
RTVSPropertyOp29
 70
     1
102
RTVSPropertyOp30
 70
     1
102
RTVSPropertyOp31
 70
     1
102
RTVSPropertyOp32
 70
     1
102
RTVSPropertyOp33
 70
     1
102
RTVSPropertyOp34
 70
     1
102
RTVSPropertyOp35
 70
     1
102
RTVSPropertyOp36
 70
     1
102
RTVSPropertyOp37
 70
     1
102
RTVSPropertyOp38
 70
     1
102
RTVSPropertyOp39
 70
     1
102
RTVSPropertyOp40
 70
     1
102
RTVSPropertyOp41
 70
     1
102
RTVSPropertyOp42
 70
     1
102
RTVSPropertyOp43
 70
     1
102
RTVSPropertyOp44
 70
     1
102
RTVSPropertyOp45
 70
     1
102
RTVSPropertyOp46
 70
     1
102
RTVSPropertyOp47
 70
     1
102
RTVSPropertyOp48
 70
     1
102
RTVSPropertyOp49
 70
     1
102
RTVSPropertyOp50
 70
     1
102
RTVSPropertyOp51
 70
     0
102
RTVSPropertyOp52
 70
     0
102
RTVSPropertyOp53
 70
     1
102
RTVSPropertyOp54
 70
     1
102
RTVSPropertyOp55
 70
     1
102
RTVSPropertyOp56
 70
     1
102
RTVSPropertyOp57
 70
     1
102
RTVSPropertyOp58
 70
     1
102
RTVSPropertyOp59
 70
     1
102
RTVSPropertyOp60
 70
     1
102
RTVSPropertyOp61
 70
     1
102
RTVSPropertyOp62
 70
     1
  0
XRECORD
  5
E8AB5
102
{ACAD_REACTORS
330
E8AB4
102
}
330
E8AB4
100
AcDbXrecord
280
     1
102
RTVSPost2010Prop28
280
     0
102
RTVSPost2010PropOp28
 70
     1
102
RTVSPost2010Prop29
280
     1
102
RTVSPost2010PropOp29
 70
     1
102
RTVSPost2010Prop30
280
     1
102
RTVSPost2010PropOp30
 70
     1
102
RTVSPost2010Prop31
280
     0
102
RTVSPost2010PropOp31
 70
     1
102
RTVSPost2010Prop32
280
     0
102
RTVSPost2010PropOp32
 70
     1
102
RTVSPost2010Prop33
280
     0
102
RTVSPost2010PropOp33
 70
     1
102
RTVSPost2010Prop34
280
     0
102
RTVSPost2010PropOp34
 70
     1
102
RTVSPost2010Prop35
280
     0
102
RTVSPost2010PropOp35
 70
     1
102
RTVSPost2010Prop36
280
     0
102
RTVSPost2010PropOp36
 70
     1
102
RTVSPost2010Prop37
 90
       50
102
RTVSPost2010PropOp37
 70
     1
102
RTVSPost2010Prop38
140
0.0
102
RTVSPost2010PropOp38
 70
     1
102
RTVSPost2010Prop39
140
1.0
102
RTVSPost2010PropOp39
 70
     1
102
RTVSPost2010Prop40
 90
        0
102
RTVSPost2010PropOp40
 70
     1
102
RTVSPost2010Prop41ColorIndex
 90
       18
102
RTVSPost2010Prop41ColorRGB
 90
        0
102
RTVSPost2010PropOp41
 70
     1
102
RTVSPost2010Prop42
 90
       50
102
RTVSPost2010PropOp42
 70
     1
102
RTVSPost2010Prop43
 90
        3
102
RTVSPost2010PropOp43
 70
     1
102
RTVSPost2010Prop44ColorIndex
 90
        5
102
RTVSPost2010Prop44ColorRGB
 90
      255
102
RTVSPost2010PropOp44
 70
     1
102
RTVSPost2010Prop45
280
     0
102
RTVSPost2010PropOp45
 70
     1
102
RTVSPost2010Prop46
 90
       50
102
RTVSPost2010PropOp46
 70
     1
102
RTVSPost2010Prop47
 90
       50
102
RTVSPost2010PropOp47
 70
     1
102
RTVSPost2010Prop48
 90
       50
102
RTVSPost2010PropOp48
 70
     1
102
RTVSPost2010Prop49
280
     0
102
RTVSPost2010PropOp49
 70
     1
102
RTVSPost2010Prop50
 90
       50
102
RTVSPost2010PropOp50
 70
     1
102
RTVSPost2010Prop51ColorIndex
 90
      256
102
RTVSPost2010Prop51ColorRGB
 90
-16777216
102
RTVSPost2010PropOp51
 70
     0
102
RTVSPost2010Prop52
140
1.0
102
RTVSPost2010PropOp52
 70
     0
102
RTVSPost2010Prop53
 90
        2
102
RTVSPost2010PropOp53
 70
     1
102
RTVSPost2010Prop54
  1
strokes_ogs.tif
102
RTVSPost2010PropOp54
 70
     1
102
RTVSPost2010Prop55
280
     0
102
RTVSPost2010PropOp55
 70
     1
102
RTVSPost2010Prop56
140
1.0
102
RTVSPost2010PropOp56
 70
     1
102
RTVSPost2010Prop57
140
1.0
102
RTVSPost2010PropOp57
 70
     1
102
RTVSPropertyOp0
 70
     1
102
RTVSPropertyOp1
 70
     1
102
RTVSPropertyOp2
 70
     1
102
RTVSPropertyOp3
 70
     1
102
RTVSPropertyOp4
 70
     1
102
RTVSPropertyOp5
 70
     1
102
RTVSPropertyOp6
 70
     1
102
RTVSPropertyOp7
 70
     1
102
RTVSPropertyOp8
 70
     1
102
RTVSPropertyOp9
 70
     1
102
RTVSPropertyOp10
 70
     1
102
RTVSPropertyOp11
 70
     1
102
RTVSPropertyOp12
 70
     1
102
RTVSPropertyOp13
 70
     1
102
RTVSPropertyOp14
 70
     1
102
RTVSPropertyOp15
 70
     1
102
RTVSPropertyOp16
 70
     1
102
RTVSPropertyOp17
 70
     1
102
RTVSPropertyOp18
 70
     1
102
RTVSPropertyOp19
 70
     1
102
RTVSPropertyOp20
 70
     1
102
RTVSPropertyOp21
 70
     1
102
RTVSPropertyOp22
 70
     1
102
RTVSPropertyOp23
 70
     1
102
RTVSPropertyOp24
 70
     1
102
RTVSPropertyOp25
 70
     1
102
RTVSPropertyOp26
 70
     1
102
RTVSPropertyOp27
 70
     1
102
RTVSPropertyOp28
 70
     1
102
RTVSPropertyOp29
 70
     1
102
RTVSPropertyOp30
 70
     1
102
RTVSPropertyOp31
 70
     1
102
RTVSPropertyOp32
 70
     1
102
RTVSPropertyOp33
 70
     1
102
RTVSPropertyOp34
 70
     1
102
RTVSPropertyOp35
 70
     1
102
RTVSPropertyOp36
 70
     1
102
RTVSPropertyOp37
 70
     1
102
RTVSPropertyOp38
 70
     1
102
RTVSPropertyOp39
 70
     1
102
RTVSPropertyOp40
 70
     1
102
RTVSPropertyOp41
 70
     1
102
RTVSPropertyOp42
 70
     1
102
RTVSPropertyOp43
 70
     1
102
RTVSPropertyOp44
 70
     1
102
RTVSPropertyOp45
 70
     1
102
RTVSPropertyOp46
 70
     1
102
RTVSPropertyOp47
 70
     1
102
RTVSPropertyOp48
 70
     1
102
RTVSPropertyOp49
 70
     1
102
RTVSPropertyOp50
 70
     1
102
RTVSPropertyOp51
 70
     0
102
RTVSPropertyOp52
 70
     0
102
RTVSPropertyOp53
 70
     1
102
RTVSPropertyOp54
 70
     1
102
RTVSPropertyOp55
 70
     1
102
RTVSPropertyOp56
 70
     1
102
RTVSPropertyOp57
 70
     1
102
RTVSPropertyOp58
 70
     1
102
RTVSPropertyOp59
 70
     1
102
RTVSPropertyOp60
 70
     1
102
RTVSPropertyOp61
 70
     1
102
RTVSPropertyOp62
 70
     1
  0
XRECORD
  5
E8AB7
102
{ACAD_REACTORS
330
E8AB6
102
}
330
E8AB6
100
AcDbXrecord
280
     1
102
RTVSPost2010Prop28
280
     0
102
RTVSPost2010PropOp28
 70
     1
102
RTVSPost2010Prop29
280
     1
102
RTVSPost2010PropOp29
 70
     1
102
RTVSPost2010Prop30
280
     1
102
RTVSPost2010PropOp30
 70
     1
102
RTVSPost2010Prop31
280
     0
102
RTVSPost2010PropOp31
 70
     1
102
RTVSPost2010Prop32
280
     0
102
RTVSPost2010PropOp32
 70
     1
102
RTVSPost2010Prop33
280
     0
102
RTVSPost2010PropOp33
 70
     1
102
RTVSPost2010Prop34
280
     0
102
RTVSPost2010PropOp34
 70
     1
102
RTVSPost2010Prop35
280
     0
102
RTVSPost2010PropOp35
 70
     1
102
RTVSPost2010Prop36
280
     0
102
RTVSPost2010PropOp36
 70
     1
102
RTVSPost2010Prop37
 90
       50
102
RTVSPost2010PropOp37
 70
     1
102
RTVSPost2010Prop38
140
0.0
102
RTVSPost2010PropOp38
 70
     1
102
RTVSPost2010Prop39
140
1.0
102
RTVSPost2010PropOp39
 70
     1
102
RTVSPost2010Prop40
 90
        0
102
RTVSPost2010PropOp40
 70
     1
102
RTVSPost2010Prop41ColorIndex
 90
       18
102
RTVSPost2010Prop41ColorRGB
 90
        0
102
RTVSPost2010PropOp41
 70
     1
102
RTVSPost2010Prop42
 90
       50
102
RTVSPost2010PropOp42
 70
     1
102
RTVSPost2010Prop43
 90
        3
102
RTVSPost2010PropOp43
 70
     1
102
RTVSPost2010Prop44ColorIndex
 90
        5
102
RTVSPost2010Prop44ColorRGB
 90
      255
102
RTVSPost2010PropOp44
 70
     1
102
RTVSPost2010Prop45
280
     0
102
RTVSPost2010PropOp45
 70
     1
102
RTVSPost2010Prop46
 90
       50
102
RTVSPost2010PropOp46
 70
     1
102
RTVSPost2010Prop47
 90
       50
102
RTVSPost2010PropOp47
 70
     1
102
RTVSPost2010Prop48
 90
       50
102
RTVSPost2010PropOp48
 70
     1
102
RTVSPost2010Prop49
280
     0
102
RTVSPost2010PropOp49
 70
     1
102
RTVSPost2010Prop50
 90
       50
102
RTVSPost2010PropOp50
 70
     1
102
RTVSPost2010Prop51ColorIndex
 90
      256
102
RTVSPost2010Prop51ColorRGB
 90
-16777216
102
RTVSPost2010PropOp51
 70
     0
102
RTVSPost2010Prop52
140
1.0
102
RTVSPost2010PropOp52
 70
     0
102
RTVSPost2010Prop53
 90
        2
102
RTVSPost2010PropOp53
 70
     1
102
RTVSPost2010Prop54
  1
strokes_ogs.tif
102
RTVSPost2010PropOp54
 70
     1
102
RTVSPost2010Prop55
280
     0
102
RTVSPost2010PropOp55
 70
     1
102
RTVSPost2010Prop56
140
1.0
102
RTVSPost2010PropOp56
 70
     1
102
RTVSPost2010Prop57
140
1.0
102
RTVSPost2010PropOp57
 70
     1
102
RTVSPropertyOp0
 70
     1
102
RTVSPropertyOp1
 70
     1
102
RTVSPropertyOp2
 70
     1
102
RTVSPropertyOp3
 70
     1
102
RTVSPropertyOp4
 70
     1
102
RTVSPropertyOp5
 70
     1
102
RTVSPropertyOp6
 70
     1
102
RTVSPropertyOp7
 70
     1
102
RTVSPropertyOp8
 70
     1
102
RTVSPropertyOp9
 70
     1
102
RTVSPropertyOp10
 70
     1
102
RTVSPropertyOp11
 70
     1
102
RTVSPropertyOp12
 70
     1
102
RTVSPropertyOp13
 70
     1
102
RTVSPropertyOp14
 70
     1
102
RTVSPropertyOp15
 70
     1
102
RTVSPropertyOp16
 70
     1
102
RTVSPropertyOp17
 70
     1
102
RTVSPropertyOp18
 70
     1
102
RTVSPropertyOp19
 70
     1
102
RTVSPropertyOp20
 70
     1
102
RTVSPropertyOp21
 70
     1
102
RTVSPropertyOp22
 70
     1
102
RTVSPropertyOp23
 70
     1
102
RTVSPropertyOp24
 70
     1
102
RTVSPropertyOp25
 70
     1
102
RTVSPropertyOp26
 70
     1
102
RTVSPropertyOp27
 70
     1
102
RTVSPropertyOp28
 70
     1
102
RTVSPropertyOp29
 70
     1
102
RTVSPropertyOp30
 70
     1
102
RTVSPropertyOp31
 70
     1
102
RTVSPropertyOp32
 70
     1
102
RTVSPropertyOp33
 70
     1
102
RTVSPropertyOp34
 70
     1
102
RTVSPropertyOp35
 70
     1
102
RTVSPropertyOp36
 70
     1
102
RTVSPropertyOp37
 70
     1
102
RTVSPropertyOp38
 70
     1
102
RTVSPropertyOp39
 70
     1
102
RTVSPropertyOp40
 70
     1
102
RTVSPropertyOp41
 70
     1
102
RTVSPropertyOp42
 70
     1
102
RTVSPropertyOp43
 70
     1
102
RTVSPropertyOp44
 70
     1
102
RTVSPropertyOp45
 70
     1
102
RTVSPropertyOp46
 70
     1
102
RTVSPropertyOp47
 70
     1
102
RTVSPropertyOp48
 70
     1
102
RTVSPropertyOp49
 70
     1
102
RTVSPropertyOp50
 70
     1
102
RTVSPropertyOp51
 70
     0
102
RTVSPropertyOp52
 70
     0
102
RTVSPropertyOp53
 70
     1
102
RTVSPropertyOp54
 70
     1
102
RTVSPropertyOp55
 70
     1
102
RTVSPropertyOp56
 70
     1
102
RTVSPropertyOp57
 70
     1
102
RTVSPropertyOp58
 70
     1
102
RTVSPropertyOp59
 70
     1
102
RTVSPropertyOp60
 70
     1
102
RTVSPropertyOp61
 70
     1
102
RTVSPropertyOp62
 70
     1
  0
XRECORD
  5
E8AB9
102
{ACAD_REACTORS
330
E8AB8
102
}
330
E8AB8
100
AcDbXrecord
280
     1
102
RTVSPost2010Prop28
280
     0
102
RTVSPost2010PropOp28
 70
     1
102
RTVSPost2010Prop29
280
     1
102
RTVSPost2010PropOp29
 70
     1
102
RTVSPost2010Prop30
280
     1
102
RTVSPost2010PropOp30
 70
     1
102
RTVSPost2010Prop31
280
     0
102
RTVSPost2010PropOp31
 70
     1
102
RTVSPost2010Prop32
280
     0
102
RTVSPost2010PropOp32
 70
     1
102
RTVSPost2010Prop33
280
     0
102
RTVSPost2010PropOp33
 70
     1
102
RTVSPost2010Prop34
280
     0
102
RTVSPost2010PropOp34
 70
     1
102
RTVSPost2010Prop35
280
     0
102
RTVSPost2010PropOp35
 70
     1
102
RTVSPost2010Prop36
280
     0
102
RTVSPost2010PropOp36
 70
     1
102
RTVSPost2010Prop37
 90
       50
102
RTVSPost2010PropOp37
 70
     1
102
RTVSPost2010Prop38
140
0.0
102
RTVSPost2010PropOp38
 70
     1
102
RTVSPost2010Prop39
140
1.0
102
RTVSPost2010PropOp39
 70
     1
102
RTVSPost2010Prop40
 90
        0
102
RTVSPost2010PropOp40
 70
     1
102
RTVSPost2010Prop41ColorIndex
 90
       18
102
RTVSPost2010Prop41ColorRGB
 90
        0
102
RTVSPost2010PropOp41
 70
     1
102
RTVSPost2010Prop42
 90
       50
102
RTVSPost2010PropOp42
 70
     1
102
RTVSPost2010Prop43
 90
        3
102
RTVSPost2010PropOp43
 70
     1
102
RTVSPost2010Prop44ColorIndex
 90
        5
102
RTVSPost2010Prop44ColorRGB
 90
      255
102
RTVSPost2010PropOp44
 70
     1
102
RTVSPost2010Prop45
280
     0
102
RTVSPost2010PropOp45
 70
     1
102
RTVSPost2010Prop46
 90
       50
102
RTVSPost2010PropOp46
 70
     1
102
RTVSPost2010Prop47
 90
       50
102
RTVSPost2010PropOp47
 70
     1
102
RTVSPost2010Prop48
 90
       50
102
RTVSPost2010PropOp48
 70
     1
102
RTVSPost2010Prop49
280
     0
102
RTVSPost2010PropOp49
 70
     1
102
RTVSPost2010Prop50
 90
       50
102
RTVSPost2010PropOp50
 70
     1
102
RTVSPost2010Prop51ColorIndex
 90
      256
102
RTVSPost2010Prop51ColorRGB
 90
-16777216
102
RTVSPost2010PropOp51
 70
     0
102
RTVSPost2010Prop52
140
1.0
102
RTVSPost2010PropOp52
 70
     0
102
RTVSPost2010Prop53
 90
        2
102
RTVSPost2010PropOp53
 70
     1
102
RTVSPost2010Prop54
  1
strokes_ogs.tif
102
RTVSPost2010PropOp54
 70
     1
102
RTVSPost2010Prop55
280
     0
102
RTVSPost2010PropOp55
 70
     1
102
RTVSPost2010Prop56
140
1.0
102
RTVSPost2010PropOp56
 70
     1
102
RTVSPost2010Prop57
140
1.0
102
RTVSPost2010PropOp57
 70
     1
102
RTVSPropertyOp0
 70
     1
102
RTVSPropertyOp1
 70
     1
102
RTVSPropertyOp2
 70
     1
102
RTVSPropertyOp3
 70
     1
102
RTVSPropertyOp4
 70
     1
102
RTVSPropertyOp5
 70
     1
102
RTVSPropertyOp6
 70
     1
102
RTVSPropertyOp7
 70
     1
102
RTVSPropertyOp8
 70
     1
102
RTVSPropertyOp9
 70
     1
102
RTVSPropertyOp10
 70
     1
102
RTVSPropertyOp11
 70
     1
102
RTVSPropertyOp12
 70
     1
102
RTVSPropertyOp13
 70
     1
102
RTVSPropertyOp14
 70
     1
102
RTVSPropertyOp15
 70
     1
102
RTVSPropertyOp16
 70
     1
102
RTVSPropertyOp17
 70
     1
102
RTVSPropertyOp18
 70
     1
102
RTVSPropertyOp19
 70
     1
102
RTVSPropertyOp20
 70
     1
102
RTVSPropertyOp21
 70
     1
102
RTVSPropertyOp22
 70
     1
102
RTVSPropertyOp23
 70
     1
102
RTVSPropertyOp24
 70
     1
102
RTVSPropertyOp25
 70
     1
102
RTVSPropertyOp26
 70
     1
102
RTVSPropertyOp27
 70
     1
102
RTVSPropertyOp28
 70
     1
102
RTVSPropertyOp29
 70
     1
102
RTVSPropertyOp30
 70
     1
102
RTVSPropertyOp31
 70
     1
102
RTVSPropertyOp32
 70
     1
102
RTVSPropertyOp33
 70
     1
102
RTVSPropertyOp34
 70
     1
102
RTVSPropertyOp35
 70
     1
102
RTVSPropertyOp36
 70
     1
102
RTVSPropertyOp37
 70
     1
102
RTVSPropertyOp38
 70
     1
102
RTVSPropertyOp39
 70
     1
102
RTVSPropertyOp40
 70
     1
102
RTVSPropertyOp41
 70
     1
102
RTVSPropertyOp42
 70
     1
102
RTVSPropertyOp43
 70
     1
102
RTVSPropertyOp44
 70
     1
102
RTVSPropertyOp45
 70
     1
102
RTVSPropertyOp46
 70
     1
102
RTVSPropertyOp47
 70
     1
102
RTVSPropertyOp48
 70
     1
102
RTVSPropertyOp49
 70
     1
102
RTVSPropertyOp50
 70
     1
102
RTVSPropertyOp51
 70
     0
102
RTVSPropertyOp52
 70
     0
102
RTVSPropertyOp53
 70
     1
102
RTVSPropertyOp54
 70
     1
102
RTVSPropertyOp55
 70
     1
102
RTVSPropertyOp56
 70
     1
102
RTVSPropertyOp57
 70
     1
102
RTVSPropertyOp58
 70
     1
102
RTVSPropertyOp59
 70
     1
102
RTVSPropertyOp60
 70
     1
102
RTVSPropertyOp61
 70
     1
102
RTVSPropertyOp62
 70
     1
  0
XRECORD
  5
E8ADC
102
{ACAD_REACTORS
330
E8ADB
102
}
330
E8ADB
100
AcDbXrecord
280
     1
102
RTVSPost2010Prop28
280
     0
102
RTVSPost2010PropOp28
 70
     1
102
RTVSPost2010Prop29
280
     1
102
RTVSPost2010PropOp29
 70
     1
102
RTVSPost2010Prop30
280
     1
102
RTVSPost2010PropOp30
 70
     1
102
RTVSPost2010Prop31
280
     0
102
RTVSPost2010PropOp31
 70
     1
102
RTVSPost2010Prop32
280
     0
102
RTVSPost2010PropOp32
 70
     1
102
RTVSPost2010Prop33
280
     0
102
RTVSPost2010PropOp33
 70
     1
102
RTVSPost2010Prop34
280
     0
102
RTVSPost2010PropOp34
 70
     1
102
RTVSPost2010Prop35
280
     0
102
RTVSPost2010PropOp35
 70
     1
102
RTVSPost2010Prop36
280
     0
102
RTVSPost2010PropOp36
 70
     1
102
RTVSPost2010Prop37
 90
       50
102
RTVSPost2010PropOp37
 70
     1
102
RTVSPost2010Prop38
140
0.0
102
RTVSPost2010PropOp38
 70
     1
102
RTVSPost2010Prop39
140
1.0
102
RTVSPost2010PropOp39
 70
     1
102
RTVSPost2010Prop40
 90
        0
102
RTVSPost2010PropOp40
 70
     1
102
RTVSPost2010Prop41ColorIndex
 90
       18
102
RTVSPost2010Prop41ColorRGB
 90
        0
102
RTVSPost2010PropOp41
 70
     1
102
RTVSPost2010Prop42
 90
       50
102
RTVSPost2010PropOp42
 70
     1
102
RTVSPost2010Prop43
 90
        3
102
RTVSPost2010PropOp43
 70
     1
102
RTVSPost2010Prop44ColorIndex
 90
        5
102
RTVSPost2010Prop44ColorRGB
 90
      255
102
RTVSPost2010PropOp44
 70
     1
102
RTVSPost2010Prop45
280
     0
102
RTVSPost2010PropOp45
 70
     1
102
RTVSPost2010Prop46
 90
       50
102
RTVSPost2010PropOp46
 70
     1
102
RTVSPost2010Prop47
 90
       50
102
RTVSPost2010PropOp47
 70
     1
102
RTVSPost2010Prop48
 90
       50
102
RTVSPost2010PropOp48
 70
     1
102
RTVSPost2010Prop49
280
     0
102
RTVSPost2010PropOp49
 70
     1
102
RTVSPost2010Prop50
 90
       50
102
RTVSPost2010PropOp50
 70
     1
102
RTVSPost2010Prop51ColorIndex
 90
      256
102
RTVSPost2010Prop51ColorRGB
 90
-16777216
102
RTVSPost2010PropOp51
 70
     0
102
RTVSPost2010Prop52
140
1.0
102
RTVSPost2010PropOp52
 70
     0
102
RTVSPost2010Prop53
 90
        2
102
RTVSPost2010PropOp53
 70
     1
102
RTVSPost2010Prop54
  1
strokes_ogs.tif
102
RTVSPost2010PropOp54
 70
     1
102
RTVSPost2010Prop55
280
     0
102
RTVSPost2010PropOp55
 70
     1
102
RTVSPost2010Prop56
140
1.0
102
RTVSPost2010PropOp56
 70
     1
102
RTVSPost2010Prop57
140
1.0
102
RTVSPost2010PropOp57
 70
     1
102
RTVSPropertyOp0
 70
     1
102
RTVSPropertyOp1
 70
     1
102
RTVSPropertyOp2
 70
     1
102
RTVSPropertyOp3
 70
     1
102
RTVSPropertyOp4
 70
     1
102
RTVSPropertyOp5
 70
     1
102
RTVSPropertyOp6
 70
     1
102
RTVSPropertyOp7
 70
     1
102
RTVSPropertyOp8
 70
     1
102
RTVSPropertyOp9
 70
     1
102
RTVSPropertyOp10
 70
     1
102
RTVSPropertyOp11
 70
     1
102
RTVSPropertyOp12
 70
     1
102
RTVSPropertyOp13
 70
     1
102
RTVSPropertyOp14
 70
     1
102
RTVSPropertyOp15
 70
     1
102
RTVSPropertyOp16
 70
     1
102
RTVSPropertyOp17
 70
     1
102
RTVSPropertyOp18
 70
     1
102
RTVSPropertyOp19
 70
     1
102
RTVSPropertyOp20
 70
     1
102
RTVSPropertyOp21
 70
     1
102
RTVSPropertyOp22
 70
     1
102
RTVSPropertyOp23
 70
     1
102
RTVSPropertyOp24
 70
     1
102
RTVSPropertyOp25
 70
     1
102
RTVSPropertyOp26
 70
     1
102
RTVSPropertyOp27
 70
     1
102
RTVSPropertyOp28
 70
     1
102
RTVSPropertyOp29
 70
     1
102
RTVSPropertyOp30
 70
     1
102
RTVSPropertyOp31
 70
     1
102
RTVSPropertyOp32
 70
     1
102
RTVSPropertyOp33
 70
     1
102
RTVSPropertyOp34
 70
     1
102
RTVSPropertyOp35
 70
     1
102
RTVSPropertyOp36
 70
     1
102
RTVSPropertyOp37
 70
     1
102
RTVSPropertyOp38
 70
     1
102
RTVSPropertyOp39
 70
     1
102
RTVSPropertyOp40
 70
     1
102
RTVSPropertyOp41
 70
     1
102
RTVSPropertyOp42
 70
     1
102
RTVSPropertyOp43
 70
     1
102
RTVSPropertyOp44
 70
     1
102
RTVSPropertyOp45
 70
     1
102
RTVSPropertyOp46
 70
     1
102
RTVSPropertyOp47
 70
     1
102
RTVSPropertyOp48
 70
     1
102
RTVSPropertyOp49
 70
     1
102
RTVSPropertyOp50
 70
     1
102
RTVSPropertyOp51
 70
     0
102
RTVSPropertyOp52
 70
     0
102
RTVSPropertyOp53
 70
     1
102
RTVSPropertyOp54
 70
     1
102
RTVSPropertyOp55
 70
     1
102
RTVSPropertyOp56
 70
     1
102
RTVSPropertyOp57
 70
     1
102
RTVSPropertyOp58
 70
     1
102
RTVSPropertyOp59
 70
     1
102
RTVSPropertyOp60
 70
     1
102
RTVSPropertyOp61
 70
     1
102
RTVSPropertyOp62
 70
     1
  0
XRECORD
  5
E8AD3
102
{ACAD_REACTORS
330
E8AD2
102
}
330
E8AD2
100
AcDbXrecord
280
     1
102
RTVSPost2010Prop28
280
     0
102
RTVSPost2010PropOp28
 70
     1
102
RTVSPost2010Prop29
280
     1
102
RTVSPost2010PropOp29
 70
     1
102
RTVSPost2010Prop30
280
     1
102
RTVSPost2010PropOp30
 70
     1
102
RTVSPost2010Prop31
280
     0
102
RTVSPost2010PropOp31
 70
     1
102
RTVSPost2010Prop32
280
     0
102
RTVSPost2010PropOp32
 70
     1
102
RTVSPost2010Prop33
280
     0
102
RTVSPost2010PropOp33
 70
     1
102
RTVSPost2010Prop34
280
     0
102
RTVSPost2010PropOp34
 70
     1
102
RTVSPost2010Prop35
280
     0
102
RTVSPost2010PropOp35
 70
     1
102
RTVSPost2010Prop36
280
     0
102
RTVSPost2010PropOp36
 70
     1
102
RTVSPost2010Prop37
 90
       50
102
RTVSPost2010PropOp37
 70
     1
102
RTVSPost2010Prop38
140
0.0
102
RTVSPost2010PropOp38
 70
     1
102
RTVSPost2010Prop39
140
1.0
102
RTVSPost2010PropOp39
 70
     1
102
RTVSPost2010Prop40
 90
        0
102
RTVSPost2010PropOp40
 70
     1
102
RTVSPost2010Prop41ColorIndex
 90
       18
102
RTVSPost2010Prop41ColorRGB
 90
        0
102
RTVSPost2010PropOp41
 70
     1
102
RTVSPost2010Prop42
 90
       50
102
RTVSPost2010PropOp42
 70
     1
102
RTVSPost2010Prop43
 90
        3
102
RTVSPost2010PropOp43
 70
     1
102
RTVSPost2010Prop44ColorIndex
 90
        5
102
RTVSPost2010Prop44ColorRGB
 90
      255
102
RTVSPost2010PropOp44
 70
     1
102
RTVSPost2010Prop45
280
     0
102
RTVSPost2010PropOp45
 70
     1
102
RTVSPost2010Prop46
 90
       50
102
RTVSPost2010PropOp46
 70
     1
102
RTVSPost2010Prop47
 90
       50
102
RTVSPost2010PropOp47
 70
     1
102
RTVSPost2010Prop48
 90
       50
102
RTVSPost2010PropOp48
 70
     1
102
RTVSPost2010Prop49
280
     0
102
RTVSPost2010PropOp49
 70
     1
102
RTVSPost2010Prop50
 90
       50
102
RTVSPost2010PropOp50
 70
     1
102
RTVSPost2010Prop51ColorIndex
 90
      256
102
RTVSPost2010Prop51ColorRGB
 90
-16777216
102
RTVSPost2010PropOp51
 70
     0
102
RTVSPost2010Prop52
140
1.0
102
RTVSPost2010PropOp52
 70
     0
102
RTVSPost2010Prop53
 90
        2
102
RTVSPost2010PropOp53
 70
     1
102
RTVSPost2010Prop54
  1
strokes_ogs.tif
102
RTVSPost2010PropOp54
 70
     1
102
RTVSPost2010Prop55
280
     0
102
RTVSPost2010PropOp55
 70
     1
102
RTVSPost2010Prop56
140
1.0
102
RTVSPost2010PropOp56
 70
     1
102
RTVSPost2010Prop57
140
1.0
102
RTVSPost2010PropOp57
 70
     1
102
RTVSPropertyOp0
 70
     0
102
RTVSPropertyOp1
 70
     0
102
RTVSPropertyOp2
 70
     0
102
RTVSPropertyOp3
 70
     0
102
RTVSPropertyOp4
 70
     0
102
RTVSPropertyOp5
 70
     0
102
RTVSPropertyOp6
 70
     0
102
RTVSPropertyOp7
 70
     0
102
RTVSPropertyOp8
 70
     0
102
RTVSPropertyOp9
 70
     0
102
RTVSPropertyOp10
 70
     0
102
RTVSPropertyOp11
 70
     0
102
RTVSPropertyOp12
 70
     0
102
RTVSPropertyOp13
 70
     0
102
RTVSPropertyOp14
 70
     2
102
RTVSPropertyOp15
 70
     0
102
RTVSPropertyOp16
 70
     0
102
RTVSPropertyOp17
 70
     0
102
RTVSPropertyOp18
 70
     0
102
RTVSPropertyOp19
 70
     0
102
RTVSPropertyOp20
 70
     0
102
RTVSPropertyOp21
 70
     0
102
RTVSPropertyOp22
 70
     0
102
RTVSPropertyOp23
 70
     0
102
RTVSPropertyOp24
 70
     0
102
RTVSPropertyOp25
 70
     0
102
RTVSPropertyOp26
 70
     0
102
RTVSPropertyOp27
 70
     0
102
RTVSPropertyOp28
 70
     1
102
RTVSPropertyOp29
 70
     1
102
RTVSPropertyOp30
 70
     1
102
RTVSPropertyOp31
 70
     1
102
RTVSPropertyOp32
 70
     1
102
RTVSPropertyOp33
 70
     1
102
RTVSPropertyOp34
 70
     1
102
RTVSPropertyOp35
 70
     1
102
RTVSPropertyOp36
 70
     1
102
RTVSPropertyOp37
 70
     1
102
RTVSPropertyOp38
 70
     1
102
RTVSPropertyOp39
 70
     1
102
RTVSPropertyOp40
 70
     1
102
RTVSPropertyOp41
 70
     1
102
RTVSPropertyOp42
 70
     1
102
RTVSPropertyOp43
 70
     1
102
RTVSPropertyOp44
 70
     1
102
RTVSPropertyOp45
 70
     1
102
RTVSPropertyOp46
 70
     1
102
RTVSPropertyOp47
 70
     1
102
RTVSPropertyOp48
 70
     1
102
RTVSPropertyOp49
 70
     1
102
RTVSPropertyOp50
 70
     1
102
RTVSPropertyOp51
 70
     0
102
RTVSPropertyOp52
 70
     0
102
RTVSPropertyOp53
 70
     1
102
RTVSPropertyOp54
 70
     1
102
RTVSPropertyOp55
 70
     1
102
RTVSPropertyOp56
 70
     1
102
RTVSPropertyOp57
 70
     1
102
RTVSPropertyOp58
 70
     1
102
RTVSPropertyOp59
 70
     1
102
RTVSPropertyOp60
 70
     1
102
RTVSPropertyOp61
 70
     1
102
RTVSPropertyOp62
 70
     1
  0
XRECORD
  5
E8ACD
102
{ACAD_REACTORS
330
E8ACC
102
}
330
E8ACC
100
AcDbXrecord
280
     1
102
RTVSPost2010Prop28
280
     0
102
RTVSPost2010PropOp28
 70
     1
102
RTVSPost2010Prop29
280
     1
102
RTVSPost2010PropOp29
 70
     1
102
RTVSPost2010Prop30
280
     1
102
RTVSPost2010PropOp30
 70
     1
102
RTVSPost2010Prop31
280
     0
102
RTVSPost2010PropOp31
 70
     1
102
RTVSPost2010Prop32
280
     0
102
RTVSPost2010PropOp32
 70
     1
102
RTVSPost2010Prop33
280
     0
102
RTVSPost2010PropOp33
 70
     1
102
RTVSPost2010Prop34
280
     0
102
RTVSPost2010PropOp34
 70
     1
102
RTVSPost2010Prop35
280
     0
102
RTVSPost2010PropOp35
 70
     1
102
RTVSPost2010Prop36
280
     0
102
RTVSPost2010PropOp36
 70
     1
102
RTVSPost2010Prop37
 90
       50
102
RTVSPost2010PropOp37
 70
     1
102
RTVSPost2010Prop38
140
0.0
102
RTVSPost2010PropOp38
 70
     1
102
RTVSPost2010Prop39
140
1.0
102
RTVSPost2010PropOp39
 70
     1
102
RTVSPost2010Prop40
 90
        0
102
RTVSPost2010PropOp40
 70
     1
102
RTVSPost2010Prop41ColorIndex
 90
       18
102
RTVSPost2010Prop41ColorRGB
 90
        0
102
RTVSPost2010PropOp41
 70
     1
102
RTVSPost2010Prop42
 90
       50
102
RTVSPost2010PropOp42
 70
     1
102
RTVSPost2010Prop43
 90
        3
102
RTVSPost2010PropOp43
 70
     1
102
RTVSPost2010Prop44ColorIndex
 90
        5
102
RTVSPost2010Prop44ColorRGB
 90
      255
102
RTVSPost2010PropOp44
 70
     1
102
RTVSPost2010Prop45
280
     0
102
RTVSPost2010PropOp45
 70
     1
102
RTVSPost2010Prop46
 90
       50
102
RTVSPost2010PropOp46
 70
     1
102
RTVSPost2010Prop47
 90
       50
102
RTVSPost2010PropOp47
 70
     1
102
RTVSPost2010Prop48
 90
       50
102
RTVSPost2010PropOp48
 70
     1
102
RTVSPost2010Prop49
280
     0
102
RTVSPost2010PropOp49
 70
     1
102
RTVSPost2010Prop50
 90
       50
102
RTVSPost2010PropOp50
 70
     1
102
RTVSPost2010Prop51ColorIndex
 90
      256
102
RTVSPost2010Prop51ColorRGB
 90
-16777216
102
RTVSPost2010PropOp51
 70
     0
102
RTVSPost2010Prop52
140
1.0
102
RTVSPost2010PropOp52
 70
     0
102
RTVSPost2010Prop53
 90
        2
102
RTVSPost2010PropOp53
 70
     1
102
RTVSPost2010Prop54
  1
strokes_ogs.tif
102
RTVSPost2010PropOp54
 70
     1
102
RTVSPost2010Prop55
280
     0
102
RTVSPost2010PropOp55
 70
     1
102
RTVSPost2010Prop56
140
1.0
102
RTVSPost2010PropOp56
 70
     1
102
RTVSPost2010Prop57
140
1.0
102
RTVSPost2010PropOp57
 70
     1
102
RTVSPropertyOp0
 70
     1
102
RTVSPropertyOp1
 70
     1
102
RTVSPropertyOp2
 70
     1
102
RTVSPropertyOp3
 70
     1
102
RTVSPropertyOp4
 70
     1
102
RTVSPropertyOp5
 70
     1
102
RTVSPropertyOp6
 70
     1
102
RTVSPropertyOp7
 70
     1
102
RTVSPropertyOp8
 70
     1
102
RTVSPropertyOp9
 70
     1
102
RTVSPropertyOp10
 70
     1
102
RTVSPropertyOp11
 70
     1
102
RTVSPropertyOp12
 70
     1
102
RTVSPropertyOp13
 70
     1
102
RTVSPropertyOp14
 70
     1
102
RTVSPropertyOp15
 70
     1
102
RTVSPropertyOp16
 70
     1
102
RTVSPropertyOp17
 70
     1
102
RTVSPropertyOp18
 70
     1
102
RTVSPropertyOp19
 70
     1
102
RTVSPropertyOp20
 70
     1
102
RTVSPropertyOp21
 70
     1
102
RTVSPropertyOp22
 70
     1
102
RTVSPropertyOp23
 70
     1
102
RTVSPropertyOp24
 70
     1
102
RTVSPropertyOp25
 70
     1
102
RTVSPropertyOp26
 70
     1
102
RTVSPropertyOp27
 70
     1
102
RTVSPropertyOp28
 70
     1
102
RTVSPropertyOp29
 70
     1
102
RTVSPropertyOp30
 70
     1
102
RTVSPropertyOp31
 70
     1
102
RTVSPropertyOp32
 70
     1
102
RTVSPropertyOp33
 70
     1
102
RTVSPropertyOp34
 70
     1
102
RTVSPropertyOp35
 70
     1
102
RTVSPropertyOp36
 70
     1
102
RTVSPropertyOp37
 70
     1
102
RTVSPropertyOp38
 70
     1
102
RTVSPropertyOp39
 70
     1
102
RTVSPropertyOp40
 70
     1
102
RTVSPropertyOp41
 70
     1
102
RTVSPropertyOp42
 70
     1
102
RTVSPropertyOp43
 70
     1
102
RTVSPropertyOp44
 70
     1
102
RTVSPropertyOp45
 70
     1
102
RTVSPropertyOp46
 70
     1
102
RTVSPropertyOp47
 70
     1
102
RTVSPropertyOp48
 70
     1
102
RTVSPropertyOp49
 70
     1
102
RTVSPropertyOp50
 70
     1
102
RTVSPropertyOp51
 70
     0
102
RTVSPropertyOp52
 70
     0
102
RTVSPropertyOp53
 70
     1
102
RTVSPropertyOp54
 70
     1
102
RTVSPropertyOp55
 70
     1
102
RTVSPropertyOp56
 70
     1
102
RTVSPropertyOp57
 70
     1
102
RTVSPropertyOp58
 70
     1
102
RTVSPropertyOp59
 70
     1
102
RTVSPropertyOp60
 70
     1
102
RTVSPropertyOp61
 70
     1
102
RTVSPropertyOp62
 70
     1
  0
XRECORD
  5
E8AD5
102
{ACAD_REACTORS
330
E8AD4
102
}
330
E8AD4
100
AcDbXrecord
280
     1
102
RTVSPost2010Prop28
280
     0
102
RTVSPost2010PropOp28
 70
     1
102
RTVSPost2010Prop29
280
     1
102
RTVSPost2010PropOp29
 70
     1
102
RTVSPost2010Prop30
280
     1
102
RTVSPost2010PropOp30
 70
     1
102
RTVSPost2010Prop31
280
     0
102
RTVSPost2010PropOp31
 70
     1
102
RTVSPost2010Prop32
280
     0
102
RTVSPost2010PropOp32
 70
     1
102
RTVSPost2010Prop33
280
     0
102
RTVSPost2010PropOp33
 70
     1
102
RTVSPost2010Prop34
280
     0
102
RTVSPost2010PropOp34
 70
     1
102
RTVSPost2010Prop35
280
     0
102
RTVSPost2010PropOp35
 70
     1
102
RTVSPost2010Prop36
280
     0
102
RTVSPost2010PropOp36
 70
     1
102
RTVSPost2010Prop37
 90
       50
102
RTVSPost2010PropOp37
 70
     1
102
RTVSPost2010Prop38
140
0.0
102
RTVSPost2010PropOp38
 70
     1
102
RTVSPost2010Prop39
140
1.0
102
RTVSPost2010PropOp39
 70
     1
102
RTVSPost2010Prop40
 90
        0
102
RTVSPost2010PropOp40
 70
     1
102
RTVSPost2010Prop41ColorIndex
 90
       18
102
RTVSPost2010Prop41ColorRGB
 90
        0
102
RTVSPost2010PropOp41
 70
     1
102
RTVSPost2010Prop42
 90
       50
102
RTVSPost2010PropOp42
 70
     1
102
RTVSPost2010Prop43
 90
        3
102
RTVSPost2010PropOp43
 70
     1
102
RTVSPost2010Prop44ColorIndex
 90
        5
102
RTVSPost2010Prop44ColorRGB
 90
      255
102
RTVSPost2010PropOp44
 70
     1
102
RTVSPost2010Prop45
280
     0
102
RTVSPost2010PropOp45
 70
     1
102
RTVSPost2010Prop46
 90
       50
102
RTVSPost2010PropOp46
 70
     1
102
RTVSPost2010Prop47
 90
       50
102
RTVSPost2010PropOp47
 70
     1
102
RTVSPost2010Prop48
 90
       50
102
RTVSPost2010PropOp48
 70
     1
102
RTVSPost2010Prop49
280
     0
102
RTVSPost2010PropOp49
 70
     1
102
RTVSPost2010Prop50
 90
       50
102
RTVSPost2010PropOp50
 70
     1
102
RTVSPost2010Prop51ColorIndex
 90
      256
102
RTVSPost2010Prop51ColorRGB
 90
-16777216
102
RTVSPost2010PropOp51
 70
     0
102
RTVSPost2010Prop52
140
1.0
102
RTVSPost2010PropOp52
 70
     0
102
RTVSPost2010Prop53
 90
        2
102
RTVSPost2010PropOp53
 70
     1
102
RTVSPost2010Prop54
  1
strokes_ogs.tif
102
RTVSPost2010PropOp54
 70
     1
102
RTVSPost2010Prop55
280
     0
102
RTVSPost2010PropOp55
 70
     1
102
RTVSPost2010Prop56
140
1.0
102
RTVSPost2010PropOp56
 70
     1
102
RTVSPost2010Prop57
140
1.0
102
RTVSPost2010PropOp57
 70
     1
102
RTVSPropertyOp0
 70
     0
102
RTVSPropertyOp1
 70
     0
102
RTVSPropertyOp2
 70
     0
102
RTVSPropertyOp3
 70
     0
102
RTVSPropertyOp4
 70
     0
102
RTVSPropertyOp5
 70
     0
102
RTVSPropertyOp6
 70
     0
102
RTVSPropertyOp7
 70
     0
102
RTVSPropertyOp8
 70
     0
102
RTVSPropertyOp9
 70
     0
102
RTVSPropertyOp10
 70
     0
102
RTVSPropertyOp11
 70
     0
102
RTVSPropertyOp12
 70
     0
102
RTVSPropertyOp13
 70
     0
102
RTVSPropertyOp14
 70
     2
102
RTVSPropertyOp15
 70
     0
102
RTVSPropertyOp16
 70
     0
102
RTVSPropertyOp17
 70
     0
102
RTVSPropertyOp18
 70
     0
102
RTVSPropertyOp19
 70
     0
102
RTVSPropertyOp20
 70
     0
102
RTVSPropertyOp21
 70
     0
102
RTVSPropertyOp22
 70
     0
102
RTVSPropertyOp23
 70
     0
102
RTVSPropertyOp24
 70
     0
102
RTVSPropertyOp25
 70
     0
102
RTVSPropertyOp26
 70
     0
102
RTVSPropertyOp27
 70
     0
102
RTVSPropertyOp28
 70
     1
102
RTVSPropertyOp29
 70
     1
102
RTVSPropertyOp30
 70
     1
102
RTVSPropertyOp31
 70
     1
102
RTVSPropertyOp32
 70
     1
102
RTVSPropertyOp33
 70
     1
102
RTVSPropertyOp34
 70
     1
102
RTVSPropertyOp35
 70
     1
102
RTVSPropertyOp36
 70
     1
102
RTVSPropertyOp37
 70
     1
102
RTVSPropertyOp38
 70
     1
102
RTVSPropertyOp39
 70
     1
102
RTVSPropertyOp40
 70
     1
102
RTVSPropertyOp41
 70
     1
102
RTVSPropertyOp42
 70
     1
102
RTVSPropertyOp43
 70
     1
102
RTVSPropertyOp44
 70
     1
102
RTVSPropertyOp45
 70
     1
102
RTVSPropertyOp46
 70
     1
102
RTVSPropertyOp47
 70
     1
102
RTVSPropertyOp48
 70
     1
102
RTVSPropertyOp49
 70
     1
102
RTVSPropertyOp50
 70
     1
102
RTVSPropertyOp51
 70
     0
102
RTVSPropertyOp52
 70
     0
102
RTVSPropertyOp53
 70
     1
102
RTVSPropertyOp54
 70
     1
102
RTVSPropertyOp55
 70
     1
102
RTVSPropertyOp56
 70
     1
102
RTVSPropertyOp57
 70
     1
102
RTVSPropertyOp58
 70
     1
102
RTVSPropertyOp59
 70
     1
102
RTVSPropertyOp60
 70
     1
102
RTVSPropertyOp61
 70
     1
102
RTVSPropertyOp62
 70
     1
  0
XRECORD
  5
E8AC5
102
{ACAD_REACTORS
330
E8AC4
102
}
330
E8AC4
100
AcDbXrecord
280
     1
102
RTVSPost2010Prop28
280
     0
102
RTVSPost2010PropOp28
 70
     1
102
RTVSPost2010Prop29
280
     1
102
RTVSPost2010PropOp29
 70
     1
102
RTVSPost2010Prop30
280
     1
102
RTVSPost2010PropOp30
 70
     1
102
RTVSPost2010Prop31
280
     0
102
RTVSPost2010PropOp31
 70
     1
102
RTVSPost2010Prop32
280
     0
102
RTVSPost2010PropOp32
 70
     1
102
RTVSPost2010Prop33
280
     0
102
RTVSPost2010PropOp33
 70
     1
102
RTVSPost2010Prop34
280
     0
102
RTVSPost2010PropOp34
 70
     1
102
RTVSPost2010Prop35
280
     0
102
RTVSPost2010PropOp35
 70
     1
102
RTVSPost2010Prop36
280
     0
102
RTVSPost2010PropOp36
 70
     1
102
RTVSPost2010Prop37
 90
       50
102
RTVSPost2010PropOp37
 70
     1
102
RTVSPost2010Prop38
140
0.0
102
RTVSPost2010PropOp38
 70
     1
102
RTVSPost2010Prop39
140
1.0
102
RTVSPost2010PropOp39
 70
     1
102
RTVSPost2010Prop40
 90
        0
102
RTVSPost2010PropOp40
 70
     1
102
RTVSPost2010Prop41ColorIndex
 90
       18
102
RTVSPost2010Prop41ColorRGB
 90
        0
102
RTVSPost2010PropOp41
 70
     1
102
RTVSPost2010Prop42
 90
       50
102
RTVSPost2010PropOp42
 70
     1
102
RTVSPost2010Prop43
 90
        3
102
RTVSPost2010PropOp43
 70
     1
102
RTVSPost2010Prop44ColorIndex
 90
        5
102
RTVSPost2010Prop44ColorRGB
 90
      255
102
RTVSPost2010PropOp44
 70
     1
102
RTVSPost2010Prop45
280
     0
102
RTVSPost2010PropOp45
 70
     1
102
RTVSPost2010Prop46
 90
       50
102
RTVSPost2010PropOp46
 70
     1
102
RTVSPost2010Prop47
 90
       50
102
RTVSPost2010PropOp47
 70
     1
102
RTVSPost2010Prop48
 90
       50
102
RTVSPost2010PropOp48
 70
     1
102
RTVSPost2010Prop49
280
     0
102
RTVSPost2010PropOp49
 70
     1
102
RTVSPost2010Prop50
 90
       50
102
RTVSPost2010PropOp50
 70
     1
102
RTVSPost2010Prop51ColorIndex
 90
      256
102
RTVSPost2010Prop51ColorRGB
 90
-16777216
102
RTVSPost2010PropOp51
 70
     0
102
RTVSPost2010Prop52
140
1.0
102
RTVSPost2010PropOp52
 70
     0
102
RTVSPost2010Prop53
 90
        2
102
RTVSPost2010PropOp53
 70
     1
102
RTVSPost2010Prop54
  1
strokes_ogs.tif
102
RTVSPost2010PropOp54
 70
     1
102
RTVSPost2010Prop55
280
     0
102
RTVSPost2010PropOp55
 70
     1
102
RTVSPost2010Prop56
140
1.0
102
RTVSPost2010PropOp56
 70
     1
102
RTVSPost2010Prop57
140
1.0
102
RTVSPost2010PropOp57
 70
     1
102
RTVSPropertyOp0
 70
     1
102
RTVSPropertyOp1
 70
     1
102
RTVSPropertyOp2
 70
     1
102
RTVSPropertyOp3
 70
     1
102
RTVSPropertyOp4
 70
     1
102
RTVSPropertyOp5
 70
     1
102
RTVSPropertyOp6
 70
     1
102
RTVSPropertyOp7
 70
     1
102
RTVSPropertyOp8
 70
     1
102
RTVSPropertyOp9
 70
     1
102
RTVSPropertyOp10
 70
     1
102
RTVSPropertyOp11
 70
     1
102
RTVSPropertyOp12
 70
     1
102
RTVSPropertyOp13
 70
     1
102
RTVSPropertyOp14
 70
     1
102
RTVSPropertyOp15
 70
     1
102
RTVSPropertyOp16
 70
     1
102
RTVSPropertyOp17
 70
     1
102
RTVSPropertyOp18
 70
     1
102
RTVSPropertyOp19
 70
     1
102
RTVSPropertyOp20
 70
     1
102
RTVSPropertyOp21
 70
     1
102
RTVSPropertyOp22
 70
     1
102
RTVSPropertyOp23
 70
     1
102
RTVSPropertyOp24
 70
     1
102
RTVSPropertyOp25
 70
     1
102
RTVSPropertyOp26
 70
     1
102
RTVSPropertyOp27
 70
     1
102
RTVSPropertyOp28
 70
     1
102
RTVSPropertyOp29
 70
     1
102
RTVSPropertyOp30
 70
     1
102
RTVSPropertyOp31
 70
     1
102
RTVSPropertyOp32
 70
     1
102
RTVSPropertyOp33
 70
     1
102
RTVSPropertyOp34
 70
     1
102
RTVSPropertyOp35
 70
     1
102
RTVSPropertyOp36
 70
     1
102
RTVSPropertyOp37
 70
     1
102
RTVSPropertyOp38
 70
     1
102
RTVSPropertyOp39
 70
     1
102
RTVSPropertyOp40
 70
     1
102
RTVSPropertyOp41
 70
     1
102
RTVSPropertyOp42
 70
     1
102
RTVSPropertyOp43
 70
     1
102
RTVSPropertyOp44
 70
     1
102
RTVSPropertyOp45
 70
     1
102
RTVSPropertyOp46
 70
     1
102
RTVSPropertyOp47
 70
     1
102
RTVSPropertyOp48
 70
     1
102
RTVSPropertyOp49
 70
     1
102
RTVSPropertyOp50
 70
     1
102
RTVSPropertyOp51
 70
     0
102
RTVSPropertyOp52
 70
     0
102
RTVSPropertyOp53
 70
     1
102
RTVSPropertyOp54
 70
     1
102
RTVSPropertyOp55
 70
     1
102
RTVSPropertyOp56
 70
     1
102
RTVSPropertyOp57
 70
     1
102
RTVSPropertyOp58
 70
     1
102
RTVSPropertyOp59
 70
     1
102
RTVSPropertyOp60
 70
     1
102
RTVSPropertyOp61
 70
     1
102
RTVSPropertyOp62
 70
     1
  0
XRECORD
  5
E8AE6
102
{ACAD_REACTORS
330
E8AE5
102
}
330
E8AE5
100
AcDbXrecord
280
     1
102
RTVSPost2010Prop28
280
     0
102
RTVSPost2010PropOp28
 70
     1
102
RTVSPost2010Prop29
280
     1
102
RTVSPost2010PropOp29
 70
     1
102
RTVSPost2010Prop30
280
     1
102
RTVSPost2010PropOp30
 70
     1
102
RTVSPost2010Prop31
280
     0
102
RTVSPost2010PropOp31
 70
     1
102
RTVSPost2010Prop32
280
     0
102
RTVSPost2010PropOp32
 70
     1
102
RTVSPost2010Prop33
280
     0
102
RTVSPost2010PropOp33
 70
     1
102
RTVSPost2010Prop34
280
     0
102
RTVSPost2010PropOp34
 70
     1
102
RTVSPost2010Prop35
280
     0
102
RTVSPost2010PropOp35
 70
     1
102
RTVSPost2010Prop36
280
     0
102
RTVSPost2010PropOp36
 70
     1
102
RTVSPost2010Prop37
 90
       50
102
RTVSPost2010PropOp37
 70
     1
102
RTVSPost2010Prop38
140
0.0
102
RTVSPost2010PropOp38
 70
     1
102
RTVSPost2010Prop39
140
1.0
102
RTVSPost2010PropOp39
 70
     1
102
RTVSPost2010Prop40
 90
        0
102
RTVSPost2010PropOp40
 70
     1
102
RTVSPost2010Prop41ColorIndex
 90
       18
102
RTVSPost2010Prop41ColorRGB
 90
        0
102
RTVSPost2010PropOp41
 70
     1
102
RTVSPost2010Prop42
 90
       50
102
RTVSPost2010PropOp42
 70
     1
102
RTVSPost2010Prop43
 90
        3
102
RTVSPost2010PropOp43
 70
     1
102
RTVSPost2010Prop44ColorIndex
 90
        5
102
RTVSPost2010Prop44ColorRGB
 90
      255
102
RTVSPost2010PropOp44
 70
     1
102
RTVSPost2010Prop45
280
     0
102
RTVSPost2010PropOp45
 70
     1
102
RTVSPost2010Prop46
 90
       50
102
RTVSPost2010PropOp46
 70
     1
102
RTVSPost2010Prop47
 90
       50
102
RTVSPost2010PropOp47
 70
     1
102
RTVSPost2010Prop48
 90
       50
102
RTVSPost2010PropOp48
 70
     1
102
RTVSPost2010Prop49
280
     0
102
RTVSPost2010PropOp49
 70
     1
102
RTVSPost2010Prop50
 90
       50
102
RTVSPost2010PropOp50
 70
     1
102
RTVSPost2010Prop51ColorIndex
 90
      256
102
RTVSPost2010Prop51ColorRGB
 90
-16777216
102
RTVSPost2010PropOp51
 70
     0
102
RTVSPost2010Prop52
140
1.0
102
RTVSPost2010PropOp52
 70
     0
102
RTVSPost2010Prop53
 90
        2
102
RTVSPost2010PropOp53
 70
     1
102
RTVSPost2010Prop54
  1
strokes_ogs.tif
102
RTVSPost2010PropOp54
 70
     1
102
RTVSPost2010Prop55
280
     0
102
RTVSPost2010PropOp55
 70
     1
102
RTVSPost2010Prop56
140
1.0
102
RTVSPost2010PropOp56
 70
     1
102
RTVSPost2010Prop57
140
1.0
102
RTVSPost2010PropOp57
 70
     1
102
RTVSPropertyOp0
 70
     1
102
RTVSPropertyOp1
 70
     1
102
RTVSPropertyOp2
 70
     1
102
RTVSPropertyOp3
 70
     1
102
RTVSPropertyOp4
 70
     1
102
RTVSPropertyOp5
 70
     1
102
RTVSPropertyOp6
 70
     1
102
RTVSPropertyOp7
 70
     1
102
RTVSPropertyOp8
 70
     1
102
RTVSPropertyOp9
 70
     1
102
RTVSPropertyOp10
 70
     1
102
RTVSPropertyOp11
 70
     1
102
RTVSPropertyOp12
 70
     1
102
RTVSPropertyOp13
 70
     1
102
RTVSPropertyOp14
 70
     1
102
RTVSPropertyOp15
 70
     1
102
RTVSPropertyOp16
 70
     1
102
RTVSPropertyOp17
 70
     1
102
RTVSPropertyOp18
 70
     1
102
RTVSPropertyOp19
 70
     1
102
RTVSPropertyOp20
 70
     1
102
RTVSPropertyOp21
 70
     1
102
RTVSPropertyOp22
 70
     1
102
RTVSPropertyOp23
 70
     1
102
RTVSPropertyOp24
 70
     1
102
RTVSPropertyOp25
 70
     1
102
RTVSPropertyOp26
 70
     1
102
RTVSPropertyOp27
 70
     1
102
RTVSPropertyOp28
 70
     1
102
RTVSPropertyOp29
 70
     1
102
RTVSPropertyOp30
 70
     1
102
RTVSPropertyOp31
 70
     1
102
RTVSPropertyOp32
 70
     1
102
RTVSPropertyOp33
 70
     1
102
RTVSPropertyOp34
 70
     1
102
RTVSPropertyOp35
 70
     1
102
RTVSPropertyOp36
 70
     1
102
RTVSPropertyOp37
 70
     1
102
RTVSPropertyOp38
 70
     1
102
RTVSPropertyOp39
 70
     1
102
RTVSPropertyOp40
 70
     1
102
RTVSPropertyOp41
 70
     1
102
RTVSPropertyOp42
 70
     1
102
RTVSPropertyOp43
 70
     1
102
RTVSPropertyOp44
 70
     1
102
RTVSPropertyOp45
 70
     1
102
RTVSPropertyOp46
 70
     1
102
RTVSPropertyOp47
 70
     1
102
RTVSPropertyOp48
 70
     1
102
RTVSPropertyOp49
 70
     1
102
RTVSPropertyOp50
 70
     1
102
RTVSPropertyOp51
 70
     0
102
RTVSPropertyOp52
 70
     0
102
RTVSPropertyOp53
 70
     1
102
RTVSPropertyOp54
 70
     1
102
RTVSPropertyOp55
 70
     1
102
RTVSPropertyOp56
 70
     1
102
RTVSPropertyOp57
 70
     1
102
RTVSPropertyOp58
 70
     1
102
RTVSPropertyOp59
 70
     1
102
RTVSPropertyOp60
 70
     1
102
RTVSPropertyOp61
 70
     1
102
RTVSPropertyOp62
 70
     1
  0
XRECORD
  5
E8AE4
102
{ACAD_REACTORS
330
E8AE3
102
}
330
E8AE3
100
AcDbXrecord
280
     1
102
RTVSPost2010Prop28
280
     0
102
RTVSPost2010PropOp28
 70
     1
102
RTVSPost2010Prop29
280
     1
102
RTVSPost2010PropOp29
 70
     1
102
RTVSPost2010Prop30
280
     1
102
RTVSPost2010PropOp30
 70
     1
102
RTVSPost2010Prop31
280
     0
102
RTVSPost2010PropOp31
 70
     1
102
RTVSPost2010Prop32
280
     0
102
RTVSPost2010PropOp32
 70
     1
102
RTVSPost2010Prop33
280
     0
102
RTVSPost2010PropOp33
 70
     1
102
RTVSPost2010Prop34
280
     0
102
RTVSPost2010PropOp34
 70
     1
102
RTVSPost2010Prop35
280
     0
102
RTVSPost2010PropOp35
 70
     1
102
RTVSPost2010Prop36
280
     0
102
RTVSPost2010PropOp36
 70
     1
102
RTVSPost2010Prop37
 90
       50
102
RTVSPost2010PropOp37
 70
     1
102
RTVSPost2010Prop38
140
0.0
102
RTVSPost2010PropOp38
 70
     1
102
RTVSPost2010Prop39
140
1.0
102
RTVSPost2010PropOp39
 70
     1
102
RTVSPost2010Prop40
 90
        0
102
RTVSPost2010PropOp40
 70
     1
102
RTVSPost2010Prop41ColorIndex
 90
       18
102
RTVSPost2010Prop41ColorRGB
 90
        0
102
RTVSPost2010PropOp41
 70
     1
102
RTVSPost2010Prop42
 90
       50
102
RTVSPost2010PropOp42
 70
     1
102
RTVSPost2010Prop43
 90
        3
102
RTVSPost2010PropOp43
 70
     1
102
RTVSPost2010Prop44ColorIndex
 90
        5
102
RTVSPost2010Prop44ColorRGB
 90
      255
102
RTVSPost2010PropOp44
 70
     1
102
RTVSPost2010Prop45
280
     0
102
RTVSPost2010PropOp45
 70
     1
102
RTVSPost2010Prop46
 90
       50
102
RTVSPost2010PropOp46
 70
     1
102
RTVSPost2010Prop47
 90
       50
102
RTVSPost2010PropOp47
 70
     1
102
RTVSPost2010Prop48
 90
       50
102
RTVSPost2010PropOp48
 70
     1
102
RTVSPost2010Prop49
280
     0
102
RTVSPost2010PropOp49
 70
     1
102
RTVSPost2010Prop50
 90
       50
102
RTVSPost2010PropOp50
 70
     1
102
RTVSPost2010Prop51ColorIndex
 90
      256
102
RTVSPost2010Prop51ColorRGB
 90
-16777216
102
RTVSPost2010PropOp51
 70
     0
102
RTVSPost2010Prop52
140
1.0
102
RTVSPost2010PropOp52
 70
     0
102
RTVSPost2010Prop53
 90
        2
102
RTVSPost2010PropOp53
 70
     1
102
RTVSPost2010Prop54
  1
strokes_ogs.tif
102
RTVSPost2010PropOp54
 70
     1
102
RTVSPost2010Prop55
280
     0
102
RTVSPost2010PropOp55
 70
     1
102
RTVSPost2010Prop56
140
1.0
102
RTVSPost2010PropOp56
 70
     1
102
RTVSPost2010Prop57
140
1.0
102
RTVSPost2010PropOp57
 70
     1
102
RTVSPropertyOp0
 70
     1
102
RTVSPropertyOp1
 70
     1
102
RTVSPropertyOp2
 70
     1
102
RTVSPropertyOp3
 70
     1
102
RTVSPropertyOp4
 70
     1
102
RTVSPropertyOp5
 70
     1
102
RTVSPropertyOp6
 70
     1
102
RTVSPropertyOp7
 70
     1
102
RTVSPropertyOp8
 70
     1
102
RTVSPropertyOp9
 70
     1
102
RTVSPropertyOp10
 70
     1
102
RTVSPropertyOp11
 70
     1
102
RTVSPropertyOp12
 70
     1
102
RTVSPropertyOp13
 70
     1
102
RTVSPropertyOp14
 70
     1
102
RTVSPropertyOp15
 70
     1
102
RTVSPropertyOp16
 70
     1
102
RTVSPropertyOp17
 70
     1
102
RTVSPropertyOp18
 70
     1
102
RTVSPropertyOp19
 70
     1
102
RTVSPropertyOp20
 70
     1
102
RTVSPropertyOp21
 70
     1
102
RTVSPropertyOp22
 70
     1
102
RTVSPropertyOp23
 70
     1
102
RTVSPropertyOp24
 70
     1
102
RTVSPropertyOp25
 70
     1
102
RTVSPropertyOp26
 70
     1
102
RTVSPropertyOp27
 70
     1
102
RTVSPropertyOp28
 70
     1
102
RTVSPropertyOp29
 70
     1
102
RTVSPropertyOp30
 70
     1
102
RTVSPropertyOp31
 70
     1
102
RTVSPropertyOp32
 70
     1
102
RTVSPropertyOp33
 70
     1
102
RTVSPropertyOp34
 70
     1
102
RTVSPropertyOp35
 70
     1
102
RTVSPropertyOp36
 70
     1
102
RTVSPropertyOp37
 70
     1
102
RTVSPropertyOp38
 70
     1
102
RTVSPropertyOp39
 70
     1
102
RTVSPropertyOp40
 70
     1
102
RTVSPropertyOp41
 70
     1
102
RTVSPropertyOp42
 70
     1
102
RTVSPropertyOp43
 70
     1
102
RTVSPropertyOp44
 70
     1
102
RTVSPropertyOp45
 70
     1
102
RTVSPropertyOp46
 70
     1
102
RTVSPropertyOp47
 70
     1
102
RTVSPropertyOp48
 70
     1
102
RTVSPropertyOp49
 70
     1
102
RTVSPropertyOp50
 70
     1
102
RTVSPropertyOp51
 70
     0
102
RTVSPropertyOp52
 70
     0
102
RTVSPropertyOp53
 70
     1
102
RTVSPropertyOp54
 70
     1
102
RTVSPropertyOp55
 70
     1
102
RTVSPropertyOp56
 70
     1
102
RTVSPropertyOp57
 70
     1
102
RTVSPropertyOp58
 70
     1
102
RTVSPropertyOp59
 70
     1
102
RTVSPropertyOp60
 70
     1
102
RTVSPropertyOp61
 70
     1
102
RTVSPropertyOp62
 70
     1
  0
XRECORD
  5
E8ADE
102
{ACAD_REACTORS
330
E8ADD
102
}
330
E8ADD
100
AcDbXrecord
280
     1
102
RTVSPost2010Prop28
280
     0
102
RTVSPost2010PropOp28
 70
     1
102
RTVSPost2010Prop29
280
     1
102
RTVSPost2010PropOp29
 70
     1
102
RTVSPost2010Prop30
280
     1
102
RTVSPost2010PropOp30
 70
     1
102
RTVSPost2010Prop31
280
     0
102
RTVSPost2010PropOp31
 70
     1
102
RTVSPost2010Prop32
280
     0
102
RTVSPost2010PropOp32
 70
     1
102
RTVSPost2010Prop33
280
     0
102
RTVSPost2010PropOp33
 70
     1
102
RTVSPost2010Prop34
280
     0
102
RTVSPost2010PropOp34
 70
     1
102
RTVSPost2010Prop35
280
     0
102
RTVSPost2010PropOp35
 70
     1
102
RTVSPost2010Prop36
280
     0
102
RTVSPost2010PropOp36
 70
     1
102
RTVSPost2010Prop37
 90
       50
102
RTVSPost2010PropOp37
 70
     1
102
RTVSPost2010Prop38
140
0.0
102
RTVSPost2010PropOp38
 70
     1
102
RTVSPost2010Prop39
140
1.0
102
RTVSPost2010PropOp39
 70
     1
102
RTVSPost2010Prop40
 90
        0
102
RTVSPost2010PropOp40
 70
     1
102
RTVSPost2010Prop41ColorIndex
 90
       18
102
RTVSPost2010Prop41ColorRGB
 90
        0
102
RTVSPost2010PropOp41
 70
     1
102
RTVSPost2010Prop42
 90
       50
102
RTVSPost2010PropOp42
 70
     1
102
RTVSPost2010Prop43
 90
        3
102
RTVSPost2010PropOp43
 70
     1
102
RTVSPost2010Prop44ColorIndex
 90
        5
102
RTVSPost2010Prop44ColorRGB
 90
      255
102
RTVSPost2010PropOp44
 70
     1
102
RTVSPost2010Prop45
280
     0
102
RTVSPost2010PropOp45
 70
     1
102
RTVSPost2010Prop46
 90
       50
102
RTVSPost2010PropOp46
 70
     1
102
RTVSPost2010Prop47
 90
       50
102
RTVSPost2010PropOp47
 70
     1
102
RTVSPost2010Prop48
 90
       50
102
RTVSPost2010PropOp48
 70
     1
102
RTVSPost2010Prop49
280
     0
102
RTVSPost2010PropOp49
 70
     1
102
RTVSPost2010Prop50
 90
       50
102
RTVSPost2010PropOp50
 70
     1
102
RTVSPost2010Prop51ColorIndex
 90
      256
102
RTVSPost2010Prop51ColorRGB
 90
-16777216
102
RTVSPost2010PropOp51
 70
     0
102
RTVSPost2010Prop52
140
1.0
102
RTVSPost2010PropOp52
 70
     0
102
RTVSPost2010Prop53
 90
        2
102
RTVSPost2010PropOp53
 70
     1
102
RTVSPost2010Prop54
  1
strokes_ogs.tif
102
RTVSPost2010PropOp54
 70
     1
102
RTVSPost2010Prop55
280
     0
102
RTVSPost2010PropOp55
 70
     1
102
RTVSPost2010Prop56
140
1.0
102
RTVSPost2010PropOp56
 70
     1
102
RTVSPost2010Prop57
140
1.0
102
RTVSPost2010PropOp57
 70
     1
102
RTVSPropertyOp0
 70
     1
102
RTVSPropertyOp1
 70
     1
102
RTVSPropertyOp2
 70
     1
102
RTVSPropertyOp3
 70
     1
102
RTVSPropertyOp4
 70
     1
102
RTVSPropertyOp5
 70
     1
102
RTVSPropertyOp6
 70
     1
102
RTVSPropertyOp7
 70
     1
102
RTVSPropertyOp8
 70
     1
102
RTVSPropertyOp9
 70
     1
102
RTVSPropertyOp10
 70
     1
102
RTVSPropertyOp11
 70
     1
102
RTVSPropertyOp12
 70
     1
102
RTVSPropertyOp13
 70
     1
102
RTVSPropertyOp14
 70
     1
102
RTVSPropertyOp15
 70
     1
102
RTVSPropertyOp16
 70
     1
102
RTVSPropertyOp17
 70
     1
102
RTVSPropertyOp18
 70
     1
102
RTVSPropertyOp19
 70
     1
102
RTVSPropertyOp20
 70
     1
102
RTVSPropertyOp21
 70
     1
102
RTVSPropertyOp22
 70
     1
102
RTVSPropertyOp23
 70
     1
102
RTVSPropertyOp24
 70
     1
102
RTVSPropertyOp25
 70
     1
102
RTVSPropertyOp26
 70
     1
102
RTVSPropertyOp27
 70
     1
102
RTVSPropertyOp28
 70
     1
102
RTVSPropertyOp29
 70
     1
102
RTVSPropertyOp30
 70
     1
102
RTVSPropertyOp31
 70
     1
102
RTVSPropertyOp32
 70
     1
102
RTVSPropertyOp33
 70
     1
102
RTVSPropertyOp34
 70
     1
102
RTVSPropertyOp35
 70
     1
102
RTVSPropertyOp36
 70
     1
102
RTVSPropertyOp37
 70
     1
102
RTVSPropertyOp38
 70
     1
102
RTVSPropertyOp39
 70
     1
102
RTVSPropertyOp40
 70
     1
102
RTVSPropertyOp41
 70
     1
102
RTVSPropertyOp42
 70
     1
102
RTVSPropertyOp43
 70
     1
102
RTVSPropertyOp44
 70
     1
102
RTVSPropertyOp45
 70
     1
102
RTVSPropertyOp46
 70
     1
102
RTVSPropertyOp47
 70
     1
102
RTVSPropertyOp48
 70
     1
102
RTVSPropertyOp49
 70
     1
102
RTVSPropertyOp50
 70
     1
102
RTVSPropertyOp51
 70
     0
102
RTVSPropertyOp52
 70
     0
102
RTVSPropertyOp53
 70
     1
102
RTVSPropertyOp54
 70
     1
102
RTVSPropertyOp55
 70
     1
102
RTVSPropertyOp56
 70
     1
102
RTVSPropertyOp57
 70
     1
102
RTVSPropertyOp58
 70
     1
102
RTVSPropertyOp59
 70
     1
102
RTVSPropertyOp60
 70
     1
102
RTVSPropertyOp61
 70
     1
102
RTVSPropertyOp62
 70
     1
  0
XRECORD
  5
E8AE0
102
{ACAD_REACTORS
330
E8ADF
102
}
330
E8ADF
100
AcDbXrecord
280
     1
102
RTVSPost2010Prop28
280
     0
102
RTVSPost2010PropOp28
 70
     1
102
RTVSPost2010Prop29
280
     1
102
RTVSPost2010PropOp29
 70
     1
102
RTVSPost2010Prop30
280
     1
102
RTVSPost2010PropOp30
 70
     1
102
RTVSPost2010Prop31
280
     0
102
RTVSPost2010PropOp31
 70
     1
102
RTVSPost2010Prop32
280
     0
102
RTVSPost2010PropOp32
 70
     1
102
RTVSPost2010Prop33
280
     0
102
RTVSPost2010PropOp33
 70
     1
102
RTVSPost2010Prop34
280
     0
102
RTVSPost2010PropOp34
 70
     1
102
RTVSPost2010Prop35
280
     0
102
RTVSPost2010PropOp35
 70
     1
102
RTVSPost2010Prop36
280
     0
102
RTVSPost2010PropOp36
 70
     1
102
RTVSPost2010Prop37
 90
       50
102
RTVSPost2010PropOp37
 70
     1
102
RTVSPost2010Prop38
140
0.0
102
RTVSPost2010PropOp38
 70
     1
102
RTVSPost2010Prop39
140
1.0
102
RTVSPost2010PropOp39
 70
     1
102
RTVSPost2010Prop40
 90
        0
102
RTVSPost2010PropOp40
 70
     1
102
RTVSPost2010Prop41ColorIndex
 90
       18
102
RTVSPost2010Prop41ColorRGB
 90
        0
102
RTVSPost2010PropOp41
 70
     1
102
RTVSPost2010Prop42
 90
       50
102
RTVSPost2010PropOp42
 70
     1
102
RTVSPost2010Prop43
 90
        3
102
RTVSPost2010PropOp43
 70
     1
102
RTVSPost2010Prop44ColorIndex
 90
        5
102
RTVSPost2010Prop44ColorRGB
 90
      255
102
RTVSPost2010PropOp44
 70
     1
102
RTVSPost2010Prop45
280
     0
102
RTVSPost2010PropOp45
 70
     1
102
RTVSPost2010Prop46
 90
       50
102
RTVSPost2010PropOp46
 70
     1
102
RTVSPost2010Prop47
 90
       50
102
RTVSPost2010PropOp47
 70
     1
102
RTVSPost2010Prop48
 90
       50
102
RTVSPost2010PropOp48
 70
     1
102
RTVSPost2010Prop49
280
     0
102
RTVSPost2010PropOp49
 70
     1
102
RTVSPost2010Prop50
 90
       50
102
RTVSPost2010PropOp50
 70
     1
102
RTVSPost2010Prop51ColorIndex
 90
      256
102
RTVSPost2010Prop51ColorRGB
 90
-16777216
102
RTVSPost2010PropOp51
 70
     0
102
RTVSPost2010Prop52
140
1.0
102
RTVSPost2010PropOp52
 70
     0
102
RTVSPost2010Prop53
 90
        2
102
RTVSPost2010PropOp53
 70
     1
102
RTVSPost2010Prop54
  1
strokes_ogs.tif
102
RTVSPost2010PropOp54
 70
     1
102
RTVSPost2010Prop55
280
     0
102
RTVSPost2010PropOp55
 70
     1
102
RTVSPost2010Prop56
140
1.0
102
RTVSPost2010PropOp56
 70
     1
102
RTVSPost2010Prop57
140
1.0
102
RTVSPost2010PropOp57
 70
     1
102
RTVSPropertyOp0
 70
     1
102
RTVSPropertyOp1
 70
     1
102
RTVSPropertyOp2
 70
     1
102
RTVSPropertyOp3
 70
     1
102
RTVSPropertyOp4
 70
     1
102
RTVSPropertyOp5
 70
     1
102
RTVSPropertyOp6
 70
     1
102
RTVSPropertyOp7
 70
     1
102
RTVSPropertyOp8
 70
     1
102
RTVSPropertyOp9
 70
     1
102
RTVSPropertyOp10
 70
     1
102
RTVSPropertyOp11
 70
     1
102
RTVSPropertyOp12
 70
     1
102
RTVSPropertyOp13
 70
     1
102
RTVSPropertyOp14
 70
     1
102
RTVSPropertyOp15
 70
     1
102
RTVSPropertyOp16
 70
     1
102
RTVSPropertyOp17
 70
     1
102
RTVSPropertyOp18
 70
     1
102
RTVSPropertyOp19
 70
     1
102
RTVSPropertyOp20
 70
     1
102
RTVSPropertyOp21
 70
     1
102
RTVSPropertyOp22
 70
     1
102
RTVSPropertyOp23
 70
     1
102
RTVSPropertyOp24
 70
     1
102
RTVSPropertyOp25
 70
     1
102
RTVSPropertyOp26
 70
     1
102
RTVSPropertyOp27
 70
     1
102
RTVSPropertyOp28
 70
     1
102
RTVSPropertyOp29
 70
     1
102
RTVSPropertyOp30
 70
     1
102
RTVSPropertyOp31
 70
     1
102
RTVSPropertyOp32
 70
     1
102
RTVSPropertyOp33
 70
     1
102
RTVSPropertyOp34
 70
     1
102
RTVSPropertyOp35
 70
     1
102
RTVSPropertyOp36
 70
     1
102
RTVSPropertyOp37
 70
     1
102
RTVSPropertyOp38
 70
     1
102
RTVSPropertyOp39
 70
     1
102
RTVSPropertyOp40
 70
     1
102
RTVSPropertyOp41
 70
     1
102
RTVSPropertyOp42
 70
     1
102
RTVSPropertyOp43
 70
     1
102
RTVSPropertyOp44
 70
     1
102
RTVSPropertyOp45
 70
     1
102
RTVSPropertyOp46
 70
     1
102
RTVSPropertyOp47
 70
     1
102
RTVSPropertyOp48
 70
     1
102
RTVSPropertyOp49
 70
     1
102
RTVSPropertyOp50
 70
     1
102
RTVSPropertyOp51
 70
     0
102
RTVSPropertyOp52
 70
     0
102
RTVSPropertyOp53
 70
     1
102
RTVSPropertyOp54
 70
     1
102
RTVSPropertyOp55
 70
     1
102
RTVSPropertyOp56
 70
     1
102
RTVSPropertyOp57
 70
     1
102
RTVSPropertyOp58
 70
     1
102
RTVSPropertyOp59
 70
     1
102
RTVSPropertyOp60
 70
     1
102
RTVSPropertyOp61
 70
     1
102
RTVSPropertyOp62
 70
     1
  0
XRECORD
  5
E8ACB
102
{ACAD_REACTORS
330
E8ACA
102
}
330
E8ACA
100
AcDbXrecord
280
     1
102
RTVSPost2010Prop28
280
     0
102
RTVSPost2010PropOp28
 70
     1
102
RTVSPost2010Prop29
280
     1
102
RTVSPost2010PropOp29
 70
     1
102
RTVSPost2010Prop30
280
     1
102
RTVSPost2010PropOp30
 70
     1
102
RTVSPost2010Prop31
280
     0
102
RTVSPost2010PropOp31
 70
     1
102
RTVSPost2010Prop32
280
     0
102
RTVSPost2010PropOp32
 70
     1
102
RTVSPost2010Prop33
280
     0
102
RTVSPost2010PropOp33
 70
     1
102
RTVSPost2010Prop34
280
     0
102
RTVSPost2010PropOp34
 70
     1
102
RTVSPost2010Prop35
280
     0
102
RTVSPost2010PropOp35
 70
     1
102
RTVSPost2010Prop36
280
     0
102
RTVSPost2010PropOp36
 70
     1
102
RTVSPost2010Prop37
 90
       50
102
RTVSPost2010PropOp37
 70
     1
102
RTVSPost2010Prop38
140
0.0
102
RTVSPost2010PropOp38
 70
     1
102
RTVSPost2010Prop39
140
1.0
102
RTVSPost2010PropOp39
 70
     1
102
RTVSPost2010Prop40
 90
        0
102
RTVSPost2010PropOp40
 70
     1
102
RTVSPost2010Prop41ColorIndex
 90
       18
102
RTVSPost2010Prop41ColorRGB
 90
        0
102
RTVSPost2010PropOp41
 70
     1
102
RTVSPost2010Prop42
 90
       50
102
RTVSPost2010PropOp42
 70
     1
102
RTVSPost2010Prop43
 90
        3
102
RTVSPost2010PropOp43
 70
     1
102
RTVSPost2010Prop44ColorIndex
 90
        5
102
RTVSPost2010Prop44ColorRGB
 90
      255
102
RTVSPost2010PropOp44
 70
     1
102
RTVSPost2010Prop45
280
     0
102
RTVSPost2010PropOp45
 70
     1
102
RTVSPost2010Prop46
 90
       50
102
RTVSPost2010PropOp46
 70
     1
102
RTVSPost2010Prop47
 90
       50
102
RTVSPost2010PropOp47
 70
     1
102
RTVSPost2010Prop48
 90
       50
102
RTVSPost2010PropOp48
 70
     1
102
RTVSPost2010Prop49
280
     0
102
RTVSPost2010PropOp49
 70
     1
102
RTVSPost2010Prop50
 90
       50
102
RTVSPost2010PropOp50
 70
     1
102
RTVSPost2010Prop51ColorIndex
 90
      256
102
RTVSPost2010Prop51ColorRGB
 90
-16777216
102
RTVSPost2010PropOp51
 70
     0
102
RTVSPost2010Prop52
140
1.0
102
RTVSPost2010PropOp52
 70
     0
102
RTVSPost2010Prop53
 90
        2
102
RTVSPost2010PropOp53
 70
     1
102
RTVSPost2010Prop54
  1
strokes_ogs.tif
102
RTVSPost2010PropOp54
 70
     1
102
RTVSPost2010Prop55
280
     0
102
RTVSPost2010PropOp55
 70
     1
102
RTVSPost2010Prop56
140
1.0
102
RTVSPost2010PropOp56
 70
     1
102
RTVSPost2010Prop57
140
1.0
102
RTVSPost2010PropOp57
 70
     1
102
RTVSPropertyOp0
 70
     1
102
RTVSPropertyOp1
 70
     1
102
RTVSPropertyOp2
 70
     1
102
RTVSPropertyOp3
 70
     1
102
RTVSPropertyOp4
 70
     1
102
RTVSPropertyOp5
 70
     1
102
RTVSPropertyOp6
 70
     1
102
RTVSPropertyOp7
 70
     1
102
RTVSPropertyOp8
 70
     1
102
RTVSPropertyOp9
 70
     1
102
RTVSPropertyOp10
 70
     1
102
RTVSPropertyOp11
 70
     1
102
RTVSPropertyOp12
 70
     1
102
RTVSPropertyOp13
 70
     1
102
RTVSPropertyOp14
 70
     1
102
RTVSPropertyOp15
 70
     1
102
RTVSPropertyOp16
 70
     1
102
RTVSPropertyOp17
 70
     1
102
RTVSPropertyOp18
 70
     1
102
RTVSPropertyOp19
 70
     1
102
RTVSPropertyOp20
 70
     1
102
RTVSPropertyOp21
 70
     1
102
RTVSPropertyOp22
 70
     1
102
RTVSPropertyOp23
 70
     1
102
RTVSPropertyOp24
 70
     1
102
RTVSPropertyOp25
 70
     1
102
RTVSPropertyOp26
 70
     1
102
RTVSPropertyOp27
 70
     1
102
RTVSPropertyOp28
 70
     1
102
RTVSPropertyOp29
 70
     1
102
RTVSPropertyOp30
 70
     1
102
RTVSPropertyOp31
 70
     1
102
RTVSPropertyOp32
 70
     1
102
RTVSPropertyOp33
 70
     1
102
RTVSPropertyOp34
 70
     1
102
RTVSPropertyOp35
 70
     1
102
RTVSPropertyOp36
 70
     1
102
RTVSPropertyOp37
 70
     1
102
RTVSPropertyOp38
 70
     1
102
RTVSPropertyOp39
 70
     1
102
RTVSPropertyOp40
 70
     1
102
RTVSPropertyOp41
 70
     1
102
RTVSPropertyOp42
 70
     1
102
RTVSPropertyOp43
 70
     1
102
RTVSPropertyOp44
 70
     1
102
RTVSPropertyOp45
 70
     1
102
RTVSPropertyOp46
 70
     1
102
RTVSPropertyOp47
 70
     1
102
RTVSPropertyOp48
 70
     1
102
RTVSPropertyOp49
 70
     1
102
RTVSPropertyOp50
 70
     1
102
RTVSPropertyOp51
 70
     0
102
RTVSPropertyOp52
 70
     0
102
RTVSPropertyOp53
 70
     1
102
RTVSPropertyOp54
 70
     1
102
RTVSPropertyOp55
 70
     1
102
RTVSPropertyOp56
 70
     1
102
RTVSPropertyOp57
 70
     1
102
RTVSPropertyOp58
 70
     1
102
RTVSPropertyOp59
 70
     1
102
RTVSPropertyOp60
 70
     1
102
RTVSPropertyOp61
 70
     1
102
RTVSPropertyOp62
 70
     1
  0
XRECORD
  5
E8ADA
102
{ACAD_REACTORS
330
E8AD9
102
}
330
E8AD9
100
AcDbXrecord
280
     1
102
RTVSPost2010Prop28
280
     0
102
RTVSPost2010PropOp28
 70
     1
102
RTVSPost2010Prop29
280
     1
102
RTVSPost2010PropOp29
 70
     1
102
RTVSPost2010Prop30
280
     1
102
RTVSPost2010PropOp30
 70
     1
102
RTVSPost2010Prop31
280
     0
102
RTVSPost2010PropOp31
 70
     1
102
RTVSPost2010Prop32
280
     0
102
RTVSPost2010PropOp32
 70
     1
102
RTVSPost2010Prop33
280
     0
102
RTVSPost2010PropOp33
 70
     1
102
RTVSPost2010Prop34
280
     0
102
RTVSPost2010PropOp34
 70
     1
102
RTVSPost2010Prop35
280
     0
102
RTVSPost2010PropOp35
 70
     1
102
RTVSPost2010Prop36
280
     0
102
RTVSPost2010PropOp36
 70
     1
102
RTVSPost2010Prop37
 90
       50
102
RTVSPost2010PropOp37
 70
     1
102
RTVSPost2010Prop38
140
0.0
102
RTVSPost2010PropOp38
 70
     1
102
RTVSPost2010Prop39
140
1.0
102
RTVSPost2010PropOp39
 70
     1
102
RTVSPost2010Prop40
 90
        0
102
RTVSPost2010PropOp40
 70
     1
102
RTVSPost2010Prop41ColorIndex
 90
       18
102
RTVSPost2010Prop41ColorRGB
 90
        0
102
RTVSPost2010PropOp41
 70
     1
102
RTVSPost2010Prop42
 90
       50
102
RTVSPost2010PropOp42
 70
     1
102
RTVSPost2010Prop43
 90
        3
102
RTVSPost2010PropOp43
 70
     1
102
RTVSPost2010Prop44ColorIndex
 90
        5
102
RTVSPost2010Prop44ColorRGB
 90
      255
102
RTVSPost2010PropOp44
 70
     1
102
RTVSPost2010Prop45
280
     0
102
RTVSPost2010PropOp45
 70
     1
102
RTVSPost2010Prop46
 90
       50
102
RTVSPost2010PropOp46
 70
     1
102
RTVSPost2010Prop47
 90
       50
102
RTVSPost2010PropOp47
 70
     1
102
RTVSPost2010Prop48
 90
       50
102
RTVSPost2010PropOp48
 70
     1
102
RTVSPost2010Prop49
280
     0
102
RTVSPost2010PropOp49
 70
     1
102
RTVSPost2010Prop50
 90
       50
102
RTVSPost2010PropOp50
 70
     1
102
RTVSPost2010Prop51ColorIndex
 90
      256
102
RTVSPost2010Prop51ColorRGB
 90
-16777216
102
RTVSPost2010PropOp51
 70
     0
102
RTVSPost2010Prop52
140
1.0
102
RTVSPost2010PropOp52
 70
     0
102
RTVSPost2010Prop53
 90
        2
102
RTVSPost2010PropOp53
 70
     1
102
RTVSPost2010Prop54
  1
strokes_ogs.tif
102
RTVSPost2010PropOp54
 70
     1
102
RTVSPost2010Prop55
280
     0
102
RTVSPost2010PropOp55
 70
     1
102
RTVSPost2010Prop56
140
1.0
102
RTVSPost2010PropOp56
 70
     1
102
RTVSPost2010Prop57
140
1.0
102
RTVSPost2010PropOp57
 70
     1
102
RTVSPropertyOp0
 70
     1
102
RTVSPropertyOp1
 70
     1
102
RTVSPropertyOp2
 70
     1
102
RTVSPropertyOp3
 70
     1
102
RTVSPropertyOp4
 70
     1
102
RTVSPropertyOp5
 70
     1
102
RTVSPropertyOp6
 70
     1
102
RTVSPropertyOp7
 70
     1
102
RTVSPropertyOp8
 70
     1
102
RTVSPropertyOp9
 70
     1
102
RTVSPropertyOp10
 70
     1
102
RTVSPropertyOp11
 70
     1
102
RTVSPropertyOp12
 70
     1
102
RTVSPropertyOp13
 70
     1
102
RTVSPropertyOp14
 70
     1
102
RTVSPropertyOp15
 70
     1
102
RTVSPropertyOp16
 70
     1
102
RTVSPropertyOp17
 70
     1
102
RTVSPropertyOp18
 70
     1
102
RTVSPropertyOp19
 70
     1
102
RTVSPropertyOp20
 70
     1
102
RTVSPropertyOp21
 70
     1
102
RTVSPropertyOp22
 70
     1
102
RTVSPropertyOp23
 70
     1
102
RTVSPropertyOp24
 70
     1
102
RTVSPropertyOp25
 70
     1
102
RTVSPropertyOp26
 70
     1
102
RTVSPropertyOp27
 70
     1
102
RTVSPropertyOp28
 70
     1
102
RTVSPropertyOp29
 70
     1
102
RTVSPropertyOp30
 70
     1
102
RTVSPropertyOp31
 70
     1
102
RTVSPropertyOp32
 70
     1
102
RTVSPropertyOp33
 70
     1
102
RTVSPropertyOp34
 70
     1
102
RTVSPropertyOp35
 70
     1
102
RTVSPropertyOp36
 70
     1
102
RTVSPropertyOp37
 70
     1
102
RTVSPropertyOp38
 70
     1
102
RTVSPropertyOp39
 70
     1
102
RTVSPropertyOp40
 70
     1
102
RTVSPropertyOp41
 70
     1
102
RTVSPropertyOp42
 70
     1
102
RTVSPropertyOp43
 70
     1
102
RTVSPropertyOp44
 70
     1
102
RTVSPropertyOp45
 70
     1
102
RTVSPropertyOp46
 70
     1
102
RTVSPropertyOp47
 70
     1
102
RTVSPropertyOp48
 70
     1
102
RTVSPropertyOp49
 70
     1
102
RTVSPropertyOp50
 70
     1
102
RTVSPropertyOp51
 70
     0
102
RTVSPropertyOp52
 70
     0
102
RTVSPropertyOp53
 70
     1
102
RTVSPropertyOp54
 70
     1
102
RTVSPropertyOp55
 70
     1
102
RTVSPropertyOp56
 70
     1
102
RTVSPropertyOp57
 70
     1
102
RTVSPropertyOp58
 70
     1
102
RTVSPropertyOp59
 70
     1
102
RTVSPropertyOp60
 70
     1
102
RTVSPropertyOp61
 70
     1
102
RTVSPropertyOp62
 70
     1
  0
XRECORD
  5
E8AE2
102
{ACAD_REACTORS
330
E8AE1
102
}
330
E8AE1
100
AcDbXrecord
280
     1
102
RTVSPost2010Prop28
280
     0
102
RTVSPost2010PropOp28
 70
     1
102
RTVSPost2010Prop29
280
     1
102
RTVSPost2010PropOp29
 70
     1
102
RTVSPost2010Prop30
280
     1
102
RTVSPost2010PropOp30
 70
     1
102
RTVSPost2010Prop31
280
     0
102
RTVSPost2010PropOp31
 70
     1
102
RTVSPost2010Prop32
280
     0
102
RTVSPost2010PropOp32
 70
     1
102
RTVSPost2010Prop33
280
     0
102
RTVSPost2010PropOp33
 70
     1
102
RTVSPost2010Prop34
280
     0
102
RTVSPost2010PropOp34
 70
     1
102
RTVSPost2010Prop35
280
     0
102
RTVSPost2010PropOp35
 70
     1
102
RTVSPost2010Prop36
280
     0
102
RTVSPost2010PropOp36
 70
     1
102
RTVSPost2010Prop37
 90
       50
102
RTVSPost2010PropOp37
 70
     1
102
RTVSPost2010Prop38
140
0.0
102
RTVSPost2010PropOp38
 70
     1
102
RTVSPost2010Prop39
140
1.0
102
RTVSPost2010PropOp39
 70
     1
102
RTVSPost2010Prop40
 90
        0
102
RTVSPost2010PropOp40
 70
     1
102
RTVSPost2010Prop41ColorIndex
 90
       18
102
RTVSPost2010Prop41ColorRGB
 90
        0
102
RTVSPost2010PropOp41
 70
     1
102
RTVSPost2010Prop42
 90
       50
102
RTVSPost2010PropOp42
 70
     1
102
RTVSPost2010Prop43
 90
        3
102
RTVSPost2010PropOp43
 70
     1
102
RTVSPost2010Prop44ColorIndex
 90
        5
102
RTVSPost2010Prop44ColorRGB
 90
      255
102
RTVSPost2010PropOp44
 70
     1
102
RTVSPost2010Prop45
280
     0
102
RTVSPost2010PropOp45
 70
     1
102
RTVSPost2010Prop46
 90
       50
102
RTVSPost2010PropOp46
 70
     1
102
RTVSPost2010Prop47
 90
       50
102
RTVSPost2010PropOp47
 70
     1
102
RTVSPost2010Prop48
 90
       50
102
RTVSPost2010PropOp48
 70
     1
102
RTVSPost2010Prop49
280
     0
102
RTVSPost2010PropOp49
 70
     1
102
RTVSPost2010Prop50
 90
       50
102
RTVSPost2010PropOp50
 70
     1
102
RTVSPost2010Prop51ColorIndex
 90
      256
102
RTVSPost2010Prop51ColorRGB
 90
-16777216
102
RTVSPost2010PropOp51
 70
     0
102
RTVSPost2010Prop52
140
1.0
102
RTVSPost2010PropOp52
 70
     0
102
RTVSPost2010Prop53
 90
        2
102
RTVSPost2010PropOp53
 70
     1
102
RTVSPost2010Prop54
  1
strokes_ogs.tif
102
RTVSPost2010PropOp54
 70
     1
102
RTVSPost2010Prop55
280
     0
102
RTVSPost2010PropOp55
 70
     1
102
RTVSPost2010Prop56
140
1.0
102
RTVSPost2010PropOp56
 70
     1
102
RTVSPost2010Prop57
140
1.0
102
RTVSPost2010PropOp57
 70
     1
102
RTVSPropertyOp0
 70
     1
102
RTVSPropertyOp1
 70
     1
102
RTVSPropertyOp2
 70
     1
102
RTVSPropertyOp3
 70
     1
102
RTVSPropertyOp4
 70
     1
102
RTVSPropertyOp5
 70
     1
102
RTVSPropertyOp6
 70
     1
102
RTVSPropertyOp7
 70
     1
102
RTVSPropertyOp8
 70
     1
102
RTVSPropertyOp9
 70
     1
102
RTVSPropertyOp10
 70
     1
102
RTVSPropertyOp11
 70
     1
102
RTVSPropertyOp12
 70
     1
102
RTVSPropertyOp13
 70
     1
102
RTVSPropertyOp14
 70
     1
102
RTVSPropertyOp15
 70
     1
102
RTVSPropertyOp16
 70
     1
102
RTVSPropertyOp17
 70
     1
102
RTVSPropertyOp18
 70
     1
102
RTVSPropertyOp19
 70
     1
102
RTVSPropertyOp20
 70
     1
102
RTVSPropertyOp21
 70
     1
102
RTVSPropertyOp22
 70
     1
102
RTVSPropertyOp23
 70
     1
102
RTVSPropertyOp24
 70
     1
102
RTVSPropertyOp25
 70
     1
102
RTVSPropertyOp26
 70
     1
102
RTVSPropertyOp27
 70
     1
102
RTVSPropertyOp28
 70
     1
102
RTVSPropertyOp29
 70
     1
102
RTVSPropertyOp30
 70
     1
102
RTVSPropertyOp31
 70
     1
102
RTVSPropertyOp32
 70
     1
102
RTVSPropertyOp33
 70
     1
102
RTVSPropertyOp34
 70
     1
102
RTVSPropertyOp35
 70
     1
102
RTVSPropertyOp36
 70
     1
102
RTVSPropertyOp37
 70
     1
102
RTVSPropertyOp38
 70
     1
102
RTVSPropertyOp39
 70
     1
102
RTVSPropertyOp40
 70
     1
102
RTVSPropertyOp41
 70
     1
102
RTVSPropertyOp42
 70
     1
102
RTVSPropertyOp43
 70
     1
102
RTVSPropertyOp44
 70
     1
102
RTVSPropertyOp45
 70
     1
102
RTVSPropertyOp46
 70
     1
102
RTVSPropertyOp47
 70
     1
102
RTVSPropertyOp48
 70
     1
102
RTVSPropertyOp49
 70
     1
102
RTVSPropertyOp50
 70
     1
102
RTVSPropertyOp51
 70
     0
102
RTVSPropertyOp52
 70
     0
102
RTVSPropertyOp53
 70
     1
102
RTVSPropertyOp54
 70
     1
102
RTVSPropertyOp55
 70
     1
102
RTVSPropertyOp56
 70
     1
102
RTVSPropertyOp57
 70
     1
102
RTVSPropertyOp58
 70
     1
102
RTVSPropertyOp59
 70
     1
102
RTVSPropertyOp60
 70
     1
102
RTVSPropertyOp61
 70
     1
102
RTVSPropertyOp62
 70
     1
  0
ENDSEC
  0
EOF
