0
SECTION
2
HEADER
9
$ACADVER
1
AC1015
9
$DWGCODEPAGE
3
ANSI_1252
9
$HANDSEED
5
214
9
$ANGBASE
50
0
9
$ANGDIR
70
0
9
$ATTMODE
70
1
9
$AUNITS
70
0
9
$AUPREC
70
0
9
$CECOLOR
62
256
9
$CELTSCALE
40
1
9
$CELTYPE
6
ByLayer
9
$CELWEIGHT
370
18
9
$CLAYER
8
0
9
$CMLJUST
70
0
9
$CMLSCALE
40
1
9
$CMLSTYLE
2
Standard
9
$DIMSTYLE
2
Standard
9
$TEXTSIZE
40
0.2
9
$TEXTSTYLE
7
Standard
9
$LUNITS
70
2
9
$LUPREC
70
4
9
$EXTNAMES
290
1
9
$INSUNITS
70
4
9
$LTSCALE
40
1
9
$LWDISPLAY
290
1
9
$PDMODE
70
0
9
$PDSIZE
40
0
9
$PLINEGEN
70
0
0
ENDSEC
0
SECTION
2
CLASSES
0
CLASS
1
RASTERVARIABLES
2
AcDbRasterVariables
3
ISM
90
0
280
0
281
0
0
ENDSEC
0
SECTION
2
TABLES
0
TABLE
2
VPORT
5
20a
100
AcDbSymbolTable
0
VPORT
5
1
100
AcDbSymbolTableRecord
100
AcDbViewportTableRecord
2
*Active
70
0
10
0
20
0
11
1
21
1
12
-1
22
1
13
0
23
0
14
0.5
24
0.5
15
10
25
10
16
0
26
0
36
1
17
0
27
0
37
0
0
ENDTAB
0
TABLE
2
LTYPE
5
20b
100
AcDbSymbolTable
0
LTYPE
5
14
100
AcDbSymbolTableRecord
100
AcDbLinetypeTableRecord
70
0
2
ByBlock
3

72
65
73
0
40
0
0
LTYPE
5
15
100
AcDbSymbolTableRecord
100
AcDbLinetypeTableRecord
70
0
2
ByLayer
3

72
65
73
0
40
0
0
LTYPE
5
16
100
AcDbSymbolTableRecord
100
AcDbLinetypeTableRecord
70
0
2
CONTINUOUS
3
Solid line
72
65
73
0
40
0
0
LTYPE
5
6A
100
AcDbSymbolTableRecord
100
AcDbLinetypeTableRecord
70
0
2
CENTER
3
____ _ ____ _ ____ _ ____
72
65
73
4
40
47.5
49
22
74
0
49
-8.5
74
0
49
8.5
74
0
49
-8.5
74
0
0
LTYPE
5
6B
100
AcDbSymbolTableRecord
100
AcDbLinetypeTableRecord
70
0
2
DASHED
3
__ __ __ __ __ __ __ __ __
72
65
73
2
40
25.72
49
12.86
74
0
49
-12.86
74
0
0
ENDTAB
0
TABLE
2
LAYER
5
20c
100
AcDbSymbolTable
0
LAYER
5
10
100
AcDbSymbolTableRecord
100
AcDbLayerTableRecord
2
0
70
0
62
7
6
CONTINUOUS
290
1
370
-3
390
0
0
LAYER
5
6D
100
AcDbSymbolTableRecord
100
AcDbLayerTableRecord
2
80
70
0
62
-6
6
CONTINUOUS
290
1
370
-3
390
0
0
LAYER
5
6F
100
AcDbSymbolTableRecord
100
AcDbLayerTableRecord
2
81
70
0
62
-3
6
CONTINUOUS
290
1
370
-3
390
0
0
LAYER
5
72
100
AcDbSymbolTableRecord
100
AcDbLayerTableRecord
2
4
70
0
62
-2
6
CENTER
290
1
370
-3
390
0
0
LAYER
5
77
100
AcDbSymbolTableRecord
100
AcDbLayerTableRecord
2
1
70
0
62
4
6
CONTINUOUS
290
1
370
-3
390
0
0
LAYER
5
161
100
AcDbSymbolTableRecord
100
AcDbLayerTableRecord
2
2
70
0
62
7
6
CONTINUOUS
290
1
370
-3
390
0
0
LAYER
5
1f6
100
AcDbSymbolTableRecord
100
AcDbLayerTableRecord
2
SK4
70
0
62
2
6
CENTER
290
1
370
-3
390
0
0
LAYER
5
1f7
100
AcDbSymbolTableRecord
100
AcDbLayerTableRecord
2
SK1
70
0
62
4
6
CONTINUOUS
290
1
370
-3
390
0
0
LAYER
5
1f8
100
AcDbSymbolTableRecord
100
AcDbLayerTableRecord
2
SK6
70
0
62
5
6
CONTINUOUS
290
1
370
-3
390
0
0
LAYER
5
1f9
100
AcDbSymbolTableRecord
100
AcDbLayerTableRecord
2
SK2
70
0
62
7
6
CONTINUOUS
290
1
370
-3
390
0
0
ENDTAB
0
TABLE
2
STYLE
5
20d
100
AcDbSymbolTable
0
STYLE
5
11
100
AcDbSymbolTableRecord
100
AcDbTextStyleTableRecord
2
Standard
3
txt
70
0
71
0
40
0
41
1
42
0
50
0
0
STYLE
5
15C
100
AcDbSymbolTableRecord
100
AcDbTextStyleTableRecord
2
iso_b_vert
3
simplex.shx
70
0
71
0
40
0
41
1
42
0
50
0
0
STYLE
5
15D
100
AcDbSymbolTableRecord
100
AcDbTextStyleTableRecord
2
DWGDirectTextStyle
3
simplex
70
0
71
0
40
0
41
1
42
0
50
0
0
ENDTAB
0
TABLE
2
DIMSTYLE
5
20e
100
AcDbSymbolTable
100
AcDbDimStyleTable
0
DIMSTYLE
105
27
100
AcDbSymbolTableRecord
100
AcDbDimStyleTableRecord
2
Standard
70
0
3
<>
41
0.18
42
0.0625
44
0.18
140
0.18
147
0.09
73
0
74
0
77
1
271
2
275
0
278
52
280
0
340
11
0
ENDTAB
0
TABLE
2
VIEW
5
20f
100
AcDbSymbolTable
0
ENDTAB
0
TABLE
2
UCS
5
210
100
AcDbSymbolTable
0
ENDTAB
0
TABLE
2
APPID
5
211
100
AcDbSymbolTable
0
APPID
5
12
100
AcDbSymbolTableRecord
100
AcDbRegAppTableRecord
2
ACAD
70
0
0
ENDTAB
0
TABLE
2
BLOCK_RECORD
5
212
100
AcDbSymbolTable
0
BLOCK_RECORD
5
1F
100
AcDbSymbolTableRecord
100
AcDbBlockTableRecord
2
*Model_Space
340
0
70
0
0
BLOCK_RECORD
5
1B
100
AcDbSymbolTableRecord
100
AcDbBlockTableRecord
2
*Paper_Space
340
0
70
0
0
BLOCK_RECORD
5
23
100
AcDbSymbolTableRecord
100
AcDbBlockTableRecord
2
*Paper_Space0
340
0
70
0
0
BLOCK_RECORD
5
15F
100
AcDbSymbolTableRecord
100
AcDbBlockTableRecord
2
DimnDraft3D1
340
0
70
0
0
BLOCK_RECORD
5
16A
100
AcDbSymbolTableRecord
100
AcDbBlockTableRecord
2
DimnDraft3D2
340
0
70
0
0
BLOCK_RECORD
5
173
100
AcDbSymbolTableRecord
100
AcDbBlockTableRecord
2
DimnDraft3D3
340
0
70
0
0
BLOCK_RECORD
5
17E
100
AcDbSymbolTableRecord
100
AcDbBlockTableRecord
2
DimnDraft3D4
340
0
70
0
0
BLOCK_RECORD
5
189
100
AcDbSymbolTableRecord
100
AcDbBlockTableRecord
2
DimnDraft3D55
340
0
70
0
0
BLOCK_RECORD
5
193
100
AcDbSymbolTableRecord
100
AcDbBlockTableRecord
2
DimnDraft3D6
340
0
70
0
0
ENDTAB
0
ENDSEC
0
SECTION
2
BLOCKS
0
BLOCK
5
20
100
AcDbEntity
8
0
100
AcDbBlockBegin
2
*Model_Space
70
0
10
0
20
0
30
0
3
*Model_Space
0
ENDBLK
5
21
100
AcDbEntity
8
0
100
AcDbBlockEnd
0
BLOCK
5
1C
100
AcDbEntity
8
0
100
AcDbBlockBegin
2
*Paper_Space
70
0
10
0
20
0
30
0
3
*Paper_Space
0
ENDBLK
5
1D
100
AcDbEntity
8
0
100
AcDbBlockEnd
0
BLOCK
5
24
100
AcDbEntity
8
0
100
AcDbBlockBegin
2
*Paper_Space0
70
0
10
0
20
0
30
0
3
*Paper_Space0
0
ENDBLK
5
25
100
AcDbEntity
8
0
100
AcDbBlockEnd
0
BLOCK
5
167
100
AcDbEntity
8
0
100
AcDbBlockBegin
2
DimnDraft3D1
70
0
10
0
20
0
30
0
3
DimnDraft3D1
0
MTEXT
5
160
100
AcDbEntity
8
2
62
256
6
ByLayer
370
13
48
1
60
0
100
AcDbMText
10
60.607533
20
42.76225
30
0
210
0
220
0
230
1
1
\W0.6217;125
40
3.175
41
0
44
1.084337
50
0
71
7
72
5
7
iso_b_vert
0
LINE
5
162
100
AcDbEntity
8
2
62
256
6
ByLayer
370
13
48
1
60
0
100
AcDbLine
10
0
20
1.5875
30
0
11
0
21
45.1435
31
0
39
0
210
0
220
0
230
1
0
LINE
5
163
100
AcDbEntity
8
2
62
256
6
ByLayer
370
13
48
1
60
0
100
AcDbLine
10
125
20
1.5875
30
0
11
125
21
45.1435
31
0
39
0
210
0
220
0
230
1
0
LINE
5
164
100
AcDbEntity
8
2
62
256
6
ByLayer
370
13
48
1
60
0
100
AcDbLine
10
0
20
41.9685
30
0
11
125
21
41.9685
31
0
39
0
210
0
220
0
230
1
0
SOLID
5
165
100
AcDbEntity
8
2
62
256
6
ByLayer
370
13
48
1
60
0
100
AcDbTrace
10
0
20
41.9685
30
0
11
3.174998
21
42.386497
31
0
12
3.175002
22
41.550504
32
0
13
0
23
41.9685
33
0
39
0
210
0
220
0
230
1
0
SOLID
5
166
100
AcDbEntity
8
2
62
256
6
ByLayer
370
13
48
1
60
0
100
AcDbTrace
10
125
20
41.9685
30
0
11
121.825002
21
41.550504
31
0
12
121.824998
22
42.386497
32
0
13
125
23
41.9685
33
0
39
0
210
0
220
0
230
1
0
ENDBLK
5
168
100
AcDbEntity
8
0
100
AcDbBlockEnd
0
BLOCK
5
170
100
AcDbEntity
8
0
100
AcDbBlockBegin
2
DimnDraft3D2
70
0
10
0
20
0
30
0
3
DimnDraft3D2
0
MTEXT
5
16B
100
AcDbEntity
8
SK2
62
256
6
ByLayer
370
13
48
1
60
0
100
AcDbMText
10
31.1423
20
27.341958
30
0
210
0
220
0
230
1
1
\W0.5404;3
40
3.175
41
0
44
1.084337
50
39.9480973995634
71
7
72
5
7
iso_b_vert
0
MTEXT
5
16D
100
AcDbEntity
8
SK2
62
256
6
ByLayer
370
13
48
1
60
0
100
AcDbMText
10
27.971644
20
24.686353
30
0
210
0
220
0
230
1
1
\W0.6380;R
40
3.175
41
0
44
1.084337
50
39.9480973995634
71
7
72
5
7
iso_b_vert
0
LINE
5
16E
100
AcDbEntity
8
SK2
62
256
6
ByLayer
370
13
48
1
60
0
100
AcDbLine
10
15.939924
20
13.57372
30
0
11
32.132364
21
27.135813
31
0
39
0
210
0
220
0
230
1
0
SOLID
5
16F
100
AcDbEntity
8
SK2
62
256
6
ByLayer
370
13
48
1
60
0
100
AcDbTrace
10
15.939924
20
13.57372
30
0
11
18.105569
21
15.932813
31
0
12
18.642357
22
15.29192
32
0
13
15.939924
23
13.57372
33
0
39
0
210
0
220
0
230
1
0
ENDBLK
5
171
100
AcDbEntity
8
0
100
AcDbBlockEnd
0
BLOCK
5
17B
100
AcDbEntity
8
0
100
AcDbBlockBegin
2
DimnDraft3D3
70
0
10
0
20
0
30
0
3
DimnDraft3D3
0
MTEXT
5
174
100
AcDbEntity
8
SK2
62
256
6
ByLayer
370
13
48
1
60
0
100
AcDbMText
10
154.173166
20
21.303031
30
0
210
0
220
0
230
1
1
%%c
40
3.175
41
0
44
1.084337
50
90
71
7
72
5
7
iso_b_vert
0
MTEXT
5
175
100
AcDbEntity
8
SK2
62
256
6
ByLayer
370
13
48
1
60
0
100
AcDbMText
10
154.173166
20
29.215726
30
0
210
0
220
0
230
1
1
\W0.6740;25
40
3.175
41
0
44
1.084337
50
90
71
7
72
5
7
iso_b_vert
0
LINE
5
176
100
AcDbEntity
8
SK2
62
256
6
ByLayer
370
13
48
1
60
0
100
AcDbLine
10
124.3875
20
12.5
30
0
11
158.935666
21
12.5
31
0
39
0
210
0
220
0
230
1
0
LINE
5
177
100
AcDbEntity
8
SK2
62
256
6
ByLayer
370
13
48
1
60
0
100
AcDbLine
10
124.3875
20
-12.5
30
0
11
158.935666
21
-12.5
31
0
39
0
210
0
220
0
230
1
0
LINE
5
178
100
AcDbEntity
8
SK2
62
256
6
ByLayer
370
13
48
1
60
0
100
AcDbLine
10
155.760666
20
-12.5
30
0
11
155.760666
21
32.215266
31
0
39
0
210
0
220
0
230
1
0
SOLID
5
179
100
AcDbEntity
8
SK2
62
256
6
ByLayer
370
13
48
1
60
0
100
AcDbTrace
10
155.760666
20
12.5
30
0
11
156.178662
21
9.325002
31
0
12
155.342669
22
9.324998
32
0
13
155.760666
23
12.5
33
0
39
0
210
0
220
0
230
1
0
SOLID
5
17A
100
AcDbEntity
8
SK2
62
256
6
ByLayer
370
13
48
1
60
0
100
AcDbTrace
10
155.760666
20
-12.5
30
0
11
155.342669
21
-9.325002
31
0
12
156.178662
22
-9.324998
32
0
13
155.760666
23
-12.5
33
0
39
0
210
0
220
0
230
1
0
ENDBLK
5
17C
100
AcDbEntity
8
0
100
AcDbBlockEnd
0
BLOCK
5
186
100
AcDbEntity
8
0
100
AcDbBlockBegin
2
DimnDraft3D4
70
0
10
0
20
0
30
0
3
DimnDraft3D4
0
MTEXT
5
17F
100
AcDbEntity
8
SK2
62
256
6
ByLayer
370
13
48
1
60
0
100
AcDbMText
10
-28.506251
20
-4.25309
30
0
210
0
220
0
230
1
1
%%c
40
3.175
41
0
44
1.084337
50
90
71
7
72
5
7
iso_b_vert
0
MTEXT
5
180
100
AcDbEntity
8
SK2
62
256
6
ByLayer
370
13
48
1
60
0
100
AcDbMText
10
-28.506251
20
3.659605
30
0
210
0
220
0
230
1
1
\W0.6740;32
40
3.175
41
0
44
1.084337
50
90
71
7
72
5
7
iso_b_vert
0
LINE
5
181
100
AcDbEntity
8
SK2
62
256
6
ByLayer
370
13
48
1
60
0
100
AcDbLine
10
-1.2875
20
16
30
0
11
-30.093751
21
16
31
0
39
0
210
0
220
0
230
1
0
LINE
5
182
100
AcDbEntity
8
SK2
62
256
6
ByLayer
370
13
48
1
60
0
100
AcDbLine
10
-1.2875
20
-16
30
0
11
-30.093751
21
-16
31
0
39
0
210
0
220
0
230
1
0
LINE
5
183
100
AcDbEntity
8
SK2
62
256
6
ByLayer
370
13
48
1
60
0
100
AcDbLine
10
-26.918751
20
16
30
0
11
-26.918751
21
-16
31
0
39
0
210
0
220
0
230
1
0
SOLID
5
184
100
AcDbEntity
8
SK2
62
256
6
ByLayer
370
13
48
1
60
0
100
AcDbTrace
10
-26.918751
20
16
30
0
11
-26.500754
21
12.825002
31
0
12
-27.336748
22
12.824998
32
0
13
-26.918751
23
16
33
0
39
0
210
0
220
0
230
1
0
SOLID
5
185
100
AcDbEntity
8
SK2
62
256
6
ByLayer
370
13
48
1
60
0
100
AcDbTrace
10
-26.918751
20
-16
30
0
11
-27.336748
21
-12.825002
31
0
12
-26.500754
22
-12.824998
32
0
13
-26.918751
23
-16
33
0
39
0
210
0
220
0
230
1
0
ENDBLK
5
187
100
AcDbEntity
8
0
100
AcDbBlockEnd
0
BLOCK
5
18A
100
AcDbEntity
8
0
100
AcDbBlockBegin
2
DimnDraft3D55
70
0
10
0
20
0
30
0
3
DimnDraft3D55
0
LINE
5
18C
100
AcDbEntity
8
SK2
62
256
6
ByLayer
370
25
48
1
60
0
100
AcDbLine
10
125
20
-1.5875
30
0
11
125
21
-28.537559
31
0
39
0
210
0
220
0
230
1
0
LINE
5
18D
100
AcDbEntity
8
SK2
62
256
6
ByLayer
370
25
48
1
60
0
100
AcDbLine
10
18.239803
20
-14.0875
30
0
11
18.239803
21
-28.537559
31
0
39
0
210
0
220
0
230
1
0
LINE
5
18E
100
AcDbEntity
8
SK2
62
256
6
ByLayer
370
25
48
1
60
0
100
AcDbLine
10
125
20
-25.362559
30
0
11
18.239803
21
-25.362559
31
0
39
0
210
0
220
0
230
1
0
SOLID
5
18F
100
AcDbEntity
8
SK2
62
256
6
ByLayer
370
25
48
1
60
0
100
AcDbTrace
10
125
20
-25.362559
30
0
11
121.825002
21
-25.780556
31
0
12
121.824998
22
-24.944562
32
0
13
125
23
-25.362559
33
0
39
0
210
0
220
0
230
1
0
SOLID
5
190
100
AcDbEntity
8
SK2
62
256
6
ByLayer
370
25
48
1
60
0
100
AcDbTrace
10
18.239803
20
-25.362559
30
0
11
21.414802
21
-24.944562
31
0
12
21.414805
22
-25.780556
32
0
13
18.239803
23
-25.362559
33
0
39
0
210
0
220
0
230
1
0
MTEXT
5
191
100
AcDbEntity
8
SK2
62
256
6
ByLayer
370
13
48
1
60
0
100
AcDbMText
10
67.981184
20
-24.568809
30
0
210
0
220
0
230
1
1
\W0.6713;106,8
40
3.175
41
0
44
1.084337
50
0
71
7
72
5
7
iso_b_vert
0
ENDBLK
5
18B
100
AcDbEntity
8
0
100
AcDbBlockEnd
0
BLOCK
5
19A
100
AcDbEntity
8
0
100
AcDbBlockBegin
2
DimnDraft3D6
70
0
10
0
20
0
30
0
3
DimnDraft3D6
0
MTEXT
5
194
100
AcDbEntity
8
SK2
62
256
6
ByLayer
370
13
48
1
60
0
100
AcDbMText
10
6.79398
20
-24.464845
30
0
210
0
220
0
230
1
1
\W0.5321;15
40
3.175
41
0
44
1.084337
50
0
71
7
72
5
7
iso_b_vert
0
LINE
5
195
100
AcDbEntity
8
SK2
62
256
6
ByLayer
370
13
48
1
60
0
100
AcDbLine
10
15
20
-17.5875
30
0
11
15
21
-28.433595
31
0
39
0
210
0
220
0
230
1
0
LINE
5
196
100
AcDbEntity
8
SK2
62
256
6
ByLayer
370
13
48
1
60
0
100
AcDbLine
10
0
20
-17.2875
30
0
11
0
21
-28.433595
31
0
39
0
210
0
220
0
230
1
0
LINE
5
197
100
AcDbEntity
8
SK2
62
256
6
ByLayer
370
13
48
1
60
0
100
AcDbLine
10
15
20
-25.258595
30
0
11
0
21
-25.258595
31
0
39
0
210
0
220
0
230
1
0
SOLID
5
198
100
AcDbEntity
8
SK2
62
256
6
ByLayer
370
13
48
1
60
0
100
AcDbTrace
10
15
20
-25.258595
30
0
11
11.825002
21
-25.676592
31
0
12
11.824998
22
-24.840598
32
0
13
15
23
-25.258595
33
0
39
0
210
0
220
0
230
1
0
SOLID
5
199
100
AcDbEntity
8
SK2
62
256
6
ByLayer
370
13
48
1
60
0
100
AcDbTrace
10
0
20
-25.258595
30
0
11
3.174998
21
-24.840598
31
0
12
3.175002
22
-25.676592
32
0
13
0
23
-25.258595
33
0
39
0
210
0
220
0
230
1
0
ENDBLK
5
19B
100
AcDbEntity
8
0
100
AcDbBlockEnd
0
ENDSEC
0
SECTION
2
ENTITIES
0
ARC
5
E7
100
AcDbEntity
8
1
62
256
6
ByLayer
370
18
48
1
60
0
100
AcDbCircle
39
0
10
-18.239803
20
15.5
30
0
40
3
210
0
220
0
230
-1
100
AcDbArc
50
270
51
345
0
ARC
5
E8
100
AcDbEntity
8
1
62
256
6
ByLayer
370
18
48
1
60
0
100
AcDbCircle
39
0
10
-18.239803
20
-15.5
30
0
40
3
210
0
220
0
230
-1
100
AcDbArc
50
15
51
90
0
ARC
5
E9
100
AcDbEntity
8
SK1
62
256
6
ByLayer
370
18
48
1
60
0
100
AcDbCircle
39
0
10
0.6
20
11.8
30
0
40
1
210
0
220
0
230
-1
100
AcDbArc
50
233.130102
51
246.421822
0
ARC
5
EA
100
AcDbEntity
8
SK1
62
256
6
ByLayer
370
18
48
1
60
0
100
AcDbCircle
39
0
10
0.6
20
-11.8
30
0
40
1
210
0
220
0
230
-1
100
AcDbArc
50
113.578178
51
126.869898
0
ARC
5
EB
100
AcDbEntity
8
1
62
256
6
ByLayer
370
18
48
1
60
0
100
AcDbCircle
39
0
10
122.8
20
-12.3
30
0
40
0.2
210
0
220
0
230
1
100
AcDbArc
50
270
51
0
0
ARC
5
EC
100
AcDbEntity
8
1
62
256
6
ByLayer
370
18
48
1
60
0
100
AcDbCircle
39
0
10
122.8
20
12.3
30
0
40
0.2
210
0
220
0
230
1
100
AcDbArc
50
0
51
90
0
CIRCLE
5
E6
100
AcDbEntity
8
1
62
256
6
ByLayer
370
18
48
1
60
0
100
AcDbCircle
10
117
20
0
30
0
40
1
39
0
210
0
220
0
230
1
0
ELLIPSE
5
ED
100
AcDbEntity
8
1
62
256
6
ByLayer
370
18
48
1
60
0
100
AcDbEllipse
10
-0.928203
20
0
30
0
11
7.49393430382534
21
15.7933993221998
31
0
210
0
220
0
230
1
40
0.341999
41
-1.08757920120055
42
-0.161466571197722
0
ELLIPSE
5
EE
100
AcDbEntity
8
1
62
256
6
ByLayer
370
18
48
1
60
0
100
AcDbEllipse
10
12.928203
20
0
30
0
11
-7.4939343038249
21
15.7933993221993
31
0
210
0
220
0
230
1
40
0.341999
41
0.161466571197726
42
1.08757920120057
0
ELLIPSE
5
EF
100
AcDbEntity
8
1
62
256
6
ByLayer
370
18
48
1
60
0
100
AcDbEllipse
10
-0.928203
20
0
30
0
11
-7.49393430382573
21
15.7933993222003
31
0
210
0
220
0
230
1
40
0.341999
41
-2.98012608239209
42
-2.05401345238927
0
ELLIPSE
5
F0
100
AcDbEntity
8
1
62
256
6
ByLayer
370
18
48
1
60
0
100
AcDbEllipse
10
12.928203
20
0
30
0
11
7.49393430382518
21
15.7933993221996
31
0
210
0
220
0
230
1
40
0.341999
41
2.05401345238924
42
2.98012608239208
0
POINT
5
6C
100
AcDbEntity
8
80
62
256
6
ByLayer
370
18
48
1
60
0
100
AcDbPoint
10
0
20
0
30
0
39
0
210
0
220
0
230
1
50
360
0
POINT
5
6E
100
AcDbEntity
8
81
62
256
6
ByLayer
370
18
48
1
60
0
100
AcDbPoint
10
125
20
0
30
0
39
0
210
0
220
0
230
1
50
360
0
SPLINE
5
F1
100
AcDbEntity
8
1
62
256
6
ByLayer
370
18
48
1
60
0
100
AcDbSpline
70
4
71
1
72
4
73
2
40
0
40
0
40
1
40
1
41
1
10
124.891512701874
20
12.0363807731143
30
0
41
1
10
124.521
20
12.4096736459909
30
0
0
SPLINE
5
F2
100
AcDbEntity
8
1
62
256
6
ByLayer
370
18
48
1
60
0
100
AcDbSpline
70
4
71
1
72
4
73
2
40
0
40
0
40
1
40
1
41
1
10
125.271
20
11.6235624996115
30
0
41
1
10
124.891512701874
20
12.0363807731143
30
0
0
SPLINE
5
F3
100
AcDbEntity
8
1
62
256
6
ByLayer
370
18
48
1
60
0
100
AcDbSpline
70
4
71
1
72
4
73
2
40
0
40
0
40
1
40
1
41
1
10
124.73225
20
12.0635253991507
30
0
41
1
10
125.271
20
11.5731557228463
30
0
0
SPLINE
5
F4
100
AcDbEntity
8
1
62
256
6
ByLayer
370
18
48
1
60
0
100
AcDbSpline
70
4
71
3
72
11
73
7
40
0
40
0
40
0
40
0
40
0.333087953316351
40
0.644813062810324
40
0.88287126776505
40
1
40
1
40
1
40
1
41
1
10
124.73225
20
11.9978393343988
30
0
41
1
10
124.715897099759
20
12.0165880876396
30
0
41
1
10
124.687920771365
20
12.0502576314821
30
0
41
1
10
124.65664016433
20
12.0921054132819
30
0
41
1
10
124.642933659516
20
12.1156284907934
30
0
41
1
10
124.641099965024
20
12.1229478471312
30
0
41
1
10
124.641000150798
20
12.1249009548997
30
0
0
SPLINE
5
F5
100
AcDbEntity
8
1
62
256
6
ByLayer
370
18
48
1
60
0
100
AcDbSpline
70
4
71
1
72
4
73
2
40
0
40
0
40
1
40
1
41
1
10
125.271
20
11.3686834087366
30
0
41
1
10
124.73225
20
11.9978393343988
30
0
0
SPLINE
5
F6
100
AcDbEntity
8
1
62
256
6
ByLayer
370
18
48
1
60
0
100
AcDbSpline
70
4
71
1
72
4
73
2
40
0
40
0
40
1
40
1
41
1
10
124.73225
20
11.7520750995911
30
0
41
1
10
125.271
20
11.282649339563
30
0
0
SPLINE
5
F7
100
AcDbEntity
8
1
62
256
6
ByLayer
370
18
48
1
60
0
100
AcDbSpline
70
4
71
3
72
11
73
7
40
0
40
0
40
0
40
0
40
0.4429446057502
40
0.734057798056112
40
0.961334347078454
40
1
40
1
40
1
40
1
41
1
10
124.73225
20
11.6507735624537
30
0
41
1
10
124.709952755052
20
11.6783205754549
30
0
41
1
10
124.679343684123
20
11.7199159520568
30
0
41
1
10
124.649582559341
20
11.7690068420046
30
0
41
1
10
124.641519733339
20
11.7903216832456
30
0
41
1
10
124.641013824334
20
11.7973188971531
30
0
41
1
10
124.641000283227
20
11.7982829874517
30
0
0
SPLINE
5
F8
100
AcDbEntity
8
1
62
256
6
ByLayer
370
18
48
1
60
0
100
AcDbSpline
70
4
71
1
72
4
73
2
40
0
40
0
40
1
40
1
41
1
10
125.271
20
10.9663904596632
30
0
41
1
10
124.73225
20
11.6507735624537
30
0
0
SPLINE
5
F9
100
AcDbEntity
8
1
62
256
6
ByLayer
370
18
48
1
60
0
100
AcDbSpline
70
4
71
1
72
4
73
2
40
0
40
0
40
1
40
1
41
1
10
124.73225
20
11.2946400224578
30
0
41
1
10
125.271
20
10.8412830815283
30
0
0
SPLINE
5
FA
100
AcDbEntity
8
1
62
256
6
ByLayer
370
18
48
1
60
0
100
AcDbSpline
70
4
71
3
72
11
73
7
40
0
40
0
40
0
40
0
40
0.480609355804225
40
0.77096820372795
40
0.996743393635326
40
1
40
1
40
1
40
1
41
1
10
124.73225
20
11.1538289619795
30
0
41
1
10
124.707756501219
20
11.1868640022235
30
0
41
1
10
124.676074980672
20
11.2356212246285
30
0
41
1
10
124.647127234279
20
11.2935532216922
30
0
41
1
10
124.641040607636
20
11.3172665208872
30
0
41
1
10
124.641000135914
20
11.3252530445039
30
0
41
1
10
124.641000006299
20
11.3253662263497
30
0
0
SPLINE
5
FB
100
AcDbEntity
8
1
62
256
6
ByLayer
370
18
48
1
60
0
100
AcDbSpline
70
4
71
1
72
4
73
2
40
0
40
0
40
1
40
1
41
1
10
125.271
20
10.3995902313265
30
0
41
1
10
124.73225
20
11.1538289619795
30
0
0
SPLINE
5
FC
100
AcDbEntity
8
1
62
256
6
ByLayer
370
18
48
1
60
0
100
AcDbSpline
70
4
71
1
72
4
73
2
40
0
40
0
40
1
40
1
41
1
10
124.73225
20
10.672465381878
30
0
41
1
10
125.271
20
10.2295484547522
30
0
0
SPLINE
5
FD
100
AcDbEntity
8
1
62
256
6
ByLayer
370
18
48
1
60
0
100
AcDbSpline
70
4
71
3
72
10
73
6
40
0
40
0
40
0
40
0
40
0.526917465956969
40
0.808564407964007
40
1
40
1
40
1
40
1
41
1
10
124.73225
20
10.4857177352157
30
0
41
1
10
124.705076955431
20
10.5263368124714
30
0
41
1
10
124.672737278581
20
10.5839549418005
30
0
41
1
10
124.645469848686
20
10.6514284861078
30
0
41
1
10
124.641483416014
20
10.6767751808335
30
0
41
1
10
124.641000443446
20
10.6862930857991
30
0
0
SPLINE
5
FE
100
AcDbEntity
8
1
62
256
6
ByLayer
370
18
48
1
60
0
100
AcDbSpline
70
4
71
1
72
4
73
2
40
0
40
0
40
1
40
1
41
1
10
125.271
20
9.63930673052837
30
0
41
1
10
124.73225
20
10.4857177352157
30
0
0
SPLINE
5
FF
100
AcDbEntity
8
1
62
256
6
ByLayer
370
18
48
1
60
0
100
AcDbSpline
70
4
71
1
72
4
73
2
40
0
40
0
40
1
40
1
41
1
10
124.73225
20
9.85439706008743
30
0
41
1
10
125.271
20
9.41429255559945
30
0
0
SPLINE
5
100
100
AcDbEntity
8
1
62
256
6
ByLayer
370
18
48
1
60
0
100
AcDbSpline
70
4
71
3
72
10
73
6
40
0
40
0
40
0
40
0
40
0.545679595672341
40
0.822040952921991
40
1
40
1
40
1
40
1
41
1
10
124.73225
20
9.61080914034506
30
0
41
1
10
124.704102118531
20
9.65864874010421
30
0
41
1
10
124.671578235156
20
9.72653713101796
30
0
41
1
10
124.645330471689
20
9.80611535457747
30
0
41
1
10
124.641527699899
20
9.83687106211837
30
0
41
1
10
124.641007037684
20
9.84835937641311
30
0
0
SPLINE
5
101
100
AcDbEntity
8
1
62
256
6
ByLayer
370
18
48
1
60
0
100
AcDbSpline
70
4
71
1
72
4
73
2
40
0
40
0
40
1
40
1
41
1
10
125.271
20
8.63458114276067
30
0
41
1
10
124.73225
20
9.61080914034506
30
0
0
SPLINE
5
102
100
AcDbEntity
8
1
62
256
6
ByLayer
370
18
48
1
60
0
100
AcDbSpline
70
4
71
1
72
4
73
2
40
0
40
0
40
1
40
1
41
1
10
124.73225
20
8.78588444656179
30
0
41
1
10
125.271
20
8.33601505857005
30
0
0
SPLINE
5
103
100
AcDbEntity
8
1
62
256
6
ByLayer
370
18
48
1
60
0
100
AcDbSpline
70
4
71
3
72
10
73
6
40
0
40
0
40
0
40
0
40
0.645741552554993
40
0.977472555209763
40
1
40
1
40
1
40
1
41
1
10
124.73225
20
8.46522464212636
30
0
41
1
10
124.697315858198
20
8.53382923621455
30
0
41
1
10
124.661112963558
20
8.63044234160287
30
0
41
1
10
124.641463524552
20
8.7262875338564
30
0
41
1
10
124.641011251805
20
8.7556970564151
30
0
41
1
10
124.641000449002
20
8.75755697857318
30
0
0
SPLINE
5
104
100
AcDbEntity
8
1
62
256
6
ByLayer
370
18
48
1
60
0
100
AcDbSpline
70
4
71
1
72
4
73
2
40
0
40
0
40
1
40
1
41
1
10
125.271
20
7.28496731472603
30
0
41
1
10
124.73225
20
8.46522464212637
30
0
0
SPLINE
5
105
100
AcDbEntity
8
1
62
256
6
ByLayer
370
18
48
1
60
0
100
AcDbSpline
70
4
71
1
72
4
73
2
40
0
40
0
40
1
40
1
41
1
10
124.73225
20
7.35862688270121
30
0
41
1
10
125.271
20
6.87200042134735
30
0
0
SPLINE
5
106
100
AcDbEntity
8
1
62
256
6
ByLayer
370
18
48
1
60
0
100
AcDbSpline
70
4
71
2
72
6
73
3
40
0
40
0
40
0
40
1
40
1
40
1
41
1
10
124.73225
20
6.91573598044249
30
0
41
1
10
124.647341250578
20
7.12057655727495
30
0
41
1
10
124.64100051912
20
7.29764901403886
30
0
0
SPLINE
5
107
100
AcDbEntity
8
1
62
256
6
ByLayer
370
18
48
1
60
0
100
AcDbSpline
70
4
71
1
72
4
73
2
40
0
40
0
40
1
40
1
41
1
10
125.271
20
5.3348388956308
30
0
41
1
10
124.73225
20
6.91573598044249
30
0
0
SPLINE
5
108
100
AcDbEntity
8
1
62
256
6
ByLayer
370
18
48
1
60
0
100
AcDbSpline
70
4
71
1
72
4
73
2
40
0
40
0
40
1
40
1
41
1
10
124.73225
20
5.28980280249555
30
0
41
1
10
125.271
20
4.67275427615122
30
0
0
SPLINE
5
109
100
AcDbEntity
8
1
62
256
6
ByLayer
370
18
48
1
60
0
100
AcDbSpline
70
4
71
3
72
10
73
6
40
0
40
0
40
0
40
0
40
0.525934623504239
40
0.824622818104747
40
1
40
1
40
1
40
1
41
1
10
124.73225
20
4.5683454401687
30
0
41
1
10
124.706220797638
20
4.67396709893657
30
0
41
1
10
124.674366906058
20
4.83778484638593
30
0
41
1
10
124.644503167958
20
5.03646938686783
30
0
41
1
10
124.641208193085
20
5.12715336956575
30
0
41
1
10
124.641027593363
20
5.16040734629456
30
0
0
SPLINE
5
10A
100
AcDbEntity
8
1
62
256
6
ByLayer
370
18
48
1
60
0
100
AcDbSpline
70
4
71
3
72
11
73
7
40
0
40
0
40
0
40
0
40
0.248044878400227
40
0.496900885465194
40
0.748091501936514
40
1
40
1
40
1
40
1
41
1
10
125.271
20
0.851623924067277
30
0
41
1
10
125.256504058157
20
1.16372341807578
30
0
41
1
10
125.212263697489
20
1.78685316374695
30
0
41
1
10
125.099071724144
20
2.71989445377738
30
0
41
1
10
124.940419097326
20
3.64892858913387
30
0
41
1
10
124.80648277038
20
4.26277359037254
30
0
41
1
10
124.73225
20
4.5683454401687
30
0
0
SPLINE
5
10B
100
AcDbEntity
8
1
62
256
6
ByLayer
370
18
48
1
60
0
100
AcDbSpline
70
4
71
3
72
11
73
7
40
0
40
0
40
0
40
0
40
0.248186657667954
40
0.497039963561376
40
0.748107727826597
40
1
40
1
40
1
40
1
41
1
10
124.73225
20
-4.5683454401687
30
0
41
1
10
124.805377571448
20
-4.2672954994748
30
0
41
1
10
124.937905855759
20
-3.66089892394095
30
0
41
1
10
125.096581763782
20
-2.73682557745096
30
0
41
1
10
125.211254211074
20
-1.79927606954585
30
0
41
1
10
125.256273819696
20
-1.16857474579321
30
0
41
1
10
125.271
20
-0.851623924067277
30
0
0
SPLINE
5
10C
100
AcDbEntity
8
1
62
256
6
ByLayer
370
18
48
1
60
0
100
AcDbSpline
70
4
71
3
72
14
73
10
40
0
40
0
40
0
40
0
40
0.109342584805106
40
0.182599253080383
40
0.256361666700851
40
0.323283419577519
40
0.426821569309567
40
0.620067492932271
40
1
40
1
40
1
40
1
41
1
10
124.732250000024
20
-5.28980280247635
30
0
41
1
10
124.725687804626
20
-5.297560282759
30
0
41
1
10
124.714353399258
20
-5.30777349770064
30
0
41
1
10
124.69696850813
20
-5.31729474570021
30
0
41
1
10
124.682858246388
20
-5.31822483399799
30
0
41
1
10
124.669531938377
20
-5.3113622573377
30
0
41
1
10
124.655485794365
20
-5.29135768964445
30
0
41
1
10
124.642912628438
20
-5.24024681003285
30
0
41
1
10
124.638980621897
20
-5.19359825871477
30
0
41
1
10
124.641039150681
20
-5.15905671087024
30
0
0
SPLINE
5
10D
100
AcDbEntity
8
1
62
256
6
ByLayer
370
18
48
1
60
0
100
AcDbSpline
70
4
71
1
72
4
73
2
40
0
40
0
40
1
40
1
41
1
10
125.271
20
-4.67275427615122
30
0
41
1
10
124.73225
20
-5.28980280249553
30
0
0
SPLINE
5
10E
100
AcDbEntity
8
1
62
256
6
ByLayer
370
18
48
1
60
0
100
AcDbSpline
70
4
71
1
72
4
73
2
40
0
40
0
40
1
40
1
41
1
10
124.73225
20
-6.91573598044248
30
0
41
1
10
125.271
20
-5.3348388956308
30
0
0
SPLINE
5
10F
100
AcDbEntity
8
1
62
256
6
ByLayer
370
18
48
1
60
0
100
AcDbSpline
70
4
71
3
72
14
73
10
40
0
40
0
40
0
40
0
40
0.0907799683164992
40
0.242088607027801
40
0.355695581184126
40
0.469180356968485
40
0.632539634262427
40
0.912014528228866
40
1
40
1
40
1
40
1
41
1
10
124.732250000006
20
-7.35862688269814
30
0
41
1
10
124.727395342641
20
-7.36309200926983
30
0
41
1
10
124.71446466206
20
-7.37348895244816
30
0
41
1
10
124.694483105227
20
-7.38461738912767
30
0
41
1
10
124.675240870768
20
-7.38626791884762
30
0
41
1
10
124.659631515193
20
-7.37846582208443
30
0
41
1
10
124.645717173161
20
-7.35534584137323
30
0
41
1
10
124.641483505943
20
-7.32455555062664
30
0
41
1
10
124.640930912185
20
-7.3020073690269
30
0
41
1
10
124.641004696959
20
-7.29644401145868
30
0
0
SPLINE
5
110
100
AcDbEntity
8
1
62
256
6
ByLayer
370
18
48
1
60
0
100
AcDbSpline
70
4
71
1
72
4
73
2
40
0
40
0
40
1
40
1
41
1
10
125.271
20
-6.87200042134735
30
0
41
1
10
124.73225
20
-7.35862688270122
30
0
0
SPLINE
5
111
100
AcDbEntity
8
1
62
256
6
ByLayer
370
18
48
1
60
0
100
AcDbSpline
70
4
71
1
72
4
73
2
40
0
40
0
40
1
40
1
41
1
10
124.73225
20
-8.46522464212636
30
0
41
1
10
125.271
20
-7.28496731472603
30
0
0
SPLINE
5
112
100
AcDbEntity
8
1
62
256
6
ByLayer
370
18
48
1
60
0
100
AcDbSpline
70
4
71
3
72
13
73
9
40
0
40
0
40
0
40
0
40
0.130307103749794
40
0.323908710135234
40
0.494817830063411
40
0.639384076730601
40
0.866836580659598
40
1
40
1
40
1
40
1
41
1
10
124.732250000002
20
-8.78588444656103
30
0
41
1
10
124.725538358709
20
-8.79161630959276
30
0
41
1
10
124.709210578845
20
-8.80369891602728
30
0
41
1
10
124.683879739629
20
-8.81617024418503
30
0
41
1
10
124.662748752799
20
-8.81515089058575
30
0
41
1
10
124.647921319459
20
-8.80213138192733
30
0
41
1
10
124.64190188829
20
-8.78097308248885
30
0
41
1
10
124.640842118156
20
-8.76353317479932
30
0
41
1
10
124.641005277413
20
-8.75656778647347
30
0
0
SPLINE
5
113
100
AcDbEntity
8
1
62
256
6
ByLayer
370
18
48
1
60
0
100
AcDbSpline
70
4
71
1
72
4
73
2
40
0
40
0
40
1
40
1
41
1
10
125.271
20
-8.33601505857005
30
0
41
1
10
124.73225
20
-8.78588444656179
30
0
0
SPLINE
5
114
100
AcDbEntity
8
1
62
256
6
ByLayer
370
18
48
1
60
0
100
AcDbSpline
70
4
71
1
72
4
73
2
40
0
40
0
40
1
40
1
41
1
10
124.73225
20
-9.61080914034506
30
0
41
1
10
125.271
20
-8.63458114276067
30
0
0
SPLINE
5
115
100
AcDbEntity
8
1
62
256
6
ByLayer
370
18
48
1
60
0
100
AcDbSpline
70
4
71
3
72
13
73
9
40
0
40
0
40
0
40
0
40
0.167240470114934
40
0.362015125418052
40
0.558092142198138
40
0.727011612384571
40
0.966209183304103
40
1
40
1
40
1
40
1
41
1
10
124.732250000001
20
-9.85439706008716
30
0
41
1
10
124.723889335677
20
-9.8613627454527
30
0
41
1
10
124.706408324265
20
-9.87407950636638
30
0
41
1
10
124.68002421729
20
-9.88764270671052
30
0
41
1
10
124.658795135828
20
-9.88901189296134
30
0
41
1
10
124.6446930768
20
-9.87779025991197
30
0
41
1
10
124.641211388179
20
-9.86196359465082
30
0
41
1
10
124.640991603466
20
-9.85073318741976
30
0
41
1
10
124.641000369587
20
-9.84930867733357
30
0
0
SPLINE
5
116
100
AcDbEntity
8
1
62
256
6
ByLayer
370
18
48
1
60
0
100
AcDbSpline
70
4
71
1
72
4
73
2
40
0
40
0
40
1
40
1
41
1
10
125.271
20
-9.41429255559945
30
0
41
1
10
124.73225
20
-9.85439706008743
30
0
0
SPLINE
5
117
100
AcDbEntity
8
1
62
256
6
ByLayer
370
18
48
1
60
0
100
AcDbSpline
70
4
71
1
72
4
73
2
40
0
40
0
40
1
40
1
41
1
10
124.73225
20
-10.4857177352157
30
0
41
1
10
125.271
20
-9.63930673052837
30
0
0
SPLINE
5
118
100
AcDbEntity
8
1
62
256
6
ByLayer
370
18
48
1
60
0
100
AcDbSpline
70
4
71
3
72
12
73
8
40
0
40
0
40
0
40
0
40
0.200181900414792
40
0.41438902371132
40
0.63002844442961
40
0.815820213355145
40
1
40
1
40
1
40
1
41
1
10
124.73225
20
-10.6724653818778
30
0
41
1
10
124.722350770154
20
-10.6807412049953
30
0
41
1
10
124.702858884509
20
-10.6951744690972
30
0
41
1
10
124.67465213726
20
-10.7105743498161
30
0
41
1
10
124.653651694288
20
-10.7131954498675
30
0
41
1
10
124.642892486012
20
-10.7035659632027
30
0
41
1
10
124.640813208929
20
-10.6928448237194
30
0
41
1
10
124.641001095817
20
-10.6861577308969
30
0
0
SPLINE
5
119
100
AcDbEntity
8
1
62
256
6
ByLayer
370
18
48
1
60
0
100
AcDbSpline
70
4
71
1
72
4
73
2
40
0
40
0
40
1
40
1
41
1
10
125.271
20
-10.2295484547522
30
0
41
1
10
124.73225
20
-10.672465381878
30
0
0
SPLINE
5
11A
100
AcDbEntity
8
1
62
256
6
ByLayer
370
18
48
1
60
0
100
AcDbSpline
70
4
71
1
72
4
73
2
40
0
40
0
40
1
40
1
41
1
10
124.73225
20
-11.1538289619795
30
0
41
1
10
125.271
20
-10.3995902313265
30
0
0
SPLINE
5
11B
100
AcDbEntity
8
1
62
256
6
ByLayer
370
18
48
1
60
0
100
AcDbSpline
70
4
71
3
72
12
73
8
40
0
40
0
40
0
40
0
40
0.231480102558253
40
0.462123651622602
40
0.694380869318169
40
0.893083043456552
40
1
40
1
40
1
40
1
41
1
10
124.73225
20
-11.2946400224578
30
0
41
1
10
124.720885070444
20
-11.3043276532536
30
0
41
1
10
124.699624154611
20
-11.3206922624265
30
0
41
1
10
124.670008557052
20
-11.3384806826822
30
0
41
1
10
124.649612503947
20
-11.3428461089969
30
0
41
1
10
124.64197820197
20
-11.3355180180312
30
0
41
1
10
124.640943894422
20
-11.328156115494
30
0
41
1
10
124.641000908894
20
-11.3251321151027
30
0
0
SPLINE
5
11C
100
AcDbEntity
8
1
62
256
6
ByLayer
370
18
48
1
60
0
100
AcDbSpline
70
4
71
1
72
4
73
2
40
0
40
0
40
1
40
1
41
1
10
125.271
20
-10.8412830815283
30
0
41
1
10
124.73225
20
-11.2946400224579
30
0
0
SPLINE
5
11D
100
AcDbEntity
8
1
62
256
6
ByLayer
370
18
48
1
60
0
100
AcDbSpline
70
4
71
1
72
4
73
2
40
0
40
0
40
1
40
1
41
1
10
124.73225
20
-11.6507735624537
30
0
41
1
10
125.271
20
-10.9663904596632
30
0
0
SPLINE
5
11E
100
AcDbEntity
8
1
62
256
6
ByLayer
370
18
48
1
60
0
100
AcDbSpline
70
4
71
3
72
12
73
8
40
0
40
0
40
0
40
0
40
0.261950786946869
40
0.506820095807945
40
0.753518780296054
40
0.962397106901304
40
1
40
1
40
1
40
1
41
1
10
124.73225
20
-11.7520750995911
30
0
41
1
10
124.719457057234
20
-11.7633166138184
30
0
41
1
10
124.696605576442
20
-11.7818651776419
30
0
41
1
10
124.665919907703
20
-11.802547568362
30
0
41
1
10
124.646386257931
20
-11.809151785785
30
0
41
1
10
124.641309208965
20
-11.8038910801296
30
0
41
1
10
124.640994952719
20
-11.7991200467866
30
0
41
1
10
124.641000064647
20
-11.7983365902929
30
0
0
SPLINE
5
11F
100
AcDbEntity
8
1
62
256
6
ByLayer
370
18
48
1
60
0
100
AcDbSpline
70
4
71
1
72
4
73
2
40
0
40
0
40
1
40
1
41
1
10
125.271
20
-11.282649339563
30
0
41
1
10
124.73225
20
-11.7520750995911
30
0
0
SPLINE
5
120
100
AcDbEntity
8
1
62
256
6
ByLayer
370
18
48
1
60
0
100
AcDbSpline
70
4
71
1
72
4
73
2
40
0
40
0
40
1
40
1
41
1
10
124.73225
20
-11.9978393343988
30
0
41
1
10
125.271
20
-11.3686834087366
30
0
0
SPLINE
5
121
100
AcDbEntity
8
1
62
256
6
ByLayer
370
18
48
1
60
0
100
AcDbSpline
70
4
71
3
72
12
73
8
40
0
40
0
40
0
40
0
40
0.290983322097275
40
0.547294733627096
40
0.762967008538279
40
0.979204130115368
40
1
40
1
40
1
40
1
41
1
10
124.73225
20
-12.0635253991506
30
0
41
1
10
124.718037755791
20
-12.0765081431125
30
0
41
1
10
124.693730705964
20
-12.0975441788766
30
0
41
1
10
124.663921863982
20
-12.1203534086869
30
0
41
1
10
124.645762867167
20
-12.1301210985049
30
0
41
1
10
124.641179049469
20
-12.1283485956462
30
0
41
1
10
124.640999091514
20
-12.1252304965168
30
0
41
1
10
124.641000006457
20
-12.1249394678571
30
0
0
SPLINE
5
122
100
AcDbEntity
8
1
62
256
6
ByLayer
370
18
48
1
60
0
100
AcDbSpline
70
4
71
1
72
4
73
2
40
0
40
0
40
1
40
1
41
1
10
125.271
20
-11.5731557228463
30
0
41
1
10
124.73225
20
-12.0635253991507
30
0
0
SPLINE
5
123
100
AcDbEntity
8
1
62
256
6
ByLayer
370
18
48
1
60
0
100
AcDbSpline
70
4
71
1
72
4
73
2
40
0
40
0
40
1
40
1
41
1
10
124.891512701892
20
-12.0363807730961
30
0
41
1
10
125.271
20
-11.6235624996115
30
0
0
SPLINE
5
124
100
AcDbEntity
8
1
62
256
6
ByLayer
370
18
48
1
60
0
100
AcDbSpline
70
4
71
1
72
4
73
2
40
0
40
0
40
1
40
1
41
1
10
124.521
20
-12.4096736459909
30
0
41
1
10
124.891512701892
20
-12.0363807730961
30
0
0
SPLINE
5
125
100
AcDbEntity
8
1
62
256
6
ByLayer
370
18
48
1
60
0
100
AcDbSpline
70
4
71
3
72
12
73
8
40
0
40
0
40
0
40
0
40
0.161041411172448
40
0.378077417277446
40
0.594336089218298
40
0.809144954305116
40
1
40
1
40
1
40
1
41
1
10
123
20
12.2081939696255
30
0
41
1
10
123.000072883785
20
12.2254826724895
30
0
41
1
10
123.004905478706
20
12.2644874705019
30
0
41
1
10
123.030774997812
20
12.3228036501493
30
0
41
1
10
123.078157106319
20
12.3728931578656
30
0
41
1
10
123.137672606473
20
12.4032634191512
30
0
41
1
10
123.179329921607
20
12.4095223707118
30
0
41
1
10
123.2
20
12.4096736459909
30
0
0
SPLINE
5
126
100
AcDbEntity
8
1
62
256
6
ByLayer
370
18
48
1
60
0
100
AcDbSpline
70
4
71
3
72
13
73
9
40
0
40
0
40
0
40
0
40
0.139344704209807
40
0.270121078087862
40
0.484185705642471
40
0.698205281888943
40
0.913344316749217
40
1
40
1
40
1
40
1
41
1
10
123.2
20
-12.4096736459938
30
0
41
1
10
123.185148869071
20
-12.4096342929657
30
0
41
1
10
123.157118686187
20
-12.4065370094304
30
0
41
1
10
123.108605844172
20
-12.3902688738491
30
0
41
1
10
123.059254855499
20
-12.3566911572723
30
0
41
1
10
123.018459864189
20
-12.3015865017274
30
0
41
1
10
123.002098340451
20
-12.2487755492513
30
0
41
1
10
123.000008885495
20
-12.2173607818455
30
0
41
1
10
122.999999999989
20
-12.208193969627
30
0
0
SPLINE
5
127
100
AcDbEntity
8
1
62
256
6
ByLayer
370
18
48
1
60
0
100
AcDbSpline
70
4
71
3
72
14
73
10
40
0
40
0
40
0
40
0
40
0.26712046690693
40
0.575029237593559
40
0.670372036100266
40
0.743598405040174
40
0.817203495589859
40
0.884392368803726
40
1
40
1
40
1
40
1
41
1
10
124.641027593363
20
5.16040734629456
30
0
41
1
10
124.640074209011
20
5.18399829609843
30
0
41
1
10
124.64280075747
20
5.23110439232336
30
0
41
1
10
124.651390926651
20
5.28535142767696
30
0
41
1
10
124.669601020314
20
5.31133846389615
30
0
41
1
10
124.682704964574
20
5.31829009007506
30
0
41
1
10
124.696754376304
20
5.31724730425011
30
0
41
1
10
124.71401352582
20
5.30807017581153
30
0
41
1
10
124.725334917773
20
5.29799592781705
30
0
41
1
10
124.73225
20
5.28980280249555
30
0
0
SPLINE
5
128
100
AcDbEntity
8
1
62
256
6
ByLayer
370
18
48
1
60
0
100
AcDbSpline
70
4
71
3
72
10
73
6
40
0
40
0
40
0
40
0
40
0.10328800906817
40
0.550967073567641
40
1
40
1
40
1
40
1
41
1
10
124.641039150681
20
-5.15905671087024
30
0
41
1
10
124.641432470523
20
-5.13946378441799
30
0
41
1
10
124.645099443266
20
-5.03450250879099
30
0
41
1
10
124.672470237674
20
-4.83600437177487
30
0
41
1
10
124.709256831476
20
-4.6582743889595
30
0
41
1
10
124.73225
20
-4.56834544016871
30
0
0
SPLINE
5
129
100
AcDbEntity
8
1
62
256
6
ByLayer
370
18
48
1
60
0
100
AcDbSpline
70
4
71
3
72
14
73
10
40
0
40
0
40
0
40
0
40
0.0390141540525788
40
0.337072844639795
40
0.490534566057316
40
0.61861352064628
40
0.747478255881212
40
0.86107491859794
40
1
40
1
40
1
40
1
41
1
10
124.64100051912
20
7.29764901403886
30
0
41
1
10
124.640988669223
20
7.30008174002103
30
0
41
1
10
124.641216609858
20
7.32084305396509
30
0
41
1
10
124.64426479956
20
7.34977579165449
30
0
41
1
10
124.657011557995
20
7.3753623663644
30
0
41
1
10
124.671943896654
20
7.3858780725401
30
0
41
1
10
124.690336405742
20
7.38558726106177
30
0
41
1
10
124.711284997506
20
7.3757241746976
30
0
41
1
10
124.72477625305
20
7.36558081082204
30
0
41
1
10
124.73225
20
7.35862688270121
30
0
0
SPLINE
5
12A
100
AcDbEntity
8
1
62
256
6
ByLayer
370
18
48
1
60
0
100
AcDbSpline
70
4
71
2
72
6
73
3
40
0
40
0
40
0
40
1
40
1
40
1
41
1
10
124.641004696959
20
-7.29644401145868
30
0
41
1
10
124.649760437173
20
-7.11785984629924
30
0
41
1
10
124.73225
20
-6.91573598044246
30
0
0
SPLINE
5
12B
100
AcDbEntity
8
1
62
256
6
ByLayer
370
18
48
1
60
0
100
AcDbSpline
70
4
71
3
72
13
73
9
40
0
40
0
40
0
40
0
40
0.197408238358988
40
0.433517811964383
40
0.583072919887796
40
0.732915986575643
40
0.914100266742628
40
1
40
1
40
1
40
1
41
1
10
124.641000449002
20
8.75755697857318
30
0
41
1
10
124.640670355196
20
8.76802344691722
30
0
41
1
10
124.642840548213
20
8.78800347088268
30
0
41
1
10
124.652740403298
20
8.80952052104318
30
0
41
1
10
124.671174644796
20
8.81675099498914
30
0
41
1
10
124.693111653422
20
8.81252282735975
30
0
41
1
10
124.714483797195
20
8.79994491151437
30
0
41
1
10
124.727901031238
20
8.78956030944886
30
0
41
1
10
124.732250000033
20
8.78588444655163
30
0
0
SPLINE
5
12C
100
AcDbEntity
8
1
62
256
6
ByLayer
370
18
48
1
60
0
100
AcDbSpline
70
4
71
3
72
10
73
6
40
0
40
0
40
0
40
0
40
0.158074141884703
40
0.61872332098089
40
1
40
1
40
1
40
1
41
1
10
124.641005277413
20
-8.75656778647347
30
0
41
1
10
124.641509504892
20
-8.74313839359063
30
0
41
1
10
124.646174533825
20
-8.68935801067674
30
0
41
1
10
124.677340766494
20
-8.58857099215641
30
0
41
1
10
124.712930301786
20
-8.50440247556589
30
0
41
1
10
124.73225
20
-8.46522464212636
30
0
0
SPLINE
5
12D
100
AcDbEntity
8
1
62
256
6
ByLayer
370
18
48
1
60
0
100
AcDbSpline
70
4
71
3
72
10
73
6
40
0
40
0
40
0
40
0
40
0.231487098965076
40
0.670623613354781
40
1
40
1
40
1
40
1
41
1
10
124.641000369587
20
-9.84930867733357
30
0
41
1
10
124.641884898263
20
-9.83403972200337
30
0
41
1
10
124.648550907168
20
-9.78772811218212
30
0
41
1
10
124.682448406439
20
-9.70356230246134
30
0
41
1
10
124.715730844018
20
-9.63922941005738
30
0
41
1
10
124.73225
20
-9.61080914034505
30
0
0
SPLINE
5
12E
100
AcDbEntity
8
1
62
256
6
ByLayer
370
18
48
1
60
0
100
AcDbSpline
70
4
71
3
72
13
73
9
40
0
40
0
40
0
40
0
40
0.149091420999598
40
0.342542673938165
40
0.537436452174669
40
0.709329403864485
40
0.925170870121951
40
1
40
1
40
1
40
1
41
1
10
124.641007037684
20
9.84835937641311
30
0
41
1
10
124.64081143298
20
9.85490965216278
30
0
41
1
10
124.642105620229
20
9.86817996442208
30
0
41
1
10
124.649602776803
20
9.88424598499666
30
0
41
1
10
124.666558963067
20
9.88994274271424
30
0
41
1
10
124.691484334629
20
9.88290254486097
30
0
41
1
10
124.714287821628
20
9.86854415598925
30
0
41
1
10
124.728542939606
20
9.8574488747899
30
0
41
1
10
124.732250000003
20
9.85439706008652
30
0
0
SPLINE
5
12F
100
AcDbEntity
8
1
62
256
6
ByLayer
370
18
48
1
60
0
100
AcDbSpline
70
4
71
3
72
13
73
9
40
0
40
0
40
0
40
0
40
0.047490076890026
40
0.262176384730804
40
0.478365749104832
40
0.665736863586019
40
0.907797407895783
40
1
40
1
40
1
40
1
41
1
10
124.641000443446
20
10.6862930857991
30
0
41
1
10
124.640985630284
20
10.6879440243469
30
0
41
1
10
124.641330344465
20
10.6966292438395
30
0
41
1
10
124.645715173158
20
10.7092414453006
30
0
41
1
10
124.661908261157
20
10.7135427262871
30
0
41
1
10
124.687321347321
20
10.7047460876007
30
0
41
1
10
124.711867750692
20
10.6886761888625
30
0
41
1
10
124.727786622404
20
10.6761589357035
30
0
41
1
10
124.732250000005
20
10.6724653818764
30
0
0
SPLINE
5
130
100
AcDbEntity
8
1
62
256
6
ByLayer
370
18
48
1
60
0
100
AcDbSpline
70
4
71
3
72
11
73
7
40
0
40
0
40
0
40
0
40
0.0483188377386278
40
0.32167669279316
40
0.7605440607364
40
1
40
1
40
1
40
1
41
1
10
124.641001095817
20
-10.6861577308969
30
0
41
1
10
124.641036468705
20
-10.6838642190676
30
0
41
1
10
124.64185702375
20
-10.6681603154257
30
0
41
1
10
124.655423283263
20
-10.6213509600996
30
0
41
1
10
124.690032029038
20
-10.5530332434686
30
0
41
1
10
124.720478739271
20
-10.5035635793041
30
0
41
1
10
124.732249999995
20
-10.4857177352159
30
0
0
SPLINE
5
131
100
AcDbEntity
8
1
62
256
6
ByLayer
370
18
48
1
60
0
100
AcDbSpline
70
4
71
3
72
12
73
8
40
0
40
0
40
0
40
0
40
0.21348410238412
40
0.432168674349097
40
0.628620877039042
40
0.893256422038493
40
1
40
1
40
1
40
1
41
1
10
124.641000006299
20
11.3253662263497
30
0
41
1
10
124.640891758172
20
11.3315613616354
30
0
41
1
10
124.643993477246
20
11.3402431446011
30
0
41
1
10
124.658815665029
20
11.3420594990345
30
0
41
1
10
124.683909325859
20
11.3310850013292
30
0
41
1
10
124.709758570348
20
11.3130368323155
30
0
41
1
10
124.727142031516
20
11.2989573809917
30
0
41
1
10
124.732250000006
20
11.2946400224557
30
0
0
SPLINE
5
132
100
AcDbEntity
8
1
62
256
6
ByLayer
370
18
48
1
60
0
100
AcDbSpline
70
4
71
3
72
11
73
7
40
0
40
0
40
0
40
0
40
0.114908749294114
40
0.397853912834056
40
0.828489753563109
40
1
40
1
40
1
40
1
41
1
10
124.641000908894
20
-11.3251321151027
30
0
41
1
10
124.641159414802
20
-11.3209561428857
30
0
41
1
10
124.643297472435
20
-11.3052649910631
30
0
41
1
10
124.661986939533
20
-11.260521717925
30
0
41
1
10
124.696422459188
20
-11.2042674299904
30
0
41
1
10
124.723938246981
20
-11.1651688138049
30
0
41
1
10
124.73225
20
-11.1538289619795
30
0
0
SPLINE
5
133
100
AcDbEntity
8
1
62
256
6
ByLayer
370
18
48
1
60
0
100
AcDbSpline
70
4
71
3
72
12
73
8
40
0
40
0
40
0
40
0
40
0.170659557561946
40
0.387451261764431
40
0.589665989295012
40
0.871605397554894
40
1
40
1
40
1
40
1
41
1
10
124.641000283227
20
11.7982829874517
30
0
41
1
10
124.640952071143
20
11.8019637786855
30
0
41
1
10
124.643266227553
20
11.8076075159008
30
0
41
1
10
124.655736710408
20
11.8068897417832
30
0
41
1
10
124.68000598631
20
11.7938342496183
30
0
41
1
10
124.707117248023
20
11.7734439340102
30
0
41
1
10
124.726121115317
20
11.7574269990051
30
0
41
1
10
124.732250000011
20
11.7520750995866
30
0
0
SPLINE
5
134
100
AcDbEntity
8
1
62
256
6
ByLayer
370
18
48
1
60
0
100
AcDbSpline
70
4
71
3
72
11
73
7
40
0
40
0
40
0
40
0
40
0.143612839063674
40
0.415788673195483
40
0.813100232698537
40
1
40
1
40
1
40
1
41
1
10
124.641000064647
20
-11.7983365902929
30
0
41
1
10
124.641196935113
20
-11.7945588509816
30
0
41
1
10
124.643826138242
20
-11.7819032940044
30
0
41
1
10
124.663209853271
20
-11.7444605532104
30
0
41
1
10
124.696704781508
20
-11.6962103252866
30
0
41
1
10
124.723221037977
20
-11.6620103753937
30
0
41
1
10
124.73225
20
-11.6507735624533
30
0
0
SPLINE
5
135
100
AcDbEntity
8
1
62
256
6
ByLayer
370
18
48
1
60
0
100
AcDbSpline
70
4
71
3
72
11
73
7
40
0
40
0
40
0
40
0
40
0.16525299931744
40
0.425192053112706
40
0.791705976488197
40
1
40
1
40
1
40
1
41
1
10
124.641000006457
20
-12.1249394678571
30
0
41
1
10
124.64122382811
20
-12.1220767441879
30
0
41
1
10
124.644217894085
20
-12.1125470916562
30
0
41
1
10
124.663709176019
20
-12.0817929418507
30
0
41
1
10
124.696333454391
20
-12.0399776818316
30
0
41
1
10
124.722209659759
20
-12.0093765331493
30
0
41
1
10
124.73225
20
-11.997839334396
30
0
0
SPLINE
5
136
100
AcDbEntity
8
1
62
256
6
ByLayer
370
18
48
1
60
0
100
AcDbSpline
70
4
71
3
72
12
73
8
40
0
40
0
40
0
40
0
40
0.0875404208707726
40
0.306019354289509
40
0.511065355130433
40
0.794892985150538
40
1
40
1
40
1
40
1
41
1
10
124.641000150798
20
12.1249009548997
30
0
41
1
10
124.640988042082
20
12.1261473956113
30
0
41
1
10
124.641964833701
20
12.1294168157099
30
0
41
1
10
124.649924908218
20
12.1284642409282
30
0
41
1
10
124.671321865837
20
12.1151467098039
30
0
41
1
10
124.700224472356
20
12.091987134192
30
0
41
1
10
124.722390423519
20
12.0725084367706
30
0
41
1
10
124.73225
20
12.0635253991507
30
0
0
SPLINE
5
137
100
AcDbEntity
8
1
62
256
6
ByLayer
370
18
48
1
60
0
100
AcDbSpline
70
4
71
3
72
13
73
9
40
0
40
0
40
0
40
0
40
0.0874197665477723
40
0.540457817729251
40
0.699042387760906
40
0.858779326391025
40
0.970456363405495
40
1
40
1
40
1
40
1
41
1
10
7.33660254037846
20
15.1759383782003
30
0
41
1
10
7.33342550865314
20
15.1799355612691
30
0
41
1
10
7.31166013256378
20
15.2042699474535
30
0
41
1
10
7.27178344267958
20
15.2346583807313
30
0
41
1
10
7.19873884954073
20
15.2615420329401
30
0
41
1
10
7.14612231331123
20
15.2729932538429
30
0
41
1
10
7.10211914494808
20
15.2766772767309
30
0
41
1
10
7.08120951320834
20
15.2769590561243
30
0
41
1
10
7.07679491924313
20
15.2769622091385
30
0
0
SPLINE
5
138
100
AcDbEntity
8
1
62
256
6
ByLayer
370
18
48
1
60
0
100
AcDbSpline
70
4
71
3
72
12
73
8
40
0
40
0
40
0
40
0
40
0.0828102770095041
40
0.189561422336116
40
0.367021597629799
40
0.681916173901672
40
1
40
1
40
1
40
1
41
1
10
4.9232050807569
20
15.2769622091385
30
0
41
1
10
4.91061181713239
20
15.2769076079451
30
0
41
1
10
4.88276952190018
20
15.2758609681751
30
0
41
1
10
4.83200521362583
20
15.2691148599318
30
0
41
1
10
4.76513871687902
20
15.2508645320147
30
0
41
1
10
4.70536421945504
20
15.218294455327
30
0
41
1
10
4.67399435531623
20
15.190779394432
30
0
41
1
10
4.66339745962157
20
15.1759383782003
30
0
0
SPLINE
5
139
100
AcDbEntity
8
1
62
256
6
ByLayer
370
18
48
1
60
0
100
AcDbSpline
70
4
71
3
72
13
73
9
40
0
40
0
40
0
40
0
40
0.0874197665478271
40
0.540457817729239
40
0.69904238776094
40
0.858779326391024
40
0.9704563634055
40
1
40
1
40
1
40
1
41
1
10
4.66339745962154
20
5.06861858311167
30
0
41
1
10
4.66657449134686
20
5.05664560113499
30
0
41
1
10
4.68833986743619
20
4.98352541955001
30
0
41
1
10
4.72821655732043
20
4.88975043989213
30
0
41
1
10
4.80126115045926
20
4.80480584805322
30
0
41
1
10
4.85387768668878
20
4.76821585613364
30
0
41
1
10
4.89788085505191
20
4.75637718499453
30
0
41
1
10
4.91879048679167
20
4.75547318758226
30
0
41
1
10
4.92320508075687
20
4.75546271781756
30
0
0
SPLINE
5
13A
100
AcDbEntity
8
1
62
256
6
ByLayer
370
18
48
1
60
0
100
AcDbSpline
70
4
71
3
72
12
73
8
40
0
40
0
40
0
40
0
40
0.0828102770095353
40
0.189561422336139
40
0.367021597629856
40
0.681916173901721
40
1
40
1
40
1
40
1
41
1
10
7.0767949192431
20
4.75546271781755
30
0
41
1
10
7.08938818286761
20
4.75564329392523
30
0
41
1
10
7.11723047809983
20
4.75899916633239
30
0
41
1
10
7.16799478637417
20
4.78063862996506
30
0
41
1
10
7.23486128312097
20
4.83875066981869
30
0
41
1
10
7.29463578054496
20
4.94061818158886
30
0
41
1
10
7.32600564468376
20
5.02406843889272
30
0
41
1
10
7.33660254037842
20
5.06861858311163
30
0
0
SPLINE
5
13B
100
AcDbEntity
8
1
62
256
6
ByLayer
370
18
48
1
60
0
100
AcDbSpline
70
4
71
3
72
13
73
9
40
0
40
0
40
0
40
0
40
0.0874197665478143
40
0.540457817729351
40
0.699042387760962
40
0.858779326391059
40
0.970456363405516
40
1
40
1
40
1
40
1
41
1
10
7.33660254037846
20
-5.06861858311174
30
0
41
1
10
7.33342550865314
20
-5.05664560113507
30
0
41
1
10
7.3116601325638
20
-4.98352541955008
30
0
41
1
10
7.27178344267955
20
-4.88975043989222
30
0
41
1
10
7.19873884954071
20
-4.80480584805329
30
0
41
1
10
7.14612231331122
20
-4.76821585613375
30
0
41
1
10
7.10211914494805
20
-4.75637718499466
30
0
41
1
10
7.08120951320834
20
-4.75547318758236
30
0
41
1
10
7.07679491924313
20
-4.75546271781766
30
0
0
SPLINE
5
13C
100
AcDbEntity
8
1
62
256
6
ByLayer
370
18
48
1
60
0
100
AcDbSpline
70
4
71
3
72
12
73
8
40
0
40
0
40
0
40
0
40
0.0828102770095304
40
0.189561422336131
40
0.367021597629815
40
0.68191617390169
40
1
40
1
40
1
40
1
41
1
10
4.9232050807569
20
-4.75546271781763
30
0
41
1
10
4.91061181713239
20
-4.75564329392532
30
0
41
1
10
4.88276952190017
20
-4.75899916633251
30
0
41
1
10
4.83200521362584
20
-4.78063862996518
30
0
41
1
10
4.76513871687902
20
-4.8387506698188
30
0
41
1
10
4.70536421945504
20
-4.94061818158898
30
0
41
1
10
4.67399435531623
20
-5.02406843889286
30
0
41
1
10
4.66339745962157
20
-5.06861858311178
30
0
0
SPLINE
5
13D
100
AcDbEntity
8
1
62
256
6
ByLayer
370
18
48
1
60
0
100
AcDbSpline
70
4
71
3
72
13
73
9
40
0
40
0
40
0
40
0
40
0.0874197665477963
40
0.540457817729253
40
0.699042387760929
40
0.858779326391019
40
0.970456363405499
40
1
40
1
40
1
40
1
41
1
10
4.66339745962154
20
-15.1759383782004
30
0
41
1
10
4.66657449134686
20
-15.1799355612691
30
0
41
1
10
4.6883398674362
20
-15.2042699474534
30
0
41
1
10
4.72821655732044
20
-15.2346583807312
30
0
41
1
10
4.80126115045926
20
-15.2615420329402
30
0
41
1
10
4.85387768668878
20
-15.2729932538429
30
0
41
1
10
4.89788085505192
20
-15.276677276731
30
0
41
1
10
4.91879048679166
20
-15.2769590561243
30
0
41
1
10
4.92320508075687
20
-15.2769622091385
30
0
0
SPLINE
5
13E
100
AcDbEntity
8
1
62
256
6
ByLayer
370
18
48
1
60
0
100
AcDbSpline
70
4
71
3
72
12
73
8
40
0
40
0
40
0
40
0
40
0.0828102770095085
40
0.189561422336141
40
0.367021597629841
40
0.681916173901723
40
1
40
1
40
1
40
1
41
1
10
7.0767949192431
20
-15.2769622091385
30
0
41
1
10
7.08938818286761
20
-15.2769076079451
30
0
41
1
10
7.11723047809982
20
-15.2758609681751
30
0
41
1
10
7.16799478637416
20
-15.2691148599318
30
0
41
1
10
7.23486128312098
20
-15.2508645320147
30
0
41
1
10
7.29463578054496
20
-15.2182944553271
30
0
41
1
10
7.32600564468376
20
-15.1907793944321
30
0
41
1
10
7.33660254037842
20
-15.1759383782004
30
0
0
SPLINE
5
13F
100
AcDbEntity
8
SK1
62
256
6
ByLayer
370
18
48
1
60
0
100
AcDbSpline
70
4
71
3
72
17
73
13
40
0
40
0
40
0
40
0
40
0.449299536970456
40
0.663930069900205
40
0.773337807987071
40
0.855645370596491
40
0.897002977692353
40
0.916553427591745
40
0.936264317891492
40
0.953786467420985
40
0.979712005517172
40
1
40
1
40
1
40
1
41
1
10
-0.200000000000024
20
-5.19704273475742
30
0
41
1
10
-0.196347829428983
20
-5.07942297644273
30
0
41
1
10
-0.206043874573378
20
-4.90333220023327
30
0
41
1
10
-0.233438093471946
20
-4.69275190185222
30
0
41
1
10
-0.262329997113221
20
-4.582317678091
30
0
41
1
10
-0.288539116977455
20
-4.52032045887181
30
0
41
1
10
-0.315099998267465
20
-4.48656772374329
30
0
41
1
10
-0.335350195700451
20
-4.4731344171162
30
0
41
1
10
-0.351861535505844
20
-4.4687002726331
30
0
41
1
10
-0.36999899179813
20
-4.47043515721386
30
0
41
1
10
-0.386036556512717
20
-4.47815898121326
30
0
41
1
10
-0.395969660804227
20
-4.48555901629955
30
0
41
1
10
-0.400000000000135
20
-4.48934893107318
30
0
0
SPLINE
5
140
100
AcDbEntity
8
SK1
62
256
6
ByLayer
370
18
48
1
60
0
100
AcDbSpline
70
4
71
3
72
16
73
12
40
0
40
0
40
0
40
0
40
0.0454314194142628
40
0.0912715944536422
40
0.123493166880668
40
0.155702567326142
40
0.202996234955953
40
0.292614905354599
40
0.445872283738467
40
0.599858152491212
40
1
40
1
40
1
40
1
41
1
10
-0.400000000000026
20
-4.48934893107536
30
0
41
1
10
-0.420139237117376
20
-4.50865052682906
30
0
41
1
10
-0.465174876547449
20
-4.54101600445069
30
0
41
1
10
-0.539269387119709
20
-4.57372040141247
30
0
41
1
10
-0.613833158702857
20
-4.57997245742232
30
0
41
1
10
-0.687200665829367
20
-4.56486559623671
30
0
41
1
10
-0.782351196120934
20
-4.51303174623046
30
0
41
1
10
-0.902553180628801
20
-4.38709039634392
30
0
41
1
10
-1.02098501605032
20
-4.19086262153096
30
0
41
1
10
-1.17282137700721
20
-3.81614994387046
30
0
41
1
10
-1.26310234248417
20
-3.50733382107828
30
0
41
1
10
-1.30710678118656
20
-3.2741000776645
30
0
0
SPLINE
5
141
100
AcDbEntity
8
SK1
62
256
6
ByLayer
370
18
48
1
60
0
100
AcDbSpline
70
4
71
3
72
17
73
13
40
0
40
0
40
0
40
0
40
0.393937684854277
40
0.582755089608145
40
0.678559802976299
40
0.773694434837865
40
0.82327925528046
40
0.861296733338768
40
0.893293482715432
40
0.925248878849569
40
0.97446557731386
40
1
40
1
40
1
40
1
41
1
10
-1.30710678118655
20
3.27410008506506
30
0
41
1
10
-1.26514623994857
20
3.50416052740657
30
0
41
1
10
-1.17102990569922
20
3.8291042876656
30
0
41
1
10
-1.0195277535324
20
4.1870470432739
30
0
41
1
10
-0.908447088042059
20
4.37499523639095
30
0
41
1
10
-0.815189375253794
20
4.48312876989935
30
0
41
1
10
-0.722548484328107
20
4.54873264699974
30
0
41
1
10
-0.64855635619501
20
4.57568083382678
30
0
41
1
10
-0.57939463014721
20
4.57940826615302
30
0
41
1
10
-0.505786501899599
20
4.56221396122204
30
0
41
1
10
-0.446840379243304
20
4.52798037617692
30
0
41
1
10
-0.411387094551301
20
4.49980661473405
30
0
41
1
10
-0.400000000000027
20
4.48934914533074
30
0
0
SPLINE
5
142
100
AcDbEntity
8
SK1
62
256
6
ByLayer
370
18
48
1
60
0
100
AcDbSpline
70
4
71
3
72
17
73
13
40
0
40
0
40
0
40
0
40
0.0292757017872855
40
0.0517218685317007
40
0.0693622740265077
40
0.0870213067382041
40
0.110894137741576
40
0.153188491050717
40
0.284130188001399
40
0.553541839557389
40
0.824075729714649
40
1
40
1
40
1
40
1
41
1
10
-0.400000000000026
20
4.48934914533075
30
0
41
1
10
-0.394190748322699
20
4.48367767852155
30
0
41
1
10
-0.382728783413577
20
4.47589841107574
30
0
41
1
10
-0.364369052264204
20
4.46919938294775
30
0
41
1
10
-0.347472582785982
20
4.46938957438128
30
0
41
1
10
-0.330743560924186
20
4.47542797535852
30
0
41
1
10
-0.310750832655277
20
4.49100798756741
30
0
41
1
10
-0.277012663956276
20
4.53881081928998
30
0
41
1
10
-0.238478174025284
20
4.65995790903746
30
0
41
1
10
-0.209792682402809
20
4.84236222648327
30
0
41
1
10
-0.202091261289432
20
5.03378214422051
30
0
41
1
10
-0.199912653360581
20
5.15110735375161
30
0
41
1
10
-0.200000000000026
20
5.19704283599548
30
0
0
SPLINE
5
143
100
AcDbEntity
8
SK1
62
256
6
ByLayer
370
18
48
1
60
0
100
AcDbSpline
70
4
71
3
72
17
73
13
40
0
40
0
40
0
40
0
40
0.195223802270327
40
0.508353048224721
40
0.668134310925281
40
0.788955734610392
40
0.849673000535901
40
0.878247849451584
40
0.907053890487572
40
0.932714345148439
40
0.970929157910986
40
1
40
1
40
1
40
1
41
1
10
-0.20715118264331
20
10.8666170216409
30
0
41
1
10
-0.209056455914584
20
10.8637717133608
30
0
41
1
10
-0.217017115043898
20
10.8547592578824
30
0
41
1
10
-0.233510558564568
20
10.8384920158359
30
0
41
1
10
-0.262336613140904
20
10.8180698622563
30
0
41
1
10
-0.288576140053148
20
10.8032583413438
30
0
41
1
10
-0.315267511055414
20
10.7918818072353
30
0
41
1
10
-0.335587648786549
20
10.7849879910686
30
0
41
1
10
-0.352089724507502
20
10.7803654477882
30
0
41
1
10
-0.370244703356071
20
10.7762980118819
30
0
41
1
10
-0.386184102357331
20
10.7736871623377
30
0
41
1
10
-0.396052264941622
20
10.7724638232072
30
0
41
1
10
-0.399999999987716
20
10.7720903551645
30
0
0
SPLINE
5
144
100
AcDbEntity
8
SK1
62
256
6
ByLayer
370
18
48
1
60
0
100
AcDbSpline
70
4
71
3
72
14
73
10
40
0
40
0
40
0
40
0
40
0.141928701532795
40
0.285136003504145
40
0.385883739095438
40
0.48658970218901
40
0.634724331130228
40
0.91571578046145
40
1
40
1
40
1
40
1
41
1
10
-0.400000000000014
20
10.7720903551641
30
0
41
1
10
-0.420169887460538
20
10.7698247268096
30
0
41
1
10
-0.465264801342306
20
10.7659981338176
30
0
41
1
10
-0.539469605849902
20
10.7618818659754
30
0
41
1
10
-0.614120681376065
20
10.7610948546077
30
0
41
1
10
-0.68761992083605
20
10.7630317056534
30
0
41
1
10
-0.782993458300896
20
10.7694888341972
30
0
41
1
10
-0.851159340237898
20
10.7777135268528
30
0
41
1
10
-0.892879576293926
20
10.7832596047762
30
0
41
1
10
-0.901962214419175
20
10.7845577057244
30
0
0
SPLINE
5
145
100
AcDbEntity
8
SK1
62
256
6
ByLayer
370
18
48
1
60
0
100
AcDbSpline
70
4
71
3
72
16
73
12
40
0
40
0
40
0
40
0
40
0.0354073575210573
40
0.0625675464888586
40
0.0839306689750691
40
0.105315734381163
40
0.134262965004861
40
0.185577530549171
40
0.344529212531587
40
0.671583563754478
40
1
40
1
40
1
40
1
41
1
10
-0.400000000000014
20
-10.7720903270618
30
0
41
1
10
-0.394184808154067
20
-10.7726058024075
30
0
41
1
10
-0.382712063730463
20
-10.7741500170212
30
0
41
1
10
-0.364333011347644
20
-10.7775102970836
30
0
41
1
10
-0.347418089597237
20
-10.7815950933488
30
0
41
1
10
-0.330664610873818
20
-10.7865404691439
30
0
41
1
10
-0.310632895486927
20
-10.7937011537423
30
0
41
1
10
-0.276827542876043
20
-10.8088086882484
30
0
41
1
10
-0.23810034614768
20
-10.8341833321969
30
0
41
1
10
-0.210682992364079
20
-10.8593349125025
30
0
41
1
10
-0.201532286147666
20
-10.8712152112916
30
0
41
1
10
-0.201947918602971
20
-10.8745599936748
30
0
0
SPLINE
5
146
100
AcDbEntity
8
SK1
62
256
6
ByLayer
370
18
48
1
60
0
100
AcDbSpline
70
4
71
3
72
22
73
18
40
0
40
0
40
0
40
0
40
0.0109061943361373
40
0.0586341481057265
40
0.106357568205128
40
0.154257121357793
40
0.249798703141031
40
0.345320804715031
40
0.440833730293642
40
0.536344599142922
40
0.631859907286049
40
0.727387570432511
40
0.822940109525931
40
0.870663728869246
40
0.918391975595211
40
0.966127302884185
40
1
40
1
40
1
40
1
41
1
10
-1.6999369182716
20
11.0201003905319
30
0
41
1
10
-1.6999384232416
20
11.0200791045123
30
0
41
1
10
-1.69994629728189
20
11.01741937402
30
0
41
1
10
-1.69995823822213
20
10.9865866766419
30
0
41
1
10
-1.69997029695999
20
10.8937653004933
30
0
41
1
10
-1.69998212160078
20
10.7067601590279
30
0
41
1
10
-1.69999082231272
20
10.3626527757871
30
0
41
1
10
-1.69999576368342
20
9.79322022329513
30
0
41
1
10
-1.69999779320179
20
9.07995210137944
30
0
41
1
10
-1.69999836642901
20
8.23208728858403
30
0
41
1
10
-1.69999800119198
20
7.2560636022326
30
0
41
1
10
-1.69999632966671
20
6.15643246934424
30
0
41
1
10
-1.69999273766606
20
5.1393106134163
30
0
41
1
10
-1.6999872716607
20
4.26709609338206
30
0
41
1
10
-1.69998143839674
20
3.58379984071892
30
0
41
1
10
-1.69997418135919
20
2.94024539845238
30
0
41
1
10
-1.69996839739873
20
2.52057033128212
30
0
41
1
10
-1.69996579751814
20
2.3439945435084
30
0
0
SPLINE
5
147
100
AcDbEntity
8
SK1
62
256
6
ByLayer
370
18
48
1
60
0
100
AcDbSpline
70
4
71
2
72
6
73
3
40
0
40
0
40
0
40
1
40
1
40
1
41
1
10
-2.5
20
-10.9999999791865
30
0
41
1
10
-2.0975125121336
20
-11.0101118658039
30
0
41
1
10
-1.6950250242672
20
-11.0202237524214
30
0
0
SPLINE
5
148
100
AcDbEntity
8
SK1
62
256
6
ByLayer
370
18
48
1
60
0
100
AcDbSpline
70
4
71
2
72
6
73
3
40
0
40
0
40
0
40
1
40
1
40
1
41
1
10
-1.6950250242672
20
11.0202237949308
30
0
41
1
10
-2.0975125121336
20
11.0101119082743
30
0
41
1
10
-2.5
20
11.0000000216178
30
0
0
SPLINE
5
149
100
AcDbEntity
8
SK1
62
256
6
ByLayer
370
18
48
1
60
0
100
AcDbSpline
70
4
71
3
72
13
73
9
40
0
40
0
40
0
40
0
40
0.124917351159099
40
0.250670588209186
40
0.440851421773883
40
0.637432329360913
40
0.81699640148757
40
1
40
1
40
1
40
1
41
1
10
-1.69996579751816
20
2.3439945435084
30
0
41
1
10
-1.73251164781108
20
2.15841895218803
30
0
41
1
10
-1.79190943333086
20
1.78079107850606
30
0
41
1
10
-1.87948656491354
20
1.09775904482157
30
0
41
1
10
-1.93911126295127
20
0.277874210809034
30
0
41
1
10
-1.92164500052826
20
-0.639443925111423
30
0
41
1
10
-1.83073052917196
20
-1.52215115426305
30
0
41
1
10
-1.74899123521875
20
-2.07170914107821
30
0
41
1
10
-1.69996579738209
20
-2.34399541728098
30
0
0
SPLINE
5
14A
100
AcDbEntity
8
SK1
62
256
6
ByLayer
370
18
48
1
60
0
100
AcDbSpline
70
4
71
3
72
22
73
18
40
0
40
0
40
0
40
0
40
0.0138969579209629
40
0.0616398766102958
40
0.109372745025887
40
0.157099268415774
40
0.252673441162778
40
0.348211754511525
40
0.443731797344982
40
0.5392434301017
40
0.634753646538382
40
0.730268984717885
40
0.825797626086965
40
0.873515820129991
40
0.921236400207426
40
0.968960386107208
40
1
40
1
40
1
40
1
41
1
10
-1.69996579738207
20
-2.34399541728098
30
0
41
1
10
-1.69996686364289
20
-2.4164128951725
30
0
41
1
10
-1.69997144250964
20
-2.73586655872019
30
0
41
1
10
-1.69997837380663
20
-3.28930030364037
30
0
41
1
10
-1.69998506914456
20
-3.98487083929107
30
0
41
1
10
-1.69999142927484
20
-4.87366164478773
30
0
41
1
10
-1.6999957131313
20
-5.91174513160784
30
0
41
1
10
-1.69999778975713
20
-7.03686399538976
30
0
41
1
10
-1.69999836651229
20
-8.03903619727269
30
0
41
1
10
-1.69999800237923
20
-8.91407609262478
30
0
41
1
10
-1.69999636292094
20
-9.65605083346566
30
0
41
1
10
-1.69999219983735
20
-10.2563610461626
30
0
41
1
10
-1.69998469540418
20
-10.6285304976177
30
0
41
1
10
-1.69997436196397
20
-10.8404449887585
30
0
41
1
10
-1.69996374896681
20
-10.9534603120068
30
0
41
1
10
-1.6999511839453
20
-11.0098698158952
30
0
41
1
10
-1.6999411686864
20
-11.019888379613
30
0
41
1
10
-1.69993691393678
20
-11.0201003484491
30
0
0
SPLINE
5
14B
100
AcDbEntity
8
SK1
62
256
6
ByLayer
370
18
48
1
60
0
100
AcDbSpline
70
4
71
2
72
6
73
3
40
0
40
0
40
0
40
1
40
1
40
1
41
1
10
-2.5
20
11.0000000216178
30
0
41
1
10
-10.2501577226356
20
10.805289083207
30
0
41
1
10
-18.0003154452711
20
10.6105781447962
30
0
0
SPLINE
5
14C
100
AcDbEntity
8
SK1
62
256
6
ByLayer
370
18
48
1
60
0
100
AcDbSpline
70
4
71
2
72
6
73
3
40
0
40
0
40
0
40
1
40
1
40
1
41
1
10
-18.0003154452711
20
-10.6105781038671
30
0
41
1
10
-10.2501577226356
20
-10.8052890415268
30
0
41
1
10
-2.5
20
-10.9999999791865
30
0
0
SPLINE
5
14D
100
AcDbEntity
8
SK1
62
256
6
ByLayer
370
18
48
1
60
0
100
AcDbSpline
70
4
71
3
72
20
73
16
40
0
40
0
40
0
40
0
40
0.368109280644248
40
0.437722363858781
40
0.462433396968472
40
0.487648866583765
40
0.498235913484151
40
0.50893843966516
40
0.515600009944512
40
0.522260509808643
40
0.531991727973864
40
0.550577536041058
40
0.631369545032411
40
0.950978728517092
40
1
40
1
40
1
40
1
41
1
10
-1.5
20
2.30830602436802
30
0
41
1
10
-1.51628319051587
20
2.18132600993999
30
0
41
1
10
-1.54990682384897
20
2.03969902389133
30
0
41
1
10
-1.59597975832159
20
1.89469689897959
30
0
41
1
10
-1.61146705962497
20
1.8603720674489
30
0
41
1
10
-1.62095376012516
20
1.84451713699417
30
0
41
1
10
-1.63020476572249
20
1.83541492814045
30
0
41
1
10
-1.63693983294418
20
1.83233706747809
30
0
41
1
10
-1.64322590303804
20
1.83327814817858
30
0
41
1
10
-1.64887894624189
20
1.83705526861528
30
0
41
1
10
-1.65590984079923
20
1.84629683236737
30
0
41
1
10
-1.67092265965404
20
1.88222812925395
30
0
41
1
10
-1.69452960262733
20
2.03470993733323
30
0
41
1
10
-1.69872698245633
20
2.195533909897
30
0
41
1
10
-1.69995454046297
20
2.32659130793403
30
0
41
1
10
-1.69996579751816
20
2.3439945435084
30
0
0
SPLINE
5
14E
100
AcDbEntity
8
SK1
62
256
6
ByLayer
370
18
48
1
60
0
100
AcDbSpline
70
4
71
1
72
4
73
2
40
0
40
0
40
1
40
1
41
1
10
-1.30710678118655
20
3.27410008506509
30
0
41
1
10
-1.5
20
2.3083060243678
30
0
0
SPLINE
5
14F
100
AcDbEntity
8
SK1
62
256
6
ByLayer
370
18
48
1
60
0
100
AcDbSpline
70
4
71
1
72
4
73
2
40
0
40
0
40
1
40
1
41
1
10
-1.5
20
-2.30830715862382
30
0
41
1
10
-1.30710678118675
20
-3.27410007766361
30
0
0
SPLINE
5
150
100
AcDbEntity
8
SK1
62
256
6
ByLayer
370
18
48
1
60
0
100
AcDbSpline
70
4
71
3
72
18
73
14
40
0
40
0
40
0
40
0
40
0.348507051445656
40
0.440886354697193
40
0.464017838486812
40
0.473034725324783
40
0.482141874298787
40
0.488754910003605
40
0.495351247850913
40
0.506253631861562
40
0.534247508088274
40
0.645038889530959
40
1
40
1
40
1
40
1
41
1
10
-1.69996579738209
20
-2.34399541728098
30
0
41
1
10
-1.70785999283531
20
-2.21864105596814
30
0
41
1
10
-1.69545292415498
20
-2.06263553662055
30
0
41
1
10
-1.67368943045167
20
-1.8941414815315
30
0
41
1
10
-1.65866835858387
20
-1.85175962566495
30
0
41
1
10
-1.65132334771533
20
-1.83983130458139
30
0
41
1
10
-1.64568256040669
20
-1.8344031951829
30
0
41
1
10
-1.63988590559928
20
-1.83247840595147
30
0
41
1
10
-1.63376157455977
20
-1.83339533975866
30
0
41
1
10
-1.62365671716215
20
-1.84042385063966
30
0
41
1
10
-1.59943897382328
20
-1.87909958601805
30
0
41
1
10
-1.55286460507344
20
-2.03683406156812
30
0
41
1
10
-1.5146597617023
20
-2.18501007307499
30
0
41
1
10
-1.5
20
-2.30830715862382
30
0
0
SPLINE
5
151
100
AcDbEntity
8
SK1
62
256
6
ByLayer
370
18
48
1
60
0
100
AcDbSpline
70
4
71
2
72
6
73
3
40
0
40
0
40
0
40
1
40
1
40
1
41
1
10
-18.0002172380017
20
10.6089759653319
30
0
41
1
10
-18.5001086570044
20
10.3032239000341
30
0
41
1
10
-19
20
9.99747095672054
30
0
0
SPLINE
5
152
100
AcDbEntity
8
SK1
62
256
6
ByLayer
370
18
48
1
60
0
100
AcDbSpline
70
4
71
2
72
6
73
3
40
0
40
0
40
0
40
1
40
1
40
1
41
1
10
-19
20
-9.99721945799886
30
0
41
1
10
-18.5001164339318
20
-10.3028974320376
30
0
41
1
10
-18.0002329674942
20
-10.608577014097
30
0
0
SPLINE
5
153
100
AcDbEntity
8
SK1
62
256
6
ByLayer
370
18
48
1
60
0
100
AcDbSpline
70
4
71
1
72
4
73
2
40
0
40
0
40
1
40
1
41
1
10
-1.69911615098466
20
10.8921619288178
30
0
41
1
10
-1.69911726305037
20
10.8923362688071
30
0
0
SPLINE
5
154
100
AcDbEntity
8
SK1
62
256
6
ByLayer
370
18
48
1
60
0
100
AcDbSpline
70
4
71
3
72
10
73
6
40
0
40
0
40
0
40
0
40
0.237474208453353
40
0.682878337424298
40
1
40
1
40
1
40
1
41
1
10
-1.62890494573829
20
10.8545970146821
30
0
41
1
10
-1.63183450903585
20
10.8511243076471
30
0
41
1
10
-1.64020126861837
20
10.8366009514864
30
0
41
1
10
-1.65179089254424
20
10.7966786480359
30
0
41
1
10
-1.66097131816426
20
10.7493784887228
30
0
41
1
10
-1.66479077747346
20
10.7268535113718
30
0
0
SPLINE
5
155
100
AcDbEntity
8
SK1
62
256
6
ByLayer
370
18
48
1
60
0
100
AcDbSpline
70
4
71
3
72
22
73
18
40
0
40
0
40
0
40
0
40
0.348339998975359
40
0.689293328708312
40
0.795194517638237
40
0.826116825307997
40
0.835535199919754
40
0.838770387853713
40
0.841156572189752
40
0.842136800248357
40
0.843068530814088
40
0.844045630401261
40
0.845152966318103
40
0.847976384262647
40
0.861684746449394
40
0.879345419130451
40
1
40
1
40
1
40
1
41
1
10
-1.50312227287805
20
10.8250340873774
30
0
41
1
10
-1.50749440349687
20
10.8245140404266
30
0
41
1
10
-1.51826830537696
20
10.822399103216
30
0
41
1
10
-1.53119634581654
20
10.8161098692231
30
0
41
1
10
-1.54427334046777
20
10.8124448055705
30
0
41
1
10
-1.55131197659674
20
10.8121589351286
30
0
41
1
10
-1.55497303637915
20
10.8125760395611
30
0
41
1
10
-1.55692024262664
20
10.8129584653477
30
0
41
1
10
-1.55811169111761
20
10.8132480391884
30
0
41
1
10
-1.55908673186075
20
10.813525359122
30
0
41
1
10
-1.55978406174712
20
10.8137412608273
30
0
41
1
10
-1.56047408211122
20
10.8139722666741
30
0
41
1
10
-1.56145374909042
20
10.8143246391176
30
0
41
1
10
-1.5640968039071
20
10.8153921653374
30
0
41
1
10
-1.56659209285845
20
10.8167481514727
30
0
41
1
10
-1.5747162731345
20
10.8218137148694
30
0
41
1
10
-1.57922416534752
20
10.8254356383065
30
0
41
1
10
-1.58018400112819
20
10.827596227213
30
0
0
SPLINE
5
156
100
AcDbEntity
8
SK1
62
256
6
ByLayer
370
18
48
1
60
0
100
AcDbSpline
70
4
71
3
72
11
73
7
40
0
40
0
40
0
40
0
40
0.137299270194216
40
0.339428128112651
40
0.760949728594272
40
1
40
1
40
1
40
1
41
1
10
-1.58018400112819
20
10.827596227213
30
0
41
1
10
-1.5844153974085
20
10.8322144132014
30
0
41
1
10
-1.59385945054576
20
10.8423999252652
30
0
41
1
10
-1.60707824340986
20
10.8577745395002
30
0
41
1
10
-1.61843721160397
20
10.8632084198873
30
0
41
1
10
-1.62628359671999
20
10.8578108164735
30
0
41
1
10
-1.62890494573829
20
10.8545970146821
30
0
0
SPLINE
5
157
100
AcDbEntity
8
SK1
62
256
6
ByLayer
370
18
48
1
60
0
100
AcDbSpline
70
4
71
3
72
35
73
31
40
0
40
0
40
0
40
0
40
0.0315609456267729
40
0.0421660789618919
40
0.0454346500622531
40
0.0466290104207889
40
0.0475790836787153
40
0.0483556024710677
40
0.048714769369956
40
0.049075392796654
40
0.049859523611867
40
0.0508066298546064
40
0.0568515640275886
40
0.0802717566063178
40
0.194364711004186
40
0.326515370550868
40
0.434763782376119
40
0.549924377822638
40
0.613441054119171
40
0.622371294572458
40
0.629057170481274
40
0.631754087047468
40
0.634170802095874
40
0.636466275003599
40
0.638811677380466
40
0.644186308689549
40
0.651054970194375
40
0.670056149117434
40
0.829218686004493
40
1
40
1
40
1
40
1
41
1
10
-1.69156362570226
20
-10.9656048664383
30
0
41
1
10
-1.69139914590885
20
-10.9646317888389
30
0
41
1
10
-1.69048714874854
20
-10.9614603341403
30
0
41
1
10
-1.68917040225381
20
-10.9570797867174
30
0
41
1
10
-1.68833754205612
20
-10.9545821245499
30
0
41
1
10
-1.687896075408
20
-10.9533184287522
30
0
41
1
10
-1.68759091869439
20
-10.9524668544985
30
0
41
1
10
-1.68731143312593
20
-10.9517073094313
30
0
41
1
10
-1.68709344478885
20
-10.9511270794603
30
0
41
1
10
-1.68687384430142
20
-10.9505499583417
30
0
41
1
10
-1.68658835250259
20
-10.9498147146388
30
0
41
1
10
-1.68572747113335
20
-10.9476554352944
30
0
41
1
10
-1.68387941575743
20
-10.9434308992527
30
0
41
1
10
-1.67889916102433
20
-10.9335665526248
30
0
41
1
10
-1.67291698714951
20
-10.9243129387206
30
0
41
1
10
-1.66389404336103
20
-10.9102082384518
30
0
41
1
10
-1.65186573100458
20
-10.8927022854555
30
0
41
1
10
-1.63699106876339
20
-10.8745895268649
30
0
41
1
10
-1.62272371190846
20
-10.8595461538149
30
0
41
1
10
-1.60873485002677
20
-10.8491238036488
30
0
41
1
10
-1.60431823726986
20
-10.8461423757571
30
0
41
1
10
-1.60070419397127
20
-10.8439049198729
30
0
41
1
10
-1.59814728689158
20
-10.8424057192709
30
0
41
1
10
-1.59557048554856
20
-10.8409777321949
30
0
41
1
10
-1.59200653576687
20
-10.8391152479651
30
0
41
1
10
-1.58753614548435
20
-10.8370026744066
30
0
41
1
10
-1.58027840233607
20
-10.8339851062587
30
0
41
1
10
-1.55117477810901
20
-10.8246700843303
30
0
41
1
10
-1.53167661944223
20
-10.8266576084063
30
0
41
1
10
-1.50788214996206
20
-10.8242111627506
30
0
41
1
10
-1.5
20
-10.825148341595
30
0
0
SPLINE
5
158
100
AcDbEntity
8
SK1
62
256
6
ByLayer
370
18
48
1
60
0
100
AcDbSpline
70
4
71
2
72
6
73
3
40
0
40
0
40
0
40
1
40
1
40
1
41
1
10
-0.898270762190167
20
10.7847407283835
30
0
41
1
10
-1.19913538109508
20
10.7847407283835
30
0
41
1
10
-1.5
20
10.7847407283835
30
0
0
SPLINE
5
159
100
AcDbEntity
8
SK1
62
256
6
ByLayer
370
18
48
1
60
0
100
AcDbSpline
70
4
71
3
72
15
73
11
40
0
40
0
40
0
40
0
40
0.0019356300649292
40
0.296252567541558
40
0.450889456197772
40
0.569137776923401
40
0.668642050893024
40
0.768020005558662
40
0.920896465577475
40
1
40
1
40
1
40
1
41
1
10
-0.903534985867082
20
-10.7847768419313
30
0
41
1
10
-0.903654347936561
20
-10.7847309795253
30
0
41
1
10
-0.92168775132165
20
-10.777721870488
30
0
41
1
10
-0.80359341232777
20
-10.7736041264429
30
0
41
1
10
-0.72470695027486
20
-10.7649764805435
30
0
41
1
10
-0.648478377657121
20
-10.7616636896845
30
0
41
1
10
-0.579618990157687
20
-10.7611586351661
30
0
41
1
10
-0.505788402876596
20
-10.7633451620863
30
0
41
1
10
-0.446841951412375
20
-10.7675767115025
30
0
41
1
10
-0.411372969738009
20
-10.7708767807292
30
0
41
1
10
-0.400000000000014
20
-10.7720903270618
30
0
0
SPLINE
5
15A
100
AcDbEntity
8
SK1
62
256
6
ByLayer
370
18
48
1
60
0
100
AcDbSpline
70
4
71
2
72
6
73
3
40
0
40
0
40
0
40
1
40
1
40
1
41
1
10
-1.5
20
-10.7847407263988
30
0
41
1
10
-1.20213505918335
20
-10.7847407263988
30
0
41
1
10
-0.904270118366697
20
-10.7847407263988
30
0
0
INSERT
5
192
100
AcDbEntity
8
SK2
62
256
6
ByLayer
370
25
48
1
60
0
100
AcDbBlockReference
2
DimnDraft3D55
10
0
20
0
30
0
41
1
42
1
43
1
50
0
210
0
220
0
230
1
0
LINE
5
70
100
AcDbEntity
8
81
62
256
6
ByLayer
370
18
48
1
60
0
100
AcDbLine
10
125
20
0
30
0
11
137.5
21
0
31
0
39
0
210
0
220
0
230
1
0
LINE
5
71
100
AcDbEntity
8
4
62
256
6
ByLayer
370
18
48
0.05
60
0
100
AcDbLine
10
0
20
0
30
0
11
125
21
0
31
0
39
0
210
0
220
0
230
1
0
LINE
5
73
100
AcDbEntity
8
SK4
62
256
6
ByLayer
370
18
48
0.05
60
0
100
AcDbLine
10
-25
20
0
30
0
11
130
21
0
31
0
39
0
210
0
220
0
230
1
0
LINE
5
75
100
AcDbEntity
8
80
62
256
6
ByLayer
370
18
48
1
60
0
100
AcDbLine
10
0
20
0
30
0
11
-12.5
21
0
31
0
39
0
210
0
220
0
230
1
0
LINE
5
76
100
AcDbEntity
8
1
62
256
6
ByLayer
370
18
48
1
60
0
100
AcDbLine
10
124.521
20
12.409674
30
0
11
123.2
21
12.409674
31
0
39
0
210
0
220
0
230
1
0
LINE
5
78
100
AcDbEntity
8
1
62
256
6
ByLayer
370
18
48
1
60
0
100
AcDbLine
10
123.2
20
-12.409674
30
0
11
124.521
21
-12.409674
31
0
39
0
210
0
220
0
230
1
0
LINE
5
79
100
AcDbEntity
8
1
62
256
6
ByLayer
370
18
48
1
60
0
100
AcDbLine
10
124.73225
20
5.289803
30
0
11
124.73225
21
4.568345
31
0
39
0
210
0
220
0
230
1
0
LINE
5
7A
100
AcDbEntity
8
1
62
256
6
ByLayer
370
18
48
1
60
0
100
AcDbLine
10
124.73225
20
-4.568345
30
0
11
124.73225
21
-5.289803
31
0
39
0
210
0
220
0
230
1
0
LINE
5
7B
100
AcDbEntity
8
1
62
256
6
ByLayer
370
18
48
1
60
0
100
AcDbLine
10
125.271
20
4.672754
30
0
11
125.271
21
0.851624
31
0
39
0
210
0
220
0
230
1
0
LINE
5
7C
100
AcDbEntity
8
1
62
256
6
ByLayer
370
18
48
1
60
0
100
AcDbLine
10
125.271
20
-0.851624
30
0
11
125.271
21
-4.672754
31
0
39
0
210
0
220
0
230
1
0
LINE
5
7D
100
AcDbEntity
8
1
62
256
6
ByLayer
370
18
48
1
60
0
100
AcDbLine
10
124.73225
20
7.358627
30
0
11
124.73225
21
6.915736
31
0
39
0
210
0
220
0
230
1
0
LINE
5
7E
100
AcDbEntity
8
1
62
256
6
ByLayer
370
18
48
1
60
0
100
AcDbLine
10
124.73225
20
-6.915736
30
0
11
124.73225
21
-7.358627
31
0
39
0
210
0
220
0
230
1
0
LINE
5
7F
100
AcDbEntity
8
1
62
256
6
ByLayer
370
18
48
1
60
0
100
AcDbLine
10
125.271
20
6.872
30
0
11
125.271
21
5.334839
31
0
39
0
210
0
220
0
230
1
0
LINE
5
80
100
AcDbEntity
8
1
62
256
6
ByLayer
370
18
48
1
60
0
100
AcDbLine
10
125.271
20
-5.334839
30
0
11
125.271
21
-6.872
31
0
39
0
210
0
220
0
230
1
0
LINE
5
81
100
AcDbEntity
8
1
62
256
6
ByLayer
370
18
48
1
60
0
100
AcDbLine
10
124.73225
20
8.785884
30
0
11
124.73225
21
8.465225
31
0
39
0
210
0
220
0
230
1
0
LINE
5
82
100
AcDbEntity
8
1
62
256
6
ByLayer
370
18
48
1
60
0
100
AcDbLine
10
124.73225
20
-8.465225
30
0
11
124.73225
21
-8.785884
31
0
39
0
210
0
220
0
230
1
0
LINE
5
83
100
AcDbEntity
8
1
62
256
6
ByLayer
370
18
48
1
60
0
100
AcDbLine
10
125.271
20
8.336015
30
0
11
125.271
21
7.284967
31
0
39
0
210
0
220
0
230
1
0
LINE
5
84
100
AcDbEntity
8
1
62
256
6
ByLayer
370
18
48
1
60
0
100
AcDbLine
10
125.271
20
-7.284967
30
0
11
125.271
21
-8.336015
31
0
39
0
210
0
220
0
230
1
0
LINE
5
85
100
AcDbEntity
8
1
62
256
6
ByLayer
370
18
48
1
60
0
100
AcDbLine
10
124.73225
20
-9.610809
30
0
11
124.73225
21
-9.854397
31
0
39
0
210
0
220
0
230
1
0
LINE
5
86
100
AcDbEntity
8
1
62
256
6
ByLayer
370
18
48
1
60
0
100
AcDbLine
10
124.73225
20
9.854397
30
0
11
124.73225
21
9.610809
31
0
39
0
210
0
220
0
230
1
0
LINE
5
87
100
AcDbEntity
8
1
62
256
6
ByLayer
370
18
48
1
60
0
100
AcDbLine
10
125.271
20
9.414293
30
0
11
125.271
21
8.634581
31
0
39
0
210
0
220
0
230
1
0
LINE
5
88
100
AcDbEntity
8
1
62
256
6
ByLayer
370
18
48
1
60
0
100
AcDbLine
10
125.271
20
-8.634581
30
0
11
125.271
21
-9.414293
31
0
39
0
210
0
220
0
230
1
0
LINE
5
89
100
AcDbEntity
8
1
62
256
6
ByLayer
370
18
48
1
60
0
100
AcDbLine
10
124.73225
20
10.672465
30
0
11
124.73225
21
10.485718
31
0
39
0
210
0
220
0
230
1
0
LINE
5
8A
100
AcDbEntity
8
1
62
256
6
ByLayer
370
18
48
1
60
0
100
AcDbLine
10
124.73225
20
-10.485718
30
0
11
124.73225
21
-10.672465
31
0
39
0
210
0
220
0
230
1
0
LINE
5
8B
100
AcDbEntity
8
1
62
256
6
ByLayer
370
18
48
1
60
0
100
AcDbLine
10
125.271
20
10.229548
30
0
11
125.271
21
9.639307
31
0
39
0
210
0
220
0
230
1
0
LINE
5
8C
100
AcDbEntity
8
1
62
256
6
ByLayer
370
18
48
1
60
0
100
AcDbLine
10
125.271
20
-9.639307
30
0
11
125.271
21
-10.229548
31
0
39
0
210
0
220
0
230
1
0
LINE
5
8D
100
AcDbEntity
8
1
62
256
6
ByLayer
370
18
48
1
60
0
100
AcDbLine
10
124.73225
20
11.29464
30
0
11
124.73225
21
11.153829
31
0
39
0
210
0
220
0
230
1
0
LINE
5
8E
100
AcDbEntity
8
1
62
256
6
ByLayer
370
18
48
1
60
0
100
AcDbLine
10
124.73225
20
-11.153829
30
0
11
124.73225
21
-11.29464
31
0
39
0
210
0
220
0
230
1
0
LINE
5
8F
100
AcDbEntity
8
1
62
256
6
ByLayer
370
18
48
1
60
0
100
AcDbLine
10
125.271
20
10.841283
30
0
11
125.271
21
10.39959
31
0
39
0
210
0
220
0
230
1
0
LINE
5
90
100
AcDbEntity
8
1
62
256
6
ByLayer
370
18
48
1
60
0
100
AcDbLine
10
125.271
20
-10.39959
30
0
11
125.271
21
-10.841283
31
0
39
0
210
0
220
0
230
1
0
LINE
5
91
100
AcDbEntity
8
1
62
256
6
ByLayer
370
18
48
1
60
0
100
AcDbLine
10
124.73225
20
11.752075
30
0
11
124.73225
21
11.650774
31
0
39
0
210
0
220
0
230
1
0
LINE
5
92
100
AcDbEntity
8
1
62
256
6
ByLayer
370
18
48
1
60
0
100
AcDbLine
10
124.73225
20
-11.650774
30
0
11
124.73225
21
-11.752075
31
0
39
0
210
0
220
0
230
1
0
LINE
5
93
100
AcDbEntity
8
1
62
256
6
ByLayer
370
18
48
1
60
0
100
AcDbLine
10
125.271
20
11.282649
30
0
11
125.271
21
10.96639
31
0
39
0
210
0
220
0
230
1
0
LINE
5
94
100
AcDbEntity
8
1
62
256
6
ByLayer
370
18
48
1
60
0
100
AcDbLine
10
125.271
20
-10.96639
30
0
11
125.271
21
-11.282649
31
0
39
0
210
0
220
0
230
1
0
LINE
5
95
100
AcDbEntity
8
1
62
256
6
ByLayer
370
18
48
1
60
0
100
AcDbLine
10
124.73225
20
-11.997839
30
0
11
124.73225
21
-12.063525
31
0
39
0
210
0
220
0
230
1
0
LINE
5
96
100
AcDbEntity
8
1
62
256
6
ByLayer
370
18
48
1
60
0
100
AcDbLine
10
124.73225
20
12.063525
30
0
11
124.73225
21
11.997839
31
0
39
0
210
0
220
0
230
1
0
LINE
5
97
100
AcDbEntity
8
1
62
256
6
ByLayer
370
18
48
1
60
0
100
AcDbLine
10
125.271
20
11.573156
30
0
11
125.271
21
11.368683
31
0
39
0
210
0
220
0
230
1
0
LINE
5
98
100
AcDbEntity
8
1
62
256
6
ByLayer
370
18
48
1
60
0
100
AcDbLine
10
125.271
20
-11.368683
30
0
11
125.271
21
-11.573156
31
0
39
0
210
0
220
0
230
1
0
LINE
5
99
100
AcDbEntity
8
SK1
62
256
6
ByLayer
370
18
48
1
60
0
100
AcDbLine
10
133
20
9.156854
30
0
11
129
21
9.156854
31
0
39
0
210
0
220
0
230
1
0
LINE
5
9B
100
AcDbEntity
8
SK1
62
256
6
ByLayer
370
18
48
1
60
0
100
AcDbLine
10
129
20
2.156854
30
0
11
133
21
2.156854
31
0
39
0
210
0
220
0
230
1
0
LINE
5
9C
100
AcDbEntity
8
SK1
62
256
6
ByLayer
370
18
48
1
60
0
100
AcDbLine
10
129
20
7.656854
30
0
11
125.271
21
7.656854
31
0
39
0
210
0
220
0
230
1
0
LINE
5
9D
100
AcDbEntity
8
SK1
62
256
6
ByLayer
370
18
48
1
60
0
100
AcDbLine
10
125.271
20
3.656854
30
0
11
129
21
3.656854
31
0
39
0
210
0
220
0
230
1
0
LINE
5
9E
100
AcDbEntity
8
SK1
62
256
6
ByLayer
370
18
48
1
60
0
100
AcDbLine
10
133
20
-2.156854
30
0
11
129
21
-2.156854
31
0
39
0
210
0
220
0
230
1
0
LINE
5
9F
100
AcDbEntity
8
SK1
62
256
6
ByLayer
370
18
48
1
60
0
100
AcDbLine
10
129
20
-9.156854
30
0
11
133
21
-9.156854
31
0
39
0
210
0
220
0
230
1
0
LINE
5
A0
100
AcDbEntity
8
SK1
62
256
6
ByLayer
370
18
48
1
60
0
100
AcDbLine
10
129
20
-3.656854
30
0
11
125.271
21
-3.656854
31
0
39
0
210
0
220
0
230
1
0
LINE
5
A1
100
AcDbEntity
8
SK1
62
256
6
ByLayer
370
18
48
1
60
0
100
AcDbLine
10
125.271
20
-7.656854
30
0
11
129
21
-7.656854
31
0
39
0
210
0
220
0
230
1
0
LINE
5
A2
100
AcDbEntity
8
1
62
256
6
ByLayer
370
18
48
1
60
0
100
AcDbLine
10
15
20
16
30
0
11
0.3
21
16
31
0
39
0
210
0
220
0
230
1
0
LINE
5
A3
100
AcDbEntity
8
1
62
256
6
ByLayer
370
18
48
1
60
0
100
AcDbLine
10
0.3
20
-16
30
0
11
15
21
-16
31
0
39
0
210
0
220
0
230
1
0
LINE
5
A4
100
AcDbEntity
8
1
62
256
6
ByLayer
370
18
48
1
60
0
100
AcDbLine
10
4.923205
20
15.276962
30
0
11
7.076795
21
15.276962
31
0
39
0
210
0
220
0
230
1
0
LINE
5
A5
100
AcDbEntity
8
1
62
256
6
ByLayer
370
18
48
1
60
0
100
AcDbLine
10
7.076795
20
4.755463
30
0
11
4.923205
21
4.755463
31
0
39
0
210
0
220
0
230
1
0
LINE
5
A6
100
AcDbEntity
8
1
62
256
6
ByLayer
370
18
48
1
60
0
100
AcDbLine
10
4.923205
20
-4.755463
30
0
11
7.076795
21
-4.755463
31
0
39
0
210
0
220
0
230
1
0
LINE
5
A7
100
AcDbEntity
8
1
62
256
6
ByLayer
370
18
48
1
60
0
100
AcDbLine
10
7.076795
20
-15.276962
30
0
11
4.923205
21
-15.276962
31
0
39
0
210
0
220
0
230
1
0
LINE
5
A8
100
AcDbEntity
8
1
62
256
6
ByLayer
370
18
48
1
60
0
100
AcDbLine
10
15
20
-16
30
0
11
15.342026
21
-14.723543
31
0
39
0
210
0
220
0
230
1
0
LINE
5
A9
100
AcDbEntity
8
1
62
256
6
ByLayer
370
18
48
1
60
0
100
AcDbLine
10
15.342026
20
14.723543
30
0
11
15
21
16
31
0
39
0
210
0
220
0
230
1
0
LINE
5
AA
100
AcDbEntity
8
1
62
256
6
ByLayer
370
18
48
1
60
0
100
AcDbLine
10
0.3
20
16
30
0
11
0
21
15.7
31
0
39
0
210
0
220
0
230
1
0
LINE
5
AB
100
AcDbEntity
8
1
62
256
6
ByLayer
370
18
48
1
60
0
100
AcDbLine
10
0
20
-15.7
30
0
11
0.3
21
-16
31
0
39
0
210
0
220
0
230
1
0
LINE
5
AC
100
AcDbEntity
8
1
62
256
6
ByLayer
370
18
48
1
60
0
100
AcDbLine
10
4.663397
20
5.068619
30
0
11
4.663397
21
15.175938
31
0
39
0
210
0
220
0
230
1
0
LINE
5
AD
100
AcDbEntity
8
1
62
256
6
ByLayer
370
18
48
1
60
0
100
AcDbLine
10
4.923205
20
4.755463
30
0
11
4.923205
21
15.276962
31
0
39
0
210
0
220
0
230
1
0
LINE
5
AE
100
AcDbEntity
8
1
62
256
6
ByLayer
370
18
48
1
60
0
100
AcDbLine
10
7.076795
20
-15.276962
30
0
11
7.076795
21
-4.755463
31
0
39
0
210
0
220
0
230
1
0
LINE
5
AF
100
AcDbEntity
8
1
62
256
6
ByLayer
370
18
48
1
60
0
100
AcDbLine
10
7.336603
20
-15.175938
30
0
11
7.336603
21
-5.068619
31
0
39
0
210
0
220
0
230
1
0
LINE
5
B0
100
AcDbEntity
8
1
62
256
6
ByLayer
370
18
48
1
60
0
100
AcDbLine
10
4.663397
20
-15.175938
30
0
11
4.663397
21
-5.068619
31
0
39
0
210
0
220
0
230
1
0
LINE
5
B1
100
AcDbEntity
8
1
62
256
6
ByLayer
370
18
48
1
60
0
100
AcDbLine
10
4.923205
20
-15.276962
30
0
11
4.923205
21
-4.755463
31
0
39
0
210
0
220
0
230
1
0
LINE
5
B2
100
AcDbEntity
8
1
62
256
6
ByLayer
370
18
48
1
60
0
100
AcDbLine
10
7.076795
20
4.755463
30
0
11
7.076795
21
15.276962
31
0
39
0
210
0
220
0
230
1
0
LINE
5
B3
100
AcDbEntity
8
1
62
256
6
ByLayer
370
18
48
1
60
0
100
AcDbLine
10
7.336603
20
5.068619
30
0
11
7.336603
21
15.175938
31
0
39
0
210
0
220
0
230
1
0
LINE
5
B4
100
AcDbEntity
8
1
62
256
6
ByLayer
370
18
48
1
60
0
100
AcDbLine
10
122.8
20
12.5
30
0
11
18.239803
21
12.5
31
0
39
0
210
0
220
0
230
1
0
LINE
5
B5
100
AcDbEntity
8
1
62
256
6
ByLayer
370
18
48
1
60
0
100
AcDbLine
10
18.239803
20
-12.5
30
0
11
122.8
21
-12.5
31
0
39
0
210
0
220
0
230
1
0
LINE
5
B6
100
AcDbEntity
8
1
62
256
6
ByLayer
370
18
48
1
60
0
100
AcDbLine
10
124.521
20
-12.409674
30
0
11
124.521
21
12.409674
31
0
39
0
210
0
220
0
230
1
0
LINE
5
B7
100
AcDbEntity
8
1
62
256
6
ByLayer
370
18
48
1
60
0
100
AcDbLine
10
123.2
20
12.409674
30
0
11
123.2
21
-12.409674
31
0
39
0
210
0
220
0
230
1
0
LINE
5
B8
100
AcDbEntity
8
1
62
256
6
ByLayer
370
18
48
1
60
0
100
AcDbLine
10
125.271
20
11.573156
30
0
11
125.271
21
11.623562
31
0
39
0
210
0
220
0
230
1
0
LINE
5
B9
100
AcDbEntity
8
1
62
256
6
ByLayer
370
18
48
1
60
0
100
AcDbLine
10
125.271
20
11.282649
30
0
11
125.271
21
11.368683
31
0
39
0
210
0
220
0
230
1
0
LINE
5
BA
100
AcDbEntity
8
1
62
256
6
ByLayer
370
18
48
1
60
0
100
AcDbLine
10
125.271
20
10.841283
30
0
11
125.271
21
10.96639
31
0
39
0
210
0
220
0
230
1
0
LINE
5
BB
100
AcDbEntity
8
1
62
256
6
ByLayer
370
18
48
1
60
0
100
AcDbLine
10
125.271
20
10.229548
30
0
11
125.271
21
10.39959
31
0
39
0
210
0
220
0
230
1
0
LINE
5
BC
100
AcDbEntity
8
1
62
256
6
ByLayer
370
18
48
1
60
0
100
AcDbLine
10
125.271
20
9.414293
30
0
11
125.271
21
9.639307
31
0
39
0
210
0
220
0
230
1
0
LINE
5
BD
100
AcDbEntity
8
1
62
256
6
ByLayer
370
18
48
1
60
0
100
AcDbLine
10
125.271
20
8.336015
30
0
11
125.271
21
8.634581
31
0
39
0
210
0
220
0
230
1
0
LINE
5
BE
100
AcDbEntity
8
1
62
256
6
ByLayer
370
18
48
1
60
0
100
AcDbLine
10
125.271
20
6.872
30
0
11
125.271
21
7.284967
31
0
39
0
210
0
220
0
230
1
0
LINE
5
BF
100
AcDbEntity
8
1
62
256
6
ByLayer
370
18
48
1
60
0
100
AcDbLine
10
125.271
20
4.672754
30
0
11
125.271
21
5.334839
31
0
39
0
210
0
220
0
230
1
0
LINE
5
C0
100
AcDbEntity
8
1
62
256
6
ByLayer
370
18
48
1
60
0
100
AcDbLine
10
125.271
20
-0.851624
30
0
11
125.271
21
0.851624
31
0
39
0
210
0
220
0
230
1
0
LINE
5
C1
100
AcDbEntity
8
1
62
256
6
ByLayer
370
18
48
1
60
0
100
AcDbLine
10
125.271
20
-5.334839
30
0
11
125.271
21
-4.672754
31
0
39
0
210
0
220
0
230
1
0
LINE
5
C2
100
AcDbEntity
8
1
62
256
6
ByLayer
370
18
48
1
60
0
100
AcDbLine
10
125.271
20
-7.284967
30
0
11
125.271
21
-6.872
31
0
39
0
210
0
220
0
230
1
0
LINE
5
C3
100
AcDbEntity
8
1
62
256
6
ByLayer
370
18
48
1
60
0
100
AcDbLine
10
125.271
20
-8.634581
30
0
11
125.271
21
-8.336015
31
0
39
0
210
0
220
0
230
1
0
LINE
5
C4
100
AcDbEntity
8
1
62
256
6
ByLayer
370
18
48
1
60
0
100
AcDbLine
10
125.271
20
-9.639307
30
0
11
125.271
21
-9.414293
31
0
39
0
210
0
220
0
230
1
0
LINE
5
C5
100
AcDbEntity
8
1
62
256
6
ByLayer
370
18
48
1
60
0
100
AcDbLine
10
125.271
20
-10.39959
30
0
11
125.271
21
-10.229548
31
0
39
0
210
0
220
0
230
1
0
LINE
5
C6
100
AcDbEntity
8
1
62
256
6
ByLayer
370
18
48
1
60
0
100
AcDbLine
10
125.271
20
-10.96639
30
0
11
125.271
21
-10.841283
31
0
39
0
210
0
220
0
230
1
0
LINE
5
C7
100
AcDbEntity
8
1
62
256
6
ByLayer
370
18
48
1
60
0
100
AcDbLine
10
125.271
20
-11.368683
30
0
11
125.271
21
-11.282649
31
0
39
0
210
0
220
0
230
1
0
LINE
5
C8
100
AcDbEntity
8
1
62
256
6
ByLayer
370
18
48
1
60
0
100
AcDbLine
10
125.271
20
-11.623562
30
0
11
125.271
21
-11.573156
31
0
39
0
210
0
220
0
230
1
0
LINE
5
C9
100
AcDbEntity
8
1
62
256
6
ByLayer
370
18
48
1
60
0
100
AcDbLine
10
123
20
-12.208194
30
0
11
123
21
0
31
0
39
0
210
0
220
0
230
1
0
LINE
5
CA
100
AcDbEntity
8
1
62
256
6
ByLayer
370
18
48
1
60
0
100
AcDbLine
10
123
20
0
30
0
11
123
21
12.208194
31
0
39
0
210
0
220
0
230
1
0
LINE
5
CB
100
AcDbEntity
8
SK1
62
256
6
ByLayer
370
18
48
1
60
0
100
AcDbLine
10
133
20
9.156854
30
0
11
133
21
2.156854
31
0
39
0
210
0
220
0
230
1
0
LINE
5
CC
100
AcDbEntity
8
SK1
62
256
6
ByLayer
370
18
48
1
60
0
100
AcDbLine
10
129
20
9.156854
30
0
11
129
21
2.156854
31
0
39
0
210
0
220
0
230
1
0
LINE
5
CD
100
AcDbEntity
8
SK1
62
256
6
ByLayer
370
18
48
1
60
0
100
AcDbLine
10
133
20
-2.156854
30
0
11
133
21
-9.156854
31
0
39
0
210
0
220
0
230
1
0
LINE
5
CE
100
AcDbEntity
8
SK1
62
256
6
ByLayer
370
18
48
1
60
0
100
AcDbLine
10
129
20
-2.156854
30
0
11
129
21
-9.156854
31
0
39
0
210
0
220
0
230
1
0
LINE
5
CF
100
AcDbEntity
8
1
62
256
6
ByLayer
370
18
48
1
60
0
100
AcDbLine
10
15
20
16
30
0
11
15
21
-16
31
0
39
0
210
0
220
0
230
1
0
LINE
5
D0
100
AcDbEntity
8
1
62
256
6
ByLayer
370
18
48
1
60
0
100
AcDbLine
10
0.3
20
16
30
0
11
0.3
21
-16
31
0
39
0
210
0
220
0
230
1
0
LINE
5
D1
100
AcDbEntity
8
1
62
256
6
ByLayer
370
18
48
1
60
0
100
AcDbLine
10
15.342026
20
14.723543
30
0
11
15.342026
21
-14.723543
31
0
39
0
210
0
220
0
230
1
0
LINE
5
D2
100
AcDbEntity
8
1
62
256
6
ByLayer
370
18
48
1
60
0
100
AcDbLine
10
0
20
-15.7
30
0
11
0
21
15.7
31
0
39
0
210
0
220
0
230
1
0
LINE
5
D3
100
AcDbEntity
8
1
62
256
6
ByLayer
370
18
48
1
60
0
100
AcDbLine
10
18.239803
20
12.5
30
0
11
18.239803
21
-12.5
31
0
39
0
210
0
220
0
230
1
0
LINE
5
D4
100
AcDbEntity
8
SK1
62
256
6
ByLayer
370
18
48
1
60
0
100
AcDbLine
10
-0.2
20
10.883485
30
0
11
-0.2
21
5.197043
31
0
39
0
210
0
220
0
230
1
0
LINE
5
D5
100
AcDbEntity
8
SK1
62
256
6
ByLayer
370
18
48
1
60
0
100
AcDbLine
10
-1.307107
20
3.2741
30
0
11
-1.307107
21
-3.2741
31
0
39
0
210
0
220
0
230
1
0
LINE
5
D6
100
AcDbEntity
8
SK1
62
256
6
ByLayer
370
18
48
1
60
0
100
AcDbLine
10
-0.2
20
-5.197043
30
0
11
-0.2
21
-10.883485
31
0
39
0
210
0
220
0
230
1
0
LINE
5
D7
100
AcDbEntity
8
1
62
256
6
ByLayer
370
18
48
1
60
0
100
AcDbLine
10
122.8
20
-12.5
30
0
11
122.8
21
0
31
0
39
0
210
0
220
0
230
1
0
LINE
5
D8
100
AcDbEntity
8
1
62
256
6
ByLayer
370
18
48
1
60
0
100
AcDbLine
10
123
20
12.3
30
0
11
123
21
12.23334
31
0
39
0
210
0
220
0
230
1
0
LINE
5
D9
100
AcDbEntity
8
1
62
256
6
ByLayer
370
18
48
1
60
0
100
AcDbLine
10
123
20
12.23334
30
0
11
123
21
12.208194
31
0
39
0
210
0
220
0
230
1
0
LINE
5
DA
100
AcDbEntity
8
1
62
256
6
ByLayer
370
18
48
1
60
0
100
AcDbLine
10
123
20
12.208194
30
0
11
123
21
0
31
0
39
0
210
0
220
0
230
1
0
LINE
5
DB
100
AcDbEntity
8
1
62
256
6
ByLayer
370
18
48
1
60
0
100
AcDbLine
10
123
20
0
30
0
11
123
21
-12.208194
31
0
39
0
210
0
220
0
230
1
0
LINE
5
DC
100
AcDbEntity
8
1
62
256
6
ByLayer
370
18
48
1
60
0
100
AcDbLine
10
123
20
-12.208194
30
0
11
123
21
-12.232542
31
0
39
0
210
0
220
0
230
1
0
LINE
5
DD
100
AcDbEntity
8
1
62
256
6
ByLayer
370
18
48
1
60
0
100
AcDbLine
10
123
20
-12.232542
30
0
11
123
21
-12.3
31
0
39
0
210
0
220
0
230
1
0
LINE
5
DE
100
AcDbEntity
8
1
62
256
6
ByLayer
370
18
48
1
60
0
100
AcDbLine
10
122.8
20
0
30
0
11
122.8
21
12.5
31
0
39
0
210
0
220
0
230
1
0
LINE
5
DF
100
AcDbEntity
8
SK1
62
256
6
ByLayer
370
18
48
1
60
0
100
AcDbLine
10
-2.5
20
-11
30
0
11
-2.5
21
11
31
0
39
0
210
0
220
0
230
1
0
LINE
5
E0
100
AcDbEntity
8
SK1
62
256
6
ByLayer
370
18
48
1
60
0
100
AcDbLine
10
-18.000315
20
10.60835
30
0
11
-18.000315
21
-10.609189
31
0
39
0
210
0
220
0
230
1
0
LINE
5
E1
100
AcDbEntity
8
SK1
62
256
6
ByLayer
370
18
48
1
60
0
100
AcDbLine
10
-19
20
-9.99734
30
0
11
-19
21
9.997363
31
0
39
0
210
0
220
0
230
1
0
LINE
5
E2
100
AcDbEntity
8
SK1
62
256
6
ByLayer
370
18
48
1
60
0
100
AcDbLine
10
-1.5
20
-2.308307
30
0
11
-1.5
21
-10.786085
31
0
39
0
210
0
220
0
230
1
0
LINE
5
E3
100
AcDbEntity
8
SK1
62
256
6
ByLayer
370
18
48
1
60
0
100
AcDbLine
10
-1.5
20
10.786085
30
0
11
-1.5
21
2.308306
31
0
39
0
210
0
220
0
230
1
0
LINE
5
E4
100
AcDbEntity
8
SK1
62
256
6
ByLayer
370
18
48
1
60
0
100
AcDbLine
10
-0.4
20
10.77209
30
0
11
-0.4
21
4.489349
31
0
39
0
210
0
220
0
230
1
0
LINE
5
E5
100
AcDbEntity
8
SK1
62
256
6
ByLayer
370
18
48
1
60
0
100
AcDbLine
10
-0.4
20
-4.489349
30
0
11
-0.4
21
-10.77209
31
0
39
0
210
0
220
0
230
1
0
MTEXT
5
15B
100
AcDbEntity
8
SK6
62
256
6
ByLayer
370
13
48
1
60
0
100
AcDbMText
10
1.167738
20
51.649003
30
0
210
0
220
0
230
1
1
\W0.7006;C3-570-3C 25 125
40
3.175
41
0
44
1.084337
50
0
71
7
72
5
7
iso_b_vert
0
DIMENSION
5
169
100
AcDbEntity
8
2
62
256
6
ByLayer
370
13
48
1
60
0
100
AcDbDimension
2
DimnDraft3D1
10
125
20
41.9685
30
0
11
59.813783
21
41.9685
31
0
70
32
71
5
72
1
41
1
210
0
220
0
230
1
3
Standard
100
AcDbAlignedDimension
13
0
23
1.5875
33
0
14
125
24
1.5875
34
0
50
0
100
AcDbRotatedDimension
1001
ACAD
1000
DSTYLE
1002
{
1070
   279
1070
     0
1070
   173
1070
     1
1070
   340
1005
15C
1070
   271
1070
     1
1070
   272
1070
     2
1070
    77
1070
     1
1070
    73
1070
     0
1070
   171
1070
     3
1070
   274
1070
     4
1070
   177
1070
     7
1070
   176
1070
     7
1070
   178
1070
     7
1070
    78
1070
     8
1070
    48
1040
-0.005
1070
    41
1041
3.175
1070
   147
1041
1.5875
1070
    42
1041
1.5875
1070
    44
1041
3.175
1070
   140
1041
3.175
1070
   343
1005
0
1070
   344
1005
0
1002
}
0
DIMENSION
5
172
100
AcDbEntity
8
SK2
62
256
6
ByLayer
370
13
48
1
60
0
100
AcDbDimension
2
DimnDraft3D2
10
18.239803
20
15.5
30
0
11
30.024128
21
27.440806
31
0
70
36
71
5
72
1
41
1
210
0
220
0
230
1
3
Standard
100
AcDbRadialDimension
15
0
25
0
35
0
40
0
1001
ACAD
1000
DSTYLE
1002
{
1070
   279
1070
     0
1070
   173
1070
     1
1070
   340
1005
15C
1070
    75
1070
     1
1070
    76
1070
     1
1070
   271
1070
     1
1070
   272
1070
     2
1070
    77
1070
     1
1070
    73
1070
     0
1070
   171
1070
     3
1070
   274
1070
     4
1070
   177
1070
     7
1070
   176
1070
     7
1070
   178
1070
     7
1070
    78
1070
     8
1070
    48
1040
-0.005
1070
    41
1041
3.175
1070
   147
1041
1.5875
1070
    42
1041
1.5875
1070
    44
1041
3.175
1070
   140
1041
3.175
1070
   343
1005
0
1070
   344
1005
0
1002
}
0
DIMENSION
5
17D
100
AcDbEntity
8
SK2
62
256
6
ByLayer
370
13
48
1
60
0
100
AcDbDimension
2
DimnDraft3D3
10
155.760666
20
-12.5
30
0
11
155.760666
21
18.896976
31
0
70
32
71
5
72
1
41
1
210
0
220
0
230
1
3
Standard
100
AcDbAlignedDimension
13
124.3875
23
12.5
33
0
14
124.3875
24
-12.5
34
0
50
90
100
AcDbRotatedDimension
1001
ACAD
1000
DSTYLE
1002
{
1070
    74
1070
     0
1070
   279
1070
     0
1070
   173
1070
     1
1070
   340
1005
15C
1070
   271
1070
     1
1070
   272
1070
     2
1070
    77
1070
     1
1070
    73
1070
     0
1070
   171
1070
     3
1070
   274
1070
     4
1070
   177
1070
     7
1070
   176
1070
     7
1070
   178
1070
     7
1070
    78
1070
     8
1070
    48
1040
-0.005
1070
    41
1041
3.175
1070
   147
1041
1.5875
1070
    42
1041
1.5875
1070
    44
1041
3.175
1070
   140
1041
3.175
1070
   343
1005
0
1070
   344
1005
0
1002
}
0
DIMENSION
5
188
100
AcDbEntity
8
SK2
62
256
6
ByLayer
370
13
48
1
60
0
100
AcDbDimension
2
DimnDraft3D4
10
-26.918751
20
-16
30
0
11
-26.918751
21
-6.659145
31
0
70
32
71
5
72
1
41
1
210
0
220
0
230
1
3
Standard
100
AcDbAlignedDimension
13
-1.2875
23
16
33
0
14
-1.2875
24
-16
34
0
50
90
100
AcDbRotatedDimension
1001
ACAD
1000
DSTYLE
1002
{
1070
    74
1070
     0
1070
   279
1070
     0
1070
   173
1070
     1
1070
   340
1005
15C
1070
   271
1070
     1
1070
   272
1070
     2
1070
    77
1070
     1
1070
    73
1070
     0
1070
   171
1070
     3
1070
   274
1070
     4
1070
   177
1070
     7
1070
   176
1070
     7
1070
   178
1070
     7
1070
    78
1070
     8
1070
    48
1040
-0.005
1070
    41
1041
3.175
1070
   147
1041
1.5875
1070
    42
1041
1.5875
1070
    44
1041
3.175
1070
   140
1041
3.175
1070
   343
1005
0
1070
   344
1005
0
1002
}
0
DIMENSION
5
19C
100
AcDbEntity
8
SK2
62
256
6
ByLayer
370
13
48
1
60
0
100
AcDbDimension
2
DimnDraft3D6
10
0
20
-25.258595
30
0
11
6.00023
21
-25.258595
31
0
70
32
71
5
72
1
41
1
210
0
220
0
230
1
3
Standard
100
AcDbAlignedDimension
13
15
23
-17.5875
33
0
14
0
24
-17.2875
34
0
50
0
100
AcDbRotatedDimension
1001
ACAD
1000
DSTYLE
1002
{
1070
   279
1070
     0
1070
   173
1070
     1
1070
   340
1005
15C
1070
   271
1070
     1
1070
   272
1070
     2
1070
    77
1070
     1
1070
    73
1070
     0
1070
   171
1070
     3
1070
   274
1070
     4
1070
   177
1070
     7
1070
   176
1070
     7
1070
   178
1070
     7
1070
    78
1070
     8
1070
    48
1040
-0.005
1070
    41
1041
3.175
1070
   147
1041
1.5875
1070
    42
1041
1.5875
1070
    44
1041
3.175
1070
   140
1041
3.175
1070
   343
1005
0
1070
   344
1005
0
1002
}
0
ENDSEC
0
SECTION
2
OBJECTS
0
DICTIONARY
5
207
330
0
100
AcDbDictionary
280
0
281
1
3
ACAD_GROUP
350
208
3
ACAD_MLINESTYLE
350
209
0
DICTIONARY
5
208
330
0
100
AcDbDictionary
280
0
281
1
0
DICTIONARY
5
209
330
0
100
AcDbDictionary
280
0
281
1
3
Standard
350
18
0
MLINESTYLE
5
18
330
209
100
AcDbMlineStyle
2
Standard
70
0
3

62
256
51
90
52
90
71
2
49
-0.5
62
256
6
ByLayer
49
0.5
62
256
6
ByLayer
0
RASTERVARIABLES
5
1f5
330

100
AcDbRasterVariables
90
0
70
1
71
1
72
1
0
ENDSEC
0
EOF
