0
SECTION
2
HEADER
9
$ACADVER
1
AC1015
9
$DWGCODEPAGE
3
ANSI_1252
9
$HANDSEED
5
1fc
9
$ANGBASE
50
0
9
$ANGDIR
70
0
9
$ATTMODE
70
1
9
$AUNITS
70
0
9
$AUPREC
70
0
9
$CECOLOR
62
256
9
$CELTSCALE
40
1
9
$CELTYPE
6
ByLayer
9
$CELWEIGHT
370
18
9
$CLAYER
8
0
9
$CMLJUST
70
0
9
$CMLSCALE
40
1
9
$CMLSTYLE
2
Standard
9
$DIMSTYLE
2
Standard
9
$TEXTSIZE
40
0.2
9
$TEXTSTYLE
7
Standard
9
$LUNITS
70
2
9
$LUPREC
70
4
9
$EXTNAMES
290
1
9
$INSUNITS
70
4
9
$LTSCALE
40
1
9
$LWDISPLAY
290
1
9
$PDMODE
70
0
9
$PDSIZE
40
0
9
$PLINEGEN
70
0
0
ENDSEC
0
SECTION
2
CLASSES
0
CLASS
1
RASTERVARIABLES
2
AcDbRasterVariables
3
ISM
90
0
280
0
281
0
0
ENDSEC
0
SECTION
2
TABLES
0
TABLE
2
VPORT
5
1f2
100
AcDbSymbolTable
0
VPORT
5
1
100
AcDbSymbolTableRecord
100
AcDbViewportTableRecord
2
*Active
70
0
10
0
20
0
11
1
21
1
12
-1
22
1
13
0
23
0
14
0.5
24
0.5
15
10
25
10
16
0
26
0
36
1
17
0
27
0
37
0
0
ENDTAB
0
TABLE
2
LTYPE
5
1f3
100
AcDbSymbolTable
0
LTYPE
5
14
100
AcDbSymbolTableRecord
100
AcDbLinetypeTableRecord
70
0
2
ByBlock
3

72
65
73
0
40
0
0
LTYPE
5
15
100
AcDbSymbolTableRecord
100
AcDbLinetypeTableRecord
70
0
2
ByLayer
3

72
65
73
0
40
0
0
LTYPE
5
16
100
AcDbSymbolTableRecord
100
AcDbLinetypeTableRecord
70
0
2
CONTINUOUS
3
Solid line
72
65
73
0
40
0
0
LTYPE
5
6A
100
AcDbSymbolTableRecord
100
AcDbLinetypeTableRecord
70
0
2
CENTER
3
____ _ ____ _ ____ _ ____
72
65
73
4
40
47.5
49
22
74
0
49
-8.5
74
0
49
8.5
74
0
49
-8.5
74
0
0
LTYPE
5
6B
100
AcDbSymbolTableRecord
100
AcDbLinetypeTableRecord
70
0
2
DASHED
3
__ __ __ __ __ __ __ __ __
72
65
73
2
40
25.72
49
12.86
74
0
49
-12.86
74
0
0
ENDTAB
0
TABLE
2
LAYER
5
1f4
100
AcDbSymbolTable
0
LAYER
5
10
100
AcDbSymbolTableRecord
100
AcDbLayerTableRecord
2
0
70
0
62
7
6
CONTINUOUS
290
1
370
-3
390
0
0
LAYER
5
6D
100
AcDbSymbolTableRecord
100
AcDbLayerTableRecord
2
80
70
0
62
-6
6
CONTINUOUS
290
1
370
-3
390
0
0
LAYER
5
6F
100
AcDbSymbolTableRecord
100
AcDbLayerTableRecord
2
81
70
0
62
-3
6
CONTINUOUS
290
1
370
-3
390
0
0
LAYER
5
72
100
AcDbSymbolTableRecord
100
AcDbLayerTableRecord
2
4
70
0
62
-2
6
CENTER
290
1
370
-3
390
0
0
LAYER
5
7C
100
AcDbSymbolTableRecord
100
AcDbLayerTableRecord
2
1
70
0
62
4
6
CONTINUOUS
290
1
370
-3
390
0
0
LAYER
5
149
100
AcDbSymbolTableRecord
100
AcDbLayerTableRecord
2
2
70
0
62
7
6
CONTINUOUS
290
1
370
-3
390
0
0
LAYER
5
1de
100
AcDbSymbolTableRecord
100
AcDbLayerTableRecord
2
SK4
70
0
62
2
6
CENTER
290
1
370
-3
390
0
0
LAYER
5
1df
100
AcDbSymbolTableRecord
100
AcDbLayerTableRecord
2
SK1
70
0
62
4
6
CONTINUOUS
290
1
370
-3
390
0
0
LAYER
5
1e0
100
AcDbSymbolTableRecord
100
AcDbLayerTableRecord
2
SK6
70
0
62
5
6
CONTINUOUS
290
1
370
-3
390
0
0
LAYER
5
1e1
100
AcDbSymbolTableRecord
100
AcDbLayerTableRecord
2
SK2
70
0
62
7
6
CONTINUOUS
290
1
370
-3
390
0
0
ENDTAB
0
TABLE
2
STYLE
5
1f5
100
AcDbSymbolTable
0
STYLE
5
11
100
AcDbSymbolTableRecord
100
AcDbTextStyleTableRecord
2
Standard
3
txt
70
0
71
0
40
0
41
1
42
0
50
0
0
STYLE
5
144
100
AcDbSymbolTableRecord
100
AcDbTextStyleTableRecord
2
iso_b_vert
3
simplex.shx
70
0
71
0
40
0
41
1
42
0
50
0
0
STYLE
5
145
100
AcDbSymbolTableRecord
100
AcDbTextStyleTableRecord
2
DWGDirectTextStyle
3
simplex
70
0
71
0
40
0
41
1
42
0
50
0
0
ENDTAB
0
TABLE
2
DIMSTYLE
5
1f6
100
AcDbSymbolTable
100
AcDbDimStyleTable
0
DIMSTYLE
105
27
100
AcDbSymbolTableRecord
100
AcDbDimStyleTableRecord
2
Standard
70
0
3
<>
41
0.18
42
0.0625
44
0.18
140
0.18
147
0.09
73
0
74
0
77
1
271
2
275
0
278
52
280
0
340
11
0
ENDTAB
0
TABLE
2
VIEW
5
1f7
100
AcDbSymbolTable
0
ENDTAB
0
TABLE
2
UCS
5
1f8
100
AcDbSymbolTable
0
ENDTAB
0
TABLE
2
APPID
5
1f9
100
AcDbSymbolTable
0
APPID
5
12
100
AcDbSymbolTableRecord
100
AcDbRegAppTableRecord
2
ACAD
70
0
0
ENDTAB
0
TABLE
2
BLOCK_RECORD
5
1fa
100
AcDbSymbolTable
0
BLOCK_RECORD
5
1F
100
AcDbSymbolTableRecord
100
AcDbBlockTableRecord
2
*Model_Space
340
0
70
0
0
BLOCK_RECORD
5
1B
100
AcDbSymbolTableRecord
100
AcDbBlockTableRecord
2
*Paper_Space
340
0
70
0
0
BLOCK_RECORD
5
23
100
AcDbSymbolTableRecord
100
AcDbBlockTableRecord
2
*Paper_Space0
340
0
70
0
0
BLOCK_RECORD
5
147
100
AcDbSymbolTableRecord
100
AcDbBlockTableRecord
2
DimnDraft3D1
340
0
70
0
0
BLOCK_RECORD
5
152
100
AcDbSymbolTableRecord
100
AcDbBlockTableRecord
2
DimnDraft3D2
340
0
70
0
0
BLOCK_RECORD
5
15E
100
AcDbSymbolTableRecord
100
AcDbBlockTableRecord
2
DimnDraft3D3
340
0
70
0
0
BLOCK_RECORD
5
166
100
AcDbSymbolTableRecord
100
AcDbBlockTableRecord
2
DimnDraft3D4
340
0
70
0
0
BLOCK_RECORD
5
170
100
AcDbSymbolTableRecord
100
AcDbBlockTableRecord
2
DimnDraft3D55
340
0
70
0
0
BLOCK_RECORD
5
17A
100
AcDbSymbolTableRecord
100
AcDbBlockTableRecord
2
DimnDraft3D6
340
0
70
0
0
ENDTAB
0
ENDSEC
0
SECTION
2
BLOCKS
0
BLOCK
5
20
100
AcDbEntity
8
0
100
AcDbBlockBegin
2
*Model_Space
70
0
10
0
20
0
30
0
3
*Model_Space
0
ENDBLK
5
21
100
AcDbEntity
8
0
100
AcDbBlockEnd
0
BLOCK
5
1C
100
AcDbEntity
8
0
100
AcDbBlockBegin
2
*Paper_Space
70
0
10
0
20
0
30
0
3
*Paper_Space
0
ENDBLK
5
1D
100
AcDbEntity
8
0
100
AcDbBlockEnd
0
BLOCK
5
24
100
AcDbEntity
8
0
100
AcDbBlockBegin
2
*Paper_Space0
70
0
10
0
20
0
30
0
3
*Paper_Space0
0
ENDBLK
5
25
100
AcDbEntity
8
0
100
AcDbBlockEnd
0
BLOCK
5
14F
100
AcDbEntity
8
0
100
AcDbBlockBegin
2
DimnDraft3D1
70
0
10
0
20
0
30
0
3
DimnDraft3D1
0
MTEXT
5
148
100
AcDbEntity
8
2
62
256
6
ByLayer
370
13
48
1
60
0
100
AcDbMText
10
49.004408
20
38.886836
30
0
210
0
220
0
230
1
1
\W0.5919;101
40
3.175
41
0
44
1.084337
50
0
71
7
72
5
7
iso_b_vert
0
LINE
5
14A
100
AcDbEntity
8
2
62
256
6
ByLayer
370
13
48
1
60
0
100
AcDbLine
10
0
20
1.5875
30
0
11
0
21
41.268086
31
0
39
0
210
0
220
0
230
1
0
LINE
5
14B
100
AcDbEntity
8
2
62
256
6
ByLayer
370
13
48
1
60
0
100
AcDbLine
10
101
20
1.5875
30
0
11
101
21
41.268086
31
0
39
0
210
0
220
0
230
1
0
LINE
5
14C
100
AcDbEntity
8
2
62
256
6
ByLayer
370
13
48
1
60
0
100
AcDbLine
10
0
20
38.093086
30
0
11
101
21
38.093086
31
0
39
0
210
0
220
0
230
1
0
SOLID
5
14D
100
AcDbEntity
8
2
62
256
6
ByLayer
370
13
48
1
60
0
100
AcDbTrace
10
0
20
38.093086
30
0
11
3.174998
21
38.511083
31
0
12
3.175002
22
37.67509
32
0
13
0
23
38.093086
33
0
39
0
210
0
220
0
230
1
0
SOLID
5
14E
100
AcDbEntity
8
2
62
256
6
ByLayer
370
13
48
1
60
0
100
AcDbTrace
10
101
20
38.093086
30
0
11
97.825002
21
37.67509
31
0
12
97.824998
22
38.511083
32
0
13
101
23
38.093086
33
0
39
0
210
0
220
0
230
1
0
ENDBLK
5
150
100
AcDbEntity
8
0
100
AcDbBlockEnd
0
BLOCK
5
15B
100
AcDbEntity
8
0
100
AcDbBlockBegin
2
DimnDraft3D2
70
0
10
0
20
0
30
0
3
DimnDraft3D2
0
MTEXT
5
153
100
AcDbEntity
8
SK2
62
256
6
ByLayer
370
13
48
1
60
0
100
AcDbMText
10
-33.638632
20
-4.25309
30
0
210
0
220
0
230
1
1
%%c
40
3.175
41
0
44
1.084337
50
90
71
7
72
5
7
iso_b_vert
0
MTEXT
5
155
100
AcDbEntity
8
SK2
62
256
6
ByLayer
370
13
48
1
60
0
100
AcDbMText
10
-33.638632
20
3.659605
30
0
210
0
220
0
230
1
1
\W0.6740;32
40
3.175
41
0
44
1.084337
50
90
71
7
72
5
7
iso_b_vert
0
LINE
5
156
100
AcDbEntity
8
SK2
62
256
6
ByLayer
370
13
48
1
60
0
100
AcDbLine
10
-1.2875
20
16
30
0
11
-35.226132
21
16
31
0
39
0
210
0
220
0
230
1
0
LINE
5
157
100
AcDbEntity
8
SK2
62
256
6
ByLayer
370
13
48
1
60
0
100
AcDbLine
10
-1.2875
20
-16
30
0
11
-35.226132
21
-16
31
0
39
0
210
0
220
0
230
1
0
LINE
5
158
100
AcDbEntity
8
SK2
62
256
6
ByLayer
370
13
48
1
60
0
100
AcDbLine
10
-32.051132
20
16
30
0
11
-32.051132
21
-16
31
0
39
0
210
0
220
0
230
1
0
SOLID
5
159
100
AcDbEntity
8
SK2
62
256
6
ByLayer
370
13
48
1
60
0
100
AcDbTrace
10
-32.051132
20
16
30
0
11
-31.633136
21
12.825002
31
0
12
-32.469129
22
12.824998
32
0
13
-32.051132
23
16
33
0
39
0
210
0
220
0
230
1
0
SOLID
5
15A
100
AcDbEntity
8
SK2
62
256
6
ByLayer
370
13
48
1
60
0
100
AcDbTrace
10
-32.051132
20
-16
30
0
11
-32.469129
21
-12.825002
31
0
12
-31.633136
22
-12.824998
32
0
13
-32.051132
23
-16
33
0
39
0
210
0
220
0
230
1
0
ENDBLK
5
15C
100
AcDbEntity
8
0
100
AcDbBlockEnd
0
BLOCK
5
163
100
AcDbEntity
8
0
100
AcDbBlockBegin
2
DimnDraft3D3
70
0
10
0
20
0
30
0
3
DimnDraft3D3
0
MTEXT
5
15F
100
AcDbEntity
8
SK2
62
256
6
ByLayer
370
13
48
1
60
0
100
AcDbMText
10
32.24402
20
27.143813
30
0
210
0
220
0
230
1
1
\W0.5404;3
40
3.175
41
0
44
1.084337
50
44.3470958634455
71
7
72
5
7
iso_b_vert
0
MTEXT
5
160
100
AcDbEntity
8
SK2
62
256
6
ByLayer
370
13
48
1
60
0
100
AcDbMText
10
29.286394
20
24.252836
30
0
210
0
220
0
230
1
1
\W0.6380;R
40
3.175
41
0
44
1.084337
50
44.3470958634455
71
7
72
5
7
iso_b_vert
0
LINE
5
161
100
AcDbEntity
8
SK2
62
256
6
ByLayer
370
13
48
1
60
0
100
AcDbLine
10
16.764321
20
10.90299
30
0
11
33.246979
21
27.014214
31
0
39
0
210
0
220
0
230
1
0
SOLID
5
162
100
AcDbEntity
8
SK2
62
256
6
ByLayer
370
13
48
1
60
0
100
AcDbTrace
10
16.764321
20
10.90299
30
0
11
18.74264
21
13.421242
31
0
12
19.327004
22
12.82341
32
0
13
16.764321
23
10.90299
33
0
39
0
210
0
220
0
230
1
0
ENDBLK
5
164
100
AcDbEntity
8
0
100
AcDbBlockEnd
0
BLOCK
5
16D
100
AcDbEntity
8
0
100
AcDbBlockBegin
2
DimnDraft3D4
70
0
10
0
20
0
30
0
3
DimnDraft3D4
0
MTEXT
5
167
100
AcDbEntity
8
SK2
62
256
6
ByLayer
370
13
48
1
60
0
100
AcDbMText
10
6.79398
20
-24.028622
30
0
210
0
220
0
230
1
1
\W0.5321;15
40
3.175
41
0
44
1.084337
50
0
71
7
72
5
7
iso_b_vert
0
LINE
5
168
100
AcDbEntity
8
SK2
62
256
6
ByLayer
370
13
48
1
60
0
100
AcDbLine
10
0
20
-17.2875
30
0
11
0
21
-27.997372
31
0
39
0
210
0
220
0
230
1
0
LINE
5
169
100
AcDbEntity
8
SK2
62
256
6
ByLayer
370
13
48
1
60
0
100
AcDbLine
10
15
20
-17.5875
30
0
11
15
21
-27.997372
31
0
39
0
210
0
220
0
230
1
0
LINE
5
16A
100
AcDbEntity
8
SK2
62
256
6
ByLayer
370
13
48
1
60
0
100
AcDbLine
10
0
20
-24.822372
30
0
11
15
21
-24.822372
31
0
39
0
210
0
220
0
230
1
0
SOLID
5
16B
100
AcDbEntity
8
SK2
62
256
6
ByLayer
370
13
48
1
60
0
100
AcDbTrace
10
0
20
-24.822372
30
0
11
3.174998
21
-24.404375
31
0
12
3.175002
22
-25.240369
32
0
13
0
23
-24.822372
33
0
39
0
210
0
220
0
230
1
0
SOLID
5
16C
100
AcDbEntity
8
SK2
62
256
6
ByLayer
370
13
48
1
60
0
100
AcDbTrace
10
15
20
-24.822372
30
0
11
11.825002
21
-25.240369
31
0
12
11.824998
22
-24.404375
32
0
13
15
23
-24.822372
33
0
39
0
210
0
220
0
230
1
0
ENDBLK
5
16E
100
AcDbEntity
8
0
100
AcDbBlockEnd
0
BLOCK
5
171
100
AcDbEntity
8
0
100
AcDbBlockBegin
2
DimnDraft3D55
70
0
10
0
20
0
30
0
3
DimnDraft3D55
0
LINE
5
173
100
AcDbEntity
8
SK2
62
256
6
ByLayer
370
25
48
1
60
0
100
AcDbLine
10
101
20
-1.5875
30
0
11
101
21
-27.907778
31
0
39
0
210
0
220
0
230
1
0
LINE
5
174
100
AcDbEntity
8
SK2
62
256
6
ByLayer
370
25
48
1
60
0
100
AcDbLine
10
18.909676
20
-11.5875
30
0
11
18.909676
21
-27.907778
31
0
39
0
210
0
220
0
230
1
0
LINE
5
175
100
AcDbEntity
8
SK2
62
256
6
ByLayer
370
25
48
1
60
0
100
AcDbLine
10
101
20
-24.732778
30
0
11
18.909676
21
-24.732778
31
0
39
0
210
0
220
0
230
1
0
SOLID
5
176
100
AcDbEntity
8
SK2
62
256
6
ByLayer
370
25
48
1
60
0
100
AcDbTrace
10
101
20
-24.732778
30
0
11
97.825002
21
-25.150775
31
0
12
97.824998
22
-24.314781
32
0
13
101
23
-24.732778
33
0
39
0
210
0
220
0
230
1
0
SOLID
5
177
100
AcDbEntity
8
SK2
62
256
6
ByLayer
370
25
48
1
60
0
100
AcDbTrace
10
18.909676
20
-24.732778
30
0
11
22.084675
21
-24.314781
31
0
12
22.084678
22
-25.150775
32
0
13
18.909676
23
-24.732778
33
0
39
0
210
0
220
0
230
1
0
MTEXT
5
178
100
AcDbEntity
8
SK2
62
256
6
ByLayer
370
13
48
1
60
0
100
AcDbMText
10
57.502568
20
-23.939028
30
0
210
0
220
0
230
1
1
\W0.6993;82,1
40
3.175
41
0
44
1.084337
50
0
71
7
72
5
7
iso_b_vert
0
ENDBLK
5
172
100
AcDbEntity
8
0
100
AcDbBlockEnd
0
BLOCK
5
182
100
AcDbEntity
8
0
100
AcDbBlockBegin
2
DimnDraft3D6
70
0
10
0
20
0
30
0
3
DimnDraft3D6
0
MTEXT
5
17B
100
AcDbEntity
8
SK2
62
256
6
ByLayer
370
13
48
1
60
0
100
AcDbMText
10
131.442058
20
23.381815
30
0
210
0
220
0
230
1
1
%%c
40
3.175
41
0
44
1.084337
50
90
71
7
72
5
7
iso_b_vert
0
MTEXT
5
17C
100
AcDbEntity
8
SK2
62
256
6
ByLayer
370
13
48
1
60
0
100
AcDbMText
10
131.442058
20
31.29451
30
0
210
0
220
0
230
1
1
\W0.6740;20
40
3.175
41
0
44
1.084337
50
90
71
7
72
5
7
iso_b_vert
0
LINE
5
17D
100
AcDbEntity
8
SK2
62
256
6
ByLayer
370
13
48
1
60
0
100
AcDbLine
10
100.3875
20
10
30
0
11
136.204558
21
10
31
0
39
0
210
0
220
0
230
1
0
LINE
5
17E
100
AcDbEntity
8
SK2
62
256
6
ByLayer
370
13
48
1
60
0
100
AcDbLine
10
100.3875
20
-10
30
0
11
136.204558
21
-10
31
0
39
0
210
0
220
0
230
1
0
LINE
5
17F
100
AcDbEntity
8
SK2
62
256
6
ByLayer
370
13
48
1
60
0
100
AcDbLine
10
133.029558
20
-10
30
0
11
133.029558
21
34.294049
31
0
39
0
210
0
220
0
230
1
0
SOLID
5
180
100
AcDbEntity
8
SK2
62
256
6
ByLayer
370
13
48
1
60
0
100
AcDbTrace
10
133.029558
20
10
30
0
11
133.447555
21
6.825002
31
0
12
132.611562
22
6.824998
32
0
13
133.029558
23
10
33
0
39
0
210
0
220
0
230
1
0
SOLID
5
181
100
AcDbEntity
8
SK2
62
256
6
ByLayer
370
13
48
1
60
0
100
AcDbTrace
10
133.029558
20
-10
30
0
11
132.611562
21
-6.825002
31
0
12
133.447555
22
-6.824998
32
0
13
133.029558
23
-10
33
0
39
0
210
0
220
0
230
1
0
ENDBLK
5
183
100
AcDbEntity
8
0
100
AcDbBlockEnd
0
ENDSEC
0
SECTION
2
ENTITIES
0
ARC
5
DD
100
AcDbEntity
8
SK1
62
256
6
ByLayer
370
18
48
1
60
0
100
AcDbCircle
39
0
10
0.6
20
11.8
30
0
40
1
210
0
220
0
230
-1
100
AcDbArc
50
233.130102
51
246.421822
0
ARC
5
DE
100
AcDbEntity
8
SK1
62
256
6
ByLayer
370
18
48
1
60
0
100
AcDbCircle
39
0
10
0.6
20
-11.8
30
0
40
1
210
0
220
0
230
-1
100
AcDbArc
50
113.578178
51
126.869898
0
ARC
5
DF
100
AcDbEntity
8
1
62
256
6
ByLayer
370
18
48
1
60
0
100
AcDbCircle
39
0
10
-18.909676
20
13
30
0
40
3
210
0
220
0
230
-1
100
AcDbArc
50
270
51
345
0
ARC
5
E0
100
AcDbEntity
8
1
62
256
6
ByLayer
370
18
48
1
60
0
100
AcDbCircle
39
0
10
-18.909676
20
-13
30
0
40
3
210
0
220
0
230
-1
100
AcDbArc
50
15
51
90
0
ARC
5
E1
100
AcDbEntity
8
1
62
256
6
ByLayer
370
18
48
1
60
0
100
AcDbCircle
39
0
10
98.8
20
-9.8
30
0
40
0.2
210
0
220
0
230
1
100
AcDbArc
50
270
51
0
0
ARC
5
E2
100
AcDbEntity
8
1
62
256
6
ByLayer
370
18
48
1
60
0
100
AcDbCircle
39
0
10
98.8
20
9.8
30
0
40
0.2
210
0
220
0
230
1
100
AcDbArc
50
0
51
90
0
CIRCLE
5
DC
100
AcDbEntity
8
1
62
256
6
ByLayer
370
18
48
1
60
0
100
AcDbCircle
10
94
20
0
30
0
40
1
39
0
210
0
220
0
230
1
0
ELLIPSE
5
E3
100
AcDbEntity
8
1
62
256
6
ByLayer
370
18
48
1
60
0
100
AcDbEllipse
10
-0.928203
20
0
30
0
11
7.49393430382534
21
15.7933993221998
31
0
210
0
220
0
230
1
40
0.341999
41
-1.08757920120055
42
-0.161466571197722
0
ELLIPSE
5
E4
100
AcDbEntity
8
1
62
256
6
ByLayer
370
18
48
1
60
0
100
AcDbEllipse
10
12.928203
20
0
30
0
11
-7.4939343038249
21
15.7933993221993
31
0
210
0
220
0
230
1
40
0.341999
41
0.161466571197726
42
1.08757920120057
0
ELLIPSE
5
E5
100
AcDbEntity
8
1
62
256
6
ByLayer
370
18
48
1
60
0
100
AcDbEllipse
10
-0.928203
20
0
30
0
11
-7.49393430382573
21
15.7933993222003
31
0
210
0
220
0
230
1
40
0.341999
41
-2.98012608239209
42
-2.05401345238927
0
ELLIPSE
5
E6
100
AcDbEntity
8
1
62
256
6
ByLayer
370
18
48
1
60
0
100
AcDbEllipse
10
12.928203
20
0
30
0
11
7.49393430382518
21
15.7933993221996
31
0
210
0
220
0
230
1
40
0.341999
41
2.05401345238924
42
2.98012608239208
0
POINT
5
6C
100
AcDbEntity
8
80
62
256
6
ByLayer
370
18
48
1
60
0
100
AcDbPoint
10
0
20
0
30
0
39
0
210
0
220
0
230
1
50
360
0
POINT
5
6E
100
AcDbEntity
8
81
62
256
6
ByLayer
370
18
48
1
60
0
100
AcDbPoint
10
101
20
0
30
0
39
0
210
0
220
0
230
1
50
360
0
SPLINE
5
E7
100
AcDbEntity
8
1
62
256
6
ByLayer
370
18
48
1
60
0
100
AcDbSpline
70
4
71
3
72
13
73
9
40
0
40
0
40
0
40
0
40
0.0874197665477723
40
0.540457817729251
40
0.699042387760906
40
0.858779326391025
40
0.970456363405495
40
1
40
1
40
1
40
1
41
1
10
7.33660254037846
20
15.1759383782003
30
0
41
1
10
7.33342550865314
20
15.1799355612691
30
0
41
1
10
7.31166013256378
20
15.2042699474535
30
0
41
1
10
7.27178344267958
20
15.2346583807313
30
0
41
1
10
7.19873884954073
20
15.2615420329401
30
0
41
1
10
7.14612231331123
20
15.2729932538429
30
0
41
1
10
7.10211914494808
20
15.2766772767309
30
0
41
1
10
7.08120951320834
20
15.2769590561243
30
0
41
1
10
7.07679491924313
20
15.2769622091385
30
0
0
SPLINE
5
E8
100
AcDbEntity
8
1
62
256
6
ByLayer
370
18
48
1
60
0
100
AcDbSpline
70
4
71
3
72
12
73
8
40
0
40
0
40
0
40
0
40
0.0828102770095041
40
0.189561422336116
40
0.367021597629799
40
0.681916173901672
40
1
40
1
40
1
40
1
41
1
10
4.9232050807569
20
15.2769622091385
30
0
41
1
10
4.91061181713239
20
15.2769076079451
30
0
41
1
10
4.88276952190018
20
15.2758609681751
30
0
41
1
10
4.83200521362583
20
15.2691148599318
30
0
41
1
10
4.76513871687902
20
15.2508645320147
30
0
41
1
10
4.70536421945504
20
15.218294455327
30
0
41
1
10
4.67399435531623
20
15.190779394432
30
0
41
1
10
4.66339745962157
20
15.1759383782003
30
0
0
SPLINE
5
E9
100
AcDbEntity
8
1
62
256
6
ByLayer
370
18
48
1
60
0
100
AcDbSpline
70
4
71
3
72
13
73
9
40
0
40
0
40
0
40
0
40
0.0874197665478271
40
0.540457817729239
40
0.69904238776094
40
0.858779326391024
40
0.9704563634055
40
1
40
1
40
1
40
1
41
1
10
4.66339745962154
20
5.06861858311167
30
0
41
1
10
4.66657449134686
20
5.05664560113499
30
0
41
1
10
4.68833986743619
20
4.98352541955001
30
0
41
1
10
4.72821655732043
20
4.88975043989213
30
0
41
1
10
4.80126115045926
20
4.80480584805322
30
0
41
1
10
4.85387768668878
20
4.76821585613364
30
0
41
1
10
4.89788085505191
20
4.75637718499453
30
0
41
1
10
4.91879048679167
20
4.75547318758226
30
0
41
1
10
4.92320508075687
20
4.75546271781756
30
0
0
SPLINE
5
EA
100
AcDbEntity
8
1
62
256
6
ByLayer
370
18
48
1
60
0
100
AcDbSpline
70
4
71
3
72
12
73
8
40
0
40
0
40
0
40
0
40
0.0828102770095353
40
0.189561422336139
40
0.367021597629856
40
0.681916173901721
40
1
40
1
40
1
40
1
41
1
10
7.0767949192431
20
4.75546271781755
30
0
41
1
10
7.08938818286761
20
4.75564329392523
30
0
41
1
10
7.11723047809983
20
4.75899916633239
30
0
41
1
10
7.16799478637417
20
4.78063862996506
30
0
41
1
10
7.23486128312097
20
4.83875066981869
30
0
41
1
10
7.29463578054496
20
4.94061818158886
30
0
41
1
10
7.32600564468376
20
5.02406843889272
30
0
41
1
10
7.33660254037842
20
5.06861858311163
30
0
0
SPLINE
5
EB
100
AcDbEntity
8
1
62
256
6
ByLayer
370
18
48
1
60
0
100
AcDbSpline
70
4
71
3
72
13
73
9
40
0
40
0
40
0
40
0
40
0.0874197665478143
40
0.540457817729351
40
0.699042387760962
40
0.858779326391059
40
0.970456363405516
40
1
40
1
40
1
40
1
41
1
10
7.33660254037846
20
-5.06861858311174
30
0
41
1
10
7.33342550865314
20
-5.05664560113507
30
0
41
1
10
7.3116601325638
20
-4.98352541955008
30
0
41
1
10
7.27178344267955
20
-4.88975043989222
30
0
41
1
10
7.19873884954071
20
-4.80480584805329
30
0
41
1
10
7.14612231331122
20
-4.76821585613375
30
0
41
1
10
7.10211914494805
20
-4.75637718499466
30
0
41
1
10
7.08120951320834
20
-4.75547318758236
30
0
41
1
10
7.07679491924313
20
-4.75546271781766
30
0
0
SPLINE
5
EC
100
AcDbEntity
8
1
62
256
6
ByLayer
370
18
48
1
60
0
100
AcDbSpline
70
4
71
3
72
12
73
8
40
0
40
0
40
0
40
0
40
0.0828102770095304
40
0.189561422336131
40
0.367021597629815
40
0.68191617390169
40
1
40
1
40
1
40
1
41
1
10
4.9232050807569
20
-4.75546271781763
30
0
41
1
10
4.91061181713239
20
-4.75564329392532
30
0
41
1
10
4.88276952190017
20
-4.75899916633251
30
0
41
1
10
4.83200521362584
20
-4.78063862996518
30
0
41
1
10
4.76513871687902
20
-4.8387506698188
30
0
41
1
10
4.70536421945504
20
-4.94061818158898
30
0
41
1
10
4.67399435531623
20
-5.02406843889286
30
0
41
1
10
4.66339745962157
20
-5.06861858311178
30
0
0
SPLINE
5
ED
100
AcDbEntity
8
1
62
256
6
ByLayer
370
18
48
1
60
0
100
AcDbSpline
70
4
71
3
72
13
73
9
40
0
40
0
40
0
40
0
40
0.0874197665477963
40
0.540457817729253
40
0.699042387760929
40
0.858779326391019
40
0.970456363405499
40
1
40
1
40
1
40
1
41
1
10
4.66339745962154
20
-15.1759383782004
30
0
41
1
10
4.66657449134686
20
-15.1799355612691
30
0
41
1
10
4.6883398674362
20
-15.2042699474534
30
0
41
1
10
4.72821655732044
20
-15.2346583807312
30
0
41
1
10
4.80126115045926
20
-15.2615420329402
30
0
41
1
10
4.85387768668878
20
-15.2729932538429
30
0
41
1
10
4.89788085505192
20
-15.276677276731
30
0
41
1
10
4.91879048679166
20
-15.2769590561243
30
0
41
1
10
4.92320508075687
20
-15.2769622091385
30
0
0
SPLINE
5
EE
100
AcDbEntity
8
1
62
256
6
ByLayer
370
18
48
1
60
0
100
AcDbSpline
70
4
71
3
72
12
73
8
40
0
40
0
40
0
40
0
40
0.0828102770095085
40
0.189561422336141
40
0.367021597629841
40
0.681916173901723
40
1
40
1
40
1
40
1
41
1
10
7.0767949192431
20
-15.2769622091385
30
0
41
1
10
7.08938818286761
20
-15.2769076079451
30
0
41
1
10
7.11723047809982
20
-15.2758609681751
30
0
41
1
10
7.16799478637416
20
-15.2691148599318
30
0
41
1
10
7.23486128312098
20
-15.2508645320147
30
0
41
1
10
7.29463578054496
20
-15.2182944553271
30
0
41
1
10
7.32600564468376
20
-15.1907793944321
30
0
41
1
10
7.33660254037842
20
-15.1759383782004
30
0
0
SPLINE
5
EF
100
AcDbEntity
8
SK1
62
256
6
ByLayer
370
18
48
1
60
0
100
AcDbSpline
70
4
71
3
72
17
73
13
40
0
40
0
40
0
40
0
40
0.449299536970456
40
0.663930069900205
40
0.773337807987071
40
0.855645370596491
40
0.897002977692353
40
0.916553427591745
40
0.936264317891492
40
0.953786467420985
40
0.979712005517172
40
1
40
1
40
1
40
1
41
1
10
-0.200000000000024
20
-5.19704273475742
30
0
41
1
10
-0.196347829428983
20
-5.07942297644273
30
0
41
1
10
-0.206043874573378
20
-4.90333220023327
30
0
41
1
10
-0.233438093471946
20
-4.69275190185222
30
0
41
1
10
-0.262329997113221
20
-4.582317678091
30
0
41
1
10
-0.288539116977455
20
-4.52032045887181
30
0
41
1
10
-0.315099998267465
20
-4.48656772374329
30
0
41
1
10
-0.335350195700451
20
-4.4731344171162
30
0
41
1
10
-0.351861535505844
20
-4.4687002726331
30
0
41
1
10
-0.36999899179813
20
-4.47043515721386
30
0
41
1
10
-0.386036556512717
20
-4.47815898121326
30
0
41
1
10
-0.395969660804227
20
-4.48555901629955
30
0
41
1
10
-0.400000000000135
20
-4.48934893107318
30
0
0
SPLINE
5
F0
100
AcDbEntity
8
SK1
62
256
6
ByLayer
370
18
48
1
60
0
100
AcDbSpline
70
4
71
3
72
16
73
12
40
0
40
0
40
0
40
0
40
0.0454314194142628
40
0.0912715944536422
40
0.123493166880668
40
0.155702567326142
40
0.202996234955953
40
0.292614905354599
40
0.445872283738467
40
0.599858152491212
40
1
40
1
40
1
40
1
41
1
10
-0.400000000000026
20
-4.48934893107536
30
0
41
1
10
-0.420139237117376
20
-4.50865052682906
30
0
41
1
10
-0.465174876547449
20
-4.54101600445069
30
0
41
1
10
-0.539269387119709
20
-4.57372040141247
30
0
41
1
10
-0.613833158702857
20
-4.57997245742232
30
0
41
1
10
-0.687200665829367
20
-4.56486559623671
30
0
41
1
10
-0.782351196120934
20
-4.51303174623046
30
0
41
1
10
-0.902553180628801
20
-4.38709039634392
30
0
41
1
10
-1.02098501605032
20
-4.19086262153096
30
0
41
1
10
-1.17282137700721
20
-3.81614994387046
30
0
41
1
10
-1.26310234248417
20
-3.50733382107828
30
0
41
1
10
-1.30710678118656
20
-3.2741000776645
30
0
0
SPLINE
5
F1
100
AcDbEntity
8
SK1
62
256
6
ByLayer
370
18
48
1
60
0
100
AcDbSpline
70
4
71
3
72
17
73
13
40
0
40
0
40
0
40
0
40
0.393937684854277
40
0.582755089608145
40
0.678559802976299
40
0.773694434837865
40
0.82327925528046
40
0.861296733338768
40
0.893293482715432
40
0.925248878849569
40
0.97446557731386
40
1
40
1
40
1
40
1
41
1
10
-1.30710678118655
20
3.27410008506506
30
0
41
1
10
-1.26514623994857
20
3.50416052740657
30
0
41
1
10
-1.17102990569922
20
3.8291042876656
30
0
41
1
10
-1.0195277535324
20
4.1870470432739
30
0
41
1
10
-0.908447088042059
20
4.37499523639095
30
0
41
1
10
-0.815189375253794
20
4.48312876989935
30
0
41
1
10
-0.722548484328107
20
4.54873264699974
30
0
41
1
10
-0.64855635619501
20
4.57568083382678
30
0
41
1
10
-0.57939463014721
20
4.57940826615302
30
0
41
1
10
-0.505786501899599
20
4.56221396122204
30
0
41
1
10
-0.446840379243304
20
4.52798037617692
30
0
41
1
10
-0.411387094551301
20
4.49980661473405
30
0
41
1
10
-0.400000000000027
20
4.48934914533074
30
0
0
SPLINE
5
F2
100
AcDbEntity
8
SK1
62
256
6
ByLayer
370
18
48
1
60
0
100
AcDbSpline
70
4
71
3
72
17
73
13
40
0
40
0
40
0
40
0
40
0.0292757017872855
40
0.0517218685317007
40
0.0693622740265077
40
0.0870213067382041
40
0.110894137741576
40
0.153188491050717
40
0.284130188001399
40
0.553541839557389
40
0.824075729714649
40
1
40
1
40
1
40
1
41
1
10
-0.400000000000026
20
4.48934914533075
30
0
41
1
10
-0.394190748322699
20
4.48367767852155
30
0
41
1
10
-0.382728783413577
20
4.47589841107574
30
0
41
1
10
-0.364369052264204
20
4.46919938294775
30
0
41
1
10
-0.347472582785982
20
4.46938957438128
30
0
41
1
10
-0.330743560924186
20
4.47542797535852
30
0
41
1
10
-0.310750832655277
20
4.49100798756741
30
0
41
1
10
-0.277012663956276
20
4.53881081928998
30
0
41
1
10
-0.238478174025284
20
4.65995790903746
30
0
41
1
10
-0.209792682402809
20
4.84236222648327
30
0
41
1
10
-0.202091261289432
20
5.03378214422051
30
0
41
1
10
-0.199912653360581
20
5.15110735375161
30
0
41
1
10
-0.200000000000026
20
5.19704283599548
30
0
0
SPLINE
5
F3
100
AcDbEntity
8
SK1
62
256
6
ByLayer
370
18
48
1
60
0
100
AcDbSpline
70
4
71
3
72
17
73
13
40
0
40
0
40
0
40
0
40
0.195223802270327
40
0.508353048224721
40
0.668134310925281
40
0.788955734610392
40
0.849673000535901
40
0.878247849451584
40
0.907053890487572
40
0.932714345148439
40
0.970929157910986
40
1
40
1
40
1
40
1
41
1
10
-0.20715118264331
20
10.8666170216409
30
0
41
1
10
-0.209056455914584
20
10.8637717133608
30
0
41
1
10
-0.217017115043898
20
10.8547592578824
30
0
41
1
10
-0.233510558564568
20
10.8384920158359
30
0
41
1
10
-0.262336613140904
20
10.8180698622563
30
0
41
1
10
-0.288576140053148
20
10.8032583413438
30
0
41
1
10
-0.315267511055414
20
10.7918818072353
30
0
41
1
10
-0.335587648786549
20
10.7849879910686
30
0
41
1
10
-0.352089724507502
20
10.7803654477882
30
0
41
1
10
-0.370244703356071
20
10.7762980118819
30
0
41
1
10
-0.386184102357331
20
10.7736871623377
30
0
41
1
10
-0.396052264941622
20
10.7724638232072
30
0
41
1
10
-0.399999999987716
20
10.7720903551645
30
0
0
SPLINE
5
F4
100
AcDbEntity
8
SK1
62
256
6
ByLayer
370
18
48
1
60
0
100
AcDbSpline
70
4
71
3
72
14
73
10
40
0
40
0
40
0
40
0
40
0.141928701532795
40
0.285136003504145
40
0.385883739095438
40
0.48658970218901
40
0.634724331130228
40
0.91571578046145
40
1
40
1
40
1
40
1
41
1
10
-0.400000000000014
20
10.7720903551641
30
0
41
1
10
-0.420169887460538
20
10.7698247268096
30
0
41
1
10
-0.465264801342306
20
10.7659981338176
30
0
41
1
10
-0.539469605849902
20
10.7618818659754
30
0
41
1
10
-0.614120681376065
20
10.7610948546077
30
0
41
1
10
-0.68761992083605
20
10.7630317056534
30
0
41
1
10
-0.782993458300896
20
10.7694888341972
30
0
41
1
10
-0.851159340237898
20
10.7777135268528
30
0
41
1
10
-0.892879576293926
20
10.7832596047762
30
0
41
1
10
-0.901962214419175
20
10.7845577057244
30
0
0
SPLINE
5
F5
100
AcDbEntity
8
SK1
62
256
6
ByLayer
370
18
48
1
60
0
100
AcDbSpline
70
4
71
3
72
16
73
12
40
0
40
0
40
0
40
0
40
0.0354073575210573
40
0.0625675464888586
40
0.0839306689750691
40
0.105315734381163
40
0.134262965004861
40
0.185577530549171
40
0.344529212531587
40
0.671583563754478
40
1
40
1
40
1
40
1
41
1
10
-0.400000000000014
20
-10.7720903270618
30
0
41
1
10
-0.394184808154067
20
-10.7726058024075
30
0
41
1
10
-0.382712063730463
20
-10.7741500170212
30
0
41
1
10
-0.364333011347644
20
-10.7775102970836
30
0
41
1
10
-0.347418089597237
20
-10.7815950933488
30
0
41
1
10
-0.330664610873818
20
-10.7865404691439
30
0
41
1
10
-0.310632895486927
20
-10.7937011537423
30
0
41
1
10
-0.276827542876043
20
-10.8088086882484
30
0
41
1
10
-0.23810034614768
20
-10.8341833321969
30
0
41
1
10
-0.210682992364079
20
-10.8593349125025
30
0
41
1
10
-0.201532286147666
20
-10.8712152112916
30
0
41
1
10
-0.201947918602971
20
-10.8745599936748
30
0
0
SPLINE
5
F6
100
AcDbEntity
8
SK1
62
256
6
ByLayer
370
18
48
1
60
0
100
AcDbSpline
70
4
71
2
72
6
73
3
40
0
40
0
40
0
40
1
40
1
40
1
41
1
10
-2.5
20
11.0000000216178
30
0
41
1
10
-10.2501577226356
20
10.805289083207
30
0
41
1
10
-18.0003154452711
20
10.6105781447962
30
0
0
SPLINE
5
F7
100
AcDbEntity
8
SK1
62
256
6
ByLayer
370
18
48
1
60
0
100
AcDbSpline
70
4
71
2
72
6
73
3
40
0
40
0
40
0
40
1
40
1
40
1
41
1
10
-18.0003154452711
20
-10.6105781038671
30
0
41
1
10
-10.2501577226356
20
-10.8052890415268
30
0
41
1
10
-2.5
20
-10.9999999791865
30
0
0
SPLINE
5
F8
100
AcDbEntity
8
SK1
62
256
6
ByLayer
370
18
48
1
60
0
100
AcDbSpline
70
4
71
3
72
22
73
18
40
0
40
0
40
0
40
0
40
0.0109061943361373
40
0.0586341481057265
40
0.106357568205128
40
0.154257121357793
40
0.249798703141031
40
0.345320804715031
40
0.440833730293642
40
0.536344599142922
40
0.631859907286049
40
0.727387570432511
40
0.822940109525931
40
0.870663728869246
40
0.918391975595211
40
0.966127302884185
40
1
40
1
40
1
40
1
41
1
10
-1.6999369182716
20
11.0201003905319
30
0
41
1
10
-1.6999384232416
20
11.0200791045123
30
0
41
1
10
-1.69994629728189
20
11.01741937402
30
0
41
1
10
-1.69995823822213
20
10.9865866766419
30
0
41
1
10
-1.69997029695999
20
10.8937653004933
30
0
41
1
10
-1.69998212160078
20
10.7067601590279
30
0
41
1
10
-1.69999082231272
20
10.3626527757871
30
0
41
1
10
-1.69999576368342
20
9.79322022329513
30
0
41
1
10
-1.69999779320179
20
9.07995210137944
30
0
41
1
10
-1.69999836642901
20
8.23208728858403
30
0
41
1
10
-1.69999800119198
20
7.2560636022326
30
0
41
1
10
-1.69999632966671
20
6.15643246934424
30
0
41
1
10
-1.69999273766606
20
5.1393106134163
30
0
41
1
10
-1.6999872716607
20
4.26709609338206
30
0
41
1
10
-1.69998143839674
20
3.58379984071892
30
0
41
1
10
-1.69997418135919
20
2.94024539845238
30
0
41
1
10
-1.69996839739873
20
2.52057033128212
30
0
41
1
10
-1.69996579751814
20
2.3439945435084
30
0
0
SPLINE
5
F9
100
AcDbEntity
8
SK1
62
256
6
ByLayer
370
18
48
1
60
0
100
AcDbSpline
70
4
71
2
72
6
73
3
40
0
40
0
40
0
40
1
40
1
40
1
41
1
10
-2.5
20
-10.9999999791865
30
0
41
1
10
-2.0975125121336
20
-11.0101118658039
30
0
41
1
10
-1.6950250242672
20
-11.0202237524214
30
0
0
SPLINE
5
FA
100
AcDbEntity
8
SK1
62
256
6
ByLayer
370
18
48
1
60
0
100
AcDbSpline
70
4
71
2
72
6
73
3
40
0
40
0
40
0
40
1
40
1
40
1
41
1
10
-1.6950250242672
20
11.0202237949308
30
0
41
1
10
-2.0975125121336
20
11.0101119082743
30
0
41
1
10
-2.5
20
11.0000000216178
30
0
0
SPLINE
5
FB
100
AcDbEntity
8
SK1
62
256
6
ByLayer
370
18
48
1
60
0
100
AcDbSpline
70
4
71
3
72
13
73
9
40
0
40
0
40
0
40
0
40
0.125361184202508
40
0.250671417350251
40
0.440852177323376
40
0.63743300884229
40
0.818585193802477
40
1
40
1
40
1
40
1
41
1
10
-1.69996579751816
20
2.3439945435084
30
0
41
1
10
-1.73266314880089
20
2.15776958167724
30
0
41
1
10
-1.79208731601854
20
1.78013485979359
30
0
41
1
10
-1.87950396482719
20
1.09704225164247
30
0
41
1
10
-1.93913456593365
20
0.277875323041836
30
0
41
1
10
-1.92154586441336
20
-0.642011043480259
30
0
41
1
10
-1.83053313072617
20
-1.5246461807942
30
0
41
1
10
-1.74860848285101
20
-2.07409078981428
30
0
41
1
10
-1.69996579738209
20
-2.34399541728098
30
0
0
SPLINE
5
FC
100
AcDbEntity
8
SK1
62
256
6
ByLayer
370
18
48
1
60
0
100
AcDbSpline
70
4
71
3
72
22
73
18
40
0
40
0
40
0
40
0
40
0.0138969579209629
40
0.0616398766102958
40
0.109372745025887
40
0.157099268415774
40
0.252673441162778
40
0.348211754511525
40
0.443731797344982
40
0.5392434301017
40
0.634753646538382
40
0.730268984717885
40
0.825797626086965
40
0.873515820129991
40
0.921236400207426
40
0.968960386107208
40
1
40
1
40
1
40
1
41
1
10
-1.69996579738207
20
-2.34399541728098
30
0
41
1
10
-1.69996686364289
20
-2.4164128951725
30
0
41
1
10
-1.69997144250964
20
-2.73586655872019
30
0
41
1
10
-1.69997837380663
20
-3.28930030364037
30
0
41
1
10
-1.69998506914456
20
-3.98487083929107
30
0
41
1
10
-1.69999142927484
20
-4.87366164478773
30
0
41
1
10
-1.6999957131313
20
-5.91174513160784
30
0
41
1
10
-1.69999778975713
20
-7.03686399538976
30
0
41
1
10
-1.69999836651229
20
-8.03903619727269
30
0
41
1
10
-1.69999800237923
20
-8.91407609262478
30
0
41
1
10
-1.69999636292094
20
-9.65605083346566
30
0
41
1
10
-1.69999219983735
20
-10.2563610461626
30
0
41
1
10
-1.69998469540418
20
-10.6285304976177
30
0
41
1
10
-1.69997436196397
20
-10.8404449887585
30
0
41
1
10
-1.69996374896681
20
-10.9534603120068
30
0
41
1
10
-1.6999511839453
20
-11.0098698158952
30
0
41
1
10
-1.6999411686864
20
-11.019888379613
30
0
41
1
10
-1.69993691393678
20
-11.0201003484491
30
0
0
SPLINE
5
FD
100
AcDbEntity
8
SK1
62
256
6
ByLayer
370
18
48
1
60
0
100
AcDbSpline
70
4
71
3
72
20
73
16
40
0
40
0
40
0
40
0
40
0.368109280644248
40
0.437722363858781
40
0.462433396968472
40
0.487648866583765
40
0.498235913484151
40
0.50893843966516
40
0.515600009944512
40
0.522260509808643
40
0.531991727973864
40
0.550577536041058
40
0.631369545032411
40
0.950978728517092
40
1
40
1
40
1
40
1
41
1
10
-1.5
20
2.30830602436802
30
0
41
1
10
-1.51628319051587
20
2.18132600993999
30
0
41
1
10
-1.54990682384897
20
2.03969902389133
30
0
41
1
10
-1.59597975832159
20
1.89469689897959
30
0
41
1
10
-1.61146705962497
20
1.8603720674489
30
0
41
1
10
-1.62095376012516
20
1.84451713699417
30
0
41
1
10
-1.63020476572249
20
1.83541492814045
30
0
41
1
10
-1.63693983294418
20
1.83233706747809
30
0
41
1
10
-1.64322590303804
20
1.83327814817858
30
0
41
1
10
-1.64887894624189
20
1.83705526861528
30
0
41
1
10
-1.65590984079923
20
1.84629683236737
30
0
41
1
10
-1.67092265965404
20
1.88222812925395
30
0
41
1
10
-1.69452960262733
20
2.03470993733323
30
0
41
1
10
-1.69872698245633
20
2.195533909897
30
0
41
1
10
-1.69995454046297
20
2.32659130793403
30
0
41
1
10
-1.69996579751816
20
2.3439945435084
30
0
0
SPLINE
5
FE
100
AcDbEntity
8
SK1
62
256
6
ByLayer
370
18
48
1
60
0
100
AcDbSpline
70
4
71
1
72
4
73
2
40
0
40
0
40
1
40
1
41
1
10
-1.30710678118655
20
3.27410008506509
30
0
41
1
10
-1.5
20
2.3083060243678
30
0
0
SPLINE
5
FF
100
AcDbEntity
8
SK1
62
256
6
ByLayer
370
18
48
1
60
0
100
AcDbSpline
70
4
71
1
72
4
73
2
40
0
40
0
40
1
40
1
41
1
10
-1.5
20
-2.30830715862382
30
0
41
1
10
-1.30710678118675
20
-3.27410007766361
30
0
0
SPLINE
5
100
100
AcDbEntity
8
SK1
62
256
6
ByLayer
370
18
48
1
60
0
100
AcDbSpline
70
4
71
3
72
18
73
14
40
0
40
0
40
0
40
0
40
0.348507051445656
40
0.440886354697193
40
0.464017838486812
40
0.473034725324783
40
0.482141874298787
40
0.488754910003605
40
0.495351247850913
40
0.506253631861562
40
0.534247508088274
40
0.645038889530959
40
1
40
1
40
1
40
1
41
1
10
-1.69996579738209
20
-2.34399541728098
30
0
41
1
10
-1.70785999283531
20
-2.21864105596814
30
0
41
1
10
-1.69545292415498
20
-2.06263553662055
30
0
41
1
10
-1.67368943045167
20
-1.8941414815315
30
0
41
1
10
-1.65866835858387
20
-1.85175962566495
30
0
41
1
10
-1.65132334771533
20
-1.83983130458139
30
0
41
1
10
-1.64568256040669
20
-1.8344031951829
30
0
41
1
10
-1.63988590559928
20
-1.83247840595147
30
0
41
1
10
-1.63376157455977
20
-1.83339533975866
30
0
41
1
10
-1.62365671716215
20
-1.84042385063966
30
0
41
1
10
-1.59943897382328
20
-1.87909958601805
30
0
41
1
10
-1.55286460507344
20
-2.03683406156812
30
0
41
1
10
-1.5146597617023
20
-2.18501007307499
30
0
41
1
10
-1.5
20
-2.30830715862382
30
0
0
SPLINE
5
101
100
AcDbEntity
8
SK1
62
256
6
ByLayer
370
18
48
1
60
0
100
AcDbSpline
70
4
71
2
72
6
73
3
40
0
40
0
40
0
40
1
40
1
40
1
41
1
10
-18.0002172380017
20
10.6089759653319
30
0
41
1
10
-18.5001086570044
20
10.3032239000341
30
0
41
1
10
-19
20
9.99747095672054
30
0
0
SPLINE
5
102
100
AcDbEntity
8
SK1
62
256
6
ByLayer
370
18
48
1
60
0
100
AcDbSpline
70
4
71
2
72
6
73
3
40
0
40
0
40
0
40
1
40
1
40
1
41
1
10
-19
20
-9.99721945799886
30
0
41
1
10
-18.5001164339318
20
-10.3028974320376
30
0
41
1
10
-18.0002329674942
20
-10.608577014097
30
0
0
SPLINE
5
103
100
AcDbEntity
8
SK1
62
256
6
ByLayer
370
18
48
1
60
0
100
AcDbSpline
70
4
71
1
72
4
73
2
40
0
40
0
40
1
40
1
41
1
10
-1.69911615098466
20
10.8921619288178
30
0
41
1
10
-1.69911726305037
20
10.8923362688071
30
0
0
SPLINE
5
104
100
AcDbEntity
8
SK1
62
256
6
ByLayer
370
18
48
1
60
0
100
AcDbSpline
70
4
71
3
72
10
73
6
40
0
40
0
40
0
40
0
40
0.237474208453353
40
0.682878337424298
40
1
40
1
40
1
40
1
41
1
10
-1.62890494573829
20
10.8545970146821
30
0
41
1
10
-1.63183450903585
20
10.8511243076471
30
0
41
1
10
-1.64020126861837
20
10.8366009514864
30
0
41
1
10
-1.65179089254424
20
10.7966786480359
30
0
41
1
10
-1.66097131816426
20
10.7493784887228
30
0
41
1
10
-1.66479077747346
20
10.7268535113718
30
0
0
SPLINE
5
105
100
AcDbEntity
8
SK1
62
256
6
ByLayer
370
18
48
1
60
0
100
AcDbSpline
70
4
71
3
72
22
73
18
40
0
40
0
40
0
40
0
40
0.348339998975359
40
0.689293328708312
40
0.795194517638237
40
0.826116825307997
40
0.835535199919754
40
0.838770387853713
40
0.841156572189752
40
0.842136800248357
40
0.843068530814088
40
0.844045630401261
40
0.845152966318103
40
0.847976384262647
40
0.861684746449394
40
0.879345419130451
40
1
40
1
40
1
40
1
41
1
10
-1.50312227287805
20
10.8250340873774
30
0
41
1
10
-1.50749440349687
20
10.8245140404266
30
0
41
1
10
-1.51826830537696
20
10.822399103216
30
0
41
1
10
-1.53119634581654
20
10.8161098692231
30
0
41
1
10
-1.54427334046777
20
10.8124448055705
30
0
41
1
10
-1.55131197659674
20
10.8121589351286
30
0
41
1
10
-1.55497303637915
20
10.8125760395611
30
0
41
1
10
-1.55692024262664
20
10.8129584653477
30
0
41
1
10
-1.55811169111761
20
10.8132480391884
30
0
41
1
10
-1.55908673186075
20
10.813525359122
30
0
41
1
10
-1.55978406174712
20
10.8137412608273
30
0
41
1
10
-1.56047408211122
20
10.8139722666741
30
0
41
1
10
-1.56145374909042
20
10.8143246391176
30
0
41
1
10
-1.5640968039071
20
10.8153921653374
30
0
41
1
10
-1.56659209285845
20
10.8167481514727
30
0
41
1
10
-1.5747162731345
20
10.8218137148694
30
0
41
1
10
-1.57922416534752
20
10.8254356383065
30
0
41
1
10
-1.58018400112819
20
10.827596227213
30
0
0
SPLINE
5
106
100
AcDbEntity
8
SK1
62
256
6
ByLayer
370
18
48
1
60
0
100
AcDbSpline
70
4
71
3
72
11
73
7
40
0
40
0
40
0
40
0
40
0.137299270194216
40
0.339428128112651
40
0.760949728594272
40
1
40
1
40
1
40
1
41
1
10
-1.58018400112819
20
10.827596227213
30
0
41
1
10
-1.5844153974085
20
10.8322144132014
30
0
41
1
10
-1.59385945054576
20
10.8423999252652
30
0
41
1
10
-1.60707824340986
20
10.8577745395002
30
0
41
1
10
-1.61843721160397
20
10.8632084198873
30
0
41
1
10
-1.62628359671999
20
10.8578108164735
30
0
41
1
10
-1.62890494573829
20
10.8545970146821
30
0
0
SPLINE
5
107
100
AcDbEntity
8
SK1
62
256
6
ByLayer
370
18
48
1
60
0
100
AcDbSpline
70
4
71
3
72
35
73
31
40
0
40
0
40
0
40
0
40
0.0315609456267729
40
0.0421660789618919
40
0.0454346500622531
40
0.0466290104207889
40
0.0475790836787153
40
0.0483556024710677
40
0.048714769369956
40
0.049075392796654
40
0.049859523611867
40
0.0508066298546064
40
0.0568515640275886
40
0.0802717566063178
40
0.194364711004186
40
0.326515370550868
40
0.434763782376119
40
0.549924377822638
40
0.613441054119171
40
0.622371294572458
40
0.629057170481274
40
0.631754087047468
40
0.634170802095874
40
0.636466275003599
40
0.638811677380466
40
0.644186308689549
40
0.651054970194375
40
0.670056149117434
40
0.829218686004493
40
1
40
1
40
1
40
1
41
1
10
-1.69156362570226
20
-10.9656048664383
30
0
41
1
10
-1.69139914590885
20
-10.9646317888389
30
0
41
1
10
-1.69048714874854
20
-10.9614603341403
30
0
41
1
10
-1.68917040225381
20
-10.9570797867174
30
0
41
1
10
-1.68833754205612
20
-10.9545821245499
30
0
41
1
10
-1.687896075408
20
-10.9533184287522
30
0
41
1
10
-1.68759091869439
20
-10.9524668544985
30
0
41
1
10
-1.68731143312593
20
-10.9517073094313
30
0
41
1
10
-1.68709344478885
20
-10.9511270794603
30
0
41
1
10
-1.68687384430142
20
-10.9505499583417
30
0
41
1
10
-1.68658835250259
20
-10.9498147146388
30
0
41
1
10
-1.68572747113335
20
-10.9476554352944
30
0
41
1
10
-1.68387941575743
20
-10.9434308992527
30
0
41
1
10
-1.67889916102433
20
-10.9335665526248
30
0
41
1
10
-1.67291698714951
20
-10.9243129387206
30
0
41
1
10
-1.66389404336103
20
-10.9102082384518
30
0
41
1
10
-1.65186573100458
20
-10.8927022854555
30
0
41
1
10
-1.63699106876339
20
-10.8745895268649
30
0
41
1
10
-1.62272371190846
20
-10.8595461538149
30
0
41
1
10
-1.60873485002677
20
-10.8491238036488
30
0
41
1
10
-1.60431823726986
20
-10.8461423757571
30
0
41
1
10
-1.60070419397127
20
-10.8439049198729
30
0
41
1
10
-1.59814728689158
20
-10.8424057192709
30
0
41
1
10
-1.59557048554856
20
-10.8409777321949
30
0
41
1
10
-1.59200653576687
20
-10.8391152479651
30
0
41
1
10
-1.58753614548435
20
-10.8370026744066
30
0
41
1
10
-1.58027840233607
20
-10.8339851062587
30
0
41
1
10
-1.55117477810901
20
-10.8246700843303
30
0
41
1
10
-1.53167661944223
20
-10.8266576084063
30
0
41
1
10
-1.50788214996206
20
-10.8242111627506
30
0
41
1
10
-1.5
20
-10.825148341595
30
0
0
SPLINE
5
108
100
AcDbEntity
8
SK1
62
256
6
ByLayer
370
18
48
1
60
0
100
AcDbSpline
70
4
71
2
72
6
73
3
40
0
40
0
40
0
40
1
40
1
40
1
41
1
10
-0.898270762190167
20
10.7847407283835
30
0
41
1
10
-1.19913538109508
20
10.7847407283835
30
0
41
1
10
-1.5
20
10.7847407283835
30
0
0
SPLINE
5
109
100
AcDbEntity
8
SK1
62
256
6
ByLayer
370
18
48
1
60
0
100
AcDbSpline
70
4
71
3
72
15
73
11
40
0
40
0
40
0
40
0
40
0.0019356300649292
40
0.296252567541558
40
0.450889456197772
40
0.569137776923401
40
0.668642050893024
40
0.768020005558662
40
0.920896465577475
40
1
40
1
40
1
40
1
41
1
10
-0.903534985867082
20
-10.7847768419313
30
0
41
1
10
-0.903654347936561
20
-10.7847309795253
30
0
41
1
10
-0.92168775132165
20
-10.777721870488
30
0
41
1
10
-0.80359341232777
20
-10.7736041264429
30
0
41
1
10
-0.72470695027486
20
-10.7649764805435
30
0
41
1
10
-0.648478377657121
20
-10.7616636896845
30
0
41
1
10
-0.579618990157687
20
-10.7611586351661
30
0
41
1
10
-0.505788402876596
20
-10.7633451620863
30
0
41
1
10
-0.446841951412375
20
-10.7675767115025
30
0
41
1
10
-0.411372969738009
20
-10.7708767807292
30
0
41
1
10
-0.400000000000014
20
-10.7720903270618
30
0
0
SPLINE
5
10A
100
AcDbEntity
8
SK1
62
256
6
ByLayer
370
18
48
1
60
0
100
AcDbSpline
70
4
71
2
72
6
73
3
40
0
40
0
40
0
40
1
40
1
40
1
41
1
10
-1.5
20
-10.7847407263988
30
0
41
1
10
-1.20213505918335
20
-10.7847407263988
30
0
41
1
10
-0.904270118366697
20
-10.7847407263988
30
0
0
SPLINE
5
10B
100
AcDbEntity
8
1
62
256
6
ByLayer
370
18
48
1
60
0
100
AcDbSpline
70
4
71
1
72
4
73
2
40
0
40
0
40
1
40
1
41
1
10
100.521
20
9.92156741649222
30
0
41
1
10
100.641
20
9.80060712405104
30
0
0
SPLINE
5
10C
100
AcDbEntity
8
1
62
256
6
ByLayer
370
18
48
1
60
0
100
AcDbSpline
70
4
71
3
72
11
73
7
40
0
40
0
40
0
40
0
40
0.344835256703684
40
0.639201800847807
40
0.871157698918705
40
1
40
1
40
1
40
1
41
1
10
100.73225
20
9.68695116042831
30
0
41
1
10
100.715298802875
20
9.7054452225165
30
0
41
1
10
100.687643090795
20
9.73665375011635
30
0
41
1
10
100.656770016441
20
9.77414962513337
30
0
41
1
10
100.643066727157
20
9.79387694379504
30
0
41
1
10
100.641093013828
20
9.79926685390055
30
0
41
1
10
100.641
20
9.80060712405104
30
0
0
SPLINE
5
10D
100
AcDbEntity
8
1
62
256
6
ByLayer
370
18
48
1
60
0
100
AcDbSpline
70
4
71
1
72
4
73
2
40
0
40
0
40
1
40
1
41
1
10
101.271
20
9.08885059742844
30
0
41
1
10
100.73225
20
9.68695116042831
30
0
0
SPLINE
5
10E
100
AcDbEntity
8
1
62
256
6
ByLayer
370
18
48
1
60
0
100
AcDbSpline
70
4
71
1
72
4
73
2
40
0
40
0
40
1
40
1
41
1
10
100.73225
20
9.50446711057244
30
0
41
1
10
101.271
20
9.02429683605595
30
0
0
SPLINE
5
10F
100
AcDbEntity
8
1
62
256
6
ByLayer
370
18
48
1
60
0
100
AcDbSpline
70
4
71
3
72
11
73
7
40
0
40
0
40
0
40
0
40
0.426943763151584
40
0.715788592080792
40
0.942980405022928
40
1
40
1
40
1
40
1
41
1
10
100.73225
20
9.42095529625561
30
0
41
1
10
100.710875114546
20
9.44643346903061
30
0
41
1
10
100.68084863108
20
9.48514856544601
30
0
41
1
10
100.650845299224
20
9.53061134565228
30
0
41
1
10
100.641791897551
20
9.55079194882438
30
0
41
1
10
100.641025852437
20
9.55721339844811
30
0
41
1
10
100.641000305115
20
9.55838507615469
30
0
0
SPLINE
5
110
100
AcDbEntity
8
1
62
256
6
ByLayer
370
18
48
1
60
0
100
AcDbSpline
70
4
71
1
72
4
73
2
40
0
40
0
40
1
40
1
41
1
10
101.271
20
8.76053437000756
30
0
41
1
10
100.73225
20
9.42095529625561
30
0
0
SPLINE
5
111
100
AcDbEntity
8
1
62
256
6
ByLayer
370
18
48
1
60
0
100
AcDbSpline
70
4
71
1
72
4
73
2
40
0
40
0
40
1
40
1
41
1
10
100.73225
20
9.10590572905463
30
0
41
1
10
101.271
20
8.64859388106188
30
0
0
SPLINE
5
112
100
AcDbEntity
8
1
62
256
6
ByLayer
370
18
48
1
60
0
100
AcDbSpline
70
4
71
3
72
11
73
7
40
0
40
0
40
0
40
0
40
0.472584459329687
40
0.762401132804299
40
0.988122550848396
40
1
40
1
40
1
40
1
41
1
10
100.73225
20
8.97478549067163
30
0
41
1
10
100.708259914214
20
9.00654931173167
30
0
41
1
10
100.676850292649
20
9.05357231960652
30
0
41
1
10
100.647706922153
20
9.10932327038776
30
0
41
1
10
100.641151279321
20
9.13244909983413
30
0
41
1
10
100.641001675971
20
9.14022579497509
30
0
41
1
10
100.641000065189
20
9.14060948686557
30
0
0
SPLINE
5
113
100
AcDbEntity
8
1
62
256
6
ByLayer
370
18
48
1
60
0
100
AcDbSpline
70
4
71
1
72
4
73
2
40
0
40
0
40
1
40
1
41
1
10
101.271
20
8.23175070770443
30
0
41
1
10
100.73225
20
8.97478549067163
30
0
0
SPLINE
5
114
100
AcDbEntity
8
1
62
256
6
ByLayer
370
18
48
1
60
0
100
AcDbSpline
70
4
71
1
72
4
73
2
40
0
40
0
40
1
40
1
41
1
10
100.73225
20
8.50735818200377
30
0
41
1
10
101.271
20
8.06433003130653
30
0
0
SPLINE
5
115
100
AcDbEntity
8
1
62
256
6
ByLayer
370
18
48
1
60
0
100
AcDbSpline
70
4
71
3
72
10
73
6
40
0
40
0
40
0
40
0
40
0.529921945493692
40
0.808976631098395
40
1
40
1
40
1
40
1
41
1
10
100.73225
20
8.31950422279437
30
0
41
1
10
100.704940788652
20
8.36058099810438
30
0
41
1
10
100.672649607136
20
8.41852076893262
30
0
41
1
10
100.64545118197
20
8.48629734930264
30
0
41
1
10
100.641484764609
20
8.51161968523989
30
0
41
1
10
100.641000458546
20
8.52116774250908
30
0
0
SPLINE
5
116
100
AcDbEntity
8
1
62
256
6
ByLayer
370
18
48
1
60
0
100
AcDbSpline
70
4
71
1
72
4
73
2
40
0
40
0
40
1
40
1
41
1
10
101.271
20
7.45999175465368
30
0
41
1
10
100.73225
20
8.31950422279437
30
0
0
SPLINE
5
117
100
AcDbEntity
8
1
62
256
6
ByLayer
370
18
48
1
60
0
100
AcDbSpline
70
4
71
1
72
4
73
2
40
0
40
0
40
1
40
1
41
1
10
100.73225
20
7.66209940730236
30
0
41
1
10
101.271
20
7.2210568193391
30
0
0
SPLINE
5
118
100
AcDbEntity
8
1
62
256
6
ByLayer
370
18
48
1
60
0
100
AcDbSpline
70
4
71
3
72
10
73
6
40
0
40
0
40
0
40
0
40
0.524318757639837
40
0.807380547740987
40
1
40
1
40
1
40
1
41
1
10
100.73225
20
7.3997652951034
30
0
41
1
10
100.705379095855
20
7.4477130322249
30
0
41
1
10
100.67314190308
20
7.51792167864215
30
0
41
1
10
100.645917621476
20
7.6024475876778
30
0
41
1
10
100.641633490223
20
7.63713645705621
30
0
41
1
10
100.641007345444
20
7.65057415146391
30
0
0
SPLINE
5
119
100
AcDbEntity
8
1
62
256
6
ByLayer
370
18
48
1
60
0
100
AcDbSpline
70
4
71
1
72
4
73
2
40
0
40
0
40
1
40
1
41
1
10
101.271
20
6.35737636491733
30
0
41
1
10
100.73225
20
7.3997652951034
30
0
0
SPLINE
5
11A
100
AcDbEntity
8
1
62
256
6
ByLayer
370
18
48
1
60
0
100
AcDbSpline
70
4
71
1
72
4
73
2
40
0
40
0
40
1
40
1
41
1
10
100.73225
20
6.47420971376892
30
0
41
1
10
101.271
20
6.01073242811683
30
0
0
SPLINE
5
11B
100
AcDbEntity
8
1
62
256
6
ByLayer
370
18
48
1
60
0
100
AcDbSpline
70
4
71
2
72
6
73
3
40
0
40
0
40
0
40
1
40
1
40
1
41
1
10
100.73225
20
6.0970404568233
30
0
41
1
10
100.649318886255
20
6.27776604519894
30
0
41
1
10
100.641001054084
20
6.43079113964255
30
0
0
SPLINE
5
11C
100
AcDbEntity
8
1
62
256
6
ByLayer
370
18
48
1
60
0
100
AcDbSpline
70
4
71
1
72
4
73
2
40
0
40
0
40
1
40
1
41
1
10
101.271
20
4.69638068206977
30
0
41
1
10
100.73225
20
6.0970404568233
30
0
0
SPLINE
5
11D
100
AcDbEntity
8
1
62
256
6
ByLayer
370
18
48
1
60
0
100
AcDbSpline
70
4
71
1
72
4
73
2
40
0
40
0
40
1
40
1
41
1
10
100.73225
20
4.69020420753889
30
0
41
1
10
101.271
20
4.12178930280365
30
0
0
SPLINE
5
11E
100
AcDbEntity
8
1
62
256
6
ByLayer
370
18
48
1
60
0
100
AcDbSpline
70
4
71
3
72
10
73
6
40
0
40
0
40
0
40
0
40
0.592242083233599
40
0.913391784935275
40
1
40
1
40
1
40
1
41
1
10
100.73225
20
4.05786621781244
30
0
41
1
10
100.701697354308
20
4.16465314015545
30
0
41
1
10
100.667147709168
20
4.32609846864008
30
0
41
1
10
100.643327382282
20
4.50175393865955
30
0
41
1
10
100.641216067913
20
4.57010981685773
30
0
41
1
10
100.641010141347
20
4.58454220303772
30
0
0
SPLINE
5
11F
100
AcDbEntity
8
1
62
256
6
ByLayer
370
18
48
1
60
0
100
AcDbSpline
70
4
71
3
72
11
73
7
40
0
40
0
40
0
40
0
40
0.247554293888427
40
0.496132932634946
40
0.747627519970021
40
1
40
1
40
1
40
1
41
1
10
101.271
20
0.75547917021359
30
0
41
1
10
101.256415087084
20
1.0333455046147
30
0
41
1
10
101.212028979812
20
1.58787897659903
30
0
41
1
10
101.098429045867
20
2.41775161145013
30
0
41
1
10
100.939572361793
20
3.24307349187343
30
0
41
1
10
100.806127618237
20
3.78726963578531
30
0
41
1
10
100.73225
20
4.05786621781244
30
0
0
SPLINE
5
120
100
AcDbEntity
8
1
62
256
6
ByLayer
370
18
48
1
60
0
100
AcDbSpline
70
4
71
3
72
11
73
7
40
0
40
0
40
0
40
0
40
0.247775042172327
40
0.496350406992646
40
0.747652975443124
40
1
40
1
40
1
40
1
41
1
10
100.73225
20
-4.05786621781244
30
0
41
1
10
100.804769086793
20
-3.79220802950502
30
0
41
1
10
100.936469483783
20
-3.25620496715207
30
0
41
1
10
101.095327159292
20
-2.43642411303058
30
0
41
1
10
101.210765850938
20
-1.60163673985502
30
0
41
1
10
101.256124176601
20
-1.03873943111993
30
0
41
1
10
101.271
20
-0.75547917021359
30
0
0
SPLINE
5
121
100
AcDbEntity
8
1
62
256
6
ByLayer
370
18
48
1
60
0
100
AcDbSpline
70
4
71
3
72
14
73
10
40
0
40
0
40
0
40
0
40
0.11831750100687
40
0.203529941894833
40
0.289263213988709
40
0.367860665107523
40
0.492781165562434
40
0.72568264353982
40
1
40
1
40
1
40
1
41
1
10
100.732250000017
20
-4.69020420751855
30
0
41
1
10
100.725279740288
20
-4.69777166537223
30
0
41
1
10
100.713083822021
20
-4.70798121185698
30
0
41
1
10
100.694499032572
20
-4.71722320910677
30
0
41
1
10
100.679397693241
20
-4.71745827847571
30
0
41
1
10
100.665344528169
20
-4.70924715863045
30
0
41
1
10
100.651037519982
20
-4.68616743162585
30
0
41
1
10
100.642368777184
20
-4.64104438406615
30
0
41
1
10
100.640085127665
20
-4.60257652178114
30
0
41
1
10
100.641048541312
20
-4.58009460208404
30
0
0
SPLINE
5
122
100
AcDbEntity
8
1
62
256
6
ByLayer
370
18
48
1
60
0
100
AcDbSpline
70
4
71
1
72
4
73
2
40
0
40
0
40
1
40
1
41
1
10
101.271
20
-4.12178930280365
30
0
41
1
10
100.73225
20
-4.69020420753046
30
0
0
SPLINE
5
123
100
AcDbEntity
8
1
62
256
6
ByLayer
370
18
48
1
60
0
100
AcDbSpline
70
4
71
1
72
4
73
2
40
0
40
0
40
1
40
1
41
1
10
100.73225
20
-6.0970404568233
30
0
41
1
10
101.271
20
-4.69638068206977
30
0
0
SPLINE
5
124
100
AcDbEntity
8
1
62
256
6
ByLayer
370
18
48
1
60
0
100
AcDbSpline
70
4
71
3
72
13
73
9
40
0
40
0
40
0
40
0
40
0.111220406668311
40
0.284618876828681
40
0.415252406722626
40
0.545663141298063
40
0.73720189070535
40
1
40
1
40
1
40
1
41
1
10
100.732250000003
20
-6.47420971376747
30
0
41
1
10
100.726441240444
20
-6.4793107811293
30
0
41
1
10
100.711749285961
20
-6.4905169128019
30
0
41
1
10
100.689598604878
20
-6.50189437775497
30
0
41
1
10
100.669643050136
20
-6.50255316501013
30
0
41
1
10
100.654126459326
20
-6.49322955748317
30
0
41
1
10
100.643175048846
20
-6.46925553129711
30
0
41
1
10
100.640327450063
20
-6.44614600964491
30
0
41
1
10
100.641002375718
20
-6.43042644030621
30
0
0
SPLINE
5
125
100
AcDbEntity
8
1
62
256
6
ByLayer
370
18
48
1
60
0
100
AcDbSpline
70
4
71
1
72
4
73
2
40
0
40
0
40
1
40
1
41
1
10
101.271
20
-6.01073242811683
30
0
41
1
10
100.73225
20
-6.47420971376892
30
0
0
SPLINE
5
126
100
AcDbEntity
8
1
62
256
6
ByLayer
370
18
48
1
60
0
100
AcDbSpline
70
4
71
1
72
4
73
2
40
0
40
0
40
1
40
1
41
1
10
100.73225
20
-7.3997652951034
30
0
41
1
10
101.271
20
-6.35737636491733
30
0
0
SPLINE
5
127
100
AcDbEntity
8
1
62
256
6
ByLayer
370
18
48
1
60
0
100
AcDbSpline
70
4
71
3
72
13
73
9
40
0
40
0
40
0
40
0
40
0.158871926878185
40
0.383048726302181
40
0.573959859341691
40
0.737490204310086
40
0.989079711591569
40
1
40
1
40
1
40
1
41
1
10
100.732250000001
20
-7.66209940730202
30
0
41
1
10
100.724267591715
20
-7.66878031110023
30
0
41
1
10
100.705694283879
20
-7.68229529217949
30
0
41
1
10
100.678111782065
20
-7.69566941645314
30
0
41
1
10
100.657034438437
20
-7.69426805256329
30
0
41
1
10
100.643854847208
20
-7.68048966049627
30
0
41
1
10
100.641063487742
20
-7.66376860837758
30
0
41
1
10
100.640999124013
20
-7.65229636536016
30
0
41
1
10
100.641000045705
20
-7.65181577059177
30
0
0
SPLINE
5
128
100
AcDbEntity
8
1
62
256
6
ByLayer
370
18
48
1
60
0
100
AcDbSpline
70
4
71
1
72
4
73
2
40
0
40
0
40
1
40
1
41
1
10
101.271
20
-7.22105681933911
30
0
41
1
10
100.73225
20
-7.66209940730236
30
0
0
SPLINE
5
129
100
AcDbEntity
8
1
62
256
6
ByLayer
370
18
48
1
60
0
100
AcDbSpline
70
4
71
1
72
4
73
2
40
0
40
0
40
1
40
1
41
1
10
100.73225
20
-8.31950422279437
30
0
41
1
10
101.271
20
-7.45999175465369
30
0
0
SPLINE
5
12A
100
AcDbEntity
8
1
62
256
6
ByLayer
370
18
48
1
60
0
100
AcDbSpline
70
4
71
3
72
12
73
8
40
0
40
0
40
0
40
0
40
0.200354770529456
40
0.414538454406818
40
0.630162450655975
40
0.815771967332569
40
1
40
1
40
1
40
1
41
1
10
100.73225
20
-8.50735818200365
30
0
41
1
10
100.722341201785
20
-8.51564390805874
30
0
41
1
10
100.702841690599
20
-8.53008720119963
30
0
41
1
10
100.674633126049
20
-8.54550462777471
30
0
41
1
10
100.653642406097
20
-8.5481334110447
30
0
41
1
10
100.642890239412
20
-8.53848693574856
30
0
41
1
10
100.640812306362
20
-8.52774307312154
30
0
41
1
10
100.641001092945
20
-8.52103643722437
30
0
0
SPLINE
5
12B
100
AcDbEntity
8
1
62
256
6
ByLayer
370
18
48
1
60
0
100
AcDbSpline
70
4
71
1
72
4
73
2
40
0
40
0
40
1
40
1
41
1
10
101.271
20
-8.06433003130653
30
0
41
1
10
100.73225
20
-8.50735818200377
30
0
0
SPLINE
5
12C
100
AcDbEntity
8
1
62
256
6
ByLayer
370
18
48
1
60
0
100
AcDbSpline
70
4
71
1
72
4
73
2
40
0
40
0
40
1
40
1
41
1
10
100.73225
20
-8.97478549067163
30
0
41
1
10
101.271
20
-8.23175070770443
30
0
0
SPLINE
5
12D
100
AcDbEntity
8
1
62
256
6
ByLayer
370
18
48
1
60
0
100
AcDbSpline
70
4
71
3
72
12
73
8
40
0
40
0
40
0
40
0
40
0.239468250701431
40
0.473826258016675
40
0.709858566950342
40
0.911131640515889
40
1
40
1
40
1
40
1
41
1
10
100.73225
20
-9.10590572905457
30
0
41
1
10
100.720511672113
20
-9.11598501463494
30
0
41
1
10
100.69883006647
20
-9.13288909560219
30
0
41
1
10
100.668919444346
20
-9.15138384070252
30
0
41
1
10
100.648730687118
20
-9.15628061350122
30
0
41
1
10
100.641789761647
20
-9.14948184433592
30
0
41
1
10
100.640962934412
20
-9.14282346033366
30
0
41
1
10
100.641000642988
20
-9.1404733846314
30
0
0
SPLINE
5
12E
100
AcDbEntity
8
1
62
256
6
ByLayer
370
18
48
1
60
0
100
AcDbSpline
70
4
71
1
72
4
73
2
40
0
40
0
40
1
40
1
41
1
10
101.271
20
-8.64859388106188
30
0
41
1
10
100.73225
20
-9.10590572905463
30
0
0
SPLINE
5
12F
100
AcDbEntity
8
1
62
256
6
ByLayer
370
18
48
1
60
0
100
AcDbSpline
70
4
71
1
72
4
73
2
40
0
40
0
40
1
40
1
41
1
10
100.73225
20
-9.42095529625561
30
0
41
1
10
101.271
20
-8.76053437000756
30
0
0
SPLINE
5
130
100
AcDbEntity
8
1
62
256
6
ByLayer
370
18
48
1
60
0
100
AcDbSpline
70
4
71
3
72
12
73
8
40
0
40
0
40
0
40
0
40
0.276786559678055
40
0.527366240654256
40
0.739380766167622
40
0.9518469091768
40
1
40
1
40
1
40
1
41
1
10
100.73225
20
-9.50446711057241
30
0
41
1
10
100.718729506886
20
-9.51658173241974
30
0
41
1
10
100.695128611904
20
-9.53636521391851
30
0
41
1
10
100.665634880892
20
-9.55755738213724
30
0
41
1
10
100.646992932251
20
-9.56602762088854
30
0
41
1
10
100.641435273035
20
-9.56334715108428
30
0
41
1
10
100.640993474559
20
-9.55927626023121
30
0
41
1
10
100.641000070507
20
-9.55843064917508
30
0
0
SPLINE
5
131
100
AcDbEntity
8
1
62
256
6
ByLayer
370
18
48
1
60
0
100
AcDbSpline
70
4
71
1
72
4
73
2
40
0
40
0
40
1
40
1
41
1
10
101.271
20
-9.02429683605595
30
0
41
1
10
100.73225
20
-9.50446711057244
30
0
0
SPLINE
5
132
100
AcDbEntity
8
1
62
256
6
ByLayer
370
18
48
1
60
0
100
AcDbSpline
70
4
71
1
72
4
73
2
40
0
40
0
40
1
40
1
41
1
10
100.73225
20
-9.68695116042831
30
0
41
1
10
101.271
20
-9.08885059742844
30
0
0
SPLINE
5
133
100
AcDbEntity
8
1
62
256
6
ByLayer
370
18
48
1
60
0
100
AcDbSpline
70
4
71
3
72
12
73
8
40
0
40
0
40
0
40
0
40
0.0831285709158178
40
0.276162736829841
40
0.560498067184021
40
0.960417503661639
40
1
40
1
40
1
40
1
41
1
10
100.641
20
-9.80060712405104
30
0
41
1
10
100.641026215563
20
-9.79978375628781
30
0
41
1
10
100.642016761998
20
-9.7961730954385
30
0
41
1
10
100.650921439731
20
-9.78199311932951
30
0
41
1
10
100.678233245335
20
-9.7475068087238
30
0
41
1
10
100.709815153355
20
-9.71157510233382
30
0
41
1
10
100.73037849399
20
-9.68899891388902
30
0
41
1
10
100.73225
20
-9.68695116042831
30
0
0
SPLINE
5
134
100
AcDbEntity
8
1
62
256
6
ByLayer
370
18
48
1
60
0
100
AcDbSpline
70
4
71
1
72
4
73
2
40
0
40
0
40
1
40
1
41
1
10
100.641
20
-9.80060712405104
30
0
41
1
10
100.521
20
-9.92156741649221
30
0
0
SPLINE
5
135
100
AcDbEntity
8
1
62
256
6
ByLayer
370
18
48
1
60
0
100
AcDbSpline
70
4
71
3
72
12
73
8
40
0
40
0
40
0
40
0
40
0.147931800942644
40
0.360119596213434
40
0.573002749468624
40
0.787353735811201
40
1
40
1
40
1
40
1
41
1
10
99.2000000000001
20
9.92156741649305
30
0
41
1
10
99.1841536152634
20
9.92150407387699
30
0
41
1
10
99.1469391017234
20
9.91718110892538
30
0
41
1
10
99.0903482736865
20
9.89310981359361
30
0
41
1
10
99.040067554307
20
9.84731629026464
30
0
41
1
10
99.0073769805378
20
9.78684855578624
30
0
41
1
10
99.00018965583
20
9.74310668656125
30
0
41
1
10
99
20
9.71995370359345
30
0
0
SPLINE
5
136
100
AcDbEntity
8
1
62
256
6
ByLayer
370
18
48
1
60
0
100
AcDbSpline
70
4
71
3
72
13
73
9
40
0
40
0
40
0
40
0
40
0.167636786690724
40
0.384795011676297
40
0.60106122578758
40
0.737053797008524
40
0.949314578189669
40
1
40
1
40
1
40
1
41
1
10
99
20
-9.71995370359344
30
0
41
1
10
99.0000832258777
20
-9.73799357301566
30
0
41
1
10
99.0052141214105
20
-9.77768979278073
30
0
41
1
10
99.0319325840231
20
-9.83643671713127
30
0
41
1
10
99.0742685992369
20
-9.8800907109142
30
0
41
1
10
99.125708892017
20
-9.90992612212819
30
0
41
1
10
99.1672166063383
20
-9.92047820143181
30
0
41
1
10
99.1946646895023
20
-9.92156546558743
30
0
41
1
10
99.2
20
-9.92156741649222
30
0
0
SPLINE
5
137
100
AcDbEntity
8
1
62
256
6
ByLayer
370
18
48
1
60
0
100
AcDbSpline
70
4
71
3
72
15
73
11
40
0
40
0
40
0
40
0
40
0.249761477092323
40
0.421361329057684
40
0.594351000214961
40
0.683859550934289
40
0.774024269494308
40
0.854693307909121
40
0.975842298537923
40
1
40
1
40
1
40
1
41
1
10
100.641010141347
20
4.58454220303772
30
0
41
1
10
100.640483736767
20
4.60435875737098
30
0
41
1
10
100.642180123855
20
4.63601728273924
30
0
41
1
10
100.649196823372
20
4.67783705036809
30
0
41
1
10
100.660233715337
20
4.70383212876742
30
0
41
1
10
100.67557682942
20
4.7163352076608
30
0
41
1
10
100.690504410511
20
4.71799868443317
30
0
41
1
10
100.708798651626
20
4.71098599744198
30
0
41
1
10
100.722597343773
20
4.69985230826946
30
0
41
1
10
100.730883361715
20
4.69162188826238
30
0
41
1
10
100.732249999996
20
4.69020420753416
30
0
0
SPLINE
5
138
100
AcDbEntity
8
1
62
256
6
ByLayer
370
18
48
1
60
0
100
AcDbSpline
70
4
71
2
72
6
73
3
40
0
40
0
40
0
40
1
40
1
40
1
41
1
10
100.641048541312
20
-4.58009460208404
30
0
41
1
10
100.6506158203
20
-4.32914847806055
30
0
41
1
10
100.73225
20
-4.05786621781244
30
0
0
SPLINE
5
139
100
AcDbEntity
8
1
62
256
6
ByLayer
370
18
48
1
60
0
100
AcDbSpline
70
4
71
3
72
14
73
10
40
0
40
0
40
0
40
0
40
0.0443998806716013
40
0.261987838647762
40
0.481711827099028
40
0.616720169107884
40
0.752065877445247
40
0.913481078987541
40
1
40
1
40
1
40
1
41
1
10
100.641001054084
20
6.43079113964255
30
0
41
1
10
100.640986040376
20
6.43329249402535
30
0
41
1
10
100.641192718984
20
6.44782021314458
30
0
41
1
10
100.643991953407
20
6.47290885525526
30
0
41
1
10
100.65554354483
20
6.49559607055654
30
0
41
1
10
100.673766389425
20
6.50339573923796
30
0
41
1
10
100.694607951272
20
6.49997262254247
30
0
41
1
10
100.714986571966
20
6.4881480481025
30
0
41
1
10
100.727769862897
20
6.47811477068414
30
0
41
1
10
100.73225
20
6.47420971376892
30
0
0
SPLINE
5
13A
100
AcDbEntity
8
1
62
256
6
ByLayer
370
18
48
1
60
0
100
AcDbSpline
70
4
71
3
72
10
73
6
40
0
40
0
40
0
40
0
40
0.035489537432191
40
0.41256217227029
40
1
40
1
40
1
40
1
41
1
10
100.641002375718
20
-6.43042644030621
30
0
41
1
10
100.641036831889
20
-6.42695396448998
30
0
41
1
10
100.64192733539
20
-6.38633931743114
30
0
41
1
10
100.66444041272
20
-6.27502302577579
30
0
41
1
10
100.701127392554
20
-6.16648471719063
30
0
41
1
10
100.73225
20
-6.0970404568233
30
0
0
SPLINE
5
13B
100
AcDbEntity
8
1
62
256
6
ByLayer
370
18
48
1
60
0
100
AcDbSpline
70
4
71
3
72
10
73
6
40
0
40
0
40
0
40
0
40
0.263205080768052
40
0.743106203415726
40
1
40
1
40
1
40
1
41
1
10
100.641000045705
20
-7.65181577059177
30
0
41
1
10
100.642179070562
20
-7.63297660686306
30
0
41
1
10
100.650400295824
20
-7.57753021245427
30
0
41
1
10
100.686647893424
20
-7.48792717111226
30
0
41
1
10
100.719472648406
20
-7.42289292601847
30
0
41
1
10
100.73225
20
-7.3997652951034
30
0
0
SPLINE
5
13C
100
AcDbEntity
8
1
62
256
6
ByLayer
370
18
48
1
60
0
100
AcDbSpline
70
4
71
3
72
13
73
9
40
0
40
0
40
0
40
0
40
0.141057635230389
40
0.334281417416922
40
0.529097637092012
40
0.699946131212992
40
0.901816530463358
40
1
40
1
40
1
40
1
41
1
10
100.641007345444
20
7.65057415146391
30
0
41
1
10
100.640827368104
20
7.65705953373971
30
0
41
1
10
100.641968550513
20
7.67086748356007
30
0
41
1
10
100.6487680221
20
7.68850402160359
30
0
41
1
10
100.66504249373
20
7.69647910096811
30
0
41
1
10
100.689215020252
20
7.69128766270139
30
0
41
1
10
100.712536180304
20
7.6774681604265
30
0
41
1
10
100.727338120766
20
7.66616716099978
30
0
41
1
10
100.732250000035
20
7.66209940729228
30
0
0
SPLINE
5
13D
100
AcDbEntity
8
1
62
256
6
ByLayer
370
18
48
1
60
0
100
AcDbSpline
70
4
71
3
72
13
73
9
40
0
40
0
40
0
40
0
40
0.0478662592780065
40
0.262023340745078
40
0.477675480701778
40
0.664760094022515
40
0.90659064091849
40
1
40
1
40
1
40
1
41
1
10
100.641000458546
20
8.52116774250908
30
0
41
1
10
100.640985313868
20
8.52283640141339
30
0
41
1
10
100.641331983116
20
8.53153719227367
30
0
41
1
10
100.645710164933
20
8.54415830313539
30
0
41
1
10
100.661847139352
20
8.54847694502515
30
0
41
1
10
100.687192389419
20
8.53972363537294
30
0
41
1
10
100.711761302511
20
8.52365190684486
30
0
41
1
10
100.727726811672
20
8.51110226172375
30
0
41
1
10
100.732250000005
20
8.50735818200202
30
0
0
SPLINE
5
13E
100
AcDbEntity
8
1
62
256
6
ByLayer
370
18
48
1
60
0
100
AcDbSpline
70
4
71
3
72
11
73
7
40
0
40
0
40
0
40
0
40
0.0478192781795636
40
0.320242335730675
40
0.759128962337384
40
1
40
1
40
1
40
1
41
1
10
100.641001092945
20
-8.52103643722437
30
0
41
1
10
100.641036070544
20
-8.51875467707424
30
0
41
1
10
100.641848244914
20
-8.50304156943016
30
0
41
1
10
100.655372857718
20
-8.45608916166532
30
0
41
1
10
100.68995648005
20
-8.38738246103486
30
0
41
1
10
100.72042177681
20
-8.33755129747419
30
0
41
1
10
100.732249999995
20
-8.31950422279463
30
0
0
SPLINE
5
13F
100
AcDbEntity
8
1
62
256
6
ByLayer
370
18
48
1
60
0
100
AcDbSpline
70
4
71
3
72
12
73
8
40
0
40
0
40
0
40
0
40
0.202327225693213
40
0.420330174366712
40
0.61808928173838
40
0.887147091715917
40
1
40
1
40
1
40
1
41
1
10
100.641000065189
20
9.14060948686557
30
0
41
1
10
100.640909040833
20
9.1461120478036
30
0
41
1
10
100.643795173692
20
9.15399442516752
30
0
41
1
10
100.657978609923
20
9.15514770794264
30
0
41
1
10
100.682837617836
20
9.14368895172856
30
0
41
1
10
100.7090279433
20
9.12507380153798
30
0
41
1
10
100.726853325705
20
9.11050294307056
30
0
41
1
10
100.732250000007
20
9.1059057290518
30
0
0
SPLINE
5
140
100
AcDbEntity
8
1
62
256
6
ByLayer
370
18
48
1
60
0
100
AcDbSpline
70
4
71
3
72
11
73
7
40
0
40
0
40
0
40
0
40
0.130427626213323
40
0.414060988980628
40
0.842328976227086
40
1
40
1
40
1
40
1
41
1
10
100.641000642988
20
-9.1404733846314
30
0
41
1
10
100.64119779382
20
-9.13603837975884
30
0
41
1
10
100.643673536542
20
-9.12049938192759
30
0
41
1
10
100.663524752033
20
-9.07619099206892
30
0
41
1
10
100.697791305209
20
-9.02219782269257
30
0
41
1
10
100.724635754611
20
-8.98497647434806
30
0
41
1
10
100.73225
20
-8.9747854906716
30
0
0
SPLINE
5
141
100
AcDbEntity
8
1
62
256
6
ByLayer
370
18
48
1
60
0
100
AcDbSpline
70
4
71
3
72
11
73
7
40
0
40
0
40
0
40
0
40
0.136297694521932
40
0.394909042408296
40
0.765285420055067
40
1
40
1
40
1
40
1
41
1
10
100.641000070507
20
-9.55843064917508
30
0
41
1
10
100.641159152171
20
-9.55549726658038
30
0
41
1
10
100.643522224771
20
-9.54533210452277
30
0
41
1
10
100.660983411298
20
-9.51371622801763
30
0
41
1
10
100.693845147255
20
-9.46825480677562
30
0
41
1
10
100.720881450894
20
-9.43456966081857
30
0
41
1
10
100.73225
20
-9.42095529625381
30
0
0
SPLINE
5
142
100
AcDbEntity
8
1
62
256
6
ByLayer
370
18
48
1
60
0
100
AcDbSpline
70
4
71
3
72
12
73
8
40
0
40
0
40
0
40
0
40
0.149123106799829
40
0.363866632805375
40
0.567893375916332
40
0.857309475229577
40
1
40
1
40
1
40
1
41
1
10
100.641000305115
20
9.55838507615469
30
0
41
1
10
100.640972307302
20
9.56106539480851
30
0
41
1
10
100.642915759747
20
9.56538794423823
30
0
41
1
10
100.654180664624
20
9.56358479905601
30
0
41
1
10
100.677836648078
20
9.54947030692496
30
0
41
1
10
100.70554431058
20
9.5277227469468
30
0
41
1
10
100.725441297359
20
9.5105361122375
30
0
41
1
10
100.732250000015
20
9.50446711056512
30
0
0
INSERT
5
179
100
AcDbEntity
8
SK2
62
256
6
ByLayer
370
25
48
1
60
0
100
AcDbBlockReference
2
DimnDraft3D55
10
0
20
0
30
0
41
1
42
1
43
1
50
0
210
0
220
0
230
1
0
LINE
5
70
100
AcDbEntity
8
81
62
256
6
ByLayer
370
18
48
1
60
0
100
AcDbLine
10
101
20
0
30
0
11
111.1
21
0
31
0
39
0
210
0
220
0
230
1
0
LINE
5
71
100
AcDbEntity
8
4
62
256
6
ByLayer
370
18
48
0.05
60
0
100
AcDbLine
10
0
20
0
30
0
11
101
21
0
31
0
39
0
210
0
220
0
230
1
0
LINE
5
73
100
AcDbEntity
8
SK4
62
256
6
ByLayer
370
18
48
0.05
60
0
100
AcDbLine
10
-25
20
0
30
0
11
106
21
0
31
0
39
0
210
0
220
0
230
1
0
LINE
5
75
100
AcDbEntity
8
80
62
256
6
ByLayer
370
18
48
1
60
0
100
AcDbLine
10
0
20
0
30
0
11
-10.1
21
0
31
0
39
0
210
0
220
0
230
1
0
LINE
5
76
100
AcDbEntity
8
SK1
62
256
6
ByLayer
370
18
48
1
60
0
100
AcDbLine
10
107.225
20
-1.746194
30
0
11
103.725
21
-1.746194
31
0
39
0
210
0
220
0
230
1
0
LINE
5
78
100
AcDbEntity
8
SK1
62
256
6
ByLayer
370
18
48
1
60
0
100
AcDbLine
10
103.725
20
-7.446194
30
0
11
107.225
21
-7.446194
31
0
39
0
210
0
220
0
230
1
0
LINE
5
79
100
AcDbEntity
8
SK1
62
256
6
ByLayer
370
18
48
1
60
0
100
AcDbLine
10
103.725
20
-2.843694
30
0
11
101.271
21
-2.843694
31
0
39
0
210
0
220
0
230
1
0
LINE
5
7A
100
AcDbEntity
8
SK1
62
256
6
ByLayer
370
18
48
1
60
0
100
AcDbLine
10
101.271
20
-6.348694
30
0
11
103.725
21
-6.348694
31
0
39
0
210
0
220
0
230
1
0
LINE
5
7B
100
AcDbEntity
8
1
62
256
6
ByLayer
370
18
48
1
60
0
100
AcDbLine
10
15
20
16
30
0
11
0.3
21
16
31
0
39
0
210
0
220
0
230
1
0
LINE
5
7D
100
AcDbEntity
8
1
62
256
6
ByLayer
370
18
48
1
60
0
100
AcDbLine
10
0.3
20
-16
30
0
11
15
21
-16
31
0
39
0
210
0
220
0
230
1
0
LINE
5
7E
100
AcDbEntity
8
1
62
256
6
ByLayer
370
18
48
1
60
0
100
AcDbLine
10
4.923205
20
15.276962
30
0
11
7.076795
21
15.276962
31
0
39
0
210
0
220
0
230
1
0
LINE
5
7F
100
AcDbEntity
8
1
62
256
6
ByLayer
370
18
48
1
60
0
100
AcDbLine
10
7.076795
20
4.755463
30
0
11
4.923205
21
4.755463
31
0
39
0
210
0
220
0
230
1
0
LINE
5
80
100
AcDbEntity
8
1
62
256
6
ByLayer
370
18
48
1
60
0
100
AcDbLine
10
4.923205
20
-4.755463
30
0
11
7.076795
21
-4.755463
31
0
39
0
210
0
220
0
230
1
0
LINE
5
81
100
AcDbEntity
8
1
62
256
6
ByLayer
370
18
48
1
60
0
100
AcDbLine
10
7.076795
20
-15.276962
30
0
11
4.923205
21
-15.276962
31
0
39
0
210
0
220
0
230
1
0
LINE
5
82
100
AcDbEntity
8
1
62
256
6
ByLayer
370
18
48
1
60
0
100
AcDbLine
10
15
20
-16
30
0
11
16.011899
21
-12.223543
31
0
39
0
210
0
220
0
230
1
0
LINE
5
83
100
AcDbEntity
8
1
62
256
6
ByLayer
370
18
48
1
60
0
100
AcDbLine
10
16.011899
20
12.223543
30
0
11
15
21
16
31
0
39
0
210
0
220
0
230
1
0
LINE
5
84
100
AcDbEntity
8
1
62
256
6
ByLayer
370
18
48
1
60
0
100
AcDbLine
10
0.3
20
16
30
0
11
0
21
15.7
31
0
39
0
210
0
220
0
230
1
0
LINE
5
85
100
AcDbEntity
8
1
62
256
6
ByLayer
370
18
48
1
60
0
100
AcDbLine
10
0
20
-15.7
30
0
11
0.3
21
-16
31
0
39
0
210
0
220
0
230
1
0
LINE
5
86
100
AcDbEntity
8
1
62
256
6
ByLayer
370
18
48
1
60
0
100
AcDbLine
10
4.663397
20
5.068619
30
0
11
4.663397
21
15.175938
31
0
39
0
210
0
220
0
230
1
0
LINE
5
87
100
AcDbEntity
8
1
62
256
6
ByLayer
370
18
48
1
60
0
100
AcDbLine
10
4.923205
20
4.755463
30
0
11
4.923205
21
15.276962
31
0
39
0
210
0
220
0
230
1
0
LINE
5
88
100
AcDbEntity
8
1
62
256
6
ByLayer
370
18
48
1
60
0
100
AcDbLine
10
7.076795
20
-15.276962
30
0
11
7.076795
21
-4.755463
31
0
39
0
210
0
220
0
230
1
0
LINE
5
89
100
AcDbEntity
8
1
62
256
6
ByLayer
370
18
48
1
60
0
100
AcDbLine
10
7.336603
20
-15.175938
30
0
11
7.336603
21
-5.068619
31
0
39
0
210
0
220
0
230
1
0
LINE
5
8A
100
AcDbEntity
8
1
62
256
6
ByLayer
370
18
48
1
60
0
100
AcDbLine
10
4.663397
20
-15.175938
30
0
11
4.663397
21
-5.068619
31
0
39
0
210
0
220
0
230
1
0
LINE
5
8B
100
AcDbEntity
8
1
62
256
6
ByLayer
370
18
48
1
60
0
100
AcDbLine
10
4.923205
20
-15.276962
30
0
11
4.923205
21
-4.755463
31
0
39
0
210
0
220
0
230
1
0
LINE
5
8C
100
AcDbEntity
8
1
62
256
6
ByLayer
370
18
48
1
60
0
100
AcDbLine
10
7.076795
20
4.755463
30
0
11
7.076795
21
15.276962
31
0
39
0
210
0
220
0
230
1
0
LINE
5
8D
100
AcDbEntity
8
1
62
256
6
ByLayer
370
18
48
1
60
0
100
AcDbLine
10
7.336603
20
5.068619
30
0
11
7.336603
21
15.175938
31
0
39
0
210
0
220
0
230
1
0
LINE
5
8E
100
AcDbEntity
8
1
62
256
6
ByLayer
370
18
48
1
60
0
100
AcDbLine
10
98.8
20
10
30
0
11
18.909676
21
10
31
0
39
0
210
0
220
0
230
1
0
LINE
5
8F
100
AcDbEntity
8
1
62
256
6
ByLayer
370
18
48
1
60
0
100
AcDbLine
10
18.909676
20
-10
30
0
11
98.8
21
-10
31
0
39
0
210
0
220
0
230
1
0
LINE
5
90
100
AcDbEntity
8
SK1
62
256
6
ByLayer
370
18
48
1
60
0
100
AcDbLine
10
107.225
20
7.446194
30
0
11
103.725
21
7.446194
31
0
39
0
210
0
220
0
230
1
0
LINE
5
91
100
AcDbEntity
8
SK1
62
256
6
ByLayer
370
18
48
1
60
0
100
AcDbLine
10
103.725
20
1.746194
30
0
11
107.225
21
1.746194
31
0
39
0
210
0
220
0
230
1
0
LINE
5
92
100
AcDbEntity
8
SK1
62
256
6
ByLayer
370
18
48
1
60
0
100
AcDbLine
10
103.725
20
6.348694
30
0
11
101.271
21
6.348694
31
0
39
0
210
0
220
0
230
1
0
LINE
5
93
100
AcDbEntity
8
SK1
62
256
6
ByLayer
370
18
48
1
60
0
100
AcDbLine
10
101.271
20
2.843694
30
0
11
103.725
21
2.843694
31
0
39
0
210
0
220
0
230
1
0
LINE
5
94
100
AcDbEntity
8
1
62
256
6
ByLayer
370
18
48
1
60
0
100
AcDbLine
10
99.2
20
9.921567
30
0
11
100.521
21
9.921567
31
0
39
0
210
0
220
0
230
1
0
LINE
5
95
100
AcDbEntity
8
1
62
256
6
ByLayer
370
18
48
1
60
0
100
AcDbLine
10
100.521
20
-9.921567
30
0
11
99.2
21
-9.921567
31
0
39
0
210
0
220
0
230
1
0
LINE
5
96
100
AcDbEntity
8
1
62
256
6
ByLayer
370
18
48
1
60
0
100
AcDbLine
10
100.73225
20
4.690204
30
0
11
100.73225
21
4.057866
31
0
39
0
210
0
220
0
230
1
0
LINE
5
97
100
AcDbEntity
8
1
62
256
6
ByLayer
370
18
48
1
60
0
100
AcDbLine
10
100.73225
20
-4.057866
30
0
11
100.73225
21
-4.690204
31
0
39
0
210
0
220
0
230
1
0
LINE
5
98
100
AcDbEntity
8
1
62
256
6
ByLayer
370
18
48
1
60
0
100
AcDbLine
10
101.271
20
4.121789
30
0
11
101.271
21
0.755479
31
0
39
0
210
0
220
0
230
1
0
LINE
5
99
100
AcDbEntity
8
1
62
256
6
ByLayer
370
18
48
1
60
0
100
AcDbLine
10
101.271
20
-0.755479
30
0
11
101.271
21
-4.121789
31
0
39
0
210
0
220
0
230
1
0
LINE
5
9A
100
AcDbEntity
8
1
62
256
6
ByLayer
370
18
48
1
60
0
100
AcDbLine
10
100.73225
20
6.47421
30
0
11
100.73225
21
6.09704
31
0
39
0
210
0
220
0
230
1
0
LINE
5
9B
100
AcDbEntity
8
1
62
256
6
ByLayer
370
18
48
1
60
0
100
AcDbLine
10
100.73225
20
-6.09704
30
0
11
100.73225
21
-6.47421
31
0
39
0
210
0
220
0
230
1
0
LINE
5
9C
100
AcDbEntity
8
1
62
256
6
ByLayer
370
18
48
1
60
0
100
AcDbLine
10
101.271
20
6.010732
30
0
11
101.271
21
4.696381
31
0
39
0
210
0
220
0
230
1
0
LINE
5
9D
100
AcDbEntity
8
1
62
256
6
ByLayer
370
18
48
1
60
0
100
AcDbLine
10
101.271
20
-4.696381
30
0
11
101.271
21
-6.010732
31
0
39
0
210
0
220
0
230
1
0
LINE
5
9E
100
AcDbEntity
8
1
62
256
6
ByLayer
370
18
48
1
60
0
100
AcDbLine
10
100.73225
20
-7.399765
30
0
11
100.73225
21
-7.662099
31
0
39
0
210
0
220
0
230
1
0
LINE
5
9F
100
AcDbEntity
8
1
62
256
6
ByLayer
370
18
48
1
60
0
100
AcDbLine
10
100.73225
20
7.662099
30
0
11
100.73225
21
7.399765
31
0
39
0
210
0
220
0
230
1
0
LINE
5
A0
100
AcDbEntity
8
1
62
256
6
ByLayer
370
18
48
1
60
0
100
AcDbLine
10
101.271
20
-6.449965
30
0
11
101.271
21
-7.221057
31
0
39
0
210
0
220
0
230
1
0
LINE
5
A1
100
AcDbEntity
8
1
62
256
6
ByLayer
370
18
48
1
60
0
100
AcDbLine
10
101.271
20
7.221057
30
0
11
101.271
21
6.449965
31
0
39
0
210
0
220
0
230
1
0
LINE
5
A2
100
AcDbEntity
8
1
62
256
6
ByLayer
370
18
48
1
60
0
100
AcDbLine
10
100.73225
20
8.507358
30
0
11
100.73225
21
8.319504
31
0
39
0
210
0
220
0
230
1
0
LINE
5
A3
100
AcDbEntity
8
1
62
256
6
ByLayer
370
18
48
1
60
0
100
AcDbLine
10
100.73225
20
-8.319504
30
0
11
100.73225
21
-8.507358
31
0
39
0
210
0
220
0
230
1
0
LINE
5
A4
100
AcDbEntity
8
1
62
256
6
ByLayer
370
18
48
1
60
0
100
AcDbLine
10
101.271
20
8.06433
30
0
11
101.271
21
7.459992
31
0
39
0
210
0
220
0
230
1
0
LINE
5
A5
100
AcDbEntity
8
1
62
256
6
ByLayer
370
18
48
1
60
0
100
AcDbLine
10
101.271
20
-7.459992
30
0
11
101.271
21
-8.06433
31
0
39
0
210
0
220
0
230
1
0
LINE
5
A6
100
AcDbEntity
8
1
62
256
6
ByLayer
370
18
48
1
60
0
100
AcDbLine
10
100.73225
20
9.105906
30
0
11
100.73225
21
8.974785
31
0
39
0
210
0
220
0
230
1
0
LINE
5
A7
100
AcDbEntity
8
1
62
256
6
ByLayer
370
18
48
1
60
0
100
AcDbLine
10
100.73225
20
-8.974785
30
0
11
100.73225
21
-9.105906
31
0
39
0
210
0
220
0
230
1
0
LINE
5
A8
100
AcDbEntity
8
1
62
256
6
ByLayer
370
18
48
1
60
0
100
AcDbLine
10
101.271
20
8.648594
30
0
11
101.271
21
8.231751
31
0
39
0
210
0
220
0
230
1
0
LINE
5
A9
100
AcDbEntity
8
1
62
256
6
ByLayer
370
18
48
1
60
0
100
AcDbLine
10
101.271
20
6.449965
30
0
11
101.271
21
6.359716
31
0
39
0
210
0
220
0
230
1
0
LINE
5
AA
100
AcDbEntity
8
1
62
256
6
ByLayer
370
18
48
1
60
0
100
AcDbLine
10
101.271
20
-6.359716
30
0
11
101.271
21
-6.449965
31
0
39
0
210
0
220
0
230
1
0
LINE
5
AB
100
AcDbEntity
8
1
62
256
6
ByLayer
370
18
48
1
60
0
100
AcDbLine
10
101.271
20
-8.231751
30
0
11
101.271
21
-8.648594
31
0
39
0
210
0
220
0
230
1
0
LINE
5
AC
100
AcDbEntity
8
1
62
256
6
ByLayer
370
18
48
1
60
0
100
AcDbLine
10
100.73225
20
-9.420955
30
0
11
100.73225
21
-9.504467
31
0
39
0
210
0
220
0
230
1
0
LINE
5
AD
100
AcDbEntity
8
1
62
256
6
ByLayer
370
18
48
1
60
0
100
AcDbLine
10
100.73225
20
9.504467
30
0
11
100.73225
21
9.420955
31
0
39
0
210
0
220
0
230
1
0
LINE
5
AE
100
AcDbEntity
8
1
62
256
6
ByLayer
370
18
48
1
60
0
100
AcDbLine
10
101.271
20
9.024297
30
0
11
101.271
21
8.760534
31
0
39
0
210
0
220
0
230
1
0
LINE
5
AF
100
AcDbEntity
8
1
62
256
6
ByLayer
370
18
48
1
60
0
100
AcDbLine
10
101.271
20
-8.760534
30
0
11
101.271
21
-9.024297
31
0
39
0
210
0
220
0
230
1
0
LINE
5
B0
100
AcDbEntity
8
SK1
62
256
6
ByLayer
370
18
48
1
60
0
100
AcDbLine
10
107.225
20
-1.746194
30
0
11
107.225
21
-7.446194
31
0
39
0
210
0
220
0
230
1
0
LINE
5
B1
100
AcDbEntity
8
SK1
62
256
6
ByLayer
370
18
48
1
60
0
100
AcDbLine
10
103.725
20
-1.746194
30
0
11
103.725
21
-7.446194
31
0
39
0
210
0
220
0
230
1
0
LINE
5
B2
100
AcDbEntity
8
1
62
256
6
ByLayer
370
18
48
1
60
0
100
AcDbLine
10
15
20
16
30
0
11
15
21
-16
31
0
39
0
210
0
220
0
230
1
0
LINE
5
B3
100
AcDbEntity
8
1
62
256
6
ByLayer
370
18
48
1
60
0
100
AcDbLine
10
0.3
20
16
30
0
11
0.3
21
-16
31
0
39
0
210
0
220
0
230
1
0
LINE
5
B4
100
AcDbEntity
8
1
62
256
6
ByLayer
370
18
48
1
60
0
100
AcDbLine
10
16.011899
20
12.223543
30
0
11
16.011899
21
-12.223543
31
0
39
0
210
0
220
0
230
1
0
LINE
5
B5
100
AcDbEntity
8
1
62
256
6
ByLayer
370
18
48
1
60
0
100
AcDbLine
10
0
20
-15.7
30
0
11
0
21
15.7
31
0
39
0
210
0
220
0
230
1
0
LINE
5
B6
100
AcDbEntity
8
SK1
62
256
6
ByLayer
370
18
48
1
60
0
100
AcDbLine
10
-0.2
20
10.883485
30
0
11
-0.2
21
5.197043
31
0
39
0
210
0
220
0
230
1
0
LINE
5
B7
100
AcDbEntity
8
SK1
62
256
6
ByLayer
370
18
48
1
60
0
100
AcDbLine
10
-1.307107
20
3.2741
30
0
11
-1.307107
21
-3.2741
31
0
39
0
210
0
220
0
230
1
0
LINE
5
B8
100
AcDbEntity
8
SK1
62
256
6
ByLayer
370
18
48
1
60
0
100
AcDbLine
10
-0.2
20
-5.197043
30
0
11
-0.2
21
-10.883485
31
0
39
0
210
0
220
0
230
1
0
LINE
5
B9
100
AcDbEntity
8
1
62
256
6
ByLayer
370
18
48
1
60
0
100
AcDbLine
10
18.909676
20
10
30
0
11
18.909676
21
-10
31
0
39
0
210
0
220
0
230
1
0
LINE
5
BA
100
AcDbEntity
8
1
62
256
6
ByLayer
370
18
48
1
60
0
100
AcDbLine
10
98.8
20
-10
30
0
11
98.8
21
0
31
0
39
0
210
0
220
0
230
1
0
LINE
5
BB
100
AcDbEntity
8
1
62
256
6
ByLayer
370
18
48
1
60
0
100
AcDbLine
10
99
20
9.8
30
0
11
99
21
9.744994
31
0
39
0
210
0
220
0
230
1
0
LINE
5
BC
100
AcDbEntity
8
1
62
256
6
ByLayer
370
18
48
1
60
0
100
AcDbLine
10
99
20
9.744994
30
0
11
99
21
9.719954
31
0
39
0
210
0
220
0
230
1
0
LINE
5
BD
100
AcDbEntity
8
1
62
256
6
ByLayer
370
18
48
1
60
0
100
AcDbLine
10
99
20
9.719954
30
0
11
99
21
0
31
0
39
0
210
0
220
0
230
1
0
LINE
5
BE
100
AcDbEntity
8
1
62
256
6
ByLayer
370
18
48
1
60
0
100
AcDbLine
10
99
20
0
30
0
11
99
21
-9.719954
31
0
39
0
210
0
220
0
230
1
0
LINE
5
BF
100
AcDbEntity
8
1
62
256
6
ByLayer
370
18
48
1
60
0
100
AcDbLine
10
99
20
-9.719954
30
0
11
99
21
-9.723867
31
0
39
0
210
0
220
0
230
1
0
LINE
5
C0
100
AcDbEntity
8
1
62
256
6
ByLayer
370
18
48
1
60
0
100
AcDbLine
10
99
20
-9.723867
30
0
11
99
21
-9.8
31
0
39
0
210
0
220
0
230
1
0
LINE
5
C1
100
AcDbEntity
8
1
62
256
6
ByLayer
370
18
48
1
60
0
100
AcDbLine
10
98.8
20
0
30
0
11
98.8
21
10
31
0
39
0
210
0
220
0
230
1
0
LINE
5
C2
100
AcDbEntity
8
SK1
62
256
6
ByLayer
370
18
48
1
60
0
100
AcDbLine
10
107.225
20
7.446194
30
0
11
107.225
21
1.746194
31
0
39
0
210
0
220
0
230
1
0
LINE
5
C3
100
AcDbEntity
8
SK1
62
256
6
ByLayer
370
18
48
1
60
0
100
AcDbLine
10
103.725
20
7.446194
30
0
11
103.725
21
1.746194
31
0
39
0
210
0
220
0
230
1
0
LINE
5
C4
100
AcDbEntity
8
1
62
256
6
ByLayer
370
18
48
1
60
0
100
AcDbLine
10
100.521
20
-9.921567
30
0
11
100.521
21
9.921567
31
0
39
0
210
0
220
0
230
1
0
LINE
5
C5
100
AcDbEntity
8
1
62
256
6
ByLayer
370
18
48
1
60
0
100
AcDbLine
10
101.271
20
9.024297
30
0
11
101.271
21
9.088851
31
0
39
0
210
0
220
0
230
1
0
LINE
5
C6
100
AcDbEntity
8
1
62
256
6
ByLayer
370
18
48
1
60
0
100
AcDbLine
10
101.271
20
8.648594
30
0
11
101.271
21
8.760534
31
0
39
0
210
0
220
0
230
1
0
LINE
5
C7
100
AcDbEntity
8
1
62
256
6
ByLayer
370
18
48
1
60
0
100
AcDbLine
10
101.271
20
8.06433
30
0
11
101.271
21
8.231751
31
0
39
0
210
0
220
0
230
1
0
LINE
5
C8
100
AcDbEntity
8
1
62
256
6
ByLayer
370
18
48
1
60
0
100
AcDbLine
10
101.271
20
7.221057
30
0
11
101.271
21
7.459992
31
0
39
0
210
0
220
0
230
1
0
LINE
5
C9
100
AcDbEntity
8
1
62
256
6
ByLayer
370
18
48
1
60
0
100
AcDbLine
10
101.271
20
6.010732
30
0
11
101.271
21
6.357376
31
0
39
0
210
0
220
0
230
1
0
LINE
5
CA
100
AcDbEntity
8
1
62
256
6
ByLayer
370
18
48
1
60
0
100
AcDbLine
10
101.271
20
4.121789
30
0
11
101.271
21
4.696381
31
0
39
0
210
0
220
0
230
1
0
LINE
5
CB
100
AcDbEntity
8
1
62
256
6
ByLayer
370
18
48
1
60
0
100
AcDbLine
10
101.271
20
-0.755479
30
0
11
101.271
21
0.755479
31
0
39
0
210
0
220
0
230
1
0
LINE
5
CC
100
AcDbEntity
8
1
62
256
6
ByLayer
370
18
48
1
60
0
100
AcDbLine
10
101.271
20
-4.696381
30
0
11
101.271
21
-4.121789
31
0
39
0
210
0
220
0
230
1
0
LINE
5
CD
100
AcDbEntity
8
1
62
256
6
ByLayer
370
18
48
1
60
0
100
AcDbLine
10
101.271
20
-6.357376
30
0
11
101.271
21
-6.010732
31
0
39
0
210
0
220
0
230
1
0
LINE
5
CE
100
AcDbEntity
8
1
62
256
6
ByLayer
370
18
48
1
60
0
100
AcDbLine
10
101.271
20
-7.459992
30
0
11
101.271
21
-7.221057
31
0
39
0
210
0
220
0
230
1
0
LINE
5
CF
100
AcDbEntity
8
1
62
256
6
ByLayer
370
18
48
1
60
0
100
AcDbLine
10
101.271
20
-8.231751
30
0
11
101.271
21
-8.06433
31
0
39
0
210
0
220
0
230
1
0
LINE
5
D0
100
AcDbEntity
8
1
62
256
6
ByLayer
370
18
48
1
60
0
100
AcDbLine
10
101.271
20
-8.760534
30
0
11
101.271
21
-8.648594
31
0
39
0
210
0
220
0
230
1
0
LINE
5
D1
100
AcDbEntity
8
1
62
256
6
ByLayer
370
18
48
1
60
0
100
AcDbLine
10
101.271
20
-9.088851
30
0
11
101.271
21
-9.024297
31
0
39
0
210
0
220
0
230
1
0
LINE
5
D2
100
AcDbEntity
8
1
62
256
6
ByLayer
370
18
48
1
60
0
100
AcDbLine
10
99.2
20
9.921567
30
0
11
99.2
21
-9.921567
31
0
39
0
210
0
220
0
230
1
0
LINE
5
D3
100
AcDbEntity
8
1
62
256
6
ByLayer
370
18
48
1
60
0
100
AcDbLine
10
99
20
-9.719954
30
0
11
99
21
0
31
0
39
0
210
0
220
0
230
1
0
LINE
5
D4
100
AcDbEntity
8
1
62
256
6
ByLayer
370
18
48
1
60
0
100
AcDbLine
10
99
20
0
30
0
11
99
21
9.719954
31
0
39
0
210
0
220
0
230
1
0
LINE
5
D5
100
AcDbEntity
8
SK1
62
256
6
ByLayer
370
18
48
1
60
0
100
AcDbLine
10
-2.5
20
-11
30
0
11
-2.5
21
11
31
0
39
0
210
0
220
0
230
1
0
LINE
5
D6
100
AcDbEntity
8
SK1
62
256
6
ByLayer
370
18
48
1
60
0
100
AcDbLine
10
-18.000315
20
10.60835
30
0
11
-18.000315
21
-10.609189
31
0
39
0
210
0
220
0
230
1
0
LINE
5
D7
100
AcDbEntity
8
SK1
62
256
6
ByLayer
370
18
48
1
60
0
100
AcDbLine
10
-19
20
-9.99734
30
0
11
-19
21
9.997363
31
0
39
0
210
0
220
0
230
1
0
LINE
5
D8
100
AcDbEntity
8
SK1
62
256
6
ByLayer
370
18
48
1
60
0
100
AcDbLine
10
-1.5
20
-2.308307
30
0
11
-1.5
21
-10.786085
31
0
39
0
210
0
220
0
230
1
0
LINE
5
D9
100
AcDbEntity
8
SK1
62
256
6
ByLayer
370
18
48
1
60
0
100
AcDbLine
10
-1.5
20
10.786085
30
0
11
-1.5
21
2.308306
31
0
39
0
210
0
220
0
230
1
0
LINE
5
DA
100
AcDbEntity
8
SK1
62
256
6
ByLayer
370
18
48
1
60
0
100
AcDbLine
10
-0.4
20
10.77209
30
0
11
-0.4
21
4.489349
31
0
39
0
210
0
220
0
230
1
0
LINE
5
DB
100
AcDbEntity
8
SK1
62
256
6
ByLayer
370
18
48
1
60
0
100
AcDbLine
10
-0.4
20
-4.489349
30
0
11
-0.4
21
-10.77209
31
0
39
0
210
0
220
0
230
1
0
MTEXT
5
143
100
AcDbEntity
8
SK6
62
256
6
ByLayer
370
13
48
1
60
0
100
AcDbMText
10
2.553297
20
52.432225
30
0
210
0
220
0
230
1
1
\W0.6974;C3-570-3C 20 101
40
3.175
41
0
44
1.084337
50
0
71
7
72
5
7
iso_b_vert
0
DIMENSION
5
151
100
AcDbEntity
8
2
62
256
6
ByLayer
370
13
48
1
60
0
100
AcDbDimension
2
DimnDraft3D1
10
101
20
38.093086
30
0
11
48.210658
21
38.093086
31
0
70
32
71
5
72
1
41
1
210
0
220
0
230
1
3
Standard
100
AcDbAlignedDimension
13
0
23
1.5875
33
0
14
101
24
1.5875
34
0
50
0
100
AcDbRotatedDimension
1001
ACAD
1000
DSTYLE
1002
{
1070
   279
1070
     0
1070
   173
1070
     1
1070
   340
1005
144
1070
   271
1070
     1
1070
   272
1070
     2
1070
    77
1070
     1
1070
    73
1070
     0
1070
   171
1070
     3
1070
   274
1070
     4
1070
   177
1070
     7
1070
   176
1070
     7
1070
   178
1070
     7
1070
    78
1070
     8
1070
    48
1040
-0.005
1070
    41
1041
3.175
1070
   147
1041
1.5875
1070
    42
1041
1.5875
1070
    44
1041
3.175
1070
   140
1041
3.175
1070
   343
1005
0
1070
   344
1005
0
1002
}
0
DIMENSION
5
15D
100
AcDbEntity
8
SK2
62
256
6
ByLayer
370
13
48
1
60
0
100
AcDbDimension
2
DimnDraft3D2
10
-32.051132
20
-16
30
0
11
-32.051132
21
-6.659145
31
0
70
32
71
5
72
1
41
1
210
0
220
0
230
1
3
Standard
100
AcDbAlignedDimension
13
-1.2875
23
16
33
0
14
-1.2875
24
-16
34
0
50
90
100
AcDbRotatedDimension
1001
ACAD
1000
DSTYLE
1002
{
1070
    74
1070
     0
1070
   279
1070
     0
1070
   173
1070
     1
1070
   340
1005
144
1070
   271
1070
     1
1070
   272
1070
     2
1070
    77
1070
     1
1070
    73
1070
     0
1070
   171
1070
     3
1070
   274
1070
     4
1070
   177
1070
     7
1070
   176
1070
     7
1070
   178
1070
     7
1070
    78
1070
     8
1070
    48
1040
-0.005
1070
    41
1041
3.175
1070
   147
1041
1.5875
1070
    42
1041
1.5875
1070
    44
1041
3.175
1070
   140
1041
3.175
1070
   343
1005
0
1070
   344
1005
0
1002
}
0
DIMENSION
5
165
100
AcDbEntity
8
SK2
62
256
6
ByLayer
370
13
48
1
60
0
100
AcDbDimension
2
DimnDraft3D3
10
18.909676
20
13
30
0
11
31.121561
21
27.156604
31
0
70
36
71
5
72
1
41
1
210
0
220
0
230
1
3
Standard
100
AcDbRadialDimension
15
0
25
0
35
0
40
0
1001
ACAD
1000
DSTYLE
1002
{
1070
   279
1070
     0
1070
   173
1070
     1
1070
   340
1005
144
1070
    75
1070
     1
1070
    76
1070
     1
1070
   271
1070
     1
1070
   272
1070
     2
1070
    77
1070
     1
1070
    73
1070
     0
1070
   171
1070
     3
1070
   274
1070
     4
1070
   177
1070
     7
1070
   176
1070
     7
1070
   178
1070
     7
1070
    78
1070
     8
1070
    48
1040
-0.005
1070
    41
1041
3.175
1070
   147
1041
1.5875
1070
    42
1041
1.5875
1070
    44
1041
3.175
1070
   140
1041
3.175
1070
   343
1005
0
1070
   344
1005
0
1002
}
0
DIMENSION
5
16F
100
AcDbEntity
8
SK2
62
256
6
ByLayer
370
13
48
1
60
0
100
AcDbDimension
2
DimnDraft3D4
10
15
20
-24.822372
30
0
11
6.00023
21
-24.822372
31
0
70
32
71
5
72
1
41
1
210
0
220
0
230
1
3
Standard
100
AcDbAlignedDimension
13
0
23
-17.2875
33
0
14
15
24
-17.5875
34
0
50
0
100
AcDbRotatedDimension
1001
ACAD
1000
DSTYLE
1002
{
1070
   279
1070
     0
1070
   173
1070
     1
1070
   340
1005
144
1070
   271
1070
     1
1070
   272
1070
     2
1070
    77
1070
     1
1070
    73
1070
     0
1070
   171
1070
     3
1070
   274
1070
     4
1070
   177
1070
     7
1070
   176
1070
     7
1070
   178
1070
     7
1070
    78
1070
     8
1070
    48
1040
-0.005
1070
    41
1041
3.175
1070
   147
1041
1.5875
1070
    42
1041
1.5875
1070
    44
1041
3.175
1070
   140
1041
3.175
1070
   343
1005
0
1070
   344
1005
0
1002
}
0
DIMENSION
5
184
100
AcDbEntity
8
SK2
62
256
6
ByLayer
370
13
48
1
60
0
100
AcDbDimension
2
DimnDraft3D6
10
133.029558
20
-10
30
0
11
133.029558
21
20.97576
31
0
70
32
71
5
72
1
41
1
210
0
220
0
230
1
3
Standard
100
AcDbAlignedDimension
13
100.3875
23
10
33
0
14
100.3875
24
-10
34
0
50
90
100
AcDbRotatedDimension
1001
ACAD
1000
DSTYLE
1002
{
1070
    74
1070
     0
1070
   279
1070
     0
1070
   173
1070
     1
1070
   340
1005
144
1070
   271
1070
     1
1070
   272
1070
     2
1070
    77
1070
     1
1070
    73
1070
     0
1070
   171
1070
     3
1070
   274
1070
     4
1070
   177
1070
     7
1070
   176
1070
     7
1070
   178
1070
     7
1070
    78
1070
     8
1070
    48
1040
-0.005
1070
    41
1041
3.175
1070
   147
1041
1.5875
1070
    42
1041
1.5875
1070
    44
1041
3.175
1070
   140
1041
3.175
1070
   343
1005
0
1070
   344
1005
0
1002
}
0
ENDSEC
0
SECTION
2
OBJECTS
0
DICTIONARY
5
1ef
330
0
100
AcDbDictionary
280
0
281
1
3
ACAD_GROUP
350
1f0
3
ACAD_MLINESTYLE
350
1f1
0
DICTIONARY
5
1f0
330
0
100
AcDbDictionary
280
0
281
1
0
DICTIONARY
5
1f1
330
0
100
AcDbDictionary
280
0
281
1
3
Standard
350
18
0
MLINESTYLE
5
18
330
1f1
100
AcDbMlineStyle
2
Standard
70
0
3

62
256
51
90
52
90
71
2
49
-0.5
62
256
6
ByLayer
49
0.5
62
256
6
ByLayer
0
RASTERVARIABLES
5
1dd
330

100
AcDbRasterVariables
90
0
70
1
71
1
72
1
0
ENDSEC
0
EOF
