0
SECTION
2
HEADER
9
$ACADVER
1
AC1015
9
$DWGCODEPAGE
3
ANSI_1252
9
$HANDSEED
5
262
9
$ANGBASE
50
0
9
$ANGDIR
70
0
9
$ATTMODE
70
1
9
$AUNITS
70
0
9
$AUPREC
70
0
9
$CECOLOR
62
256
9
$CELTSCALE
40
1
9
$CELTYPE
6
ByLayer
9
$CELWEIGHT
370
18
9
$CLAYER
8
0
9
$CMLJUST
70
0
9
$CMLSCALE
40
1
9
$CMLSTYLE
2
Standard
9
$DIMSTYLE
2
Standard
9
$TEXTSIZE
40
0.2
9
$TEXTSTYLE
7
Standard
9
$LUNITS
70
2
9
$LUPREC
70
4
9
$EXTNAMES
290
1
9
$INSUNITS
70
4
9
$LTSCALE
40
1
9
$LWDISPLAY
290
1
9
$PDMODE
70
0
9
$PDSIZE
40
0
9
$PLINEGEN
70
0
0
ENDSEC
0
SECTION
2
CLASSES
0
CLASS
1
RASTERVARIABLES
2
AcDbRasterVariables
3
ISM
90
0
280
0
281
0
0
ENDSEC
0
SECTION
2
TABLES
0
TABLE
2
VPORT
5
258
100
AcDbSymbolTable
0
VPORT
5
1
100
AcDbSymbolTableRecord
100
AcDbViewportTableRecord
2
*Active
70
0
10
0
20
0
11
1
21
1
12
-1
22
1
13
0
23
0
14
0.5
24
0.5
15
10
25
10
16
0
26
0
36
1
17
0
27
0
37
0
0
ENDTAB
0
TABLE
2
LTYPE
5
259
100
AcDbSymbolTable
0
LTYPE
5
14
100
AcDbSymbolTableRecord
100
AcDbLinetypeTableRecord
70
0
2
ByBlock
3

72
65
73
0
40
0
0
LTYPE
5
15
100
AcDbSymbolTableRecord
100
AcDbLinetypeTableRecord
70
0
2
ByLayer
3

72
65
73
0
40
0
0
LTYPE
5
16
100
AcDbSymbolTableRecord
100
AcDbLinetypeTableRecord
70
0
2
CONTINUOUS
3
Solid line
72
65
73
0
40
0
0
LTYPE
5
6A
100
AcDbSymbolTableRecord
100
AcDbLinetypeTableRecord
70
0
2
CENTER
3
____ _ ____ _ ____ _ ____
72
65
73
4
40
47.5
49
22
74
0
49
-8.5
74
0
49
8.5
74
0
49
-8.5
74
0
0
LTYPE
5
6B
100
AcDbSymbolTableRecord
100
AcDbLinetypeTableRecord
70
0
2
DASHED
3
__ __ __ __ __ __ __ __ __
72
65
73
2
40
25.72
49
12.86
74
0
49
-12.86
74
0
0
ENDTAB
0
TABLE
2
LAYER
5
25a
100
AcDbSymbolTable
0
LAYER
5
10
100
AcDbSymbolTableRecord
100
AcDbLayerTableRecord
2
0
70
0
62
7
6
CONTINUOUS
290
1
370
-3
390
0
0
LAYER
5
6D
100
AcDbSymbolTableRecord
100
AcDbLayerTableRecord
2
1
70
0
62
4
6
CONTINUOUS
290
1
370
-3
390
0
0
LAYER
5
70
100
AcDbSymbolTableRecord
100
AcDbLayerTableRecord
2
80
70
0
62
-6
6
CONTINUOUS
290
1
370
-3
390
0
0
LAYER
5
72
100
AcDbSymbolTableRecord
100
AcDbLayerTableRecord
2
81
70
0
62
-3
6
CONTINUOUS
290
1
370
-3
390
0
0
LAYER
5
1AF
100
AcDbSymbolTableRecord
100
AcDbLayerTableRecord
2
4
70
0
62
-2
6
CENTER
290
1
370
-3
390
0
0
LAYER
5
1C3
100
AcDbSymbolTableRecord
100
AcDbLayerTableRecord
2
2
70
0
62
7
6
CONTINUOUS
290
1
370
-3
390
0
0
LAYER
5
244
100
AcDbSymbolTableRecord
100
AcDbLayerTableRecord
2
SK1
70
0
62
4
6
CONTINUOUS
290
1
370
-3
390
0
0
LAYER
5
245
100
AcDbSymbolTableRecord
100
AcDbLayerTableRecord
2
SK4
70
0
62
2
6
CENTER
290
1
370
-3
390
0
0
LAYER
5
246
100
AcDbSymbolTableRecord
100
AcDbLayerTableRecord
2
SK6
70
0
62
5
6
CONTINUOUS
290
1
370
-3
390
0
0
LAYER
5
247
100
AcDbSymbolTableRecord
100
AcDbLayerTableRecord
2
SK2
70
0
62
7
6
CONTINUOUS
290
1
370
-3
390
0
0
ENDTAB
0
TABLE
2
STYLE
5
25b
100
AcDbSymbolTable
0
STYLE
5
11
100
AcDbSymbolTableRecord
100
AcDbTextStyleTableRecord
2
Standard
3
txt
70
0
71
0
40
0
41
1
42
0
50
0
0
STYLE
5
1B2
100
AcDbSymbolTableRecord
100
AcDbTextStyleTableRecord
2
iso_b_vert
3
simplex.shx
70
0
71
0
40
0
41
1
42
0
50
0
0
STYLE
5
1B3
100
AcDbSymbolTableRecord
100
AcDbTextStyleTableRecord
2
DWGDirectTextStyle
3
simplex
70
0
71
0
40
0
41
1
42
0
50
0
0
ENDTAB
0
TABLE
2
DIMSTYLE
5
25c
100
AcDbSymbolTable
100
AcDbDimStyleTable
0
DIMSTYLE
105
27
100
AcDbSymbolTableRecord
100
AcDbDimStyleTableRecord
2
Standard
70
0
3
<>
41
0.18
42
0.0625
44
0.18
140
0.18
147
0.09
73
0
74
0
77
1
271
2
275
0
278
52
280
0
340
11
0
ENDTAB
0
TABLE
2
VIEW
5
25d
100
AcDbSymbolTable
0
ENDTAB
0
TABLE
2
UCS
5
25e
100
AcDbSymbolTable
0
ENDTAB
0
TABLE
2
APPID
5
25f
100
AcDbSymbolTable
0
APPID
5
12
100
AcDbSymbolTableRecord
100
AcDbRegAppTableRecord
2
ACAD
70
0
0
ENDTAB
0
TABLE
2
BLOCK_RECORD
5
260
100
AcDbSymbolTable
0
BLOCK_RECORD
5
1F
100
AcDbSymbolTableRecord
100
AcDbBlockTableRecord
2
*Model_Space
340
0
70
0
0
BLOCK_RECORD
5
1B
100
AcDbSymbolTableRecord
100
AcDbBlockTableRecord
2
*Paper_Space
340
0
70
0
0
BLOCK_RECORD
5
23
100
AcDbSymbolTableRecord
100
AcDbBlockTableRecord
2
*Paper_Space0
340
0
70
0
0
BLOCK_RECORD
5
1B5
100
AcDbSymbolTableRecord
100
AcDbBlockTableRecord
2
DimnDraft3D1
340
0
70
0
0
BLOCK_RECORD
5
1C1
100
AcDbSymbolTableRecord
100
AcDbBlockTableRecord
2
DimnDraft3D2
340
0
70
0
0
BLOCK_RECORD
5
1CC
100
AcDbSymbolTableRecord
100
AcDbBlockTableRecord
2
DimnDraft3D3
340
0
70
0
0
BLOCK_RECORD
5
1D6
100
AcDbSymbolTableRecord
100
AcDbBlockTableRecord
2
DimnDraft3D4
340
0
70
0
0
BLOCK_RECORD
5
1E1
100
AcDbSymbolTableRecord
100
AcDbBlockTableRecord
2
DimnDraft3D5
340
0
70
0
0
ENDTAB
0
ENDSEC
0
SECTION
2
BLOCKS
0
BLOCK
5
20
100
AcDbEntity
8
0
100
AcDbBlockBegin
2
*Model_Space
70
0
10
0
20
0
30
0
3
*Model_Space
0
ENDBLK
5
21
100
AcDbEntity
8
0
100
AcDbBlockEnd
0
BLOCK
5
1C
100
AcDbEntity
8
0
100
AcDbBlockBegin
2
*Paper_Space
70
0
10
0
20
0
30
0
3
*Paper_Space
0
ENDBLK
5
1D
100
AcDbEntity
8
0
100
AcDbBlockEnd
0
BLOCK
5
24
100
AcDbEntity
8
0
100
AcDbBlockBegin
2
*Paper_Space0
70
0
10
0
20
0
30
0
3
*Paper_Space0
0
ENDBLK
5
25
100
AcDbEntity
8
0
100
AcDbBlockEnd
0
BLOCK
5
1BE
100
AcDbEntity
8
0
100
AcDbBlockBegin
2
DimnDraft3D1
70
0
10
0
20
0
30
0
3
DimnDraft3D1
0
MTEXT
5
1B6
100
AcDbEntity
8
SK2
62
256
6
ByLayer
370
13
48
1
60
0
100
AcDbMText
10
-89.842332
20
1.482895
30
0
210
0
220
0
230
1
1
\W0.6044;100
40
3.5
41
0
44
1.084337
50
90
71
7
72
5
7
iso_b_vert
0
MTEXT
5
1B8
100
AcDbEntity
8
SK2
62
256
6
ByLayer
370
13
48
1
60
0
100
AcDbMText
10
-89.842332
20
-3.739762
30
0
210
0
220
0
230
1
1
%%c
40
3.5
41
0
44
1.084337
50
90
71
7
72
5
7
iso_b_vert
0
LINE
5
1B9
100
AcDbEntity
8
SK2
62
256
6
ByLayer
370
13
48
1
60
0
100
AcDbLine
10
-1.2875
20
-50
30
0
11
-90.092332
21
-50
31
0
39
0
210
0
220
0
230
1
0
LINE
5
1BA
100
AcDbEntity
8
SK2
62
256
6
ByLayer
370
13
48
1
60
0
100
AcDbLine
10
-1.2875
20
50
30
0
11
-90.092332
21
50
31
0
39
0
210
0
220
0
230
1
0
LINE
5
1BB
100
AcDbEntity
8
SK2
62
256
6
ByLayer
370
13
48
1
60
0
100
AcDbLine
10
-88.092332
20
-50
30
0
11
-88.092332
21
50
31
0
39
0
210
0
220
0
230
1
0
SOLID
5
1BC
100
AcDbEntity
8
SK2
62
256
6
ByLayer
370
13
48
1
60
0
100
AcDbTrace
10
-88.092332
20
-50
30
0
11
-88.553115
21
-46.500002
31
0
12
-87.631548
22
-46.499998
32
0
13
-88.092332
23
-50
33
0
39
0
210
0
220
0
230
1
0
SOLID
5
1BD
100
AcDbEntity
8
SK2
62
256
6
ByLayer
370
13
48
1
60
0
100
AcDbTrace
10
-88.092332
20
50
30
0
11
-87.631548
21
46.500002
31
0
12
-88.553115
22
46.499998
32
0
13
-88.092332
23
50
33
0
39
0
210
0
220
0
230
1
0
ENDBLK
5
1BF
100
AcDbEntity
8
0
100
AcDbBlockEnd
0
BLOCK
5
1C9
100
AcDbEntity
8
0
100
AcDbBlockBegin
2
DimnDraft3D2
70
0
10
0
20
0
30
0
3
DimnDraft3D2
0
MTEXT
5
1C2
100
AcDbEntity
8
2
62
256
6
ByLayer
370
13
48
1
60
0
100
AcDbMText
10
44.830263
20
64.753229
30
0
210
0
220
0
230
1
1
\W0.6563;92
40
3.5
41
0
44
1.084337
50
0
71
7
72
5
7
iso_b_vert
0
LINE
5
1C4
100
AcDbEntity
8
2
62
256
6
ByLayer
370
13
48
1
60
0
100
AcDbLine
10
0
20
51.2875
30
0
11
0
21
65.878229
31
0
39
0
210
0
220
0
230
1
0
LINE
5
1C5
100
AcDbEntity
8
2
62
256
6
ByLayer
370
13
48
1
60
0
100
AcDbLine
10
92
20
-66.4125
30
0
11
92
21
65.878229
31
0
39
0
210
0
220
0
230
1
0
LINE
5
1C6
100
AcDbEntity
8
2
62
256
6
ByLayer
370
13
48
1
60
0
100
AcDbLine
10
0
20
63.878229
30
0
11
92
21
63.878229
31
0
39
0
210
0
220
0
230
1
0
SOLID
5
1C7
100
AcDbEntity
8
2
62
256
6
ByLayer
370
13
48
1
60
0
100
AcDbTrace
10
0
20
63.878229
30
0
11
3.499998
21
64.339013
31
0
12
3.500002
22
63.417445
32
0
13
0
23
63.878229
33
0
39
0
210
0
220
0
230
1
0
SOLID
5
1C8
100
AcDbEntity
8
2
62
256
6
ByLayer
370
13
48
1
60
0
100
AcDbTrace
10
92
20
63.878229
30
0
11
88.500002
21
63.417445
31
0
12
88.499998
22
64.339013
32
0
13
92
23
63.878229
33
0
39
0
210
0
220
0
230
1
0
ENDBLK
5
1CA
100
AcDbEntity
8
0
100
AcDbBlockEnd
0
BLOCK
5
1D3
100
AcDbEntity
8
0
100
AcDbBlockBegin
2
DimnDraft3D3
70
0
10
0
20
0
30
0
3
DimnDraft3D3
0
MTEXT
5
1CD
100
AcDbEntity
8
SK2
62
256
6
ByLayer
370
13
48
1
60
0
100
AcDbMText
10
42.065977
20
78.790668
30
0
210
0
220
0
230
1
1
\W0.6827;104,5
40
3.5
41
0
44
1.084337
50
0
71
7
72
5
7
iso_b_vert
0
LINE
5
1CE
100
AcDbEntity
8
SK2
62
256
6
ByLayer
370
13
48
1
60
0
100
AcDbLine
10
0
20
51.2875
30
0
11
0
21
79.915668
31
0
39
0
210
0
220
0
230
1
0
LINE
5
1CF
100
AcDbEntity
8
SK2
62
256
6
ByLayer
370
13
48
1
60
0
100
AcDbLine
10
104.137726
20
-54.274774
30
0
11
104.137726
21
79.915668
31
0
39
0
210
0
220
0
230
1
0
LINE
5
1D0
100
AcDbEntity
8
SK2
62
256
6
ByLayer
370
13
48
1
60
0
100
AcDbLine
10
0
20
77.915668
30
0
11
104.137726
21
77.915668
31
0
39
0
210
0
220
0
230
1
0
SOLID
5
1D1
100
AcDbEntity
8
SK2
62
256
6
ByLayer
370
13
48
1
60
0
100
AcDbTrace
10
0
20
77.915668
30
0
11
3.499998
21
78.376452
31
0
12
3.500002
22
77.454885
32
0
13
0
23
77.915668
33
0
39
0
210
0
220
0
230
1
0
SOLID
5
1D2
100
AcDbEntity
8
SK2
62
256
6
ByLayer
370
13
48
1
60
0
100
AcDbTrace
10
104.137726
20
77.915668
30
0
11
100.637728
21
77.454885
31
0
12
100.637724
22
78.376452
32
0
13
104.137726
23
77.915668
33
0
39
0
210
0
220
0
230
1
0
ENDBLK
5
1D4
100
AcDbEntity
8
0
100
AcDbBlockEnd
0
BLOCK
5
1DE
100
AcDbEntity
8
0
100
AcDbBlockBegin
2
DimnDraft3D4
70
0
10
0
20
0
30
0
3
DimnDraft3D4
0
MTEXT
5
1D7
100
AcDbEntity
8
SK2
62
256
6
ByLayer
370
13
48
1
60
0
100
AcDbMText
10
96.496604
20
-80.722423
30
0
210
0
220
0
230
1
1
\W0.8896;45%%d
40
3.5
41
0
44
1.084337
50
29.9960277595716
71
7
72
5
7
iso_b_vert
0
LINE
5
1D8
100
AcDbEntity
8
SK2
62
256
6
ByLayer
370
13
48
1
60
0
100
AcDbLine
10
92
20
-69.5875
30
0
11
92
21
-84.141414
31
0
39
0
210
0
220
0
230
1
0
LINE
5
1D9
100
AcDbEntity
8
SK2
62
256
6
ByLayer
370
13
48
1
60
0
100
AcDbLine
10
91.228608
20
-68.771392
30
0
11
80.586297
21
-79.413703
31
0
39
0
210
0
220
0
230
1
0
ARC
5
1DA
100
AcDbEntity
8
SK2
62
256
6
ByLayer
370
13
48
1
60
0
100
AcDbCircle
39
0
10
92
20
-68
30
0
40
14.1414140231823
210
0
220
0
230
1
100
AcDbArc
50
270
51
313.289235
0
ARC
5
1DB
100
AcDbEntity
8
SK2
62
256
6
ByLayer
370
13
48
1
60
0
100
AcDbCircle
39
0
10
92
20
-68
30
0
40
14.1414140231823
210
0
220
0
230
1
100
AcDbArc
50
225
51
270
0
SOLID
5
1DC
100
AcDbEntity
8
SK2
62
256
6
ByLayer
370
13
48
1
60
0
100
AcDbTrace
10
92
20
-82.141414
30
0
11
88.478283
21
-82.385994
31
0
12
88.534977
22
-81.466172
32
0
13
92
23
-82.141414
33
0
39
0
210
0
220
0
230
1
0
SOLID
5
1DD
100
AcDbEntity
8
SK2
62
256
6
ByLayer
370
13
48
1
60
0
100
AcDbTrace
10
82.00051
20
-77.99949
30
0
11
84.928117
21
-79.97216
31
0
12
84.317799
22
-80.662666
32
0
13
82.00051
23
-77.99949
33
0
39
0
210
0
220
0
230
1
0
ENDBLK
5
1DF
100
AcDbEntity
8
0
100
AcDbBlockEnd
0
BLOCK
5
1E8
100
AcDbEntity
8
0
100
AcDbBlockBegin
2
DimnDraft3D5
70
0
10
0
20
0
30
0
3
DimnDraft3D5
0
MTEXT
5
1E2
100
AcDbEntity
8
2
62
256
6
ByLayer
370
13
48
1
60
0
100
AcDbMText
10
125.131696
20
-35.169526
30
0
210
0
220
0
230
1
1
\W0.6563;68
40
3.5
41
0
44
1.084337
50
90
71
7
72
5
7
iso_b_vert
0
LINE
5
1E3
100
AcDbEntity
8
2
62
256
6
ByLayer
370
13
48
1
60
0
100
AcDbLine
10
108.773638
20
4E-06
30
0
11
128.006696
21
4E-06
31
0
39
0
210
0
220
0
230
1
0
LINE
5
1E4
100
AcDbEntity
8
2
62
256
6
ByLayer
370
13
48
1
60
0
100
AcDbLine
10
93.061927
20
-67.999583
30
0
11
128.006696
21
-67.999583
31
0
39
0
210
0
220
0
230
1
0
LINE
5
1E5
100
AcDbEntity
8
2
62
256
6
ByLayer
370
13
48
1
60
0
100
AcDbLine
10
126.006696
20
4E-06
30
0
11
126.006696
21
-67.999583
31
0
39
0
210
0
220
0
230
1
0
SOLID
5
1E6
100
AcDbEntity
8
2
62
256
6
ByLayer
370
13
48
1
60
0
100
AcDbTrace
10
126.006696
20
4E-06
30
0
11
126.46748
21
-3.499994
31
0
12
125.545912
22
-3.499998
32
0
13
126.006696
23
4E-06
33
0
39
0
210
0
220
0
230
1
0
SOLID
5
1E7
100
AcDbEntity
8
2
62
256
6
ByLayer
370
13
48
1
60
0
100
AcDbTrace
10
126.006696
20
-67.999583
30
0
11
125.545912
21
-64.499585
31
0
12
126.46748
22
-64.499581
32
0
13
126.006696
23
-67.999583
33
0
39
0
210
0
220
0
230
1
0
ENDBLK
5
1E9
100
AcDbEntity
8
0
100
AcDbBlockEnd
0
ENDSEC
0
SECTION
2
ENTITIES
0
ARC
5
10D
100
AcDbEntity
8
1
62
256
6
ByLayer
370
18
48
1
60
0
100
AcDbCircle
39
0
10
-36.186138
20
50.8
30
0
40
0.8
210
0
220
0
230
-1
100
AcDbArc
50
234.340912
51
270
0
ARC
5
10E
100
AcDbEntity
8
1
62
256
6
ByLayer
370
18
48
1
60
0
100
AcDbCircle
39
0
10
-36.186138
20
-50.8
30
0
40
0.8
210
0
220
0
230
-1
100
AcDbArc
50
90
51
165
0
ARC
5
10F
100
AcDbEntity
8
SK1
62
256
6
ByLayer
370
18
48
1
60
0
100
AcDbCircle
39
0
10
0.6
20
-38.9
30
0
40
1
210
0
220
0
230
-1
100
AcDbArc
50
113.578178
51
126.870857
0
ARC
5
110
100
AcDbEntity
8
SK1
62
256
6
ByLayer
370
18
48
1
60
0
100
AcDbCircle
39
0
10
0.6
20
38.9
30
0
40
1
210
0
220
0
230
-1
100
AcDbArc
50
233.129143
51
246.421822
0
ELLIPSE
5
111
100
AcDbEntity
8
1
62
256
6
ByLayer
370
18
48
1
60
0
100
AcDbEllipse
10
74.213129
20
-47.736987
30
0
11
-3.18198051533947
21
-3.18198051533946
31
0
210
0
220
0
230
1
40
0.990268
41
0.00547868011971622
42
0.790287891905188
0
ELLIPSE
5
112
100
AcDbEntity
8
1
62
256
6
ByLayer
370
18
48
1
60
0
100
AcDbEllipse
10
74.213129
20
-47.736987
30
0
11
-3.18198051533947
21
-3.18198051533946
31
0
210
0
220
0
230
1
40
0.990268
41
0.790287891905188
42
3.13607586864627
0
ELLIPSE
5
113
100
AcDbEntity
8
1
62
256
6
ByLayer
370
18
48
1
60
0
100
AcDbEllipse
10
91.582443
20
-43.306991
30
0
11
0.841899011350233
21
0.841899011350233
31
0
210
0
220
0
230
1
40
0.990268
41
1.51373358209454
42
1.57079632679492
0
ELLIPSE
5
114
100
AcDbEntity
8
1
62
256
6
ByLayer
370
18
48
1
60
0
100
AcDbEllipse
10
79.795857
20
-55.093577
30
0
11
0.841899011350233
21
0.841899011350233
31
0
210
0
220
0
230
1
40
0.990268
41
1.57079632679491
42
1.66247421536925
0
ELLIPSE
5
115
100
AcDbEntity
8
1
62
256
6
ByLayer
370
18
48
1
60
0
100
AcDbEllipse
10
91.522903
20
-43.247452
30
0
11
-0.505917668814574
21
-1.09381589227926
31
0
210
0
220
0
230
1
40
0.893681
41
-1.97763998669884
42
-1.9451863630672
0
ELLIPSE
5
116
100
AcDbEntity
8
1
62
256
6
ByLayer
370
18
48
1
60
0
100
AcDbEllipse
10
103.30402
20
-55.028568
30
0
11
0.841899011350233
21
0.841899011350233
31
0
210
0
220
0
230
1
40
0.990268
41
-1.57079632679488
42
0
0
ELLIPSE
5
117
100
AcDbEntity
8
1
62
256
6
ByLayer
370
18
48
1
60
0
100
AcDbEllipse
10
91.007235
20
-42.731783
30
0
11
-0.841899011350235
21
-0.841899011350231
31
0
210
0
220
0
230
1
40
0.990268
41
3.14159265358979
42
-1.88736079975917
0
ELLIPSE
5
118
100
AcDbEntity
8
1
62
256
6
ByLayer
370
18
48
1
60
0
100
AcDbEllipse
10
91.574787
20
-55.085921
30
0
11
-2.8019106204517
21
-2.80191062045169
31
0
210
0
220
0
230
1
40
0.990268
41
0
42
6.28318530717959
0
ELLIPSE
5
119
100
AcDbEntity
8
1
62
256
6
ByLayer
370
18
48
1
60
0
100
AcDbEllipse
10
91.517434
20
-66.815154
30
0
11
0.841899011350233
21
0.841899011350233
31
0
210
0
220
0
230
1
40
0.990268
41
3.14159265358979
42
-1.57079632679488
0
ELLIPSE
5
11A
100
AcDbEntity
8
1
62
256
6
ByLayer
370
18
48
1
60
0
100
AcDbEllipse
10
90.949882
20
-54.461016
30
0
11
-2.8019106204517
21
-2.80191062045169
31
0
210
0
220
0
230
1
40
0.990268
41
0.112764766146152
42
0.790287858093878
0
ELLIPSE
5
11B
100
AcDbEntity
8
1
62
256
6
ByLayer
370
18
48
1
60
0
100
AcDbEllipse
10
90.949882
20
-54.461016
30
0
11
-2.8019106204517
21
-2.80191062045169
31
0
210
0
220
0
230
1
40
0.990268
41
2.43233995071084
42
3.0287516997323
0
ELLIPSE
5
11C
100
AcDbEntity
8
1
62
256
6
ByLayer
370
18
48
1
60
0
100
AcDbEllipse
10
90.949882
20
-54.461016
30
0
11
-2.8019106204517
21
-2.80191062045169
31
0
210
0
220
0
230
1
40
0.990268
41
0.795177616560826
42
1.03325143747493
0
ELLIPSE
5
11D
100
AcDbEntity
8
1
62
256
6
ByLayer
370
18
48
1
60
0
100
AcDbEllipse
10
90.949882
20
-54.461016
30
0
11
-2.8019106204517
21
-2.80191062045169
31
0
210
0
220
0
230
1
40
0.990268
41
0.790287858093878
42
0.795177616560826
0
ELLIPSE
5
11E
100
AcDbEntity
8
1
62
256
6
ByLayer
370
18
48
1
60
0
100
AcDbEllipse
10
79.845554
20
-55.143274
30
0
11
0.841899011350233
21
0.841899011350233
31
0
210
0
220
0
230
1
40
0.990268
41
1.5707963267949
42
3.14159265358979
0
ELLIPSE
5
11F
100
AcDbEntity
8
1
62
256
6
ByLayer
370
18
48
1
60
0
100
AcDbEllipse
10
91.63214
20
-43.356688
30
0
11
0.841899011350233
21
0.841899011350233
31
0
210
0
220
0
230
1
40
0.990268
41
0
42
1.57079632679491
0
ELLIPSE
5
120
100
AcDbEntity
8
1
62
256
6
ByLayer
370
18
48
1
60
0
100
AcDbEllipse
10
79.220649
20
-54.518369
30
0
11
-0.841899011350235
21
-0.841899011350231
31
0
210
0
220
0
230
1
40
0.990268
41
-0.310845546498271
42
0
0
ELLIPSE
5
121
100
AcDbEntity
8
1
62
256
6
ByLayer
370
18
48
1
60
0
100
AcDbEllipse
10
41.833414
20
0
30
0
11
3.98089270031494E-15
21
65.0150587229821
31
0
210
0
220
0
230
1
40
0.092562
41
2.19743135332627
42
2.35676606701904
0
ELLIPSE
5
122
100
AcDbEntity
8
1
62
256
6
ByLayer
370
18
48
1
60
0
100
AcDbEllipse
10
74.248139
20
-47.771996
30
0
11
3.18198051533946
21
3.18198051533947
31
0
210
0
220
0
230
1
40
0.990268
41
0
42
6.28318530717959
0
ELLIPSE
5
123
100
AcDbEntity
8
1
62
256
6
ByLayer
370
18
48
1
60
0
100
AcDbEllipse
10
79.688649
20
-56.917655
30
0
11
1.70523466737815
21
1.70523466737815
31
0
210
0
220
0
230
1
40
0.990268
41
1.57079632679489
42
2.96937434901709
0
ELLIPSE
5
124
100
AcDbEntity
8
1
62
256
6
ByLayer
370
18
48
1
60
0
100
AcDbEllipse
10
88.177452
20
-49.883128
30
0
11
-2.54558441227158
21
-2.54558441227156
31
0
210
0
220
0
230
1
40
0.990268
41
-1.86048332079202
42
-1.57079632679489
0
ELLIPSE
5
125
100
AcDbEntity
8
1
62
256
6
ByLayer
370
18
48
1
60
0
100
AcDbEllipse
10
65.325227
20
-39.443507
30
0
11
-0.165314246564272
21
1.99315609019537
31
0
210
0
220
0
230
1
40
0.715361
41
2.69442133776067
42
0.447171315829126
0
ELLIPSE
5
126
100
AcDbEntity
8
1
62
256
6
ByLayer
370
18
48
1
60
0
100
AcDbEllipse
10
65.913487
20
-39.394716
30
0
11
3.13450338427627
21
0.259978667939651
31
-7.46403695517628E-15
210
-2.38164767092384E-15
220
4.79166040069055E-18
230
-1
40
0.715361
41
-1.96532207740348
42
-0.483011272687353
0
ELLIPSE
5
127
100
AcDbEntity
8
1
62
256
6
ByLayer
370
18
48
1
60
0
100
AcDbEllipse
10
79.176128
20
-56.687976
30
0
11
-1.89726938826313
21
-1.89726938826312
31
0
210
0
220
0
230
1
40
0.990268
41
0.362412324360196
42
1.57079632679489
0
ELLIPSE
5
128
100
AcDbEntity
8
1
62
256
6
ByLayer
370
18
48
1
60
0
100
AcDbEllipse
10
58.715773
20
-64.444256
30
0
11
-5.30078688520683
21
-1.46685322974703
31
0
210
0
220
0
230
1
40
0.24131
41
1.2726797495805
42
2.40820944707703
0
ELLIPSE
5
129
100
AcDbEntity
8
1
62
256
6
ByLayer
370
18
48
1
60
0
100
AcDbEllipse
10
41.565325
20
-61.332903
30
0
11
-3.99999947668144
21
1.32183123153255E-08
31
0
210
0
220
0
230
1
40
0.491228
41
1.53012329997567
42
1.57079633352245
0
ELLIPSE
5
12A
100
AcDbEntity
8
1
62
256
6
ByLayer
370
18
48
1
60
0
100
AcDbEllipse
10
70.605104
20
-30.34886
30
0
11
0.0137807353039391
21
-1.99995252227009
31
0
210
0
220
0
230
1
40
0.590925
41
-2.47877003807229
42
-2.01447646118588
0
ELLIPSE
5
12B
100
AcDbEntity
8
1
62
256
6
ByLayer
370
18
48
1
60
0
100
AcDbEllipse
10
70.605104
20
-30.34886
30
0
11
0.0137807353039391
21
-1.99995252227009
31
0
210
0
220
0
230
1
40
0.590925
41
-1.12711619240392
42
-3.05351013823833
0
ELLIPSE
5
12C
100
AcDbEntity
8
1
62
256
6
ByLayer
370
18
48
1
60
0
100
AcDbEllipse
10
85.671958
20
-52.388622
30
0
11
-2.54558441227158
21
-2.54558441227157
31
0
210
0
220
0
230
1
40
0.990268
41
-1.5707963267949
42
-1.28110933279771
0
ELLIPSE
5
12D
100
AcDbEntity
8
1
62
256
6
ByLayer
370
18
48
1
60
0
100
AcDbEllipse
10
39.868495
20
0
30
0
11
3.07070043229375E-15
21
50.1500000013742
31
0
210
0
220
0
230
1
40
0.087489
41
0.548564803851445
42
0.82269121592282
0
ELLIPSE
5
12E
100
AcDbEntity
8
1
62
256
6
ByLayer
370
18
48
1
60
0
100
AcDbEllipse
10
59.14277
20
-65.9873
30
0
11
-5.70174602971383
21
0.1631243805331
31
0
210
0
220
0
230
1
40
0.433375
41
-0.101796567369725
42
0.110562616711225
0
ELLIPSE
5
12F
100
AcDbEntity
8
1
62
256
6
ByLayer
370
18
48
1
60
0
100
AcDbEllipse
10
67.070403
20
-39.298761
30
0
11
-0.388435180545512
21
-2.25030440655643
31
0
210
0
220
0
230
1
40
0.732434
41
0.918720283691408
42
2.24146947968881
0
ELLIPSE
5
130
100
AcDbEntity
8
1
62
256
6
ByLayer
370
18
48
1
60
0
100
AcDbEllipse
10
72.206192
20
-49.262502
30
0
11
-1.91214860405832
21
-4.13408850547125
31
0
210
0
220
0
230
1
40
0.89368
41
-1.53905222038574
42
-0.84092051958963
0
ELLIPSE
5
131
100
AcDbEntity
8
1
62
256
6
ByLayer
370
18
48
1
60
0
100
AcDbEllipse
10
65.913487
20
-39.394716
30
0
11
2.7862252304678
21
0.23109214927969
31
-6.63469951571226E-15
210
-2.38164767092384E-15
220
4.7916604006906E-18
230
-1
40
0.715361
41
2.01796764262402
42
-2.01796764262402
0
ELLIPSE
5
132
100
AcDbEntity
8
1
62
256
6
ByLayer
370
18
48
1
60
0
100
AcDbEllipse
10
39.094011
20
0
30
0
11
-23.4185446994542
21
49.3543728818742
31
0
210
0
220
0
230
1
40
0.341999
41
0.154598522698912
42
1.09444724969935
0
ELLIPSE
5
133
100
AcDbEntity
8
1
62
256
6
ByLayer
370
18
48
1
60
0
100
AcDbEllipse
10
59.14277
20
-65.9873
30
0
11
-5.70174602979943
21
0.163124380549978
31
0
210
0
220
0
230
1
40
0.433375
41
-3.12031534617292
42
-1.11554035341977
0
ELLIPSE
5
134
100
AcDbEntity
8
1
62
256
6
ByLayer
370
18
48
1
60
0
100
AcDbEllipse
10
72.594463
20
-30.335152
30
0
11
3.80749884277692
21
0.026235689666675
31
-9.14147836453081E-15
210
-2.40093632062994E-15
220
3.1978518509899E-18
230
-1
40
0.590925
41
2.45733398870836
42
2.50281462001337
0
ELLIPSE
5
135
100
AcDbEntity
8
1
62
256
6
ByLayer
370
13
48
1
60
0
100
AcDbEllipse
10
69.023555
20
-48.651829
30
0
11
2.32083794170727
21
0.61131926873931
31
0
210
0
220
0
230
1
40
0.120527
41
1.64095142212138
42
1.92003786223601
0
ELLIPSE
5
136
100
AcDbEntity
8
1
62
256
6
ByLayer
370
18
48
1
60
0
100
AcDbEllipse
10
65.913487
20
-39.394716
30
0
11
3.13450338427627
21
0.259978667939651
31
-7.46403695517628E-15
210
-2.38164767092384E-15
220
4.79166040069055E-18
230
-1
40
0.715361
41
0.839737923310626
42
1.96532207740348
0
ELLIPSE
5
137
100
AcDbEntity
8
1
62
256
6
ByLayer
370
18
48
1
60
0
100
AcDbEllipse
10
-7.094011
20
0
30
0
11
-23.4185446994566
21
-49.3543728818773
31
0
210
0
220
0
230
1
40
0.341999
41
2.04714540389049
42
2.98699413089089
0
ELLIPSE
5
138
100
AcDbEntity
8
1
62
256
6
ByLayer
370
18
48
1
60
0
100
AcDbEllipse
10
39.868495
20
0
30
0
11
3.06151588455542E-15
21
49.9999999999914
31
0
210
0
220
0
230
1
40
0.087489
41
1.00059173333595
42
2.14100092025376
0
ELLIPSE
5
139
100
AcDbEntity
8
1
62
256
6
ByLayer
370
13
48
1
60
0
100
AcDbEllipse
10
69.155107
20
-47.227165
30
0
11
2.17195196572704
21
-1.02108993657485
31
0
210
0
220
0
230
1
40
0.0476
41
1.70210165571432
42
1.76751054932939
0
ELLIPSE
5
13A
100
AcDbEntity
8
1
62
256
6
ByLayer
370
18
48
1
60
0
100
AcDbEllipse
10
58.715773
20
-64.444256
30
0
11
-4.81889716836984
21
-1.33350293613367
31
0
210
0
220
0
230
1
40
0.24131
41
-1.35309273038933
42
-1.0189455979035
0
ELLIPSE
5
13B
100
AcDbEntity
8
1
62
256
6
ByLayer
370
18
48
1
60
0
100
AcDbEllipse
10
58.715773
20
-64.444256
30
0
11
-4.81889716836984
21
-1.33350293613367
31
0
210
0
220
0
230
1
40
0.24131
41
1.08086452855147
42
2.46673830045445
0
ELLIPSE
5
13C
100
AcDbEntity
8
1
62
256
6
ByLayer
370
18
48
1
60
0
100
AcDbEllipse
10
81.628108
20
-58.534864
30
0
11
-0.106066328162516
21
-0.1060677258312
31
0
210
0
220
0
230
1
40
0.127648
41
-1.2106244213357
42
0.0115839130814579
0
ELLIPSE
5
13D
100
AcDbEntity
8
1
62
256
6
ByLayer
370
13
48
1
60
0
100
AcDbEllipse
10
79.161195
20
-56.673043
30
0
11
1.79121055162357
21
1.79121055162357
31
0
210
0
220
0
230
1
40
0.990268
41
-2.86316885068022
42
-1.57079632679491
0
ELLIPSE
5
13E
100
AcDbEntity
8
1
62
256
6
ByLayer
370
18
48
1
60
0
100
AcDbEllipse
10
72.594463
20
-30.335152
30
0
11
3.3844434158017
21
0.0233206130370444
31
-8.12575854624959E-15
210
-2.40093632062994E-15
220
3.19785185098991E-18
230
-1
40
0.590925
41
2.69791251919883
42
-2.6979125191988
0
ELLIPSE
5
13F
100
AcDbEntity
8
1
62
256
6
ByLayer
370
18
48
1
60
0
100
AcDbEllipse
10
70.605104
20
-30.34886
30
0
11
0.0155033272169314
21
-2.24994658755385
31
0
210
0
220
0
230
1
40
0.590925
41
0.0971857124839616
42
2.90510898906774
0
ELLIPSE
5
140
100
AcDbEntity
8
1
62
256
6
ByLayer
370
18
48
1
60
0
100
AcDbEllipse
10
59.14277
20
-65.9873
30
0
11
-5.18340548162339
21
0.148294891404506
31
0
210
0
220
0
230
1
40
0.433375
41
-0.88634831439279
42
-0.330988606396843
0
ELLIPSE
5
141
100
AcDbEntity
8
1
62
256
6
ByLayer
370
18
48
1
60
0
100
AcDbEllipse
10
-7.094011
20
0
30
0
11
-23.4185446994531
21
49.354372881873
31
0
210
0
220
0
230
1
40
0.341999
41
-2.98699413089088
42
-2.04714540389042
0
ELLIPSE
5
142
100
AcDbEntity
8
1
62
256
6
ByLayer
370
18
48
1
60
0
100
AcDbEllipse
10
58.715773
20
-64.444256
30
0
11
-5.30078688520683
21
-1.46685322974703
31
0
210
0
220
0
230
1
40
0.24131
41
0.065094154009756
42
0.161607299765648
0
ELLIPSE
5
143
100
AcDbEntity
8
1
62
256
6
ByLayer
370
18
48
1
60
0
100
AcDbEllipse
10
80.204343
20
-57.716191
30
0
11
1.81129755765962
21
1.81129755765962
31
0
210
0
220
0
230
1
40
0.990268
41
2.58571869189575
42
-1.5707963267949
0
ELLIPSE
5
144
100
AcDbEntity
8
1
62
256
6
ByLayer
370
18
48
1
60
0
100
AcDbEllipse
10
65.325227
20
-39.443507
30
0
11
0.185978527384807
21
-2.24230060146979
31
0
210
0
220
0
230
1
40
0.715361
41
0.124503512196626
42
3.01708890688112
0
ELLIPSE
5
145
100
AcDbEntity
8
1
62
256
6
ByLayer
370
18
48
1
60
0
100
AcDbEllipse
10
72.594463
20
-30.335152
30
0
11
3.80749884277692
21
0.026235689666675
31
-9.14147836453081E-15
210
-2.40093632062994E-15
220
3.1978518509899E-18
230
-1
40
0.590925
41
-2.50281462001337
42
-2.25393657908088
0
ELLIPSE
5
146
100
AcDbEntity
8
1
62
256
6
ByLayer
370
18
48
1
60
0
100
AcDbEllipse
10
71.112851
20
-30.345361
30
0
11
-0.477125582225522
21
-2.22285929600796
31
0
210
0
220
0
230
1
40
0.749549
41
-0.721747925681665
42
-2.29366266507201
0
ELLIPSE
5
147
100
AcDbEntity
8
1
62
256
6
ByLayer
370
18
48
1
60
0
100
AcDbEllipse
10
39.094011
20
0
30
0
11
-23.4185446994577
21
-49.3543728818787
31
0
210
0
220
0
230
1
40
0.341999
41
-1.09444724969928
42
-0.154598522698901
0
ELLIPSE
5
148
100
AcDbEntity
8
1
62
256
6
ByLayer
370
13
48
1
60
0
100
AcDbEllipse
10
70.808589
20
-47.864899
30
0
11
-1.48492424049176
21
-1.48492424049175
31
0
210
0
220
0
230
1
40
0.990268
41
-1.22173047639603
42
-0.523598775598294
0
ELLIPSE
5
149
100
AcDbEntity
8
1
62
256
6
ByLayer
370
18
48
1
60
0
100
AcDbEllipse
10
58.715773
20
-64.444256
30
0
11
-4.81889716836984
21
-1.33350293613367
31
0
210
0
220
0
230
1
40
0.24131
41
-0.463585889908388
42
0.353422520794678
0
ELLIPSE
5
14A
100
AcDbEntity
8
1
62
256
6
ByLayer
370
18
48
1
60
0
100
AcDbEllipse
10
73.77668
20
-47.300537
30
0
11
1.46371103705615
21
1.46371103705615
31
0
210
0
220
0
230
1
40
0.990268
41
-1.48908138777452
42
-0.884566394937796
0
ELLIPSE
5
14B
100
AcDbEntity
8
1
62
256
6
ByLayer
370
18
48
1
60
0
100
AcDbEllipse
10
74.239208
20
-47.763065
30
0
11
-2.99459721832504
21
-2.99459721832502
31
0
210
0
220
0
230
1
40
0.990268
41
0
42
6.28318530717959
0
ELLIPSE
5
14C
100
AcDbEntity
8
1
62
256
6
ByLayer
370
18
48
1
60
0
100
AcDbEllipse
10
73.77668
20
-47.300537
30
0
11
1.46371103705615
21
1.46371103705615
31
0
210
0
220
0
230
1
40
0.990268
41
-2.53627893897111
42
-1.9317639461344
0
ELLIPSE
5
14D
100
AcDbEntity
8
1
62
256
6
ByLayer
370
18
48
1
60
0
100
AcDbEllipse
10
73.77668
20
-47.300537
30
0
11
1.46371103705615
21
1.46371103705615
31
0
210
0
220
0
230
1
40
0.990268
41
-0.441883836577907
42
-0.151216135500587
0
ELLIPSE
5
14E
100
AcDbEntity
8
1
62
256
6
ByLayer
370
18
48
1
60
0
100
AcDbEllipse
10
74.21805
20
-47.741907
30
0
11
1.46371103705615
21
1.46371103705615
31
0
210
0
220
0
230
1
40
0.990268
41
-1.9317639461344
42
-1.4890813877745
0
ELLIPSE
5
14F
100
AcDbEntity
8
1
62
256
6
ByLayer
370
18
48
1
60
0
100
AcDbEllipse
10
74.21805
20
-47.741907
30
0
11
1.46371103705615
21
1.46371103705615
31
0
210
0
220
0
230
1
40
0.990268
41
0.16263115625879
42
0.60531371461871
0
ELLIPSE
5
150
100
AcDbEntity
8
1
62
256
6
ByLayer
370
18
48
1
60
0
100
AcDbEllipse
10
74.21805
20
-47.741907
30
0
11
1.46371103705615
21
1.46371103705615
31
0
210
0
220
0
230
1
40
0.990268
41
-0.884566394937798
42
-0.441883836577901
0
ELLIPSE
5
151
100
AcDbEntity
8
1
62
256
6
ByLayer
370
18
48
1
60
0
100
AcDbEllipse
10
74.21805
20
-47.741907
30
0
11
1.46371103705615
21
1.46371103705615
31
0
210
0
220
0
230
1
40
0.990268
41
2.257026258652
42
2.69970881701189
0
ELLIPSE
5
152
100
AcDbEntity
8
1
62
256
6
ByLayer
370
18
48
1
60
0
100
AcDbEllipse
10
73.77668
20
-47.300537
30
0
11
1.46371103705615
21
1.46371103705615
31
0
210
0
220
0
230
1
40
0.990268
41
2.69970881701189
42
-2.97896149733098
0
ELLIPSE
5
153
100
AcDbEntity
8
1
62
256
6
ByLayer
370
18
48
1
60
0
100
AcDbEllipse
10
74.21805
20
-47.741907
30
0
11
1.46371103705615
21
1.46371103705615
31
0
210
0
220
0
230
1
40
0.990268
41
-2.978961497331
42
-2.53627893897111
0
ELLIPSE
5
154
100
AcDbEntity
8
1
62
256
6
ByLayer
370
18
48
1
60
0
100
AcDbEllipse
10
73.658588
20
-47.182445
30
0
11
-1.46371103705616
21
-1.46371103705615
31
0
210
0
220
0
230
1
40
0.990268
41
0.0407915713684148
42
0.790287775403193
0
ELLIPSE
5
155
100
AcDbEntity
8
1
62
256
6
ByLayer
370
18
48
1
60
0
100
AcDbEllipse
10
73.658588
20
-47.182445
30
0
11
-1.46371103705616
21
-1.46371103705615
31
0
210
0
220
0
230
1
40
0.990268
41
0.790287775403193
42
2.92133756503321
0
ELLIPSE
5
156
100
AcDbEntity
8
1
62
256
6
ByLayer
370
18
48
1
60
0
100
AcDbEllipse
10
74.239208
20
-47.763065
30
0
11
-1.72703118440535
21
-1.72703118440534
31
0
210
0
220
0
230
1
40
0.990268
41
0
42
6.28318530717959
0
ELLIPSE
5
157
100
AcDbEntity
8
1
62
256
6
ByLayer
370
18
48
1
60
0
100
AcDbEllipse
10
74.21805
20
-47.741907
30
0
11
1.46371103705615
21
1.46371103705615
31
0
210
0
220
0
230
1
40
0.990268
41
1.20982870745541
42
1.6525112658153
0
ELLIPSE
5
158
100
AcDbEntity
8
1
62
256
6
ByLayer
370
18
48
1
60
0
100
AcDbEllipse
10
69.395043
20
-30.357198
30
0
11
0.0137807353039391
21
-1.99995252227009
31
0
210
0
220
0
230
1
40
0.590925
41
2.31961649575437
42
2.55975228453569
0
ELLIPSE
5
159
100
AcDbEntity
8
1
62
256
6
ByLayer
370
18
48
1
60
0
100
AcDbEllipse
10
69.395043
20
-30.357198
30
0
11
0.0137807353039391
21
-1.99995252227009
31
0
210
0
220
0
230
1
40
0.590925
41
0.537449744617339
42
0.821960454487873
0
ELLIPSE
5
15A
100
AcDbEntity
8
1
62
256
6
ByLayer
370
18
48
1
60
0
100
AcDbEllipse
10
69.798397
20
-30.354419
30
0
11
-0.0103355514779565
21
1.49996439170257
31
0
210
0
220
0
230
1
40
0.590925
41
-3.11386570805668
42
-1.59186244463928
0
ELLIPSE
5
15B
100
AcDbEntity
8
1
62
256
6
ByLayer
370
18
48
1
60
0
100
AcDbEllipse
10
69.798397
20
-30.354419
30
0
11
-0.0103355514779565
21
1.49996439170257
31
0
210
0
220
0
230
1
40
0.590925
41
-1.5918631114022
42
-0.0277430799049982
0
ELLIPSE
5
15C
100
AcDbEntity
8
1
62
256
6
ByLayer
370
18
48
1
60
0
100
AcDbEllipse
10
58.586364
20
-63.976607
30
0
11
-4.81889716836984
21
-1.33350293613367
31
0
210
0
220
0
230
1
40
0.24131
41
0.202526189372054
42
0.2513188361564
0
ELLIPSE
5
15D
100
AcDbEntity
8
1
62
256
6
ByLayer
370
18
48
1
60
0
100
AcDbEllipse
10
58.715773
20
-64.444256
30
0
11
4.33700745153286
21
1.20015264252029
31
0
210
0
220
0
230
1
40
0.24131
41
1.68633943637871
42
-0.603587133279583
0
ELLIPSE
5
15E
100
AcDbEntity
8
1
62
256
6
ByLayer
370
18
48
1
60
0
100
AcDbEllipse
10
58.715773
20
-64.444256
30
0
11
4.33700745153286
21
1.20015264252029
31
0
210
0
220
0
230
1
40
0.24131
41
1.25162157185339
42
1.50411899187757
0
ELLIPSE
5
15F
100
AcDbEntity
8
1
62
256
6
ByLayer
370
18
48
1
60
0
100
AcDbEllipse
10
89.862449
20
-53.373583
30
0
11
2.94156420973604
21
2.94156420973604
31
0
210
0
220
0
230
1
40
0.990268
41
-0.473387816999692
42
-0.382034247394009
0
ELLIPSE
5
160
100
AcDbEntity
8
1
62
256
6
ByLayer
370
13
48
1
60
0
100
AcDbEllipse
10
90.988486
20
-54.31385
30
0
11
2.65165042944955
21
2.65165042944955
31
0
210
0
220
0
230
1
40
0.990268
41
2.9141023524522
42
3.14157626818167
0
ELLIPSE
5
161
100
AcDbEntity
8
1
62
256
6
ByLayer
370
18
48
1
60
0
100
AcDbEllipse
10
91.485831
20
-54.996615
30
0
11
2.29809703885627
21
2.29809703885627
31
0
210
0
220
0
230
1
40
0.990268
41
-1.45314788358183
42
-0.920499899130462
0
ELLIPSE
5
162
100
AcDbEntity
8
1
62
256
6
ByLayer
370
18
48
1
60
0
100
AcDbEllipse
10
91.161309
20
-55.589959
30
0
11
-2.8284271247462
21
-2.82842712474618
31
0
210
0
220
0
230
1
40
0.990268
41
2.40312202234065
42
-1.63517715146311
0
ELLIPSE
5
163
100
AcDbEntity
8
1
62
256
6
ByLayer
370
13
48
1
60
0
100
AcDbEllipse
10
90.570848
20
-54.999498
30
0
11
-2.8284271247462
21
-2.82842712474618
31
0
210
0
220
0
230
1
40
0.990268
41
-3.14156518157725
42
-2.61114521524577
0
ELLIPSE
5
164
100
AcDbEntity
8
1
62
256
6
ByLayer
370
18
48
1
60
0
100
AcDbEllipse
10
91.761147
20
-54.354066
30
0
11
2.47487373415291
21
2.47487373415291
31
0
210
0
220
0
230
1
40
0.990268
41
2.41525947188047
42
-1.64731460100303
0
ELLIPSE
5
165
100
AcDbEntity
8
1
62
256
6
ByLayer
370
18
48
1
60
0
100
AcDbEllipse
10
91.436626
20
-54.94741
30
0
11
-2.65165042944956
21
-2.65165042944955
31
0
210
0
220
0
230
1
40
0.990268
41
-1.46615660272235
42
-0.907491179989945
0
ELLIPSE
5
166
100
AcDbEntity
8
1
62
256
6
ByLayer
370
18
48
1
60
0
100
AcDbEllipse
10
91.485831
20
-54.996615
30
0
11
2.29809703885628
21
2.29809703885628
31
0
210
0
220
0
230
1
40
0.990268
41
1.68844477000802
42
2.22109275445928
0
ELLIPSE
5
167
100
AcDbEntity
8
1
62
256
6
ByLayer
370
18
48
1
60
0
100
AcDbEllipse
10
91.711942
20
-54.304861
30
0
11
-2.8284271247462
21
-2.82842712474618
31
0
210
0
220
0
230
1
40
0.990268
41
-0.738470631249187
42
1.50641550212664
0
ELLIPSE
5
168
100
AcDbEntity
8
1
62
256
6
ByLayer
370
18
48
1
60
0
100
AcDbEllipse
10
91.210515
20
-55.639164
30
0
11
2.47487373415292
21
2.47487373415292
31
0
210
0
220
0
230
1
40
0.990268
41
-0.726333181709262
42
1.49427805258682
0
ELLIPSE
5
169
100
AcDbEntity
8
1
62
256
6
ByLayer
370
13
48
1
60
0
100
AcDbEllipse
10
91.121481
20
-53.7144
30
0
11
2.82842712474619
21
2.82842712474619
31
0
210
0
220
0
230
1
40
0.990268
41
2.88846443188293
42
-3.14158784116126
0
ELLIPSE
5
16A
100
AcDbEntity
8
1
62
256
6
ByLayer
370
13
48
1
60
0
100
AcDbEllipse
10
89.635718
20
-53.146503
30
0
11
-3.00520382004282
21
-3.00520382004281
31
0
210
0
220
0
230
1
40
0.990268
41
2.64150125429829
42
2.70128969716577
0
ELLIPSE
5
16B
100
AcDbEntity
8
1
62
256
6
ByLayer
370
18
48
1
60
0
100
AcDbEllipse
10
91.436626
20
-54.94741
30
0
11
-2.65165042944955
21
-2.65165042944954
31
0
210
0
220
0
230
1
40
0.990268
41
1.6754360508674
42
2.2341014735999
0
ELLIPSE
5
16C
100
AcDbEntity
8
1
62
256
6
ByLayer
370
18
48
1
60
0
100
AcDbEllipse
10
64.280681
20
-39.530143
30
0
11
0.165314246564273
21
-1.99315609019537
31
0
210
0
220
0
230
1
40
0.715361
41
1.37480516788445
42
2.76662878520068
0
ELLIPSE
5
16D
100
AcDbEntity
8
1
62
256
6
ByLayer
370
18
48
1
60
0
100
AcDbEllipse
10
64.280681
20
-39.530143
30
0
11
0.165314246564273
21
-1.99315609019537
31
0
210
0
220
0
230
1
40
0.715361
41
0.374993482067953
42
1.37480516788445
0
ELLIPSE
5
16E
100
AcDbEntity
8
1
62
256
6
ByLayer
370
18
48
1
60
0
100
AcDbEllipse
10
64.628863
20
-39.501264
30
0
11
-0.123985684923204
21
1.49486706764653
31
0
210
0
220
0
230
1
40
0.715361
41
0
42
6.28318530717959
0
POINT
5
6C
100
AcDbEntity
8
1
62
256
6
ByLayer
370
18
48
1
60
1
100
AcDbPoint
10
160.400287
20
86.854205
30
0
39
0
210
0
220
0
230
1
50
360
0
POINT
5
6E
100
AcDbEntity
8
1
62
256
6
ByLayer
370
18
48
1
60
1
100
AcDbPoint
10
172.19846
20
73.882773
30
0
39
0
210
0
220
0
230
1
50
360
0
POINT
5
6F
100
AcDbEntity
8
80
62
256
6
ByLayer
370
18
48
1
60
0
100
AcDbPoint
10
0
20
0
30
0
39
0
210
0
220
0
230
1
50
360
0
POINT
5
71
100
AcDbEntity
8
81
62
256
6
ByLayer
370
18
48
1
60
0
100
AcDbPoint
10
92
20
-68
30
0
39
0
210
0
220
0
230
1
50
360
0
SPLINE
5
16F
100
AcDbEntity
8
1
62
256
6
ByLayer
370
18
48
1
60
0
100
AcDbSpline
70
4
71
3
72
16
73
12
40
0
40
0
40
0
40
0
40
0.25
40
0.25
40
0.5
40
0.5
40
0.75
40
0.75
40
0.875
40
0.875
40
1
40
1
40
1
40
1
41
1
10
18.6443375672974
20
-15.5133461831291
30
0
41
1
10
18.628663043577
20
-15.4563493271806
30
0
41
1
10
18.609922401016
20
-15.400478236028
30
0
41
1
10
18.5642089472352
20
-15.2917910897776
30
0
41
1
10
18.5371631998437
20
-15.2385985420777
30
0
41
1
10
18.4704947598566
20
-15.1387566028337
30
0
41
1
10
18.4307979975499
20
-15.0918966685263
30
0
41
1
10
18.3582709830991
20
-15.0372961905784
30
0
41
1
10
18.3313299686496
20
-15.021491213259
30
0
41
1
10
18.273779935704
20
-14.9994509315928
30
0
41
1
10
18.2427481222218
20
-14.9931545155676
30
0
41
1
10
18.2113248654052
20
-14.9931545155676
30
0
0
SPLINE
5
170
100
AcDbEntity
8
SK1
62
256
6
ByLayer
370
18
48
1
60
0
100
AcDbSpline
70
4
71
2
72
6
73
3
40
0
40
0
40
0
40
1
40
1
40
1
41
1
10
-58.0000000000001
20
-34.5974227787247
30
0
41
1
10
-30.1000000000001
20
-35.2979624159374
30
0
41
1
10
-2.20000000000002
20
-35.9985021134432
30
0
0
SPLINE
5
171
100
AcDbEntity
8
SK1
62
256
6
ByLayer
370
18
48
1
60
0
100
AcDbSpline
70
4
71
2
72
6
73
3
40
0
40
0
40
0
40
1
40
1
40
1
41
1
10
-2.20000000000002
20
35.9985019194103
30
0
41
1
10
-30.1000000000006
20
35.2979600359712
30
0
41
1
10
-58
20
34.5974182144316
30
0
0
SPLINE
5
172
100
AcDbEntity
8
SK1
62
256
6
ByLayer
370
18
48
1
60
0
100
AcDbSpline
70
4
71
3
72
13
73
9
40
0
40
0
40
0
40
0
40
0.239456135432321
40
0.368359721497295
40
0.499998983549851
40
0.63163841485486
40
0.760542467458276
40
1
40
1
40
1
40
1
41
1
10
-2.20000000000002
20
-36.0200987271899
30
0
41
1
10
-2.19909198641742
20
-35.9940412511454
30
0
41
1
10
-2.19103284106404
20
-35.9566686669138
30
0
41
1
10
-2.16563592202667
20
-35.9104494932209
30
0
41
1
10
-2.13886378678379
20
-35.8791679394552
30
0
41
1
10
-2.10627712748922
20
-35.8540005693299
30
0
41
1
10
-2.05884064232757
20
-35.8309567669303
30
0
41
1
10
-2.02111030872336
20
-35.8247845119233
30
0
41
1
10
-1.99503997793931
20
-35.8251861518663
30
0
0
SPLINE
5
173
100
AcDbEntity
8
SK1
62
256
6
ByLayer
370
18
48
1
60
0
100
AcDbSpline
70
4
71
3
72
13
73
9
40
0
40
0
40
0
40
0
40
0.239457083710144
40
0.368360982146918
40
0.500000353901361
40
0.631639666584528
40
0.760543402302116
40
1
40
1
40
1
40
1
41
1
10
-1.99503997793931
20
35.8251853523287
30
0
41
1
10
-2.02111031829241
20
35.8247837166445
30
0
41
1
10
-2.05884066056868
20
35.8309559959591
30
0
41
1
10
-2.10627714095563
20
35.8539998944633
30
0
41
1
10
-2.13886379933871
20
35.8791673697463
30
0
41
1
10
-2.16563593150622
20
35.9104490513899
30
0
41
1
10
-2.19103284825073
20
35.9566684187018
30
0
41
1
10
-2.19909199362428
20
35.9940411437019
30
0
41
1
10
-2.20000000000002
20
36.0200987144251
30
0
0
SPLINE
5
174
100
AcDbEntity
8
SK1
62
256
6
ByLayer
370
18
48
1
60
0
100
AcDbSpline
70
4
71
2
72
6
73
3
40
0
40
0
40
0
40
1
40
1
40
1
41
1
10
-1.99503997793931
20
-35.8251737766339
30
0
41
1
10
-1.19500843340731
20
-35.845273220757
30
0
41
1
10
-0.394976888875306
20
-35.8653726648781
30
0
0
SPLINE
5
175
100
AcDbEntity
8
SK1
62
256
6
ByLayer
370
18
48
1
60
0
100
AcDbSpline
70
4
71
2
72
6
73
3
40
0
40
0
40
0
40
1
40
1
40
1
41
1
10
-0.394976888875306
20
35.8653720513262
30
0
41
1
10
-1.19500843340731
20
35.8452725233882
30
0
41
1
10
-1.99503997793931
20
35.8251729954496
30
0
0
SPLINE
5
176
100
AcDbEntity
8
SK1
62
256
6
ByLayer
370
18
48
1
60
0
100
AcDbSpline
70
4
71
3
72
18
73
14
40
0
40
0
40
0
40
0
40
0.0313060026069246
40
0.178506927865503
40
0.318449546671111
40
0.450085245907573
40
0.572376571410151
40
0.684281042989474
40
0.784750575145435
40
0.856194939202093
40
0.9191197610761
40
0.97298927230361
40
1
40
1
40
1
40
1
41
1
10
-0.316416415380132
20
-31.6820419340564
30
0
41
1
10
-0.31551757440252
20
-31.6027126788649
30
0
41
1
10
-0.310387009850842
20
-31.1412142400718
30
0
41
1
10
-0.301145567964483
20
-30.1819055544801
30
0
41
1
10
-0.288964416366809
20
-28.8330097976852
30
0
41
1
10
-0.277461647145117
20
-27.442591516757
30
0
41
1
10
-0.266741987783831
20
-26.0593771857593
30
0
41
1
10
-0.256878704876215
20
-24.71557281532
30
0
41
1
10
-0.248412401573461
20
-23.5171677458518
30
0
41
1
10
-0.241270588334061
20
-22.4869588439099
30
0
41
1
10
-0.235341759362996
20
-21.6368150428555
30
0
41
1
10
-0.230665639017843
20
-20.9728586787598
30
0
41
1
10
-0.2277399628789
20
-20.5918198119263
30
0
41
1
10
-0.226740562290104
20
-20.463807204761
30
0
0
SPLINE
5
177
100
AcDbEntity
8
SK1
62
256
6
ByLayer
370
18
48
1
60
0
100
AcDbSpline
70
4
71
3
72
18
73
14
40
0
40
0
40
0
40
0
40
0.0332702333819373
40
0.0868220390871996
40
0.149382557457241
40
0.220421019405956
40
0.32032564294388
40
0.431608091787665
40
0.553225121482019
40
0.684139427059351
40
0.823317874186514
40
0.969718168783434
40
1
40
1
40
1
40
1
41
1
10
-0.226071202241172
20
20.5317121676331
30
0
41
1
10
-0.227315087246922
20
20.6887672728948
30
0
41
1
10
-0.230476214452949
20
21.09577893608
30
0
41
1
10
-0.23537866969221
20
21.7825950487096
30
0
41
1
10
-0.241303328161195
20
22.6236597580725
30
0
41
1
10
-0.248447678527469
20
23.6432287571096
30
0
41
1
10
-0.256913721260133
20
24.8292978202346
30
0
41
1
10
-0.26677678352678
20
26.1594015757462
30
0
41
1
10
-0.277495235944485
20
27.5285782927608
30
0
41
1
10
-0.28899611960594
20
28.9049713691807
30
0
41
1
10
-0.301174642994653
20
30.2401319088071
30
0
41
1
10
-0.310389087091011
20
31.1875253281532
30
0
41
1
10
-0.315493453764901
20
31.642158485671
30
0
41
1
10
-0.316367398670991
20
31.7185688341288
30
0
0
SPLINE
5
178
100
AcDbEntity
8
SK1
62
256
6
ByLayer
370
18
48
1
60
0
100
AcDbSpline
70
4
71
2
72
6
73
3
40
0
40
0
40
0
40
1
40
1
40
1
41
1
10
-58
20
34.6180228183432
30
0
41
1
10
-59.0000000015329
20
34.0406784545941
30
0
41
1
10
-60
20
33.4633340188487
30
0
0
SPLINE
5
179
100
AcDbEntity
8
SK1
62
256
6
ByLayer
370
18
48
1
60
0
100
AcDbSpline
70
4
71
2
72
6
73
3
40
0
40
0
40
0
40
1
40
1
40
1
41
1
10
-60
20
-33.4633429309407
30
0
41
1
10
-58.9999999990911
20
-34.0406853811666
30
0
41
1
10
-58
20
-34.6180277609945
30
0
0
SPLINE
5
17A
100
AcDbEntity
8
SK1
62
256
6
ByLayer
370
18
48
1
60
0
100
AcDbSpline
70
4
71
3
72
26
73
22
40
0
40
0
40
0
40
0
40
0.0312500000000003
40
0.0312500000000003
40
0.0625000000000006
40
0.0625000000000006
40
0.0937500000000009
40
0.0937500000000009
40
0.125000000000001
40
0.125000000000001
40
0.187500000000001
40
0.187500000000001
40
0.25
40
0.25
40
0.374999999999999
40
0.374999999999999
40
0.499999999999998
40
0.499999999999998
40
0.749999999999999
40
0.749999999999999
40
1
40
1
40
1
40
1
41
1
10
-0.394976888875277
20
6.14029722153333
30
0
41
1
10
-0.411386827853335
20
6.15471389261222
30
0
41
1
10
-0.428762929070388
20
6.16792682850331
30
0
41
1
10
-0.466312490804569
20
6.19087886287878
30
0
41
1
10
-0.486486340955338
20
6.20053205424261
30
0
41
1
10
-0.528636087579144
20
6.21387385760761
30
0
41
1
10
-0.551333806654185
20
6.21763094422388
30
0
41
1
10
-0.595996896779241
20
6.21759710275111
30
0
41
1
10
-0.618501718611867
20
6.2138805087493
30
0
41
1
10
-0.682666367362827
20
6.19354801200387
30
0
41
1
10
-0.720497492514255
20
6.16857769971645
30
0
41
1
10
-0.786209064871798
20
6.11129360410717
30
0
41
1
10
-0.815074852177105
20
6.07817489743729
30
0
41
1
10
-0.892438429618068
20
5.97534441057221
30
0
41
1
10
-0.933322586559711
20
5.90108526750925
30
0
41
1
10
-1.00643010561566
20
5.74774420897126
30
0
41
1
10
-1.03799495343554
20
5.6687517075986
30
0
41
1
10
-1.12311078163745
20
5.4303704240005
30
0
41
1
10
-1.16788167463838
20
5.26810674825339
30
0
41
1
10
-1.24572901926436
20
4.9396173942236
30
0
41
1
10
-1.27842602392926
20
4.77330384397379
30
0
41
1
10
-1.30710678118652
20
4.60538003006582
30
0
0
SPLINE
5
17B
100
AcDbEntity
8
1
62
256
6
ByLayer
370
18
48
1
60
0
100
AcDbSpline
70
4
71
3
72
16
73
12
40
0
40
0
40
0
40
0
40
0.124999999999998
40
0.124999999999998
40
0.249999999999996
40
0.249999999999996
40
0.499999999999997
40
0.499999999999997
40
0.749999999999999
40
0.749999999999999
40
1
40
1
40
1
40
1
41
1
10
13.7886751345948
20
47.6991123363142
30
0
41
1
10
13.7572057460937
20
47.6991123363142
30
0
41
1
10
13.7265863249372
20
47.6971731220929
30
0
41
1
10
13.6685627993565
20
47.6901896918971
30
0
41
1
10
13.6421718734731
20
47.685321932856
30
0
41
1
10
13.5684767776432
20
47.6678096320571
30
0
41
1
10
13.529486779677
20
47.6531212535631
30
0
41
1
10
13.4628524690449
20
47.6213036484294
30
0
41
1
10
13.4360331579796
20
47.6044110998707
30
0
41
1
10
13.3902293919744
20
47.5693355727224
30
0
41
1
10
13.3713425683518
20
47.5510829903644
30
0
41
1
10
13.3556624327026
20
47.532474059346
30
0
0
SPLINE
5
17C
100
AcDbEntity
8
SK1
62
256
6
ByLayer
370
18
48
1
60
0
100
AcDbSpline
70
4
71
3
72
18
73
14
40
0
40
0
40
0
40
0
40
0.140319572429641
40
0.140319572429641
40
0.503185221082775
40
0.503185221082775
40
0.684618045409341
40
0.684618045409341
40
0.866050869735908
40
0.866050869735908
40
0.956767281899191
40
0.956767281899191
40
1
40
1
40
1
40
1
41
1
10
-0.201682998215091
20
29.0174984733741
30
0
41
1
10
-0.202416260233576
20
29.0342091312888
30
0
41
1
10
-0.203405110369829
20
29.0508046335233
30
0
41
1
10
-0.207978089311894
20
29.1098671795148
30
0
41
1
10
-0.213104238159275
20
29.15166329712
30
0
41
1
10
-0.225863680076031
20
29.212430708525
30
0
41
1
10
-0.230960581829976
20
29.2323021122834
30
0
41
1
10
-0.24390969354917
20
29.2709230268983
30
0
41
1
10
-0.251695468058301
20
29.2897316982483
30
0
41
1
10
-0.267365194374321
20
29.3158651092749
30
0
41
1
10
-0.273258925337075
20
29.3242443982196
30
0
41
1
10
-0.283828291800631
20
29.3357434772846
30
0
41
1
10
-0.287533098476843
20
29.3393644594571
30
0
41
1
10
-0.291683350026489
20
29.34272969008
30
0
0
SPLINE
5
17D
100
AcDbEntity
8
SK1
62
256
6
ByLayer
370
18
48
1
60
0
100
AcDbSpline
70
4
71
3
72
316
73
312
40
0
40
0
40
0
40
0
40
0.0029467532904378
40
0.0064471289170504
40
0.009947504543663
40
0.0134478801702755
40
0.016948255796888
40
0.0204486314235006
40
0.0239490070501131
40
0.0274493826767256
40
0.0309497583033382
40
0.0344501339299507
40
0.0379505095565633
40
0.0449512608097884
40
0.0484516364364009
40
0.0519520120630135
40
0.055452387689626
40
0.0589527633162385
40
0.0624531389428511
40
0.0659535145694636
40
0.0694538901960762
40
0.0729542658226887
40
0.0764546414493012
40
0.0799550170759138
40
0.0869557683291389
40
0.0904561439557514
40
0.0922063317690577
40
0.093956519582364
40
0.0974568952089765
40
0.100957270835589
40
0.107958022088814
40
0.111458397715427
40
0.114958773342039
40
0.121959524595264
40
0.128960275848489
40
0.132460651475102
40
0.135961027101715
40
0.139461402728327
40
0.14296177835494
40
0.149962529608165
40
0.15696328086139
40
0.160463656488002
40
0.163964032114615
40
0.17096478336784
40
0.177965534621065
40
0.18496628587429
40
0.188466661500903
40
0.191967037127515
40
0.195467412754128
40
0.19896778838074
40
0.205968539633965
40
0.21296929088719
40
0.216469666513803
40
0.219970042140415
40
0.223470417767028
40
0.226970793393641
40
0.233971544646866
40
0.240972295900091
40
0.247973047153316
40
0.251473422779928
40
0.254973798406541
40
0.261974549659766
40
0.268975300912991
40
0.272475676539604
40
0.275976052166216
40
0.279476427792829
40
0.282976803419441
40
0.289977554672666
40
0.293477930299279
40
0.296978305925891
40
0.300478681552504
40
0.303979057179116
40
0.310979808432342
40
0.314480184058954
40
0.317980559685567
40
0.321480935312179
40
0.324981310938792
40
0.331982062192017
40
0.335482437818629
40
0.338982813445242
40
0.342483189071854
40
0.345983564698467
40
0.347733752511773
40
0.34948394032508
40
0.352984315951692
40
0.356484691578305
40
0.359985067204917
40
0.36348544283153
40
0.366985818458142
40
0.370486194084755
40
0.373986569711367
40
0.375736757524674
40
0.37748694533798
40
0.380987320964592
40
0.384487696591205
40
0.387988072217818
40
0.39148844784443
40
0.394988823471043
40
0.398489199097655
40
0.401989574724268
40
0.40548995035088
40
0.408990325977493
40
0.412490701604105
40
0.415991077230718
40
0.41949145285733
40
0.422991828483943
40
0.426492204110555
40
0.429992579737168
40
0.431742767550474
40
0.433492955363781
40
0.436993330990393
40
0.440493706617006
40
0.442243894430312
40
0.443994082243618
40
0.447494457870231
40
0.450994833496843
40
0.452745021310149
40
0.454495209123456
40
0.456245396936762
40
0.457995584750068
40
0.459745772563375
40
0.461495960376681
40
0.462371054283334
40
0.463246148189987
40
0.464996336003293
40
0.465871429909947
40
0.4667465238166
40
0.468496711629906
40
0.470246899443212
40
0.471121993349865
40
0.471997087256519
40
0.472872181163172
40
0.473747275069825
40
0.475497462883131
40
0.476372556789784
40
0.477247650696437
40
0.478122744603091
40
0.478997838509744
40
0.479872932416397
40
0.48074802632305
40
0.482498214136356
40
0.483373308043009
40
0.484248401949663
40
0.485998589762969
40
0.486873683669622
40
0.487748777576275
40
0.488623871482928
40
0.489498965389581
40
0.491249153202887
40
0.492999341016194
40
0.493874434922847
40
0.4947495288295
40
0.495624622736153
40
0.496499716642806
40
0.498249904456113
40
0.499124998362766
40
0.500000092269419
40
0.500875186176072
40
0.501750280082725
40
0.503500467896031
40
0.504375561802685
40
0.505250655709338
40
0.506125749615991
40
0.507000843522644
40
0.50875103133595
40
0.510501219149257
40
0.51137631305591
40
0.512251406962563
40
0.513126500869216
40
0.514001594775869
40
0.515751782589175
40
0.517501970402482
40
0.519252158215788
40
0.521002346029094
40
0.5227525338424
40
0.523627627749054
40
0.524502721655707
40
0.52537781556236
40
0.526252909469013
40
0.527128003375666
40
0.528003097282319
40
0.528878191188972
40
0.529753285095625
40
0.531503472908932
40
0.533253660722238
40
0.534128754628891
40
0.535003848535544
40
0.536754036348851
40
0.537629130255504
40
0.538504224162157
40
0.540254411975463
40
0.542004599788769
40
0.543754787602076
40
0.545504975415382
40
0.547255163228688
40
0.549005351041995
40
0.552505726668607
40
0.55600610229522
40
0.557756290108526
40
0.559506477921832
40
0.563006853548445
40
0.566507229175057
40
0.568257416988364
40
0.57000760480167
40
0.573507980428282
40
0.575258168241589
40
0.577008356054895
40
0.580508731681508
40
0.58400910730812
40
0.587509482934732
40
0.591009858561345
40
0.594510234187958
40
0.596260422001264
40
0.59801060981457
40
0.601510985441183
40
0.605011361067795
40
0.608511736694408
40
0.61201211232102
40
0.615512487947633
40
0.619012863574245
40
0.622513239200858
40
0.62601361482747
40
0.629513990454083
40
0.633014366080696
40
0.636514741707308
40
0.640015117333921
40
0.647015868587146
40
0.650516244213758
40
0.652266432027064
40
0.654016619840371
40
0.657516995466983
40
0.661017371093596
40
0.664517746720208
40
0.668018122346821
40
0.675018873600046
40
0.678519249226659
40
0.682019624853271
40
0.685520000479884
40
0.689020376106496
40
0.696021127359721
40
0.699521502986334
40
0.703021878612946
40
0.706522254239559
40
0.710022629866172
40
0.717023381119397
40
0.720523756746009
40
0.724024132372622
40
0.727524507999234
40
0.731024883625847
40
0.738025634879072
40
0.745026386132297
40
0.748526761758909
40
0.752027137385522
40
0.759027888638747
40
0.766028639891972
40
0.773029391145197
40
0.77652976677181
40
0.780030142398422
40
0.783530518025035
40
0.787030893651647
40
0.794031644904873
40
0.801032396158098
40
0.80453277178471
40
0.808033147411323
40
0.811533523037935
40
0.815033898664548
40
0.822034649917773
40
0.829035401170998
40
0.836036152424223
40
0.839536528050836
40
0.843036903677448
40
0.850037654930673
40
0.857038406183898
40
0.860538781810511
40
0.864039157437123
40
0.867539533063736
40
0.871039908690348
40
0.878040659943573
40
0.885041411196799
40
0.888541786823411
40
0.892042162450024
40
0.899042913703249
40
0.902543289329861
40
0.906043664956474
40
0.90779385276978
40
0.909544040583086
40
0.913044416209699
40
0.920045167462924
40
0.923545543089537
40
0.927045918716149
40
0.930546294342762
40
0.934046669969374
40
0.937547045595987
40
0.941047421222599
40
0.944547796849212
40
0.948048172475824
40
0.951548548102437
40
0.955048923729049
40
0.958549299355662
40
0.962049674982275
40
0.965550050608887
40
0.9690504262355
40
0.972550801862112
40
0.976051177488725
40
0.979551553115337
40
0.98305192874195
40
0.986552304368562
40
0.990052679995175
40
0.993553055621787
40
0.9970534312484
40
1
40
1
40
1
40
1
41
1
10
-58
20
-34.607316908249
30
0
41
1
10
-58
20
-34.6043670436015
30
0
41
1
10
-58
20
-34.5966211406557
30
0
41
1
10
-58
20
-34.5803797447221
30
0
41
1
10
-58
20
-34.5584075309985
30
0
41
1
10
-58
20
-34.5316962075247
30
0
41
1
10
-58
20
-34.5003280118182
30
0
41
1
10
-58
20
-34.464381805243
30
0
41
1
10
-58
20
-34.4239333421725
30
0
41
1
10
-58
20
-34.3790530583999
30
0
41
1
10
-58
20
-34.3298111043331
30
0
41
1
10
-58
20
-34.2762712843076
30
0
41
1
10
-58
20
-34.1990832647149
30
0
41
1
10
-58
20
-34.11403435413
30
0
41
1
10
-58
20
-34.020357330257
30
0
41
1
10
-58
20
-33.9462206251882
30
0
41
1
10
-58
20
-33.8681273926077
30
0
41
1
10
-58
20
-33.7861247188262
30
0
41
1
10
-58
20
-33.7002599502329
30
0
41
1
10
-58
20
-33.6105785465519
30
0
41
1
10
-58
20
-33.5171241473591
30
0
41
1
10
-58
20
-33.4199387593897
30
0
41
1
10
-58
20
-33.3190628604087
30
0
41
1
10
-58
20
-33.1794476388675
30
0
41
1
10
-58
20
-33.0333547758039
30
0
41
1
10
-58
20
-32.8987588752027
30
0
41
1
10
-58
20
-32.8200332868944
30
0
41
1
10
-58
20
-32.7401409674119
30
0
41
1
10
-58
20
-32.6384072676335
30
0
41
1
10
-58
20
-32.4705455117827
30
0
41
1
10
-58
20
-32.2967149943326
30
0
41
1
10
-58
20
-32.115311722464
30
0
41
1
10
-58
20
-31.9294644717604
30
0
41
1
10
-58
20
-31.6895938369171
30
0
41
1
10
-58
20
-31.438923757912
30
0
41
1
10
-58
20
-31.2314087120365
30
0
41
1
10
-58
20
-31.072842907298
30
0
41
1
10
-58
20
-30.9111259319957
30
0
41
1
10
-58
20
-30.6909862066612
30
0
41
1
10
-58
20
-30.4088224417549
30
0
41
1
10
-58
20
-30.1164546526889
30
0
41
1
10
-58
20
-29.8758448277823
30
0
41
1
10
-58
20
-29.6312151716041
30
0
41
1
10
-58
20
-29.3188018386775
30
0
41
1
10
-58
20
-28.9316246696634
30
0
41
1
10
-58
20
-28.5996384834264
30
0
41
1
10
-58
20
-28.3275282615774
30
0
41
1
10
-58
20
-28.1208773935264
30
0
41
1
10
-58
20
-27.9113636298593
30
0
41
1
10
-58
20
-27.6277846867342
30
0
41
1
10
-58
20
-27.267199029797
30
0
41
1
10
-58
20
-26.8972638515592
30
0
41
1
10
-58
20
-26.5949314963246
30
0
41
1
10
-58
20
-26.3657553019254
30
0
41
1
10
-58
20
-26.1338196224207
30
0
41
1
10
-58
20
-25.820433050224
30
0
41
1
10
-58
20
-25.4229416730791
30
0
41
1
10
-58
20
-24.934505910954
30
0
41
1
10
-58
20
-24.5190021187452
30
0
41
1
10
-58
20
-24.1803157154495
30
0
41
1
10
-58
20
-23.8380720492418
30
0
41
1
10
-58
20
-23.4048307950687
30
0
41
1
10
-58
20
-22.9627941997737
30
0
41
1
10
-58
20
-22.6029074150482
30
0
41
1
10
-58
20
-22.3308053593404
30
0
41
1
10
-58
20
-22.056095857614
30
0
41
1
10
-58
20
-21.6857625612491
30
0
41
1
10
-58
20
-21.3120431735846
30
0
41
1
10
-58
20
-20.9313332310817
30
0
41
1
10
-58
20
-20.6436975341919
30
0
41
1
10
-58
20
-20.3534974164195
30
0
41
1
10
-58
20
-19.9625129981163
30
0
41
1
10
-58
20
-19.5683935682399
30
0
41
1
10
-58
20
-19.1671855328673
30
0
41
1
10
-58
20
-18.8642617520243
30
0
41
1
10
-58
20
-18.5588120799026
30
0
41
1
10
-58
20
-18.1474824557211
30
0
41
1
10
-58
20
-17.7332927565035
30
0
41
1
10
-58
20
-17.3118754472546
30
0
41
1
10
-58
20
-16.9938869670337
30
0
41
1
10
-58
20
-16.6734094787226
30
0
41
1
10
-58
20
-16.4046647522578
30
0
41
1
10
-58
20
-16.1877136527783
30
0
41
1
10
-58
20
-15.9699409152238
30
0
41
1
10
-58
20
-15.6971014285855
30
0
41
1
10
-58
20
-15.3667286289814
30
0
41
1
10
-58
20
-15.0338987189648
30
0
41
1
10
-58
20
-14.6986181938836
30
0
41
1
10
-58
20
-14.3608942162371
30
0
41
1
10
-57.9999999999999
20
-14.0207356013197
30
0
41
1
10
-58
20
-13.7357042566719
30
0
41
1
10
-58
20
-13.5056252380649
30
0
41
1
10
-58
20
-13.2747453101746
30
0
41
1
10
-58
20
-12.9857331103651
30
0
41
1
10
-58
20
-12.6359214941673
30
0
41
1
10
-57.9999999999999
20
-12.2837204653535
30
0
41
1
10
-58
20
-11.9291438609311
30
0
41
1
10
-57.9999999999999
20
-11.5722027534516
30
0
41
1
10
-58
20
-11.2129126489515
30
0
41
1
10
-58
20
-10.851288265045
30
0
41
1
10
-58
20
-10.487347423945
30
0
41
1
10
-58
20
-10.1211093378308
30
0
41
1
10
-58
20
-9.75259557230211
30
0
41
1
10
-58
20
-9.3818307586514
30
0
41
1
10
-58
20
-9.00884209524727
30
0
41
1
10
-58
20
-8.63366100346428
30
0
41
1
10
-58
20
-8.25632291017834
30
0
41
1
10
-58
20
-7.94080702479252
30
0
41
1
10
-58
20
-7.68603127322152
30
0
41
1
10
-58
20
-7.43059597795101
30
0
41
1
10
-58
20
-7.1118012915515
30
0
41
1
10
-58
20
-6.79132960033488
30
0
41
1
10
-58
20
-6.5325162463362
30
0
41
1
10
-58
20
-6.27311588814803
30
0
41
1
10
-58
20
-5.94973662395361
30
0
41
1
10
-58
20
-5.62487008150853
30
0
41
1
10
-58
20
-5.36246930605512
30
0
41
1
10
-57.9999999999999
20
-5.16603320786015
30
0
41
1
10
-58
20
-4.96923221655041
30
0
41
1
10
-58
20
-4.77207761728613
30
0
41
1
10
-58
20
-4.57459570619073
30
0
41
1
10
-58
20
-4.41029804681102
30
0
41
1
10
-57.9999999999999
20
-4.27771653655563
30
0
41
1
10
-57.9999999999999
20
-4.14506100143927
30
0
41
1
10
-58
20
-4.01399420894893
30
0
41
1
10
-58
20
-3.881036330217
30
0
41
1
10
-58
20
-3.74801883117274
30
0
41
1
10
-58
20
-3.58299633989347
30
0
41
1
10
-58
20
-3.41778425796451
30
0
41
1
10
-58
20
-3.28439014192511
30
0
41
1
10
-58
20
-3.18480948837248
30
0
41
1
10
-58
20
-3.08519574611896
30
0
41
1
10
-58
20
-2.95167230604008
30
0
41
1
10
-58
20
-2.82015553447042
30
0
41
1
10
-57.9999999999999
20
-2.68650643512575
30
0
41
1
10
-57.9999999999999
20
-2.58679151495224
30
0
41
1
10
-58
20
-2.48707433529853
30
0
41
1
10
-58
20
-2.38736175207308
30
0
41
1
10
-58
20
-2.28764244667346
30
0
41
1
10
-58
20
-2.15394245955969
30
0
41
1
10
-58
20
-2.02257380819526
30
0
41
1
10
-58
20
-1.88886587056908
30
0
41
1
10
-58
20
-1.75519681152264
30
0
41
1
10
-58
20
-1.62400929858032
30
0
41
1
10
-58
20
-1.49038261723348
30
0
41
1
10
-58
20
-1.39082936054339
30
0
41
1
10
-57.9999999999999
20
-1.29130628126839
30
0
41
1
10
-58
20
-1.15779757822995
30
0
41
1
10
-58
20
-0.9929588226058
30
0
41
1
10
-58
20
-0.828192566370632
30
0
41
1
10
-58
20
-0.694823557694662
30
0
41
1
10
-58
20
-0.595510286532431
30
0
41
1
10
-58
20
-0.496219744531999
30
0
41
1
10
-58
20
-0.362942864386582
30
0
41
1
10
-58
20
-0.232469995259635
30
0
41
1
10
-58
20
-0.099227339898448
30
0
41
1
10
-58
20
-1.63799996E-08
30
0
41
1
10
-58
20
0.0992273272949546
30
0
41
1
10
-58
20
0.232469975530592
30
0
41
1
10
-58
20
0.362942837222533
30
0
41
1
10
-57.9999999999999
20
0.496219754320606
30
0
41
1
10
-58
20
0.595510259634295
30
0
41
1
10
-58
20
0.694823517971344
30
0
41
1
10
-58
20
0.828192548206232
30
0
41
1
10
-58
20
0.992958818913309
30
0
41
1
10
-58
20
1.15779757169761
30
0
41
1
10
-58
20
1.2913062055101
30
0
41
1
10
-58
20
1.39082935616076
30
0
41
1
10
-58
20
1.49038258437858
30
0
41
1
10
-58
20
1.62400964435551
30
0
41
1
10
-58
20
1.78925716601177
30
0
41
1
10
-58
20
1.98859069176862
30
0
41
1
10
-57.9999999999999
20
2.18798792525018
30
0
41
1
10
-58
20
2.38741878390209
30
0
41
1
10
-58
20
2.55285553128311
30
0
41
1
10
-58
20
2.68650877066608
30
0
41
1
10
-58
20
2.78620371303603
30
0
41
1
10
-58
20
2.88588197147467
30
0
41
1
10
-58
20
2.98554870608604
30
0
41
1
10
-58
20
3.08519524226034
30
0
41
1
10
-58
20
3.18480940383549
30
0
41
1
10
-58
20
3.28439024486022
30
0
41
1
10
-58
20
3.4177842579125
30
0
41
1
10
-58
20
3.58299612267842
30
0
41
1
10
-58
20
3.74801862180834
30
0
41
1
10
-58
20
3.88103632788403
30
0
41
1
10
-58
20
4.01399439838318
30
0
41
1
10
-58
20
4.14506122516991
30
0
41
1
10
-57.9999999999999
20
4.27771663526573
30
0
41
1
10
-58
20
4.41029793772168
30
0
41
1
10
-58
20
4.57459544495509
30
0
41
1
10
-58
20
4.77207750487509
30
0
41
1
10
-58
20
4.96923237547443
30
0
41
1
10
-58
20
5.16603341989489
30
0
41
1
10
-58
20
5.36246929286634
30
0
41
1
10
-57.9999999999999
20
5.62486984380908
30
0
41
1
10
-58
20
5.94973663199025
30
0
41
1
10
-58
20
6.27311609603566
30
0
41
1
10
-57.9999999999999
20
6.53251618838755
30
0
41
1
10
-58
20
6.7913293893557
30
0
41
1
10
-58
20
7.11180135563234
30
0
41
1
10
-58
20
7.43059630648506
30
0
41
1
10
-58
20
7.68603135773839
30
0
41
1
10
-58
20
7.94080704287336
30
0
41
1
10
-58
20
8.1923204484753
30
0
41
1
10
-58
20
8.44493041618216
30
0
41
1
10
-58
20
8.6968434093225
30
0
41
1
10
-57.9999999999999
20
9.00884035151952
30
0
41
1
10
-58
20
9.38183010290783
30
0
41
1
10
-58
20
9.75259725338501
30
0
41
1
10
-58
20
10.1211100592584
30
0
41
1
10
-58
20
10.4256875570292
30
0
41
1
10
-58
20
10.6692766858405
30
0
41
1
10
-58
20
10.912108295924
30
0
41
1
10
-57.9999999999999
20
11.21291277944
30
0
41
1
10
-58
20
11.572202781332
30
0
41
1
10
-58
20
11.9291438218094
30
0
41
1
10
-58
20
12.2837205272056
30
0
41
1
10
-58
20
12.6359214323733
30
0
41
1
10
-58
20
12.9857332798767
30
0
41
1
10
-58
20
13.3331465322306
30
0
41
1
10
-58
20
13.6781505656526
30
0
41
1
10
-58
20
14.0207356586279
30
0
41
1
10
-58
20
14.3608949939723
30
0
41
1
10
-57.9999999999999
20
14.6986174932262
30
0
41
1
10
-58
20
15.1465482288459
30
0
41
1
10
-58
20
15.586990793997
30
0
41
1
10
-58
20
15.9699408852648
30
0
41
1
10
-58
20
16.1877136709008
30
0
41
1
10
-58
20
16.4046647430283
30
0
41
1
10
-58
20
16.6734094643824
30
0
41
1
10
-58
20
16.9938869687374
30
0
41
1
10
-58
20
17.31187542895
30
0
41
1
10
-58
20
17.7332927415188
30
0
41
1
10
-57.9999999999999
20
18.1474824585398
30
0
41
1
10
-58
20
18.5588120809721
30
0
41
1
10
-58
20
18.8642617622701
30
0
41
1
10
-58
20
19.167185502819
30
0
41
1
10
-58
20
19.5683935649799
30
0
41
1
10
-58
20
19.962512989893
30
0
41
1
10
-58
20
20.3534974230034
30
0
41
1
10
-58
20
20.6436975380219
30
0
41
1
10
-57.9999999999999
20
20.9313332073366
30
0
41
1
10
-58
20
21.3120431731188
30
0
41
1
10
-58
20
21.6857625528636
30
0
41
1
10
-58
20
22.0560958606498
30
0
41
1
10
-58
20
22.3308053662237
30
0
41
1
10
-58
20
22.6029073961029
30
0
41
1
10
-58
20
22.9627941936476
30
0
41
1
10
-58
20
23.4048307980022
30
0
41
1
10
-58
20
23.8380720499499
30
0
41
1
10
-58
20
24.1803157072482
30
0
41
1
10
-58
20
24.519002112154
30
0
41
1
10
-58
20
24.9345059187337
30
0
41
1
10
-58
20
25.4229416666195
30
0
41
1
10
-58
20
25.8204330482275
30
0
41
1
10
-58
20
26.1338196230743
30
0
41
1
10
-58
20
26.365755304915
30
0
41
1
10
-58
20
26.5949314925857
30
0
41
1
10
-58
20
26.8972638502992
30
0
41
1
10
-58
20
27.267199032382
30
0
41
1
10
-58
20
27.6277846850599
30
0
41
1
10
-58
20
27.911363633098
30
0
41
1
10
-58
20
28.1208773937063
30
0
41
1
10
-58
20
28.3275282602039
30
0
41
1
10
-58
20
28.5996384848297
30
0
41
1
10
-58
20
28.9316246713931
30
0
41
1
10
-58
20
29.3188018441321
30
0
41
1
10
-58
20
29.6312151678218
30
0
41
1
10
-58
20
29.8758448368358
30
0
41
1
10
-58
20
30.1164546579335
30
0
41
1
10
-58
20
30.4088224430552
30
0
41
1
10
-58
20
30.6909862057693
30
0
41
1
10
-58
20
30.9111259407839
30
0
41
1
10
-58
20
31.0728429182949
30
0
41
1
10
-58
20
31.2314087063947
30
0
41
1
10
-58
20
31.4389237596358
30
0
41
1
10
-58
20
31.6895938415452
30
0
41
1
10
-58
20
31.9294644880725
30
0
41
1
10
-58
20
32.1153117201282
30
0
41
1
10
-58
20
32.2967149944415
30
0
41
1
10
-58
20
32.4705455180244
30
0
41
1
10
-58
20
32.6384072799631
30
0
41
1
10
-58
20
32.7401409831787
30
0
41
1
10
-58
20
32.8200332917252
30
0
41
1
10
-58
20
32.8987588718319
30
0
41
1
10
-58
20
33.0333547777464
30
0
41
1
10
-58
20
33.1794476462956
30
0
41
1
10
-58
20
33.3190628682573
30
0
41
1
10
-58
20
33.4199387810475
30
0
41
1
10
-58
20
33.5171241369411
30
0
41
1
10
-58
20
33.6105785639527
30
0
41
1
10
-58
20
33.7002599705932
30
0
41
1
10
-58
20
33.7861246522719
30
0
41
1
10
-58
20
33.8681273799935
30
0
41
1
10
-58
20
33.9462211181053
30
0
41
1
10
-58
20
34.0203569492649
30
0
41
1
10
-58
20
34.090484024979
30
0
41
1
10
-58
20
34.1565492736137
30
0
41
1
10
-58
20
34.218497179506
30
0
41
1
10
-58
20
34.2762712987306
30
0
41
1
10
-58
20
34.3298111110901
30
0
41
1
10
-58
20
34.379052993704
30
0
41
1
10
-58
20
34.4239333693917
30
0
41
1
10
-58
20
34.4643817495677
30
0
41
1
10
-58
20
34.5003280083155
30
0
41
1
10
-58
20
34.5316961895766
30
0
41
1
10
-58
20
34.558407488607
30
0
41
1
10
-58
20
34.5803797589321
30
0
41
1
10
-58
20
34.5966207787489
30
0
41
1
10
-58
20
34.6043539203976
30
0
41
1
10
-58
20
34.6073030914078
30
0
0
SPLINE
5
17E
100
AcDbEntity
8
1
62
256
6
ByLayer
370
18
48
1
60
0
100
AcDbSpline
70
4
71
3
72
22
73
18
40
0
40
0
40
0
40
0
40
0.03125
40
0.03125
40
0.0624999999999999
40
0.0624999999999999
40
0.125000000000001
40
0.125000000000001
40
0.250000000000001
40
0.250000000000001
40
0.375000000000001
40
0.375000000000001
40
0.500000000000001
40
0.500000000000001
40
0.75
40
0.75
40
1
40
1
40
1
40
1
41
1
10
36.9588790706482
20
-38.1262891438569
30
0
41
1
10
36.9509913556382
20
-38.0085835079261
30
0
41
1
10
36.9427957867888
20
-37.8937685965295
30
0
41
1
10
36.9261737322548
20
-37.6663070655534
30
0
41
1
10
36.9177350815276
20
-37.5537746748146
30
0
41
1
10
36.8922370493352
20
-37.2178872202876
30
0
41
1
10
36.875004143412
20
-36.9962382673967
30
0
41
1
10
36.8231977457287
20
-36.3324991432294
30
0
41
1
10
36.7885084182104
20
-35.8915397543068
30
0
41
1
10
36.7197190810525
20
-35.0036653819734
30
0
41
1
10
36.6855897701466
20
-34.5570465145744
30
0
41
1
10
36.6181690526762
20
-33.6553409924314
30
0
41
1
10
36.5848696818869
20
-33.2002662586398
30
0
41
1
10
36.4865480138588
20
-31.8217483411539
30
0
41
1
10
36.4230772321199
20
-30.8845025156294
30
0
41
1
10
36.3008991895619
20
-28.9681920879497
30
0
41
1
10
36.2421360163333
20
-27.9883403235742
30
0
41
1
10
36.186138409617
20
-26.9902142435556
30
0
0
SPLINE
5
17F
100
AcDbEntity
8
SK1
62
256
6
ByLayer
370
18
48
1
60
0
100
AcDbSpline
70
4
71
3
72
18
73
14
40
0
40
0
40
0
40
0
40
0.0428796046915769
40
0.0428796046915769
40
0.131926016940017
40
0.131926016940017
40
0.310018841436897
40
0.310018841436897
40
0.488111665933777
40
0.488111665933777
40
0.844297314927522
40
0.844297314927522
40
1
40
1
40
1
40
1
41
1
10
-0.291814587465552
20
-29.3428408292195
30
0
41
1
10
-0.287616795024121
20
-29.3394499333675
30
0
41
1
10
-0.283862998259906
20
-29.3357845867855
30
0
41
1
10
-0.27314984259533
20
-29.3241187006638
30
0
41
1
10
-0.267232186715148
20
-29.31567185154
30
0
41
1
10
-0.251523005226886
20
-29.2893856902037
30
0
41
1
10
-0.243762997944145
20
-29.2705582101087
30
0
41
1
10
-0.230811685423617
20
-29.2317835550302
30
0
41
1
10
-0.22574232494631
20
-29.2119188835138
30
0
41
1
10
-0.213066387151429
20
-29.1513482593076
30
0
41
1
10
-0.207959408398608
20
-29.109674994757
30
0
41
1
10
-0.203233530197053
20
-29.0485667332106
30
0
41
1
10
-0.202160219818808
20
-29.0298129602066
30
0
41
1
10
-0.201407384083012
20
-29.0109078351434
30
0
0
SPLINE
5
180
100
AcDbEntity
8
1
62
256
6
ByLayer
370
18
48
1
60
0
100
AcDbSpline
70
4
71
3
72
24
73
20
40
0
40
0
40
0
40
0
40
0.124999999999999
40
0.124999999999999
40
0.249999999999999
40
0.249999999999999
40
0.374999999999998
40
0.374999999999998
40
0.499999999999998
40
0.499999999999998
40
0.624999999999997
40
0.624999999999997
40
0.687499999999998
40
0.687499999999998
40
0.749999999999998
40
0.749999999999998
40
0.874999999999999
40
0.874999999999999
40
1
40
1
40
1
40
1
41
1
10
37.9999999987024
20
15.0245733875031
30
0
41
1
10
37.9999999987024
20
14.6722697201739
30
0
41
1
10
38.0181377748416
20
14.3280905399965
30
0
41
1
10
38.0870432211097
20
13.6521624005549
30
0
41
1
10
38.1379038728095
20
13.3199098979638
30
0
41
1
10
38.2710471319463
20
12.6650075314579
30
0
41
1
10
38.3521801028596
20
12.3476233431077
30
0
41
1
10
38.54256573893
20
11.7261522865338
30
0
41
1
10
38.6518443579238
20
11.4221432291297
30
0
41
1
10
38.8994725873702
20
10.823981874686
30
0
41
1
10
39.0378175704116
20
10.5298683384525
30
0
41
1
10
39.269021064928
20
10.094603269309
30
0
41
1
10
39.3502176057087
20
9.95022813048962
30
0
41
1
10
39.5202538040159
20
9.66457019846109
30
0
41
1
10
39.6087760423448
20
9.52378984551586
30
0
41
1
10
39.8850812890036
20
9.10738474529603
30
0
41
1
10
40.0835497053286
20
8.83767743634809
30
0
41
1
10
40.5113331758818
20
8.31347441916097
30
0
41
1
10
40.7406107448234
20
8.05898430517661
30
0
41
1
10
40.9875108305996
20
7.81208421940039
30
0
0
SPLINE
5
181
100
AcDbEntity
8
1
62
256
6
ByLayer
370
18
48
1
60
0
100
AcDbSpline
70
4
71
3
72
16
73
12
40
0
40
0
40
0
40
0
40
0.125
40
0.125
40
0.25
40
0.25
40
0.5
40
0.5
40
0.75
40
0.75
40
1
40
1
40
1
40
1
41
1
10
18.2113248654052
20
-47.6991123363141
30
0
41
1
10
18.2427942539063
20
-47.6991123363141
30
0
41
1
10
18.2734136750628
20
-47.6971731220929
30
0
41
1
10
18.3314372006435
20
-47.690189691897
30
0
41
1
10
18.357828126527
20
-47.685321932856
30
0
41
1
10
18.4315232223568
20
-47.6678096320571
30
0
41
1
10
18.470513220323
20
-47.6531212535631
30
0
41
1
10
18.5371475309551
20
-47.6213036484293
30
0
41
1
10
18.5639668420204
20
-47.6044110998707
30
0
41
1
10
18.6097706080256
20
-47.5693355727224
30
0
41
1
10
18.6286574316483
20
-47.5510829903643
30
0
41
1
10
18.6443375672974
20
-47.532474059346
30
0
0
SPLINE
5
182
100
AcDbEntity
8
SK1
62
256
6
ByLayer
370
18
48
1
60
0
100
AcDbSpline
70
4
71
3
72
26
73
22
40
0
40
0
40
0
40
0
40
0.03125
40
0.03125
40
0.0625
40
0.0625
40
0.09375
40
0.09375
40
0.125
40
0.125
40
0.187500000000002
40
0.187500000000002
40
0.250000000000005
40
0.250000000000005
40
0.375000000000005
40
0.375000000000005
40
0.500000000000005
40
0.500000000000005
40
0.750000000000003
40
0.750000000000003
40
1
40
1
40
1
40
1
41
1
10
-0.394976888875277
20
-6.14029748393355
30
0
41
1
10
-0.388671542343786
20
-6.13475802495361
30
0
41
1
10
-0.38181168823624
20
-6.12988869329271
30
0
41
1
10
-0.366640931323474
20
-6.12297362066238
30
0
41
1
10
-0.358278007449968
20
-6.12106156290517
30
0
41
1
10
-0.341586244187852
20
-6.12220054473741
30
0
41
1
10
-0.333329946064026
20
-6.12530915500184
30
0
41
1
10
-0.31893776182477
20
-6.13458695676923
30
0
41
1
10
-0.312691447115299
20
-6.14059423910976
30
0
41
1
10
-0.296015040763592
20
-6.16032344698257
30
0
41
1
10
-0.287612080656316
20
-6.17550182304001
30
0
41
1
10
-0.273149761403403
20
-6.20664379931858
30
0
41
1
10
-0.267232047922107
20
-6.22260462544978
30
0
41
1
10
-0.251522730309716
20
-6.2710903050544
30
0
41
1
10
-0.243762688270124
20
-6.30429135194927
30
0
41
1
10
-0.23081134795666
20
-6.37110400420673
30
0
41
1
10
-0.225742010447959
20
-6.40454205690907
30
0
41
1
10
-0.213066187746563
20
-6.50489212673548
30
0
41
1
10
-0.207959301007548
20
-6.57183900384277
30
0
41
1
10
-0.201382597553788
20
-6.70573141098552
30
0
41
1
10
-0.200000000000017
20
-6.77268016381564
30
0
41
1
10
-0.200000000000046
20
-6.83961987074574
30
0
0
SPLINE
5
183
100
AcDbEntity
8
SK1
62
256
6
ByLayer
370
18
48
1
60
0
100
AcDbSpline
70
4
71
3
72
26
73
22
40
0
40
0
40
0
40
0
40
0.250000000000002
40
0.250000000000002
40
0.500000000000004
40
0.500000000000004
40
0.625000000000004
40
0.625000000000004
40
0.687500000000003
40
0.687500000000003
40
0.750000000000002
40
0.750000000000002
40
0.812500000000001
40
0.812500000000001
40
0.875000000000001
40
0.875000000000001
40
0.906250000000001
40
0.906250000000001
40
0.9375
40
0.9375
40
1
40
1
40
1
40
1
41
1
10
-1.30710678118652
20
-4.60538005832731
30
0
41
1
10
-1.27841932930969
20
-4.77334296698422
30
0
41
1
10
-1.2456857383676
20
-4.93989365706818
30
0
41
1
10
-1.16755021864046
20
-5.26941198485818
30
0
41
1
10
-1.12236330163586
20
-5.43277058328292
30
0
41
1
10
-1.03736348465083
20
-5.67036427900956
30
0
41
1
10
-1.00612384847767
20
-5.74840054491565
30
0
41
1
10
-0.951664768597595
20
-5.86260604873684
30
0
41
1
10
-0.932227264069724
20
-5.90019356697593
30
0
41
1
10
-0.889529369037234
20
-5.97397527026539
30
0
41
1
10
-0.866205195590851
20
-6.01027560258413
30
0
41
1
10
-0.814627264862736
20
-6.07870671929965
30
0
41
1
10
-0.786411999023983
20
-6.1111217268699
30
0
41
1
10
-0.720237073541199
20
-6.16880021462495
30
0
41
1
10
-0.682055653726991
20
-6.19377677065566
30
0
41
1
10
-0.618548195707575
20
-6.2138485285848
30
0
41
1
10
-0.595883870694593
20
-6.21761323445151
30
0
41
1
10
-0.551151188429884
20
-6.21761557504371
30
0
41
1
10
-0.528825837373546
20
-6.21393440359407
30
0
41
1
10
-0.465027161701187
20
-6.19373948168717
30
0
41
1
10
-0.427781370963942
20
-6.16911732468003
30
0
41
1
10
-0.394976888875277
20
-6.14029748393358
30
0
0
SPLINE
5
184
100
AcDbEntity
8
1
62
256
6
ByLayer
370
18
48
1
60
0
100
AcDbSpline
70
4
71
3
72
12
73
8
40
0
40
0
40
0
40
0
40
0.499999999999999
40
0.499999999999999
40
0.75
40
0.75
40
1
40
1
40
1
40
1
41
1
10
36.1861384096172
20
26.9902142435595
30
0
41
1
10
36.2562003948624
20
28.2390300196599
30
0
41
1
10
36.330427538514
20
29.4564284543085
30
0
41
1
10
36.4474292182482
20
31.2376360423416
30
0
41
1
10
36.4873297098944
20
31.8232777226567
30
0
41
1
10
36.5687750881424
20
32.9797710362943
30
0
41
1
10
36.6103169470595
20
33.5504726795899
30
0
41
1
10
36.6525073622711
20
34.1145910511189
30
0
0
SPLINE
5
185
100
AcDbEntity
8
SK1
62
256
6
ByLayer
370
18
48
1
60
0
100
AcDbSpline
70
4
71
3
72
24
73
20
40
0
40
0
40
0
40
0
40
0.249999999999999
40
0.249999999999999
40
0.499999999999997
40
0.499999999999997
40
0.624999999999997
40
0.624999999999997
40
0.749999999999996
40
0.749999999999996
40
0.812499999999995
40
0.812499999999995
40
0.874999999999994
40
0.874999999999994
40
0.906249999999994
40
0.906249999999994
40
0.937499999999994
40
0.937499999999994
40
1
40
1
40
1
40
1
41
1
10
-0.199999999999989
20
6.83961978441502
30
0
41
1
10
-0.199999999999989
20
6.77266365744987
30
0
41
1
10
-0.201382572616922
20
6.70565659874697
30
0
41
1
10
-0.207977972208141
20
6.57153390296779
30
0
41
1
10
-0.213104017709412
20
6.50438623378952
30
0
41
1
10
-0.225863327175603
20
6.40368599150972
30
0
41
1
10
-0.230960199961146
20
6.37022262623046
30
0
41
1
10
-0.243909322930989
20
6.30365027444694
30
0
41
1
10
-0.251695140322795
20
6.27046679752883
30
0
41
1
10
-0.267365003958787
20
6.22224043421215
30
0
41
1
10
-0.273258792574552
20
6.20639762175682
30
0
41
1
10
-0.287575041851994
20
6.17559244970451
30
0
41
1
10
-0.296025423984304
20
6.16029740280644
30
0
41
1
10
-0.312745147160342
20
6.14053723214866
30
0
41
1
10
-0.318964396069788
20
6.1345692127623
30
0
41
1
10
-0.333306743992097
20
6.12532418760179
30
0
41
1
10
-0.341564173961842
20
6.12220353729685
30
0
41
1
10
-0.366640590815507
20
6.1204872282494
30
0
41
1
10
-0.382359877230186
20
6.12921276185219
30
0
41
1
10
-0.394976888875504
20
6.14029722152827
30
0
0
SPLINE
5
186
100
AcDbEntity
8
SK1
62
256
6
ByLayer
370
18
48
1
60
0
100
AcDbSpline
70
4
71
3
72
24
73
20
40
0
40
0
40
0
40
0
40
0.0549088143397094
40
0.0549088143397094
40
0.109817628679419
40
0.109817628679419
40
0.164726443019128
40
0.164726443019128
40
0.219635257358838
40
0.219635257358838
40
0.32945288603825
40
0.32945288603825
40
0.439270514717662
40
0.439270514717662
40
0.658905772076476
40
0.658905772076476
40
0.878541029435291
40
0.878541029435291
40
1
40
1
40
1
40
1
41
1
10
-0.394976888875249
20
35.4775231381726
30
0
41
1
10
-0.388671475101035
20
35.476699747813
30
0
41
1
10
-0.381811534709072
20
35.4762709949139
30
0
41
1
10
-0.366640616938582
20
35.4768792325638
30
0
41
1
10
-0.358277609119455
20
35.477982327648
30
0
41
1
10
-0.341585771346672
20
35.4821737215533
30
0
41
1
10
-0.333329482090818
20
35.485267549144
30
0
41
1
10
-0.3189373658401
20
35.4921874163471
30
0
41
1
10
-0.312691079617281
20
35.4959734507353
30
0
41
1
10
-0.296014776342418
20
35.5075158416867
30
0
41
1
10
-0.287611873903046
20
35.5153652851928
30
0
41
1
10
-0.273149668289051
20
35.5307592099813
30
0
41
1
10
-0.267232007765102
20
35.5382733023982
30
0
41
1
10
-0.251522836037793
20
35.5604731484622
30
0
41
1
10
-0.24376287465094
20
35.5748469170972
30
0
41
1
10
-0.230811617005969
20
35.6028852486128
30
0
41
1
10
-0.225742287920923
20
35.6164587953366
30
0
41
1
10
-0.219180401880919
20
35.6370515903925
30
0
41
1
10
-0.217099434624743
20
35.6442891408033
30
0
41
1
10
-0.215241858500434
20
35.6514398403067
30
0
0
SPLINE
5
187
100
AcDbEntity
8
SK1
62
256
6
ByLayer
370
13
48
1
60
0
100
AcDbSpline
70
4
71
3
72
84
73
80
40
0
40
0
40
0
40
0
40
0.0073082437800515
40
0.018857557119124
40
0.0246322137886603
40
0.0304068704581966
40
0.0419561837972692
40
0.0535054971363417
40
0.059280153805878
40
0.0650548104754143
40
0.0766041238144869
40
0.0823787804840232
40
0.0881534371535594
40
0.099702750492632
40
0.111252063831705
40
0.122801377170777
40
0.13435069050985
40
0.145900003848922
40
0.151674660518459
40
0.157449317187995
40
0.168998630527067
40
0.18054794386614
40
0.192097257205213
40
0.203646570544285
40
0.215195883883358
40
0.22674519722243
40
0.238294510561503
40
0.249843823900575
40
0.261393137239648
40
0.272942450578721
40
0.284491763917793
40
0.296041077256866
40
0.319139703935011
40
0.330689017274083
40
0.33646367394362
40
0.342238330613156
40
0.353787643952229
40
0.365336957291301
40
0.376886270630374
40
0.388435583969446
40
0.411534210647591
40
0.423083523986664
40
0.434632837325736
40
0.446182150664809
40
0.457731464003882
40
0.480830090682027
40
0.492379404021099
40
0.503928717360172
40
0.515478030699244
40
0.527027344038317
40
0.550125970716462
40
0.561675284055535
40
0.573224597394607
40
0.58477391073368
40
0.596323224072752
40
0.619421850750898
40
0.642520477429043
40
0.654069790768115
40
0.665619104107188
40
0.688717730785333
40
0.711816357463478
40
0.734914984141623
40
0.746464297480696
40
0.758013610819768
40
0.769562924158841
40
0.781112237497913
40
0.804210864176059
40
0.827309490854204
40
0.838858804193276
40
0.850408117532349
40
0.861957430871421
40
0.873506744210494
40
0.896605370888639
40
0.919703997566784
40
0.942802624244929
40
0.954351937584002
40
0.965901250923074
40
0.98899987760122
40
1
40
1
40
1
40
1
41
1
10
-0.394976888875277
20
6.1402972215279
30
0
41
1
10
-0.394976888875277
20
6.22707378727884
30
0
41
1
10
-0.394976888875277
20
6.45050039040561
30
0
41
1
10
-0.394976888875277
20
6.74082520810299
30
0
41
1
10
-0.394976888875277
20
7.01191435047289
30
0
41
1
10
-0.394976888875306
20
7.28212707034135
30
0
41
1
10
-0.394976888875277
20
7.61805779883338
30
0
41
1
10
-0.394976888875277
20
7.95177203759238
30
0
41
1
10
-0.394976888875277
20
8.21754953480055
30
0
41
1
10
-0.394976888875277
20
8.48244127998382
30
0
41
1
10
-0.394976888875249
20
8.74578292736533
30
0
41
1
10
-0.394976888875277
20
9.00799999429159
30
0
41
1
10
-0.394976888875277
20
9.26932873965481
30
0
41
1
10
-0.394976888875277
20
9.59416962249634
30
0
41
1
10
-0.394976888875277
20
9.98138431841269
30
0
41
1
10
-0.394976888875277
20
10.3659294753254
30
0
41
1
10
-0.394976888875277
20
10.7478052942324
30
0
41
1
10
-0.394976888875277
20
11.0637515002382
30
0
41
1
10
-0.394976888875277
20
11.3152803628128
30
0
41
1
10
-0.394976888875277
20
11.5659225593266
30
0
41
1
10
-0.394976888875306
20
11.877435461996
30
0
41
1
10
-0.394976888875277
20
12.2486538786068
30
0
41
1
10
-0.394976888875277
20
12.6172140721258
30
0
41
1
10
-0.394976888875277
20
12.9831179010793
30
0
41
1
10
-0.394976888875277
20
13.3463680945818
30
0
41
1
10
-0.394976888875277
20
13.7069667740321
30
0
41
1
10
-0.394976888875277
20
14.0649158346649
30
0
41
1
10
-0.394976888875277
20
14.4202178800222
30
0
41
1
10
-0.394976888875249
20
14.7728737253137
30
0
41
1
10
-0.394976888875277
20
15.1228861045844
30
0
41
1
10
-0.394976888875277
20
15.4702555452062
30
0
41
1
10
-0.394976888875277
20
15.9299794688332
30
0
41
1
10
-0.394976888875277
20
16.3841710240748
30
0
41
1
10
-0.394976888875277
20
16.7771522077328
30
0
41
1
10
-0.394976888875277
20
17.0004108943221
30
0
41
1
10
-0.394976888875277
20
17.2227901407219
30
0
41
1
10
-0.394976888875277
20
17.4990274869923
30
0
41
1
10
-0.394976888875277
20
17.8279183574374
30
0
41
1
10
-0.394976888875277
20
18.1541693136932
30
0
41
1
10
-0.394976888875277
20
18.5857236375232
30
0
41
1
10
-0.394976888875277
20
19.0117775840375
30
0
41
1
10
-0.394976888875277
20
19.4327531245028
30
0
41
1
10
-0.394976888875277
20
19.7457866731406
30
0
41
1
10
-0.394976888875277
20
20.0561712634218
30
0
41
1
10
-0.394976888875277
20
20.4665491966629
30
0
41
1
10
-0.394976888875277
20
20.8714231892216
30
0
41
1
10
-0.394976888875277
20
21.271168442681
30
0
41
1
10
-0.394976888875277
20
21.568266893189
30
0
41
1
10
-0.394976888875277
20
21.8626976854152
30
0
41
1
10
-0.394976888875277
20
22.2517707343539
30
0
41
1
10
-0.394976888875277
20
22.6353132371553
30
0
41
1
10
-0.394976888875277
20
23.0136599895412
30
0
41
1
10
-0.394976888875277
20
23.294686474333
30
0
41
1
10
-0.394976888875277
20
23.5730166229077
30
0
41
1
10
-0.394976888875277
20
23.9405766044572
30
0
41
1
10
-0.394976888875277
20
24.3931333790251
30
0
41
1
10
-0.394976888875277
20
24.8366207517989
30
0
41
1
10
-0.394976888875277
20
25.1860341634964
30
0
41
1
10
-0.394976888875277
20
25.5317904219061
30
0
41
1
10
-0.394976888875277
20
25.9569955498364
30
0
41
1
10
-0.394976888875277
20
26.4562321573554
30
0
41
1
10
-0.394976888875277
20
26.8629311640439
30
0
41
1
10
-0.394976888875277
20
27.1827656068871
30
0
41
1
10
-0.394976888875277
20
27.4197920834741
30
0
41
1
10
-0.394976888875277
20
27.6539931003945
30
0
41
1
10
-0.394976888875277
20
27.9625243931997
30
0
41
1
10
-0.394976888875277
20
28.3409704969971
30
0
41
1
10
-0.394976888875277
20
28.7098481386985
30
0
41
1
10
-0.394976888875277
20
28.9992339821199
30
0
41
1
10
-0.394976888875277
20
29.2133327662612
30
0
41
1
10
-0.394976888875306
20
29.4245084215696
30
0
41
1
10
-0.394976888875306
20
29.7022003148107
30
0
41
1
10
-0.394976888875277
20
30.0418468835667
30
0
41
1
10
-0.394976888875277
20
30.4375437762783
30
0
41
1
10
-0.394976888875306
20
30.7572080028695
30
0
41
1
10
-0.394976888875306
20
31.0069093628079
30
0
41
1
10
-0.394976888875277
20
31.2525219538402
30
0
41
1
10
-0.394976888875306
20
31.489055385733
30
0
41
1
10
-0.394976888875306
20
31.6612075364179
30
0
41
1
10
-0.394976888875277
20
31.7162702215905
30
0
0
SPLINE
5
188
100
AcDbEntity
8
SK1
62
256
6
ByLayer
370
18
48
1
60
0
100
AcDbSpline
70
4
71
3
72
50
73
46
40
0
40
0
40
0
40
0
40
0.0238077888983802
40
0.046534798034157
40
0.0692618071699337
40
0.0919888163057104
40
0.114715825441487
40
0.16016984371304
40
0.205623861984594
40
0.22835087112037
40
0.251077880256147
40
0.296531898527701
40
0.319258907663477
40
0.341985916799254
40
0.353349421367142
40
0.36471292593503
40
0.387439935070807
40
0.43289395334236
40
0.455620962478137
40
0.478347971613914
40
0.50107498074969
40
0.523801989885467
40
0.546528999021243
40
0.56925600815702
40
0.591983017292797
40
0.614710026428574
40
0.63743703556435
40
0.660164044700127
40
0.682891053835904
40
0.70561806297168
40
0.728345072107457
40
0.751072081243233
40
0.77379909037901
40
0.796526099514787
40
0.819253108650563
40
0.84198011778634
40
0.864707126922117
40
0.887434136057893
40
0.91016114519367
40
0.932888154329447
40
0.955615163465223
40
0.966978668033112
40
0.978342172601
40
0.989705677168889
40
1
40
1
40
1
40
1
41
1
10
-0.394976888875277
20
31.7162696952274
30
0
41
1
10
-0.394976888875277
20
31.77683066669
30
0
41
1
10
-0.394976888875306
20
31.8940851815187
30
0
41
1
10
-0.394976888875306
20
32.0653460684281
30
0
41
1
10
-0.394976888875277
20
32.2307235620492
30
0
41
1
10
-0.394976888875306
20
32.3928928336978
30
0
41
1
10
-0.394976888875277
20
32.6048424706425
30
0
41
1
10
-0.394976888875277
20
32.8615720411722
30
0
41
1
10
-0.394976888875306
20
33.1072907380499
30
0
41
1
10
-0.394976888875306
20
33.2972051581974
30
0
41
1
10
-0.394976888875306
20
33.4826057621145
30
0
41
1
10
-0.394976888875277
20
33.6610954992522
30
0
41
1
10
-0.394976888875277
20
33.8327219580028
30
0
41
1
10
-0.394976888875306
20
33.9370370034869
30
0
41
1
10
-0.394976888875306
20
34.0187437263543
30
0
41
1
10
-0.394976888875306
20
34.0992650937293
30
0
41
1
10
-0.394976888875306
20
34.2370419140072
30
0
41
1
10
-0.394976888875306
20
34.3872241353875
30
0
41
1
10
-0.394976888875277
20
34.5301171783813
30
0
41
1
10
-0.394976888875306
20
34.6335485304197
30
0
41
1
10
-0.394976888875306
20
34.7332186246447
30
0
41
1
10
-0.394976888875306
20
34.829085378746
30
0
41
1
10
-0.394976888875306
20
34.9211049595597
30
0
41
1
10
-0.394976888875306
20
35.0092316945093
30
0
41
1
10
-0.394976888875277
20
35.093418190414
30
0
41
1
10
-0.394976888875306
20
35.1736151059194
30
0
41
1
10
-0.394976888875306
20
35.2497710104042
30
0
41
1
10
-0.394976888875306
20
35.3218323112639
30
0
41
1
10
-0.394976888875306
20
35.3897431016974
30
0
41
1
10
-0.394976888875277
20
35.4534444043634
30
0
41
1
10
-0.394976888875277
20
35.5128761760524
30
0
41
1
10
-0.394976888875306
20
35.5679745134805
30
0
41
1
10
-0.394976888875306
20
35.6186711780713
30
0
41
1
10
-0.394976888875306
20
35.6648981651514
30
0
41
1
10
-0.394976888875306
20
35.7065800027223
30
0
41
1
10
-0.394976888875306
20
35.7436409316581
30
0
41
1
10
-0.394976888875277
20
35.7759991267869
30
0
41
1
10
-0.394976888875306
20
35.8035689891333
30
0
41
1
10
-0.394976888875277
20
35.8262611583919
30
0
41
1
10
-0.394976888875306
20
35.8439794508304
30
0
41
1
10
-0.394976888875306
20
35.854515215742
30
0
41
1
10
-0.394976888875334
20
35.8603562366916
30
0
41
1
10
-0.394976888875306
20
35.8634269812557
30
0
41
1
10
-0.394976888875306
20
35.8651196224221
30
0
41
1
10
-0.394976888875334
20
35.8654194889683
30
0
41
1
10
-0.394976888875277
20
35.8653771372467
30
0
0
SPLINE
5
189
100
AcDbEntity
8
SK1
62
256
6
ByLayer
370
18
48
1
60
0
100
AcDbSpline
70
4
71
3
72
47
73
43
40
0
40
0
40
0
40
0
40
0.0192305951907642
40
0.0419041883226425
40
0.0645777814545209
40
0.0872513745863993
40
0.109924967718278
40
0.132598560850156
40
0.155272153982035
40
0.177945747113913
40
0.200619340245791
40
0.22329293337767
40
0.245966526509548
40
0.268640119641426
40
0.291313712773305
40
0.336660899037062
40
0.35933449216894
40
0.382008085300818
40
0.404681678432697
40
0.427355271564575
40
0.450028864696454
40
0.472702457828332
40
0.49537605096021
40
0.518049644092089
40
0.540723237223967
40
0.563396830355846
40
0.608744016619602
40
0.631417609751481
40
0.64275440631742
40
0.654091202883359
40
0.676764796015237
40
0.699438389147116
40
0.744785575410873
40
0.767459168542751
40
0.790132761674629
40
0.835479947938386
40
0.880827134202143
40
0.903500727334022
40
0.9261743204659
40
0.948847913597778
40
0.971521506729657
40
1
40
1
40
1
40
1
41
1
10
-0.394976888875306
20
-35.8653774846055
30
0
41
1
10
-0.394976888875334
20
-35.8652966761511
30
0
41
1
10
-0.394976888875306
20
-35.8637111815121
30
0
41
1
10
-0.394976888875306
20
-35.8566245309614
30
0
41
1
10
-0.394976888875306
20
-35.8439795171219
30
0
41
1
10
-0.394976888875306
20
-35.8262611416871
30
0
41
1
10
-0.394976888875306
20
-35.8035690347397
30
0
41
1
10
-0.394976888875306
20
-35.7759991408607
30
0
41
1
10
-0.394976888875306
20
-35.7436409390551
30
0
41
1
10
-0.394976888875306
20
-35.7065800550004
30
0
41
1
10
-0.394976888875306
20
-35.6648981389416
30
0
41
1
10
-0.394976888875306
20
-35.6186712456131
30
0
41
1
10
-0.394976888875306
20
-35.5679744983808
30
0
41
1
10
-0.394976888875306
20
-35.512876196401
30
0
41
1
10
-0.394976888875306
20
-35.4336188232989
30
0
41
1
10
-0.394976888875306
20
-35.3458690564809
30
0
41
1
10
-0.394976888875306
20
-35.2497713845769
30
0
41
1
10
-0.394976888875306
20
-35.1736145542893
30
0
41
1
10
-0.394976888875306
20
-35.0934183585436
30
0
41
1
10
-0.394976888875306
20
-35.0092317015021
30
0
41
1
10
-0.394976888875306
20
-34.921104936467
30
0
41
1
10
-0.394976888875277
20
-34.8290853700734
30
0
41
1
10
-0.394976888875306
20
-34.7332186300704
30
0
41
1
10
-0.394976888875306
20
-34.6335485066014
30
0
41
1
10
-0.394976888875306
20
-34.5301171770343
30
0
41
1
10
-0.394976888875306
20
-34.3872241278821
30
0
41
1
10
-0.394976888875306
20
-34.237041913251
30
0
41
1
10
-0.394976888875306
20
-34.0992650911193
30
0
41
1
10
-0.394976888875277
20
-34.0187437151791
30
0
41
1
10
-0.394976888875306
20
-33.9370369896415
30
0
41
1
10
-0.394976888875306
20
-33.8327219500751
30
0
41
1
10
-0.394976888875306
20
-33.6610954954258
30
0
41
1
10
-0.394976888875306
20
-33.4826057619405
30
0
41
1
10
-0.394976888875306
20
-33.2972051548837
30
0
41
1
10
-0.394976888875306
20
-33.1072907219372
30
0
41
1
10
-0.394976888875306
20
-32.8615720410336
30
0
41
1
10
-0.394976888875277
20
-32.6048424687675
30
0
41
1
10
-0.394976888875306
20
-32.3928928338023
30
0
41
1
10
-0.394976888875306
20
-32.2307235504388
30
0
41
1
10
-0.394976888875306
20
-32.0653460663191
30
0
41
1
10
-0.394976888875306
20
-31.8823702237025
30
0
41
1
10
-0.394976888875277
20
-31.752932158352
30
0
41
1
10
-0.394976888875249
20
-31.6800464846028
30
0
0
SPLINE
5
18A
100
AcDbEntity
8
SK1
62
256
6
ByLayer
370
13
48
1
60
0
100
AcDbSpline
70
4
71
3
72
84
73
80
40
0
40
0
40
0
40
0
40
0.0086132583522719
40
0.0317676316847711
40
0.0433448183510207
40
0.0549220050172703
40
0.0780763783497696
40
0.101230751682269
40
0.124385125014768
40
0.135962311681018
40
0.147539498347267
40
0.159116685013517
40
0.170693871679766
40
0.193848245012266
40
0.217002618344765
40
0.228579805011014
40
0.240156991677264
40
0.251734178343514
40
0.263311365009763
40
0.286465738342263
40
0.309620111674762
40
0.332774485007261
40
0.344351671673511
40
0.35592885833976
40
0.379083231672259
40
0.402237605004759
40
0.413814791671008
40
0.425391978337258
40
0.436969165003508
40
0.448546351669757
40
0.471700725002257
40
0.483277911668506
40
0.494855098334756
40
0.506432285001005
40
0.518009471667255
40
0.541163844999754
40
0.552741031666004
40
0.564318218332254
40
0.575895404998503
40
0.587472591664753
40
0.610626964997252
40
0.622204151663501
40
0.633781338329751
40
0.645358524996001
40
0.65693571166225
40
0.662724304995375
40
0.6685128983285
40
0.680090084994749
40
0.691667271660999
40
0.703244458327249
40
0.714821644993499
40
0.726398831659748
40
0.737976018325998
40
0.749553204992247
40
0.755341798325372
40
0.761130391658497
40
0.772707578324747
40
0.784284764990996
40
0.795861951657246
40
0.807439138323495
40
0.819016324989745
40
0.830593511655994
40
0.842170698322244
40
0.853747884988494
40
0.865325071654743
40
0.876902258320993
40
0.888479444987242
40
0.900056631653492
40
0.911633818319742
40
0.923211004985991
40
0.934788191652241
40
0.940576784985366
40
0.946365378318491
40
0.95794256498474
40
0.96951975165099
40
0.975308344984115
40
0.981096938317239
40
0.992674124983489
40
1
40
1
40
1
40
1
41
1
10
-0.394976888875277
20
-31.6800474845856
30
0
41
1
10
-0.394976888875277
20
-31.6368747152876
30
0
41
1
10
-0.394976888875306
20
-31.476579973434
30
0
41
1
10
-0.394976888875306
20
-31.2525219484188
30
0
41
1
10
-0.394976888875306
20
-31.0069093580469
30
0
41
1
10
-0.394976888875306
20
-30.7572080062434
30
0
41
1
10
-0.394976888875306
20
-30.4375437690499
30
0
41
1
10
-0.394976888875306
20
-30.041846883991
30
0
41
1
10
-0.394976888875277
20
-29.7022003135975
30
0
41
1
10
-0.394976888875277
20
-29.4245084222719
30
0
41
1
10
-0.394976888875277
20
-29.2133327647666
30
0
41
1
10
-0.394976888875306
20
-28.9992339808614
30
0
41
1
10
-0.394976888875277
20
-28.7098481402265
30
0
41
1
10
-0.394976888875306
20
-28.3409704949157
30
0
41
1
10
-0.394976888875306
20
-27.9625243956634
30
0
41
1
10
-0.394976888875306
20
-27.6539931014152
30
0
41
1
10
-0.394976888875277
20
-27.4197920823074
30
0
41
1
10
-0.394976888875306
20
-27.1827656093462
30
0
41
1
10
-0.394976888875277
20
-26.8629311663352
30
0
41
1
10
-0.394976888875306
20
-26.4562321610578
30
0
41
1
10
-0.394976888875277
20
-25.9569955457311
30
0
41
1
10
-0.394976888875277
20
-25.5317904302903
30
0
41
1
10
-0.394976888875277
20
-25.1860341652141
30
0
41
1
10
-0.394976888875277
20
-24.8366207519515
30
0
41
1
10
-0.394976888875277
20
-24.3931333811418
30
0
41
1
10
-0.394976888875277
20
-23.9405766122791
30
0
41
1
10
-0.394976888875277
20
-23.5730166298655
30
0
41
1
10
-0.394976888875277
20
-23.294686470862
30
0
41
1
10
-0.394976888875277
20
-23.0136599970687
30
0
41
1
10
-0.394976888875277
20
-22.635313242394
30
0
41
1
10
-0.394976888875277
20
-22.2517707390545
30
0
41
1
10
-0.394976888875277
20
-21.8626976962737
30
0
41
1
10
-0.394976888875277
20
-21.5682668891846
30
0
41
1
10
-0.394976888875277
20
-21.2711684505154
30
0
41
1
10
-0.394976888875277
20
-20.8714231957186
30
0
41
1
10
-0.394976888875306
20
-20.4665492038552
30
0
41
1
10
-0.394976888875277
20
-20.0561712754683
30
0
41
1
10
-0.394976888875277
20
-19.7457866678881
30
0
41
1
10
-0.394976888875306
20
-19.4327531367487
30
0
41
1
10
-0.394976888875277
20
-19.0117775851467
30
0
41
1
10
-0.394976888875277
20
-18.5857236544633
30
0
41
1
10
-0.394976888875277
20
-18.1541693183472
30
0
41
1
10
-0.394976888875277
20
-17.8279183615915
30
0
41
1
10
-0.394976888875277
20
-17.4990274946616
30
0
41
1
10
-0.394976888875277
20
-17.2227901432131
30
0
41
1
10
-0.394976888875277
20
-17.0004108954029
30
0
41
1
10
-0.394976888875277
20
-16.7771522140654
30
0
41
1
10
-0.394976888875277
20
-16.4965191583142
30
0
41
1
10
-0.394976888875277
20
-16.1570713412192
30
0
41
1
10
-0.394976888875277
20
-15.8149837556983
30
0
41
1
10
-0.394976888875277
20
-15.4702555471364
30
0
41
1
10
-0.394976888875277
20
-15.1228859444593
30
0
41
1
10
-0.394976888875277
20
-14.7728739584207
30
0
41
1
10
-0.394976888875277
20
-14.4790383776377
30
0
41
1
10
-0.394976888875277
20
-14.2425643537976
30
0
41
1
10
-0.394976888875277
20
-14.0052089603083
30
0
41
1
10
-0.394976888875277
20
-13.7069667840625
30
0
41
1
10
-0.394976888875277
20
-13.3463680811382
30
0
41
1
10
-0.394976888875277
20
-12.9831178868123
30
0
41
1
10
-0.394976888875277
20
-12.6172140771122
30
0
41
1
10
-0.394976888875277
20
-12.2486538532732
30
0
41
1
10
-0.394976888875277
20
-11.8774354513043
30
0
41
1
10
-0.394976888875277
20
-11.5035558012536
30
0
41
1
10
-0.394976888875277
20
-11.1270131973585
30
0
41
1
10
-0.394976888875277
20
-10.7478049083352
30
0
41
1
10
-0.394976888875277
20
-10.3659293652704
30
0
41
1
10
-0.394976888875277
20
-9.98138463666177
30
0
41
1
10
-0.394976888875277
20
-9.59416972776228
30
0
41
1
10
-0.394976888875277
20
-9.20428399686458
30
0
41
1
10
-0.394976888875277
20
-8.81172783237585
30
0
41
1
10
-0.394976888875277
20
-8.48244125097074
30
0
41
1
10
-0.394976888875277
20
-8.21754949980777
30
0
41
1
10
-0.394976888875249
20
-7.95177199064213
30
0
41
1
10
-0.394976888875277
20
-7.61805782474269
30
0
41
1
10
-0.394976888875277
20
-7.28212710030419
30
0
41
1
10
-0.394976888875277
20
-7.01191434968567
30
0
41
1
10
-0.394976888875277
20
-6.74082518692174
30
0
41
1
10
-0.394976888875277
20
-6.4505004917111
30
0
41
1
10
-0.394976888875277
20
-6.22707397316501
30
0
41
1
10
-0.394976888875277
20
-6.14029748393355
30
0
0
SPLINE
5
18B
100
AcDbEntity
8
1
62
256
6
ByLayer
370
18
48
1
60
0
100
AcDbSpline
70
4
71
3
72
8
73
4
40
0
40
0
40
0
40
0
40
1
40
1
40
1
40
1
41
1
10
41.4026774362496
20
-63.2961901915426
30
0
41
1
10
41.4678456973485
20
-64.2305613795151
30
0
41
1
10
41.5595451151049
20
-65.1644284454296
30
0
41
1
10
41.6765204636946
20
-66.0978152400001
30
0
0
SPLINE
5
18C
100
AcDbEntity
8
1
62
256
6
ByLayer
370
18
48
1
60
0
100
AcDbSpline
70
4
71
3
72
16
73
12
40
0
40
0
40
0
40
0
40
0.25
40
0.25
40
0.5
40
0.5
40
0.75
40
0.75
40
0.875
40
0.875
40
1
40
1
40
1
40
1
41
1
10
13.3556624327026
20
15.5133461831292
30
0
41
1
10
13.3713369564231
20
15.4563493271807
30
0
41
1
10
13.390077598984
20
15.4004782360281
30
0
41
1
10
13.4357910527648
20
15.2917910897777
30
0
41
1
10
13.4628368001564
20
15.2385985420777
30
0
41
1
10
13.5295052401434
20
15.1387566028337
30
0
41
1
10
13.5692020024501
20
15.0918966685263
30
0
41
1
10
13.641729016901
20
15.0372961905784
30
0
41
1
10
13.6686700313504
20
15.0214912132591
30
0
41
1
10
13.7262200642961
20
14.9994509315929
30
0
41
1
10
13.7572518777783
20
14.9931545155676
30
0
41
1
10
13.7886751345948
20
14.9931545155676
30
0
0
SPLINE
5
18D
100
AcDbEntity
8
1
62
256
6
ByLayer
370
18
48
1
60
0
100
AcDbSpline
70
4
71
3
72
16
73
12
40
0
40
0
40
0
40
0
40
0.125
40
0.125
40
0.25
40
0.25
40
0.5
40
0.5
40
0.75
40
0.75
40
1
40
1
40
1
40
1
41
1
10
13.7886751345948
20
-14.9931545155677
30
0
41
1
10
13.7572057460937
20
-14.9931545155677
30
0
41
1
10
13.7265863249373
20
-14.9993270329223
30
0
41
1
10
13.6685627993565
20
-15.0215159830933
30
0
41
1
10
13.6421718734731
20
-15.0369693753062
30
0
41
1
10
13.5684767776432
20
-15.0924295001841
30
0
41
1
10
13.5294867796771
20
-15.1387838835226
30
0
41
1
10
13.4628524690449
20
-15.2385754420444
30
0
41
1
10
13.4360331579796
20
-15.2912821270175
30
0
41
1
10
13.3902293919744
20
-15.4000512474235
30
0
41
1
10
13.3713425683518
20
-15.4563289206726
30
0
41
1
10
13.3556624327026
20
-15.5133461831291
30
0
0
SPLINE
5
18E
100
AcDbEntity
8
SK1
62
256
6
ByLayer
370
18
48
1
60
0
100
AcDbSpline
70
4
71
3
72
22
73
18
40
0
40
0
40
0
40
0
40
0.232916063776808
40
0.232916063776808
40
0.424687047832597
40
0.424687047832597
40
0.616458031888387
40
0.616458031888387
40
0.712343523916282
40
0.712343523916282
40
0.808229015944176
40
0.808229015944176
40
0.856171761958132
40
0.856171761958132
40
0.904114507972088
40
0.904114507972088
40
1
40
1
40
1
40
1
41
1
10
-0.209505689011962
20
-35.6766081981583
30
0
41
1
10
-0.212525781768989
20
-35.661291233842
30
0
41
1
10
-0.21644488818464
20
-35.6455926719887
30
0
41
1
10
-0.225863648826817
20
-35.616114544839
30
0
41
1
10
-0.230960514215383
20
-35.6025224313216
30
0
41
1
10
-0.243909555635241
20
-35.5745706733976
30
0
41
1
10
-0.251695294090041
20
-35.5601957054633
30
0
41
1
10
-0.267365014533851
20
-35.5381024431321
30
0
41
1
10
-0.273258751589793
20
-35.5306388063928
30
0
41
1
10
-0.287574896861344
20
-35.5154087724191
30
0
41
1
10
-0.296025217598299
20
-35.5075032524917
30
0
41
1
10
-0.312744846045945
20
-35.4959387739217
30
0
41
1
10
-0.318964047572223
20
-35.4921743471967
30
0
41
1
10
-0.333306356179179
20
-35.4852786897173
30
0
41
1
10
-0.341563767889966
20
-35.4821798260205
30
0
41
1
10
-0.366640249432521
20
-35.475880941168
30
0
41
1
10
-0.382359760725507
20
-35.4758754263809
30
0
41
1
10
-0.394976888875533
20
-35.4775230333216
30
0
0
SPLINE
5
18F
100
AcDbEntity
8
SK1
62
256
6
ByLayer
370
18
48
1
60
0
100
AcDbSpline
70
4
71
3
72
316
73
312
40
0
40
0
40
0
40
0
40
0.0001408032334291
40
0.003660938553523
40
0.0071810738736168
40
0.0107012091937107
40
0.0142213445138046
40
0.0177414798338984
40
0.0212616151539923
40
0.0247817504740862
40
0.02830188579418
40
0.0318220211142739
40
0.0353421564343678
40
0.0423824270745555
40
0.0459025623946494
40
0.0494226977147432
40
0.0529428330348371
40
0.056462968354931
40
0.0599831036750248
40
0.0635032389951187
40
0.0670233743152126
40
0.0705435096353064
40
0.0740636449554003
40
0.0775837802754942
40
0.0846240509156819
40
0.0881441862357758
40
0.0899042538958227
40
0.0916643215558696
40
0.0951844568759635
40
0.0987045921960574
40
0.105744862836245
40
0.109264998156339
40
0.112785133476433
40
0.119825404116621
40
0.126865674756808
40
0.130385810076902
40
0.133905945396996
40
0.13742608071709
40
0.140946216037184
40
0.147986486677371
40
0.155026757317559
40
0.158546892637653
40
0.162067027957747
40
0.169107298597935
40
0.176147569238122
40
0.18318783987831
40
0.186707975198404
40
0.190228110518498
40
0.193748245838592
40
0.197268381158686
40
0.204308651798873
40
0.211348922439061
40
0.214869057759155
40
0.218389193079249
40
0.221909328399343
40
0.225429463719437
40
0.232469734359624
40
0.239510004999812
40
0.24655027564
40
0.250070410960094
40
0.253590546280188
40
0.260630816920375
40
0.267671087560563
40
0.271191222880657
40
0.274711358200751
40
0.278231493520845
40
0.281751628840939
40
0.288791899481126
40
0.29231203480122
40
0.295832170121314
40
0.299352305441408
40
0.302872440761502
40
0.309912711401689
40
0.313432846721783
40
0.316952982041877
40
0.320473117361971
40
0.323993252682065
40
0.331033523322253
40
0.334553658642346
40
0.33807379396244
40
0.341593929282534
40
0.345114064602628
40
0.346874132262675
40
0.348634199922722
40
0.352154335242816
40
0.35567447056291
40
0.359194605883004
40
0.362714741203097
40
0.366234876523191
40
0.369755011843285
40
0.373275147163379
40
0.375035214823426
40
0.376795282483473
40
0.380315417803567
40
0.383835553123661
40
0.387355688443755
40
0.390875823763848
40
0.394395959083942
40
0.397916094404036
40
0.40143622972413
40
0.404956365044224
40
0.408476500364318
40
0.411996635684412
40
0.415516771004505
40
0.419036906324599
40
0.422557041644693
40
0.426077176964787
40
0.429597312284881
40
0.431357379944928
40
0.433117447604975
40
0.436637582925069
40
0.440157718245162
40
0.44191778590521
40
0.443677853565256
40
0.44719798888535
40
0.450718124205444
40
0.452478191865491
40
0.454238259525538
40
0.455998327185585
40
0.457758394845632
40
0.459518462505679
40
0.461278530165726
40
0.462158563995749
40
0.463038597825773
40
0.46479866548582
40
0.465678699315843
40
0.466558733145866
40
0.468318800805913
40
0.47007886846596
40
0.470958902295984
40
0.471838936126007
40
0.472718969956031
40
0.473599003786054
40
0.475359071446101
40
0.476239105276125
40
0.477119139106148
40
0.477999172936172
40
0.478879206766195
40
0.479759240596218
40
0.480639274426242
40
0.482399342086289
40
0.483279375916312
40
0.484159409746336
40
0.485919477406383
40
0.486799511236406
40
0.48767954506643
40
0.488559578896453
40
0.489439612726477
40
0.491199680386524
40
0.492959748046571
40
0.493839781876594
40
0.494719815706617
40
0.495599849536641
40
0.496479883366664
40
0.498239951026711
40
0.499119984856735
40
0.500000018686758
40
0.500880052516782
40
0.501760086346805
40
0.503520154006852
40
0.504400187836876
40
0.505280221666899
40
0.506160255496922
40
0.507040289326946
40
0.508800356986993
40
0.51056042464704
40
0.511440458477063
40
0.512320492307087
40
0.51320052613711
40
0.514080559967134
40
0.515840627627181
40
0.517600695287228
40
0.519360762947275
40
0.521120830607322
40
0.522880898267368
40
0.523760932097392
40
0.524640965927415
40
0.525520999757439
40
0.526401033587462
40
0.527281067417486
40
0.528161101247509
40
0.529041135077533
40
0.529921168907556
40
0.531681236567603
40
0.53344130422765
40
0.534321338057673
40
0.535201371887697
40
0.536961439547744
40
0.537841473377767
40
0.538721507207791
40
0.540481574867838
40
0.542241642527885
40
0.544001710187932
40
0.545761777847979
40
0.547521845508025
40
0.549281913168072
40
0.552802048488166
40
0.55632218380826
40
0.558082251468307
40
0.559842319128354
40
0.563362454448448
40
0.566882589768542
40
0.568642657428589
40
0.570402725088636
40
0.573922860408729
40
0.575682928068776
40
0.577442995728823
40
0.580963131048917
40
0.584483266369011
40
0.588003401689105
40
0.591523537009199
40
0.595043672329293
40
0.59680373998934
40
0.598563807649387
40
0.60208394296948
40
0.605604078289574
40
0.609124213609668
40
0.612644348929762
40
0.616164484249856
40
0.61968461956995
40
0.623204754890044
40
0.626724890210137
40
0.630245025530231
40
0.633765160850325
40
0.637285296170419
40
0.640805431490513
40
0.647845702130701
40
0.651365837450794
40
0.653125905110841
40
0.654885972770888
40
0.658406108090982
40
0.661926243411076
40
0.66544637873117
40
0.668966514051264
40
0.676006784691452
40
0.679526920011545
40
0.683047055331639
40
0.686567190651733
40
0.690087325971827
40
0.697127596612015
40
0.700647731932109
40
0.704167867252203
40
0.707688002572296
40
0.71120813789239
40
0.718248408532578
40
0.721768543852672
40
0.725288679172766
40
0.72880881449286
40
0.732328949812953
40
0.739369220453141
40
0.746409491093329
40
0.749929626413423
40
0.753449761733517
40
0.760490032373704
40
0.767530303013892
40
0.77457057365408
40
0.778090708974174
40
0.781610844294268
40
0.785130979614362
40
0.788651114934455
40
0.795691385574643
40
0.802731656214831
40
0.806251791534925
40
0.809771926855019
40
0.813292062175112
40
0.816812197495206
40
0.823852468135394
40
0.830892738775582
40
0.837933009415769
40
0.841453144735863
40
0.844973280055957
40
0.852013550696145
40
0.859053821336333
40
0.862573956656427
40
0.86609409197652
40
0.869614227296614
40
0.873134362616708
40
0.880174633256896
40
0.887214903897084
40
0.890735039217177
40
0.894255174537271
40
0.901295445177459
40
0.904815580497553
40
0.908335715817647
40
0.910095783477694
40
0.911855851137741
40
0.915375986457834
40
0.922416257098022
40
0.925936392418116
40
0.92945652773821
40
0.932976663058304
40
0.936496798378398
40
0.940016933698492
40
0.943537069018586
40
0.947057204338679
40
0.950577339658773
40
0.954097474978867
40
0.957617610298961
40
0.961137745619055
40
0.964657880939149
40
0.968178016259242
40
0.971698151579336
40
0.97521828689943
40
0.978738422219524
40
0.982258557539618
40
0.985778692859712
40
0.989298828179806
40
0.9928189634999
40
0.996339098819994
40
0.999859234140087
40
1
40
1
40
1
40
1
41
1
10
-2.19999999999999
20
-35.9983615679548
30
0
41
1
10
-2.19999999999999
20
-35.9981610466044
30
0
41
1
10
-2.19999999999999
20
-35.992912075134
30
0
41
1
10
-2.20000000000002
20
-35.9808152416011
30
0
41
1
10
-2.20000000000002
20
-35.9580338304475
30
0
41
1
10
-2.20000000000002
20
-35.9303574291782
30
0
41
1
10
-2.20000000000002
20
-35.8978764151195
30
0
41
1
10
-2.20000000000005
20
-35.8606772530753
30
0
41
1
10
-2.20000000000002
20
-35.8188423246858
30
0
41
1
10
-2.20000000000002
20
-35.7724483817261
30
0
41
1
10
-2.20000000000002
20
-35.7215711644677
30
0
41
1
10
-2.20000000000002
20
-35.6662795296584
30
0
41
1
10
-2.20000000000002
20
-35.5867654490801
30
0
41
1
10
-2.20000000000002
20
-35.4986806355994
30
0
41
1
10
-2.20000000000002
20
-35.4022826774254
30
0
41
1
10
-2.19999999999999
20
-35.3258752465304
30
0
41
1
10
-2.20000000000002
20
-35.2454181739629
30
0
41
1
10
-2.20000000000002
20
-35.1609605893935
30
0
41
1
10
-2.20000000000002
20
-35.0725532191378
30
0
41
1
10
-2.20000000000002
20
-34.9802435989444
30
0
41
1
10
-2.20000000000002
20
-34.8840776031988
30
0
41
1
10
-2.20000000000002
20
-34.7840992432799
30
0
41
1
10
-2.20000000000005
20
-34.680350907395
30
0
41
1
10
-2.20000000000002
20
-34.5370512371172
30
0
41
1
10
-2.20000000000002
20
-34.3863617301769
30
0
41
1
10
-2.20000000000002
20
-34.2481903083142
30
0
41
1
10
-2.20000000000002
20
-34.1674461612967
30
0
41
1
10
-2.20000000000002
20
-34.0855143550287
30
0
41
1
10
-2.20000000000002
20
-33.9808790950557
30
0
41
1
10
-2.20000000000005
20
-33.8087856219281
30
0
41
1
10
-2.20000000000002
20
-33.6297179032972
30
0
41
1
10
-2.20000000000002
20
-33.4438214187487
30
0
41
1
10
-2.20000000000002
20
-33.2534024436425
30
0
41
1
10
-2.20000000000002
20
-33.0069583008311
30
0
41
1
10
-2.20000000000002
20
-32.7494770362055
30
0
41
1
10
-2.20000000000002
20
-32.5369772815204
30
0
41
1
10
-2.20000000000002
20
-32.3743609793662
30
0
41
1
10
-2.19999999999999
20
-32.2085294017454
30
0
41
1
10
-2.20000000000002
20
-31.9831685440602
30
0
41
1
10
-2.20000000000002
20
-31.6935278618122
30
0
41
1
10
-2.20000000000002
20
-31.393453387608
30
0
41
1
10
-2.19999999999999
20
-31.1472201940908
30
0
41
1
10
-2.20000000000002
20
-30.8968896882167
30
0
41
1
10
-2.20000000000002
20
-30.5763259617257
30
0
41
1
10
-2.20000000000002
20
-30.1795721887094
30
0
41
1
10
-2.19999999999999
20
-29.8389753322122
30
0
41
1
10
-2.20000000000002
20
-29.5605910235313
30
0
41
1
10
-2.20000000000002
20
-29.3488540567688
30
0
41
1
10
-2.20000000000002
20
-29.1341864918563
30
0
41
1
10
-2.20000000000002
20
-28.8440802938742
30
0
41
1
10
-2.19999999999999
20
-28.4741740106829
30
0
41
1
10
-2.19999999999999
20
-28.0946721145145
30
0
41
1
10
-2.20000000000002
20
-27.7853718293799
30
0
41
1
10
-2.20000000000002
20
-27.5505474706334
30
0
41
1
10
-2.20000000000002
20
-27.312889474477
30
0
41
1
10
-2.20000000000002
20
-26.9922551600878
30
0
41
1
10
-2.20000000000002
20
-26.5844139299712
30
0
41
1
10
-2.19999999999999
20
-26.0838374470222
30
0
41
1
10
-2.19999999999999
20
-25.6574288628695
30
0
41
1
10
-2.19999999999999
20
-25.3107955671813
30
0
41
1
10
-2.20000000000002
20
-24.9604927323371
30
0
41
1
10
-2.19999999999999
20
-24.5157343100948
30
0
41
1
10
-2.19999999999999
20
-24.0618724924846
30
0
41
1
10
-2.20000000000002
20
-23.6933606344229
30
0
41
1
10
-2.19999999999999
20
-23.4142578666451
30
0
41
1
10
-2.19999999999999
20
-23.1324477597272
30
0
41
1
10
-2.19999999999999
20
-22.7531069193881
30
0
41
1
10
-2.19999999999999
20
-22.3683458387384
30
0
41
1
10
-2.19999999999999
20
-21.9782353365019
30
0
41
1
10
-2.19999999999999
20
-21.6829615822886
30
0
41
1
10
-2.19999999999999
20
-21.385007393
30
0
41
1
10
-2.20000000000002
20
-20.9841753387679
30
0
41
1
10
-2.19999999999999
20
-20.5779672218009
30
0
41
1
10
-2.19999999999999
20
-20.1664517496922
30
0
41
1
10
-2.19999999999999
20
-19.8551416115087
30
0
41
1
10
-2.19999999999999
20
-19.5411672873635
30
0
41
1
10
-2.19999999999999
20
-19.1189951390116
30
0
41
1
10
-2.20000000000002
20
-18.6914694264878
30
0
41
1
10
-2.19999999999999
20
-18.2586575717451
30
0
41
1
10
-2.19999999999999
20
-17.9313816381119
30
0
41
1
10
-2.19999999999999
20
-17.6014470745968
30
0
41
1
10
-2.19999999999999
20
-17.3242802479083
30
0
41
1
10
-2.19999999999999
20
-17.1012276273506
30
0
41
1
10
-2.19999999999999
20
-16.8772884036232
30
0
41
1
10
-2.19999999999999
20
-16.5956885399058
30
0
41
1
10
-2.20000000000002
20
-16.2551149485891
30
0
41
1
10
-2.19999999999999
20
-15.9118789297515
30
0
41
1
10
-2.19999999999999
20
-15.5659787170004
30
0
41
1
10
-2.19999999999999
20
-15.2174125550855
30
0
41
1
10
-2.19999999999999
20
-14.8661782384876
30
0
41
1
10
-2.19999999999999
20
-14.5712504744562
30
0
41
1
10
-2.19999999999999
20
-14.3339831373198
30
0
41
1
10
-2.19999999999999
20
-14.0958244492637
30
0
41
1
10
-2.19999999999999
20
-13.7964372758264
30
0
41
1
10
-2.19999999999999
20
-13.434500413039
30
0
41
1
10
-2.19999999999999
20
-13.0698795474479
30
0
41
1
10
-2.19999999999999
20
-12.7025705750891
30
0
41
1
10
-2.19999999999996
20
-12.332568976433
30
0
41
1
10
-2.19999999999999
20
-11.9598708451068
30
0
41
1
10
-2.19999999999999
20
-11.5844709045752
30
0
41
1
10
-2.19999999999999
20
-11.2063650265909
30
0
41
1
10
-2.19999999999999
20
-10.8255477577392
30
0
41
1
10
-2.19999999999999
20
-10.4420146592236
30
0
41
1
10
-2.19999999999999
20
-10.055760504374
30
0
41
1
10
-2.19999999999999
20
-9.66678080103017
30
0
41
1
10
-2.19999999999999
20
-9.27507092999488
30
0
41
1
10
-2.19999999999999
20
-8.88062693308251
30
0
41
1
10
-2.19999999999999
20
-8.54963206906427
30
0
41
1
10
-2.19999999999999
20
-8.28348540775056
30
0
41
1
10
-2.19999999999999
20
-8.01642492609366
30
0
41
1
10
-2.19999999999999
20
-7.68085996867353
30
0
41
1
10
-2.19999999999999
20
-7.34301151998699
30
0
41
1
10
-2.19999999999999
20
-7.0713846512281
30
0
41
1
10
-2.19999999999999
20
-6.79884546868331
30
0
41
1
10
-2.19999999999996
20
-6.456433316795
30
0
41
1
10
-2.19999999999999
20
-6.11175147173765
30
0
41
1
10
-2.19999999999999
20
-5.83467460016635
30
0
41
1
10
-2.19999999999999
20
-5.62618085956723
30
0
41
1
10
-2.19999999999999
20
-5.41701393923276
30
0
41
1
10
-2.19999999999999
20
-5.20717747481996
30
0
41
1
10
-2.19999999999999
20
-4.99667509827836
30
0
41
1
10
-2.19999999999999
20
-4.82069760714901
30
0
41
1
10
-2.19999999999999
20
-4.67960211602713
30
0
41
1
10
-2.19999999999999
20
-4.53828873143234
30
0
41
1
10
-2.19999999999996
20
-4.39662511608438
30
0
41
1
10
-2.19999999999999
20
-4.2546657616511
30
0
41
1
10
-2.19999999999999
20
-4.11249340828527
30
0
41
1
10
-2.19999999999999
20
-3.93436102607177
30
0
41
1
10
-2.19999999999999
20
-3.75570803460607
30
0
41
1
10
-2.19999999999999
20
-3.61249538774427
30
0
41
1
10
-2.19999999999999
20
-3.50492662159445
30
0
41
1
10
-2.19999999999999
20
-3.39720740223606
30
0
41
1
10
-2.19999999999999
20
-3.25339347207256
30
0
41
1
10
-2.19999999999999
20
-3.10925640073572
30
0
41
1
10
-2.19999999999999
20
-2.96486450652625
30
0
41
1
10
-2.19999999999999
20
-2.8564227422421
30
0
41
1
10
-2.19999999999999
20
-2.74784323707018
30
0
41
1
10
-2.19999999999999
20
-2.63912850340498
30
0
41
1
10
-2.19999999999999
20
-2.53028147448529
30
0
41
1
10
-2.19999999999999
20
-2.38499085138605
30
0
41
1
10
-2.19999999999996
20
-2.23941432408864
30
0
41
1
10
-2.19999999999999
20
-2.09363388662032
30
0
41
1
10
-2.19999999999999
20
-1.947699848149
30
0
41
1
10
-2.19999999999999
20
-1.8015079794429
30
0
41
1
10
-2.19999999999999
20
-1.65514768405933
30
0
41
1
10
-2.19999999999999
20
-1.54527066672026
30
0
41
1
10
-2.19999999999999
20
-1.43530119545
30
0
41
1
10
-2.19999999999999
20
-1.28857137427264
30
0
41
1
10
-2.19999999999999
20
-1.1049262291302
30
0
41
1
10
-2.19999999999999
20
-0.921048414140927
30
0
41
1
10
-2.19999999999999
20
-0.773855197893681
30
0
41
1
10
-2.19999999999999
20
-0.663399769480293
30
0
41
1
10
-2.19999999999999
20
-0.552900689625858
30
0
41
1
10
-2.19999999999999
20
-0.405533036679543
30
0
41
1
10
-2.19999999999999
20
-0.25806604329776
30
0
41
1
10
-2.19999999999999
20
-0.110609814521041
30
0
41
1
10
-2.19999999999999
20
-7.9678557E-09
30
0
41
1
10
-2.19999999999999
20
0.110609798282297
30
0
41
1
10
-2.19999999999999
20
0.258066027197003
30
0
41
1
10
-2.19999999999999
20
0.405533020604224
30
0
41
1
10
-2.19999999999999
20
0.552900673038835
30
0
41
1
10
-2.19999999999996
20
0.663399753590824
30
0
41
1
10
-2.19999999999999
20
0.773855181921306
30
0
41
1
10
-2.19999999999999
20
0.921048397975113
30
0
41
1
10
-2.19999999999999
20
1.10492621249188
30
0
41
1
10
-2.19999999999999
20
1.28857135826542
30
0
41
1
10
-2.19999999999999
20
1.43530118015903
30
0
41
1
10
-2.19999999999999
20
1.5452706495837
30
0
41
1
10
-2.19999999999996
20
1.65514766840653
30
0
41
1
10
-2.19999999999999
20
1.80150795480097
30
0
41
1
10
-2.19999999999999
20
1.98422944343233
30
0
41
1
10
-2.19999999999999
20
2.20303663065533
30
0
41
1
10
-2.19999999999999
20
2.42136740345268
30
0
41
1
10
-2.19999999999999
20
2.63919374722943
30
0
41
1
10
-2.19999999999999
20
2.8202855732074
30
0
41
1
10
-2.19999999999999
20
2.96486450366427
30
0
41
1
10
-2.19999999999999
20
3.07316631132792
30
0
41
1
10
-2.20000000000002
20
3.18132544112754
30
0
41
1
10
-2.19999999999999
20
3.28933976181253
30
0
41
1
10
-2.19999999999999
20
3.39720741056175
30
0
41
1
10
-2.19999999999999
20
3.50492661910167
30
0
41
1
10
-2.19999999999999
20
3.61249538417184
30
0
41
1
10
-2.19999999999996
20
3.75570803581107
30
0
41
1
10
-2.19999999999999
20
3.93436102619759
30
0
41
1
10
-2.19999999999999
20
4.1124933975407
30
0
41
1
10
-2.19999999999999
20
4.25466574513038
30
0
41
1
10
-2.19999999999999
20
4.39662510037121
30
0
41
1
10
-2.19999999999999
20
4.53828872405646
30
0
41
1
10
-2.19999999999996
20
4.67960211600027
30
0
41
1
10
-2.19999999999999
20
4.82069761094564
30
0
41
1
10
-2.19999999999999
20
4.99667509392859
30
0
41
1
10
-2.19999999999999
20
5.20717745478146
30
0
41
1
10
-2.19999999999999
20
5.41701391929837
30
0
41
1
10
-2.19999999999999
20
5.6261808540489
30
0
41
1
10
-2.19999999999999
20
5.83467460689428
30
0
41
1
10
-2.19999999999999
20
6.11175146674469
30
0
41
1
10
-2.19999999999999
20
6.45643328069664
30
0
41
1
10
-2.19999999999999
20
6.79884546670326
30
0
41
1
10
-2.19999999999999
20
7.07138465930166
30
0
41
1
10
-2.19999999999999
20
7.34301151247959
30
0
41
1
10
-2.19999999999999
20
7.68085993160076
30
0
41
1
10
-2.19999999999999
20
8.01642493811289
30
0
41
1
10
-2.19999999999999
20
8.28348543659979
30
0
41
1
10
-2.19999999999999
20
8.54963209943355
30
0
41
1
10
-2.19999999999999
20
8.81444106406229
30
0
41
1
10
-2.19999999999999
20
9.07784991102179
30
0
41
1
10
-2.19999999999999
20
9.34034669943736
30
0
41
1
10
-2.19999999999999
20
9.66678089901879
30
0
41
1
10
-2.19999999999999
20
10.0557602279918
30
0
41
1
10
-2.19999999999999
20
10.4420145743896
30
0
41
1
10
-2.19999999999999
20
10.8255481020131
30
0
41
1
10
-2.19999999999999
20
11.1429046192032
30
0
41
1
10
-2.20000000000002
20
11.3954184217635
30
0
41
1
10
-2.19999999999999
20
11.6470295372759
30
0
41
1
10
-2.19999999999999
20
11.9598708409375
30
0
41
1
10
-2.19999999999999
20
12.3325690014507
30
0
41
1
10
-2.19999999999999
20
12.7025705743373
30
0
41
1
10
-2.19999999999999
20
13.0698795558119
30
0
41
1
10
-2.19999999999999
20
13.434500435816
30
0
41
1
10
-2.19999999999999
20
13.7964372435234
30
0
41
1
10
-2.20000000000002
20
14.1556932924213
30
0
41
1
10
-2.19999999999999
20
14.5122728269276
30
0
41
1
10
-2.19999999999999
20
14.866177969354
30
0
41
1
10
-2.19999999999999
20
15.2174126385948
30
0
41
1
10
-2.19999999999999
20
15.5659788017488
30
0
41
1
10
-2.19999999999999
20
16.0271656941318
30
0
41
1
10
-2.19999999999999
20
16.4830628393223
30
0
41
1
10
-2.19999999999999
20
16.8772884002214
30
0
41
1
10
-2.19999999999999
20
17.1012276238877
30
0
41
1
10
-2.19999999999999
20
17.3242802462532
30
0
41
1
10
-2.19999999999999
20
17.601447067755
30
0
41
1
10
-2.19999999999999
20
17.9313816332313
30
0
41
1
10
-2.20000000000002
20
18.2586575687845
30
0
41
1
10
-2.19999999999996
20
18.6914694093052
30
0
41
1
10
-2.19999999999999
20
19.1189951374153
30
0
41
1
10
-2.19999999999999
20
19.5411672734658
30
0
41
1
10
-2.19999999999999
20
19.8551416161418
30
0
41
1
10
-2.19999999999999
20
20.1664517398789
30
0
41
1
10
-2.19999999999999
20
20.5779672141207
30
0
41
1
10
-2.19999999999999
20
20.9841753324851
30
0
41
1
10
-2.19999999999999
20
21.3850073833771
30
0
41
1
10
-2.19999999999999
20
21.6829615863147
30
0
41
1
10
-2.19999999999999
20
21.9782353272421
30
0
41
1
10
-2.19999999999999
20
22.3683458335126
30
0
41
1
10
-2.19999999999999
20
22.7531069145399
30
0
41
1
10
-2.20000000000002
20
23.1324477508894
30
0
41
1
10
-2.19999999999999
20
23.4142578696929
30
0
41
1
10
-2.19999999999999
20
23.6933606289522
30
0
41
1
10
-2.19999999999999
20
24.0618724844523
30
0
41
1
10
-2.20000000000002
20
24.5157343073517
30
0
41
1
10
-2.19999999999999
20
24.9604927320777
30
0
41
1
10
-2.19999999999999
20
25.310795566268
30
0
41
1
10
-2.19999999999999
20
25.657428854263
30
0
41
1
10
-2.19999999999999
20
26.0838374506718
30
0
41
1
10
-2.19999999999999
20
26.5844139266108
30
0
41
1
10
-2.19999999999999
20
26.99225515776
30
0
41
1
10
-2.19999999999999
20
27.3128894716318
30
0
41
1
10
-2.19999999999999
20
27.5505474715739
30
0
41
1
10
-2.20000000000002
20
27.7853718286965
30
0
41
1
10
-2.19999999999999
20
28.0946721119014
30
0
41
1
10
-2.19999999999999
20
28.4741740127019
30
0
41
1
10
-2.20000000000002
20
28.8440802923645
30
0
41
1
10
-2.20000000000002
20
29.1341864928692
30
0
41
1
10
-2.19999999999999
20
29.3488540584265
30
0
41
1
10
-2.19999999999999
20
29.5605910229123
30
0
41
1
10
-2.19999999999999
20
29.8389753334019
30
0
41
1
10
-2.19999999999999
20
30.1795721880179
30
0
41
1
10
-2.20000000000002
20
30.5763259691742
30
0
41
1
10
-2.19999999999999
20
30.8968896848934
30
0
41
1
10
-2.20000000000002
20
31.1472201983194
30
0
41
1
10
-2.20000000000002
20
31.3934533930513
30
0
41
1
10
-2.20000000000002
20
31.6935278654741
30
0
41
1
10
-2.19999999999999
20
31.9831685438612
30
0
41
1
10
-2.19999999999999
20
32.2085294030258
30
0
41
1
10
-2.20000000000002
20
32.3743609910527
30
0
41
1
10
-2.20000000000002
20
32.5369772821028
30
0
41
1
10
-2.20000000000002
20
32.7494770380994
30
0
41
1
10
-2.20000000000002
20
33.0069583004128
30
0
41
1
10
-2.19999999999999
20
33.2534024597306
30
0
41
1
10
-2.19999999999999
20
33.4438214227633
30
0
41
1
10
-2.20000000000002
20
33.6297179034793
30
0
41
1
10
-2.19999999999999
20
33.808785625455
30
0
41
1
10
-2.19999999999999
20
33.9808791024374
30
0
41
1
10
-2.19999999999999
20
34.0855143686358
30
0
41
1
10
-2.20000000000002
20
34.167446173259
30
0
41
1
10
-2.20000000000002
20
34.2481903116662
30
0
41
1
10
-2.20000000000002
20
34.386361730786
30
0
41
1
10
-2.19999999999999
20
34.5370512446322
30
0
41
1
10
-2.20000000000002
20
34.6803509079355
30
0
41
1
10
-2.20000000000002
20
34.7840992673662
30
0
41
1
10
-2.20000000000002
20
34.8840775983924
30
0
41
1
10
-2.20000000000002
20
34.9802436065342
30
0
41
1
10
-2.20000000000002
20
35.0725532425695
30
0
41
1
10
-2.19999999999999
20
35.1609605897894
30
0
41
1
10
-2.19999999999999
20
35.2454179865413
30
0
41
1
10
-2.20000000000002
20
35.325875805444
30
0
41
1
10
-2.20000000000002
20
35.4022823040987
30
0
41
1
10
-2.20000000000002
20
35.4745835494886
30
0
41
1
10
-2.20000000000002
20
35.5427232831041
30
0
41
1
10
-2.20000000000002
20
35.6066420981761
30
0
41
1
10
-2.20000000000002
20
35.6662795049964
30
0
41
1
10
-2.20000000000002
20
35.7215711806023
30
0
41
1
10
-2.20000000000002
20
35.7724483138314
30
0
41
1
10
-2.20000000000002
20
35.8188423507705
30
0
41
1
10
-2.20000000000002
20
35.8606772012187
30
0
41
1
10
-2.20000000000002
20
35.8978764072394
30
0
41
1
10
-2.20000000000002
20
35.930357415585
30
0
41
1
10
-2.20000000000005
20
35.9580337844423
30
0
41
1
10
-2.20000000000002
20
35.9808152586155
30
0
41
1
10
-2.19999999999999
20
35.9929119724153
30
0
41
1
10
-2.19999999999999
20
35.9981609600662
30
0
41
1
10
-2.19999999999999
20
35.9983614313521
30
0
0
SPLINE
5
190
100
AcDbEntity
8
SK1
62
256
6
ByLayer
370
18
48
1
60
0
100
AcDbSpline
70
4
71
3
72
321
73
317
40
0
40
0
40
0
40
0
40
0.0022721664421504
40
0.0057229975166602
40
0.00917382859117
40
0.0126246596656798
40
0.0160754907401896
40
0.0195263218146994
40
0.0229771528892092
40
0.026427983963719
40
0.0298788150382287
40
0.0333296461127386
40
0.0367804771872484
40
0.0402313082617582
40
0.043682139336268
40
0.0471329704107778
40
0.0505838014852875
40
0.0574854636343071
40
0.0609362947088169
40
0.0643871257833267
40
0.0678379568578365
40
0.0712887879323463
40
0.0747396190068561
40
0.0781904500813659
40
0.0816412811558757
40
0.0850921122303854
40
0.0885429433048952
40
0.091993774379405
40
0.0988954365284246
40
0.102346267602934
40
0.104071683140189
40
0.105797098677444
40
0.109247929751954
40
0.112698760826464
40
0.119600422975483
40
0.123051254049993
40
0.126502085124503
40
0.133403747273522
40
0.140305409422542
40
0.143756240497052
40
0.147207071571562
40
0.150657902646072
40
0.154108733720581
40
0.161010395869601
40
0.16791205801862
40
0.17136288909313
40
0.17481372016764
40
0.18171538231666
40
0.188617044465679
40
0.195518706614699
40
0.198969537689209
40
0.202420368763718
40
0.205871199838228
40
0.209322030912738
40
0.216223693061758
40
0.223125355210777
40
0.226576186285287
40
0.230027017359797
40
0.233477848434306
40
0.236928679508816
40
0.243830341657836
40
0.250732003806856
40
0.257633665955875
40
0.261084497030385
40
0.264535328104895
40
0.271436990253914
40
0.278338652402934
40
0.281789483477443
40
0.285240314551953
40
0.288691145626463
40
0.292141976700973
40
0.299043638849993
40
0.302494469924502
40
0.305945300999012
40
0.309396132073522
40
0.312846963148032
40
0.319748625297051
40
0.323199456371561
40
0.326650287446071
40
0.33010111852058
40
0.33355194959509
40
0.34045361174411
40
0.34390444281862
40
0.347355273893129
40
0.350806104967639
40
0.354256936042149
40
0.355982351579404
40
0.357707767116659
40
0.361158598191169
40
0.364609429265679
40
0.368060260340188
40
0.371511091414698
40
0.374961922489208
40
0.378412753563718
40
0.381863584638227
40
0.383589000175482
40
0.385314415712737
40
0.388765246787247
40
0.392216077861757
40
0.395666908936267
40
0.399117740010776
40
0.402568571085286
40
0.406019402159796
40
0.409470233234306
40
0.412921064308815
40
0.416371895383325
40
0.419822726457835
40
0.423273557532345
40
0.426724388606855
40
0.430175219681365
40
0.433626050755874
40
0.437076881830384
40
0.438802297367639
40
0.440527712904894
40
0.443978543979404
40
0.447429375053913
40
0.449154790591168
40
0.450880206128423
40
0.454331037202933
40
0.457781868277443
40
0.459507283814698
40
0.461232699351953
40
0.462958114889208
40
0.464683530426462
40
0.466408945963717
40
0.468134361500972
40
0.4689970692696
40
0.469859777038227
40
0.471585192575482
40
0.472447900344109
40
0.473310608112737
40
0.475036023649992
40
0.476761439187247
40
0.477624146955874
40
0.478486854724502
40
0.479349562493129
40
0.480212270261757
40
0.481937685799011
40
0.482800393567639
40
0.483663101336266
40
0.484525809104894
40
0.485388516873521
40
0.486251224642149
40
0.487113932410776
40
0.488839347948031
40
0.489702055716658
40
0.490564763485286
40
0.492290179022541
40
0.493152886791168
40
0.494015594559796
40
0.494878302328423
40
0.495741010097051
40
0.497466425634305
40
0.49919184117156
40
0.500054548940188
40
0.500917256708815
40
0.501779964477443
40
0.50264267224607
40
0.504368087783325
40
0.505230795551952
40
0.50609350332058
40
0.506956211089207
40
0.507818918857835
40
0.50954433439509
40
0.510407042163717
40
0.511269749932345
40
0.512132457700972
40
0.5129951654696
40
0.514720581006854
40
0.516445996544109
40
0.517308704312737
40
0.518171412081364
40
0.519034119849992
40
0.519896827618619
40
0.521622243155874
40
0.523347658693129
40
0.525073074230384
40
0.526798489767639
40
0.528523905304894
40
0.529386613073521
40
0.530249320842149
40
0.531112028610776
40
0.531974736379403
40
0.532837444148031
40
0.533700151916658
40
0.534562859685286
40
0.535425567453913
40
0.537150982991168
40
0.538876398528423
40
0.53973910629705
40
0.540601814065678
40
0.542327229602933
40
0.54318993737156
40
0.544052645140188
40
0.545778060677443
40
0.547503476214697
40
0.549228891751952
40
0.550954307289207
40
0.552679722826462
40
0.554405138363717
40
0.557855969438227
40
0.561306800512737
40
0.563032216049992
40
0.564757631587246
40
0.568208462661756
40
0.571659293736266
40
0.573384709273521
40
0.575110124810776
40
0.578560955885285
40
0.58028637142254
40
0.582011786959795
40
0.585462618034305
40
0.588913449108815
40
0.592364280183325
40
0.595815111257834
40
0.599265942332344
40
0.600991357869599
40
0.602716773406854
40
0.606167604481364
40
0.609618435555874
40
0.613069266630384
40
0.616520097704893
40
0.619970928779403
40
0.623421759853913
40
0.626872590928423
40
0.630323422002933
40
0.633774253077442
40
0.637225084151952
40
0.640675915226462
40
0.644126746300972
40
0.651028408449991
40
0.654479239524501
40
0.656204655061756
40
0.657930070599011
40
0.66138090167352
40
0.66483173274803
40
0.66828256382254
40
0.67173339489705
40
0.67863505704607
40
0.682085888120579
40
0.685536719195089
40
0.688987550269599
40
0.692438381344109
40
0.699340043493128
40
0.702790874567638
40
0.706241705642148
40
0.709692536716658
40
0.713143367791167
40
0.720045029940187
40
0.723495861014697
40
0.726946692089206
40
0.730397523163716
40
0.733848354238226
40
0.740750016387246
40
0.747651678536265
40
0.751102509610775
40
0.754553340685285
40
0.761455002834304
40
0.768356664983324
40
0.775258327132344
40
0.778709158206853
40
0.782159989281363
40
0.785610820355873
40
0.789061651430383
40
0.795963313579402
40
0.802864975728422
40
0.806315806802932
40
0.809766637877441
40
0.813217468951951
40
0.816668300026461
40
0.823569962175481
40
0.8304716243245
40
0.83737328647352
40
0.84082411754803
40
0.844274948622539
40
0.851176610771559
40
0.858078272920578
40
0.861529103995088
40
0.864979935069598
40
0.868430766144108
40
0.871881597218618
40
0.878783259367637
40
0.885684921516657
40
0.889135752591167
40
0.892586583665677
40
0.899488245814696
40
0.902939076889206
40
0.906389907963716
40
0.90811532350097
40
0.909840739038225
40
0.913291570112735
40
0.920193232261755
40
0.923644063336264
40
0.927094894410774
40
0.930545725485284
40
0.933996556559794
40
0.937447387634304
40
0.940898218708814
40
0.944349049783323
40
0.947799880857833
40
0.951250711932343
40
0.954701543006853
40
0.958152374081363
40
0.961603205155872
40
0.965054036230382
40
0.968504867304892
40
0.971955698379402
40
0.975406529453911
40
0.978857360528421
40
0.982308191602931
40
0.985759022677441
40
0.989209853751951
40
0.99266068482646
40
0.99611151590097
40
0.99956234697548
40
1
40
1
40
1
40
1
41
1
10
-60.0000000000001
20
-33.4556558870653
30
0
41
1
10
-60.0000000000001
20
-33.4576332358045
30
0
41
1
10
-60
20
-33.4616638241992
30
0
41
1
10
-60
20
-33.4643410509435
30
0
41
1
10
-60
20
-33.4623133815696
30
0
41
1
10
-60
20
-33.4553334593645
30
0
41
1
10
-60
20
-33.4434921454555
30
0
41
1
10
-60
20
-33.4268774268509
30
0
41
1
10
-60.0000000000001
20
-33.4055717280174
30
0
41
1
10
-60
20
-33.3796553140389
30
0
41
1
10
-60
20
-33.3492037178841
30
0
41
1
10
-60
20
-33.3142895381611
30
0
41
1
10
-60
20
-33.2749830705361
30
0
41
1
10
-60
20
-33.2313495484921
30
0
41
1
10
-59.9999999999999
20
-33.1834545182116
30
0
41
1
10
-60
20
-33.1313576224893
30
0
41
1
10
-60
20
-33.0560855188702
30
0
41
1
10
-60
20
-32.9735372025895
30
0
41
1
10
-60
20
-32.8821013415762
30
0
41
1
10
-60
20
-32.8098349743486
30
0
41
1
10
-60
20
-32.733688775323
30
0
41
1
10
-60
20
-32.6537081477481
30
0
41
1
10
-60
20
-32.5699376540554
30
0
41
1
10
-60
20
-32.4824210440017
30
0
41
1
10
-60
20
-32.3912001164081
30
0
41
1
10
-60
20
-32.2963152268368
30
0
41
1
10
-60
20
-32.1978052794717
30
0
41
1
10
-60
20
-32.0612248425865
30
0
41
1
10
-60
20
-31.9189181156055
30
0
41
1
10
-60
20
-31.7872672789306
30
0
41
1
10
-60
20
-31.7102043249634
30
0
41
1
10
-60
20
-31.6319918777348
30
0
41
1
10
-60
20
-31.5326481176696
30
0
41
1
10
-60
20
-31.3682719173465
30
0
41
1
10
-59.9999999999999
20
-31.1987551463809
30
0
41
1
10
-60
20
-31.0210528170066
30
0
41
1
10
-60
20
-30.8389711768625
30
0
41
1
10
-60
20
-30.6045149696702
30
0
41
1
10
-60
20
-30.3594550872206
30
0
41
1
10
-60
20
-30.1560458164262
30
0
41
1
10
-60
20
-30.0008163011261
30
0
41
1
10
-60
20
-29.8424884168047
30
0
41
1
10
-60
20
-29.6266492024767
30
0
41
1
10
-60
20
-29.3506439800406
30
0
41
1
10
-60
20
-29.0646239872063
30
0
41
1
10
-60
20
-28.8286459848585
30
0
41
1
10
-60
20
-28.588711970395
30
0
41
1
10
-60
20
-28.2830119047979
30
0
41
1
10
-60
20
-27.9037227355801
30
0
41
1
10
-60
20
-27.5788289346229
30
0
41
1
10
-60
20
-27.3118865150179
30
0
41
1
10
-60
20
-27.1094249342747
30
0
41
1
10
-60
20
-26.9041562227329
30
0
41
1
10
-60
20
-26.6259536097733
30
0
41
1
10
-60
20
-26.2730451104148
30
0
41
1
10
-60
20
-25.910989789073
30
0
41
1
10
-60
20
-25.6143967365825
30
0
41
1
10
-60
20
-25.389872788346
30
0
41
1
10
-60
20
-25.1626504323296
30
0
41
1
10
-60
20
-24.8552336369894
30
0
41
1
10
-59.9999999999999
20
-24.4662671647181
30
0
41
1
10
-60
20
-23.9878313987672
30
0
41
1
10
-59.9999999999999
20
-23.581309600239
30
0
41
1
10
-60
20
-23.249168845647
30
0
41
1
10
-60
20
-22.9135633071667
30
0
41
1
10
-60
20
-22.4898084449714
30
0
41
1
10
-60
20
-22.0575119779296
30
0
41
1
10
-60
20
-21.7047294419233
30
0
41
1
10
-60
20
-21.4383936907813
30
0
41
1
10
-60
20
-21.1695327729883
30
0
41
1
10
-60
20
-20.8066187564656
30
0
41
1
10
-60
20
-20.4419941243111
30
0
41
1
10
-60
20
-20.0690271785162
30
0
41
1
10
-60
20
-19.787682750911
30
0
41
1
10
-60
20
-19.5038694602985
30
0
41
1
10
-60
20
-19.1209962837445
30
0
41
1
10
-60
20
-18.7368339912086
30
0
41
1
10
-60
20
-18.3441159235589
30
0
41
1
10
-60
20
-18.0480997672742
30
0
41
1
10
-60
20
-17.7496716294468
30
0
41
1
10
-60
20
-17.3472727105996
30
0
41
1
10
-60
20
-16.9440675389051
30
0
41
1
10
-60
20
-16.532035620606
30
0
41
1
10
-60
20
-16.2216969743561
30
0
41
1
10
-60
20
-15.9090090330769
30
0
41
1
10
-60
20
-15.6472013716544
30
0
41
1
10
-60
20
-15.4352759364928
30
0
41
1
10
-60
20
-15.2225823733162
30
0
41
1
10
-59.9999999999999
20
-14.9569585815733
30
0
41
1
10
-60
20
-14.634987908958
30
0
41
1
10
-60
20
-14.3107292402958
30
0
41
1
10
-60
20
-13.9841958759155
30
0
41
1
10
-60
20
-13.6554023236347
30
0
41
1
10
-60
20
-13.3243664763056
30
0
41
1
10
-60
20
-13.0474865550707
30
0
41
1
10
-59.9999999999999
20
-12.8233283675937
30
0
41
1
10
-60
20
-12.5984437652583
30
0
41
1
10
-60
20
-12.3179771615538
30
0
41
1
10
-60
20
-11.9781527958057
30
0
41
1
10
-59.9999999999999
20
-11.6361816637219
30
0
41
1
10
-59.9999999999999
20
-11.292092379822
30
0
41
1
10
-60
20
-10.9459088594489
30
0
41
1
10
-60
20
-10.5976625981365
30
0
41
1
10
-60
20
-10.2473847821601
30
0
41
1
10
-60
20
-9.89511131375593
30
0
41
1
10
-60
20
-9.54088172151239
30
0
41
1
10
-60
20
-9.18473899017403
30
0
41
1
10
-60
20
-8.82673234426116
30
0
41
1
10
-59.9999999999999
20
-8.46691508480725
30
0
41
1
10
-60
20
-8.10534831886903
30
0
41
1
10
-60
20
-7.74209991377396
30
0
41
1
10
-60
20
-7.4393336607493
30
0
41
1
10
-59.9999999999999
20
-7.19392383197427
30
0
41
1
10
-60
20
-6.94806390056186
30
0
41
1
10
-60
20
-6.64308245049975
30
0
41
1
10
-59.9999999999999
20
-6.33692354274459
30
0
41
1
10
-60
20
-6.08866434779782
30
0
41
1
10
-60
20
-5.84008609772042
30
0
41
1
10
-60
20
-5.53238372840593
30
0
41
1
10
-59.9999999999999
20
-5.22383853567212
30
0
41
1
10
-60
20
-4.97352607912163
30
0
41
1
10
-60
20
-4.78702154756593
30
0
41
1
10
-60
20
-4.60040605057168
30
0
41
1
10
-60
20
-4.41369717399607
30
0
41
1
10
-59.9999999999999
20
-4.22693988185341
30
0
41
1
10
-59.9999999999999
20
-4.07226259629712
30
0
41
1
10
-60
20
-3.9466938307813
30
0
41
1
10
-60
20
-3.82116954124061
30
0
41
1
10
-60
20
-3.69883107629951
30
0
41
1
10
-60
20
-3.57328747913135
30
0
41
1
10
-60
20
-3.44781059563365
30
0
41
1
10
-60
20
-3.29358638075718
30
0
41
1
10
-60
20
-3.13944522664997
30
0
41
1
10
-60
20
-3.01413837924019
30
0
41
1
10
-60
20
-2.92113732640232
30
0
41
1
10
-60
20
-2.82819985495797
30
0
41
1
10
-59.9999999999999
20
-2.7031524240856
30
0
41
1
10
-60
20
-2.58203066540025
30
0
41
1
10
-60
20
-2.45723012695291
30
0
41
1
10
-60
20
-2.36470328144028
30
0
41
1
10
-60
20
-2.27228576896135
30
0
41
1
10
-60
20
-2.17998802306414
30
0
41
1
10
-60
20
-2.08778698627509
30
0
41
1
10
-60
20
-1.96363390475221
30
0
41
1
10
-60
20
-1.84396791149473
30
0
41
1
10
-59.9999999999999
20
-1.72020377819322
30
0
41
1
10
-60
20
-1.59663706390083
30
0
41
1
10
-60
20
-1.47780824879951
30
0
41
1
10
-59.9999999999999
20
-1.35466991435544
30
0
41
1
10
-60
20
-1.26362007097094
30
0
41
1
10
-60
20
-1.17270141325395
30
0
41
1
10
-60
20
-1.05008260157575
30
0
41
1
10
-59.9999999999999
20
-0.900734180171554
30
0
41
1
10
-59.9999999999999
20
-0.751709618123755
30
0
41
1
10
-60
20
-0.629727249897599
30
0
41
1
10
-60
20
-0.539591484049964
30
0
41
1
10
-59.9999999999999
20
-0.449533123341212
30
0
41
1
10
-60
20
-0.327862446496653
30
0
41
1
10
-60
20
-0.211387195797528
30
0
41
1
10
-60
20
-0.089851891411513
30
0
41
1
10
-60
20
-2.33088997E-08
30
0
41
1
10
-59.9999999999999
20
0.0898518818022467
30
0
41
1
10
-60
20
0.211387173079913
30
0
41
1
10
-59.9999999999999
20
0.32786241019906
30
0
41
1
10
-59.9999999999999
20
0.44953315485472
30
0
41
1
10
-59.9999999999999
20
0.539591448084252
30
0
41
1
10
-60
20
0.629727190611248
30
0
41
1
10
-60
20
0.751709598313141
30
0
41
1
10
-60
20
0.900734187142206
30
0
41
1
10
-60
20
1.05008260284762
30
0
41
1
10
-60
20
1.17270128769022
30
0
41
1
10
-60
20
1.26362007709341
30
0
41
1
10
-60
20
1.35466986733161
30
0
41
1
10
-60
20
1.47780889967766
30
0
41
1
10
-60
20
1.62866356892968
30
0
41
1
10
-60
20
1.81195714590726
30
0
41
1
10
-59.9999999999999
20
1.99575931518564
30
0
41
1
10
-60
20
2.18003829088599
30
0
41
1
10
-59.9999999999999
20
2.33258035694232
30
0
41
1
10
-59.9999999999999
20
2.45723438857445
30
0
41
1
10
-60
20
2.54984007971649
30
0
41
1
10
-60
20
2.64253286485464
30
0
41
1
10
-60
20
2.73532390979233
30
0
41
1
10
-60
20
2.82819892922646
30
0
41
1
10
-60
20
2.92113717428768
30
0
41
1
10
-60
20
3.0141385699028
30
0
41
1
10
-60
20
3.13944522556258
30
0
41
1
10
-60
20
3.2935859845241
30
0
41
1
10
-59.9999999999999
20
3.44781022267125
30
0
41
1
10
-60
20
3.57328748848445
30
0
41
1
10
-59.9999999999999
20
3.69883143470833
30
0
41
1
10
-60
20
3.82116995532769
30
0
41
1
10
-60
20
3.94669401081845
30
0
41
1
10
-60
20
4.07226239422653
30
0
41
1
10
-60
20
4.22693940902755
30
0
41
1
10
-60
20
4.41369698550011
30
0
41
1
10
-60
20
4.60040635681673
30
0
41
1
10
-59.9999999999999
20
4.78702193879343
30
0
41
1
10
-60
20
4.97352604952795
30
0
41
1
10
-60
20
5.22383810629836
30
0
41
1
10
-60
20
5.53238377279544
30
0
41
1
10
-60
20
5.8400864784706
30
0
41
1
10
-59.9999999999999
20
6.08866423546837
30
0
41
1
10
-60
20
6.33692316417091
30
0
41
1
10
-59.9999999999999
20
6.64308259789809
30
0
41
1
10
-60
20
6.94806448980091
30
0
41
1
10
-60
20
7.19392396234315
30
0
41
1
10
-60
20
7.43933366870851
30
0
41
1
10
-60
20
7.67989586792567
30
0
41
1
10
-60
20
7.9236110794827
30
0
41
1
10
-59.9999999999999
20
8.16680647555481
30
0
41
1
10
-60
20
8.46691182410567
30
0
41
1
10
-60
20
8.82673137604749
30
0
41
1
10
-60
20
9.18474212579682
30
0
41
1
10
-60
20
9.54088275359166
30
0
41
1
10
-59.9999999999999
20
9.83493450522633
30
0
41
1
10
-60
20
10.0711726122456
30
0
41
1
10
-60
20
10.3067727719092
30
0
41
1
10
-60
20
10.5976628395392
30
0
41
1
10
-60
20
10.9459088896872
30
0
41
1
10
-60
20
11.2920923090958
30
0
41
1
10
-59.9999999999999
20
11.6361817696308
30
0
41
1
10
-60
20
11.9781526643528
30
0
41
1
10
-59.9999999999999
20
12.3179774972949
30
0
41
1
10
-60
20
12.6556361459602
30
0
41
1
10
-59.9999999999999
20
12.991105740016
30
0
41
1
10
-60
20
13.3243668024955
30
0
41
1
10
-60
20
13.6554036731857
30
0
41
1
10
-60
20
13.9841945283398
30
0
41
1
10
-59.9999999999999
20
14.421206512195
30
0
41
1
10
-60
20
14.8489195414719
30
0
41
1
10
-60
20
15.2225823214827
30
0
41
1
10
-60
20
15.4352759723946
30
0
41
1
10
-60
20
15.647201356186
30
0
41
1
10
-60
20
15.9090090125605
30
0
41
1
10
-60
20
16.2216969814831
30
0
41
1
10
-60
20
16.5320355896629
30
0
41
1
10
-60
20
16.9440675257307
30
0
41
1
10
-60
20
17.3472727170548
30
0
41
1
10
-60
20
17.7496716428444
30
0
41
1
10
-59.9999999999999
20
18.0480997821432
30
0
41
1
10
-60
20
18.3441158768435
30
0
41
1
10
-60
20
18.7368339915895
30
0
41
1
10
-60
20
19.120996273923
30
0
41
1
10
-59.9999999999999
20
19.5038694802314
30
0
41
1
10
-60
20
19.7876827545797
30
0
41
1
10
-60
20
20.0690271428399
30
0
41
1
10
-60
20
20.4419941277661
30
0
41
1
10
-60
20
20.8066187451666
30
0
41
1
10
-60
20
21.1695327858038
30
0
41
1
10
-60
20
21.4383937008238
30
0
41
1
10
-60
20
21.7047294118794
30
0
41
1
10
-60
20
22.0575119733736
30
0
41
1
10
-60
20
22.4898084525807
30
0
41
1
10
-60
20
22.9135633086719
30
0
41
1
10
-60
20
23.2491688314427
30
0
41
1
10
-60
20
23.5813095953078
30
0
41
1
10
-60
20
23.9878314099489
30
0
41
1
10
-60
20
24.4662671557058
30
0
41
1
10
-60
20
24.8552336352659
30
0
41
1
10
-60
20
25.162650435865
30
0
41
1
10
-60
20
25.3898727930233
30
0
41
1
10
-60
20
25.6143967303269
30
0
41
1
10
-60
20
25.9109897889273
30
0
41
1
10
-60
20
26.2730451134659
30
0
41
1
10
-59.9999999999999
20
26.6259536079636
30
0
41
1
10
-60
20
26.904156227805
30
0
41
1
10
-60
20
27.1094249332374
30
0
41
1
10
-60
20
27.3118865130228
30
0
41
1
10
-60
20
27.5788289362021
30
0
41
1
10
-60
20
27.903722739304
30
0
41
1
10
-60
20
28.2830119086102
30
0
41
1
10
-60
20
28.5887119662348
30
0
41
1
10
-60
20
28.8286459978862
30
0
41
1
10
-60
20
29.0646239922872
30
0
41
1
10
-60
20
29.3506439793957
30
0
41
1
10
-60
20
29.626649201014
30
0
41
1
10
-60
20
29.8424884317765
30
0
41
1
10
-60
20
30.0008163115551
30
0
41
1
10
-60
20
30.1560458056576
30
0
41
1
10
-60
20
30.3594550888042
30
0
41
1
10
-60
20
30.6045149784549
30
0
41
1
10
-60
20
30.8389711933591
30
0
41
1
10
-60
20
31.0210528094401
30
0
41
1
10
-60
20
31.1987551464293
30
0
41
1
10
-60
20
31.3682719258243
30
0
41
1
10
-60
20
31.5326481340749
30
0
41
1
10
-60
20
31.6319918952805
30
0
41
1
10
-60
20
31.7102043239204
30
0
41
1
10
-60
20
31.7872672700224
30
0
41
1
10
-60
20
31.9189181186465
30
0
41
1
10
-60
20
32.061224849943
30
0
41
1
10
-60
20
32.1978052933397
30
0
41
1
10
-60
20
32.2963152464944
30
0
41
1
10
-60
20
32.3912001013678
30
0
41
1
10
-60
20
32.4824210694836
30
0
41
1
10
-60
20
32.569937671886
30
0
41
1
10
-60
20
32.6537080260487
30
0
41
1
10
-60
20
32.7336889066932
30
0
41
1
10
-60
20
32.8098354129061
30
0
41
1
10
-60
20
32.8821009542705
30
0
41
1
10
-60
20
32.950437222935
30
0
41
1
10
-60
20
33.0147937722119
30
0
41
1
10
-60
20
33.0751182914419
30
0
41
1
10
-60
20
33.1313576691056
30
0
41
1
10
-60
20
33.1834545172446
30
0
41
1
10
-60
20
33.2313494864309
30
0
41
1
10
-60
20
33.2749830986899
30
0
41
1
10
-60
20
33.3142894793407
30
0
41
1
10
-60
20
33.3492037179871
30
0
41
1
10
-60
20
33.3796552925039
30
0
41
1
10
-60
20
33.4055716886024
30
0
41
1
10
-60
20
33.4268774387512
30
0
41
1
10
-60
20
33.4434920820871
30
0
41
1
10
-60
20
33.4518577949444
30
0
41
1
10
-60
20
33.4552832094494
30
0
41
1
10
-60
20
33.4556558360227
30
0
0
SPLINE
5
191
100
AcDbEntity
8
1
62
256
6
ByLayer
370
18
48
1
60
0
100
AcDbSpline
70
4
71
3
72
16
73
12
40
0
40
0
40
0
40
0
40
0.25
40
0.25
40
0.5
40
0.5
40
0.75
40
0.75
40
0.875
40
0.875
40
1
40
1
40
1
40
1
41
1
10
18.6443375672974
20
47.532474059346
30
0
41
1
10
18.628663043577
20
47.5510763302182
30
0
41
1
10
18.609922401016
20
47.5691972862268
30
0
41
1
10
18.5642089472352
20
47.6042475586049
30
0
41
1
10
18.5371631998436
20
47.621296285613
30
0
41
1
10
18.4704947598566
20
47.6531299493423
30
0
41
1
10
18.4307979975499
20
47.6679778471913
30
0
41
1
10
18.358270983099
20
47.685218753302
30
0
41
1
10
18.3313299686496
20
47.6901974749824
30
0
41
1
10
18.273779935704
20
47.6971341405705
30
0
41
1
10
18.2427481222218
20
47.6991123363142
30
0
41
1
10
18.2113248654052
20
47.6991123363142
30
0
0
SPLINE
5
192
100
AcDbEntity
8
1
62
256
6
ByLayer
370
18
48
1
60
0
100
AcDbSpline
70
4
71
3
72
16
73
12
40
0
40
0
40
0
40
0
40
0.125
40
0.125
40
0.25
40
0.25
40
0.5
40
0.5
40
0.75
40
0.75
40
1
40
1
40
1
40
1
41
1
10
18.2113248654052
20
14.9931545155676
30
0
41
1
10
18.2427942539064
20
14.9931545155676
30
0
41
1
10
18.2734136750628
20
14.9993270329222
30
0
41
1
10
18.3314372006436
20
15.0215159830932
30
0
41
1
10
18.357828126527
20
15.0369693753061
30
0
41
1
10
18.4315232223568
20
15.092429500184
30
0
41
1
10
18.4705132203231
20
15.1387838835225
30
0
41
1
10
18.5371475309551
20
15.2385754420444
30
0
41
1
10
18.5639668420204
20
15.2912821270175
30
0
41
1
10
18.6097706080257
20
15.4000512474235
30
0
41
1
10
18.6286574316483
20
15.4563289206726
30
0
41
1
10
18.6443375672975
20
15.5133461831291
30
0
0
SPLINE
5
193
100
AcDbEntity
8
1
62
256
6
ByLayer
370
18
48
1
60
0
100
AcDbSpline
70
4
71
3
72
12
73
8
40
0
40
0
40
0
40
0
40
0.500000000000004
40
0.500000000000004
40
0.750000000000002
40
0.750000000000002
40
1
40
1
40
1
40
1
41
1
10
37.5805459037026
20
42.7916811949076
30
0
41
1
10
37.6025556330888
20
42.945425179763
30
0
41
1
10
37.648058981098
20
43.093973325081
30
0
41
1
10
37.7521118911185
20
43.3093170720553
30
0
41
1
10
37.7927986691945
20
43.3798472449985
30
0
41
1
10
37.8867494462567
20
43.5184001649339
30
0
41
1
10
37.9402106835403
20
43.5866422212672
30
0
41
1
10
37.9999999987023
20
43.6531193418599
30
0
0
SPLINE
5
194
100
AcDbEntity
8
SK1
62
256
6
ByLayer
370
13
48
1
60
0
100
AcDbSpline
70
4
71
3
72
322
73
318
40
0
40
0
40
0
40
0
40
0.0033908554434208
40
0.0068395018733288
40
0.0102881483032368
40
0.0137367947331448
40
0.0171854411630528
40
0.0206340875929608
40
0.0240827340228689
40
0.0275313804527769
40
0.0309800268826849
40
0.0344286733125929
40
0.0378773197425009
40
0.0413259661724089
40
0.0447746126023169
40
0.051671905462133
40
0.055120551892041
40
0.058569198321949
40
0.062017844751857
40
0.065466491181765
40
0.0689151376116731
40
0.0723637840415811
40
0.0758124304714891
40
0.0792610769013971
40
0.0827097233313051
40
0.0861583697612131
40
0.0930556626210292
40
0.0965043090509372
40
0.0982286322658912
40
0.0999529554808452
40
0.103401601910753
40
0.106850248340661
40
0.113747541200477
40
0.117196187630385
40
0.120644834060293
40
0.127542126920109
40
0.134439419779925
40
0.137888066209833
40
0.141336712639741
40
0.144785359069649
40
0.148234005499557
40
0.155131298359373
40
0.162028591219189
40
0.165477237649097
40
0.168925884079005
40
0.175823176938821
40
0.182720469798638
40
0.189617762658454
40
0.193066409088362
40
0.19651505551827
40
0.199963701948178
40
0.203412348378086
40
0.210309641237902
40
0.217206934097718
40
0.220655580527626
40
0.224104226957534
40
0.227552873387442
40
0.23100151981735
40
0.237898812677166
40
0.244796105536982
40
0.251693398396798
40
0.255142044826706
40
0.258590691256614
40
0.26548798411643
40
0.272385276976246
40
0.275833923406154
40
0.279282569836062
40
0.28273121626597
40
0.286179862695878
40
0.293077155555694
40
0.296525801985602
40
0.29997444841551
40
0.303423094845418
40
0.306871741275326
40
0.313769034135142
40
0.31721768056505
40
0.320666326994958
40
0.324114973424866
40
0.327563619854774
40
0.33446091271459
40
0.337909559144498
40
0.341358205574406
40
0.344806852004314
40
0.348255498434222
40
0.349979821649176
40
0.35170414486413
40
0.355152791294038
40
0.358601437723946
40
0.362050084153854
40
0.365498730583762
40
0.36894737701367
40
0.372396023443578
40
0.375844669873487
40
0.37756899308844
40
0.379293316303395
40
0.382741962733303
40
0.386190609163211
40
0.389639255593119
40
0.393087902023027
40
0.396536548452935
40
0.399985194882843
40
0.403433841312751
40
0.406882487742659
40
0.410331134172567
40
0.413779780602475
40
0.417228427032383
40
0.420677073462291
40
0.424125719892199
40
0.427574366322107
40
0.431023012752015
40
0.432747335966969
40
0.434471659181923
40
0.437920305611831
40
0.441368952041739
40
0.443093275256693
40
0.444817598471647
40
0.448266244901555
40
0.451714891331463
40
0.453439214546417
40
0.455163537761371
40
0.456887860976325
40
0.458612184191279
40
0.460336507406233
40
0.462060830621187
40
0.462922992228664
40
0.463785153836141
40
0.465509477051095
40
0.466371638658572
40
0.467233800266049
40
0.468958123481003
40
0.470682446695957
40
0.471544608303434
40
0.472406769910911
40
0.473268931518388
40
0.474131093125865
40
0.475855416340819
40
0.476717577948296
40
0.477579739555773
40
0.47844190116325
40
0.479304062770727
40
0.480166224378204
40
0.481028385985681
40
0.482752709200635
40
0.483614870808112
40
0.484477032415589
40
0.486201355630543
40
0.48706351723802
40
0.487925678845497
40
0.488787840452974
40
0.489650002060451
40
0.491374325275405
40
0.493098648490359
40
0.493960810097836
40
0.494822971705313
40
0.49568513331279
40
0.496547294920267
40
0.498271618135221
40
0.499133779742698
40
0.499995941350175
40
0.500858102957652
40
0.501720264565129
40
0.503444587780083
40
0.50430674938756
40
0.505168910995037
40
0.506031072602514
40
0.506893234209991
40
0.508617557424945
40
0.510341880639899
40
0.511204042247376
40
0.512066203854853
40
0.51292836546233
40
0.513790527069807
40
0.515514850284761
40
0.517239173499715
40
0.518963496714669
40
0.520687819929623
40
0.522412143144577
40
0.523274304752054
40
0.524136466359531
40
0.524998627967008
40
0.525860789574485
40
0.526722951181962
40
0.527585112789439
40
0.528447274396916
40
0.529309436004393
40
0.531033759219347
40
0.532758082434301
40
0.533620244041778
40
0.534482405649255
40
0.536206728864209
40
0.537068890471686
40
0.537931052079163
40
0.539655375294117
40
0.541379698509071
40
0.543104021724025
40
0.544828344938979
40
0.546552668153933
40
0.548276991368887
40
0.551725637798795
40
0.555174284228703
40
0.556898607443657
40
0.558622930658611
40
0.562071577088519
40
0.565520223518427
40
0.567244546733381
40
0.568968869948335
40
0.572417516378243
40
0.574141839593197
40
0.575866162808151
40
0.579314809238059
40
0.582763455667967
40
0.586212102097875
40
0.589660748527783
40
0.593109394957691
40
0.594833718172645
40
0.596558041387599
40
0.600006687817507
40
0.603455334247415
40
0.606903980677324
40
0.610352627107231
40
0.61380127353714
40
0.617249919967048
40
0.620698566396956
40
0.624147212826864
40
0.627595859256772
40
0.63104450568668
40
0.634493152116588
40
0.637941798546496
40
0.644839091406312
40
0.64828773783622
40
0.650012061051174
40
0.651736384266128
40
0.655185030696036
40
0.658633677125944
40
0.662082323555852
40
0.66553096998576
40
0.672428262845576
40
0.675876909275484
40
0.679325555705392
40
0.6827742021353
40
0.686222848565208
40
0.693120141425024
40
0.696568787854932
40
0.70001743428484
40
0.703466080714748
40
0.706914727144656
40
0.713812020004472
40
0.71726066643438
40
0.720709312864288
40
0.724157959294196
40
0.727606605724104
40
0.73450389858392
40
0.741401191443736
40
0.744849837873644
40
0.748298484303552
40
0.755195777163368
40
0.762093070023184
40
0.768990362883
40
0.772439009312908
40
0.775887655742816
40
0.779336302172724
40
0.782784948602632
40
0.789682241462448
40
0.796579534322264
40
0.800028180752172
40
0.80347682718208
40
0.806925473611988
40
0.810374120041896
40
0.817271412901712
40
0.824168705761528
40
0.831065998621344
40
0.834514645051253
40
0.837963291481161
40
0.844860584340977
40
0.851757877200793
40
0.855206523630701
40
0.858655170060609
40
0.862103816490517
40
0.865552462920425
40
0.872449755780241
40
0.879347048640057
40
0.882795695069965
40
0.886244341499873
40
0.893141634359689
40
0.896590280789597
40
0.900038927219505
40
0.901763250434459
40
0.903487573649413
40
0.906936220079321
40
0.913833512939137
40
0.917282159369045
40
0.920730805798953
40
0.924179452228861
40
0.927628098658769
40
0.931076745088677
40
0.934525391518585
40
0.937974037948493
40
0.941422684378401
40
0.944871330808309
40
0.948319977238217
40
0.951768623668125
40
0.955217270098033
40
0.958665916527941
40
0.962114562957849
40
0.965563209387757
40
0.969011855817665
40
0.972460502247573
40
0.975909148677481
40
0.979357795107389
40
0.982806441537297
40
0.986255087967205
40
0.989703734397113
40
0.993152380827021
40
0.994876704041975
40
0.996601027256929
40
0.998325350471883
40
1
40
1
40
1
40
1
41
1
10
-1.99503997793934
20
-35.8251679420033
30
0
41
1
10
-1.99503997793934
20
-35.825313311963
30
0
41
1
10
-1.99503997793928
20
-35.8238498873889
30
0
41
1
10
-1.99503997793931
20
-35.8164351684489
30
0
41
1
10
-1.99503997793931
20
-35.8038036057849
30
0
41
1
10
-1.99503997793934
20
-35.7861037017736
30
0
41
1
10
-1.99503997793934
20
-35.7634347985348
30
0
41
1
10
-1.99503997793931
20
-35.7358925782286
30
0
41
1
10
-1.99503997793931
20
-35.7035662864511
30
0
41
1
10
-1.99503997793931
20
-35.6665413308515
30
0
41
1
10
-1.99503997793931
20
-35.6248991716383
30
0
41
1
10
-1.99503997793931
20
-35.5787156824352
30
0
41
1
10
-1.99503997793931
20
-35.5280658263189
30
0
41
1
10
-1.99503997793931
20
-35.473017757568
30
0
41
1
10
-1.99503997793931
20
-35.393827084185
30
0
41
1
10
-1.99503997793931
20
-35.3061643717786
30
0
41
1
10
-1.99503997793931
20
-35.2101447225725
30
0
41
1
10
-1.99503997793934
20
-35.1340530052702
30
0
41
1
10
-1.99503997793931
20
-35.0539245925552
30
0
41
1
10
-1.99503997793931
20
-34.9698083299964
30
0
41
1
10
-1.99503997793934
20
-34.8817544739769
30
0
41
1
10
-1.99503997793934
20
-34.7898102716018
30
0
41
1
10
-1.99503997793931
20
-34.6940212865371
30
0
41
1
10
-1.99503997793931
20
-34.5944312514431
30
0
41
1
10
-1.99503997793931
20
-34.4910822889059
30
0
41
1
10
-1.99503997793931
20
-34.3482948911951
30
0
41
1
10
-1.99503997793931
20
-34.1982444851697
30
0
41
1
10
-1.99503997793931
20
-34.0605701909876
30
0
41
1
10
-1.99503997793931
20
-33.9801066971493
30
0
41
1
10
-1.99503997793934
20
-33.8984584538254
30
0
41
1
10
-1.99503997793934
20
-33.7942266163982
30
0
41
1
10
-1.99503997793931
20
-33.622721506097
30
0
41
1
10
-1.99503997793931
20
-33.4443819491762
30
0
41
1
10
-1.99503997793931
20
-33.2591101848391
30
0
41
1
10
-1.99503997793931
20
-33.0693268459332
30
0
41
1
10
-1.99503997793931
20
-32.8237966601455
30
0
41
1
10
-1.99503997793931
20
-32.5672623983938
30
0
41
1
10
-1.99503997793931
20
-32.3554556997831
30
0
41
1
10
-1.99503997793931
20
-32.1934025642943
30
0
41
1
10
-1.99503997793931
20
-32.0281430662551
30
0
41
1
10
-1.99503997793931
20
-31.8035081361274
30
0
41
1
10
-1.99503997793931
20
-31.5149070177094
30
0
41
1
10
-1.99503997793931
20
-31.2159040534274
30
0
41
1
10
-1.99503997793928
20
-30.9704527129578
30
0
41
1
10
-1.99503997793931
20
-30.720914832824
30
0
41
1
10
-1.99503997793931
20
-30.4014843078869
30
0
41
1
10
-1.99503997793931
20
-30.0060620316198
30
0
41
1
10
-1.99503997793928
20
-29.6666623719011
30
0
41
1
10
-1.99503997793931
20
-29.3891503898005
30
0
41
1
10
-1.99503997793931
20
-29.1781205760016
30
0
41
1
10
-1.99503997793931
20
-28.9641695771707
30
0
41
1
10
-1.99503997793931
20
-28.6749709053452
30
0
41
1
10
-1.99503997793931
20
-28.3063605286731
30
0
41
1
10
-1.99503997793931
20
-27.9281887547298
30
0
41
1
10
-1.99503997793931
20
-27.6198572656328
30
0
41
1
10
-1.99503997793931
20
-27.3858182074443
30
0
41
1
10
-1.99503997793931
20
-27.1489558217171
30
0
41
1
10
-1.99503997793928
20
-26.8293292074653
30
0
41
1
10
-1.99503997793931
20
-26.4229269838674
30
0
41
1
10
-1.99503997793931
20
-25.9240385032945
30
0
41
1
10
-1.99503997793931
20
-25.4991460823893
30
0
41
1
10
-1.99503997793931
20
-25.1536176941803
30
0
41
1
10
-1.99503997793931
20
-24.8044353773024
30
0
41
1
10
-1.99503997793928
20
-24.3612782608926
30
0
41
1
10
-1.99503997793928
20
-23.9090605798748
30
0
41
1
10
-1.99503997793928
20
-23.5417479211437
30
0
41
1
10
-1.99503997793931
20
-23.2636185073191
30
0
41
1
10
-1.99503997793931
20
-22.9827956431365
30
0
41
1
10
-1.99503997793928
20
-22.6047071794768
30
0
41
1
10
-1.99503997793928
20
-22.2214812963055
30
0
41
1
10
-1.99503997793931
20
-21.8326778142531
30
0
41
1
10
-1.99503997793928
20
-21.5384660281962
30
0
41
1
10
-1.99503997793928
20
-21.2415899372622
30
0
41
1
10
-1.99503997793928
20
-20.8421270630884
30
0
41
1
10
-1.99503997793931
20
-20.4375997139134
30
0
41
1
10
-1.99503997793931
20
-20.0275173509219
30
0
41
1
10
-1.99503997793928
20
-19.7173732218512
30
0
41
1
10
-1.99503997793928
20
-19.4045841348166
30
0
41
1
10
-1.99503997793931
20
-18.983919492224
30
0
41
1
10
-1.99503997793928
20
-18.5582479712653
30
0
41
1
10
-1.99503997793928
20
-18.1270203733511
30
0
41
1
10
-1.99503997793928
20
-17.8010357340039
30
0
41
1
10
-1.99503997793928
20
-17.4724160483816
30
0
41
1
10
-1.99503997793928
20
-17.1964202003686
30
0
41
1
10
-1.99503997793931
20
-16.9742159134664
30
0
41
1
10
-1.99503997793931
20
-16.7511340559088
30
0
41
1
10
-1.99503997793928
20
-16.4707522036702
30
0
41
1
10
-1.99503997793931
20
-16.1315968939283
30
0
41
1
10
-1.99503997793928
20
-15.7898077032214
30
0
41
1
10
-1.99503997793928
20
-15.4453840138399
30
0
41
1
10
-1.99503997793928
20
-15.0983253104253
30
0
41
1
10
-1.99503997793928
20
-14.7486309197531
30
0
41
1
10
-1.99503997793931
20
-14.455079118457
30
0
41
1
10
-1.99503997793931
20
-14.2188112194045
30
0
41
1
10
-1.99503997793928
20
-13.9816645441138
30
0
41
1
10
-1.99503997793928
20
-13.6837198698814
30
0
41
1
10
-1.99503997793928
20
-13.3234688579878
30
0
41
1
10
-1.99503997793931
20
-12.9605748020561
30
0
41
1
10
-1.99503997793928
20
-12.5950360925706
30
0
41
1
10
-1.99503997793928
20
-12.2268503778689
30
0
41
1
10
-1.99503997793931
20
-11.85601645061
30
0
41
1
10
-1.99503997793928
20
-11.4825318141738
30
0
41
1
10
-1.99503997793928
20
-11.1063953922263
30
0
41
1
10
-1.99503997793931
20
-10.7276051607687
30
0
41
1
10
-1.99503997793931
20
-10.3461602965628
30
0
41
1
10
-1.99503997793928
20
-9.96205972428265
30
0
41
1
10
-1.99503997793928
20
-9.57530335790582
30
0
41
1
10
-1.99503997793928
20
-9.18589158918715
30
0
41
1
10
-1.99503997793928
20
-8.79382593589912
30
0
41
1
10
-1.99503997793928
20
-8.46498321367616
30
0
41
1
10
-1.99503997793928
20
-8.20041752296066
30
0
41
1
10
-1.99503997793928
20
-7.93497336561654
30
0
41
1
10
-1.99503997793931
20
-7.60174008666428
30
0
41
1
10
-1.99503997793928
20
-7.26630764015115
30
0
41
1
10
-1.99503997793928
20
-6.99646231662956
30
0
41
1
10
-1.99503997793931
20
-6.72574990920413
30
0
41
1
10
-1.99503997793928
20
-6.38598402190888
30
0
41
1
10
-1.99503997793928
20
-6.04405722561486
30
0
41
1
10
-1.99503997793928
20
-5.76902086592727
30
0
41
1
10
-1.99503997793931
20
-5.56220357677802
30
0
41
1
10
-1.99503997793928
20
-5.35475597096192
30
0
41
1
10
-1.99503997793928
20
-5.14668274769548
30
0
41
1
10
-1.99503997793928
20
-4.93799069007395
30
0
41
1
10
-1.99503997793928
20
-4.76363712095309
30
0
41
1
10
-1.99503997793928
20
-4.62372538326238
30
0
41
1
10
-1.99503997793928
20
-4.48361575507573
30
0
41
1
10
-1.99503997793928
20
-4.34342548405567
30
0
41
1
10
-1.99503997793928
20
-4.20271766259083
30
0
41
1
10
-1.99503997793928
20
-4.06181816740792
30
0
41
1
10
-1.99503997793928
20
-3.88550853751428
30
0
41
1
10
-1.99503997793931
20
-3.70872432201037
30
0
41
1
10
-1.99503997793928
20
-3.5668768085371
30
0
41
1
10
-1.99503997793928
20
-3.4604186809762
30
0
41
1
10
-1.99503997793928
20
-3.35382641814786
30
0
41
1
10
-1.99503997793928
20
-3.21144324089971
30
0
41
1
10
-1.99503997793931
20
-3.06906085087897
30
0
41
1
10
-1.99503997793928
20
-2.92616259642287
30
0
41
1
10
-1.99503997793928
20
-2.81893418131358
30
0
41
1
10
-1.99503997793928
20
-2.71158686216666
30
0
41
1
10
-1.99503997793928
20
-2.60412375528313
30
0
41
1
10
-1.99503997793928
20
-2.49654581237675
30
0
41
1
10
-1.99503997793928
20
-2.35286670982623
30
0
41
1
10
-1.99503997793928
20
-2.20926559475362
30
0
41
1
10
-1.99503997793928
20
-2.06516367446017
30
0
41
1
10
-1.99503997793928
20
-1.9209349148361
30
0
41
1
10
-1.99503997793928
20
-1.77682919806017
30
0
41
1
10
-1.99503997793931
20
-1.6322393388032
30
0
41
1
10
-1.99503997793928
20
-1.52379770019971
30
0
41
1
10
-1.99503997793928
20
-1.41528065788856
30
0
41
1
10
-1.99503997793928
20
-1.27038905366359
30
0
41
1
10
-1.99503997793928
20
-1.08935868161842
30
0
41
1
10
-1.99503997793928
20
-0.908138069364867
30
0
41
1
10
-1.99503997793928
20
-0.76286692146644
30
0
41
1
10
-1.99503997793928
20
-0.653960658723463
30
0
41
1
10
-1.99503997793928
20
-0.545019973860889
30
0
41
1
10
-1.99503997793928
20
-0.399611451538959
30
0
41
1
10
-1.99503997793928
20
-0.254507260377665
30
0
41
1
10
-1.99503997793931
20
-0.109027235983348
30
0
41
1
10
-1.99503997793931
20
-9.1374375E-09
30
0
41
1
10
-1.99503997793928
20
0.109027220250027
30
0
41
1
10
-1.99503997793928
20
0.254507243772451
30
0
41
1
10
-1.99503997793928
20
0.399611433921876
30
0
41
1
10
-1.99503997793928
20
0.545019960941033
30
0
41
1
10
-1.99503997793928
20
0.653960641303343
30
0
41
1
10
-1.99503997793928
20
0.762866902191831
30
0
41
1
10
-1.99503997793928
20
0.908138052921174
30
0
41
1
10
-1.99503997793928
20
1.08935866678004
30
0
41
1
10
-1.99503997793928
20
1.27038903897372
30
0
41
1
10
-1.99503997793928
20
1.41528063419042
30
0
41
1
10
-1.99503997793928
20
1.52379768483641
30
0
41
1
10
-1.99503997793928
20
1.63223932075869
30
0
41
1
10
-1.99503997793928
20
1.77682922491971
30
0
41
1
10
-1.99503997793928
20
1.95712119571596
30
0
41
1
10
-1.99503997793928
20
2.17322083473795
30
0
41
1
10
-1.99503997793928
20
2.38891915598524
30
0
41
1
10
-1.99503997793928
20
2.60418785734106
30
0
41
1
10
-1.99503997793928
20
2.78310305721487
30
0
41
1
10
-1.99503997793928
20
2.92616291868399
30
0
41
1
10
-1.99503997793928
20
3.03326805859808
30
0
41
1
10
-1.99503997793928
20
3.14024803839371
30
0
41
1
10
-1.99503997793928
20
3.24710174058401
30
0
41
1
10
-1.99503997793928
20
3.35382635526128
30
0
41
1
10
-1.99503997793928
20
3.46041866707628
30
0
41
1
10
-1.99503997793928
20
3.56687681977309
30
0
41
1
10
-1.99503997793928
20
3.7087243230406
30
0
41
1
10
-1.99503997793928
20
3.88550850742183
30
0
41
1
10
-1.99503997793928
20
4.06181812904796
30
0
41
1
10
-1.99503997793928
20
4.20271764804272
30
0
41
1
10
-1.99503997793928
20
4.34342549686545
30
0
41
1
10
-1.99503997793928
20
4.48361577983209
30
0
41
1
10
-1.99503997793928
20
4.62372539696358
30
0
41
1
10
-1.99503997793928
20
4.76363710905449
30
0
41
1
10
-1.99503997793928
20
4.93799065000766
30
0
41
1
10
-1.99503997793931
20
5.14668271481386
30
0
41
1
10
-1.99503997793928
20
5.35475597589536
30
0
41
1
10
-1.99503997793928
20
5.56220360150749
30
0
41
1
10
-1.99503997793931
20
5.76902086988605
30
0
41
1
10
-1.99503997793928
20
6.0440571882672
30
0
41
1
10
-1.99503997793928
20
6.38598399194689
30
0
41
1
10
-1.99503997793928
20
6.72574993640333
30
0
41
1
10
-1.99503997793928
20
6.99646231552362
30
0
41
1
10
-1.99503997793928
20
7.26630760435381
30
0
41
1
10
-1.99503997793928
20
7.60174006365557
30
0
41
1
10
-1.99503997793928
20
7.93497342164287
30
0
41
1
10
-1.99503997793928
20
8.20041755954975
30
0
41
1
10
-1.99503997793928
20
8.4649832423369
30
0
41
1
10
-1.99503997793928
20
8.72794364001865
30
0
41
1
10
-1.99503997793931
20
8.98985104945217
30
0
41
1
10
-1.99503997793928
20
9.2508763048483
30
0
41
1
10
-1.99503997793928
20
9.57530319982877
30
0
41
1
10
-1.99503997793928
20
9.96205939515545
30
0
41
1
10
-1.99503997793928
20
10.3461604572555
30
0
41
1
10
-1.99503997793928
20
10.7276055574807
30
0
41
1
10
-1.99503997793928
20
11.0431853255423
30
0
41
1
10
-1.99503997793928
20
11.2944582734028
30
0
41
1
10
-1.99503997793928
20
11.5448487178991
30
0
41
1
10
-1.99503997793931
20
11.8560164651631
30
0
41
1
10
-1.99503997793928
20
12.2268504032846
30
0
41
1
10
-1.99503997793931
20
12.595036086484
30
0
41
1
10
-1.99503997793928
20
12.960574817857
30
0
41
1
10
-1.99503997793928
20
13.3234688690064
30
0
41
1
10
-1.99503997793931
20
13.683719865638
30
0
41
1
10
-1.99503997793928
20
14.0413293344855
30
0
41
1
10
-1.99503997793928
20
14.3962994527457
30
0
41
1
10
-1.99503997793928
20
14.7486306960068
30
0
41
1
10
-1.99503997793928
20
15.0983254904573
30
0
41
1
10
-1.99503997793928
20
15.4453839893882
30
0
41
1
10
-1.99503997793931
20
15.9047277931739
30
0
41
1
10
-1.99503997793931
20
16.3584761888621
30
0
41
1
10
-1.99503997793928
20
16.7511340488146
30
0
41
1
10
-1.99503997793928
20
16.9742159130046
30
0
41
1
10
-1.99503997793931
20
17.1964201976603
30
0
41
1
10
-1.99503997793928
20
17.4724160404973
30
0
41
1
10
-1.99503997793931
20
17.8010357300387
30
0
41
1
10
-1.99503997793928
20
18.1270203682571
30
0
41
1
10
-1.99503997793928
20
18.5582479543883
30
0
41
1
10
-1.99503997793928
20
18.9839194912414
30
0
41
1
10
-1.99503997793928
20
19.404584123
30
0
41
1
10
-1.99503997793931
20
19.7173732272647
30
0
41
1
10
-1.99503997793931
20
20.0275173382952
30
0
41
1
10
-1.99503997793928
20
20.4375997068478
30
0
41
1
10
-1.99503997793928
20
20.8421270565358
30
0
41
1
10
-1.99503997793928
20
21.2415899298926
30
0
41
1
10
-1.99503997793928
20
21.538466032195
30
0
41
1
10
-1.99503997793928
20
21.8326778029793
30
0
41
1
10
-1.99503997793928
20
22.2214812917415
30
0
41
1
10
-1.99503997793931
20
22.6047071741368
30
0
41
1
10
-1.99503997793928
20
22.9827956359496
30
0
41
1
10
-1.99503997793931
20
23.2636185109001
30
0
41
1
10
-1.99503997793928
20
23.5417479137996
30
0
41
1
10
-1.99503997793928
20
23.9090605721076
30
0
41
1
10
-1.99503997793928
20
24.3612782589388
30
0
41
1
10
-1.99503997793931
20
24.8044353771775
30
0
41
1
10
-1.99503997793931
20
25.1536176922537
30
0
41
1
10
-1.99503997793931
20
25.499146074063
30
0
41
1
10
-1.99503997793928
20
25.9240385075183
30
0
41
1
10
-1.99503997793931
20
26.4229269800761
30
0
41
1
10
-1.99503997793931
20
26.8293292051835
30
0
41
1
10
-1.99503997793931
20
27.1489558193584
30
0
41
1
10
-1.99503997793928
20
27.3858182086698
30
0
41
1
10
-1.99503997793928
20
27.6198572645246
30
0
41
1
10
-1.99503997793928
20
27.9281887523049
30
0
41
1
10
-1.99503997793928
20
28.3063605307707
30
0
41
1
10
-1.99503997793931
20
28.6749709038125
30
0
41
1
10
-1.99503997793928
20
28.9641695784931
30
0
41
1
10
-1.99503997793931
20
29.1781205774539
30
0
41
1
10
-1.99503997793931
20
29.3891503890766
30
0
41
1
10
-1.99503997793931
20
29.6666623731205
30
0
41
1
10
-1.99503997793931
20
30.0060620312649
30
0
41
1
10
-1.99503997793931
20
30.4014843150582
30
0
41
1
10
-1.99503997793928
20
30.7209148294369
30
0
41
1
10
-1.99503997793928
20
30.9704527178571
30
0
41
1
10
-1.99503997793931
20
31.2159040588431
30
0
41
1
10
-1.99503997793928
20
31.514907021043
30
0
41
1
10
-1.99503997793931
20
31.8035081358321
30
0
41
1
10
-1.99503997793928
20
32.0281430685795
30
0
41
1
10
-1.99503997793931
20
32.1934025758849
30
0
41
1
10
-1.99503997793931
20
32.3554556995002
30
0
41
1
10
-1.99503997793931
20
32.567262400264
30
0
41
1
10
-1.99503997793931
20
32.8237966604288
30
0
41
1
10
-1.99503997793928
20
33.0693268620525
30
0
41
1
10
-1.99503997793931
20
33.2591101879707
30
0
41
1
10
-1.99503997793931
20
33.4443819493482
30
0
41
1
10
-1.99503997793931
20
33.6227215100013
30
0
41
1
10
-1.99503997793931
20
33.7942266244679
30
0
41
1
10
-1.99503997793931
20
33.8984584677328
30
0
41
1
10
-1.99503997793934
20
33.9801067081201
30
0
41
1
10
-1.99503997793931
20
34.0605701934049
30
0
41
1
10
-1.99503997793931
20
34.1982444859642
30
0
41
1
10
-1.99503997793931
20
34.348294898698
30
0
41
1
10
-1.99503997793931
20
34.4910822904625
30
0
41
1
10
-1.99503997793931
20
34.5944312751918
30
0
41
1
10
-1.99503997793931
20
34.6940212809506
30
0
41
1
10
-1.99503997793931
20
34.7898102805557
30
0
41
1
10
-1.99503997793931
20
34.8817544969816
30
0
41
1
10
-1.99503997793931
20
34.9698083210839
30
0
41
1
10
-1.99503997793931
20
35.0539244294382
30
0
41
1
10
-1.99503997793931
20
35.1340535550079
30
0
41
1
10
-1.99503997793931
20
35.21014434818
30
0
41
1
10
-1.99503997793931
20
35.2821433047988
30
0
41
1
10
-1.99503997793931
20
35.3499946094464
30
0
41
1
10
-1.99503997793931
20
35.4136393963592
30
0
41
1
10
-1.99503997793931
20
35.4730177383402
30
0
41
1
10
-1.99503997793931
20
35.5280658411497
30
0
41
1
10
-1.99503997793931
20
35.5787156149852
30
0
41
1
10
-1.99503997793931
20
35.6248991978807
30
0
41
1
10
-1.99503997793931
20
35.666541278464
30
0
41
1
10
-1.99503997793931
20
35.7035662791797
30
0
41
1
10
-1.99503997793931
20
35.7358925640299
30
0
41
1
10
-1.99503997793931
20
35.7634347530321
30
0
41
1
10
-1.99503997793928
20
35.7861037183981
30
0
41
1
10
-1.99503997793931
20
35.8038035395423
30
0
41
1
10
-1.99503997793934
20
35.8143275520899
30
0
41
1
10
-1.99503997793934
20
35.8201626633944
30
0
41
1
10
-1.99503997793931
20
35.8232300538525
30
0
41
1
10
-1.99503997793931
20
35.8249588086443
30
0
41
1
10
-1.99503997793931
20
35.8252399454615
30
0
41
1
10
-1.99503997793931
20
35.8251660673948
30
0
0
SPLINE
5
195
100
AcDbEntity
8
1
62
256
6
ByLayer
370
18
48
1
60
0
100
AcDbSpline
70
4
71
3
72
16
73
12
40
0
40
0
40
0
40
0
40
0.250000000000002
40
0.250000000000002
40
0.500000000000005
40
0.500000000000005
40
0.750000000000007
40
0.750000000000007
40
0.875000000000004
40
0.875000000000004
40
1
40
1
40
1
40
1
41
1
10
13.3556624327026
20
-47.532474059346
30
0
41
1
10
13.371336956423
20
-47.5510763302182
30
0
41
1
10
13.390077598984
20
-47.5691972862268
30
0
41
1
10
13.4357910527648
20
-47.6042475586048
30
0
41
1
10
13.4628368001564
20
-47.6212962856129
30
0
41
1
10
13.5295052401434
20
-47.6531299493423
30
0
41
1
10
13.5692020024502
20
-47.6679778471913
30
0
41
1
10
13.641729016901
20
-47.685218753302
30
0
41
1
10
13.6686700313504
20
-47.6901974749824
30
0
41
1
10
13.7262200642961
20
-47.6971341405704
30
0
41
1
10
13.7572518777782
20
-47.6991123363141
30
0
41
1
10
13.7886751345948
20
-47.6991123363142
30
0
0
SPLINE
5
196
100
AcDbEntity
8
SK1
62
256
6
ByLayer
370
18
48
1
60
0
100
AcDbSpline
70
4
71
3
72
24
73
20
40
0
40
0
40
0
40
0
40
0.25
40
0.25
40
0.3125
40
0.3125
40
0.375
40
0.375
40
0.5
40
0.5
40
0.625
40
0.625
40
0.75
40
0.75
40
0.8125
40
0.8125
40
0.875
40
0.875
40
1
40
1
40
1
40
1
41
1
10
-1.30710678118652
20
-4.60538005832734
30
0
41
1
10
-1.43445095565676
20
-3.85978933676717
30
0
41
1
10
-1.54387892248153
20
-3.10383348780144
30
0
41
1
10
-1.64182277486114
20
-2.14038734740558
30
0
41
1
10
-1.65943153712075
20
-1.94675919611089
30
0
41
1
10
-1.69016128102564
20
-1.55744142286926
30
0
41
1
10
-1.7032901277519
20
-1.36146410626918
30
0
41
1
10
-1.73493134584371
20
-0.775190730927392
30
0
41
1
10
-1.74573673637372
20
-0.385182075791505
30
0
41
1
10
-1.74559091779457
20
0.393092212237605
30
0
41
1
10
-1.73464574767843
20
0.781358231864147
30
0
41
1
10
-1.69272967974092
20
1.55625432464245
30
0
41
1
10
-1.66183533058268
20
1.94288898079074
30
0
41
1
10
-1.60308307844798
20
2.52176892060308
30
0
41
1
10
-1.58142702957946
20
2.71455586541933
30
0
41
1
10
-1.53472161640747
20
3.09756881527216
30
0
41
1
10
-1.5096411313821
20
3.28809225111149
30
0
41
1
10
-1.42989928264944
20
3.85698267981991
30
0
41
1
10
-1.37076249597749
20
4.23268030289691
30
0
41
1
10
-1.30710678119235
20
4.60538003003174
30
0
0
SPLINE
5
197
100
AcDbEntity
8
1
62
256
6
ByLayer
370
18
48
1
60
0
100
AcDbSpline
70
4
71
3
72
30
73
26
40
0
40
0
40
0
40
0
40
0.250000000000001
40
0.250000000000001
40
0.375000000000001
40
0.375000000000001
40
0.500000000000002
40
0.500000000000002
40
0.625000000000002
40
0.625000000000002
40
0.687500000000002
40
0.687500000000002
40
0.750000000000002
40
0.750000000000002
40
0.812500000000002
40
0.812500000000002
40
0.875000000000002
40
0.875000000000002
40
0.906250000000002
40
0.906250000000002
40
0.937500000000001
40
0.937500000000001
40
0.968750000000001
40
0.968750000000001
40
1
40
1
40
1
40
1
41
1
10
41.4026774362496
20
-63.2961901915426
30
0
41
1
10
41.030061421738
20
-61.8149061722864
30
0
41
1
10
40.662639807054
20
-60.3299531859498
30
0
41
1
10
40.1245110091994
20
-58.1083550457009
30
0
41
1
10
39.9472403301769
20
-57.3684758160842
30
0
41
1
10
39.5976729356544
20
-55.8900773119847
30
0
41
1
10
39.425368794985
20
-55.1515393015777
30
0
41
1
10
39.0878364015708
20
-53.6799772129511
30
0
41
1
10
38.9224765526353
20
-52.9464844085706
30
0
41
1
10
38.6812110371642
20
-51.8506630812061
30
0
41
1
10
38.6018678656062
20
-51.4858542980442
30
0
41
1
10
38.4462479972455
20
-50.7595657357119
30
0
41
1
10
38.3699832362867
20
-50.3981665957878
30
0
41
1
10
38.2212933491658
20
-49.6797546548479
30
0
41
1
10
38.1488552459116
20
-49.3227243091278
30
0
41
1
10
38.0090572984947
20
-48.6145954328325
30
0
41
1
10
37.941656534519
20
-48.263441189353
30
0
41
1
10
37.846188513694
20
-47.743522116627
30
0
41
1
10
37.8154074115147
20
-47.5718437779423
30
0
41
1
10
37.7567886768859
20
-47.2342786402831
30
0
41
1
10
37.7289033861832
20
-47.0681706829622
30
0
41
1
10
37.6770455598897
20
-46.7434603608424
30
0
41
1
10
37.6530385493215
20
-46.584786685184
30
0
41
1
10
37.610997582574
20
-46.279154555203
30
0
41
1
10
37.5927724590329
20
-46.1307982233385
30
0
41
1
10
37.5805459037026
20
-45.9988582565092
30
0
0
SPLINE
5
198
100
AcDbEntity
8
1
62
256
6
ByLayer
370
18
48
1
60
0
100
AcDbSpline
70
4
71
3
72
8
73
4
40
0
40
0
40
0
40
0
40
1
40
1
40
1
40
1
41
1
10
76.1610222760537
20
-47.0386433605666
30
0
41
1
10
76.1357571096663
20
-46.8018061841711
30
0
41
1
10
76.1134952524936
20
-46.5738138607899
30
0
41
1
10
76.0930502419267
20
-46.3511722156204
30
0
0
SPLINE
5
199
100
AcDbEntity
8
1
62
256
6
ByLayer
370
18
48
1
60
0
100
AcDbSpline
70
4
71
3
72
10
73
6
40
0
40
0
40
0
40
0
40
0.5
40
0.5
40
1
40
1
40
1
40
1
41
1
10
72.101268299793
20
-46.8605144579794
30
0
41
1
10
72.1115487974868
20
-46.9724668050914
30
0
41
1
10
72.1223577664511
20
-47.0864530789146
30
0
41
1
10
72.1449863295628
20
-47.3159220156938
30
0
41
1
10
72.1568108610547
20
-47.4314709830577
30
0
41
1
10
72.1692403339201
20
-47.5479856029256
30
0
0
SPLINE
5
19A
100
AcDbEntity
8
1
62
256
6
ByLayer
370
18
48
1
60
0
100
AcDbSpline
70
4
71
3
72
10
73
6
40
0
40
0
40
0
40
0
40
0.5
40
0.5
40
1
40
1
40
1
40
1
41
1
10
74.5969185720779
20
-45.7134876430818
30
0
41
1
10
74.4883292380631
20
-45.6687010266373
30
0
41
1
10
74.3800040792672
20
-45.6243628142995
30
0
41
1
10
74.1681671861694
20
-45.5382157866783
30
0
41
1
10
74.0640816104469
20
-45.4961677125359
30
0
41
1
10
73.9613872829992
20
-45.4548980026671
30
0
0
SPLINE
5
19B
100
AcDbEntity
8
1
62
256
6
ByLayer
370
18
48
1
60
0
100
AcDbSpline
70
4
71
3
72
8
73
4
40
0
40
0
40
0
40
0
40
1
40
1
40
1
40
1
41
1
10
75.7821535353307
20
-49.0670629610516
30
0
41
1
10
75.9790180271619
20
-48.9236219211137
30
0
41
1
10
76.1727527857149
20
-48.7864470489386
30
0
41
1
10
76.3645942176482
20
-48.653062883886
30
0
0
SPLINE
5
19C
100
AcDbEntity
8
1
62
256
6
ByLayer
370
18
48
1
60
0
100
AcDbSpline
70
4
71
3
72
10
73
6
40
0
40
0
40
0
40
0
40
0.5
40
0.5
40
1
40
1
40
1
40
1
41
1
10
76.3645942176482
20
-48.653062883886
30
0
41
1
10
76.3476789873302
20
-48.5344758041497
30
0
41
1
10
76.3308895410402
20
-48.4145090530009
30
0
41
1
10
76.2981913389136
20
-48.1749704772068
30
0
41
1
10
76.2822711056323
20
-48.0553258080534
30
0
41
1
10
76.2668593287896
20
-47.9358288842082
30
0
0
SPLINE
5
19D
100
AcDbEntity
8
1
62
256
6
ByLayer
370
18
48
1
60
0
100
AcDbSpline
70
4
71
3
72
10
73
6
40
0
40
0
40
0
40
0
40
0.5
40
0.5
40
1
40
1
40
1
40
1
41
1
10
76.0930502419267
20
-46.3511722156204
30
0
41
1
10
75.9834709470625
20
-46.3031846425586
30
0
41
1
10
75.8731253665774
20
-46.2550686123919
30
0
41
1
10
75.6504084234433
20
-46.1584969579111
30
0
41
1
10
75.5386923774417
20
-46.110329219833
30
0
41
1
10
75.4277560981164
20
-46.062819720474
30
0
0
SPLINE
5
19E
100
AcDbEntity
8
1
62
256
6
ByLayer
370
18
48
1
60
0
100
AcDbSpline
70
4
71
3
72
8
73
4
40
0
40
0
40
0
40
0
40
1
40
1
40
1
40
1
41
1
10
72.653946127379
20
-46.4167515260821
30
0
41
1
10
72.4631437113108
20
-46.5662546417832
30
0
41
1
10
72.2799151196898
20
-46.7139356808902
30
0
41
1
10
72.101268299793
20
-46.8605144579794
30
0
0
SPLINE
5
19F
100
AcDbEntity
8
1
62
256
6
ByLayer
370
18
48
1
60
0
100
AcDbSpline
70
4
71
3
72
10
73
6
40
0
40
0
40
0
40
0
40
0.5
40
0.5
40
1
40
1
40
1
40
1
41
1
10
73.0083435645932
20
-49.4209947666598
30
0
41
1
10
72.8997542305785
20
-49.3762081502153
30
0
41
1
10
72.7914290717825
20
-49.3318699378774
30
0
41
1
10
72.5795921786847
20
-49.2457229102562
30
0
41
1
10
72.4755066029622
20
-49.2036748361138
30
0
41
1
10
72.3728122755145
20
-49.162405126245
30
0
0
SPLINE
5
1A0
100
AcDbEntity
8
1
62
256
6
ByLayer
370
18
48
1
60
0
100
AcDbSpline
70
4
71
3
72
10
73
6
40
0
40
0
40
0
40
0
40
0.5
40
0.5
40
1
40
1
40
1
40
1
41
1
10
74.5044752344421
20
-50.0586793391983
30
0
41
1
10
74.5943053772992
20
-49.9849741789645
30
0
41
1
10
74.6858418833095
20
-49.9105539140618
30
0
41
1
10
74.8703055898248
20
-49.7623227459122
30
0
41
1
10
74.9632857422246
20
-49.6884660879723
30
0
41
1
10
75.057153062028
20
-49.6149164073011
30
0
0
SPLINE
5
1A1
100
AcDbEntity
8
1
62
256
6
ByLayer
370
18
48
1
60
0
100
AcDbSpline
70
4
71
3
72
8
73
4
40
0
40
0
40
0
40
0
40
1
40
1
40
1
40
1
41
1
10
72.2750773866559
20
-48.4451711265672
30
0
41
1
10
72.3064046288064
20
-48.6880703787258
30
0
41
1
10
72.339172652911
20
-48.9265688690389
30
0
41
1
10
72.3728122755145
20
-49.162405126245
30
0
0
SPLINE
5
1A2
100
AcDbEntity
8
1
62
256
6
ByLayer
370
18
48
1
60
0
100
AcDbSpline
70
4
71
3
72
10
73
6
40
0
40
0
40
0
40
0
40
0.5
40
0.5
40
1
40
1
40
1
40
1
41
1
10
73.9613872829992
20
-45.4548980026671
30
0
41
1
10
73.8649224075177
20
-45.5219684302766
30
0
41
1
10
73.7674054241818
20
-45.5904082178536
30
0
41
1
10
73.5728720786516
20
-45.7285697469883
30
0
41
1
10
73.4757962244624
20
-45.7983307031388
30
0
41
1
10
73.3789466006816
20
-45.8688980798327
30
0
0
SPLINE
5
1A3
100
AcDbEntity
8
1
62
256
6
ByLayer
370
18
48
1
60
0
100
AcDbSpline
70
4
71
3
72
10
73
6
40
0
40
0
40
0
40
0
40
0.5
40
0.5
40
1
40
1
40
1
40
1
41
1
10
74.5044752344421
20
-50.0586793391983
30
0
41
1
10
74.3948959395778
20
-50.0106917661366
30
0
41
1
10
74.2845503590928
20
-49.9625757359699
30
0
41
1
10
74.0618334159586
20
-49.8660040814891
30
0
41
1
10
73.9501173699571
20
-49.8178363434109
30
0
41
1
10
73.8391810906317
20
-49.770326844052
30
0
0
SPLINE
5
1A4
100
AcDbEntity
8
1
62
256
6
ByLayer
370
18
48
1
60
0
100
AcDbSpline
70
4
71
3
72
8
73
4
40
0
40
0
40
0
40
0
40
1
40
1
40
1
40
1
41
1
10
88.2832464403145
20
-54.5766695661942
30
0
41
1
10
88.1004119680197
20
-54.5547549687559
30
0
41
1
10
87.9176271886796
20
-54.5328803584595
30
0
41
1
10
87.7348750375952
20
-54.5110319708921
30
0
0
SPLINE
5
1A5
100
AcDbEntity
8
1
62
256
6
ByLayer
370
18
48
1
60
0
100
AcDbSpline
70
4
71
3
72
16
73
12
40
0
40
0
40
0
40
0
40
0.32729595079346
40
0.32729595079346
40
0.491993805395903
40
0.491993805395903
40
0.656691659998346
40
0.656691659998346
40
0.986087369203251
40
0.986087369203251
40
1
40
1
40
1
40
1
41
1
10
93.3763769438925
20
-51.583862786873
30
0
41
1
10
93.5235918967082
20
-51.7308042692765
30
0
41
1
10
93.6576757535991
20
-51.8888795670544
30
0
41
1
10
93.8398834655272
20
-52.1429813485057
30
0
41
1
10
93.8976033944638
20
-52.230833712091
30
0
41
1
10
94.0063697269345
20
-52.4122438534657
30
0
41
1
10
94.0568765977958
20
-52.5049448898589
30
0
41
1
10
94.1960842669752
20
-52.7866568911732
30
0
41
1
10
94.2730553942547
20
-52.9801555838691
30
0
41
1
10
94.3375770712808
20
-53.187179731412
30
0
41
1
10
94.3401649253552
20
-53.1955815775674
30
0
41
1
10
94.3427258514138
20
-53.2039948574509
30
0
0
SPLINE
5
1A6
100
AcDbEntity
8
1
62
256
6
ByLayer
370
18
48
1
60
0
100
AcDbSpline
70
4
71
3
72
8
73
4
40
0
40
0
40
0
40
0
40
1
40
1
40
1
40
1
41
1
10
89.4085289676808
20
-57.738380824722
30
0
41
1
10
89.5649259869279
20
-57.7957454160391
30
0
41
1
10
89.7243647648065
20
-57.8424751317025
30
0
41
1
10
89.8868295443312
20
-57.8786671981873
30
0
0
SPLINE
5
1A7
100
AcDbEntity
8
1
62
256
6
ByLayer
370
18
48
1
60
0
100
AcDbSpline
70
4
71
3
72
8
73
4
40
0
40
0
40
0
40
0
40
1
40
1
40
1
40
1
41
1
10
89.0412204313408
20
-57.5278362970067
30
0
41
1
10
88.7780119611207
20
-57.4007546445708
30
0
41
1
10
88.5129521836583
20
-57.2730257393015
30
0
41
1
10
88.2430444976668
20
-57.1436019114069
30
0
0
SPLINE
5
1A8
100
AcDbEntity
8
1
62
256
6
ByLayer
370
18
48
1
60
0
100
AcDbSpline
70
4
71
3
72
8
73
4
40
0
40
0
40
0
40
0
40
1
40
1
40
1
40
1
41
1
10
94.0155760721185
20
-56.9868719894324
30
0
41
1
10
94.1188091040347
20
-57.085236691362
30
0
41
1
10
94.2219647888792
20
-57.1835879654697
30
0
41
1
10
94.3250697352379
20
-57.2819304101139
30
0
0
SPLINE
5
1A9
100
AcDbEntity
8
1
62
256
6
ByLayer
370
18
48
1
60
0
100
AcDbSpline
70
4
71
3
72
18
73
14
40
0
40
0
40
0
40
0
40
0.187578577796601
40
0.187578577796601
40
0.458385718531068
40
0.458385718531068
40
0.593789288898301
40
0.593789288898301
40
0.729192859265534
40
0.729192859265534
40
0.864596429632767
40
0.864596429632767
40
1
40
1
40
1
40
1
41
1
10
87.647932176041
20
-55.3673323601292
30
0
41
1
10
87.6608056865333
20
-55.4078767814973
30
0
41
1
10
87.673995471775
20
-55.4471766820279
30
0
41
1
10
87.7064396167145
20
-55.5395291082808
30
0
41
1
10
87.7259729670484
20
-55.5913511420689
30
0
41
1
10
87.7529555849665
20
-55.6604357274365
30
0
41
1
10
87.7615166765141
20
-55.6819294075489
30
0
41
1
10
87.7770166434694
20
-55.720826003011
30
0
41
1
10
87.7839280751529
20
-55.7381623479727
30
0
41
1
10
87.7945876091693
20
-55.7661453318389
30
0
41
1
10
87.7984053576139
20
-55.7769600590482
30
0
41
1
10
87.8013313491352
20
-55.7896814195437
30
0
41
1
10
87.8003175686239
20
-55.7912167850697
30
0
41
1
10
87.7964597483274
20
-55.7873589647732
30
0
0
SPLINE
5
1AA
100
AcDbEntity
8
1
62
256
6
ByLayer
370
18
48
1
60
0
100
AcDbSpline
70
4
71
3
72
8
73
4
40
0
40
0
40
0
40
0
40
1
40
1
40
1
40
1
41
1
10
95.1383765379593
20
-55.3837885216055
30
0
41
1
10
94.9884365728078
20
-55.3947523199711
30
0
41
1
10
94.8384565185458
20
-55.4056824347526
30
0
41
1
10
94.6884153786877
20
-55.4165611697511
30
0
0
SPLINE
5
1AB
100
AcDbEntity
8
1
62
256
6
ByLayer
370
18
48
1
60
0
100
AcDbSpline
70
4
71
3
72
16
73
12
40
0
40
0
40
0
40
0
40
0.0304473849159801
40
0.0304473849159801
40
0.224357907932781
40
0.224357907932781
40
0.418268430949583
40
0.418268430949583
40
0.612178953966384
40
0.612178953966384
40
1
40
1
40
1
40
1
41
1
10
87.8617871289382
20
-56.3201740563486
30
0
41
1
10
87.8717918243185
20
-56.3378852843521
30
0
41
1
10
87.8820050719527
20
-56.3555695396374
30
0
41
1
10
87.958668852177
20
-56.485387889673
30
0
41
1
10
88.0327416551222
20
-56.5952104383111
30
0
41
1
10
88.1957692933186
20
-56.8078920764956
30
0
41
1
10
88.2847329970301
20
-56.9107880157196
30
0
41
1
10
88.4776309116555
20
-57.1082403464749
30
0
41
1
10
88.5817463894394
20
-57.2027800717001
30
0
41
1
10
88.9084922321985
20
-57.4654571217271
30
0
41
1
10
89.1479043255813
20
-57.615674066587
30
0
41
1
10
89.4085289676808
20
-57.738380824722
30
0
0
SPLINE
5
1AC
100
AcDbEntity
8
1
62
256
6
ByLayer
370
18
48
1
60
0
100
AcDbSpline
70
4
71
3
72
8
73
4
40
0
40
0
40
0
40
0
40
1
40
1
40
1
40
1
41
1
10
88.5481818403165
20
-52.6128900823841
30
0
41
1
10
88.6840989726081
20
-52.7440447129611
30
0
41
1
10
88.8200593825306
20
-52.8752007121468
30
0
41
1
10
88.9560857468835
20
-53.0063587465131
30
0
0
SPLINE
5
1AD
100
AcDbEntity
8
SK4
62
256
6
ByLayer
370
13
48
0.05
60
0
100
AcDbSpline
70
4
71
1
72
5
73
3
40
0
40
0
40
0.399131717821142
40
1
40
1
41
1
10
107.186138409617
20
0
30
0
41
1
10
36.1861384096172
20
0
30
0
41
1
10
-70.7
20
0
30
0
0
SPLINE
5
1B0
100
AcDbEntity
8
4
62
256
6
ByLayer
370
13
48
0.05
60
0
100
AcDbSpline
70
4
71
2
72
7
73
4
40
0
40
0
40
0
40
0.951721751168023
40
1
40
1
40
1
41
1
10
107.8
20
4.2121708306E-06
30
0
41
1
10
52.7999999999999
20
2.0575771743E-06
30
0
41
1
10
-4.98999999999996
20
-2.06313142E-07
30
0
41
1
10
-7.7799999999999
20
-3.156017704E-07
30
0
0
LINE
5
73
100
AcDbEntity
8
1
62
256
6
ByLayer
370
18
48
1
60
1
100
AcDbLine
10
0
20
0
30
0
11
0
21
297
31
0
39
0
210
0
220
0
230
1
0
LINE
5
74
100
AcDbEntity
8
1
62
256
6
ByLayer
370
18
48
1
60
1
100
AcDbLine
10
420
20
297
30
0
11
0
21
297
31
0
39
0
210
0
220
0
230
1
0
LINE
5
75
100
AcDbEntity
8
1
62
256
6
ByLayer
370
18
48
1
60
1
100
AcDbLine
10
420
20
297
30
0
11
420
21
0
31
0
39
0
210
0
220
0
230
1
0
LINE
5
76
100
AcDbEntity
8
1
62
256
6
ByLayer
370
18
48
1
60
1
100
AcDbLine
10
0
20
0
30
0
11
420
21
0
31
0
39
0
210
0
220
0
230
1
0
LINE
5
77
100
AcDbEntity
8
1
62
256
6
ByLayer
370
18
48
1
60
0
100
AcDbLine
10
53.998838
20
-65.557379
30
0
11
54.587
21
-65.866951
31
0
39
0
210
0
220
0
230
1
0
LINE
5
78
100
AcDbEntity
8
1
62
256
6
ByLayer
370
18
48
1
60
0
100
AcDbLine
10
0.3
20
50
30
0
11
0
21
49.7
31
0
39
0
210
0
220
0
230
1
0
LINE
5
79
100
AcDbEntity
8
1
62
256
6
ByLayer
370
18
48
1
60
0
100
AcDbLine
10
0
20
-49.7
30
0
11
0.3
21
-50
31
0
39
0
210
0
220
0
230
1
0
LINE
5
7A
100
AcDbEntity
8
1
62
256
6
ByLayer
370
18
48
1
60
0
100
AcDbLine
10
0.3
20
-50
30
0
11
36.186138
21
-50
31
0
39
0
210
0
220
0
230
1
0
LINE
5
7B
100
AcDbEntity
8
1
62
256
6
ByLayer
370
18
48
1
60
0
100
AcDbLine
10
36.186138
20
50
30
0
11
0.3
21
50
31
0
39
0
210
0
220
0
230
1
0
LINE
5
7C
100
AcDbEntity
8
1
62
256
6
ByLayer
370
18
48
1
60
0
100
AcDbLine
10
38
20
50.15
30
0
11
36.652507
21
50.15
31
0
39
0
210
0
220
0
230
1
0
LINE
5
7D
100
AcDbEntity
8
1
62
256
6
ByLayer
370
18
48
1
60
0
100
AcDbLine
10
36.958879
20
-50.592945
30
0
11
41.113397
21
-66.097815
31
0
39
0
210
0
220
0
230
1
0
LINE
5
7E
100
AcDbEntity
8
1
62
256
6
ByLayer
370
18
48
1
60
0
100
AcDbLine
10
93.989737
20
-52.761532
30
0
11
93.399275
21
-52.171071
31
0
39
0
210
0
220
0
230
1
0
LINE
5
7F
100
AcDbEntity
8
1
62
256
6
ByLayer
370
18
48
1
60
0
100
AcDbLine
10
88.293053
20
-56.542827
30
0
11
88.883515
21
-57.133288
31
0
39
0
210
0
220
0
230
1
0
LINE
5
80
100
AcDbEntity
8
1
62
256
6
ByLayer
370
18
48
1
60
0
100
AcDbLine
10
93.379108
20
-51.586592
30
0
11
93.330679
21
-51.538163
31
0
39
0
210
0
220
0
230
1
0
LINE
5
81
100
AcDbEntity
8
1
62
256
6
ByLayer
370
18
48
1
60
0
100
AcDbLine
10
88.336835
20
-56.9655
30
0
11
88.409815
21
-57.03848
31
0
39
0
210
0
220
0
230
1
0
LINE
5
82
100
AcDbEntity
8
1
62
256
6
ByLayer
370
18
48
1
60
0
100
AcDbLine
10
70.270107
20
-31.71274
30
0
11
70.454694
21
-31.371075
31
0
39
0
210
0
220
0
230
1
0
LINE
5
83
100
AcDbEntity
8
1
62
256
6
ByLayer
370
18
48
1
60
0
100
AcDbLine
10
70.440622
20
-29.328815
30
0
11
70.251344
21
-28.989726
31
0
39
0
210
0
220
0
230
1
0
LINE
5
84
100
AcDbEntity
8
1
62
256
6
ByLayer
370
18
48
1
60
0
100
AcDbLine
10
86.473357
20
-46.748666
30
0
11
90.748738
21
-42.473285
31
0
39
0
210
0
220
0
230
1
0
LINE
5
85
100
AcDbEntity
8
1
62
256
6
ByLayer
370
18
48
1
60
0
100
AcDbLine
10
78.962151
20
-54.259872
30
0
11
82.537496
21
-50.684527
31
0
39
0
210
0
220
0
230
1
0
LINE
5
86
100
AcDbEntity
8
1
62
256
6
ByLayer
370
18
48
1
60
0
100
AcDbLine
10
86.473357
20
-46.748666
30
0
11
90.748738
21
-42.473285
31
0
39
0
210
0
220
0
230
1
0
LINE
5
87
100
AcDbEntity
8
1
62
256
6
ByLayer
370
18
48
1
60
0
100
AcDbLine
10
78.962151
20
-54.259872
30
0
11
82.537496
21
-50.684527
31
0
39
0
210
0
220
0
230
1
0
LINE
5
88
100
AcDbEntity
8
1
62
256
6
ByLayer
370
18
48
1
60
0
100
AcDbLine
10
64.143505
20
-38.55889
30
0
11
64.98412
21
-38.489169
31
0
39
0
210
0
220
0
230
1
0
LINE
5
89
100
AcDbEntity
8
1
62
256
6
ByLayer
370
18
48
1
60
0
100
AcDbLine
10
91.849134
20
-41.889884
30
0
11
92.474039
21
-42.514789
31
0
39
0
210
0
220
0
230
1
0
LINE
5
8A
100
AcDbEntity
8
1
62
256
6
ByLayer
370
13
48
1
60
0
100
AcDbLine
10
90.798435
20
-42.522983
30
0
11
90.748735
21
-42.473283
31
0
39
0
210
0
220
0
230
1
0
LINE
5
8B
100
AcDbEntity
8
1
62
256
6
ByLayer
370
13
48
1
60
0
100
AcDbLine
10
78.962149
20
-54.259869
30
0
11
79.011849
21
-54.309569
31
0
39
0
210
0
220
0
230
1
0
LINE
5
8C
100
AcDbEntity
8
1
62
256
6
ByLayer
370
18
48
1
60
0
100
AcDbLine
10
90.798435
20
-42.522983
30
0
11
79.011849
21
-54.309569
31
0
39
0
210
0
220
0
230
1
0
LINE
5
8D
100
AcDbEntity
8
1
62
256
6
ByLayer
370
18
48
1
60
0
100
AcDbLine
10
79.003655
20
-55.985173
30
0
11
90.675535
21
-67.657053
31
0
39
0
210
0
220
0
230
1
0
LINE
5
8E
100
AcDbEntity
8
1
62
256
6
ByLayer
370
18
48
1
60
0
100
AcDbLine
10
92.35114
20
-67.64886
30
0
11
104.137726
21
-55.862274
31
0
39
0
210
0
220
0
230
1
0
LINE
5
8F
100
AcDbEntity
8
1
62
256
6
ByLayer
370
18
48
1
60
0
100
AcDbLine
10
104.145919
20
-54.186669
30
0
11
92.474039
21
-42.514789
31
0
39
0
210
0
220
0
230
1
0
LINE
5
90
100
AcDbEntity
8
1
62
256
6
ByLayer
370
18
48
1
60
0
100
AcDbLine
10
79.003655
20
-55.985173
30
0
11
78.37875
21
-55.360268
31
0
39
0
210
0
220
0
230
1
0
LINE
5
91
100
AcDbEntity
8
1
62
256
6
ByLayer
370
18
48
1
60
0
100
AcDbLine
10
83.151147
20
-49.867811
30
0
11
85.656641
21
-47.362317
31
0
39
0
210
0
220
0
230
1
0
LINE
5
92
100
AcDbEntity
8
1
62
256
6
ByLayer
370
18
48
1
60
0
100
AcDbLine
10
77.5121
20
-28.712505
30
0
11
76.861953
21
-28.062358
31
0
39
0
210
0
220
0
230
1
0
LINE
5
93
100
AcDbEntity
8
1
62
256
6
ByLayer
370
13
48
1
60
0
100
AcDbLine
10
68.918923
20
-46.990981
30
0
11
77.5121
21
-28.712505
31
0
39
0
210
0
220
0
230
1
0
LINE
5
94
100
AcDbEntity
8
1
62
256
6
ByLayer
370
18
48
1
60
0
100
AcDbLine
10
90.79811
20
-42.426625
30
0
11
90.822535
21
-42.02294
31
0
39
0
210
0
220
0
230
1
0
LINE
5
95
100
AcDbEntity
8
1
62
256
6
ByLayer
370
18
48
1
60
0
100
AcDbLine
10
64.880368
20
-41.564689
30
0
11
64.857736
21
-41.291821
31
0
39
0
210
0
220
0
230
1
0
LINE
5
96
100
AcDbEntity
8
1
62
256
6
ByLayer
370
18
48
1
60
0
100
AcDbLine
10
71.955175
20
-66.097815
30
0
11
68.177824
21
-50.745486
31
0
39
0
210
0
220
0
230
1
0
LINE
5
97
100
AcDbEntity
8
1
62
256
6
ByLayer
370
18
48
1
60
0
100
AcDbLine
10
64.433858
20
-63.297815
30
0
11
41.565325
21
-63.297815
31
0
39
0
210
0
220
0
230
1
0
LINE
5
98
100
AcDbEntity
8
1
62
256
6
ByLayer
370
13
48
1
60
0
100
AcDbLine
10
13.788675
20
-14.993155
30
0
11
13.788675
21
-47.699112
31
0
39
0
210
0
220
0
230
1
0
LINE
5
99
100
AcDbEntity
8
1
62
256
6
ByLayer
370
18
48
1
60
0
100
AcDbLine
10
88.184799
20
-65.166326
30
0
11
87.253309
21
-66.097815
31
0
39
0
210
0
220
0
230
1
0
LINE
5
9A
100
AcDbEntity
8
SK1
62
256
6
ByLayer
370
13
48
1
60
0
100
AcDbLine
10
-1.307107
20
4.60538
30
0
11
-1.307107
21
-4.60538
31
0
39
0
210
0
220
0
230
1
0
LINE
5
9C
100
AcDbEntity
8
1
62
256
6
ByLayer
370
18
48
1
60
0
100
AcDbLine
10
0
20
0
30
0
11
0
21
-49.7
31
0
39
0
210
0
220
0
230
1
0
LINE
5
9D
100
AcDbEntity
8
1
62
256
6
ByLayer
370
18
48
1
60
0
100
AcDbLine
10
0
20
49.7
30
0
11
0
21
0
31
0
39
0
210
0
220
0
230
1
0
LINE
5
9E
100
AcDbEntity
8
1
62
256
6
ByLayer
370
18
48
1
60
0
100
AcDbLine
10
55.915378
20
-64.153132
30
0
11
56.69925
21
-63.696253
31
0
39
0
210
0
220
0
230
1
0
LINE
5
9F
100
AcDbEntity
8
SK1
62
256
6
ByLayer
370
18
48
1
60
0
100
AcDbLine
10
-0.2
20
-6.83962
30
0
11
-0.2
21
-37.983485
31
0
39
0
210
0
220
0
230
1
0
LINE
5
A0
100
AcDbEntity
8
1
62
256
6
ByLayer
370
18
48
1
60
0
100
AcDbLine
10
18.211325
20
-14.993155
30
0
11
13.788675
21
-14.993155
31
0
39
0
210
0
220
0
230
1
0
LINE
5
A1
100
AcDbEntity
8
1
62
256
6
ByLayer
370
18
48
1
60
0
100
AcDbLine
10
57.497178
20
-66.097815
30
0
11
64.84473
21
-66.097815
31
0
39
0
210
0
220
0
230
1
0
LINE
5
A2
100
AcDbEntity
8
1
62
256
6
ByLayer
370
13
48
1
60
0
100
AcDbLine
10
18.211325
20
47.699112
30
0
11
18.211325
21
14.993155
31
0
39
0
210
0
220
0
230
1
0
LINE
5
A3
100
AcDbEntity
8
1
62
256
6
ByLayer
370
13
48
1
60
0
100
AcDbLine
10
36.186138
20
26.990214
30
0
11
36.186138
21
50
31
0
39
0
210
0
220
0
230
1
0
LINE
5
A4
100
AcDbEntity
8
1
62
256
6
ByLayer
370
13
48
1
60
0
100
AcDbLine
10
36.186138
20
-50
30
0
11
36.186138
21
-26.990214
31
0
39
0
210
0
220
0
230
1
0
LINE
5
A5
100
AcDbEntity
8
1
62
256
6
ByLayer
370
18
48
1
60
0
100
AcDbLine
10
87.253309
20
-66.097815
30
0
11
73.444935
21
-66.097815
31
0
39
0
210
0
220
0
230
1
0
LINE
5
A6
100
AcDbEntity
8
1
62
256
6
ByLayer
370
13
48
1
60
0
100
AcDbLine
10
80.934973
20
-58.446821
30
0
11
81.200144
21
-58.181651
31
0
39
0
210
0
220
0
230
1
0
LINE
5
A7
100
AcDbEntity
8
1
62
256
6
ByLayer
370
18
48
1
60
0
100
AcDbLine
10
87.25332
20
-66.097815
30
0
11
89.116295
21
-66.097815
31
0
39
0
210
0
220
0
230
1
0
LINE
5
A8
100
AcDbEntity
8
1
62
256
6
ByLayer
370
18
48
1
60
0
100
AcDbLine
10
38
20
50.15
30
0
11
38
21
43.653119
31
0
39
0
210
0
220
0
230
1
0
LINE
5
A9
100
AcDbEntity
8
1
62
256
6
ByLayer
370
13
48
1
60
0
100
AcDbLine
10
18.211325
20
-14.993155
30
0
11
18.211325
21
-47.699112
31
0
39
0
210
0
220
0
230
1
0
LINE
5
AA
100
AcDbEntity
8
1
62
256
6
ByLayer
370
13
48
1
60
0
100
AcDbLine
10
73.444935
20
-66.097815
30
0
11
68.787371
21
-48.415645
31
0
39
0
210
0
220
0
230
1
0
LINE
5
AB
100
AcDbEntity
8
1
62
256
6
ByLayer
370
18
48
1
60
0
100
AcDbLine
10
64.559617
20
-37.697468
30
0
11
64.536985
21
-37.4246
31
0
39
0
210
0
220
0
230
1
0
LINE
5
AC
100
AcDbEntity
8
1
62
256
6
ByLayer
370
13
48
1
60
0
100
AcDbLine
10
37.580546
20
-45.998858
30
0
11
37.580546
21
42.791681
31
0
39
0
210
0
220
0
230
1
0
LINE
5
AD
100
AcDbEntity
8
1
62
256
6
ByLayer
370
18
48
1
60
0
100
AcDbLine
10
90.998753
20
-42.199158
30
0
11
90.822535
21
-42.02294
31
0
39
0
210
0
220
0
230
1
0
LINE
5
AE
100
AcDbEntity
8
1
62
256
6
ByLayer
370
18
48
1
60
0
100
AcDbLine
10
36.652507
20
34.114591
30
0
11
36.652507
21
50.15
31
0
39
0
210
0
220
0
230
1
0
LINE
5
AF
100
AcDbEntity
8
1
62
256
6
ByLayer
370
13
48
1
60
0
100
AcDbLine
10
81.054933
20
-58.566781
30
0
11
80.934973
21
-58.446821
31
0
39
0
210
0
220
0
230
1
0
LINE
5
B0
100
AcDbEntity
8
1
62
256
6
ByLayer
370
18
48
1
60
0
100
AcDbLine
10
13.788675
20
14.993155
30
0
11
18.211325
21
14.993155
31
0
39
0
210
0
220
0
230
1
0
LINE
5
B1
100
AcDbEntity
8
1
62
256
6
ByLayer
370
18
48
1
60
0
100
AcDbLine
10
84.002101
20
-60.983618
30
0
11
82.255516
21
-59.252358
31
0
39
0
210
0
220
0
230
1
0
LINE
5
B2
100
AcDbEntity
8
1
62
256
6
ByLayer
370
18
48
1
60
0
100
AcDbLine
10
64.84473
20
-66.097815
30
0
11
70.386868
21
-66.097815
31
0
39
0
210
0
220
0
230
1
0
LINE
5
B3
100
AcDbEntity
8
1
62
256
6
ByLayer
370
18
48
1
60
0
100
AcDbLine
10
38
20
15.024573
30
0
11
38
21
43.653119
31
0
39
0
210
0
220
0
230
1
0
LINE
5
B4
100
AcDbEntity
8
1
62
256
6
ByLayer
370
13
48
1
60
0
100
AcDbLine
10
13.355662
20
-15.513346
30
0
11
13.355662
21
-47.532474
31
0
39
0
210
0
220
0
230
1
0
LINE
5
B5
100
AcDbEntity
8
1
62
256
6
ByLayer
370
18
48
1
60
0
100
AcDbLine
10
68.144718
20
-40.890461
30
0
11
64.433858
21
-63.297815
31
0
39
0
210
0
220
0
230
1
0
LINE
5
B6
100
AcDbEntity
8
1
62
256
6
ByLayer
370
18
48
1
60
0
100
AcDbLine
10
0.3
20
0
30
0
11
0.3
21
-50
31
0
39
0
210
0
220
0
230
1
0
LINE
5
B7
100
AcDbEntity
8
1
62
256
6
ByLayer
370
18
48
1
60
0
100
AcDbLine
10
0.3
20
50
30
0
11
0.3
21
0
31
0
39
0
210
0
220
0
230
1
0
LINE
5
B8
100
AcDbEntity
8
1
62
256
6
ByLayer
370
13
48
1
60
0
100
AcDbLine
10
41.565325
20
7.23427
30
0
11
41.565325
21
-63.297815
31
0
39
0
210
0
220
0
230
1
0
LINE
5
B9
100
AcDbEntity
8
1
62
256
6
ByLayer
370
18
48
1
60
0
100
AcDbLine
10
69.531793
20
-29.497703
30
0
11
69.528465
21
-29.014763
31
0
39
0
210
0
220
0
230
1
0
LINE
5
BA
100
AcDbEntity
8
1
62
256
6
ByLayer
370
18
48
1
60
0
100
AcDbLine
10
76.861977
20
-28.062382
30
0
11
71.205867
21
-22.406272
31
0
39
0
210
0
220
0
230
1
0
LINE
5
BB
100
AcDbEntity
8
1
62
256
6
ByLayer
370
13
48
1
60
0
100
AcDbLine
10
13.355662
20
47.532474
30
0
11
13.355662
21
15.513346
31
0
39
0
210
0
220
0
230
1
0
LINE
5
BC
100
AcDbEntity
8
1
62
256
6
ByLayer
370
18
48
1
60
0
100
AcDbLine
10
41.565325
20
7.23427
30
0
11
71.205867
21
-22.406272
31
0
39
0
210
0
220
0
230
1
0
LINE
5
BD
100
AcDbEntity
8
1
62
256
6
ByLayer
370
13
48
1
60
0
100
AcDbLine
10
18.644338
20
-15.513346
30
0
11
18.644338
21
-47.532474
31
0
39
0
210
0
220
0
230
1
0
LINE
5
BE
100
AcDbEntity
8
1
62
256
6
ByLayer
370
18
48
1
60
0
100
AcDbLine
10
53.468038
20
-66.097815
30
0
11
53.541011
21
-66.097815
31
0
39
0
210
0
220
0
230
1
0
LINE
5
BF
100
AcDbEntity
8
1
62
256
6
ByLayer
370
18
48
1
60
0
100
AcDbLine
10
53.541011
20
-66.097815
30
0
11
54.306089
21
-66.097815
31
0
39
0
210
0
220
0
230
1
0
LINE
5
C0
100
AcDbEntity
8
1
62
256
6
ByLayer
370
18
48
1
60
0
100
AcDbLine
10
71.205867
20
-22.406272
30
0
11
70.179025
21
-28.606667
31
0
39
0
210
0
220
0
230
1
0
LINE
5
C1
100
AcDbEntity
8
1
62
256
6
ByLayer
370
18
48
1
60
0
100
AcDbLine
10
78.00001
20
-55.229015
30
0
11
78.888618
21
-54.340408
31
0
39
0
210
0
220
0
230
1
0
LINE
5
C2
100
AcDbEntity
8
1
62
256
6
ByLayer
370
13
48
1
60
0
100
AcDbLine
10
36.958879
20
-50.592945
30
0
11
36.958879
21
-38.126289
31
0
39
0
210
0
220
0
230
1
0
LINE
5
C3
100
AcDbEntity
8
1
62
256
6
ByLayer
370
13
48
1
60
0
100
AcDbLine
10
13.788675
20
47.699112
30
0
11
13.788675
21
14.993155
31
0
39
0
210
0
220
0
230
1
0
LINE
5
C4
100
AcDbEntity
8
1
62
256
6
ByLayer
370
18
48
1
60
0
100
AcDbLine
10
81.998013
20
-59.509862
30
0
11
82.255516
21
-59.252358
31
0
39
0
210
0
220
0
230
1
0
LINE
5
C5
100
AcDbEntity
8
1
62
256
6
ByLayer
370
18
48
1
60
0
100
AcDbLine
10
54.306089
20
-66.097815
30
0
11
56.7321
21
-66.097815
31
0
39
0
210
0
220
0
230
1
0
LINE
5
C6
100
AcDbEntity
8
1
62
256
6
ByLayer
370
18
48
1
60
0
100
AcDbLine
10
53.477725
20
-65.573915
30
0
11
54.261597
21
-65.117036
31
0
39
0
210
0
220
0
230
1
0
LINE
5
C7
100
AcDbEntity
8
1
62
256
6
ByLayer
370
18
48
1
60
0
100
AcDbLine
10
69.546952
20
-31.697667
30
0
11
69.543624
21
-31.214727
31
0
39
0
210
0
220
0
230
1
0
LINE
5
C8
100
AcDbEntity
8
1
62
256
6
ByLayer
370
18
48
1
60
0
100
AcDbLine
10
13.788675
20
-47.699112
30
0
11
18.211325
21
-47.699112
31
0
39
0
210
0
220
0
230
1
0
LINE
5
C9
100
AcDbEntity
8
1
62
256
6
ByLayer
370
18
48
1
60
0
100
AcDbLine
10
71.955155
20
-66.097815
30
0
11
73.444935
21
-66.097815
31
0
39
0
210
0
220
0
230
1
0
LINE
5
CA
100
AcDbEntity
8
1
62
256
6
ByLayer
370
18
48
1
60
0
100
AcDbLine
10
71.955175
20
-66.097815
30
0
11
70.386868
21
-66.097815
31
0
39
0
210
0
220
0
230
1
0
LINE
5
CB
100
AcDbEntity
8
1
62
256
6
ByLayer
370
18
48
1
60
0
100
AcDbLine
10
41.67652
20
-66.097815
30
0
11
53.468038
21
-66.097815
31
0
39
0
210
0
220
0
230
1
0
LINE
5
CC
100
AcDbEntity
8
1
62
256
6
ByLayer
370
18
48
1
60
0
100
AcDbLine
10
18.211325
20
47.699112
30
0
11
13.788675
21
47.699112
31
0
39
0
210
0
220
0
230
1
0
LINE
5
CD
100
AcDbEntity
8
1
62
256
6
ByLayer
370
18
48
1
60
0
100
AcDbLine
10
41.565325
20
7.23427
30
0
11
40.987511
21
7.812084
31
0
39
0
210
0
220
0
230
1
0
LINE
5
CE
100
AcDbEntity
8
1
62
256
6
ByLayer
370
18
48
1
60
0
100
AcDbLine
10
90.822535
20
-42.02294
30
0
11
77.5121
21
-28.712505
31
0
39
0
210
0
220
0
230
1
0
LINE
5
CF
100
AcDbEntity
8
1
62
256
6
ByLayer
370
13
48
1
60
0
100
AcDbLine
10
81.998013
20
-59.509862
30
0
11
81.054933
21
-58.566781
31
0
39
0
210
0
220
0
230
1
0
LINE
5
D0
100
AcDbEntity
8
1
62
256
6
ByLayer
370
18
48
1
60
0
100
AcDbLine
10
68.452813
20
-47.685725
30
0
11
76.861977
21
-28.062382
31
0
39
0
210
0
220
0
230
1
0
LINE
5
D1
100
AcDbEntity
8
1
62
256
6
ByLayer
370
13
48
1
60
0
100
AcDbLine
10
18.644338
20
47.532474
30
0
11
18.644338
21
15.513346
31
0
39
0
210
0
220
0
230
1
0
LINE
5
D2
100
AcDbEntity
8
SK1
62
256
6
ByLayer
370
18
48
1
60
0
100
AcDbLine
10
-0.2
20
37.983485
30
0
11
-0.2
21
6.83962
31
0
39
0
210
0
220
0
230
1
0
LINE
5
D3
100
AcDbEntity
8
1
62
256
6
ByLayer
370
13
48
1
60
0
100
AcDbLine
10
81.320099
20
-58.301616
30
0
11
81.054933
21
-58.566781
31
0
39
0
210
0
220
0
230
1
0
LINE
5
D4
100
AcDbEntity
8
1
62
256
6
ByLayer
370
18
48
1
60
0
100
AcDbLine
10
56.7321
20
-66.097815
30
0
11
57.497178
21
-66.097815
31
0
39
0
210
0
220
0
230
1
0
LINE
5
D5
100
AcDbEntity
8
1
62
256
6
ByLayer
370
18
48
1
60
0
100
AcDbLine
10
64.433858
20
-63.297815
30
0
11
70.386868
21
-66.097815
31
0
39
0
210
0
220
0
230
1
0
LINE
5
D6
100
AcDbEntity
8
1
62
256
6
ByLayer
370
18
48
1
60
0
100
AcDbLine
10
41.113408
20
-66.097815
30
0
11
41.67652
21
-66.097815
31
0
39
0
210
0
220
0
230
1
0
LINE
5
D7
100
AcDbEntity
8
1
62
256
6
ByLayer
370
18
48
1
60
0
100
AcDbLine
10
90.825372
20
-42.399389
30
0
11
90.998753
21
-42.199158
31
0
39
0
210
0
220
0
230
1
0
LINE
5
D8
100
AcDbEntity
8
1
62
256
6
ByLayer
370
18
48
1
60
0
100
AcDbLine
10
81.522205
20
-58.641081
30
0
11
82.255516
21
-59.252358
31
0
39
0
210
0
220
0
230
1
0
LINE
5
D9
100
AcDbEntity
8
1
62
256
6
ByLayer
370
18
48
1
60
0
100
AcDbLine
10
69.653878
20
-31.77767
30
0
11
68.603027
21
-38.123047
31
0
39
0
210
0
220
0
230
1
0
LINE
5
DA
100
AcDbEntity
8
1
62
256
6
ByLayer
370
18
48
1
60
0
100
AcDbLine
10
72.334583
20
-48.881914
30
0
11
72.566974
21
-48.979625
31
0
39
0
210
0
220
0
230
1
0
LINE
5
DB
100
AcDbEntity
8
1
62
256
6
ByLayer
370
18
48
1
60
0
100
AcDbLine
10
75.782154
20
-49.067063
30
0
11
75.340784
21
-48.625693
31
0
39
0
210
0
220
0
230
1
0
LINE
5
DC
100
AcDbEntity
8
1
62
256
6
ByLayer
370
18
48
1
60
0
100
AcDbLine
10
74.615783
20
-49.173546
30
0
11
75.057153
21
-49.614916
31
0
39
0
210
0
220
0
230
1
0
LINE
5
DD
100
AcDbEntity
8
1
62
256
6
ByLayer
370
18
48
1
60
0
100
AcDbLine
10
75.668853
20
-46.166643
30
0
11
75.719652
21
-46.597273
31
0
39
0
210
0
220
0
230
1
0
LINE
5
DE
100
AcDbEntity
8
1
62
256
6
ByLayer
370
18
48
1
60
0
100
AcDbLine
10
73.397811
20
-49.328957
30
0
11
74.048224
21
-49.602428
31
0
39
0
210
0
220
0
230
1
0
LINE
5
DF
100
AcDbEntity
8
1
62
256
6
ByLayer
370
18
48
1
60
0
100
AcDbLine
10
73.008344
20
-49.420995
30
0
11
72.566974
21
-48.979625
31
0
39
0
210
0
220
0
230
1
0
LINE
5
E0
100
AcDbEntity
8
1
62
256
6
ByLayer
370
18
48
1
60
0
100
AcDbLine
10
76.161022
20
-47.038643
30
0
11
75.719652
21
-46.597273
31
0
39
0
210
0
220
0
230
1
0
LINE
5
E1
100
AcDbEntity
8
1
62
256
6
ByLayer
370
18
48
1
60
0
100
AcDbLine
10
74.615783
20
-49.173546
30
0
11
74.048224
21
-49.602428
31
0
39
0
210
0
220
0
230
1
0
LINE
5
E2
100
AcDbEntity
8
1
62
256
6
ByLayer
370
18
48
1
60
0
100
AcDbLine
10
74.504475
20
-50.058679
30
0
11
74.048224
21
-49.602428
31
0
39
0
210
0
220
0
230
1
0
LINE
5
E3
100
AcDbEntity
8
1
62
256
6
ByLayer
370
18
48
1
60
0
100
AcDbLine
10
73.397811
20
-49.328957
30
0
11
73.839181
21
-49.770327
31
0
39
0
210
0
220
0
230
1
0
LINE
5
E4
100
AcDbEntity
8
1
62
256
6
ByLayer
370
18
48
1
60
0
100
AcDbLine
10
76.364594
20
-48.653063
30
0
11
75.908343
21
-48.196812
31
0
39
0
210
0
220
0
230
1
0
LINE
5
E5
100
AcDbEntity
8
1
62
256
6
ByLayer
370
18
48
1
60
0
100
AcDbLine
10
75.825489
20
-47.494459
30
0
11
76.266859
21
-47.935829
31
0
39
0
210
0
220
0
230
1
0
LINE
5
E6
100
AcDbEntity
8
1
62
256
6
ByLayer
370
18
48
1
60
0
100
AcDbLine
10
75.825489
20
-47.494459
30
0
11
75.908343
21
-48.196812
31
0
39
0
210
0
220
0
230
1
0
LINE
5
E7
100
AcDbEntity
8
1
62
256
6
ByLayer
370
18
48
1
60
0
100
AcDbLine
10
75.908343
20
-48.196812
30
0
11
75.340784
21
-48.625693
31
0
39
0
210
0
220
0
230
1
0
LINE
5
E8
100
AcDbEntity
8
1
62
256
6
ByLayer
370
18
48
1
60
0
100
AcDbLine
10
70.134009
20
-29.353386
30
0
11
70.480739
21
-30.352319
31
0
39
0
210
0
220
0
230
1
0
LINE
5
E9
100
AcDbEntity
8
1
62
256
6
ByLayer
370
18
48
1
60
0
100
AcDbLine
10
69.575011
20
-29.355106
30
0
11
70.134009
21
-29.353386
31
0
39
0
210
0
220
0
230
1
0
LINE
5
EA
100
AcDbEntity
8
1
62
256
6
ByLayer
370
18
48
1
60
0
100
AcDbLine
10
70.480739
20
-30.352319
30
0
11
70.145126
21
-31.353352
31
0
39
0
210
0
220
0
230
1
0
LINE
5
EB
100
AcDbEntity
8
1
62
256
6
ByLayer
370
18
48
1
60
0
100
AcDbLine
10
69.270678
20
-30.360657
30
0
11
69.220745
21
-30.509592
31
0
39
0
210
0
220
0
230
1
0
LINE
5
EC
100
AcDbEntity
8
1
62
256
6
ByLayer
370
18
48
1
60
0
100
AcDbLine
10
69.57428
20
-29.357243
30
0
11
70.134009
21
-29.353386
31
0
39
0
210
0
220
0
230
1
0
LINE
5
ED
100
AcDbEntity
8
1
62
256
6
ByLayer
370
18
48
1
60
0
100
AcDbLine
10
70.145126
20
-31.353352
30
0
11
69.588229
21
-31.355065
31
0
39
0
210
0
220
0
230
1
0
LINE
5
EE
100
AcDbEntity
8
1
62
256
6
ByLayer
370
18
48
1
60
0
100
AcDbLine
10
69.270678
20
-30.360657
30
0
11
70.480739
21
-30.352319
31
0
39
0
210
0
220
0
230
1
0
LINE
5
EF
100
AcDbEntity
8
1
62
256
6
ByLayer
370
18
48
1
60
0
100
AcDbLine
10
69.218338
20
-30.209865
30
0
11
69.270678
21
-30.360657
31
0
39
0
210
0
220
0
230
1
0
LINE
5
F0
100
AcDbEntity
8
1
62
256
6
ByLayer
370
18
48
1
60
0
100
AcDbLine
10
61.2661
20
-63.74165
30
0
11
60.669036
21
-64.452147
31
0
39
0
210
0
220
0
230
1
0
LINE
5
F1
100
AcDbEntity
8
1
62
256
6
ByLayer
370
18
48
1
60
0
100
AcDbLine
10
60.435686
20
-63.608888
30
0
11
60.669036
21
-64.452147
31
0
39
0
210
0
220
0
230
1
0
LINE
5
F2
100
AcDbEntity
8
1
62
256
6
ByLayer
370
18
48
1
60
0
100
AcDbLine
10
56.015801
20
-65.324938
30
0
11
56.762511
21
-64.436365
31
0
39
0
210
0
220
0
230
1
0
LINE
5
F3
100
AcDbEntity
8
1
62
256
6
ByLayer
370
18
48
1
60
0
100
AcDbLine
10
60.669036
20
-64.452147
30
0
11
57.969063
21
-65.332829
31
0
39
0
210
0
220
0
230
1
0
LINE
5
F4
100
AcDbEntity
8
1
62
256
6
ByLayer
370
18
48
1
60
0
100
AcDbLine
10
59.462483
20
-63.555683
30
0
11
59.944146
21
-63.557629
31
0
39
0
210
0
220
0
230
1
0
LINE
5
F5
100
AcDbEntity
8
1
62
256
6
ByLayer
370
18
48
1
60
0
100
AcDbLine
10
57.641617
20
-64.149531
30
0
11
57.969063
21
-65.332829
31
0
39
0
210
0
220
0
230
1
0
LINE
5
F6
100
AcDbEntity
8
1
62
256
6
ByLayer
370
18
48
1
60
0
100
AcDbLine
10
57.969063
20
-65.332829
30
0
11
56.015801
21
-65.324938
31
0
39
0
210
0
220
0
230
1
0
LINE
5
F7
100
AcDbEntity
8
1
62
256
6
ByLayer
370
18
48
1
60
0
100
AcDbLine
10
56.762511
20
-64.436365
30
0
11
59.462483
21
-63.555683
31
0
39
0
210
0
220
0
230
1
0
LINE
5
F8
100
AcDbEntity
8
1
62
256
6
ByLayer
370
18
48
1
60
0
100
AcDbLine
10
87.687243
20
-54.4634
30
0
11
87.734875
21
-54.511032
31
0
39
0
210
0
220
0
230
1
0
LINE
5
F9
100
AcDbEntity
8
1
62
256
6
ByLayer
370
18
48
1
60
0
100
AcDbLine
10
87.66795
20
-55.658849
30
0
11
87.79646
21
-55.787359
31
0
39
0
210
0
220
0
230
1
0
LINE
5
FA
100
AcDbEntity
8
1
62
256
6
ByLayer
370
18
48
1
60
0
100
AcDbLine
10
88.548182
20
-52.61289
30
0
11
88.536928
21
-52.601636
31
0
39
0
210
0
220
0
230
1
0
LINE
5
FB
100
AcDbEntity
8
1
62
256
6
ByLayer
370
18
48
1
60
0
100
AcDbLine
10
64.053772
20
-38.814494
30
0
11
64.410344
21
-39.559776
31
0
39
0
210
0
220
0
230
1
0
LINE
5
FC
100
AcDbEntity
8
1
62
256
6
ByLayer
370
18
48
1
60
0
100
AcDbLine
10
64.410344
20
-39.559776
30
0
11
65.45489
21
-39.47314
31
0
39
0
210
0
220
0
230
1
0
LINE
5
FD
100
AcDbEntity
8
1
62
256
6
ByLayer
370
18
48
1
60
0
100
AcDbLine
10
64.273606
20
-40.51336
30
0
11
63.802836
21
-39.529389
31
0
39
0
210
0
220
0
230
1
0
LINE
5
FE
100
AcDbEntity
8
1
62
256
6
ByLayer
370
18
48
1
60
0
100
AcDbLine
10
64.158092
20
-38.517293
30
0
11
64.98412
21
-38.489169
31
0
39
0
210
0
220
0
230
1
0
LINE
5
FF
100
AcDbEntity
8
1
62
256
6
ByLayer
370
18
48
1
60
0
100
AcDbLine
10
65.45489
20
-39.47314
30
0
11
65.099634
21
-40.485236
31
0
39
0
210
0
220
0
230
1
0
LINE
5
100
100
AcDbEntity
8
1
62
256
6
ByLayer
370
18
48
1
60
0
100
AcDbLine
10
64.410344
20
-39.559776
30
0
11
64.159411
21
-40.274663
31
0
39
0
210
0
220
0
230
1
0
LINE
5
101
100
AcDbEntity
8
1
62
256
6
ByLayer
370
18
48
1
60
0
100
AcDbLine
10
64.98412
20
-38.489169
30
0
11
65.45489
21
-39.47314
31
0
39
0
210
0
220
0
230
1
0
LINE
5
102
100
AcDbEntity
8
1
62
256
6
ByLayer
370
18
48
1
60
0
100
AcDbLine
10
63.802836
20
-39.529389
30
0
11
64.158092
21
-38.517293
31
0
39
0
210
0
220
0
230
1
0
LINE
5
103
100
AcDbEntity
8
1
62
256
6
ByLayer
370
18
48
1
60
0
100
AcDbLine
10
65.099634
20
-40.485236
30
0
11
64.273606
21
-40.51336
31
0
39
0
210
0
220
0
230
1
0
LINE
5
104
100
AcDbEntity
8
1
62
256
6
ByLayer
370
18
48
1
60
1
100
AcDbLine
10
159.215441
20
40.963971
30
0
11
162.715439
21
41.424754
31
0
39
0
210
0
220
0
230
1
0
LINE
5
105
100
AcDbEntity
8
1
62
256
6
ByLayer
370
18
48
1
60
1
100
AcDbLine
10
162.715439
20
41.424754
30
0
11
162.715443
21
40.503187
31
0
39
0
210
0
220
0
230
1
0
LINE
5
106
100
AcDbEntity
8
1
62
256
6
ByLayer
370
18
48
1
60
1
100
AcDbLine
10
162.715443
20
40.503187
30
0
11
159.215441
21
40.963971
31
0
39
0
210
0
220
0
230
1
0
LINE
5
107
100
AcDbEntity
8
1
62
256
6
ByLayer
370
18
48
1
60
1
100
AcDbLine
10
227.215441
20
40.963971
30
0
11
223.715443
21
40.503187
31
0
39
0
210
0
220
0
230
1
0
LINE
5
108
100
AcDbEntity
8
1
62
256
6
ByLayer
370
18
48
1
60
1
100
AcDbLine
10
223.715443
20
40.503187
30
0
11
223.715439
21
41.424754
31
0
39
0
210
0
220
0
230
1
0
LINE
5
109
100
AcDbEntity
8
1
62
256
6
ByLayer
370
18
48
1
60
1
100
AcDbLine
10
223.715439
20
41.424754
30
0
11
227.215441
21
40.963971
31
0
39
0
210
0
220
0
230
1
0
LINE
5
10A
100
AcDbEntity
8
1
62
256
6
ByLayer
370
18
48
1
60
1
100
AcDbLine
10
159.215455
20
86.859998
30
0
11
159.216455
21
86.860998
31
0
39
0
210
0
220
0
230
1
0
LINE
5
10B
100
AcDbEntity
8
80
62
256
6
ByLayer
370
18
48
1
60
0
100
AcDbLine
10
0
20
0
30
0
11
-10
21
0
31
0
39
0
210
0
220
0
230
1
0
LINE
5
10C
100
AcDbEntity
8
81
62
256
6
ByLayer
370
18
48
1
60
0
100
AcDbLine
10
92
20
-68
30
0
11
102
21
-68
31
0
39
0
210
0
220
0
230
1
0
MTEXT
5
1B1
100
AcDbEntity
8
SK6
62
256
6
ByLayer
370
13
48
1
60
0
100
AcDbMText
10
-20.96964
20
-105.197805
30
0
210
0
220
0
230
1
1
\W0.7275;C10-PSSNL-68092-19HP
40
5.5
41
0
44
1.084337
50
0
71
7
72
5
7
iso_b_vert
0
DIMENSION
5
1C0
100
AcDbEntity
8
SK2
62
256
6
ByLayer
370
13
48
1
60
0
100
AcDbDimension
2
DimnDraft3D1
10
-90.092332
20
50
30
0
11
-90.717332
21
0.607895
31
0
70
33
71
5
72
1
41
1
210
0
220
0
230
1
3
Standard
100
AcDbAlignedDimension
13
-1.2875
23
-50
33
0
14
-1.2875
24
50
34
0
1001
ACAD
1000
DSTYLE
1002
{
1070
   279
1070
     0
1070
    74
1070
     0
1070
   173
1070
     1
1070
   340
1005
1B2
1070
   271
1070
     1
1070
   272
1070
     2
1070
    77
1070
     1
1070
    73
1070
     0
1070
   171
1070
     3
1070
   274
1070
     4
1070
   177
1070
     7
1070
   176
1070
     7
1070
   178
1070
     7
1070
    78
1070
     8
1070
    48
1040
-0.005
1070
    41
1041
3.5
1070
   147
1041
1.75
1070
    42
1041
1.5875
1070
    44
1041
2.0
1070
   140
1041
3.5
1070
   343
1005
0
1070
   344
1005
0
1002
}
0
DIMENSION
5
1CB
100
AcDbEntity
8
2
62
256
6
ByLayer
370
13
48
1
60
0
100
AcDbDimension
2
DimnDraft3D2
10
-63.878229
20
92
30
0
11
-63.878229
21
43.955263
31
0
70
32
71
5
72
1
41
1
210
0
220
0
230
1
3
Standard
100
AcDbAlignedDimension
13
-51.2875
23
0
33
0
14
66.4125
24
92
34
0
50
90
100
AcDbRotatedDimension
1001
ACAD
1000
DSTYLE
1002
{
1070
    74
1070
     0
1070
   279
1070
     0
1070
   172
1070
     1
1070
   173
1070
     1
1070
   340
1005
1B2
1070
   271
1070
     0
1070
   272
1070
     2
1070
    77
1070
     1
1070
    73
1070
     0
1070
   171
1070
     3
1070
   274
1070
     4
1070
   177
1070
     7
1070
   176
1070
     7
1070
   178
1070
     7
1070
    78
1070
     8
1070
    48
1040
-0.005
1070
    41
1041
3.5
1070
   147
1041
1.75
1070
    42
1041
1.5875
1070
    44
1041
2.0
1070
   140
1041
3.5
1070
   343
1005
0
1070
   344
1005
0
1002
}
0
DIMENSION
5
1D5
100
AcDbEntity
8
SK2
62
256
6
ByLayer
370
13
48
1
60
0
100
AcDbDimension
2
DimnDraft3D3
10
-77.915668
20
104.137726
30
0
11
-77.915668
21
41.190977
31
0
70
32
71
5
72
1
41
1
210
0
220
0
230
1
3
Standard
100
AcDbAlignedDimension
13
-51.2875
23
0
33
0
14
54.274774
24
104.137726
34
0
50
90
100
AcDbRotatedDimension
1001
ACAD
1000
DSTYLE
1002
{
1070
    74
1070
     0
1070
   279
1070
     0
1070
   172
1070
     1
1070
   173
1070
     1
1070
   340
1005
1B2
1070
   271
1070
     1
1070
   272
1070
     2
1070
    77
1070
     1
1070
    73
1070
     0
1070
   171
1070
     3
1070
   274
1070
     4
1070
   177
1070
     7
1070
   176
1070
     7
1070
   178
1070
     7
1070
    78
1070
     8
1070
    48
1040
-0.005
1070
    41
1041
3.5
1070
   147
1041
1.75
1070
    42
1041
1.5875
1070
    44
1041
2.0
1070
   140
1041
3.5
1070
   343
1005
0
1070
   344
1005
0
1002
}
0
DIMENSION
5
1E0
100
AcDbEntity
8
SK2
62
256
6
ByLayer
370
13
48
1
60
0
100
AcDbDimension
2
DimnDraft3D4
10
104.137726
20
-55.862274
30
0
11
-77.216104
21
-97.320068
31
0
70
34
71
5
72
1
41
1
210
0
220
0
230
1
3
Standard
100
AcDb2LineAngularDimension
13
92
23
-68
33
0
14
93
24
-68
34
0
15
92.35114
25
-67.64886
35
0
16
-81.064963
26
-86.588315
36
0
40
0
0
DIMENSION
5
1EA
100
AcDbEntity
8
2
62
256
6
ByLayer
370
13
48
1
60
0
100
AcDbDimension
2
DimnDraft3D5
10
126.006696
20
-67.999583
30
0
11
126.006696
21
-36.044526
31
0
70
32
71
5
72
1
41
1
210
0
220
0
230
1
3
Standard
100
AcDbAlignedDimension
13
108.773638
23
4E-06
33
0
14
93.061927
24
-67.999583
34
0
50
90
100
AcDbRotatedDimension
1001
ACAD
1000
DSTYLE
1002
{
1070
    74
1070
     0
1070
   279
1070
     0
1070
   172
1070
     1
1070
   173
1070
     1
1070
   340
1005
1B2
1070
   271
1070
     0
1070
   272
1070
     2
1070
    77
1070
     1
1070
    73
1070
     0
1070
   171
1070
     3
1070
   274
1070
     4
1070
   177
1070
     7
1070
   176
1070
     7
1070
   178
1070
     7
1070
    78
1070
     8
1070
    48
1040
-0.005
1070
    41
1041
3.5
1070
   147
1041
1.75
1070
    42
1041
1.5875
1070
    44
1041
2.0
1070
   140
1041
3.5
1070
   343
1005
0
1070
   344
1005
0
1002
}
0
ENDSEC
0
SECTION
2
OBJECTS
0
DICTIONARY
5
255
330
0
100
AcDbDictionary
280
0
281
1
3
ACAD_GROUP
350
256
3
ACAD_MLINESTYLE
350
257
0
DICTIONARY
5
256
330
0
100
AcDbDictionary
280
0
281
1
0
DICTIONARY
5
257
330
0
100
AcDbDictionary
280
0
281
1
3
Standard
350
18
0
MLINESTYLE
5
18
330
257
100
AcDbMlineStyle
2
Standard
70
0
3

62
256
51
90
52
90
71
2
49
-0.5
62
256
6
ByLayer
49
0.5
62
256
6
ByLayer
0
RASTERVARIABLES
5
243
330

100
AcDbRasterVariables
90
0
70
1
71
1
72
1
0
ENDSEC
0
EOF
