0
SECTION
2
HEADER
9
$ACADVER
1
AC1015
9
$DWGCODEPAGE
3
ANSI_1252
9
$HANDSEED
5
224
9
$ANGBASE
50
0
9
$ANGDIR
70
0
9
$ATTMODE
70
1
9
$AUNITS
70
0
9
$AUPREC
70
0
9
$CECOLOR
62
256
9
$CELTSCALE
40
1
9
$CELTYPE
6
ByLayer
9
$CELWEIGHT
370
18
9
$CLAYER
8
0
9
$CMLJUST
70
0
9
$CMLSCALE
40
1
9
$CMLSTYLE
2
Standard
9
$DIMSTYLE
2
Standard
9
$TEXTSIZE
40
0.2
9
$TEXTSTYLE
7
Standard
9
$LUNITS
70
2
9
$LUPREC
70
4
9
$EXTNAMES
290
1
9
$INSUNITS
70
4
9
$LTSCALE
40
1
9
$LWDISPLAY
290
1
9
$PDMODE
70
0
9
$PDSIZE
40
0
9
$PLINEGEN
70
0
0
ENDSEC
0
SECTION
2
CLASSES
0
CLASS
1
RASTERVARIABLES
2
AcDbRasterVariables
3
ISM
90
0
280
0
281
0
0
ENDSEC
0
SECTION
2
TABLES
0
TABLE
2
VPORT
5
21a
100
AcDbSymbolTable
0
VPORT
5
1
100
AcDbSymbolTableRecord
100
AcDbViewportTableRecord
2
*Active
70
0
10
0
20
0
11
1
21
1
12
-1
22
1
13
0
23
0
14
0.5
24
0.5
15
10
25
10
16
0
26
0
36
1
17
0
27
0
37
0
0
ENDTAB
0
TABLE
2
LTYPE
5
21b
100
AcDbSymbolTable
0
LTYPE
5
14
100
AcDbSymbolTableRecord
100
AcDbLinetypeTableRecord
70
0
2
ByBlock
3

72
65
73
0
40
0
0
LTYPE
5
15
100
AcDbSymbolTableRecord
100
AcDbLinetypeTableRecord
70
0
2
ByLayer
3

72
65
73
0
40
0
0
LTYPE
5
16
100
AcDbSymbolTableRecord
100
AcDbLinetypeTableRecord
70
0
2
CONTINUOUS
3
Solid line
72
65
73
0
40
0
0
LTYPE
5
6A
100
AcDbSymbolTableRecord
100
AcDbLinetypeTableRecord
70
0
2
CENTER
3
____ _ ____ _ ____ _ ____
72
65
73
4
40
47.5
49
22
74
0
49
-8.5
74
0
49
8.5
74
0
49
-8.5
74
0
0
LTYPE
5
6B
100
AcDbSymbolTableRecord
100
AcDbLinetypeTableRecord
70
0
2
DASHED
3
__ __ __ __ __ __ __ __ __
72
65
73
2
40
25.72
49
12.86
74
0
49
-12.86
74
0
0
ENDTAB
0
TABLE
2
LAYER
5
21c
100
AcDbSymbolTable
0
LAYER
5
10
100
AcDbSymbolTableRecord
100
AcDbLayerTableRecord
2
0
70
0
62
7
6
CONTINUOUS
290
1
370
-3
390
0
0
LAYER
5
6D
100
AcDbSymbolTableRecord
100
AcDbLayerTableRecord
2
80
70
0
62
-6
6
CONTINUOUS
290
1
370
-3
390
0
0
LAYER
5
6F
100
AcDbSymbolTableRecord
100
AcDbLayerTableRecord
2
81
70
0
62
-3
6
CONTINUOUS
290
1
370
-3
390
0
0
LAYER
5
71
100
AcDbSymbolTableRecord
100
AcDbLayerTableRecord
2
1
70
0
62
4
6
CONTINUOUS
290
1
370
-3
390
0
0
LAYER
5
CA
100
AcDbSymbolTableRecord
100
AcDbLayerTableRecord
2
4
70
0
62
-2
6
CENTER
290
1
370
-3
390
0
0
LAYER
5
185
100
AcDbSymbolTableRecord
100
AcDbLayerTableRecord
2
2
70
0
62
7
6
CONTINUOUS
290
1
370
-3
390
0
0
LAYER
5
206
100
AcDbSymbolTableRecord
100
AcDbLayerTableRecord
2
SK1
70
0
62
4
6
CONTINUOUS
290
1
370
-3
390
0
0
LAYER
5
207
100
AcDbSymbolTableRecord
100
AcDbLayerTableRecord
2
SK4
70
0
62
2
6
CENTER
290
1
370
-3
390
0
0
LAYER
5
208
100
AcDbSymbolTableRecord
100
AcDbLayerTableRecord
2
SK6
70
0
62
5
6
CONTINUOUS
290
1
370
-3
390
0
0
LAYER
5
209
100
AcDbSymbolTableRecord
100
AcDbLayerTableRecord
2
SK2
70
0
62
7
6
CONTINUOUS
290
1
370
-3
390
0
0
ENDTAB
0
TABLE
2
STYLE
5
21d
100
AcDbSymbolTable
0
STYLE
5
11
100
AcDbSymbolTableRecord
100
AcDbTextStyleTableRecord
2
Standard
3
txt
70
0
71
0
40
0
41
1
42
0
50
0
0
STYLE
5
16A
100
AcDbSymbolTableRecord
100
AcDbTextStyleTableRecord
2
iso_b_vert
3
simplex.shx
70
0
71
0
40
0
41
1
42
0
50
0
0
STYLE
5
16B
100
AcDbSymbolTableRecord
100
AcDbTextStyleTableRecord
2
DWGDirectTextStyle
3
simplex
70
0
71
0
40
0
41
1
42
0
50
0
0
ENDTAB
0
TABLE
2
DIMSTYLE
5
21e
100
AcDbSymbolTable
100
AcDbDimStyleTable
0
DIMSTYLE
105
27
100
AcDbSymbolTableRecord
100
AcDbDimStyleTableRecord
2
Standard
70
0
3
<>
41
0.18
42
0.0625
44
0.18
140
0.18
147
0.09
73
0
74
0
77
1
271
2
275
0
278
52
280
0
340
11
0
ENDTAB
0
TABLE
2
VIEW
5
21f
100
AcDbSymbolTable
0
ENDTAB
0
TABLE
2
UCS
5
220
100
AcDbSymbolTable
0
ENDTAB
0
TABLE
2
APPID
5
221
100
AcDbSymbolTable
0
APPID
5
12
100
AcDbSymbolTableRecord
100
AcDbRegAppTableRecord
2
ACAD
70
0
0
ENDTAB
0
TABLE
2
BLOCK_RECORD
5
222
100
AcDbSymbolTable
0
BLOCK_RECORD
5
1F
100
AcDbSymbolTableRecord
100
AcDbBlockTableRecord
2
*Model_Space
340
0
70
0
0
BLOCK_RECORD
5
1B
100
AcDbSymbolTableRecord
100
AcDbBlockTableRecord
2
*Paper_Space
340
0
70
0
0
BLOCK_RECORD
5
23
100
AcDbSymbolTableRecord
100
AcDbBlockTableRecord
2
*Paper_Space0
340
0
70
0
0
BLOCK_RECORD
5
16D
100
AcDbSymbolTableRecord
100
AcDbBlockTableRecord
2
DimnDraft3D1
340
0
70
0
0
BLOCK_RECORD
5
17C
100
AcDbSymbolTableRecord
100
AcDbBlockTableRecord
2
_CLOSED
340
0
70
0
0
BLOCK_RECORD
5
183
100
AcDbSymbolTableRecord
100
AcDbBlockTableRecord
2
DimnDraft3D2
340
0
70
0
0
BLOCK_RECORD
5
192
100
AcDbSymbolTableRecord
100
AcDbBlockTableRecord
2
DimnDraft3D3
340
0
70
0
0
BLOCK_RECORD
5
1A0
100
AcDbSymbolTableRecord
100
AcDbBlockTableRecord
2
DimnDraft3D4
340
0
70
0
0
ENDTAB
0
ENDSEC
0
SECTION
2
BLOCKS
0
BLOCK
5
20
100
AcDbEntity
8
0
100
AcDbBlockBegin
2
*Model_Space
70
0
10
0
20
0
30
0
3
*Model_Space
0
ENDBLK
5
21
100
AcDbEntity
8
0
100
AcDbBlockEnd
0
BLOCK
5
1C
100
AcDbEntity
8
0
100
AcDbBlockBegin
2
*Paper_Space
70
0
10
0
20
0
30
0
3
*Paper_Space
0
ENDBLK
5
1D
100
AcDbEntity
8
0
100
AcDbBlockEnd
0
BLOCK
5
24
100
AcDbEntity
8
0
100
AcDbBlockBegin
2
*Paper_Space0
70
0
10
0
20
0
30
0
3
*Paper_Space0
0
ENDBLK
5
25
100
AcDbEntity
8
0
100
AcDbBlockEnd
0
BLOCK
5
179
100
AcDbEntity
8
0
100
AcDbBlockBegin
2
DimnDraft3D1
70
0
10
0
20
0
30
0
3
DimnDraft3D1
0
MTEXT
5
16E
100
AcDbEntity
8
SK2
62
256
6
ByLayer
370
13
48
1
60
0
100
AcDbMText
10
-68.625
20
-2.682237
30
0
210
0
220
0
230
1
1
\W0.6217;100
40
4.5
41
0
44
1.084337
50
90
71
7
72
5
7
iso_b_vert
0
LINE
5
170
100
AcDbEntity
8
SK2
62
256
6
ByLayer
370
13
48
1
60
0
100
AcDbLine
10
-1.5875
20
50
30
0
11
-70.675
21
50
31
0
39
0
210
0
220
0
230
1
0
LINE
5
171
100
AcDbEntity
8
SK2
62
256
6
ByLayer
370
13
48
1
60
0
100
AcDbLine
10
-1.5875
20
-50
30
0
11
-70.675
21
-50
31
0
39
0
210
0
220
0
230
1
0
LINE
5
172
100
AcDbEntity
8
SK2
62
256
6
ByLayer
370
13
48
1
60
0
100
AcDbLine
10
-67.5
20
50
30
0
11
-67.5
21
-50
31
0
39
0
210
0
220
0
230
1
0
LINE
5
173
100
AcDbEntity
8
SK2
62
256
6
ByLayer
370
13
48
1
60
0
100
AcDbLine
10
-67.5
20
50
30
0
11
-66.649261
21
46.825003
31
0
39
0
210
0
220
0
230
1
0
LINE
5
174
100
AcDbEntity
8
SK2
62
256
6
ByLayer
370
13
48
1
60
0
100
AcDbLine
10
-67.5
20
50
30
0
11
-68.350739
21
46.824997
31
0
39
0
210
0
220
0
230
1
0
LINE
5
175
100
AcDbEntity
8
SK2
62
256
6
ByLayer
370
13
48
1
60
0
100
AcDbLine
10
-66.649261
20
46.825003
30
0
11
-68.350739
21
46.824997
31
0
39
0
210
0
220
0
230
1
0
LINE
5
176
100
AcDbEntity
8
SK2
62
256
6
ByLayer
370
13
48
1
60
0
100
AcDbLine
10
-67.5
20
-50
30
0
11
-68.350739
21
-46.825003
31
0
39
0
210
0
220
0
230
1
0
LINE
5
177
100
AcDbEntity
8
SK2
62
256
6
ByLayer
370
13
48
1
60
0
100
AcDbLine
10
-67.5
20
-50
30
0
11
-66.649261
21
-46.824997
31
0
39
0
210
0
220
0
230
1
0
LINE
5
178
100
AcDbEntity
8
SK2
62
256
6
ByLayer
370
13
48
1
60
0
100
AcDbLine
10
-68.350739
20
-46.825003
30
0
11
-66.649261
21
-46.824997
31
0
39
0
210
0
220
0
230
1
0
ENDBLK
5
17A
100
AcDbEntity
8
0
100
AcDbBlockEnd
0
BLOCK
5
17D
100
AcDbEntity
8
0
100
AcDbBlockBegin
2
_CLOSED
70
0
10
0
20
0
30
0
3
_CLOSED
0
LINE
5
17F
100
AcDbEntity
8
0
62
256
6
ByLayer
370
-2
48
1
60
0
100
AcDbLine
10
-1
20
0.166667
30
0
11
0
21
0
31
0
39
0
210
0
220
0
230
1
0
LINE
5
180
100
AcDbEntity
8
0
62
256
6
ByLayer
370
-2
48
1
60
0
100
AcDbLine
10
0
20
0
30
0
11
-1
21
-0.166667
31
0
39
0
210
0
220
0
230
1
0
LINE
5
181
100
AcDbEntity
8
0
62
256
6
ByLayer
370
-2
48
1
60
0
100
AcDbLine
10
-1
20
0.166667
30
0
11
-1
21
-0.166667
31
0
39
0
210
0
220
0
230
1
0
LINE
5
182
100
AcDbEntity
8
0
62
256
6
ByLayer
370
-2
48
1
60
0
100
AcDbLine
10
0
20
0
30
0
11
-1
21
0
31
0
39
0
210
0
220
0
230
1
0
ENDBLK
5
17E
100
AcDbEntity
8
0
100
AcDbBlockEnd
0
BLOCK
5
18F
100
AcDbEntity
8
0
100
AcDbBlockBegin
2
DimnDraft3D2
70
0
10
0
20
0
30
0
3
DimnDraft3D2
0
MTEXT
5
184
100
AcDbEntity
8
2
62
256
6
ByLayer
370
13
48
1
60
0
100
AcDbMText
10
146.764337
20
-35.563158
30
0
210
0
220
0
230
1
1
\W0.6740;68
40
4.5
41
0
44
1.084337
50
90
71
7
72
5
7
iso_b_vert
0
LINE
5
186
100
AcDbEntity
8
2
62
256
6
ByLayer
370
13
48
1
60
0
100
AcDbLine
10
111.5875
20
-68
30
0
11
151.064337
21
-68
31
0
39
0
210
0
220
0
230
1
0
LINE
5
187
100
AcDbEntity
8
2
62
256
6
ByLayer
370
13
48
1
60
0
100
AcDbLine
10
51.5875
20
0
30
0
11
151.064337
21
0
31
0
39
0
210
0
220
0
230
1
0
LINE
5
188
100
AcDbEntity
8
2
62
256
6
ByLayer
370
13
48
1
60
0
100
AcDbLine
10
147.889337
20
-68
30
0
11
147.889337
21
0
31
0
39
0
210
0
220
0
230
1
0
LINE
5
189
100
AcDbEntity
8
2
62
256
6
ByLayer
370
13
48
1
60
0
100
AcDbLine
10
147.889337
20
-68
30
0
11
147.038598
21
-64.825003
31
0
39
0
210
0
220
0
230
1
0
LINE
5
18A
100
AcDbEntity
8
2
62
256
6
ByLayer
370
13
48
1
60
0
100
AcDbLine
10
147.889337
20
-68
30
0
11
148.740076
21
-64.824997
31
0
39
0
210
0
220
0
230
1
0
LINE
5
18B
100
AcDbEntity
8
2
62
256
6
ByLayer
370
13
48
1
60
0
100
AcDbLine
10
147.038598
20
-64.825003
30
0
11
148.740076
21
-64.824997
31
0
39
0
210
0
220
0
230
1
0
LINE
5
18C
100
AcDbEntity
8
2
62
256
6
ByLayer
370
13
48
1
60
0
100
AcDbLine
10
147.889337
20
0
30
0
11
148.740076
21
-3.174997
31
0
39
0
210
0
220
0
230
1
0
LINE
5
18D
100
AcDbEntity
8
2
62
256
6
ByLayer
370
13
48
1
60
0
100
AcDbLine
10
147.889337
20
0
30
0
11
147.038598
21
-3.175003
31
0
39
0
210
0
220
0
230
1
0
LINE
5
18E
100
AcDbEntity
8
2
62
256
6
ByLayer
370
13
48
1
60
0
100
AcDbLine
10
148.740076
20
-3.174997
30
0
11
147.038598
21
-3.175003
31
0
39
0
210
0
220
0
230
1
0
ENDBLK
5
190
100
AcDbEntity
8
0
100
AcDbBlockEnd
0
BLOCK
5
19D
100
AcDbEntity
8
0
100
AcDbBlockBegin
2
DimnDraft3D3
70
0
10
0
20
0
30
0
3
DimnDraft3D3
0
MTEXT
5
193
100
AcDbEntity
8
2
62
256
6
ByLayer
370
13
48
1
60
0
100
AcDbMText
10
52.880263
20
-83.375
30
0
210
0
220
0
230
1
1
\W0.5296;110
40
4.5
41
0
44
1.084337
50
0
71
7
72
5
7
iso_b_vert
0
LINE
5
194
100
AcDbEntity
8
2
62
256
6
ByLayer
370
13
48
1
60
0
100
AcDbLine
10
0
20
-51.5875
30
0
11
0
21
-87.675
31
0
39
0
210
0
220
0
230
1
0
LINE
5
195
100
AcDbEntity
8
2
62
256
6
ByLayer
370
13
48
1
60
0
100
AcDbLine
10
110
20
-69.5875
30
0
11
110
21
-87.675
31
0
39
0
210
0
220
0
230
1
0
LINE
5
196
100
AcDbEntity
8
2
62
256
6
ByLayer
370
13
48
1
60
0
100
AcDbLine
10
0
20
-84.5
30
0
11
110
21
-84.5
31
0
39
0
210
0
220
0
230
1
0
LINE
5
197
100
AcDbEntity
8
2
62
256
6
ByLayer
370
13
48
1
60
0
100
AcDbLine
10
0
20
-84.5
30
0
11
3.174997
21
-83.649261
31
0
39
0
210
0
220
0
230
1
0
LINE
5
198
100
AcDbEntity
8
2
62
256
6
ByLayer
370
13
48
1
60
0
100
AcDbLine
10
0
20
-84.5
30
0
11
3.175003
21
-85.350739
31
0
39
0
210
0
220
0
230
1
0
LINE
5
199
100
AcDbEntity
8
2
62
256
6
ByLayer
370
13
48
1
60
0
100
AcDbLine
10
3.174997
20
-83.649261
30
0
11
3.175003
21
-85.350739
31
0
39
0
210
0
220
0
230
1
0
LINE
5
19A
100
AcDbEntity
8
2
62
256
6
ByLayer
370
13
48
1
60
0
100
AcDbLine
10
110
20
-84.5
30
0
11
106.825003
21
-85.350739
31
0
39
0
210
0
220
0
230
1
0
LINE
5
19B
100
AcDbEntity
8
2
62
256
6
ByLayer
370
13
48
1
60
0
100
AcDbLine
10
110
20
-84.5
30
0
11
106.824997
21
-83.649261
31
0
39
0
210
0
220
0
230
1
0
LINE
5
19C
100
AcDbEntity
8
2
62
256
6
ByLayer
370
13
48
1
60
0
100
AcDbLine
10
106.825003
20
-85.350739
30
0
11
106.824997
21
-83.649261
31
0
39
0
210
0
220
0
230
1
0
ENDBLK
5
19E
100
AcDbEntity
8
0
100
AcDbBlockEnd
0
BLOCK
5
1AA
100
AcDbEntity
8
0
100
AcDbBlockBegin
2
DimnDraft3D4
70
0
10
0
20
0
30
0
3
DimnDraft3D4
0
MTEXT
5
1A1
100
AcDbEntity
8
2
62
256
6
ByLayer
370
13
48
1
60
0
100
AcDbMText
10
124.792991
20
-49.33142
30
0
210
0
220
0
230
1
1
\W0.8292;75%%d0'
40
4.5
41
0
44
1.084337
50
307.5
71
7
72
5
7
iso_b_vert
0
LINE
5
1A2
100
AcDbEntity
8
2
62
256
6
ByLayer
370
13
48
1
60
0
100
AcDbLine
10
111.5875
20
-68
30
0
11
135.036287
21
-68
31
0
39
0
210
0
220
0
230
1
0
ARC
5
1A3
100
AcDbEntity
8
2
62
256
6
ByLayer
370
13
48
1
60
0
100
AcDbCircle
39
0
10
109.445947
20
-68
30
0
40
22.4153391948484
210
0
220
0
230
1
100
AcDbArc
50
0
51
75
0
LINE
5
1A4
100
AcDbEntity
8
2
62
256
6
ByLayer
370
13
48
1
60
0
100
AcDbLine
10
131.861287
20
-68
30
0
11
130.89886
21
-64.857056
31
0
39
0
210
0
220
0
230
1
0
LINE
5
1A5
100
AcDbEntity
8
2
62
256
6
ByLayer
370
13
48
1
60
0
100
AcDbLine
10
131.861287
20
-68
30
0
11
132.599274
21
-64.796912
31
0
39
0
210
0
220
0
230
1
0
LINE
5
1A6
100
AcDbEntity
8
2
62
256
6
ByLayer
370
13
48
1
60
0
100
AcDbLine
10
130.89886
20
-64.857056
30
0
11
132.599274
21
-64.796912
31
0
39
0
210
0
220
0
230
1
0
LINE
5
1A7
100
AcDbEntity
8
2
62
256
6
ByLayer
370
13
48
1
60
0
100
AcDbLine
10
115.247464
20
-46.348445
30
0
11
118.532409
21
-46.464622
31
0
39
0
210
0
220
0
230
1
0
LINE
5
1A8
100
AcDbEntity
8
2
62
256
6
ByLayer
370
13
48
1
60
0
100
AcDbLine
10
115.247464
20
-46.348445
30
0
11
118.034227
21
-48.091533
31
0
39
0
210
0
220
0
230
1
0
LINE
5
1A9
100
AcDbEntity
8
2
62
256
6
ByLayer
370
13
48
1
60
0
100
AcDbLine
10
118.532409
20
-46.464622
30
0
11
118.034227
21
-48.091533
31
0
39
0
210
0
220
0
230
1
0
ENDBLK
5
1AB
100
AcDbEntity
8
0
100
AcDbBlockEnd
0
ENDSEC
0
SECTION
2
ENTITIES
0
ARC
5
DF
100
AcDbEntity
8
1
62
256
6
ByLayer
370
18
48
1
60
0
100
AcDbCircle
39
0
10
-36.186138
20
50.8
30
0
40
0.8
210
0
220
0
230
-1
100
AcDbArc
50
234.340912
51
270
0
ARC
5
E0
100
AcDbEntity
8
1
62
256
6
ByLayer
370
18
48
1
60
0
100
AcDbCircle
39
0
10
-36.186138
20
-50.8
30
0
40
0.8
210
0
220
0
230
-1
100
AcDbArc
50
90
51
125.659088
0
ARC
5
E1
100
AcDbEntity
8
1
62
256
6
ByLayer
370
18
48
1
60
0
100
AcDbCircle
39
0
10
-39.5
20
-54.15
30
0
40
4.00000000000004
210
0
220
0
230
-1
100
AcDbArc
50
90
51
165
0
ARC
5
E2
100
AcDbEntity
8
SK1
62
256
6
ByLayer
370
18
48
1
60
0
100
AcDbCircle
39
0
10
0.6
20
-38.9
30
0
40
1
210
0
220
0
230
-1
100
AcDbArc
50
113.578178
51
126.869898
0
ARC
5
E3
100
AcDbEntity
8
SK1
62
256
6
ByLayer
370
18
48
1
60
0
100
AcDbCircle
39
0
10
0.6
20
38.9
30
0
40
1
210
0
220
0
230
-1
100
AcDbArc
50
233.130102
51
246.421822
0
ELLIPSE
5
E4
100
AcDbEntity
8
1
62
256
6
ByLayer
370
18
48
1
60
0
100
AcDbEllipse
10
-7.094011
20
0
30
0
11
23.4185446994531
21
-49.3543728818729
31
0
210
0
220
0
230
-1
40
0.341999
41
-1.09444724969937
42
-0.154598522698914
0
ELLIPSE
5
E5
100
AcDbEntity
8
1
62
256
6
ByLayer
370
18
48
1
60
0
100
AcDbEllipse
10
32.369154
20
-5.076802
30
0
11
0.0712703720551578
21
-7.34889618431601
31
0
210
0
220
0
230
-1
40
0.079216
41
-1.13399349667886
42
2.23439544173974
0
ELLIPSE
5
E6
100
AcDbEntity
8
1
62
256
6
ByLayer
370
18
48
1
60
0
100
AcDbEllipse
10
32.369154
20
-5.076802
30
0
11
0.0712703720551578
21
-7.34889618431601
31
0
210
0
220
0
230
-1
40
0.079216
41
-3.0571336773067
42
-1.9235889078394
0
ELLIPSE
5
E7
100
AcDbEntity
8
1
62
256
6
ByLayer
370
18
48
1
60
0
100
AcDbEllipse
10
25.312541
20
0
30
0
11
-3.71974179973554E-16
21
-2.02500000000004
31
0
210
0
220
0
230
1
40
0.97437
41
0
42
6.28318530717959
0
ELLIPSE
5
E8
100
AcDbEntity
8
1
62
256
6
ByLayer
370
18
48
1
60
0
100
AcDbEllipse
10
98.115223
20
-16.192816
30
0
11
67.4769235623184
21
-74.3212395269718
31
0
210
0
220
0
230
-1
40
0.023272
41
-2.1529231529869
42
-1.54967065716075
0
ELLIPSE
5
E9
100
AcDbEntity
8
1
62
256
6
ByLayer
370
18
48
1
60
0
100
AcDbEllipse
10
32.369154
20
-5.076802
30
0
11
0.0630468676647104
21
-6.5009466263832
31
0
210
0
220
0
230
-1
40
0.079216
41
2.62342275894146
42
2.83702431278218
0
ELLIPSE
5
EA
100
AcDbEntity
8
1
62
256
6
ByLayer
370
18
48
1
60
0
100
AcDbEllipse
10
98.793023
20
-38.397955
30
0
11
0.0374166454014031
21
0.145259124988997
31
0
210
0
220
0
230
-1
40
0.091882
41
-1.46567458901189
42
0.116757266117941
0
ELLIPSE
5
EB
100
AcDbEntity
8
1
62
256
6
ByLayer
370
18
48
1
60
0
100
AcDbEllipse
10
95.219591
20
-38.324096
30
0
11
-2.92225603988218
21
-1.68716531126681
31
0
210
0
220
0
230
1
40
0.989133
41
-1.97638074335415
42
-0.779934954875857
0
ELLIPSE
5
EC
100
AcDbEntity
8
1
62
256
6
ByLayer
370
18
48
1
60
0
100
AcDbEllipse
10
96.252497
20
-38.178162
30
0
11
3.04306114157523
21
1.75691216924876
31
0
210
0
220
0
230
1
40
0.989133
41
-0.779934954875851
42
1.46705581944953
0
ELLIPSE
5
ED
100
AcDbEntity
8
1
62
256
6
ByLayer
370
18
48
1
60
0
100
AcDbEllipse
10
98.643147
20
-37.309962
30
0
11
-0.14488887394336
21
0.0388228567653792
31
0
210
0
220
0
230
1
40
0.104528
41
-3.04907852361807
42
-1.46664608670025
0
ELLIPSE
5
EE
100
AcDbEntity
8
1
62
256
6
ByLayer
370
18
48
1
60
0
100
AcDbEllipse
10
39.094011
20
0
30
0
11
23.4185446994539
21
-49.3543728818739
31
0
210
0
220
0
230
-1
40
0.341999
41
2.04714540389043
42
2.98699413089088
0
ELLIPSE
5
EF
100
AcDbEntity
8
1
62
256
6
ByLayer
370
18
48
1
60
0
100
AcDbEllipse
10
93.597952
20
-48.125407
30
0
11
3.89711431703008
21
2.24999999999982
31
0
210
0
220
0
230
1
40
0.989133
41
2.10273615670771
42
2.36165769871393
0
ELLIPSE
5
F0
100
AcDbEntity
8
1
62
256
6
ByLayer
370
18
48
1
60
0
100
AcDbEllipse
10
84.201177
20
0
30
0
11
45.5214773618412
21
-50.1388095962329
31
0
210
0
220
0
230
-1
40
0.023272
41
2.96197090524895
42
-2.15292315298681
0
ELLIPSE
5
F1
100
AcDbEntity
8
1
62
256
6
ByLayer
370
18
48
1
60
0
100
AcDbEllipse
10
25.312541
20
0
30
0
11
-4.59227382683406E-16
21
-2.50000000000008
31
0
210
0
220
0
230
1
40
0.97437
41
0
42
1.57079637581083
0
ELLIPSE
5
F2
100
AcDbEntity
8
1
62
256
6
ByLayer
370
18
48
1
60
0
100
AcDbEllipse
10
25.312541
20
0
30
0
11
-4.59227382683406E-16
21
-2.50000000000008
31
0
210
0
220
0
230
1
40
0.97437
41
1.57079617974708
42
3.14159255297927
0
ELLIPSE
5
F3
100
AcDbEntity
8
1
62
256
6
ByLayer
370
18
48
1
60
0
100
AcDbEllipse
10
38.854231
20
-58.942679
30
0
11
-0.29970558297576
21
-31.5003927051281
31
0
210
-1.15201608487294E-15
220
2.33015332455815E-16
230
1
40
0.126977
41
-3.06680262715856
42
-2.79187443319059
0
ELLIPSE
5
F4
100
AcDbEntity
8
1
62
256
6
ByLayer
370
18
48
1
60
0
100
AcDbEllipse
10
-7.094011
20
0
30
0
11
23.4185446994517
21
49.3543728818711
31
0
210
0
220
0
230
-1
40
0.341999
41
0.154598522698917
42
1.0944472496994
0
ELLIPSE
5
F5
100
AcDbEntity
8
1
62
256
6
ByLayer
370
18
48
1
60
0
100
AcDbEllipse
10
95.238027
20
-36.42105
30
0
11
3.05070807372825
21
1.76132712758578
31
0
210
0
220
0
230
1
40
0.989133
41
-0.779934954875859
42
-0.299909471368505
0
ELLIPSE
5
F6
100
AcDbEntity
8
1
62
256
6
ByLayer
370
18
48
1
60
0
100
AcDbEllipse
10
95.249183
20
-36.440371
30
0
11
-3.18060308996831
21
-1.83632205017836
31
0
210
0
220
0
230
1
40
0.989133
41
2.36165769871394
42
2.78106026636615
0
ELLIPSE
5
F7
100
AcDbEntity
8
1
62
256
6
ByLayer
370
18
48
1
60
0
100
AcDbEllipse
10
219.415019
20
-0.456167
30
0
11
676.997326817892
21
6.28726676959291
31
0
210
0
220
0
230
-1
40
0.072813
41
1.84045885871772
42
1.84177082795602
0
ELLIPSE
5
F8
100
AcDbEntity
8
1
62
256
6
ByLayer
370
18
48
1
60
0
100
AcDbEllipse
10
34.974887
20
0
30
0
11
-3.06151588455594E-15
21
50
31
0
210
0
220
0
230
-1
40
0.087489
41
-2.86505390991676
42
-0.276538743673033
0
ELLIPSE
5
F9
100
AcDbEntity
8
1
62
256
6
ByLayer
370
18
48
1
60
0
100
AcDbEllipse
10
92.389284
20
-52.636216
30
0
11
3.89711431703008
21
2.24999999999982
31
0
210
0
220
0
230
1
40
0.989133
41
2.36165769871393
42
2.62057924072015
0
ELLIPSE
5
FA
100
AcDbEntity
8
1
62
256
6
ByLayer
370
18
48
1
60
0
100
AcDbEllipse
10
39.094011
20
0
30
0
11
23.4185446994519
21
49.3543728818713
31
0
210
0
220
0
230
-1
40
0.341999
41
-2.98699413089088
42
-2.0471454038904
0
ELLIPSE
5
FB
100
AcDbEntity
8
1
62
256
6
ByLayer
370
18
48
1
60
0
100
AcDbEllipse
10
-16.44226
20
110.961479
30
0
11
133.521524272326
21
-147.355763334148
31
0
210
0
220
0
230
-1
40
0.021106
41
-0.45695658677291
42
-0.202069243404813
0
ELLIPSE
5
FC
100
AcDbEntity
8
1
62
256
6
ByLayer
370
18
48
1
60
0
100
AcDbEllipse
10
29.401009
20
-3.541126
30
0
11
-2.6422632421492
21
-5.10695065172821
31
0
210
0
220
0
230
1
40
0.154722
41
2.58147598520346
42
2.79507713541221
0
ELLIPSE
5
FD
100
AcDbEntity
8
1
62
256
6
ByLayer
370
18
48
1
60
0
100
AcDbEllipse
10
34.648368
20
-6.256034
30
0
11
-1.14881010528226
21
-2.22041332683835
31
0
210
0
220
0
230
1
40
0.154722
41
0
42
3.14159197849304
0
ELLIPSE
5
FE
100
AcDbEntity
8
1
62
256
6
ByLayer
370
18
48
1
60
0
100
AcDbEllipse
10
34.779988
20
-6.324133
30
0
11
1.07988149896532
21
2.08718852722805
31
0
210
0
220
0
230
1
40
0.154722
41
-2.98441444109678
42
-0.157275681815442
0
ELLIPSE
5
FF
100
AcDbEntity
8
1
62
256
6
ByLayer
370
18
48
1
60
0
100
AcDbEllipse
10
92.257828
20
-38.384776
30
0
11
1.12583302491979
21
0.649999999999942
31
0
210
0
220
0
230
1
40
0.989133
41
0.790861371919018
42
1.17666369199386
0
ELLIPSE
5
100
100
AcDbEntity
8
1
62
256
6
ByLayer
370
18
48
1
60
0
100
AcDbEllipse
10
93.025261
20
-39.706573
30
0
11
-2.06222299276175
21
-1.1906249999999
31
0
210
0
220
0
230
1
40
0.989133
41
-2.35073128167075
42
-1.61223632396473
0
ELLIPSE
5
101
100
AcDbEntity
8
1
62
256
6
ByLayer
370
18
48
1
60
0
100
AcDbEllipse
10
100.311363
20
-52.167023
30
0
11
3.94907584125715
21
2.27999999999982
31
0
210
0
220
0
230
1
40
0.989133
41
-3.01177200423627
42
-2.26957071030391
0
ELLIPSE
5
102
100
AcDbEntity
8
1
62
256
6
ByLayer
370
18
48
1
60
0
100
AcDbEllipse
10
100.311363
20
-52.167023
30
0
11
3.94907584125715
21
2.27999999999982
31
0
210
0
220
0
230
1
40
0.989133
41
-0.645563599545706
42
-0.129753437119213
0
ELLIPSE
5
103
100
AcDbEntity
8
1
62
256
6
ByLayer
370
18
48
1
60
0
100
AcDbEllipse
10
99.844108
20
-52.551578
30
0
11
3.89711431703008
21
2.24999999999982
31
0
210
0
220
0
230
1
40
0.989133
41
1.65419828921868E-05
42
0.416986913450071
0
ELLIPSE
5
104
100
AcDbEntity
8
1
62
256
6
ByLayer
370
18
48
1
60
0
100
AcDbEllipse
10
100.62358
20
-51.513935
30
0
11
-3.89711431703008
21
-2.24999999999982
31
0
210
0
220
0
230
1
40
0.989133
41
-0.204120127453881
42
1.50820631252631E-05
0
ELLIPSE
5
105
100
AcDbEntity
8
1
62
256
6
ByLayer
370
18
48
1
60
0
100
AcDbEllipse
10
100.424205
20
-52.045867
30
0
11
-3.72390923627318
21
-2.14999999999983
31
0
210
0
220
0
230
1
40
0.989133
41
-0.200309605660148
42
-1.87943942598894E-05
0
ELLIPSE
5
106
100
AcDbEntity
8
1
62
256
6
ByLayer
370
18
48
1
60
0
100
AcDbEllipse
10
25.08759
20
0
30
0
11
-1.10214571844014E-16
21
-0.6
31
0
210
0
220
0
230
1
40
0.97437
41
-3.14159206999768
42
-2.51363722984569E-16
0
ELLIPSE
5
107
100
AcDbEntity
8
1
62
256
6
ByLayer
370
18
48
1
60
0
100
AcDbEllipse
10
25.08759
20
0
30
0
11
-1.83690953073357E-16
21
-1
31
0
210
0
220
0
230
1
40
0.97437
41
0.115649542896267
42
1.57079617974692
0
ELLIPSE
5
108
100
AcDbEntity
8
1
62
256
6
ByLayer
370
18
48
1
60
0
100
AcDbEllipse
10
25.08759
20
0
30
0
11
-1.83690953073357E-16
21
-1
31
0
210
0
220
0
230
1
40
0.97437
41
1.57079617974692
42
3.02594280896869
0
ELLIPSE
5
109
100
AcDbEntity
8
1
62
256
6
ByLayer
370
18
48
1
60
0
100
AcDbEllipse
10
99.421901
20
-50.62643
30
0
11
4.97964607176065
21
2.87499999999977
31
0
210
0
220
0
230
1
40
0.989133
41
-2.29407717698446
42
-2.19021558720302
0
ELLIPSE
5
10A
100
AcDbEntity
8
1
62
256
6
ByLayer
370
18
48
1
60
0
100
AcDbEllipse
10
99.421901
20
-50.62643
30
0
11
4.97964607176065
21
2.87499999999977
31
0
210
0
220
0
230
1
40
0.989133
41
-0.876826369341366
42
-0.84748775381163
0
ELLIPSE
5
10B
100
AcDbEntity
8
1
62
256
6
ByLayer
370
18
48
1
60
0
100
AcDbEllipse
10
82.750566
20
-39.322317
30
0
11
-2.23001541474499
21
-1.2874999999999
31
0
210
0
220
0
230
1
40
0.989133
41
0.081322283741167
42
2.61324973415673
0
ELLIPSE
5
10C
100
AcDbEntity
8
1
62
256
6
ByLayer
370
18
48
1
60
0
100
AcDbEllipse
10
82.750566
20
-39.322317
30
0
11
-2.23001541474499
21
-1.2874999999999
31
0
210
0
220
0
230
1
40
0.989133
41
2.61324973415673
42
2.94331332722718
0
ELLIPSE
5
10D
100
AcDbEntity
8
1
62
256
6
ByLayer
370
18
48
1
60
0
100
AcDbEllipse
10
82.853483
20
-39.500574
30
0
11
2.23001541474499
21
1.2874999999999
31
0
210
0
220
0
230
1
40
0.989133
41
-0.441442733582951
42
-0.119612331118002
0
ELLIPSE
5
10E
100
AcDbEntity
8
1
62
256
6
ByLayer
370
18
48
1
60
0
100
AcDbEllipse
10
82.853483
20
-39.500574
30
0
11
2.23001541474499
21
1.2874999999999
31
0
210
0
220
0
230
1
40
0.989133
41
3.14158360852071
42
-2.93356959824286
0
ELLIPSE
5
10F
100
AcDbEntity
8
1
62
256
6
ByLayer
370
18
48
1
60
0
100
AcDbEllipse
10
100.432207
20
-53.570194
30
0
11
3.46410161513785
21
1.99999999999984
31
0
210
0
220
0
230
1
40
0.989133
41
-0.756918303846136
42
1.57069617680671
0
ELLIPSE
5
110
100
AcDbEntity
8
1
62
256
6
ByLayer
370
18
48
1
60
0
100
AcDbEllipse
10
100.395451
20
-53.506531
30
0
11
-3.89711431703008
21
-2.24999999999982
31
0
210
0
220
0
230
1
40
0.989133
41
2.37588621927594
42
-1.56210834631536
0
ELLIPSE
5
111
100
AcDbEntity
8
1
62
256
6
ByLayer
370
18
48
1
60
0
100
AcDbEllipse
10
100.785186
20
-52.987709
30
0
11
-3.71524898223534
21
-2.14499999999983
31
0
210
0
220
0
230
1
40
0.989133
41
1.71960297340389
42
2.23576755314647
0
ELLIPSE
5
112
100
AcDbEntity
8
1
62
256
6
ByLayer
370
18
48
1
60
0
100
AcDbEllipse
10
100.821942
20
-53.051373
30
0
11
3.28223628034311
21
1.89499999999985
31
0
210
0
220
0
230
1
40
0.989133
41
1.72884962825153
42
2.22652089829884
0
ELLIPSE
5
113
100
AcDbEntity
8
1
62
256
6
ByLayer
370
18
48
1
60
0
100
AcDbEllipse
10
100.821942
20
-53.051373
30
0
11
3.28223628034311
21
1.89499999999985
31
0
210
0
220
0
230
1
40
0.989133
41
-1.41274302533826
42
-0.91507175529096
0
ELLIPSE
5
114
100
AcDbEntity
8
1
62
256
6
ByLayer
370
18
48
1
60
0
100
AcDbEllipse
10
101.211678
20
-52.532551
30
0
11
3.46410161513785
21
1.99999999999984
31
0
210
0
220
0
230
1
40
0.989133
41
2.38467434974366
42
-1.57089647678309
0
ELLIPSE
5
115
100
AcDbEntity
8
1
62
256
6
ByLayer
370
18
48
1
60
0
100
AcDbEllipse
10
101.174922
20
-52.468888
30
0
11
-3.89711431703008
21
-2.24999999999982
31
0
210
0
220
0
230
1
40
0.989133
41
-0.765706434313859
42
1.57948430727443
0
ELLIPSE
5
116
100
AcDbEntity
8
1
62
256
6
ByLayer
370
18
48
1
60
0
100
AcDbEllipse
10
100.785186
20
-52.987709
30
0
11
-3.71524898223534
21
-2.14499999999983
31
0
210
0
220
0
230
1
40
0.989133
41
-1.4219896801859
42
-0.905825100443324
0
ELLIPSE
5
117
100
AcDbEntity
8
1
62
256
6
ByLayer
370
18
48
1
60
0
100
AcDbEllipse
10
82.853483
20
-39.500574
30
0
11
2.23001541474499
21
1.2874999999999
31
0
210
0
220
0
230
1
40
0.989133
41
-1.48864028477955
42
-0.839174495849662
0
ELLIPSE
5
118
100
AcDbEntity
8
1
62
256
6
ByLayer
370
18
48
1
60
0
100
AcDbEllipse
10
83.256698
20
-40.198963
30
0
11
2.23001541474499
21
1.2874999999999
31
0
210
0
220
0
230
1
40
0.989133
41
-2.9335695982429
42
-2.53583783597615
0
ELLIPSE
5
119
100
AcDbEntity
8
1
62
256
6
ByLayer
370
18
48
1
60
0
100
AcDbEllipse
10
83.272503
20
-40.226338
30
0
11
-2.552515414745
21
-1.47369546181354
31
0
210
0
220
0
230
1
40
0.989133
41
0
42
6.28318530717959
0
ELLIPSE
5
11A
100
AcDbEntity
8
1
62
256
6
ByLayer
370
18
48
1
60
0
100
AcDbEllipse
10
83.216266
20
-40.128933
30
0
11
-5.19615242270677
21
-2.99999999999976
31
0
210
0
220
0
230
1
40
0.989133
41
0
42
6.28318530717959
0
ELLIPSE
5
11B
100
AcDbEntity
8
1
62
256
6
ByLayer
370
18
48
1
60
0
100
AcDbEllipse
10
83.256698
20
-40.198963
30
0
11
2.23001541474499
21
1.2874999999999
31
0
210
0
220
0
230
1
40
0.989133
41
-0.839174495849676
42
-0.441442733582959
0
ELLIPSE
5
11C
100
AcDbEntity
8
1
62
256
6
ByLayer
370
18
48
1
60
0
100
AcDbEllipse
10
82.853483
20
-39.500574
30
0
11
2.23001541474499
21
1.2874999999999
31
0
210
0
220
0
230
1
40
0.989133
41
-2.53583783597615
42
-1.88637204704626
0
ELLIPSE
5
11D
100
AcDbEntity
8
1
62
256
6
ByLayer
370
18
48
1
60
0
100
AcDbEllipse
10
83.256698
20
-40.198963
30
0
11
2.23001541474499
21
1.2874999999999
31
0
210
0
220
0
230
1
40
0.989133
41
0.208023055346911
42
0.605754817613651
0
ELLIPSE
5
11E
100
AcDbEntity
8
1
62
256
6
ByLayer
370
18
48
1
60
0
100
AcDbEllipse
10
83.256698
20
-40.198963
30
0
11
2.23001541474499
21
1.2874999999999
31
0
210
0
220
0
230
1
40
0.989133
41
-1.88637204704626
42
-1.48864028477956
0
ELLIPSE
5
11F
100
AcDbEntity
8
1
62
256
6
ByLayer
370
18
48
1
60
0
100
AcDbEllipse
10
83.256698
20
-40.198963
30
0
11
2.23001541474499
21
1.2874999999999
31
0
210
0
220
0
230
1
40
0.989133
41
2.30241815774012
42
2.70014992000685
0
ELLIPSE
5
120
100
AcDbEntity
8
1
62
256
6
ByLayer
370
18
48
1
60
0
100
AcDbEllipse
10
83.256698
20
-40.198963
30
0
11
2.23001541474499
21
1.2874999999999
31
0
210
0
220
0
230
1
40
0.989133
41
1.25522060654352
42
1.65295236881025
0
ELLIPSE
5
121
100
AcDbEntity
8
1
62
256
6
ByLayer
370
18
48
1
60
0
100
AcDbEllipse
10
83.272503
20
-40.226338
30
0
11
-4.53364298881166
21
-2.61749999999979
31
0
210
0
220
0
230
1
40
0.989133
41
0
42
6.28318530717959
0
ELLIPSE
5
122
100
AcDbEntity
8
1
62
256
6
ByLayer
370
18
48
1
60
0
100
AcDbEllipse
10
113.493085
20
-45.813039
30
0
11
2.06222299276175
21
1.19062499999991
31
0
210
0
220
0
230
1
40
0.989133
41
-0.779934954875859
42
0.790861371919031
0
ELLIPSE
5
123
100
AcDbEntity
8
1
62
256
6
ByLayer
370
18
48
1
60
0
100
AcDbEllipse
10
93.608765
20
-40.717231
30
0
11
2.06222299276175
21
1.19062499999991
31
0
210
0
220
0
230
1
40
0.989133
41
0.79086137191904
42
2.36165769871394
0
ELLIPSE
5
124
100
AcDbEntity
8
1
62
256
6
ByLayer
370
18
48
1
60
0
100
AcDbEllipse
10
100.894866
20
-53.177681
30
0
11
3.94907584125715
21
2.27999999999982
31
0
210
0
220
0
230
1
40
0.989133
41
0
42
6.28318530717959
0
ELLIPSE
5
125
100
AcDbEntity
8
1
62
256
6
ByLayer
370
18
48
1
60
0
100
AcDbEllipse
10
88.296648
20
-60.542323
30
0
11
2.06222299276175
21
1.19062499999991
31
0
210
0
220
0
230
1
40
0.989133
41
2.36165769871394
42
-2.35073128167077
0
ELLIPSE
5
126
100
AcDbEntity
8
1
62
256
6
ByLayer
370
18
48
1
60
0
100
AcDbEllipse
10
108.180968
20
-65.638131
30
0
11
2.06222299276175
21
1.19062499999991
31
0
210
0
220
0
230
1
40
0.989133
41
-2.35073128167076
42
-0.779934954875851
0
ELLIPSE
5
127
100
AcDbEntity
8
1
62
256
6
ByLayer
370
18
48
1
60
0
100
AcDbEllipse
10
25.312541
20
0
30
0
11
-3.67381906146713E-16
21
-2
31
0
210
0
220
0
230
1
40
0.97437
41
0
42
6.28318530717959
0
ELLIPSE
5
128
100
AcDbEntity
8
1
62
256
6
ByLayer
370
18
48
1
60
0
100
AcDbEllipse
10
25.312541
20
0
30
0
11
-1.83690953073357E-16
21
-1
31
0
210
0
220
0
230
1
40
0.97437
41
0
42
6.28318530717959
0
ELLIPSE
5
129
100
AcDbEntity
8
1
62
256
6
ByLayer
370
18
48
1
60
0
100
AcDbEllipse
10
25.155076
20
0
30
0
11
-1.10214571844014E-16
21
-0.6
31
0
210
0
220
0
230
1
40
0.97437
41
0
42
6.28318530717959
0
POINT
5
6C
100
AcDbEntity
8
80
62
256
6
ByLayer
370
18
48
1
60
0
100
AcDbPoint
10
0
20
0
30
0
39
0
210
0
220
0
230
1
50
360
0
POINT
5
6E
100
AcDbEntity
8
81
62
256
6
ByLayer
370
18
48
1
60
0
100
AcDbPoint
10
110
20
-68
30
0
39
0
210
0
220
0
230
1
50
360
0
POINT
5
70
100
AcDbEntity
8
1
62
256
6
ByLayer
370
18
48
1
60
0
100
AcDbPoint
10
0
20
0
30
0
39
0
210
0
220
0
230
1
50
360
0
SPLINE
5
12A
100
AcDbEntity
8
SK1
62
256
6
ByLayer
370
18
48
1
60
0
100
AcDbSpline
70
4
71
3
72
13
73
9
40
0
40
0
40
0
40
0
40
0.239456597695712
40
0.368360333413617
40
0.499999646097097
40
0.631639017851902
40
0.760542916289041
40
1
40
1
40
1
40
1
41
1
10
-2.20000000000007
20
-36.020098714425
30
0
41
1
10
-2.19909199362434
20
-35.9940411437021
30
0
41
1
10
-2.1910328482509
20
-35.9566684187021
30
0
41
1
10
-2.16563593150661
20
-35.9104490513903
30
0
41
1
10
-2.13886379933911
20
-35.8791673697465
30
0
41
1
10
-2.106277140956
20
-35.8539998944634
30
0
41
1
10
-2.05884066056893
20
-35.8309559959591
30
0
41
1
10
-2.02111031829256
20
-35.8247837166445
30
0
41
1
10
-1.99503997793934
20
-35.8251853523286
30
0
0
SPLINE
5
12B
100
AcDbEntity
8
SK1
62
256
6
ByLayer
370
18
48
1
60
0
100
AcDbSpline
70
4
71
3
72
13
73
9
40
0
40
0
40
0
40
0
40
0.239457532542538
40
0.368361585146306
40
0.500001016451658
40
0.631640278504597
40
0.760543864569784
40
1
40
1
40
1
40
1
41
1
10
-1.99503997793934
20
35.8251861518663
30
0
41
1
10
-2.02111030872345
20
35.8247845119234
30
0
41
1
10
-2.05884064232777
20
35.8309567669305
30
0
41
1
10
-2.10627712748956
20
35.8540005693301
30
0
41
1
10
-2.13886378678419
20
35.8791679394555
30
0
41
1
10
-2.16563592202701
20
35.9104494932214
30
0
41
1
10
-2.19103284106416
20
35.9566686669143
30
0
41
1
10
-2.19909198641744
20
35.9940412511457
30
0
41
1
10
-2.20000000000005
20
36.0200987271899
30
0
0
SPLINE
5
12C
100
AcDbEntity
8
SK1
62
256
6
ByLayer
370
18
48
1
60
0
100
AcDbSpline
70
4
71
2
72
6
73
3
40
0
40
0
40
0
40
1
40
1
40
1
41
1
10
-58.0000000000001
20
-34.5974182144315
30
0
41
1
10
-30.1000000000007
20
-35.2979600359712
30
0
41
1
10
-2.20000000000007
20
-35.9985019194102
30
0
0
SPLINE
5
12D
100
AcDbEntity
8
SK1
62
256
6
ByLayer
370
18
48
1
60
0
100
AcDbSpline
70
4
71
2
72
6
73
3
40
0
40
0
40
0
40
1
40
1
40
1
41
1
10
-2.20000000000005
20
35.9985021134432
30
0
41
1
10
-30.1000000000001
20
35.2979624159374
30
0
41
1
10
-58
20
34.5974227787247
30
0
0
SPLINE
5
12E
100
AcDbEntity
8
SK1
62
256
6
ByLayer
370
18
48
1
60
0
100
AcDbSpline
70
4
71
2
72
6
73
3
40
0
40
0
40
0
40
1
40
1
40
1
41
1
10
-1.99503997793934
20
-35.8251729954495
30
0
41
1
10
-1.19500843340737
20
-35.8452725233881
30
0
41
1
10
-0.394976888875362
20
-35.8653720513261
30
0
0
SPLINE
5
12F
100
AcDbEntity
8
SK1
62
256
6
ByLayer
370
18
48
1
60
0
100
AcDbSpline
70
4
71
2
72
6
73
3
40
0
40
0
40
0
40
1
40
1
40
1
41
1
10
-0.394976888875334
20
35.8653726648782
30
0
41
1
10
-1.19500843340734
20
35.8452732207571
30
0
41
1
10
-1.99503997793934
20
35.825173776634
30
0
0
SPLINE
5
130
100
AcDbEntity
8
SK1
62
256
6
ByLayer
370
18
48
1
60
0
100
AcDbSpline
70
4
71
3
72
13
73
9
40
0
40
0
40
0
40
0
40
0.0719354309724711
40
0.222834958023979
40
0.390919951166256
40
0.574614657385004
40
0.772352294918839
40
1
40
1
40
1
40
1
41
1
10
-0.243145327530414
20
22.886263834487
30
0
41
1
10
-0.244623999393838
20
23.0977281499077
30
0
41
1
10
-0.249174199983514
20
23.7446572089919
30
0
41
1
10
-0.256904385741109
20
24.8281095053018
30
0
41
1
10
-0.266779687492345
20
26.1598685344698
30
0
41
1
10
-0.277494249431925
20
27.5280400618144
30
0
41
1
10
-0.28933569541627
20
28.9474232102365
30
0
41
1
10
-0.297567240826112
20
29.8400010435408
30
0
41
1
10
-0.301962419063898
20
30.2914950302808
30
0
0
SPLINE
5
131
100
AcDbEntity
8
SK1
62
256
6
ByLayer
370
18
48
1
60
0
100
AcDbSpline
70
4
71
2
72
6
73
3
40
0
40
0
40
0
40
1
40
1
40
1
41
1
10
-0.394976888875362
20
-35.8653844162001
30
0
41
1
10
-0.24709574540077
20
-35.9107202102316
30
0
41
1
10
-0.22561939270733
20
-35.701617428073
30
0
0
SPLINE
5
132
100
AcDbEntity
8
SK1
62
256
6
ByLayer
370
18
48
1
60
0
100
AcDbSpline
70
4
71
2
72
6
73
3
40
0
40
0
40
0
40
1
40
1
40
1
41
1
10
-60.0000000000001
20
-33.4633340188486
30
0
41
1
10
-59.0000000015329
20
-34.0406784545941
30
0
41
1
10
-58.0000000000001
20
-34.6180228183431
30
0
0
SPLINE
5
133
100
AcDbEntity
8
SK1
62
256
6
ByLayer
370
18
48
1
60
0
100
AcDbSpline
70
4
71
2
72
6
73
3
40
0
40
0
40
0
40
1
40
1
40
1
41
1
10
-58.0000000000001
20
34.6180277609946
30
0
41
1
10
-58.9999999990911
20
34.0406853811667
30
0
41
1
10
-60
20
33.4633429309407
30
0
0
SPLINE
5
134
100
AcDbEntity
8
SK1
62
256
6
ByLayer
370
18
48
1
60
0
100
AcDbSpline
70
4
71
3
72
126
73
122
40
0
40
0
40
0
40
0
40
0.0034555389010082
40
0.0072844912032588
40
0.0111134435055094
40
0.0149423958077601
40
0.0226003004122613
40
0.0302582050167625
40
0.0379161096212637
40
0.0455740142257649
40
0.0532319188302661
40
0.0608898234347674
40
0.0685477280392686
40
0.0762056326437698
40
0.083863537248271
40
0.0915214418527723
40
0.0991793464572735
40
0.106837251061775
40
0.114495155666276
40
0.122153060270777
40
0.129810964875278
40
0.13746886947978
40
0.145126774084281
40
0.152784678688782
40
0.160442583293283
40
0.168100487897785
40
0.175758392502286
40
0.183416297106787
40
0.191074201711288
40
0.206390010920291
40
0.214047915524792
40
0.217876867827042
40
0.221705820129293
40
0.229363724733794
40
0.237021629338295
40
0.252337438547298
40
0.259995343151799
40
0.2676532477563
40
0.282969056965303
40
0.298284866174305
40
0.305942770778806
40
0.313600675383308
40
0.321258579987809
40
0.32891648459231
40
0.344232293801312
40
0.359548103010315
40
0.367206007614816
40
0.374863912219317
40
0.39017972142832
40
0.405495530637322
40
0.420811339846325
40
0.428469244450826
40
0.436127149055327
40
0.443785053659828
40
0.45144295826433
40
0.466758767473332
40
0.482074576682334
40
0.489732481286836
40
0.497390385891337
40
0.505048290495838
40
0.512706195100339
40
0.528022004309342
40
0.543337813518344
40
0.558653622727347
40
0.566311527331848
40
0.573969431936349
40
0.589285241145351
40
0.604601050354354
40
0.612258954958855
40
0.619916859563356
40
0.627574764167858
40
0.635232668772359
40
0.650548477981361
40
0.658206382585862
40
0.665864287190364
40
0.673522191794865
40
0.681180096399366
40
0.696495905608369
40
0.70415381021287
40
0.711811714817371
40
0.719469619421872
40
0.727127524026373
40
0.742443333235376
40
0.750101237839877
40
0.757759142444378
40
0.76541704704888
40
0.773074951653381
40
0.776903903955631
40
0.780732856257882
40
0.788390760862383
40
0.803706570071386
40
0.811364474675887
40
0.819022379280388
40
0.826680283884889
40
0.83433818848939
40
0.841996093093892
40
0.849653997698393
40
0.857311902302894
40
0.864969806907395
40
0.872627711511897
40
0.880285616116398
40
0.887943520720899
40
0.8956014253254
40
0.899430377627651
40
0.903259329929901
40
0.910917234534403
40
0.918575139138904
40
0.926233043743405
40
0.933890948347906
40
0.941548852952408
40
0.945377805254658
40
0.949206757556909
40
0.95686466216141
40
0.960693614463661
40
0.964522566765911
40
0.972180471370413
40
0.979838375974914
40
0.983667328277164
40
0.987496280579415
40
0.995154185183916
40
1
40
1
40
1
40
1
41
1
10
-0.394976888875391
20
-35.8653776109764
30
0
41
1
10
-0.394976888875362
20
-35.8654184055821
30
0
41
1
10
-0.394976888875362
20
-35.8651176218492
30
0
41
1
10
-0.394976888875334
20
-35.8634269812556
30
0
41
1
10
-0.394976888875362
20
-35.8603562366916
30
0
41
1
10
-0.394976888875334
20
-35.854515215742
30
0
41
1
10
-0.394976888875334
20
-35.8439794508303
30
0
41
1
10
-0.394976888875334
20
-35.8262611583918
30
0
41
1
10
-0.394976888875362
20
-35.8035689891332
30
0
41
1
10
-0.394976888875362
20
-35.7759991267868
30
0
41
1
10
-0.394976888875362
20
-35.743640931658
30
0
41
1
10
-0.394976888875334
20
-35.7065800027222
30
0
41
1
10
-0.394976888875362
20
-35.6648981651514
30
0
41
1
10
-0.394976888875362
20
-35.6186711780713
30
0
41
1
10
-0.394976888875362
20
-35.5679745134804
30
0
41
1
10
-0.394976888875362
20
-35.5128761760523
30
0
41
1
10
-0.394976888875362
20
-35.4534444043633
30
0
41
1
10
-0.394976888875362
20
-35.3897431016973
30
0
41
1
10
-0.394976888875362
20
-35.3218323112638
30
0
41
1
10
-0.394976888875362
20
-35.2497710104041
30
0
41
1
10
-0.394976888875334
20
-35.1736151059193
30
0
41
1
10
-0.394976888875334
20
-35.093418190414
30
0
41
1
10
-0.394976888875362
20
-35.0092316945093
30
0
41
1
10
-0.394976888875334
20
-34.9211049595596
30
0
41
1
10
-0.394976888875334
20
-34.8290853787459
30
0
41
1
10
-0.394976888875334
20
-34.7332186246447
30
0
41
1
10
-0.394976888875334
20
-34.6335485304196
30
0
41
1
10
-0.394976888875334
20
-34.5301171783812
30
0
41
1
10
-0.394976888875362
20
-34.3872241353874
30
0
41
1
10
-0.394976888875334
20
-34.2370419140071
30
0
41
1
10
-0.394976888875334
20
-34.0992650937292
30
0
41
1
10
-0.394976888875362
20
-34.0187437263542
30
0
41
1
10
-0.394976888875362
20
-33.9370370034868
30
0
41
1
10
-0.394976888875334
20
-33.8327219580027
30
0
41
1
10
-0.394976888875362
20
-33.6610954992522
30
0
41
1
10
-0.394976888875362
20
-33.4826057621145
30
0
41
1
10
-0.394976888875334
20
-33.2972051581973
30
0
41
1
10
-0.394976888875362
20
-33.1072907380499
30
0
41
1
10
-0.394976888875334
20
-32.8615720411721
30
0
41
1
10
-0.394976888875334
20
-32.6048424706424
30
0
41
1
10
-0.394976888875334
20
-32.3928928336977
30
0
41
1
10
-0.394976888875334
20
-32.2307235620491
30
0
41
1
10
-0.394976888875334
20
-32.065346068428
30
0
41
1
10
-0.394976888875334
20
-31.8405614201245
30
0
41
1
10
-0.394976888875334
20
-31.5517459050345
30
0
41
1
10
-0.394976888875334
20
-31.2525219538402
30
0
41
1
10
-0.394976888875362
20
-31.0069093628079
30
0
41
1
10
-0.394976888875334
20
-30.7572080028694
30
0
41
1
10
-0.394976888875362
20
-30.4375437762782
30
0
41
1
10
-0.394976888875334
20
-30.0418468835666
30
0
41
1
10
-0.394976888875334
20
-29.7022003148106
30
0
41
1
10
-0.394976888875334
20
-29.4245084215695
30
0
41
1
10
-0.394976888875334
20
-29.2133327662611
30
0
41
1
10
-0.394976888875334
20
-28.9992339821199
30
0
41
1
10
-0.394976888875334
20
-28.7098481386984
30
0
41
1
10
-0.394976888875334
20
-28.340970496997
30
0
41
1
10
-0.394976888875334
20
-27.9625243931996
30
0
41
1
10
-0.394976888875334
20
-27.6539931003944
30
0
41
1
10
-0.394976888875334
20
-27.419792083474
30
0
41
1
10
-0.394976888875334
20
-27.182765606887
30
0
41
1
10
-0.394976888875334
20
-26.8629311640438
30
0
41
1
10
-0.394976888875334
20
-26.4562321573553
30
0
41
1
10
-0.394976888875334
20
-25.9569955498363
30
0
41
1
10
-0.394976888875334
20
-25.531790421906
30
0
41
1
10
-0.394976888875362
20
-25.1860341634963
30
0
41
1
10
-0.394976888875334
20
-24.8366207517988
30
0
41
1
10
-0.394976888875362
20
-24.3931333790251
30
0
41
1
10
-0.394976888875334
20
-23.9405766044571
30
0
41
1
10
-0.394976888875334
20
-23.5730166229076
30
0
41
1
10
-0.394976888875334
20
-23.2946864743329
30
0
41
1
10
-0.394976888875334
20
-23.0136599895412
30
0
41
1
10
-0.394976888875334
20
-22.6353132371553
30
0
41
1
10
-0.394976888875334
20
-22.2517707343539
30
0
41
1
10
-0.394976888875334
20
-21.8626976854151
30
0
41
1
10
-0.394976888875334
20
-21.5682668931889
30
0
41
1
10
-0.394976888875334
20
-21.271168442681
30
0
41
1
10
-0.394976888875334
20
-20.8714231892215
30
0
41
1
10
-0.394976888875334
20
-20.4665491966628
30
0
41
1
10
-0.394976888875334
20
-20.0561712634217
30
0
41
1
10
-0.394976888875334
20
-19.7457866731405
30
0
41
1
10
-0.394976888875334
20
-19.4327531245027
30
0
41
1
10
-0.394976888875334
20
-19.0117775840375
30
0
41
1
10
-0.394976888875334
20
-18.5857236375231
30
0
41
1
10
-0.394976888875362
20
-18.1541693136931
30
0
41
1
10
-0.394976888875334
20
-17.8279183574374
30
0
41
1
10
-0.394976888875334
20
-17.4990274869922
30
0
41
1
10
-0.394976888875334
20
-17.2227901407219
30
0
41
1
10
-0.394976888875334
20
-17.0004108943221
30
0
41
1
10
-0.394976888875334
20
-16.7771522077327
30
0
41
1
10
-0.394976888875334
20
-16.3841710240747
30
0
41
1
10
-0.394976888875334
20
-15.9299794688331
30
0
41
1
10
-0.394976888875334
20
-15.4702555452062
30
0
41
1
10
-0.394976888875306
20
-15.1228861045843
30
0
41
1
10
-0.394976888875334
20
-14.7728737253136
30
0
41
1
10
-0.394976888875334
20
-14.4202178800221
30
0
41
1
10
-0.394976888875334
20
-14.0649158346648
30
0
41
1
10
-0.394976888875334
20
-13.706966774032
30
0
41
1
10
-0.394976888875334
20
-13.3463680945818
30
0
41
1
10
-0.394976888875334
20
-12.9831179010793
30
0
41
1
10
-0.394976888875334
20
-12.6172140721258
30
0
41
1
10
-0.394976888875334
20
-12.2486538786068
30
0
41
1
10
-0.394976888875334
20
-11.877435461996
30
0
41
1
10
-0.394976888875334
20
-11.5659225593265
30
0
41
1
10
-0.394976888875334
20
-11.3152803628127
30
0
41
1
10
-0.394976888875334
20
-11.0637515002381
30
0
41
1
10
-0.394976888875334
20
-10.7478052942323
30
0
41
1
10
-0.394976888875334
20
-10.3659294753253
30
0
41
1
10
-0.394976888875334
20
-9.98138431841264
30
0
41
1
10
-0.394976888875334
20
-9.59416962249628
30
0
41
1
10
-0.394976888875334
20
-9.26932873965475
30
0
41
1
10
-0.394976888875334
20
-9.00799999429154
30
0
41
1
10
-0.394976888875334
20
-8.74578292736527
30
0
41
1
10
-0.394976888875306
20
-8.48244127998373
30
0
41
1
10
-0.394976888875334
20
-8.21754953480047
30
0
41
1
10
-0.394976888875334
20
-7.95177203759232
30
0
41
1
10
-0.394976888875334
20
-7.61805779883332
30
0
41
1
10
-0.394976888875334
20
-7.28212707034129
30
0
41
1
10
-0.394976888875306
20
-7.01191435047281
30
0
41
1
10
-0.394976888875334
20
-6.74082520810293
30
0
41
1
10
-0.394976888875334
20
-6.45050039040555
30
0
41
1
10
-0.394976888875334
20
-6.22707378727875
30
0
41
1
10
-0.394976888875334
20
-6.14029722152785
30
0
0
SPLINE
5
135
100
AcDbEntity
8
SK1
62
256
6
ByLayer
370
18
48
1
60
0
100
AcDbSpline
70
4
71
3
72
123
73
119
40
0
40
0
40
0
40
0
40
0.0048496390744487
40
0.0125135941245001
40
0.0163455716495258
40
0.0201775491745515
40
0.0278415042246029
40
0.0355054592746543
40
0.03933743679968
40
0.0431694143247057
40
0.0508333693747571
40
0.0584973244248085
40
0.0661612794748599
40
0.0738252345249113
40
0.0814891895749627
40
0.0891531446250141
40
0.0968170996750655
40
0.104481054725117
40
0.112145009775168
40
0.11980896482522
40
0.127472919875271
40
0.135136874925322
40
0.142800829975374
40
0.150464785025425
40
0.158128740075477
40
0.161960717600502
40
0.165792695125528
40
0.173456650175579
40
0.181120605225631
40
0.188784560275682
40
0.196448515325734
40
0.204112470375785
40
0.211776425425836
40
0.219440380475888
40
0.223272358000913
40
0.227104335525939
40
0.23476829057599
40
0.242432245626042
40
0.250096200676093
40
0.257760155726145
40
0.273088065826248
40
0.280752020876299
40
0.28841597592635
40
0.296079930976402
40
0.303743886026453
40
0.319071796126556
40
0.326735751176607
40
0.334399706226659
40
0.34206366127671
40
0.349727616326761
40
0.365055526426864
40
0.372719481476916
40
0.380383436526967
40
0.388047391577018
40
0.39571134662707
40
0.411039256727173
40
0.426367166827275
40
0.434031121877327
40
0.441695076927378
40
0.457022987027481
40
0.472350897127584
40
0.487678807227686
40
0.495342762277738
40
0.503006717327789
40
0.510670672377841
40
0.518334627427892
40
0.533662537527995
40
0.548990447628098
40
0.556654402678149
40
0.5643183577282
40
0.571982312778252
40
0.579646267828303
40
0.594974177928406
40
0.610302088028509
40
0.625629998128612
40
0.633293953178663
40
0.640957908228714
40
0.656285818328817
40
0.67161372842892
40
0.679277683478971
40
0.686941638529023
40
0.694605593579074
40
0.702269548629126
40
0.717597458729228
40
0.732925368829331
40
0.740589323879382
40
0.748253278929434
40
0.763581189029537
40
0.771245144079588
40
0.778909099129639
40
0.782741076654665
40
0.786573054179691
40
0.794237009229742
40
0.809564919329845
40
0.817228874379896
40
0.824892829429948
40
0.832556784479999
40
0.840220739530051
40
0.847884694580102
40
0.855548649630153
40
0.863212604680205
40
0.870876559730256
40
0.878540514780307
40
0.886204469830359
40
0.901532379930462
40
0.909196334980513
40
0.916860290030564
40
0.924524245080616
40
0.932188200130667
40
0.939852155180719
40
0.94751611023077
40
0.955180065280821
40
0.962844020330873
40
0.970507975380924
40
0.978171930430976
40
0.985835885481027
40
0.993499840531078
40
1
40
1
40
1
40
1
41
1
10
-0.394976888875334
20
6.14029748393364
30
0
41
1
10
-0.394976888875306
20
6.22707397316506
30
0
41
1
10
-0.394976888875306
20
6.45050049171115
30
0
41
1
10
-0.394976888875306
20
6.74082518692182
30
0
41
1
10
-0.394976888875306
20
7.0119143496857
30
0
41
1
10
-0.394976888875334
20
7.28212710030425
30
0
41
1
10
-0.394976888875306
20
7.61805782474275
30
0
41
1
10
-0.394976888875334
20
7.95177199064219
30
0
41
1
10
-0.394976888875334
20
8.21754949980783
30
0
41
1
10
-0.394976888875306
20
8.48244125097079
30
0
41
1
10
-0.394976888875306
20
8.81172783237594
30
0
41
1
10
-0.394976888875306
20
9.20428399686466
30
0
41
1
10
-0.394976888875306
20
9.59416972776233
30
0
41
1
10
-0.394976888875334
20
9.9813846366618
30
0
41
1
10
-0.394976888875306
20
10.3659293652704
30
0
41
1
10
-0.394976888875334
20
10.7478049083353
30
0
41
1
10
-0.394976888875306
20
11.1270131973586
30
0
41
1
10
-0.394976888875334
20
11.5035558012536
30
0
41
1
10
-0.394976888875334
20
11.8774354513043
30
0
41
1
10
-0.394976888875334
20
12.2486538532733
30
0
41
1
10
-0.394976888875306
20
12.6172140771122
30
0
41
1
10
-0.394976888875306
20
12.9831178868123
30
0
41
1
10
-0.394976888875306
20
13.3463680811383
30
0
41
1
10
-0.394976888875306
20
13.7069667840625
30
0
41
1
10
-0.394976888875334
20
14.0052089603084
30
0
41
1
10
-0.394976888875306
20
14.2425643537976
30
0
41
1
10
-0.394976888875306
20
14.4790383776377
30
0
41
1
10
-0.394976888875306
20
14.7728739584208
30
0
41
1
10
-0.394976888875306
20
15.1228859444594
30
0
41
1
10
-0.394976888875334
20
15.4702555471365
30
0
41
1
10
-0.394976888875334
20
15.8149837556983
30
0
41
1
10
-0.394976888875334
20
16.1570713412193
30
0
41
1
10
-0.394976888875334
20
16.4965191583142
30
0
41
1
10
-0.394976888875306
20
16.7771522140655
30
0
41
1
10
-0.394976888875306
20
17.000410895403
30
0
41
1
10
-0.394976888875306
20
17.2227901432131
30
0
41
1
10
-0.394976888875306
20
17.4990274946617
30
0
41
1
10
-0.394976888875334
20
17.8279183615915
30
0
41
1
10
-0.394976888875306
20
18.1541693183472
30
0
41
1
10
-0.394976888875334
20
18.5857236544633
30
0
41
1
10
-0.394976888875334
20
19.0117775851468
30
0
41
1
10
-0.394976888875334
20
19.4327531367487
30
0
41
1
10
-0.394976888875334
20
19.7457866678882
30
0
41
1
10
-0.394976888875306
20
20.0561712754684
30
0
41
1
10
-0.394976888875306
20
20.4665492038552
30
0
41
1
10
-0.394976888875306
20
20.8714231957186
30
0
41
1
10
-0.394976888875334
20
21.2711684505154
30
0
41
1
10
-0.394976888875306
20
21.5682668891846
30
0
41
1
10
-0.394976888875334
20
21.8626976962737
30
0
41
1
10
-0.394976888875334
20
22.2517707390545
30
0
41
1
10
-0.394976888875334
20
22.6353132423941
30
0
41
1
10
-0.394976888875306
20
23.0136599970687
30
0
41
1
10
-0.394976888875334
20
23.294686470862
30
0
41
1
10
-0.394976888875334
20
23.5730166298655
30
0
41
1
10
-0.394976888875306
20
23.9405766122791
30
0
41
1
10
-0.394976888875306
20
24.3931333811419
30
0
41
1
10
-0.394976888875334
20
24.8366207519516
30
0
41
1
10
-0.394976888875306
20
25.1860341652141
30
0
41
1
10
-0.394976888875306
20
25.5317904302903
30
0
41
1
10
-0.394976888875306
20
25.9569955457311
30
0
41
1
10
-0.394976888875334
20
26.4562321610578
30
0
41
1
10
-0.394976888875306
20
26.8629311663352
30
0
41
1
10
-0.394976888875334
20
27.1827656093462
30
0
41
1
10
-0.394976888875306
20
27.4197920823074
30
0
41
1
10
-0.394976888875334
20
27.6539931014152
30
0
41
1
10
-0.394976888875306
20
27.9625243956635
30
0
41
1
10
-0.394976888875334
20
28.3409704949157
30
0
41
1
10
-0.394976888875334
20
28.7098481402265
30
0
41
1
10
-0.394976888875334
20
28.9992339808615
30
0
41
1
10
-0.394976888875306
20
29.2133327647666
30
0
41
1
10
-0.394976888875306
20
29.4245084222719
30
0
41
1
10
-0.394976888875306
20
29.7022003135976
30
0
41
1
10
-0.394976888875334
20
30.041846883991
30
0
41
1
10
-0.394976888875334
20
30.43754376905
30
0
41
1
10
-0.394976888875334
20
30.7572080062434
30
0
41
1
10
-0.394976888875306
20
31.0069093580469
30
0
41
1
10
-0.394976888875334
20
31.2525219484189
30
0
41
1
10
-0.394976888875334
20
31.5517459016334
30
0
41
1
10
-0.394976888875334
20
31.8405614204001
30
0
41
1
10
-0.394976888875306
20
32.0653460663191
30
0
41
1
10
-0.394976888875306
20
32.2307235504389
30
0
41
1
10
-0.394976888875334
20
32.3928928338024
30
0
41
1
10
-0.394976888875334
20
32.6048424687675
30
0
41
1
10
-0.394976888875306
20
32.8615720410336
30
0
41
1
10
-0.394976888875334
20
33.1072907219372
30
0
41
1
10
-0.394976888875334
20
33.2972051548837
30
0
41
1
10
-0.394976888875334
20
33.4826057619406
30
0
41
1
10
-0.394976888875334
20
33.6610954954259
30
0
41
1
10
-0.394976888875334
20
33.8327219500751
30
0
41
1
10
-0.394976888875334
20
33.9370369896415
30
0
41
1
10
-0.394976888875334
20
34.0187437151792
30
0
41
1
10
-0.394976888875306
20
34.0992650911193
30
0
41
1
10
-0.394976888875334
20
34.2370419132511
30
0
41
1
10
-0.394976888875334
20
34.3872241278822
30
0
41
1
10
-0.394976888875334
20
34.5301171770344
30
0
41
1
10
-0.394976888875334
20
34.6335485066014
30
0
41
1
10
-0.394976888875306
20
34.7332186300704
30
0
41
1
10
-0.394976888875334
20
34.8290853700735
30
0
41
1
10
-0.394976888875334
20
34.921104936467
30
0
41
1
10
-0.394976888875334
20
35.0092317015022
30
0
41
1
10
-0.394976888875334
20
35.0934183585437
30
0
41
1
10
-0.394976888875334
20
35.1736145542893
30
0
41
1
10
-0.394976888875306
20
35.249771384577
30
0
41
1
10
-0.394976888875334
20
35.3458690564809
30
0
41
1
10
-0.394976888875334
20
35.4336188232989
30
0
41
1
10
-0.394976888875306
20
35.512876196401
30
0
41
1
10
-0.394976888875334
20
35.5679744983808
30
0
41
1
10
-0.394976888875334
20
35.6186712456131
30
0
41
1
10
-0.394976888875334
20
35.6648981389416
30
0
41
1
10
-0.394976888875306
20
35.7065800550004
30
0
41
1
10
-0.394976888875334
20
35.7436409390552
30
0
41
1
10
-0.394976888875306
20
35.7759991408607
30
0
41
1
10
-0.394976888875306
20
35.8035690347397
30
0
41
1
10
-0.394976888875334
20
35.8262611416871
30
0
41
1
10
-0.394976888875306
20
35.843979517122
30
0
41
1
10
-0.394976888875334
20
35.8566245309615
30
0
41
1
10
-0.394976888875334
20
35.8637111751255
30
0
41
1
10
-0.394976888875362
20
35.8652966717471
30
0
41
1
10
-0.394976888875334
20
35.8653774838718
30
0
0
SPLINE
5
136
100
AcDbEntity
8
SK1
62
256
6
ByLayer
370
18
48
1
60
0
100
AcDbSpline
70
4
71
3
72
26
73
22
40
0
40
0
40
0
40
0
40
0.0312500000000003
40
0.0312500000000003
40
0.0625000000000006
40
0.0625000000000006
40
0.0937500000000008
40
0.0937500000000008
40
0.125000000000001
40
0.125000000000001
40
0.187500000000001
40
0.187500000000001
40
0.250000000000001
40
0.250000000000001
40
0.375000000000001
40
0.375000000000001
40
0.5
40
0.5
40
0.75
40
0.75
40
1
40
1
40
1
40
1
41
1
10
-0.394976888875306
20
-6.14029722153327
30
0
41
1
10
-0.411386827853363
20
-6.15471389261219
30
0
41
1
10
-0.428762929070359
20
-6.16792682850334
30
0
41
1
10
-0.46631249080454
20
-6.19087886287881
30
0
41
1
10
-0.486486340955395
20
-6.20053205424253
30
0
41
1
10
-0.52863608757923
20
-6.21387385760752
30
0
41
1
10
-0.55133380665427
20
-6.21763094422383
30
0
41
1
10
-0.595996896779326
20
-6.21759710275103
30
0
41
1
10
-0.618501718611981
20
-6.21388050874933
30
0
41
1
10
-0.682666367362941
20
-6.19354801200384
30
0
41
1
10
-0.720497492514397
20
-6.16857769971645
30
0
41
1
10
-0.78620906487194
20
-6.11129360410712
30
0
41
1
10
-0.815074852177304
20
-6.07817489743726
30
0
41
1
10
-0.89243842961821
20
-5.97534441057215
30
0
41
1
10
-0.933322586559825
20
-5.90108526750916
30
0
41
1
10
-1.00643010561578
20
-5.74774420897117
30
0
41
1
10
-1.03799495343566
20
-5.66875170759855
30
0
41
1
10
-1.12311078163751
20
-5.43037042400042
30
0
41
1
10
-1.16788167463847
20
-5.26810674825336
30
0
41
1
10
-1.24572901926439
20
-4.93961739422355
30
0
41
1
10
-1.27842602392929
20
-4.77330384397371
30
0
41
1
10
-1.30710678118658
20
-4.60538003006576
30
0
0
SPLINE
5
137
100
AcDbEntity
8
SK1
62
256
6
ByLayer
370
18
48
1
60
0
100
AcDbSpline
70
4
71
3
72
22
73
18
40
0
40
0
40
0
40
0
40
0.185527839092673
40
0.185527839092673
40
0.389145879319516
40
0.389145879319516
40
0.592763919546359
40
0.592763919546359
40
0.694572939659781
40
0.694572939659781
40
0.796381959773202
40
0.796381959773202
40
0.847286469829904
40
0.847286469829904
40
0.898190979886605
40
0.898190979886605
40
1
40
1
40
1
40
1
41
1
10
-0.211942672940779
20
35.6650568137963
30
0
41
1
10
-0.214561562399553
20
35.6534189575671
30
0
41
1
10
-0.21773527209362
20
35.6415541256887
30
0
41
1
10
-0.225863648826817
20
35.6161145448391
30
0
41
1
10
-0.230960514215383
20
35.6025224313217
30
0
41
1
10
-0.243909555635213
20
35.5745706733977
30
0
41
1
10
-0.251695294090041
20
35.5601957054633
30
0
41
1
10
-0.267365014533823
20
35.5381024431322
30
0
41
1
10
-0.273258751589765
20
35.5306388063929
30
0
41
1
10
-0.287574896861287
20
35.5154087724192
30
0
41
1
10
-0.296025217598213
20
35.5075032524917
30
0
41
1
10
-0.312744846045831
20
35.4959387739218
30
0
41
1
10
-0.318964047572138
20
35.4921743471967
30
0
41
1
10
-0.333306356179065
20
35.4852786897173
30
0
41
1
10
-0.341563767889966
20
35.4821798260205
30
0
41
1
10
-0.366640249432521
20
35.475880941168
30
0
41
1
10
-0.382359760725535
20
35.4758754263809
30
0
41
1
10
-0.394976888875561
20
35.4775230333216
30
0
0
SPLINE
5
138
100
AcDbEntity
8
SK1
62
256
6
ByLayer
370
18
48
1
60
0
100
AcDbSpline
70
4
71
3
72
24
73
20
40
0
40
0
40
0
40
0
40
0.25
40
0.25
40
0.3125
40
0.3125
40
0.375
40
0.375
40
0.5
40
0.5
40
0.625
40
0.625
40
0.75
40
0.75
40
0.8125
40
0.8125
40
0.875
40
0.875
40
1
40
1
40
1
40
1
41
1
10
-1.30710678118658
20
4.6053800583274
30
0
41
1
10
-1.4344509556571
20
3.85978933676742
30
0
41
1
10
-1.54387892248155
20
3.10383348780161
30
0
41
1
10
-1.64182277486117
20
2.14038734740586
30
0
41
1
10
-1.65943153712078
20
1.9467591961112
30
0
41
1
10
-1.69016128102572
20
1.55744142286963
30
0
41
1
10
-1.70329012775196
20
1.36146410626952
30
0
41
1
10
-1.73493134584379
20
0.775190730927704
30
0
41
1
10
-1.74573673637366
20
0.385182075791818
30
0
41
1
10
-1.7455909177948
20
-0.39309221223732
30
0
41
1
10
-1.73464574767854
20
-0.781358231863891
30
0
41
1
10
-1.69272967974098
20
-1.55625432464225
30
0
41
1
10
-1.66183533058276
20
-1.94288898079054
30
0
41
1
10
-1.60308307844807
20
-2.52176892060291
30
0
41
1
10
-1.58142702957957
20
-2.71455586541919
30
0
41
1
10
-1.5347216164075
20
-3.09756881527201
30
0
41
1
10
-1.50964113138218
20
-3.28809225111132
30
0
41
1
10
-1.4298992826495
20
-3.85698267981979
30
0
41
1
10
-1.37076249597757
20
-4.23268030289682
30
0
41
1
10
-1.3071067811924
20
-4.60538003003168
30
0
0
SPLINE
5
139
100
AcDbEntity
8
SK1
62
256
6
ByLayer
370
18
48
1
60
0
100
AcDbSpline
70
4
71
3
72
321
73
317
40
0
40
0
40
0
40
0
40
0.0022722295196644
40
0.0057231536224322
40
0.0091740777252
40
0.0126250018279677
40
0.0160759259307355
40
0.0195268500335033
40
0.0229777741362711
40
0.0264286982390389
40
0.0298796223418066
40
0.0333305464445744
40
0.0367814705473422
40
0.0402323946501099
40
0.0436833187528777
40
0.0471342428556455
40
0.0505851669584132
40
0.0574870151639488
40
0.0609379392667166
40
0.0643888633694843
40
0.0678397874722521
40
0.0712907115750199
40
0.0747416356777876
40
0.0781925597805554
40
0.0816434838833232
40
0.085094407986091
40
0.0885453320888586
40
0.0919962561916264
40
0.098898104397162
40
0.10234902849993
40
0.104074490551314
40
0.105799952602698
40
0.109250876705465
40
0.112701800808233
40
0.119603649013769
40
0.123054573116536
40
0.126505497219304
40
0.13340734542484
40
0.140309193630375
40
0.143760117733143
40
0.147211041835911
40
0.150661965938679
40
0.154112890041446
40
0.161014738246982
40
0.167916586452517
40
0.171367510555285
40
0.174818434658053
40
0.181720282863588
40
0.188622131069124
40
0.19552397927466
40
0.198974903377427
40
0.202425827480195
40
0.205876751582963
40
0.209327675685731
40
0.216229523891266
40
0.223131372096802
40
0.226582296199569
40
0.230033220302337
40
0.233484144405105
40
0.236935068507873
40
0.243836916713408
40
0.250738764918944
40
0.25764061312448
40
0.261091537227247
40
0.264542461330015
40
0.27144430953555
40
0.278346157741086
40
0.281797081843854
40
0.285248005946622
40
0.288698930049389
40
0.292149854152157
40
0.299051702357693
40
0.30250262646046
40
0.305953550563228
40
0.309404474665996
40
0.312855398768764
40
0.319757246974299
40
0.323208171077067
40
0.326659095179835
40
0.330110019282603
40
0.333560943385371
40
0.340462791590906
40
0.343913715693674
40
0.347364639796442
40
0.350815563899209
40
0.354266488001977
40
0.355991950053361
40
0.357717412104745
40
0.361168336207513
40
0.36461926031028
40
0.368070184413048
40
0.371521108515816
40
0.374972032618584
40
0.378422956721351
40
0.381873880824119
40
0.383599342875503
40
0.385324804926887
40
0.388775729029655
40
0.392226653132422
40
0.39567757723519
40
0.399128501337958
40
0.402579425440726
40
0.406030349543493
40
0.409481273646261
40
0.412932197749029
40
0.416383121851797
40
0.419834045954565
40
0.423284970057332
40
0.4267358941601
40
0.430186818262868
40
0.433637742365636
40
0.437088666468404
40
0.438814128519787
40
0.440539590571171
40
0.443990514673939
40
0.447441438776707
40
0.449166900828091
40
0.450892362879474
40
0.454343286982242
40
0.45779421108501
40
0.459519673136394
40
0.461245135187778
40
0.462970597239162
40
0.464696059290546
40
0.46642152134193
40
0.468146983393313
40
0.469009714419005
40
0.469872445444697
40
0.471597907496081
40
0.472460638521773
40
0.473323369547465
40
0.475048831598849
40
0.476774293650233
40
0.477637024675925
40
0.478499755701617
40
0.479362486727309
40
0.480225217753001
40
0.481950679804384
40
0.482813410830077
40
0.483676141855768
40
0.48453887288146
40
0.485401603907152
40
0.486264334932844
40
0.487127065958536
40
0.48885252800992
40
0.489715259035612
40
0.490577990061304
40
0.492303452112688
40
0.49316618313838
40
0.494028914164072
40
0.494891645189764
40
0.495754376215456
40
0.497479838266839
40
0.499205300318223
40
0.500068031343915
40
0.500930762369607
40
0.501793493395299
40
0.502656224420991
40
0.504381686472375
40
0.505244417498067
40
0.506107148523759
40
0.506969879549451
40
0.507832610575143
40
0.509558072626527
40
0.510420803652219
40
0.511283534677911
40
0.512146265703603
40
0.513008996729294
40
0.514734458780678
40
0.516459920832062
40
0.517322651857754
40
0.518185382883446
40
0.519048113909138
40
0.51991084493483
40
0.521636306986214
40
0.523361769037598
40
0.525087231088982
40
0.526812693140366
40
0.528538155191749
40
0.529400886217441
40
0.530263617243133
40
0.531126348268825
40
0.531989079294517
40
0.532851810320209
40
0.533714541345901
40
0.534577272371593
40
0.535440003397285
40
0.537165465448669
40
0.538890927500053
40
0.539753658525745
40
0.540616389551437
40
0.54234185160282
40
0.543204582628512
40
0.544067313654204
40
0.545792775705588
40
0.547518237756972
40
0.549243699808356
40
0.55096916185974
40
0.552694623911124
40
0.554420085962507
40
0.557871010065275
40
0.561321934168043
40
0.563047396219427
40
0.564772858270811
40
0.568223782373579
40
0.571674706476346
40
0.57340016852773
40
0.575125630579114
40
0.578576554681882
40
0.580302016733266
40
0.58202747878465
40
0.585478402887417
40
0.588929326990185
40
0.592380251092953
40
0.595831175195721
40
0.599282099298489
40
0.601007561349872
40
0.602733023401256
40
0.606183947504024
40
0.609634871606792
40
0.61308579570956
40
0.616536719812327
40
0.619987643915095
40
0.623438568017863
40
0.626889492120631
40
0.630340416223399
40
0.633791340326166
40
0.637242264428934
40
0.640693188531702
40
0.64414411263447
40
0.651045960840005
40
0.654496884942773
40
0.656222346994157
40
0.657947809045541
40
0.661398733148309
40
0.664849657251076
40
0.668300581353844
40
0.671751505456612
40
0.678653353662147
40
0.682104277764915
40
0.685555201867683
40
0.689006125970451
40
0.692457050073218
40
0.699358898278754
40
0.702809822381522
40
0.706260746484289
40
0.709711670587057
40
0.713162594689825
40
0.720064442895361
40
0.723515366998128
40
0.726966291100896
40
0.730417215203664
40
0.733868139306432
40
0.740769987511967
40
0.747671835717503
40
0.751122759820271
40
0.754573683923038
40
0.761475532128574
40
0.768377380334109
40
0.775279228539645
40
0.778730152642413
40
0.78218107674518
40
0.785632000847948
40
0.789082924950716
40
0.795984773156251
40
0.802886621361787
40
0.806337545464555
40
0.809788469567323
40
0.81323939367009
40
0.816690317772858
40
0.823592165978394
40
0.830494014183929
40
0.837395862389465
40
0.840846786492232
40
0.844297710595
40
0.851199558800536
40
0.858101407006071
40
0.861552331108839
40
0.865003255211607
40
0.868454179314375
40
0.871905103417142
40
0.878806951622678
40
0.885708799828213
40
0.889159723930981
40
0.892610648033749
40
0.899512496239285
40
0.902963420342052
40
0.90641434444482
40
0.908139806496204
40
0.909865268547588
40
0.913316192650356
40
0.920218040855891
40
0.923668964958659
40
0.927119889061427
40
0.930570813164195
40
0.934021737266962
40
0.93747266136973
40
0.940923585472498
40
0.944374509575266
40
0.947825433678033
40
0.951276357780801
40
0.954727281883569
40
0.958178205986337
40
0.961629130089104
40
0.965080054191872
40
0.96853097829464
40
0.971981902397408
40
0.975432826500175
40
0.978883750602943
40
0.982334674705711
40
0.985785598808479
40
0.989236522911247
40
0.992687447014014
40
0.996138371116782
40
0.99958929521955
40
1
40
1
40
1
40
1
41
1
10
-60
20
33.4556558823036
30
0
41
1
10
-60
20
33.4576332332354
30
0
41
1
10
-60.0000000000001
20
33.4616638236669
30
0
41
1
10
-60.0000000000001
20
33.4643410509435
30
0
41
1
10
-60.0000000000001
20
33.4623133815696
30
0
41
1
10
-60.0000000000001
20
33.4553334593646
30
0
41
1
10
-60
20
33.4434921454555
30
0
41
1
10
-60
20
33.426877426851
30
0
41
1
10
-60
20
33.4055717280175
30
0
41
1
10
-60
20
33.379655314039
30
0
41
1
10
-60.0000000000001
20
33.3492037178841
30
0
41
1
10
-60.0000000000001
20
33.3142895381611
30
0
41
1
10
-60
20
33.2749830705362
30
0
41
1
10
-60
20
33.2313495484921
30
0
41
1
10
-60
20
33.1834545182116
30
0
41
1
10
-60
20
33.1313576224894
30
0
41
1
10
-60
20
33.0560855188702
30
0
41
1
10
-60.0000000000001
20
32.9735372025896
30
0
41
1
10
-60.0000000000001
20
32.8821013415763
30
0
41
1
10
-60.0000000000001
20
32.8098349743486
30
0
41
1
10
-60.0000000000001
20
32.7336887753231
30
0
41
1
10
-60.0000000000001
20
32.6537081477482
30
0
41
1
10
-60.0000000000001
20
32.5699376540554
30
0
41
1
10
-60
20
32.4824210440017
30
0
41
1
10
-60.0000000000001
20
32.3912001164081
30
0
41
1
10
-60
20
32.2963152268368
30
0
41
1
10
-60.0000000000001
20
32.1978052794718
30
0
41
1
10
-60.0000000000001
20
32.0612248425866
30
0
41
1
10
-60.0000000000001
20
31.9189181156056
30
0
41
1
10
-60.0000000000001
20
31.7872672789306
30
0
41
1
10
-60.0000000000001
20
31.7102043249635
30
0
41
1
10
-60
20
31.6319918777348
30
0
41
1
10
-60.0000000000001
20
31.5326481176696
30
0
41
1
10
-60
20
31.3682719173466
30
0
41
1
10
-60.0000000000001
20
31.1987551463809
30
0
41
1
10
-60.0000000000001
20
31.0210528170067
30
0
41
1
10
-60.0000000000001
20
30.8389711768625
30
0
41
1
10
-60
20
30.6045149696702
30
0
41
1
10
-60.0000000000001
20
30.3594550872206
30
0
41
1
10
-60
20
30.1560458164263
30
0
41
1
10
-60
20
30.0008163011261
30
0
41
1
10
-60.0000000000001
20
29.8424884168047
30
0
41
1
10
-60
20
29.6266492024767
30
0
41
1
10
-60.0000000000001
20
29.3506439800406
30
0
41
1
10
-60
20
29.0646239872064
30
0
41
1
10
-60
20
28.8286459848586
30
0
41
1
10
-60.0000000000001
20
28.5887119703951
30
0
41
1
10
-60
20
28.2830119047979
30
0
41
1
10
-60
20
27.9037227355802
30
0
41
1
10
-60
20
27.578828934623
30
0
41
1
10
-60
20
27.3118865150179
30
0
41
1
10
-60
20
27.1094249342748
30
0
41
1
10
-60.0000000000001
20
26.904156222733
30
0
41
1
10
-60
20
26.6259536097734
30
0
41
1
10
-60.0000000000001
20
26.2730451104148
30
0
41
1
10
-60
20
25.910989789073
30
0
41
1
10
-60
20
25.6143967365826
30
0
41
1
10
-60
20
25.389872788346
30
0
41
1
10
-60.0000000000001
20
25.1626504323297
30
0
41
1
10
-60
20
24.8552336369895
30
0
41
1
10
-60.0000000000001
20
24.4662671647182
30
0
41
1
10
-60.0000000000001
20
23.9878313987673
30
0
41
1
10
-60.0000000000001
20
23.5813096002391
30
0
41
1
10
-60
20
23.2491688456471
30
0
41
1
10
-60
20
22.9135633071668
30
0
41
1
10
-60.0000000000001
20
22.4898084449714
30
0
41
1
10
-60
20
22.0575119779297
30
0
41
1
10
-60.0000000000001
20
21.7047294419234
30
0
41
1
10
-60
20
21.4383936907814
30
0
41
1
10
-60
20
21.1695327729884
30
0
41
1
10
-60
20
20.8066187564657
30
0
41
1
10
-60
20
20.4419941243112
30
0
41
1
10
-60.0000000000001
20
20.0690271785163
30
0
41
1
10
-60.0000000000001
20
19.7876827509111
30
0
41
1
10
-60
20
19.5038694602986
30
0
41
1
10
-60
20
19.1209962837446
30
0
41
1
10
-60.0000000000001
20
18.7368339912087
30
0
41
1
10
-60.0000000000001
20
18.3441159235589
30
0
41
1
10
-60
20
18.0480997672743
30
0
41
1
10
-60.0000000000001
20
17.7496716294469
30
0
41
1
10
-60
20
17.3472727105996
30
0
41
1
10
-60
20
16.9440675389051
30
0
41
1
10
-60.0000000000001
20
16.532035620606
30
0
41
1
10
-60.0000000000001
20
16.2216969743562
30
0
41
1
10
-60
20
15.909009033077
30
0
41
1
10
-60
20
15.6472013716545
30
0
41
1
10
-60
20
15.4352759364928
30
0
41
1
10
-60
20
15.2225823733162
30
0
41
1
10
-60.0000000000001
20
14.9569585815733
30
0
41
1
10
-60
20
14.6349879089581
30
0
41
1
10
-60
20
14.3107292402959
30
0
41
1
10
-60.0000000000001
20
13.9841958759156
30
0
41
1
10
-60
20
13.6554023236348
30
0
41
1
10
-60.0000000000001
20
13.3243664763057
30
0
41
1
10
-60.0000000000001
20
13.0474865550708
30
0
41
1
10
-60.0000000000001
20
12.8233283675937
30
0
41
1
10
-60.0000000000001
20
12.5984437652583
30
0
41
1
10
-60
20
12.3179771615539
30
0
41
1
10
-60.0000000000001
20
11.9781527958057
30
0
41
1
10
-60
20
11.636181663722
30
0
41
1
10
-60
20
11.2920923798221
30
0
41
1
10
-60
20
10.945908859449
30
0
41
1
10
-60
20
10.5976625981365
30
0
41
1
10
-60
20
10.2473847821602
30
0
41
1
10
-60.0000000000001
20
9.89511131375602
30
0
41
1
10
-60
20
9.54088172151245
30
0
41
1
10
-60.0000000000001
20
9.18473899017414
30
0
41
1
10
-60.0000000000001
20
8.82673234426127
30
0
41
1
10
-60
20
8.46691508480734
30
0
41
1
10
-60
20
8.10534831886912
30
0
41
1
10
-60.0000000000001
20
7.74209991377404
30
0
41
1
10
-60
20
7.43933366074938
30
0
41
1
10
-60.0000000000001
20
7.19392383197433
30
0
41
1
10
-60
20
6.94806390056192
30
0
41
1
10
-60.0000000000001
20
6.64308245049983
30
0
41
1
10
-60
20
6.33692354274464
30
0
41
1
10
-60.0000000000001
20
6.08866434779787
30
0
41
1
10
-60
20
5.84008609772047
30
0
41
1
10
-60
20
5.53238372840602
30
0
41
1
10
-60.0000000000001
20
5.2238385356722
30
0
41
1
10
-60.0000000000001
20
4.97352607912168
30
0
41
1
10
-60.0000000000001
20
4.78702154756601
30
0
41
1
10
-60
20
4.60040605057173
30
0
41
1
10
-60
20
4.41369717399613
30
0
41
1
10
-60.0000000000001
20
4.2269398818535
30
0
41
1
10
-60.0000000000001
20
4.07226259629718
30
0
41
1
10
-60.0000000000001
20
3.94669383078138
30
0
41
1
10
-60
20
3.82116954124066
30
0
41
1
10
-60.0000000000001
20
3.6988310762996
30
0
41
1
10
-60
20
3.57328747913144
30
0
41
1
10
-60.0000000000001
20
3.44781059563371
30
0
41
1
10
-60
20
3.29358638075726
30
0
41
1
10
-60
20
3.13944522665005
30
0
41
1
10
-60
20
3.01413837924028
30
0
41
1
10
-60
20
2.9211373264024
30
0
41
1
10
-60
20
2.82819985495806
30
0
41
1
10
-60.0000000000001
20
2.70315242408569
30
0
41
1
10
-60
20
2.58203066540034
30
0
41
1
10
-60
20
2.45723012695299
30
0
41
1
10
-60
20
2.36470328144037
30
0
41
1
10
-60.0000000000001
20
2.27228576896144
30
0
41
1
10
-60.0000000000001
20
2.17998802306423
30
0
41
1
10
-60
20
2.08778698627518
30
0
41
1
10
-60
20
1.96363390475227
30
0
41
1
10
-60.0000000000001
20
1.84396791149479
30
0
41
1
10
-60
20
1.72020377819328
30
0
41
1
10
-60
20
1.59663706390091
30
0
41
1
10
-60
20
1.47780824879956
30
0
41
1
10
-60.0000000000001
20
1.35466991435553
30
0
41
1
10
-60.0000000000001
20
1.26362007097103
30
0
41
1
10
-60
20
1.17270141325403
30
0
41
1
10
-60.0000000000001
20
1.05008260157581
30
0
41
1
10
-60
20
0.900734180171639
30
0
41
1
10
-60
20
0.75170961812384
30
0
41
1
10
-60
20
0.629727249897684
30
0
41
1
10
-60.0000000000001
20
0.539591484050021
30
0
41
1
10
-60.0000000000001
20
0.449533123341325
30
0
41
1
10
-60
20
0.327862446496738
30
0
41
1
10
-60
20
0.211387195797585
30
0
41
1
10
-60
20
0.0898518914115698
30
0
41
1
10
-60.0000000000001
20
2.3308985E-08
30
0
41
1
10
-60
20
-0.0898518818021614
30
0
41
1
10
-60.0000000000001
20
-0.211387173079856
30
0
41
1
10
-60
20
-0.327862410198975
30
0
41
1
10
-60
20
-0.449533154854663
30
0
41
1
10
-60.0000000000001
20
-0.539591448084167
30
0
41
1
10
-60.0000000000001
20
-0.629727190611163
30
0
41
1
10
-60.0000000000001
20
-0.751709598313056
30
0
41
1
10
-60.0000000000001
20
-0.90073418714212
30
0
41
1
10
-60
20
-1.05008260284754
30
0
41
1
10
-60.0000000000001
20
-1.17270128769016
30
0
41
1
10
-60
20
-1.26362007709332
30
0
41
1
10
-60
20
-1.35466986733149
30
0
41
1
10
-60
20
-1.47780889967754
30
0
41
1
10
-60.0000000000001
20
-1.62866356892957
30
0
41
1
10
-60.0000000000001
20
-1.81195714590717
30
0
41
1
10
-60
20
-1.99575931518555
30
0
41
1
10
-60
20
-2.1800382908859
30
0
41
1
10
-60.0000000000001
20
-2.3325803569422
30
0
41
1
10
-60.0000000000001
20
-2.45723438857434
30
0
41
1
10
-60
20
-2.5498400797164
30
0
41
1
10
-60.0000000000001
20
-2.64253286485456
30
0
41
1
10
-60
20
-2.73532390979224
30
0
41
1
10
-60
20
-2.82819892922637
30
0
41
1
10
-60
20
-2.92113717428762
30
0
41
1
10
-60
20
-3.01413856990268
30
0
41
1
10
-60
20
-3.13944522556252
30
0
41
1
10
-60
20
-3.29358598452402
30
0
41
1
10
-60
20
-3.44781022267119
30
0
41
1
10
-60
20
-3.57328748848437
30
0
41
1
10
-60.0000000000001
20
-3.69883143470824
30
0
41
1
10
-60.0000000000001
20
-3.8211699553276
30
0
41
1
10
-60
20
-3.94669401081836
30
0
41
1
10
-60.0000000000001
20
-4.07226239422647
30
0
41
1
10
-60
20
-4.22693940902747
30
0
41
1
10
-60.0000000000001
20
-4.41369698550005
30
0
41
1
10
-60.0000000000001
20
-4.60040635681665
30
0
41
1
10
-60
20
-4.78702193879334
30
0
41
1
10
-60.0000000000001
20
-4.97352604952786
30
0
41
1
10
-60
20
-5.22383810629827
30
0
41
1
10
-60.0000000000001
20
-5.53238377279538
30
0
41
1
10
-60.0000000000001
20
-5.84008647847054
30
0
41
1
10
-60.0000000000001
20
-6.08866423546829
30
0
41
1
10
-60.0000000000001
20
-6.33692316417083
30
0
41
1
10
-60.0000000000001
20
-6.64308259789803
30
0
41
1
10
-60.0000000000001
20
-6.94806448980083
30
0
41
1
10
-60.0000000000001
20
-7.19392396234306
30
0
41
1
10
-60.0000000000001
20
-7.43933366870843
30
0
41
1
10
-60.0000000000001
20
-7.67989586792558
30
0
41
1
10
-60
20
-7.92361107948261
30
0
41
1
10
-60
20
-8.16680647555469
30
0
41
1
10
-60
20
-8.46691182410558
30
0
41
1
10
-60.0000000000001
20
-8.82673137604741
30
0
41
1
10
-60.0000000000001
20
-9.18474212579673
30
0
41
1
10
-60.0000000000001
20
-9.54088275359157
30
0
41
1
10
-60
20
-9.83493450522622
30
0
41
1
10
-60.0000000000001
20
-10.0711726122455
30
0
41
1
10
-60.0000000000001
20
-10.3067727719091
30
0
41
1
10
-60
20
-10.5976628395391
30
0
41
1
10
-60.0000000000001
20
-10.9459088896872
30
0
41
1
10
-60.0000000000001
20
-11.2920923090957
30
0
41
1
10
-60.0000000000001
20
-11.6361817696307
30
0
41
1
10
-60
20
-11.9781526643527
30
0
41
1
10
-60.0000000000001
20
-12.3179774972948
30
0
41
1
10
-60.0000000000001
20
-12.6556361459602
30
0
41
1
10
-60
20
-12.991105740016
30
0
41
1
10
-60.0000000000001
20
-13.3243668024953
30
0
41
1
10
-60
20
-13.6554036731856
30
0
41
1
10
-60.0000000000001
20
-13.9841945283397
30
0
41
1
10
-60
20
-14.4212065121949
30
0
41
1
10
-60
20
-14.8489195414718
30
0
41
1
10
-60
20
-15.2225823214826
30
0
41
1
10
-60.0000000000001
20
-15.4352759723945
30
0
41
1
10
-60
20
-15.647201356186
30
0
41
1
10
-60.0000000000001
20
-15.9090090125604
30
0
41
1
10
-60
20
-16.221696981483
30
0
41
1
10
-60.0000000000001
20
-16.5320355896628
30
0
41
1
10
-60.0000000000001
20
-16.9440675257306
30
0
41
1
10
-60
20
-17.3472727170547
30
0
41
1
10
-60.0000000000001
20
-17.7496716428443
30
0
41
1
10
-60.0000000000001
20
-18.0480997821431
30
0
41
1
10
-60.0000000000001
20
-18.3441158768434
30
0
41
1
10
-60.0000000000001
20
-18.7368339915895
30
0
41
1
10
-60.0000000000001
20
-19.1209962739229
30
0
41
1
10
-60.0000000000001
20
-19.5038694802313
30
0
41
1
10
-60.0000000000001
20
-19.7876827545796
30
0
41
1
10
-60.0000000000001
20
-20.0690271428398
30
0
41
1
10
-60.0000000000001
20
-20.441994127766
30
0
41
1
10
-60.0000000000001
20
-20.8066187451665
30
0
41
1
10
-60.0000000000001
20
-21.1695327858038
30
0
41
1
10
-60.0000000000001
20
-21.4383937008237
30
0
41
1
10
-60.0000000000001
20
-21.7047294118793
30
0
41
1
10
-60
20
-22.0575119733736
30
0
41
1
10
-60.0000000000001
20
-22.4898084525806
30
0
41
1
10
-60
20
-22.9135633086717
30
0
41
1
10
-60.0000000000001
20
-23.2491688314426
30
0
41
1
10
-60.0000000000001
20
-23.5813095953077
30
0
41
1
10
-60.0000000000001
20
-23.9878314099488
30
0
41
1
10
-60.0000000000001
20
-24.4662671557057
30
0
41
1
10
-60
20
-24.8552336352658
30
0
41
1
10
-60.0000000000001
20
-25.1626504358649
30
0
41
1
10
-60.0000000000001
20
-25.3898727930232
30
0
41
1
10
-60
20
-25.6143967303268
30
0
41
1
10
-60.0000000000001
20
-25.9109897889272
30
0
41
1
10
-60.0000000000001
20
-26.2730451134658
30
0
41
1
10
-60.0000000000001
20
-26.6259536079636
30
0
41
1
10
-60.0000000000001
20
-26.9041562278049
30
0
41
1
10
-60.0000000000001
20
-27.1094249332373
30
0
41
1
10
-60.0000000000001
20
-27.3118865130227
30
0
41
1
10
-60.0000000000001
20
-27.5788289362021
30
0
41
1
10
-60.0000000000001
20
-27.9037227393039
30
0
41
1
10
-60
20
-28.2830119086101
30
0
41
1
10
-60.0000000000001
20
-28.5887119662347
30
0
41
1
10
-60.0000000000001
20
-28.8286459978861
30
0
41
1
10
-60.0000000000001
20
-29.0646239922872
30
0
41
1
10
-60.0000000000001
20
-29.3506439793956
30
0
41
1
10
-60.0000000000001
20
-29.626649201014
30
0
41
1
10
-60.0000000000001
20
-29.8424884317764
30
0
41
1
10
-60.0000000000001
20
-30.000816311555
30
0
41
1
10
-60.0000000000001
20
-30.1560458056575
30
0
41
1
10
-60
20
-30.3594550888041
30
0
41
1
10
-60.0000000000001
20
-30.6045149784548
30
0
41
1
10
-60.0000000000001
20
-30.838971193359
30
0
41
1
10
-60.0000000000001
20
-31.02105280944
30
0
41
1
10
-60.0000000000001
20
-31.1987551464292
30
0
41
1
10
-60.0000000000001
20
-31.3682719258242
30
0
41
1
10
-60.0000000000001
20
-31.5326481340748
30
0
41
1
10
-60.0000000000001
20
-31.6319918952804
30
0
41
1
10
-60.0000000000001
20
-31.7102043239203
30
0
41
1
10
-60.0000000000001
20
-31.7872672700223
30
0
41
1
10
-60.0000000000001
20
-31.9189181186464
30
0
41
1
10
-60.0000000000001
20
-32.0612248499429
30
0
41
1
10
-60.0000000000001
20
-32.1978052933396
30
0
41
1
10
-60.0000000000001
20
-32.2963152464944
30
0
41
1
10
-60.0000000000001
20
-32.3912001013677
30
0
41
1
10
-60.0000000000001
20
-32.4824210694835
30
0
41
1
10
-60.0000000000001
20
-32.5699376718859
30
0
41
1
10
-60.0000000000001
20
-32.6537080260486
30
0
41
1
10
-60.0000000000001
20
-32.7336889066932
30
0
41
1
10
-60.0000000000001
20
-32.809835412906
30
0
41
1
10
-60.0000000000001
20
-32.8821009542704
30
0
41
1
10
-60.0000000000001
20
-32.9504372229349
30
0
41
1
10
-60.0000000000001
20
-33.0147937722118
30
0
41
1
10
-60.0000000000001
20
-33.0751182914418
30
0
41
1
10
-60.0000000000001
20
-33.1313576691056
30
0
41
1
10
-60.0000000000001
20
-33.1834545172445
30
0
41
1
10
-60.0000000000001
20
-33.2313494864308
30
0
41
1
10
-60.0000000000001
20
-33.2749830986898
30
0
41
1
10
-60.0000000000001
20
-33.3142894793406
30
0
41
1
10
-60.0000000000001
20
-33.349203717987
30
0
41
1
10
-60.0000000000001
20
-33.3796552925037
30
0
41
1
10
-60.0000000000001
20
-33.4055716886023
30
0
41
1
10
-60.0000000000001
20
-33.4268774387511
30
0
41
1
10
-60.0000000000001
20
-33.443492082087
30
0
41
1
10
-60.0000000000001
20
-33.4518270653888
30
0
41
1
10
-60.0000000000001
20
-33.455235663451
30
0
41
1
10
-60.0000000000001
20
-33.4555868280168
30
0
0
SPLINE
5
13A
100
AcDbEntity
8
SK1
62
256
6
ByLayer
370
18
48
1
60
0
100
AcDbSpline
70
4
71
3
72
18
73
14
40
0
40
0
40
0
40
0
40
0.0413415492594518
40
0.0413415492594518
40
0.130531055646852
40
0.130531055646852
40
0.308910068421653
40
0.308910068421653
40
0.487289081196453
40
0.487289081196453
40
0.844047106746051
40
0.844047106746051
40
1
40
1
40
1
40
1
41
1
10
-0.291345249410938
20
29.3424590630811
30
0
41
1
10
-0.287336271337949
20
29.3391754712424
30
0
41
1
10
-0.28373271307072
20
29.3356427152188
30
0
41
1
10
-0.273149842595274
20
29.3241187006639
30
0
41
1
10
-0.26723218671512
20
29.3156718515401
30
0
41
1
10
-0.251523005226858
20
29.2893856902038
30
0
41
1
10
-0.243762997944117
20
29.2705582101087
30
0
41
1
10
-0.230811685423617
20
29.2317835550302
30
0
41
1
10
-0.22574232494631
20
29.2119188835139
30
0
41
1
10
-0.213066387151457
20
29.1513482593076
30
0
41
1
10
-0.207959408398608
20
29.1096749947571
30
0
41
1
10
-0.203233530197167
20
29.0485667332117
30
0
41
1
10
-0.202160219818978
20
29.0298129602087
30
0
41
1
10
-0.201407384083154
20
29.0109078351466
30
0
0
SPLINE
5
13B
100
AcDbEntity
8
SK1
62
256
6
ByLayer
370
18
48
1
60
0
100
AcDbSpline
70
4
71
3
72
316
73
312
40
0
40
0
40
0
40
0
40
0.0029467184785531
40
0.0064470941029637
40
0.0099474697273743
40
0.0134478453517849
40
0.0169482209761955
40
0.0204485966006061
40
0.0239489722250167
40
0.0274493478494273
40
0.030949723473838
40
0.0344500990982485
40
0.0379504747226591
40
0.0414508503470697
40
0.0449512259714803
40
0.0484516015958909
40
0.0519519772203015
40
0.0554523528447121
40
0.0589527284691227
40
0.0624531040935333
40
0.0659534797179439
40
0.0694538553423545
40
0.0729542309667651
40
0.0764546065911758
40
0.0799549822155863
40
0.0869557334644075
40
0.0904561090888181
40
0.0922062969010234
40
0.0939564847132287
40
0.0974568603376393
40
0.10095723596205
40
0.107957987210871
40
0.111458362835282
40
0.114958738459692
40
0.121959489708514
40
0.128960240957335
40
0.132460616581745
40
0.135960992206156
40
0.139461367830567
40
0.142961743454977
40
0.149962494703798
40
0.15696324595262
40
0.16046362157703
40
0.163963997201441
40
0.170964748450262
40
0.177965499699083
40
0.184966250947904
40
0.188466626572315
40
0.191967002196726
40
0.195467377821136
40
0.198967753445547
40
0.205968504694368
40
0.212969255943189
40
0.2164696315676
40
0.21997000719201
40
0.223470382816421
40
0.226970758440832
40
0.233971509689653
40
0.240972260938474
40
0.247973012187295
40
0.251473387811706
40
0.254973763436116
40
0.261974514684937
40
0.268975265933759
40
0.272475641558169
40
0.27597601718258
40
0.27947639280699
40
0.282976768431401
40
0.289977519680222
40
0.293477895304633
40
0.296978270929044
40
0.300478646553454
40
0.303979022177865
40
0.310979773426686
40
0.314480149051097
40
0.317980524675507
40
0.321480900299918
40
0.324981275924328
40
0.33198202717315
40
0.33548240279756
40
0.338982778421971
40
0.342483154046381
40
0.345983529670792
40
0.347733717482997
40
0.349483905295203
40
0.352984280919613
40
0.359985032168434
40
0.363485407792845
40
0.366985783417256
40
0.370486159041666
40
0.373986534666077
40
0.377486910290487
40
0.380987285914898
40
0.384487661539308
40
0.387988037163719
40
0.39148841278813
40
0.39498878841254
40
0.398489164036951
40
0.401989539661361
40
0.403739727473567
40
0.405489915285772
40
0.408990290910183
40
0.412490666534593
40
0.415991042159004
40
0.419491417783414
40
0.422991793407825
40
0.42474198122003
40
0.426492169032236
40
0.429992544656646
40
0.431742732468851
40
0.433492920281057
40
0.436993295905467
40
0.440493671529878
40
0.442243859342083
40
0.443994047154289
40
0.447494422778699
40
0.45099479840311
40
0.452744986215315
40
0.45449517402752
40
0.456245361839726
40
0.457995549651931
40
0.459745737464136
40
0.461495925276342
40
0.462371019182444
40
0.463246113088547
40
0.464996300900752
40
0.465871394806855
40
0.466746488712958
40
0.468496676525163
40
0.470246864337368
40
0.471121958243471
40
0.471997052149573
40
0.472872146055676
40
0.473747239961779
40
0.474622333867881
40
0.475497427773984
40
0.476372521680087
40
0.477247615586189
40
0.478997803398395
40
0.4807479912106
40
0.482498179022805
40
0.484248366835011
40
0.485998554647216
40
0.486873648553319
40
0.487748742459421
40
0.488623836365524
40
0.489498930271626
40
0.491249118083832
40
0.492999305896037
40
0.49387439980214
40
0.494749493708242
40
0.495624587614345
40
0.496499681520448
40
0.498249869332653
40
0.499124963238756
40
0.500000057144858
40
0.500875151050961
40
0.501750244957064
40
0.503500432769269
40
0.504375526675372
40
0.505250620581474
40
0.506125714487577
40
0.50700080839368
40
0.508750996205885
40
0.51050118401809
40
0.511376277924193
40
0.512251371830295
40
0.513126465736398
40
0.514001559642501
40
0.515751747454706
40
0.516626841360809
40
0.517501935266911
40
0.519252123079117
40
0.520127216985219
40
0.521002310891322
40
0.521877404797425
40
0.522752498703527
40
0.52362759260963
40
0.524502686515732
40
0.526252874327938
40
0.527127968234041
40
0.528003062140143
40
0.528878156046246
40
0.529753249952348
40
0.531503437764554
40
0.533253625576759
40
0.534128719482861
40
0.535003813388964
40
0.53675400120117
40
0.537629095107272
40
0.538504189013375
40
0.54025437682558
40
0.542004564637785
40
0.543754752449991
40
0.545504940262196
40
0.547255128074401
40
0.549005315886607
40
0.552505691511017
40
0.556006067135428
40
0.557756254947633
40
0.559506442759838
40
0.563006818384249
40
0.56650719400866
40
0.568257381820865
40
0.57000756963307
40
0.573507945257481
40
0.577008320881891
40
0.580508696506302
40
0.584009072130713
40
0.587509447755123
40
0.591009823379534
40
0.594510199003945
40
0.598010574628355
40
0.601510950252766
40
0.605011325877176
40
0.608511701501587
40
0.612012077125997
40
0.615512452750408
40
0.619012828374819
40
0.622513203999229
40
0.624263391811435
40
0.62601357962364
40
0.62951395524805
40
0.633014330872461
40
0.636514706496872
40
0.640015082121282
40
0.643515457745693
40
0.647015833370103
40
0.650516208994514
40
0.652266396806719
40
0.654016584618925
40
0.657516960243335
40
0.661017335867746
40
0.664517711492156
40
0.668018087116567
40
0.675018838365388
40
0.678519213989799
40
0.68201958961421
40
0.68551996523862
40
0.689020340863031
40
0.696021092111852
40
0.699521467736263
40
0.703021843360673
40
0.706522218985084
40
0.710022594609494
40
0.717023345858316
40
0.720523721482726
40
0.724024097107137
40
0.727524472731547
40
0.731024848355958
40
0.738025599604779
40
0.7450263508536
40
0.748526726478011
40
0.752027102102422
40
0.759027853351243
40
0.766028604600064
40
0.773029355848885
40
0.776529731473296
40
0.780030107097706
40
0.783530482722117
40
0.787030858346528
40
0.794031609595349
40
0.80103236084417
40
0.804532736468581
40
0.808033112092991
40
0.811533487717402
40
0.815033863341812
40
0.822034614590634
40
0.829035365839455
40
0.836036117088276
40
0.839536492712687
40
0.843036868337097
40
0.850037619585918
40
0.85703837083474
40
0.86053874645915
40
0.864039122083561
40
0.867539497707971
40
0.871039873332382
40
0.878040624581203
40
0.885041375830024
40
0.888541751454435
40
0.892042127078846
40
0.899042878327667
40
0.902543253952077
40
0.906043629576488
40
0.907793817388693
40
0.909544005200899
40
0.913044380825309
40
0.92004513207413
40
0.923545507698541
40
0.927045883322951
40
0.930546258947362
40
0.934046634571773
40
0.937547010196183
40
0.941047385820594
40
0.944547761445005
40
0.948048137069415
40
0.951548512693826
40
0.955048888318236
40
0.962049639567058
40
0.965550015191468
40
0.969050390815879
40
0.972550766440289
40
0.9760511420647
40
0.97955151768911
40
0.983051893313521
40
0.986552268937932
40
0.990052644562342
40
0.993553020186753
40
0.997053395811163
40
1
40
1
40
1
40
1
41
1
10
-58.0000000000001
20
-34.6073035409863
30
0
41
1
10
-58.0000000000001
20
-34.6043542795969
30
0
41
1
10
-58.0000000000001
20
-34.5966210232115
30
0
41
1
10
-58.0000000000001
20
-34.580379758932
30
0
41
1
10
-58.0000000000001
20
-34.5584074886069
30
0
41
1
10
-58.0000000000001
20
-34.5316961895765
30
0
41
1
10
-58.0000000000001
20
-34.5003280083154
30
0
41
1
10
-58.0000000000001
20
-34.4643817495677
30
0
41
1
10
-58.0000000000001
20
-34.4239333693916
30
0
41
1
10
-58.0000000000001
20
-34.3790529937039
30
0
41
1
10
-58.0000000000001
20
-34.3298111110901
30
0
41
1
10
-58.0000000000001
20
-34.2762712987305
30
0
41
1
10
-58.0000000000001
20
-34.2184971795059
30
0
41
1
10
-58.0000000000001
20
-34.1565492736136
30
0
41
1
10
-58.0000000000001
20
-34.090484024979
30
0
41
1
10
-58.0000000000001
20
-34.0203569492649
30
0
41
1
10
-58.0000000000001
20
-33.9462211181053
30
0
41
1
10
-58.0000000000001
20
-33.8681273799934
30
0
41
1
10
-58.0000000000001
20
-33.7861246522718
30
0
41
1
10
-58.0000000000001
20
-33.7002599705932
30
0
41
1
10
-58.0000000000001
20
-33.6105785639526
30
0
41
1
10
-58.0000000000001
20
-33.517124136941
30
0
41
1
10
-58.0000000000001
20
-33.4199387810474
30
0
41
1
10
-58.0000000000001
20
-33.3190628682572
30
0
41
1
10
-58.0000000000001
20
-33.1794476462955
30
0
41
1
10
-58.0000000000001
20
-33.0333547777463
30
0
41
1
10
-58.0000000000001
20
-32.8987588718318
30
0
41
1
10
-58.0000000000001
20
-32.8200332917251
30
0
41
1
10
-58.0000000000001
20
-32.7401409831786
30
0
41
1
10
-58.0000000000001
20
-32.6384072799631
30
0
41
1
10
-58.0000000000001
20
-32.4705455180243
30
0
41
1
10
-58.0000000000001
20
-32.2967149944414
30
0
41
1
10
-58.0000000000001
20
-32.1153117201281
30
0
41
1
10
-58.0000000000001
20
-31.9294644880724
30
0
41
1
10
-58.0000000000001
20
-31.6895938415451
30
0
41
1
10
-58.0000000000001
20
-31.4389237596357
30
0
41
1
10
-58.0000000000001
20
-31.2314087063946
30
0
41
1
10
-58.0000000000001
20
-31.0728429182948
30
0
41
1
10
-58.0000000000001
20
-30.9111259407837
30
0
41
1
10
-58.0000000000001
20
-30.6909862057692
30
0
41
1
10
-58.0000000000001
20
-30.4088224430552
30
0
41
1
10
-58.0000000000001
20
-30.1164546579334
30
0
41
1
10
-58.0000000000001
20
-29.8758448368357
30
0
41
1
10
-58.0000000000001
20
-29.6312151678217
30
0
41
1
10
-58.0000000000001
20
-29.318801844132
30
0
41
1
10
-58.0000000000001
20
-28.931624671393
30
0
41
1
10
-58.0000000000001
20
-28.5996384848296
30
0
41
1
10
-58.0000000000001
20
-28.3275282602038
30
0
41
1
10
-58.0000000000001
20
-28.1208773937063
30
0
41
1
10
-58.0000000000001
20
-27.9113636330979
30
0
41
1
10
-58.0000000000001
20
-27.6277846850599
30
0
41
1
10
-58
20
-27.2671990323819
30
0
41
1
10
-58.0000000000001
20
-26.8972638502991
30
0
41
1
10
-58.0000000000001
20
-26.5949314925856
30
0
41
1
10
-58.0000000000001
20
-26.3657553049149
30
0
41
1
10
-58.0000000000001
20
-26.1338196230742
30
0
41
1
10
-58.0000000000001
20
-25.8204330482274
30
0
41
1
10
-58.0000000000001
20
-25.4229416666194
30
0
41
1
10
-58.0000000000001
20
-24.9345059187337
30
0
41
1
10
-58.0000000000001
20
-24.5190021121539
30
0
41
1
10
-58.0000000000001
20
-24.1803157072481
30
0
41
1
10
-58.0000000000001
20
-23.8380720499499
30
0
41
1
10
-58.0000000000001
20
-23.4048307980021
30
0
41
1
10
-58.0000000000001
20
-22.9627941936475
30
0
41
1
10
-58.0000000000001
20
-22.6029073961028
30
0
41
1
10
-58.0000000000001
20
-22.3308053662236
30
0
41
1
10
-58.0000000000001
20
-22.0560958606497
30
0
41
1
10
-58.0000000000001
20
-21.6857625528635
30
0
41
1
10
-58.0000000000001
20
-21.3120431731187
30
0
41
1
10
-58.0000000000001
20
-20.9313332073365
30
0
41
1
10
-58.0000000000001
20
-20.6436975380219
30
0
41
1
10
-58.0000000000001
20
-20.3534974230034
30
0
41
1
10
-58.0000000000001
20
-19.962512989893
30
0
41
1
10
-58.0000000000001
20
-19.5683935649799
30
0
41
1
10
-58.0000000000001
20
-19.1671855028189
30
0
41
1
10
-58.0000000000001
20
-18.86426176227
30
0
41
1
10
-58.0000000000001
20
-18.558812080972
30
0
41
1
10
-58.0000000000001
20
-18.1474824585397
30
0
41
1
10
-58.0000000000001
20
-17.7332927415187
30
0
41
1
10
-58.0000000000001
20
-17.3118754289499
30
0
41
1
10
-58.0000000000001
20
-16.9938869687373
30
0
41
1
10
-58.0000000000001
20
-16.6734094643824
30
0
41
1
10
-58.0000000000001
20
-16.4046647430282
30
0
41
1
10
-58.0000000000001
20
-16.1877136709007
30
0
41
1
10
-58
20
-15.9699408852647
30
0
41
1
10
-58
20
-15.586990793997
30
0
41
1
10
-58.0000000000001
20
-15.1465482288458
30
0
41
1
10
-58.0000000000001
20
-14.6986174932261
30
0
41
1
10
-58.0000000000001
20
-14.3608949939722
30
0
41
1
10
-58.0000000000001
20
-14.0207356586278
30
0
41
1
10
-58.0000000000001
20
-13.6781505656525
30
0
41
1
10
-58.0000000000001
20
-13.3331465322306
30
0
41
1
10
-58.0000000000001
20
-12.9857332798766
30
0
41
1
10
-58.0000000000001
20
-12.6359214323732
30
0
41
1
10
-58.0000000000001
20
-12.2837205272055
30
0
41
1
10
-58.0000000000001
20
-11.9291438218093
30
0
41
1
10
-58.0000000000001
20
-11.5722027813319
30
0
41
1
10
-58.0000000000001
20
-11.21291277944
30
0
41
1
10
-58.0000000000001
20
-10.9121082959239
30
0
41
1
10
-58.0000000000001
20
-10.6692766858404
30
0
41
1
10
-58.0000000000001
20
-10.4256875570291
30
0
41
1
10
-58.0000000000001
20
-10.1211100592583
30
0
41
1
10
-58.0000000000001
20
-9.75259725338495
30
0
41
1
10
-58.0000000000001
20
-9.38183010290777
30
0
41
1
10
-58.0000000000001
20
-9.00884035151947
30
0
41
1
10
-58.0000000000001
20
-8.69684340932244
30
0
41
1
10
-58.0000000000001
20
-8.44493041618207
30
0
41
1
10
-58
20
-8.19232044847521
30
0
41
1
10
-58.0000000000001
20
-7.9408070428733
30
0
41
1
10
-58.0000000000001
20
-7.6860313577383
30
0
41
1
10
-58.0000000000001
20
-7.43059630648497
30
0
41
1
10
-58.0000000000001
20
-7.11180135563225
30
0
41
1
10
-58.0000000000001
20
-6.79132938935558
30
0
41
1
10
-58
20
-6.53251618838749
30
0
41
1
10
-58.0000000000001
20
-6.27311609603555
30
0
41
1
10
-58.0000000000001
20
-5.94973663199019
30
0
41
1
10
-58.0000000000001
20
-5.62486984380899
30
0
41
1
10
-58.0000000000001
20
-5.36246929286625
30
0
41
1
10
-58.0000000000001
20
-5.16603341989477
30
0
41
1
10
-58.0000000000001
20
-4.96923237547438
30
0
41
1
10
-58.0000000000001
20
-4.772077504875
30
0
41
1
10
-58.0000000000001
20
-4.57459544495501
30
0
41
1
10
-58.0000000000001
20
-4.4102979377216
30
0
41
1
10
-58
20
-4.27771663526565
30
0
41
1
10
-58.0000000000001
20
-4.14506122516983
30
0
41
1
10
-58.0000000000001
20
-4.01399439838309
30
0
41
1
10
-58
20
-3.88103632788395
30
0
41
1
10
-58.0000000000001
20
-3.74801862180828
30
0
41
1
10
-58.0000000000001
20
-3.58299612267834
30
0
41
1
10
-58.0000000000001
20
-3.41778425791244
30
0
41
1
10
-58.0000000000001
20
-3.28439024486013
30
0
41
1
10
-58.0000000000001
20
-3.18480940383543
30
0
41
1
10
-58.0000000000001
20
-3.08519524226026
30
0
41
1
10
-58.0000000000001
20
-2.98554870608595
30
0
41
1
10
-58.0000000000001
20
-2.88588197147459
30
0
41
1
10
-58.0000000000001
20
-2.78620371303594
30
0
41
1
10
-58.0000000000001
20
-2.68650877066599
30
0
41
1
10
-58
20
-2.552855531283
30
0
41
1
10
-58
20
-2.38741878390198
30
0
41
1
10
-58
20
-2.1879879252501
30
0
41
1
10
-58
20
-1.98859069176856
30
0
41
1
10
-58.0000000000001
20
-1.78925716601171
30
0
41
1
10
-58.0000000000001
20
-1.62400964435543
30
0
41
1
10
-58.0000000000001
20
-1.49038258437852
30
0
41
1
10
-58.0000000000001
20
-1.39082935616071
30
0
41
1
10
-58
20
-1.29130620551001
30
0
41
1
10
-58.0000000000001
20
-1.15779757169756
30
0
41
1
10
-58.0000000000001
20
-0.992958818913252
30
0
41
1
10
-58.0000000000001
20
-0.828192548206147
30
0
41
1
10
-58
20
-0.694823517971258
30
0
41
1
10
-58.0000000000001
20
-0.595510259634239
30
0
41
1
10
-58
20
-0.496219754320521
30
0
41
1
10
-58.0000000000001
20
-0.362942837222448
30
0
41
1
10
-58
20
-0.232469975530478
30
0
41
1
10
-58.0000000000001
20
-0.0992273272948694
30
0
41
1
10
-58
20
1.63800848E-08
30
0
41
1
10
-58
20
0.0992273398985049
30
0
41
1
10
-58
20
0.232469995259692
30
0
41
1
10
-58.0000000000001
20
0.362942864386668
30
0
41
1
10
-58.0000000000001
20
0.496219744532084
30
0
41
1
10
-58.0000000000001
20
0.595510286532516
30
0
41
1
10
-58.0000000000001
20
0.694823557694718
30
0
41
1
10
-58.0000000000001
20
0.828192566370745
30
0
41
1
10
-58.0000000000001
20
0.992958822605885
30
0
41
1
10
-58.0000000000001
20
1.15779757823003
30
0
41
1
10
-58
20
1.29130628126848
30
0
41
1
10
-58.0000000000001
20
1.39082936054348
30
0
41
1
10
-58.0000000000001
20
1.49038261723356
30
0
41
1
10
-58.0000000000001
20
1.6240092985804
30
0
41
1
10
-58
20
1.75519681152269
30
0
41
1
10
-58
20
1.88886587056913
30
0
41
1
10
-58.0000000000001
20
2.02257380819535
30
0
41
1
10
-58.0000000000001
20
2.15394245955974
30
0
41
1
10
-58.0000000000001
20
2.28764244667352
30
0
41
1
10
-58.0000000000001
20
2.38736175207316
30
0
41
1
10
-58.0000000000001
20
2.48707433529861
30
0
41
1
10
-58.0000000000001
20
2.5867915149523
30
0
41
1
10
-58.0000000000001
20
2.68650643512581
30
0
41
1
10
-58
20
2.8201555344705
30
0
41
1
10
-58
20
2.95167230604017
30
0
41
1
10
-58.0000000000001
20
3.08519574611904
30
0
41
1
10
-58.0000000000001
20
3.18480948837257
30
0
41
1
10
-58.0000000000001
20
3.28439014192517
30
0
41
1
10
-58
20
3.4177842579646
30
0
41
1
10
-58
20
3.58299633989353
30
0
41
1
10
-58
20
3.74801883117283
30
0
41
1
10
-58.0000000000001
20
3.88103633021709
30
0
41
1
10
-58.0000000000001
20
4.01399420894901
30
0
41
1
10
-58.0000000000001
20
4.14506100143936
30
0
41
1
10
-58.0000000000001
20
4.27771653655572
30
0
41
1
10
-58.0000000000001
20
4.41029804681111
30
0
41
1
10
-58.0000000000001
20
4.57459570619079
30
0
41
1
10
-58.0000000000001
20
4.77207761728621
30
0
41
1
10
-58
20
4.96923221655049
30
0
41
1
10
-58.0000000000001
20
5.16603320786024
30
0
41
1
10
-58.0000000000001
20
5.3624693060552
30
0
41
1
10
-58
20
5.62487008150862
30
0
41
1
10
-58
20
5.94973662395367
30
0
41
1
10
-58.0000000000001
20
6.27311588814808
30
0
41
1
10
-58.0000000000001
20
6.53251624633631
30
0
41
1
10
-58.0000000000001
20
6.79132960033493
30
0
41
1
10
-58.0000000000001
20
7.11180129155161
30
0
41
1
10
-58.0000000000001
20
7.43059597795107
30
0
41
1
10
-58
20
7.6860312732216
30
0
41
1
10
-58.0000000000001
20
7.9408070247926
30
0
41
1
10
-58
20
8.25632291017843
30
0
41
1
10
-58.0000000000001
20
8.63366100346434
30
0
41
1
10
-58
20
9.00884209524733
30
0
41
1
10
-58.0000000000001
20
9.38183075865149
30
0
41
1
10
-58.0000000000001
20
9.7525955723022
30
0
41
1
10
-58
20
10.1211093378308
30
0
41
1
10
-58.0000000000001
20
10.487347423945
30
0
41
1
10
-58.0000000000001
20
10.8512882650451
30
0
41
1
10
-58.0000000000001
20
11.2129126489515
30
0
41
1
10
-58
20
11.5722027534517
30
0
41
1
10
-58.0000000000001
20
11.9291438609312
30
0
41
1
10
-58
20
12.2837204653536
30
0
41
1
10
-58.0000000000001
20
12.6359214941674
30
0
41
1
10
-58
20
12.9857331103651
30
0
41
1
10
-58
20
13.2747453101746
30
0
41
1
10
-58.0000000000001
20
13.5056252380649
30
0
41
1
10
-58
20
13.7357042566719
30
0
41
1
10
-58.0000000000001
20
14.0207356013198
30
0
41
1
10
-58.0000000000001
20
14.3608942162372
30
0
41
1
10
-58.0000000000001
20
14.6986181938837
30
0
41
1
10
-58.0000000000001
20
15.0338987189648
30
0
41
1
10
-58
20
15.3667286289815
30
0
41
1
10
-58
20
15.6971014285856
30
0
41
1
10
-58.0000000000001
20
15.9699409152239
30
0
41
1
10
-58.0000000000001
20
16.1877136527784
30
0
41
1
10
-58.0000000000001
20
16.4046647522579
30
0
41
1
10
-58.0000000000001
20
16.6734094787227
30
0
41
1
10
-58.0000000000001
20
16.9938869670338
30
0
41
1
10
-58
20
17.3118754472546
30
0
41
1
10
-58.0000000000001
20
17.7332927565036
30
0
41
1
10
-58
20
18.1474824557212
30
0
41
1
10
-58
20
18.5588120799027
30
0
41
1
10
-58.0000000000001
20
18.8642617520244
30
0
41
1
10
-58
20
19.1671855328674
30
0
41
1
10
-58.0000000000001
20
19.5683935682399
30
0
41
1
10
-58
20
19.9625129981163
30
0
41
1
10
-58.0000000000001
20
20.3534974164196
30
0
41
1
10
-58.0000000000001
20
20.6436975341919
30
0
41
1
10
-58.0000000000001
20
20.9313332310818
30
0
41
1
10
-58.0000000000001
20
21.3120431735846
30
0
41
1
10
-58.0000000000001
20
21.6857625612491
30
0
41
1
10
-58.0000000000001
20
22.0560958576141
30
0
41
1
10
-58
20
22.3308053593405
30
0
41
1
10
-58.0000000000001
20
22.6029074150482
30
0
41
1
10
-58.0000000000001
20
22.9627941997737
30
0
41
1
10
-58
20
23.4048307950687
30
0
41
1
10
-58
20
23.8380720492418
30
0
41
1
10
-58
20
24.1803157154496
30
0
41
1
10
-58.0000000000001
20
24.5190021187452
30
0
41
1
10
-58
20
24.9345059109541
30
0
41
1
10
-58.0000000000001
20
25.4229416730792
30
0
41
1
10
-58
20
25.820433050224
30
0
41
1
10
-58.0000000000001
20
26.1338196224208
30
0
41
1
10
-58
20
26.3657553019254
30
0
41
1
10
-58.0000000000001
20
26.5949314963247
30
0
41
1
10
-58
20
26.8972638515593
30
0
41
1
10
-58.0000000000001
20
27.2671990297971
30
0
41
1
10
-58.0000000000001
20
27.6277846867342
30
0
41
1
10
-58.0000000000001
20
27.9113636298593
30
0
41
1
10
-58.0000000000001
20
28.1208773935265
30
0
41
1
10
-58.0000000000001
20
28.3275282615775
30
0
41
1
10
-58
20
28.5996384834265
30
0
41
1
10
-58.0000000000001
20
28.9316246696635
30
0
41
1
10
-58
20
29.3188018386776
30
0
41
1
10
-58.0000000000001
20
29.6312151716041
30
0
41
1
10
-58.0000000000001
20
29.8758448277823
30
0
41
1
10
-58
20
30.1164546526889
30
0
41
1
10
-58
20
30.408822441755
30
0
41
1
10
-58.0000000000001
20
30.6909862066613
30
0
41
1
10
-58.0000000000001
20
30.9111259319958
30
0
41
1
10
-58.0000000000001
20
31.072842907298
30
0
41
1
10
-58.0000000000001
20
31.2314087120366
30
0
41
1
10
-58.0000000000001
20
31.4389237579121
30
0
41
1
10
-58
20
31.6895938369171
30
0
41
1
10
-58.0000000000001
20
31.9294644717604
30
0
41
1
10
-58
20
32.1153117224641
30
0
41
1
10
-58
20
32.2967149943327
30
0
41
1
10
-58.0000000000001
20
32.4705455117828
30
0
41
1
10
-58.0000000000001
20
32.6384072676335
30
0
41
1
10
-58.0000000000001
20
32.740140967412
30
0
41
1
10
-58
20
32.8200332868944
30
0
41
1
10
-58.0000000000001
20
32.8987588752027
30
0
41
1
10
-58
20
33.0333547758039
30
0
41
1
10
-58
20
33.1794476388675
30
0
41
1
10
-58.0000000000001
20
33.3190628604088
30
0
41
1
10
-58.0000000000001
20
33.4199387593897
30
0
41
1
10
-58.0000000000001
20
33.5171241473591
30
0
41
1
10
-58
20
33.6105785465519
30
0
41
1
10
-58.0000000000001
20
33.7002599502329
30
0
41
1
10
-58.0000000000001
20
33.7861247188262
30
0
41
1
10
-58.0000000000001
20
33.8681273926077
30
0
41
1
10
-58.0000000000001
20
33.9462206251883
30
0
41
1
10
-58.0000000000001
20
34.020357330257
30
0
41
1
10
-58
20
34.11403435413
30
0
41
1
10
-58.0000000000001
20
34.199083264715
30
0
41
1
10
-58.0000000000001
20
34.2762712843076
30
0
41
1
10
-58
20
34.3298111043332
30
0
41
1
10
-58
20
34.3790530584
30
0
41
1
10
-58.0000000000001
20
34.4239333421725
30
0
41
1
10
-58.0000000000001
20
34.464381805243
30
0
41
1
10
-58.0000000000001
20
34.5003280118182
30
0
41
1
10
-58
20
34.5316962075248
30
0
41
1
10
-58.0000000000001
20
34.5584075309986
30
0
41
1
10
-58
20
34.5803797447221
30
0
41
1
10
-58.0000000000001
20
34.596620897219
30
0
41
1
10
-58.0000000000001
20
34.6043666853283
30
0
41
1
10
-58.0000000000001
20
34.607316460473
30
0
0
SPLINE
5
13C
100
AcDbEntity
8
SK1
62
256
6
ByLayer
370
18
48
1
60
0
100
AcDbSpline
70
4
71
3
72
26
73
22
40
0
40
0
40
0
40
0
40
0.25
40
0.25
40
0.500000000000001
40
0.500000000000001
40
0.625000000000001
40
0.625000000000001
40
0.6875
40
0.6875
40
0.75
40
0.75
40
0.812499999999999
40
0.812499999999999
40
0.874999999999999
40
0.874999999999999
40
0.906249999999999
40
0.906249999999999
40
0.937499999999999
40
0.937499999999999
40
1
40
1
40
1
40
1
41
1
10
-1.30710678118658
20
4.60538005832737
30
0
41
1
10
-1.27841932930977
20
4.7733429669843
30
0
41
1
10
-1.24568573836765
20
4.93989365706824
30
0
41
1
10
-1.16755021864051
20
5.26941198485827
30
0
41
1
10
-1.12236330163594
20
5.43277058328303
30
0
41
1
10
-1.03736348465085
20
5.67036427900962
30
0
41
1
10
-1.00612384847773
20
5.74840054491571
30
0
41
1
10
-0.951664768597652
20
5.86260604873692
30
0
41
1
10
-0.932227264069837
20
5.90019356697601
30
0
41
1
10
-0.889529369037319
20
5.97397527026547
30
0
41
1
10
-0.866205195590908
20
6.01027560258421
30
0
41
1
10
-0.814627264862793
20
6.07870671929973
30
0
41
1
10
-0.786411999024068
20
6.11112172686998
30
0
41
1
10
-0.720237073541256
20
6.16880021462504
30
0
41
1
10
-0.682055653727019
20
6.19377677065569
30
0
41
1
10
-0.618548195707604
20
6.21384852858483
30
0
41
1
10
-0.595883870694649
20
6.21761323445159
30
0
41
1
10
-0.551151188429941
20
6.21761557504379
30
0
41
1
10
-0.528825837373546
20
6.21393440359424
30
0
41
1
10
-0.465027161701187
20
6.19373948168735
30
0
41
1
10
-0.427781370964027
20
6.16911732468012
30
0
41
1
10
-0.394976888875334
20
6.14029748393364
30
0
0
SPLINE
5
13D
100
AcDbEntity
8
SK1
62
256
6
ByLayer
370
18
48
1
60
0
100
AcDbSpline
70
4
71
3
72
322
73
318
40
0
40
0
40
0
40
0
40
0.0016965587153364
40
0.0034208862788182
40
0.0051452138423
40
0.0068695414057817
40
0.0103181965327452
40
0.0137668516597088
40
0.0172155067866723
40
0.0206641619136358
40
0.0241128170405993
40
0.0275614721675628
40
0.0310101272945264
40
0.0344587824214899
40
0.0379074375484534
40
0.0413560926754169
40
0.0448047478023805
40
0.048253402929344
40
0.0517020580563075
40
0.055150713183271
40
0.0585993683102345
40
0.0620480234371981
40
0.0654966785641616
40
0.0689453336911251
40
0.0723939888180886
40
0.0758426439450521
40
0.0792912990720157
40
0.0827399541989792
40
0.0861886093259427
40
0.0930859195798698
40
0.0965345747068333
40
0.098258902270315
40
0.0999832298337968
40
0.10343188496076
40
0.106880540087724
40
0.113777850341651
40
0.117226505468614
40
0.120675160595578
40
0.127572470849505
40
0.134469781103432
40
0.137918436230396
40
0.141367091357359
40
0.144815746484323
40
0.148264401611286
40
0.155161711865213
40
0.16205902211914
40
0.165507677246104
40
0.168956332373067
40
0.175853642626994
40
0.182750952880921
40
0.189648263134848
40
0.193096918261812
40
0.196545573388775
40
0.199994228515739
40
0.203442883642702
40
0.21034019389663
40
0.217237504150557
40
0.22068615927752
40
0.224134814404484
40
0.227583469531447
40
0.231032124658411
40
0.237929434912338
40
0.244826745166265
40
0.251724055420192
40
0.255172710547155
40
0.258621365674119
40
0.265518675928046
40
0.272415986181973
40
0.275864641308937
40
0.2793132964359
40
0.282761951562863
40
0.286210606689827
40
0.293107916943754
40
0.296556572070718
40
0.300005227197681
40
0.303453882324645
40
0.306902537451608
40
0.313799847705535
40
0.317248502832499
40
0.320697157959462
40
0.324145813086426
40
0.327594468213389
40
0.334491778467316
40
0.33794043359428
40
0.341389088721243
40
0.344837743848207
40
0.34828639897517
40
0.350010726538652
40
0.351735054102134
40
0.355183709229097
40
0.362081019483025
40
0.365529674609988
40
0.368978329736951
40
0.372426984863915
40
0.375875639990878
40
0.379324295117842
40
0.382772950244806
40
0.386221605371769
40
0.389670260498733
40
0.393118915625696
40
0.39656757075266
40
0.400016225879623
40
0.403464881006587
40
0.405189208570069
40
0.40691353613355
40
0.410362191260514
40
0.413810846387477
40
0.417259501514441
40
0.420708156641404
40
0.424156811768368
40
0.42588113933185
40
0.427605466895331
40
0.431054122022295
40
0.432778449585777
40
0.434502777149258
40
0.437951432276222
40
0.441400087403185
40
0.443124414966667
40
0.444848742530149
40
0.448297397657113
40
0.451746052784076
40
0.453470380347558
40
0.45519470791104
40
0.456919035474521
40
0.458643363038003
40
0.460367690601485
40
0.462092018164967
40
0.462954181946708
40
0.463816345728448
40
0.46554067329193
40
0.466402837073671
40
0.467265000855412
40
0.468989328418894
40
0.470713655982375
40
0.471575819764116
40
0.472437983545857
40
0.473300147327598
40
0.474162311109339
40
0.47502447489108
40
0.475886638672821
40
0.476748802454562
40
0.477610966236302
40
0.479335293799784
40
0.481059621363266
40
0.482783948926748
40
0.484508276490229
40
0.486232604053711
40
0.487094767835452
40
0.487956931617193
40
0.488819095398934
40
0.489681259180675
40
0.491405586744157
40
0.493129914307638
40
0.493992078089379
40
0.49485424187112
40
0.495716405652861
40
0.496578569434602
40
0.498302896998084
40
0.499165060779824
40
0.500027224561565
40
0.500889388343306
40
0.501751552125047
40
0.503475879688529
40
0.50433804347027
40
0.505200207252011
40
0.506062371033752
40
0.506924534815492
40
0.508648862378974
40
0.510373189942456
40
0.511235353724197
40
0.512097517505938
40
0.512959681287679
40
0.513821845069419
40
0.515546172632901
40
0.516408336414642
40
0.517270500196383
40
0.518994827759865
40
0.519856991541606
40
0.520719155323346
40
0.521581319105087
40
0.522443482886828
40
0.523305646668569
40
0.52416781045031
40
0.525892138013792
40
0.526754301795533
40
0.527616465577273
40
0.528478629359014
40
0.529340793140755
40
0.531065120704237
40
0.532789448267719
40
0.53365161204946
40
0.534513775831201
40
0.536238103394682
40
0.537100267176423
40
0.537962430958164
40
0.539686758521646
40
0.541411086085128
40
0.543135413648609
40
0.544859741212091
40
0.546584068775573
40
0.548308396339055
40
0.551757051466018
40
0.555205706592982
40
0.556930034156463
40
0.558654361719945
40
0.562103016846909
40
0.565551671973872
40
0.567275999537354
40
0.569000327100836
40
0.572448982227799
40
0.575897637354763
40
0.579346292481726
40
0.58279494760869
40
0.586243602735653
40
0.589692257862617
40
0.59314091298958
40
0.596589568116544
40
0.600038223243507
40
0.603486878370471
40
0.606935533497435
40
0.610384188624398
40
0.613832843751361
40
0.617281498878325
40
0.620730154005289
40
0.62245448156877
40
0.624178809132252
40
0.627627464259216
40
0.631076119386179
40
0.634524774513143
40
0.637973429640106
40
0.64142208476707
40
0.644870739894033
40
0.648319395020997
40
0.650043722584479
40
0.65176805014796
40
0.655216705274924
40
0.658665360401887
40
0.662114015528851
40
0.665562670655814
40
0.672459980909741
40
0.675908636036705
40
0.679357291163668
40
0.682805946290632
40
0.686254601417596
40
0.693151911671523
40
0.696600566798486
40
0.70004922192545
40
0.703497877052413
40
0.706946532179377
40
0.713843842433304
40
0.717292497560267
40
0.720741152687231
40
0.724189807814194
40
0.727638462941158
40
0.734535773195085
40
0.741433083449012
40
0.744881738575975
40
0.748330393702939
40
0.755227703956866
40
0.762125014210793
40
0.76902232446472
40
0.772470979591684
40
0.775919634718647
40
0.779368289845611
40
0.782816944972574
40
0.789714255226501
40
0.796611565480428
40
0.800060220607392
40
0.803508875734355
40
0.806957530861319
40
0.810406185988282
40
0.817303496242209
40
0.824200806496136
40
0.831098116750064
40
0.834546771877027
40
0.837995427003991
40
0.844892737257917
40
0.851790047511845
40
0.855238702638808
40
0.858687357765772
40
0.862136012892735
40
0.865584668019699
40
0.872481978273626
40
0.879379288527553
40
0.882827943654516
40
0.88627659878148
40
0.893173909035407
40
0.89662256416237
40
0.900071219289334
40
0.901795546852816
40
0.903519874416297
40
0.906968529543261
40
0.913865839797188
40
0.917314494924152
40
0.920763150051115
40
0.924211805178079
40
0.927660460305042
40
0.931109115432005
40
0.934557770558969
40
0.938006425685933
40
0.941455080812896
40
0.94490373593986
40
0.948352391066823
40
0.95524970132075
40
0.958698356447714
40
0.962147011574677
40
0.965595666701641
40
0.969044321828604
40
0.972492976955568
40
0.975941632082531
40
0.979390287209495
40
0.982838942336458
40
0.986287597463422
40
0.989736252590385
40
0.993184907717349
40
0.996633562844312
40
1
40
1
40
1
40
1
41
1
10
-1.99503997793931
20
-35.825163059332
30
0
41
1
10
-1.99503997793934
20
-35.8252435331138
30
0
41
1
10
-1.99503997793937
20
-35.8249662000221
30
0
41
1
10
-1.99503997793937
20
-35.8232300538524
30
0
41
1
10
-1.99503997793937
20
-35.8201626633943
30
0
41
1
10
-1.99503997793937
20
-35.8143275520899
30
0
41
1
10
-1.99503997793937
20
-35.8038035395423
30
0
41
1
10
-1.99503997793937
20
-35.786103718398
30
0
41
1
10
-1.99503997793937
20
-35.763434753032
30
0
41
1
10
-1.99503997793937
20
-35.7358925640298
30
0
41
1
10
-1.99503997793937
20
-35.7035662791796
30
0
41
1
10
-1.99503997793934
20
-35.6665412784639
30
0
41
1
10
-1.99503997793937
20
-35.6248991978806
30
0
41
1
10
-1.99503997793937
20
-35.5787156149851
30
0
41
1
10
-1.99503997793934
20
-35.5280658411496
30
0
41
1
10
-1.99503997793937
20
-35.4730177383402
30
0
41
1
10
-1.99503997793937
20
-35.4136393963591
30
0
41
1
10
-1.99503997793937
20
-35.3499946094463
30
0
41
1
10
-1.99503997793937
20
-35.2821433047987
30
0
41
1
10
-1.99503997793934
20
-35.2101443481799
30
0
41
1
10
-1.99503997793937
20
-35.1340535550078
30
0
41
1
10
-1.99503997793937
20
-35.0539244294381
30
0
41
1
10
-1.99503997793934
20
-34.9698083210839
30
0
41
1
10
-1.99503997793937
20
-34.8817544969815
30
0
41
1
10
-1.99503997793937
20
-34.7898102805557
30
0
41
1
10
-1.99503997793937
20
-34.6940212809505
30
0
41
1
10
-1.99503997793937
20
-34.5944312751917
30
0
41
1
10
-1.99503997793937
20
-34.4910822904624
30
0
41
1
10
-1.99503997793937
20
-34.3482948986979
30
0
41
1
10
-1.99503997793937
20
-34.1982444859641
30
0
41
1
10
-1.99503997793934
20
-34.0605701934048
30
0
41
1
10
-1.99503997793937
20
-33.98010670812
30
0
41
1
10
-1.99503997793937
20
-33.8984584677327
30
0
41
1
10
-1.99503997793937
20
-33.7942266244678
30
0
41
1
10
-1.99503997793937
20
-33.6227215100012
30
0
41
1
10
-1.99503997793937
20
-33.4443819493481
30
0
41
1
10
-1.99503997793934
20
-33.2591101879707
30
0
41
1
10
-1.99503997793934
20
-33.0693268620524
30
0
41
1
10
-1.99503997793934
20
-32.8237966604288
30
0
41
1
10
-1.99503997793937
20
-32.567262400264
30
0
41
1
10
-1.99503997793937
20
-32.3554556995001
30
0
41
1
10
-1.99503997793934
20
-32.1934025758849
30
0
41
1
10
-1.99503997793937
20
-32.0281430685794
30
0
41
1
10
-1.99503997793934
20
-31.803508135832
30
0
41
1
10
-1.99503997793937
20
-31.5149070210429
30
0
41
1
10
-1.99503997793937
20
-31.215904058843
30
0
41
1
10
-1.99503997793934
20
-30.9704527178571
30
0
41
1
10
-1.99503997793937
20
-30.7209148294369
30
0
41
1
10
-1.99503997793937
20
-30.4014843150581
30
0
41
1
10
-1.99503997793937
20
-30.0060620312648
30
0
41
1
10
-1.99503997793937
20
-29.6666623731204
30
0
41
1
10
-1.99503997793934
20
-29.3891503890766
30
0
41
1
10
-1.99503997793937
20
-29.1781205774538
30
0
41
1
10
-1.99503997793934
20
-28.964169578493
30
0
41
1
10
-1.99503997793937
20
-28.6749709038125
30
0
41
1
10
-1.99503997793937
20
-28.3063605307706
30
0
41
1
10
-1.99503997793934
20
-27.9281887523048
30
0
41
1
10
-1.99503997793934
20
-27.6198572645245
30
0
41
1
10
-1.99503997793937
20
-27.3858182086697
30
0
41
1
10
-1.99503997793934
20
-27.1489558193583
30
0
41
1
10
-1.99503997793937
20
-26.8293292051834
30
0
41
1
10
-1.99503997793934
20
-26.4229269800761
30
0
41
1
10
-1.99503997793934
20
-25.9240385075182
30
0
41
1
10
-1.99503997793934
20
-25.4991460740629
30
0
41
1
10
-1.99503997793934
20
-25.1536176922536
30
0
41
1
10
-1.99503997793937
20
-24.8044353771774
30
0
41
1
10
-1.99503997793934
20
-24.3612782589387
30
0
41
1
10
-1.99503997793937
20
-23.9090605721075
30
0
41
1
10
-1.99503997793934
20
-23.5417479137995
30
0
41
1
10
-1.99503997793937
20
-23.2636185109001
30
0
41
1
10
-1.99503997793934
20
-22.9827956359495
30
0
41
1
10
-1.99503997793934
20
-22.6047071741367
30
0
41
1
10
-1.99503997793934
20
-22.2214812917414
30
0
41
1
10
-1.99503997793937
20
-21.8326778029793
30
0
41
1
10
-1.99503997793937
20
-21.5384660321949
30
0
41
1
10
-1.99503997793934
20
-21.2415899298925
30
0
41
1
10
-1.99503997793934
20
-20.8421270565357
30
0
41
1
10
-1.99503997793934
20
-20.4375997068477
30
0
41
1
10
-1.99503997793934
20
-20.0275173382951
30
0
41
1
10
-1.99503997793934
20
-19.7173732272646
30
0
41
1
10
-1.99503997793937
20
-19.4045841229999
30
0
41
1
10
-1.99503997793937
20
-18.9839194912413
30
0
41
1
10
-1.99503997793934
20
-18.5582479543883
30
0
41
1
10
-1.99503997793934
20
-18.127020368257
30
0
41
1
10
-1.99503997793934
20
-17.8010357300386
30
0
41
1
10
-1.99503997793934
20
-17.4724160404973
30
0
41
1
10
-1.99503997793934
20
-17.1964201976602
30
0
41
1
10
-1.99503997793934
20
-16.9742159130045
30
0
41
1
10
-1.99503997793934
20
-16.7511340488145
30
0
41
1
10
-1.99503997793934
20
-16.3584761888621
30
0
41
1
10
-1.99503997793934
20
-15.9047277931738
30
0
41
1
10
-1.99503997793934
20
-15.4453839893881
30
0
41
1
10
-1.99503997793934
20
-15.0983254904573
30
0
41
1
10
-1.99503997793934
20
-14.7486306960067
30
0
41
1
10
-1.99503997793934
20
-14.3962994527456
30
0
41
1
10
-1.99503997793934
20
-14.0413293344855
30
0
41
1
10
-1.99503997793934
20
-13.6837198656379
30
0
41
1
10
-1.99503997793934
20
-13.3234688690063
30
0
41
1
10
-1.99503997793934
20
-12.9605748178569
30
0
41
1
10
-1.99503997793934
20
-12.595036086484
30
0
41
1
10
-1.99503997793934
20
-12.2268504032845
30
0
41
1
10
-1.99503997793934
20
-11.856016465163
30
0
41
1
10
-1.99503997793934
20
-11.544848717899
30
0
41
1
10
-1.99503997793937
20
-11.2944582734027
30
0
41
1
10
-1.99503997793934
20
-11.0431853255422
30
0
41
1
10
-1.99503997793934
20
-10.7276055574807
30
0
41
1
10
-1.99503997793934
20
-10.3461604572555
30
0
41
1
10
-1.99503997793934
20
-9.96205939515539
30
0
41
1
10
-1.99503997793934
20
-9.57530319982871
30
0
41
1
10
-1.99503997793931
20
-9.25087630484825
30
0
41
1
10
-1.99503997793934
20
-8.98985104945211
30
0
41
1
10
-1.99503997793934
20
-8.72794364001859
30
0
41
1
10
-1.99503997793934
20
-8.46498324233684
30
0
41
1
10
-1.99503997793934
20
-8.20041755954966
30
0
41
1
10
-1.99503997793934
20
-7.93497342164278
30
0
41
1
10
-1.99503997793934
20
-7.60174006365551
30
0
41
1
10
-1.99503997793934
20
-7.26630760435373
30
0
41
1
10
-1.99503997793934
20
-6.99646231552356
30
0
41
1
10
-1.99503997793934
20
-6.72574993640328
30
0
41
1
10
-1.99503997793934
20
-6.38598399194683
30
0
41
1
10
-1.99503997793934
20
-6.04405718826715
30
0
41
1
10
-1.99503997793934
20
-5.76902086988599
30
0
41
1
10
-1.99503997793934
20
-5.56220360150743
30
0
41
1
10
-1.99503997793934
20
-5.3547559758953
30
0
41
1
10
-1.99503997793934
20
-5.14668271481378
30
0
41
1
10
-1.99503997793931
20
-4.93799065000761
30
0
41
1
10
-1.99503997793934
20
-4.76363710905443
30
0
41
1
10
-1.99503997793934
20
-4.62372539696352
30
0
41
1
10
-1.99503997793934
20
-4.48361577983201
30
0
41
1
10
-1.99503997793934
20
-4.34342549686539
30
0
41
1
10
-1.99503997793934
20
-4.20271764804266
30
0
41
1
10
-1.99503997793934
20
-4.06181812904791
30
0
41
1
10
-1.99503997793934
20
-3.88550850742175
30
0
41
1
10
-1.99503997793934
20
-3.70872432304054
30
0
41
1
10
-1.99503997793934
20
-3.566876819773
30
0
41
1
10
-1.99503997793934
20
-3.46041866707623
30
0
41
1
10
-1.99503997793934
20
-3.35382635526122
30
0
41
1
10
-1.99503997793934
20
-3.24710174058396
30
0
41
1
10
-1.99503997793934
20
-3.14024803839365
30
0
41
1
10
-1.99503997793934
20
-3.03326805859803
30
0
41
1
10
-1.99503997793934
20
-2.92616291868393
30
0
41
1
10
-1.99503997793934
20
-2.78310305721482
30
0
41
1
10
-1.99503997793934
20
-2.604187857341
30
0
41
1
10
-1.99503997793934
20
-2.38891915598515
30
0
41
1
10
-1.99503997793934
20
-2.17322083473789
30
0
41
1
10
-1.99503997793934
20
-1.9571211957159
30
0
41
1
10
-1.99503997793934
20
-1.77682922491965
30
0
41
1
10
-1.99503997793934
20
-1.63223932075863
30
0
41
1
10
-1.99503997793934
20
-1.52379768483635
30
0
41
1
10
-1.99503997793934
20
-1.41528063419037
30
0
41
1
10
-1.99503997793934
20
-1.27038903897366
30
0
41
1
10
-1.99503997793934
20
-1.08935866677996
30
0
41
1
10
-1.99503997793934
20
-0.908138052921117
30
0
41
1
10
-1.99503997793934
20
-0.762866902191746
30
0
41
1
10
-1.99503997793934
20
-0.653960641303286
30
0
41
1
10
-1.99503997793934
20
-0.545019960940976
30
0
41
1
10
-1.99503997793934
20
-0.399611433921791
30
0
41
1
10
-1.99503997793934
20
-0.254507243772394
30
0
41
1
10
-1.99503997793934
20
-0.10902722024997
30
0
41
1
10
-1.99503997793934
20
9.1375227E-09
30
0
41
1
10
-1.99503997793931
20
0.109027235983376
30
0
41
1
10
-1.99503997793934
20
0.254507260377721
30
0
41
1
10
-1.99503997793934
20
0.399611451539016
30
0
41
1
10
-1.99503997793934
20
0.545019973860946
30
0
41
1
10
-1.99503997793934
20
0.65396065872352
30
0
41
1
10
-1.99503997793934
20
0.762866921466497
30
0
41
1
10
-1.99503997793934
20
0.908138069364924
30
0
41
1
10
-1.99503997793934
20
1.08935868161851
30
0
41
1
10
-1.99503997793934
20
1.27038905366365
30
0
41
1
10
-1.99503997793934
20
1.41528065788862
30
0
41
1
10
-1.99503997793934
20
1.52379770019976
30
0
41
1
10
-1.99503997793934
20
1.63223933880326
30
0
41
1
10
-1.99503997793934
20
1.77682919806026
30
0
41
1
10
-1.99503997793934
20
1.92093491483618
30
0
41
1
10
-1.99503997793934
20
2.06516367446022
30
0
41
1
10
-1.99503997793934
20
2.20926559475367
30
0
41
1
10
-1.99503997793934
20
2.35286670982629
30
0
41
1
10
-1.99503997793931
20
2.49654581237684
30
0
41
1
10
-1.99503997793934
20
2.60412375528318
30
0
41
1
10
-1.99503997793934
20
2.71158686216671
30
0
41
1
10
-1.99503997793934
20
2.81893418131364
30
0
41
1
10
-1.99503997793931
20
2.92616259642293
30
0
41
1
10
-1.99503997793931
20
3.06906085087903
30
0
41
1
10
-1.99503997793934
20
3.21144324089977
30
0
41
1
10
-1.99503997793934
20
3.35382641814792
30
0
41
1
10
-1.99503997793934
20
3.46041868097626
30
0
41
1
10
-1.99503997793934
20
3.56687680853716
30
0
41
1
10
-1.99503997793934
20
3.70872432201043
30
0
41
1
10
-1.99503997793934
20
3.88550853751437
30
0
41
1
10
-1.99503997793934
20
4.06181816740798
30
0
41
1
10
-1.99503997793934
20
4.20271766259089
30
0
41
1
10
-1.99503997793934
20
4.34342548405573
30
0
41
1
10
-1.99503997793934
20
4.48361575507579
30
0
41
1
10
-1.99503997793934
20
4.62372538326247
30
0
41
1
10
-1.99503997793934
20
4.76363712095318
30
0
41
1
10
-1.99503997793934
20
4.93799069007397
30
0
41
1
10
-1.99503997793934
20
5.14668274769554
30
0
41
1
10
-1.99503997793934
20
5.35475597096195
30
0
41
1
10
-1.99503997793934
20
5.56220357677807
30
0
41
1
10
-1.99503997793934
20
5.76902086592733
30
0
41
1
10
-1.99503997793934
20
6.04405722561489
30
0
41
1
10
-1.99503997793934
20
6.38598402190894
30
0
41
1
10
-1.99503997793934
20
6.72574990920421
30
0
41
1
10
-1.99503997793934
20
6.99646231662962
30
0
41
1
10
-1.99503997793934
20
7.26630764015121
30
0
41
1
10
-1.99503997793934
20
7.60174008666436
30
0
41
1
10
-1.99503997793934
20
7.9349733656166
30
0
41
1
10
-1.99503997793934
20
8.20041752296072
30
0
41
1
10
-1.99503997793931
20
8.46498321367622
30
0
41
1
10
-1.99503997793931
20
8.79382593589915
30
0
41
1
10
-1.99503997793934
20
9.18589158918721
30
0
41
1
10
-1.99503997793934
20
9.57530335790588
30
0
41
1
10
-1.99503997793931
20
9.96205972428271
30
0
41
1
10
-1.99503997793934
20
10.3461602965629
30
0
41
1
10
-1.99503997793931
20
10.7276051607687
30
0
41
1
10
-1.99503997793934
20
11.1063953922263
30
0
41
1
10
-1.99503997793931
20
11.4825318141738
30
0
41
1
10
-1.99503997793934
20
11.85601645061
30
0
41
1
10
-1.99503997793934
20
12.2268503778689
30
0
41
1
10
-1.99503997793934
20
12.5950360925707
30
0
41
1
10
-1.99503997793934
20
12.9605748020562
30
0
41
1
10
-1.99503997793931
20
13.3234688579879
30
0
41
1
10
-1.99503997793934
20
13.6837198698815
30
0
41
1
10
-1.99503997793931
20
13.9816645441138
30
0
41
1
10
-1.99503997793934
20
14.2188112194046
30
0
41
1
10
-1.99503997793934
20
14.4550791184571
30
0
41
1
10
-1.99503997793934
20
14.7486309197532
30
0
41
1
10
-1.99503997793931
20
15.0983253104254
30
0
41
1
10
-1.99503997793931
20
15.4453840138399
30
0
41
1
10
-1.99503997793934
20
15.7898077032215
30
0
41
1
10
-1.99503997793931
20
16.1315968939283
30
0
41
1
10
-1.99503997793931
20
16.4707522036703
30
0
41
1
10
-1.99503997793934
20
16.7511340559088
30
0
41
1
10
-1.99503997793934
20
16.9742159134664
30
0
41
1
10
-1.99503997793934
20
17.1964202003686
30
0
41
1
10
-1.99503997793934
20
17.4724160483817
30
0
41
1
10
-1.99503997793934
20
17.8010357340039
30
0
41
1
10
-1.99503997793934
20
18.1270203733511
30
0
41
1
10
-1.99503997793934
20
18.5582479712654
30
0
41
1
10
-1.99503997793934
20
18.983919492224
30
0
41
1
10
-1.99503997793934
20
19.4045841348167
30
0
41
1
10
-1.99503997793934
20
19.7173732218513
30
0
41
1
10
-1.99503997793934
20
20.0275173509219
30
0
41
1
10
-1.99503997793934
20
20.4375997139134
30
0
41
1
10
-1.99503997793934
20
20.8421270630885
30
0
41
1
10
-1.99503997793934
20
21.2415899372622
30
0
41
1
10
-1.99503997793934
20
21.5384660281962
30
0
41
1
10
-1.99503997793934
20
21.8326778142532
30
0
41
1
10
-1.99503997793934
20
22.2214812963056
30
0
41
1
10
-1.99503997793934
20
22.6047071794769
30
0
41
1
10
-1.99503997793934
20
22.9827956431365
30
0
41
1
10
-1.99503997793934
20
23.2636185073191
30
0
41
1
10
-1.99503997793931
20
23.5417479211438
30
0
41
1
10
-1.99503997793934
20
23.9090605798749
30
0
41
1
10
-1.99503997793931
20
24.3612782608927
30
0
41
1
10
-1.99503997793934
20
24.8044353773024
30
0
41
1
10
-1.99503997793934
20
25.1536176941803
30
0
41
1
10
-1.99503997793934
20
25.4991460823893
30
0
41
1
10
-1.99503997793934
20
25.9240385032946
30
0
41
1
10
-1.99503997793934
20
26.4229269838675
30
0
41
1
10
-1.99503997793934
20
26.8293292074653
30
0
41
1
10
-1.99503997793934
20
27.1489558217171
30
0
41
1
10
-1.99503997793934
20
27.3858182074444
30
0
41
1
10
-1.99503997793934
20
27.6198572656328
30
0
41
1
10
-1.99503997793934
20
27.9281887547299
30
0
41
1
10
-1.99503997793934
20
28.3063605286731
30
0
41
1
10
-1.99503997793934
20
28.6749709053452
30
0
41
1
10
-1.99503997793934
20
28.9641695771707
30
0
41
1
10
-1.99503997793934
20
29.1781205760016
30
0
41
1
10
-1.99503997793934
20
29.3891503898006
30
0
41
1
10
-1.99503997793934
20
29.6666623719011
30
0
41
1
10
-1.99503997793934
20
30.0060620316198
30
0
41
1
10
-1.99503997793934
20
30.401484307887
30
0
41
1
10
-1.99503997793934
20
30.7209148328241
30
0
41
1
10
-1.99503997793934
20
30.9704527129578
30
0
41
1
10
-1.99503997793934
20
31.2159040534274
30
0
41
1
10
-1.99503997793934
20
31.5149070177095
30
0
41
1
10
-1.99503997793934
20
31.8035081361275
30
0
41
1
10
-1.99503997793934
20
32.0281430662551
30
0
41
1
10
-1.99503997793934
20
32.1934025642943
30
0
41
1
10
-1.99503997793934
20
32.3554556997831
30
0
41
1
10
-1.99503997793934
20
32.5672623983938
30
0
41
1
10
-1.99503997793934
20
32.8237966601456
30
0
41
1
10
-1.99503997793934
20
33.0693268459333
30
0
41
1
10
-1.99503997793934
20
33.2591101848391
30
0
41
1
10
-1.99503997793934
20
33.4443819491763
30
0
41
1
10
-1.99503997793931
20
33.6227215060971
30
0
41
1
10
-1.99503997793934
20
33.7942266163983
30
0
41
1
10
-1.99503997793934
20
33.8984584538255
30
0
41
1
10
-1.99503997793934
20
33.9801066971494
30
0
41
1
10
-1.99503997793934
20
34.0605701909876
30
0
41
1
10
-1.99503997793934
20
34.1982444851697
30
0
41
1
10
-1.99503997793931
20
34.3482948911951
30
0
41
1
10
-1.99503997793934
20
34.4910822889059
30
0
41
1
10
-1.99503997793934
20
34.5944312514431
30
0
41
1
10
-1.99503997793934
20
34.6940212865372
30
0
41
1
10
-1.99503997793934
20
34.7898102716019
30
0
41
1
10
-1.99503997793934
20
34.8817544739769
30
0
41
1
10
-1.99503997793934
20
34.9698083299965
30
0
41
1
10
-1.99503997793934
20
35.0539245925552
30
0
41
1
10
-1.99503997793934
20
35.1340530052702
30
0
41
1
10
-1.99503997793934
20
35.2101447225725
30
0
41
1
10
-1.99503997793934
20
35.3061643717786
30
0
41
1
10
-1.99503997793934
20
35.3938270841851
30
0
41
1
10
-1.99503997793934
20
35.473017757568
30
0
41
1
10
-1.99503997793934
20
35.5280658263189
30
0
41
1
10
-1.99503997793934
20
35.5787156824352
30
0
41
1
10
-1.99503997793934
20
35.6248991716383
30
0
41
1
10
-1.99503997793934
20
35.6665413308516
30
0
41
1
10
-1.99503997793934
20
35.7035662864512
30
0
41
1
10
-1.99503997793934
20
35.7358925782286
30
0
41
1
10
-1.99503997793931
20
35.7634347985349
30
0
41
1
10
-1.99503997793934
20
35.7861037017736
30
0
41
1
10
-1.99503997793934
20
35.803803605785
30
0
41
1
10
-1.99503997793934
20
35.8164351684489
30
0
41
1
10
-1.99503997793937
20
35.8238322828906
30
0
41
1
10
-1.99503997793934
20
35.8253028147296
30
0
41
1
10
-1.99503997793934
20
35.825170948042
30
0
0
SPLINE
5
13E
100
AcDbEntity
8
SK1
62
256
6
ByLayer
370
18
48
1
60
0
100
AcDbSpline
70
4
71
3
72
24
73
20
40
0
40
0
40
0
40
0
40
0.250000000000002
40
0.250000000000002
40
0.500000000000003
40
0.500000000000003
40
0.625000000000004
40
0.625000000000004
40
0.750000000000005
40
0.750000000000005
40
0.812500000000003
40
0.812500000000003
40
0.875000000000002
40
0.875000000000002
40
0.90625
40
0.90625
40
0.937499999999998
40
0.937499999999998
40
1
40
1
40
1
40
1
41
1
10
-0.200000000000046
20
-6.83961978441494
30
0
41
1
10
-0.200000000000046
20
-6.77266365744978
30
0
41
1
10
-0.201382572616979
20
-6.70565659874691
30
0
41
1
10
-0.207977972208198
20
-6.5715339029677
30
0
41
1
10
-0.213104017709469
20
-6.50438623378943
30
0
41
1
10
-0.225863327175659
20
-6.40368599150963
30
0
41
1
10
-0.230960199961203
20
-6.37022262623034
30
0
41
1
10
-0.243909322931046
20
-6.30365027444685
30
0
41
1
10
-0.251695140322852
20
-6.27046679752874
30
0
41
1
10
-0.267365003958844
20
-6.22224043421204
30
0
41
1
10
-0.273258792574637
20
-6.20639762175674
30
0
41
1
10
-0.287575041852079
20
-6.17559244970442
30
0
41
1
10
-0.296025423984418
20
-6.16029740280638
30
0
41
1
10
-0.312745147160484
20
-6.1405372321486
30
0
41
1
10
-0.318964396069902
20
-6.1345692127623
30
0
41
1
10
-0.33330674399221
20
-6.12532418760176
30
0
41
1
10
-0.341564173961928
20
-6.12220353729683
30
0
41
1
10
-0.366640590815564
20
-6.12048722824937
30
0
41
1
10
-0.382359877230215
20
-6.1292127618521
30
0
41
1
10
-0.394976888875561
20
-6.14029722152819
30
0
0
SPLINE
5
13F
100
AcDbEntity
8
SK1
62
256
6
ByLayer
370
18
48
1
60
0
100
AcDbSpline
70
4
71
3
72
26
73
22
40
0
40
0
40
0
40
0
40
0.0312500000000007
40
0.0312500000000007
40
0.0625000000000013
40
0.0625000000000013
40
0.093750000000002
40
0.093750000000002
40
0.125000000000003
40
0.125000000000003
40
0.187500000000002
40
0.187500000000002
40
0.250000000000001
40
0.250000000000001
40
0.374999999999998
40
0.374999999999998
40
0.499999999999996
40
0.499999999999996
40
0.749999999999998
40
0.749999999999998
40
1
40
1
40
1
40
1
41
1
10
-0.394976888875334
20
6.14029748393364
30
0
41
1
10
-0.388671542343843
20
6.1347580249537
30
0
41
1
10
-0.381811688236297
20
6.1298886932928
30
0
41
1
10
-0.366640931323531
20
6.12297362066246
30
0
41
1
10
-0.358278007450025
20
6.12106156290525
30
0
41
1
10
-0.341586244187937
20
6.1222005447375
30
0
41
1
10
-0.333329946064083
20
6.12530915500187
30
0
41
1
10
-0.318937761824827
20
6.13458695676925
30
0
41
1
10
-0.312691447115356
20
6.14059423910979
30
0
41
1
10
-0.296015040763649
20
6.1603234469826
30
0
41
1
10
-0.287612080656402
20
6.17550182304004
30
0
41
1
10
-0.273149761403459
20
6.20664379931861
30
0
41
1
10
-0.267232047922164
20
6.2226046254498
30
0
41
1
10
-0.251522730309801
20
6.27109030505443
30
0
41
1
10
-0.243762688270209
20
6.3042913519493
30
0
41
1
10
-0.230811347956717
20
6.37110400420676
30
0
41
1
10
-0.225742010448016
20
6.40454205690912
30
0
41
1
10
-0.21306618774662
20
6.50489212673551
30
0
41
1
10
-0.207959301007605
20
6.57183900384283
30
0
41
1
10
-0.201382597553845
20
6.70573141098555
30
0
41
1
10
-0.200000000000074
20
6.77268016381569
30
0
41
1
10
-0.200000000000102
20
6.83961987074579
30
0
0
SPLINE
5
140
100
AcDbEntity
8
SK1
62
256
6
ByLayer
370
18
48
1
60
0
100
AcDbSpline
70
4
71
3
72
316
73
312
40
0
40
0
40
0
40
0
40
0.0001689126032471
40
0.0036889489207876
40
0.0072089852383282
40
0.0107290215558688
40
0.0142490578734093
40
0.0177690941909499
40
0.0212891305084905
40
0.024809166826031
40
0.0283292031435716
40
0.0318492394611122
40
0.0353692757786528
40
0.0388893120961933
40
0.0424093484137339
40
0.0459293847312745
40
0.049449421048815
40
0.0529694573663556
40
0.0564894936838962
40
0.0600095300014367
40
0.0635295663189773
40
0.0670496026365179
40
0.0705696389540584
40
0.074089675271599
40
0.0776097115891396
40
0.0846497842242207
40
0.0881698205417613
40
0.0899298387005316
40
0.0916898568593019
40
0.0952098931768424
40
0.098729929494383
40
0.105770002129464
40
0.109290038447005
40
0.112810074764545
40
0.119850147399626
40
0.126890220034708
40
0.130410256352248
40
0.133930292669789
40
0.137450328987329
40
0.14097036530487
40
0.148010437939951
40
0.155050510575032
40
0.158570546892573
40
0.162090583210113
40
0.169130655845194
40
0.176170728480276
40
0.183210801115357
40
0.186730837432897
40
0.190250873750438
40
0.193770910067978
40
0.197290946385519
40
0.2043310190206
40
0.211371091655681
40
0.214891127973222
40
0.218411164290762
40
0.221931200608303
40
0.225451236925844
40
0.232491309560925
40
0.239531382196006
40
0.246571454831087
40
0.250091491148627
40
0.253611527466168
40
0.260651600101249
40
0.26769167273633
40
0.271211709053871
40
0.274731745371411
40
0.278251781688952
40
0.281771818006493
40
0.288811890641574
40
0.292331926959114
40
0.295851963276655
40
0.299371999594195
40
0.302892035911736
40
0.309932108546817
40
0.313452144864358
40
0.316972181181898
40
0.320492217499439
40
0.324012253816979
40
0.331052326452061
40
0.334572362769601
40
0.338092399087142
40
0.341612435404682
40
0.345132471722223
40
0.346892489880993
40
0.348652508039763
40
0.352172544357304
40
0.359212616992385
40
0.362732653309926
40
0.366252689627466
40
0.369772725945007
40
0.373292762262547
40
0.376812798580088
40
0.380332834897628
40
0.383852871215169
40
0.38737290753271
40
0.39089294385025
40
0.394412980167791
40
0.397933016485331
40
0.401453052802872
40
0.403213070961642
40
0.404973089120413
40
0.408493125437953
40
0.412013161755494
40
0.415533198073034
40
0.419053234390575
40
0.422573270708115
40
0.424333288866886
40
0.426093307025656
40
0.429613343343197
40
0.431373361501967
40
0.433133379660737
40
0.436653415978278
40
0.440173452295818
40
0.441933470454588
40
0.443693488613359
40
0.447213524930899
40
0.45073356124844
40
0.45249357940721
40
0.45425359756598
40
0.456013615724751
40
0.457773633883521
40
0.459533652042291
40
0.461293670201062
40
0.462173679280447
40
0.463053688359832
40
0.464813706518602
40
0.465693715597987
40
0.466573724677373
40
0.468333742836143
40
0.470093760994913
40
0.470973770074298
40
0.471853779153683
40
0.472733788233068
40
0.473613797312454
40
0.474493806391839
40
0.475373815471224
40
0.476253824550609
40
0.477133833629994
40
0.478893851788764
40
0.480653869947535
40
0.482413888106305
40
0.484173906265075
40
0.485933924423846
40
0.486813933503231
40
0.487693942582616
40
0.488573951662001
40
0.489453960741386
40
0.491213978900156
40
0.492973997058927
40
0.493854006138312
40
0.494734015217697
40
0.495614024297082
40
0.496494033376467
40
0.498254051535238
40
0.499134060614623
40
0.500014069694008
40
0.500894078773393
40
0.501774087852778
40
0.503534106011548
40
0.504414115090934
40
0.505294124170319
40
0.506174133249704
40
0.507054142329089
40
0.508814160487859
40
0.51057417864663
40
0.511454187726015
40
0.5123341968054
40
0.513214205884785
40
0.51409421496417
40
0.51585423312294
40
0.516734242202326
40
0.517614251281711
40
0.519374269440481
40
0.520254278519866
40
0.521134287599251
40
0.522014296678636
40
0.522894305758022
40
0.523774314837407
40
0.524654323916792
40
0.526414342075562
40
0.527294351154947
40
0.528174360234332
40
0.529054369313718
40
0.529934378393103
40
0.531694396551873
40
0.533454414710643
40
0.534334423790028
40
0.535214432869414
40
0.536974451028184
40
0.537854460107569
40
0.538734469186954
40
0.540494487345724
40
0.542254505504495
40
0.544014523663265
40
0.545774541822035
40
0.547534559980806
40
0.549294578139576
40
0.552814614457116
40
0.556334650774657
40
0.558094668933427
40
0.559854687092198
40
0.563374723409738
40
0.566894759727279
40
0.568654777886049
40
0.570414796044819
40
0.57393483236236
40
0.5774548686799
40
0.580974904997441
40
0.584494941314982
40
0.588014977632522
40
0.591535013950063
40
0.595055050267603
40
0.598575086585144
40
0.602095122902684
40
0.605615159220225
40
0.609135195537766
40
0.612655231855306
40
0.616175268172847
40
0.619695304490387
40
0.623215340807928
40
0.624975358966698
40
0.626735377125468
40
0.630255413443009
40
0.63377544976055
40
0.63729548607809
40
0.640815522395631
40
0.644335558713171
40
0.647855595030712
40
0.651375631348252
40
0.653135649507023
40
0.654895667665793
40
0.658415703983333
40
0.661935740300874
40
0.665455776618415
40
0.668975812935955
40
0.676015885571036
40
0.679535921888577
40
0.683055958206118
40
0.686575994523658
40
0.690096030841199
40
0.69713610347628
40
0.70065613979382
40
0.704176176111361
40
0.707696212428901
40
0.711216248746442
40
0.718256321381523
40
0.721776357699064
40
0.725296394016604
40
0.728816430334145
40
0.732336466651685
40
0.739376539286767
40
0.746416611921848
40
0.749936648239388
40
0.753456684556929
40
0.76049675719201
40
0.767536829827091
40
0.774576902462172
40
0.778096938779713
40
0.781616975097253
40
0.785137011414794
40
0.788657047732334
40
0.795697120367416
40
0.802737193002497
40
0.806257229320037
40
0.809777265637578
40
0.813297301955119
40
0.816817338272659
40
0.82385741090774
40
0.830897483542821
40
0.837937556177902
40
0.841457592495443
40
0.844977628812984
40
0.852017701448065
40
0.859057774083146
40
0.862577810400686
40
0.866097846718227
40
0.869617883035768
40
0.873137919353308
40
0.880177991988389
40
0.88721806462347
40
0.890738100941011
40
0.894258137258552
40
0.901298209893633
40
0.904818246211173
40
0.908338282528714
40
0.910098300687484
40
0.911858318846254
40
0.915378355163795
40
0.922418427798876
40
0.925938464116417
40
0.929458500433957
40
0.932978536751498
40
0.936498573069038
40
0.940018609386579
40
0.943538645704119
40
0.94705868202166
40
0.950578718339201
40
0.954098754656741
40
0.957618790974282
40
0.964658863609363
40
0.968178899926904
40
0.971698936244444
40
0.975218972561985
40
0.978739008879525
40
0.982259045197066
40
0.985779081514606
40
0.989299117832147
40
0.992819154149687
40
0.996339190467228
40
0.999859226784769
40
1
40
1
40
1
40
1
41
1
10
-2.20000000000007
20
-35.9984815439658
30
0
41
1
10
-2.20000000000007
20
-35.9982416328191
30
0
41
1
10
-2.20000000000005
20
-35.9929593946177
30
0
41
1
10
-2.20000000000005
20
-35.9808152586153
30
0
41
1
10
-2.20000000000007
20
-35.9580337844422
30
0
41
1
10
-2.20000000000007
20
-35.9303574155849
30
0
41
1
10
-2.20000000000007
20
-35.8978764072393
30
0
41
1
10
-2.20000000000007
20
-35.8606772012186
30
0
41
1
10
-2.20000000000005
20
-35.8188423507704
30
0
41
1
10
-2.20000000000007
20
-35.7724483138313
30
0
41
1
10
-2.20000000000007
20
-35.7215711806022
30
0
41
1
10
-2.20000000000007
20
-35.6662795049963
30
0
41
1
10
-2.20000000000007
20
-35.606642098176
30
0
41
1
10
-2.20000000000007
20
-35.5427232831041
30
0
41
1
10
-2.20000000000007
20
-35.4745835494885
30
0
41
1
10
-2.20000000000007
20
-35.4022823040986
30
0
41
1
10
-2.20000000000005
20
-35.3258758054439
30
0
41
1
10
-2.20000000000007
20
-35.2454179865413
30
0
41
1
10
-2.20000000000005
20
-35.1609605897894
30
0
41
1
10
-2.20000000000007
20
-35.0725532425695
30
0
41
1
10
-2.20000000000007
20
-34.9802436065341
30
0
41
1
10
-2.20000000000005
20
-34.8840775983924
30
0
41
1
10
-2.20000000000007
20
-34.7840992673661
30
0
41
1
10
-2.20000000000005
20
-34.6803509079354
30
0
41
1
10
-2.20000000000005
20
-34.5370512446321
30
0
41
1
10
-2.20000000000007
20
-34.3863617307859
30
0
41
1
10
-2.20000000000007
20
-34.2481903116661
30
0
41
1
10
-2.20000000000005
20
-34.1674461732589
30
0
41
1
10
-2.20000000000005
20
-34.0855143686357
30
0
41
1
10
-2.20000000000007
20
-33.9808791024373
30
0
41
1
10
-2.20000000000007
20
-33.8087856254549
30
0
41
1
10
-2.20000000000005
20
-33.6297179034793
30
0
41
1
10
-2.20000000000005
20
-33.4438214227632
30
0
41
1
10
-2.20000000000005
20
-33.2534024597305
30
0
41
1
10
-2.20000000000005
20
-33.0069583004127
30
0
41
1
10
-2.20000000000007
20
-32.7494770380993
30
0
41
1
10
-2.20000000000007
20
-32.5369772821027
30
0
41
1
10
-2.20000000000007
20
-32.3743609910526
30
0
41
1
10
-2.20000000000005
20
-32.2085294030258
30
0
41
1
10
-2.20000000000007
20
-31.9831685438611
30
0
41
1
10
-2.20000000000005
20
-31.693527865474
30
0
41
1
10
-2.20000000000007
20
-31.3934533930513
30
0
41
1
10
-2.20000000000007
20
-31.1472201983193
30
0
41
1
10
-2.20000000000007
20
-30.8968896848933
30
0
41
1
10
-2.20000000000005
20
-30.5763259691741
30
0
41
1
10
-2.20000000000007
20
-30.1795721880177
30
0
41
1
10
-2.20000000000005
20
-29.8389753334018
30
0
41
1
10
-2.20000000000005
20
-29.5605910229121
30
0
41
1
10
-2.20000000000007
20
-29.3488540584264
30
0
41
1
10
-2.20000000000005
20
-29.1341864928692
30
0
41
1
10
-2.20000000000005
20
-28.8440802923644
30
0
41
1
10
-2.20000000000007
20
-28.4741740127018
30
0
41
1
10
-2.20000000000005
20
-28.0946721119014
30
0
41
1
10
-2.20000000000007
20
-27.7853718286964
30
0
41
1
10
-2.20000000000005
20
-27.5505474715739
30
0
41
1
10
-2.20000000000005
20
-27.3128894716318
30
0
41
1
10
-2.20000000000007
20
-26.9922551577599
30
0
41
1
10
-2.20000000000005
20
-26.5844139266108
30
0
41
1
10
-2.20000000000005
20
-26.0838374506717
30
0
41
1
10
-2.20000000000005
20
-25.6574288542629
30
0
41
1
10
-2.20000000000005
20
-25.3107955662679
30
0
41
1
10
-2.20000000000007
20
-24.9604927320776
30
0
41
1
10
-2.20000000000005
20
-24.5157343073516
30
0
41
1
10
-2.20000000000005
20
-24.0618724844523
30
0
41
1
10
-2.20000000000005
20
-23.6933606289521
30
0
41
1
10
-2.20000000000007
20
-23.4142578696928
30
0
41
1
10
-2.20000000000005
20
-23.1324477508893
30
0
41
1
10
-2.20000000000005
20
-22.7531069145398
30
0
41
1
10
-2.20000000000005
20
-22.3683458335125
30
0
41
1
10
-2.20000000000005
20
-21.978235327242
30
0
41
1
10
-2.20000000000007
20
-21.6829615863146
30
0
41
1
10
-2.20000000000005
20
-21.3850073833771
30
0
41
1
10
-2.20000000000005
20
-20.984175332485
30
0
41
1
10
-2.20000000000005
20
-20.5779672141207
30
0
41
1
10
-2.20000000000005
20
-20.1664517398788
30
0
41
1
10
-2.20000000000005
20
-19.8551416161418
30
0
41
1
10
-2.20000000000005
20
-19.5411672734657
30
0
41
1
10
-2.20000000000005
20
-19.1189951374152
30
0
41
1
10
-2.20000000000005
20
-18.6914694093051
30
0
41
1
10
-2.20000000000005
20
-18.2586575687844
30
0
41
1
10
-2.20000000000005
20
-17.9313816332312
30
0
41
1
10
-2.20000000000005
20
-17.6014470677549
30
0
41
1
10
-2.20000000000005
20
-17.3242802462531
30
0
41
1
10
-2.20000000000005
20
-17.1012276238876
30
0
41
1
10
-2.20000000000005
20
-16.8772884002213
30
0
41
1
10
-2.20000000000005
20
-16.4830628393222
30
0
41
1
10
-2.20000000000002
20
-16.0271656941317
30
0
41
1
10
-2.20000000000005
20
-15.5659788017487
30
0
41
1
10
-2.20000000000005
20
-15.2174126385947
30
0
41
1
10
-2.20000000000005
20
-14.8661779693539
30
0
41
1
10
-2.20000000000005
20
-14.5122728269275
30
0
41
1
10
-2.20000000000005
20
-14.1556932924212
30
0
41
1
10
-2.20000000000005
20
-13.7964372435233
30
0
41
1
10
-2.20000000000005
20
-13.4345004358159
30
0
41
1
10
-2.20000000000005
20
-13.0698795558119
30
0
41
1
10
-2.20000000000005
20
-12.7025705743372
30
0
41
1
10
-2.20000000000002
20
-12.3325690014506
30
0
41
1
10
-2.20000000000005
20
-11.9598708409374
30
0
41
1
10
-2.20000000000005
20
-11.6470295372759
30
0
41
1
10
-2.20000000000005
20
-11.3954184217635
30
0
41
1
10
-2.20000000000005
20
-11.1429046192031
30
0
41
1
10
-2.20000000000005
20
-10.825548102013
30
0
41
1
10
-2.20000000000005
20
-10.4420145743895
30
0
41
1
10
-2.20000000000005
20
-10.0557602279918
30
0
41
1
10
-2.20000000000005
20
-9.6667808990187
30
0
41
1
10
-2.20000000000005
20
-9.3403466994373
30
0
41
1
10
-2.20000000000005
20
-9.0778499110217
30
0
41
1
10
-2.20000000000005
20
-8.81444106406227
30
0
41
1
10
-2.20000000000005
20
-8.54963209943347
30
0
41
1
10
-2.20000000000005
20
-8.28348543659973
30
0
41
1
10
-2.20000000000005
20
-8.01642493811283
30
0
41
1
10
-2.20000000000005
20
-7.68085993160071
30
0
41
1
10
-2.20000000000005
20
-7.34301151247956
30
0
41
1
10
-2.20000000000005
20
-7.0713846593016
30
0
41
1
10
-2.20000000000005
20
-6.7988454667032
30
0
41
1
10
-2.20000000000005
20
-6.45643328069659
30
0
41
1
10
-2.20000000000005
20
-6.11175146674464
30
0
41
1
10
-2.20000000000002
20
-5.8346746068942
30
0
41
1
10
-2.20000000000002
20
-5.62618085404884
30
0
41
1
10
-2.20000000000005
20
-5.41701391929831
30
0
41
1
10
-2.20000000000005
20
-5.2071774547814
30
0
41
1
10
-2.20000000000005
20
-4.99667509392853
30
0
41
1
10
-2.20000000000005
20
-4.82069761094559
30
0
41
1
10
-2.20000000000002
20
-4.67960211600021
30
0
41
1
10
-2.20000000000005
20
-4.53828872405637
30
0
41
1
10
-2.20000000000002
20
-4.39662510037113
30
0
41
1
10
-2.20000000000002
20
-4.25466574513032
30
0
41
1
10
-2.20000000000005
20
-4.11249339754065
30
0
41
1
10
-2.20000000000005
20
-3.93436102619754
30
0
41
1
10
-2.20000000000005
20
-3.75570803581101
30
0
41
1
10
-2.20000000000005
20
-3.61249538417175
30
0
41
1
10
-2.20000000000005
20
-3.50492661910161
30
0
41
1
10
-2.20000000000002
20
-3.39720741056169
30
0
41
1
10
-2.20000000000005
20
-3.28933976181244
30
0
41
1
10
-2.20000000000005
20
-3.18132544112748
30
0
41
1
10
-2.20000000000005
20
-3.07316631132784
30
0
41
1
10
-2.20000000000005
20
-2.96486450366422
30
0
41
1
10
-2.20000000000005
20
-2.82028557320734
30
0
41
1
10
-2.20000000000005
20
-2.63919374722937
30
0
41
1
10
-2.20000000000002
20
-2.42136740345262
30
0
41
1
10
-2.20000000000005
20
-2.20303663065525
30
0
41
1
10
-2.20000000000002
20
-1.98422944343227
30
0
41
1
10
-2.20000000000005
20
-1.80150795480091
30
0
41
1
10
-2.20000000000005
20
-1.6551476684065
30
0
41
1
10
-2.20000000000005
20
-1.54527064958364
30
0
41
1
10
-2.20000000000005
20
-1.43530118015897
30
0
41
1
10
-2.20000000000002
20
-1.28857135826536
30
0
41
1
10
-2.20000000000005
20
-1.10492621249179
30
0
41
1
10
-2.20000000000005
20
-0.921048397975056
30
0
41
1
10
-2.20000000000005
20
-0.773855181921249
30
0
41
1
10
-2.20000000000005
20
-0.663399753590738
30
0
41
1
10
-2.20000000000005
20
-0.552900673038778
30
0
41
1
10
-2.20000000000005
20
-0.405533020604139
30
0
41
1
10
-2.20000000000005
20
-0.258066027196975
30
0
41
1
10
-2.20000000000005
20
-0.110609798282241
30
0
41
1
10
-2.20000000000005
20
7.9679126E-09
30
0
41
1
10
-2.20000000000005
20
0.110609814521098
30
0
41
1
10
-2.20000000000005
20
0.258066043297845
30
0
41
1
10
-2.20000000000005
20
0.4055330366796
30
0
41
1
10
-2.20000000000005
20
0.552900689625943
30
0
41
1
10
-2.20000000000002
20
0.66339976948035
30
0
41
1
10
-2.20000000000005
20
0.773855197893738
30
0
41
1
10
-2.20000000000005
20
0.921048414141012
30
0
41
1
10
-2.20000000000002
20
1.10492622913026
30
0
41
1
10
-2.20000000000005
20
1.28857137427272
30
0
41
1
10
-2.20000000000002
20
1.43530119545005
30
0
41
1
10
-2.20000000000002
20
1.54527066672031
30
0
41
1
10
-2.20000000000002
20
1.65514768405939
30
0
41
1
10
-2.20000000000005
20
1.80150797944296
30
0
41
1
10
-2.20000000000005
20
1.94769984814906
30
0
41
1
10
-2.20000000000002
20
2.09363388662038
30
0
41
1
10
-2.20000000000002
20
2.2394143240887
30
0
41
1
10
-2.20000000000002
20
2.38499085138614
30
0
41
1
10
-2.20000000000005
20
2.53028147448535
30
0
41
1
10
-2.20000000000005
20
2.63912850340506
30
0
41
1
10
-2.20000000000002
20
2.74784323707024
30
0
41
1
10
-2.20000000000005
20
2.85642274224216
30
0
41
1
10
-2.20000000000005
20
2.96486450652631
30
0
41
1
10
-2.20000000000005
20
3.10925640073577
30
0
41
1
10
-2.20000000000002
20
3.25339347207259
30
0
41
1
10
-2.20000000000005
20
3.39720740223615
30
0
41
1
10
-2.20000000000002
20
3.50492662159454
30
0
41
1
10
-2.20000000000005
20
3.61249538774433
30
0
41
1
10
-2.20000000000005
20
3.75570803460613
30
0
41
1
10
-2.20000000000005
20
3.93436102607183
30
0
41
1
10
-2.20000000000002
20
4.11249340828533
30
0
41
1
10
-2.20000000000005
20
4.25466576165113
30
0
41
1
10
-2.20000000000005
20
4.39662511608446
30
0
41
1
10
-2.20000000000005
20
4.53828873143237
30
0
41
1
10
-2.20000000000005
20
4.67960211602718
30
0
41
1
10
-2.20000000000002
20
4.82069760714904
30
0
41
1
10
-2.20000000000002
20
4.99667509827842
30
0
41
1
10
-2.20000000000005
20
5.20717747482001
30
0
41
1
10
-2.20000000000002
20
5.41701393923282
30
0
41
1
10
-2.20000000000002
20
5.62618085956731
30
0
41
1
10
-2.20000000000005
20
5.83467460016641
30
0
41
1
10
-2.20000000000005
20
6.1117514717377
30
0
41
1
10
-2.20000000000002
20
6.45643331679508
30
0
41
1
10
-2.20000000000002
20
6.7988454686834
30
0
41
1
10
-2.20000000000005
20
7.07138465122819
30
0
41
1
10
-2.20000000000005
20
7.34301151998704
30
0
41
1
10
-2.20000000000005
20
7.68085996867359
30
0
41
1
10
-2.20000000000005
20
8.01642492609372
30
0
41
1
10
-2.20000000000005
20
8.28348540775062
30
0
41
1
10
-2.20000000000002
20
8.54963206906433
30
0
41
1
10
-2.20000000000005
20
8.88062693308257
30
0
41
1
10
-2.20000000000005
20
9.27507092999494
30
0
41
1
10
-2.20000000000002
20
9.66678080103023
30
0
41
1
10
-2.20000000000005
20
10.0557605043741
30
0
41
1
10
-2.20000000000005
20
10.4420146592237
30
0
41
1
10
-2.20000000000005
20
10.8255477577392
30
0
41
1
10
-2.20000000000005
20
11.206365026591
30
0
41
1
10
-2.20000000000002
20
11.5844709045752
30
0
41
1
10
-2.20000000000002
20
11.9598708451068
30
0
41
1
10
-2.20000000000002
20
12.332568976433
30
0
41
1
10
-2.20000000000005
20
12.7025705750891
30
0
41
1
10
-2.20000000000005
20
13.069879547448
30
0
41
1
10
-2.20000000000005
20
13.4345004130391
30
0
41
1
10
-2.20000000000002
20
13.7964372758265
30
0
41
1
10
-2.20000000000002
20
14.0958244492637
30
0
41
1
10
-2.20000000000002
20
14.3339831373198
30
0
41
1
10
-2.20000000000002
20
14.5712504744562
30
0
41
1
10
-2.20000000000005
20
14.8661782384877
30
0
41
1
10
-2.20000000000005
20
15.2174125550856
30
0
41
1
10
-2.20000000000002
20
15.5659787170005
30
0
41
1
10
-2.20000000000005
20
15.9118789297516
30
0
41
1
10
-2.20000000000005
20
16.2551149485892
30
0
41
1
10
-2.20000000000005
20
16.5956885399058
30
0
41
1
10
-2.20000000000002
20
16.8772884036232
30
0
41
1
10
-2.20000000000005
20
17.1012276273506
30
0
41
1
10
-2.20000000000005
20
17.3242802479084
30
0
41
1
10
-2.20000000000002
20
17.6014470745969
30
0
41
1
10
-2.20000000000005
20
17.931381638112
30
0
41
1
10
-2.20000000000002
20
18.2586575717451
30
0
41
1
10
-2.20000000000005
20
18.6914694264878
30
0
41
1
10
-2.20000000000002
20
19.1189951390117
30
0
41
1
10
-2.20000000000005
20
19.5411672873636
30
0
41
1
10
-2.20000000000005
20
19.8551416115088
30
0
41
1
10
-2.20000000000005
20
20.1664517496923
30
0
41
1
10
-2.20000000000005
20
20.5779672218009
30
0
41
1
10
-2.20000000000005
20
20.984175338768
30
0
41
1
10
-2.20000000000002
20
21.3850073930001
30
0
41
1
10
-2.20000000000005
20
21.6829615822887
30
0
41
1
10
-2.20000000000005
20
21.978235336502
30
0
41
1
10
-2.20000000000002
20
22.3683458387385
30
0
41
1
10
-2.20000000000005
20
22.7531069193882
30
0
41
1
10
-2.20000000000002
20
23.1324477597272
30
0
41
1
10
-2.20000000000005
20
23.4142578666451
30
0
41
1
10
-2.20000000000005
20
23.693360634423
30
0
41
1
10
-2.20000000000002
20
24.0618724924846
30
0
41
1
10
-2.20000000000005
20
24.5157343100949
30
0
41
1
10
-2.20000000000002
20
24.9604927323371
30
0
41
1
10
-2.20000000000005
20
25.3107955671814
30
0
41
1
10
-2.20000000000002
20
25.6574288628695
30
0
41
1
10
-2.20000000000005
20
26.0838374470223
30
0
41
1
10
-2.20000000000005
20
26.5844139299712
30
0
41
1
10
-2.20000000000005
20
26.9922551600879
30
0
41
1
10
-2.20000000000005
20
27.312889474477
30
0
41
1
10
-2.20000000000005
20
27.5505474706334
30
0
41
1
10
-2.20000000000005
20
27.78537182938
30
0
41
1
10
-2.20000000000005
20
28.0946721145145
30
0
41
1
10
-2.20000000000005
20
28.474174010683
30
0
41
1
10
-2.20000000000005
20
28.8440802938743
30
0
41
1
10
-2.20000000000002
20
29.1341864918563
30
0
41
1
10
-2.20000000000002
20
29.3488540567688
30
0
41
1
10
-2.20000000000005
20
29.5605910235313
30
0
41
1
10
-2.20000000000005
20
29.8389753322123
30
0
41
1
10
-2.20000000000005
20
30.1795721887094
30
0
41
1
10
-2.20000000000002
20
30.5763259617258
30
0
41
1
10
-2.20000000000002
20
30.8968896882167
30
0
41
1
10
-2.20000000000005
20
31.1472201940908
30
0
41
1
10
-2.20000000000005
20
31.3934533876081
30
0
41
1
10
-2.20000000000005
20
31.6935278618122
30
0
41
1
10
-2.20000000000005
20
31.9831685440602
30
0
41
1
10
-2.20000000000002
20
32.2085294017454
30
0
41
1
10
-2.20000000000002
20
32.3743609793662
30
0
41
1
10
-2.20000000000005
20
32.5369772815205
30
0
41
1
10
-2.20000000000005
20
32.7494770362055
30
0
41
1
10
-2.20000000000005
20
33.0069583008311
30
0
41
1
10
-2.20000000000002
20
33.2534024436425
30
0
41
1
10
-2.20000000000005
20
33.4438214187487
30
0
41
1
10
-2.20000000000005
20
33.6297179032972
30
0
41
1
10
-2.20000000000005
20
33.8087856219281
30
0
41
1
10
-2.20000000000002
20
33.9808790950558
30
0
41
1
10
-2.20000000000002
20
34.0855143550287
30
0
41
1
10
-2.20000000000005
20
34.1674461612967
30
0
41
1
10
-2.20000000000005
20
34.2481903083142
30
0
41
1
10
-2.20000000000005
20
34.3863617301769
30
0
41
1
10
-2.20000000000005
20
34.5370512371172
30
0
41
1
10
-2.20000000000005
20
34.6803509073951
30
0
41
1
10
-2.20000000000002
20
34.7840992432799
30
0
41
1
10
-2.20000000000005
20
34.8840776031988
30
0
41
1
10
-2.20000000000005
20
34.9802435989444
30
0
41
1
10
-2.20000000000005
20
35.0725532191378
30
0
41
1
10
-2.20000000000005
20
35.1609605893935
30
0
41
1
10
-2.20000000000005
20
35.245418173963
30
0
41
1
10
-2.20000000000005
20
35.3258752465304
30
0
41
1
10
-2.20000000000005
20
35.4022826774255
30
0
41
1
10
-2.20000000000005
20
35.4986806355995
30
0
41
1
10
-2.20000000000005
20
35.5867654490802
30
0
41
1
10
-2.20000000000005
20
35.6662795296584
30
0
41
1
10
-2.20000000000005
20
35.7215711644677
30
0
41
1
10
-2.20000000000002
20
35.7724483817261
30
0
41
1
10
-2.20000000000005
20
35.8188423246858
30
0
41
1
10
-2.20000000000002
20
35.8606772530754
30
0
41
1
10
-2.20000000000005
20
35.8978764151195
30
0
41
1
10
-2.20000000000005
20
35.9303574291783
30
0
41
1
10
-2.20000000000005
20
35.9580338304475
30
0
41
1
10
-2.20000000000005
20
35.9808152416011
30
0
41
1
10
-2.20000000000002
20
35.9929120312367
30
0
41
1
10
-2.20000000000002
20
35.998160971879
30
0
41
1
10
-2.20000000000002
20
35.9983614566214
30
0
0
SPLINE
5
141
100
AcDbEntity
8
1
62
256
6
ByLayer
370
18
48
1
60
0
100
AcDbSpline
70
4
71
3
72
8
73
4
40
0
40
0
40
0
40
0
40
1
40
1
40
1
40
1
41
1
10
43.9149334755749
20
-54.8326848439951
30
0
41
1
10
43.7309582754876
20
-54.1302343421086
30
0
41
1
10
43.5472059124029
20
-53.427724391708
30
0
41
1
10
43.3637033051562
20
-52.7251478113794
30
0
0
SPLINE
5
142
100
AcDbEntity
8
1
62
256
6
ByLayer
370
18
48
1
60
0
100
AcDbSpline
70
2053
71
3
72
96
73
92
40
0
40
0
40
0
40
0
40
0.0312500000000007
40
0.0312500000000007
40
0.0468750000000009
40
0.0468750000000009
40
0.0625000000000012
40
0.0625000000000012
40
0.0937500000000016
40
0.0937500000000016
40
0.109375000000002
40
0.109375000000002
40
0.125000000000002
40
0.125000000000002
40
0.156250000000003
40
0.156250000000003
40
0.187500000000003
40
0.187500000000003
40
0.203125000000003
40
0.203125000000003
40
0.218750000000003
40
0.218750000000003
40
0.250000000000003
40
0.250000000000003
40
0.265625000000003
40
0.265625000000003
40
0.281250000000003
40
0.281250000000003
40
0.312500000000003
40
0.312500000000003
40
0.328125000000003
40
0.328125000000003
40
0.343750000000003
40
0.359375000000003
40
0.359375000000003
40
0.375000000000003
40
0.375000000000003
40
0.406250000000003
40
0.406250000000003
40
0.421875000000003
40
0.421875000000003
40
0.437500000000002
40
0.437500000000002
40
0.468750000000002
40
0.468750000000002
40
0.484375000000002
40
0.484375000000002
40
0.500000000000001
40
0.500000000000001
40
0.531250000000001
40
0.531250000000001
40
0.546875000000001
40
0.546875000000001
40
0.562500000000001
40
0.578125000000001
40
0.578125000000001
40
0.593750000000001
40
0.593750000000001
40
0.625
40
0.625
40
0.65625
40
0.65625
40
0.6875
40
0.6875
40
0.703125
40
0.703125
40
0.71875
40
0.734375
40
0.734375
40
0.749999999999999
40
0.749999999999999
40
0.781249999999999
40
0.781249999999999
40
0.812499999999999
40
0.812499999999999
40
0.843749999999999
40
0.843749999999999
40
0.859374999999999
40
0.859374999999999
40
0.874999999999999
40
0.874999999999999
40
0.906249999999999
40
0.906249999999999
40
0.921874999999999
40
0.921874999999999
40
0.9375
40
0.953125
40
0.953125
40
0.96875
40
0.96875
40
1
40
1
40
1
40
1
41
1
10
23.3476355397929
20
-1.29953796832416
30
0
41
1
10
23.2596100811427
20
-1.15721420962572
30
0
41
1
10
23.1873006877365
20
-1.00849904052038
30
0
41
1
10
23.1015952578563
20
-0.776165635124244
30
0
41
1
10
23.0768482207257
20
-0.6971662220582
30
0
41
1
10
23.0352059674354
20
-0.53597184481427
30
0
41
1
10
23.0183629696664
20
-0.453714182018473
30
0
41
1
10
22.9808260654339
20
-0.207727800414062
30
0
41
1
10
22.9724494809158
20
-0.0429316375053759
30
0
41
1
10
22.9848329255636
20
0.205469409323086
30
0
41
1
10
22.993234169761
20
0.288945669574446
30
0
41
1
10
23.0183399300766
20
0.453657488775576
30
0
41
1
10
23.0349681924715
20
0.534798414441866
30
0
41
1
10
23.0967434365279
20
0.77467680930917
30
0
41
1
10
23.1536629386449
20
0.929904969644269
30
0
41
1
10
23.3000618431051
20
1.23065990390657
30
0
41
1
10
23.3872912683598
20
1.37146490771744
30
0
41
1
10
23.5377246864412
20
1.56814519400433
30
0
41
1
10
23.5911835655798
20
1.63131587980138
30
0
41
1
10
23.7048557805771
20
1.7527895599213
30
0
41
1
10
23.7652097503436
20
1.81114735672534
30
0
41
1
10
23.9524767900809
20
1.97510477035445
30
0
41
1
10
24.0867220295764
20
2.07107271747682
30
0
41
1
10
24.301964468697
20
2.19535349050861
30
0
41
1
10
24.3764195270317
20
2.23364326527135
30
0
41
1
10
24.528234183834
20
2.3025503023953
30
0
41
1
10
24.605285340723
20
2.33307939502859
30
0
41
1
10
24.8397565167801
20
2.41328660312595
30
0
41
1
10
25.000464038537
20
2.45168843852889
30
0
41
1
10
25.2482286555386
20
2.4863059212922
30
0
41
1
10
25.3315594303539
20
2.49389194079808
30
0
41
1
10
25.4970872150234
20
2.5011114239075
30
0
41
1
10
25.662243084878
20
2.50049411601441
30
0
41
1
10
25.8266666531887
20
2.48444610374409
30
0
41
1
10
25.9907195016954
20
2.46058590740523
30
0
41
1
10
26.0729804128127
20
2.44463848727142
30
0
41
1
10
26.3157735870996
20
2.38547640170722
30
0
41
1
10
26.4717550609627
20
2.33139973869933
30
0
41
1
10
26.6971002526599
20
2.22880486119109
30
0
41
1
10
26.770767338608
20
2.19100130349531
30
0
41
1
10
26.9151113284838
20
2.10794686253129
30
0
41
1
10
26.9856688976859
20
2.0627010719179
30
0
41
1
10
27.1882277673162
20
1.91865257122805
30
0
41
1
10
27.3127975572753
20
1.81075144287189
30
0
41
1
10
27.4837346986485
20
1.6308421712296
30
0
41
1
10
27.5382317673384
20
1.5675948962523
30
0
41
1
10
27.640750510811
20
1.43582938508021
30
0
41
1
10
27.6883295552766
20
1.36793261296887
30
0
41
1
10
27.8202750187947
20
1.1583348072873
30
0
41
1
10
27.8939569945508
20
1.0107849424412
30
0
41
1
10
27.9821293678462
20
0.777218609581439
30
0
41
1
10
28.0077259779011
20
0.697217303908815
30
0
41
1
10
28.0501009606267
20
0.536853640229225
30
0
41
1
10
28.0840487222407
20
0.375198394816977
30
0
41
1
10
28.1013429533377
20
0.210990447040331
30
0
41
1
10
28.1101653886293
20
0.0454838302321718
30
0
41
1
10
28.110305067233
20
-0.0384082688320575
30
0
41
1
10
28.0976785240111
20
-0.288135984240313
30
0
41
1
10
28.0722764346115
20
-0.45134240500829
30
0
41
1
10
27.9885300100646
20
-0.77139721279508
30
0
41
1
10
27.9292762381397
20
-0.929451037798543
30
0
41
1
10
27.7824096436574
20
-1.2259715170909
30
0
41
1
10
27.6946721319273
20
-1.36596819560012
30
0
41
1
10
27.5415794285229
20
-1.5635580016945
30
0
41
1
10
27.4870045935904
20
-1.62716998286476
30
0
41
1
10
27.3730292526953
20
-1.74757573896824
30
0
41
1
10
27.2536978291949
20
-1.86187901391705
30
0
41
1
10
27.1238899344389
20
-1.96425000129511
30
0
41
1
10
26.9888088042456
20
-2.0606170415989
30
0
41
1
10
26.9182421784131
20
-2.10600498477041
30
0
41
1
10
26.7020403600745
20
-2.23081786388778
30
0
41
1
10
26.5518078714024
20
-2.29934759818877
30
0
41
1
10
26.2394986371425
20
-2.40791142465687
30
0
41
1
10
26.0757899480777
20
-2.44799910399848
30
0
41
1
10
25.7482164495767
20
-2.4960657641137
30
0
41
1
10
25.5834818007778
20
-2.50465819646385
30
0
41
1
10
25.3349432135882
20
-2.49414676232178
30
0
41
1
10
25.2514038411588
20
-2.48664075370769
30
0
41
1
10
25.0864553163327
20
-2.46380762148991
30
0
41
1
10
25.0050810939905
20
-2.44854186746761
30
0
41
1
10
24.7641888932303
20
-2.39143927981635
30
0
41
1
10
24.6078706347444
20
-2.33840498829585
30
0
41
1
10
24.3800793599397
20
-2.23544490514246
30
0
41
1
10
24.3055096984526
20
-2.1972458272634
30
0
41
1
10
24.1619070608538
20
-2.11463206780891
30
0
41
1
10
24.0230159107713
20
-2.0254470939181
30
0
41
1
10
23.8934637739351
20
-1.92323258417122
30
0
41
1
10
23.7686728303912
20
-1.81437307656708
30
0
41
1
10
23.7084187160575
20
-1.75635963202666
30
0
41
1
10
23.5369427842859
20
-1.5738076203148
30
0
41
1
10
23.435660998443
20
-1.4418617270226
30
0
41
1
10
23.3476355397929
20
-1.29953796832416
30
0
0
SPLINE
5
143
100
AcDbEntity
8
1
62
256
6
ByLayer
370
18
48
1
60
0
100
AcDbSpline
70
4
71
3
72
16
73
12
40
0
40
0
40
0
40
0
40
0.249999999999997
40
0.249999999999997
40
0.499999999999994
40
0.499999999999994
40
0.749999999999992
40
0.749999999999992
40
0.874999999999996
40
0.874999999999996
40
1
40
1
40
1
40
1
41
1
10
18.6443375672974
20
15.5133461831292
30
0
41
1
10
18.628663043577
20
15.4563493271807
30
0
41
1
10
18.609922401016
20
15.4004782360281
30
0
41
1
10
18.5642089472352
20
15.2917910897777
30
0
41
1
10
18.5371631998436
20
15.2385985420777
30
0
41
1
10
18.4704947598566
20
15.1387566028337
30
0
41
1
10
18.4307979975499
20
15.0918966685263
30
0
41
1
10
18.358270983099
20
15.0372961905784
30
0
41
1
10
18.3313299686496
20
15.0214912132591
30
0
41
1
10
18.273779935704
20
14.9994509315929
30
0
41
1
10
18.2427481222217
20
14.9931545155676
30
0
41
1
10
18.2113248654052
20
14.9931545155676
30
0
0
SPLINE
5
144
100
AcDbEntity
8
1
62
256
6
ByLayer
370
18
48
1
60
0
100
AcDbSpline
70
4
71
3
72
16
73
12
40
0
40
0
40
0
40
0
40
0.124999999999998
40
0.124999999999998
40
0.249999999999996
40
0.249999999999996
40
0.499999999999997
40
0.499999999999997
40
0.749999999999999
40
0.749999999999999
40
1
40
1
40
1
40
1
41
1
10
13.7886751345947
20
-47.6991123363141
30
0
41
1
10
13.7572057460936
20
-47.6991123363141
30
0
41
1
10
13.7265863249372
20
-47.6971731220928
30
0
41
1
10
13.6685627993564
20
-47.690189691897
30
0
41
1
10
13.642171873473
20
-47.685321932856
30
0
41
1
10
13.5684767776432
20
-47.667809632057
30
0
41
1
10
13.5294867796769
20
-47.653121253563
30
0
41
1
10
13.4628524690448
20
-47.6213036484293
30
0
41
1
10
13.4360331579795
20
-47.6044110998707
30
0
41
1
10
13.3902293919743
20
-47.5693355727223
30
0
41
1
10
13.3713425683517
20
-47.5510829903643
30
0
41
1
10
13.3556624327025
20
-47.5324740593459
30
0
0
SPLINE
5
145
100
AcDbEntity
8
1
62
256
6
ByLayer
370
18
48
1
60
0
100
AcDbSpline
70
4
71
3
72
16
73
12
40
0
40
0
40
0
40
0
40
0.25
40
0.25
40
0.5
40
0.5
40
0.75
40
0.75
40
0.875
40
0.875
40
1
40
1
40
1
40
1
41
1
10
18.6443375672974
20
-47.5324740593459
30
0
41
1
10
18.6286630435769
20
-47.5510763302181
30
0
41
1
10
18.609922401016
20
-47.5691972862267
30
0
41
1
10
18.5642089472351
20
-47.6042475586048
30
0
41
1
10
18.5371631998436
20
-47.6212962856129
30
0
41
1
10
18.4704947598566
20
-47.6531299493423
30
0
41
1
10
18.4307979975498
20
-47.6679778471912
30
0
41
1
10
18.358270983099
20
-47.685218753302
30
0
41
1
10
18.3313299686496
20
-47.6901974749824
30
0
41
1
10
18.2737799357039
20
-47.6971341405705
30
0
41
1
10
18.2427481222217
20
-47.6991123363141
30
0
41
1
10
18.2113248654052
20
-47.6991123363141
30
0
0
SPLINE
5
146
100
AcDbEntity
8
1
62
256
6
ByLayer
370
18
48
1
60
0
100
AcDbSpline
70
4
71
3
72
20
73
16
40
0
40
0
40
0
40
0
40
0.249999999999999
40
0.249999999999999
40
0.374999999999999
40
0.374999999999999
40
0.499999999999999
40
0.499999999999999
40
0.625
40
0.625
40
0.75
40
0.75
40
0.875
40
0.875
40
1
40
1
40
1
40
1
41
1
10
34.9537631647734
20
-48.7398222719571
30
0
41
1
10
34.977941073978
20
-47.089721059065
30
0
41
1
10
35.0221576457411
20
-45.4409942126058
30
0
41
1
10
35.1445927411309
20
-42.9713033227648
30
0
41
1
10
35.1950136714013
20
-42.148024385477
30
0
41
1
10
35.3225572656491
20
-40.505840268226
30
0
41
1
10
35.3995989310807
20
-39.6880258861184
30
0
41
1
10
35.5900804496266
20
-38.060824964757
30
0
41
1
10
35.7036114074921
20
-37.2514658027585
30
0
41
1
10
35.9781923394652
20
-35.6428887411528
30
0
41
1
10
36.1394798739799
20
-34.8437247187489
30
0
41
1
10
36.5172185755998
20
-33.2558672882593
30
0
41
1
10
36.7339951259338
20
-32.467227593274
30
0
41
1
10
37.2179532774872
20
-30.8975901635622
30
0
41
1
10
37.4852040228528
20
-30.1165687965287
30
0
41
1
10
37.7653246960699
20
-29.3359885152291
30
0
0
SPLINE
5
147
100
AcDbEntity
8
1
62
256
6
ByLayer
370
18
48
1
60
0
100
AcDbSpline
70
4
71
3
72
16
73
12
40
0
40
0
40
0
40
0
40
0.124999999999994
40
0.124999999999994
40
0.249999999999989
40
0.249999999999989
40
0.499999999999993
40
0.499999999999993
40
0.749999999999996
40
0.749999999999996
40
1
40
1
40
1
40
1
41
1
10
18.2113248654052
20
47.6991123363142
30
0
41
1
10
18.2427942539063
20
47.6991123363142
30
0
41
1
10
18.2734136750628
20
47.697173122093
30
0
41
1
10
18.3314372006435
20
47.6901896918972
30
0
41
1
10
18.357828126527
20
47.6853219328561
30
0
41
1
10
18.4315232223568
20
47.6678096320571
30
0
41
1
10
18.470513220323
20
47.6531212535631
30
0
41
1
10
18.5371475309551
20
47.6213036484294
30
0
41
1
10
18.5639668420204
20
47.6044110998708
30
0
41
1
10
18.6097706080256
20
47.5693355727224
30
0
41
1
10
18.6286574316482
20
47.5510829903644
30
0
41
1
10
18.6443375672974
20
47.532474059346
30
0
0
SPLINE
5
148
100
AcDbEntity
8
1
62
256
6
ByLayer
370
18
48
1
60
0
100
AcDbSpline
70
4
71
3
72
12
73
8
40
0
40
0
40
0
40
0
40
0.5
40
0.5
40
0.75
40
0.75
40
1
40
1
40
1
40
1
41
1
10
38.6438941879226
20
-49.6348242934235
30
0
41
1
10
38.2838725915297
20
-49.6308859931766
30
0
41
1
10
37.9361714943303
20
-49.6199848660962
30
0
41
1
10
37.432496268482
20
-49.5925619403322
30
0
41
1
10
37.2670901352786
20
-49.5814699023328
30
0
41
1
10
36.9505708075262
20
-49.5557057259249
30
0
41
1
10
36.7984549864653
20
-49.5409950603834
30
0
41
1
10
36.652507362271
20
-49.5242682494006
30
0
0
SPLINE
5
149
100
AcDbEntity
8
1
62
256
6
ByLayer
370
18
48
1
60
0
100
AcDbSpline
70
4
71
3
72
12
73
8
40
0
40
0
40
0
40
0
40
0.500000000000002
40
0.500000000000002
40
0.750000000000001
40
0.750000000000001
40
1
40
1
40
1
40
1
41
1
10
36.652507362271
20
-49.5242682494007
30
0
41
1
10
36.5809812688874
20
-49.4629621882194
30
0
41
1
10
36.502844237384
20
-49.4140018048704
30
0
41
1
10
36.38481018225
20
-49.3597174472602
30
0
41
1
10
36.3451699695111
20
-49.3446747695236
30
0
41
1
10
36.2656024891496
20
-49.320267639939
30
0
41
1
10
36.2255150280252
20
-49.3108974383255
30
0
41
1
10
36.1861384096168
20
-49.3043771413115
30
0
0
SPLINE
5
14A
100
AcDbEntity
8
1
62
256
6
ByLayer
370
18
48
1
60
0
100
AcDbSpline
70
4
71
3
72
10
73
6
40
0
40
0
40
0
40
0
40
0.5
40
0.5
40
1
40
1
40
1
40
1
41
1
10
36.1861384096166
20
48.9223456925297
30
0
41
1
10
36.2682594827601
20
48.9297930384838
30
0
41
1
10
36.3499520298839
20
48.9492456246588
30
0
41
1
10
36.5091851602345
20
49.0129894257993
30
0
41
1
10
36.5837011893991
20
49.0559459089292
30
0
41
1
10
36.6525073622711
20
49.1104807233473
30
0
0
SPLINE
5
14B
100
AcDbEntity
8
1
62
256
6
ByLayer
370
18
48
1
60
0
100
AcDbSpline
70
4
71
3
72
16
73
12
40
0
40
0
40
0
40
0
40
0.25
40
0.25
40
0.500000000000001
40
0.500000000000001
40
0.750000000000001
40
0.750000000000001
40
0.875
40
0.875
40
1
40
1
40
1
40
1
41
1
10
13.3556624327026
20
-15.5133461831291
30
0
41
1
10
13.371336956423
20
-15.4563493271806
30
0
41
1
10
13.390077598984
20
-15.400478236028
30
0
41
1
10
13.4357910527648
20
-15.2917910897776
30
0
41
1
10
13.4628368001563
20
-15.2385985420777
30
0
41
1
10
13.5295052401434
20
-15.1387566028337
30
0
41
1
10
13.5692020024501
20
-15.0918966685263
30
0
41
1
10
13.641729016901
20
-15.0372961905783
30
0
41
1
10
13.6686700313504
20
-15.021491213259
30
0
41
1
10
13.726220064296
20
-14.9994509315928
30
0
41
1
10
13.7572518777782
20
-14.9931545155676
30
0
41
1
10
13.7886751345947
20
-14.9931545155675
30
0
0
SPLINE
5
14C
100
AcDbEntity
8
1
62
256
6
ByLayer
370
18
48
1
60
0
100
AcDbSpline
70
4
71
3
72
8
73
4
40
0
40
0
40
0
40
0
40
1
40
1
40
1
40
1
41
1
10
36.6525073622711
20
49.1104807233473
30
0
41
1
10
37.0156706438822
20
49.1322372127612
30
0
41
1
10
37.3866017620969
20
49.1428784260752
30
0
41
1
10
37.7653246960698
20
49.1428784260752
30
0
0
SPLINE
5
14D
100
AcDbEntity
8
1
62
256
6
ByLayer
370
18
48
1
60
0
100
AcDbSpline
70
4
71
3
72
16
73
12
40
0
40
0
40
0
40
0
40
0.249999999999999
40
0.249999999999999
40
0.499999999999997
40
0.499999999999997
40
0.749999999999996
40
0.749999999999996
40
0.874999999999998
40
0.874999999999998
40
1
40
1
40
1
40
1
41
1
10
13.3556624327026
20
47.532474059346
30
0
41
1
10
13.371336956423
20
47.5510763302182
30
0
41
1
10
13.390077598984
20
47.5691972862268
30
0
41
1
10
13.4357910527648
20
47.6042475586049
30
0
41
1
10
13.4628368001563
20
47.621296285613
30
0
41
1
10
13.5295052401434
20
47.6531299493424
30
0
41
1
10
13.5692020024501
20
47.6679778471913
30
0
41
1
10
13.6417290169009
20
47.6852187533021
30
0
41
1
10
13.6686700313504
20
47.6901974749825
30
0
41
1
10
13.726220064296
20
47.6971341405706
30
0
41
1
10
13.7572518777782
20
47.6991123363142
30
0
41
1
10
13.7886751345948
20
47.6991123363142
30
0
0
SPLINE
5
14E
100
AcDbEntity
8
1
62
256
6
ByLayer
370
18
48
1
60
0
100
AcDbSpline
70
4
71
3
72
16
73
12
40
0
40
0
40
0
40
0
40
0.250000000000004
40
0.250000000000004
40
0.375000000000003
40
0.375000000000003
40
0.500000000000002
40
0.500000000000002
40
0.750000000000001
40
0.750000000000001
40
1
40
1
40
1
40
1
41
1
10
36.1861384096167
20
-49.3043771413118
30
0
41
1
10
35.9939165546795
20
-49.2725475013524
30
0
41
1
10
35.8241947553209
20
-49.2369940280096
30
0
41
1
10
35.6010217032004
20
-49.1775190347003
30
0
41
1
10
35.5319061648893
20
-49.1566646732608
30
0
41
1
10
35.4042854094822
20
-49.1127373907738
30
0
41
1
10
35.3456202608243
20
-49.0895618844797
30
0
41
1
10
35.1889728310256
20
-49.0178977404216
30
0
41
1
10
35.1089288835279
20
-48.9669426564284
30
0
41
1
10
34.9955155606089
20
-48.8581713420131
30
0
41
1
10
34.9623895449763
20
-48.7999713091768
30
0
41
1
10
34.9537631647734
20
-48.7398222719571
30
0
0
SPLINE
5
14F
100
AcDbEntity
8
1
62
256
6
ByLayer
370
18
48
1
60
0
100
AcDbSpline
70
4
71
3
72
10
73
6
40
0
40
0
40
0
40
0
40
0.0111253049901996
40
0.0111253049901996
40
1
40
1
40
1
40
1
41
1
10
43.6192786460217
20
-54.0685304166142
30
0
41
1
10
43.620016732455
20
-54.0713011306363
30
0
41
1
10
43.6207588784879
20
-54.0740725595656
30
0
41
1
10
43.6878316456028
20
-54.3232471867765
30
0
41
1
10
43.7862114053545
20
-54.5752943310708
30
0
41
1
10
43.9149334755748
20
-54.8326848439952
30
0
0
SPLINE
5
150
100
AcDbEntity
8
1
62
256
6
ByLayer
370
18
48
1
60
0
100
AcDbSpline
70
4
71
3
72
16
73
12
40
0
40
0
40
0
40
0
40
0.124999999999994
40
0.124999999999994
40
0.249999999999989
40
0.249999999999989
40
0.499999999999993
40
0.499999999999993
40
0.749999999999996
40
0.749999999999996
40
1
40
1
40
1
40
1
41
1
10
18.2113248654052
20
-14.9931545155676
30
0
41
1
10
18.2427942539063
20
-14.9931545155676
30
0
41
1
10
18.2734136750628
20
-14.9993270329221
30
0
41
1
10
18.3314372006435
20
-15.0215159830932
30
0
41
1
10
18.357828126527
20
-15.036969375306
30
0
41
1
10
18.4315232223568
20
-15.092429500184
30
0
41
1
10
18.470513220323
20
-15.1387838835225
30
0
41
1
10
18.5371475309551
20
-15.2385754420443
30
0
41
1
10
18.5639668420204
20
-15.2912821270174
30
0
41
1
10
18.6097706080256
20
-15.4000512474234
30
0
41
1
10
18.6286574316482
20
-15.4563289206725
30
0
41
1
10
18.6443375672974
20
-15.513346183129
30
0
0
SPLINE
5
151
100
AcDbEntity
8
1
62
256
6
ByLayer
370
18
48
1
60
0
100
AcDbSpline
70
4
71
3
72
28
73
24
40
0
40
0
40
0
40
0
40
0.124999999999998
40
0.124999999999998
40
0.187499999999999
40
0.187499999999999
40
0.25
40
0.25
40
0.374999999999999
40
0.374999999999999
40
0.437499999999998
40
0.437499999999998
40
0.499999999999997
40
0.499999999999997
40
0.624999999999996
40
0.624999999999996
40
0.749999999999995
40
0.749999999999995
40
0.812499999999996
40
0.812499999999996
40
0.874999999999998
40
0.874999999999998
40
1
40
1
40
1
40
1
41
1
10
43.3637033051562
20
-52.7251478113794
30
0
41
1
10
43.3081816213757
20
-52.5125718959204
30
0
41
1
10
43.2361762368053
20
-52.3045770378245
30
0
41
1
10
43.1026646117108
20
-51.9996725532887
30
0
41
1
10
43.0539505753148
20
-51.899475822718
30
0
41
1
10
42.9496662451342
20
-51.7049071351137
30
0
41
1
10
42.8939150691152
20
-51.6101045170036
30
0
41
1
10
42.7159816849094
20
-51.3330406341698
30
0
41
1
10
42.5831915745906
20
-51.1580738619761
30
0
41
1
10
42.3620653835555
20
-50.9107113850223
30
0
41
1
10
42.2843164314061
20
-50.8304661015155
30
0
41
1
10
42.1237700471686
20
-50.6776731146864
30
0
41
1
10
42.0408469378791
20
-50.6049227858864
30
0
41
1
10
41.7842526358349
20
-50.3974386054322
30
0
41
1
10
41.6028095760352
20
-50.2733984867453
30
0
41
1
10
41.2185579283098
20
-50.0547162371598
30
0
41
1
10
41.0146538440734
20
-49.9599504124482
30
0
41
1
10
40.7015563776971
20
-49.8454350074808
30
0
41
1
10
40.5956441352721
20
-49.8116527521973
30
0
41
1
10
40.3806822368321
20
-49.7529938557423
30
0
41
1
10
40.2711803535862
20
-49.7280481008724
30
0
41
1
10
39.9419923419977
20
-49.667731228817
30
0
41
1
10
39.7215043391759
20
-49.646545537863
30
0
41
1
10
39.4999999999999
20
-49.6441452654089
30
0
0
SPLINE
5
152
100
AcDbEntity
8
1
62
256
6
ByLayer
370
18
48
1
60
0
100
AcDbSpline
70
4
71
3
72
16
73
12
40
0
40
0
40
0
40
0
40
0.25
40
0.25
40
0.375
40
0.375
40
0.499999999999999
40
0.499999999999999
40
0.75
40
0.75
40
1
40
1
40
1
40
1
41
1
10
34.9537631647734
20
-48.7398222719571
30
0
41
1
10
34.7841541958605
20
-48.7014636635544
30
0
41
1
10
34.6318408508318
20
-48.6593033460026
30
0
41
1
10
34.4284024467699
20
-48.5898898373617
30
0
41
1
10
34.3647861136056
20
-48.5657183973989
30
0
41
1
10
34.2460844653195
20
-48.5151678979176
30
0
41
1
10
34.1911209818684
20
-48.4888047597996
30
0
41
1
10
34.0420666738061
20
-48.407799526671
30
0
41
1
10
33.9625018004174
20
-48.3507686206714
30
0
41
1
10
33.8419065180919
20
-48.2302287381599
30
0
41
1
10
33.8009078745133
20
-48.1663644813588
30
0
41
1
10
33.7805459037029
20
-48.1003108639833
30
0
0
SPLINE
5
153
100
AcDbEntity
8
1
62
256
6
ByLayer
370
18
48
1
60
0
100
AcDbSpline
70
4
71
3
72
16
73
12
40
0
40
0
40
0
40
0
40
0.125
40
0.125
40
0.249999999999999
40
0.249999999999999
40
0.499999999999999
40
0.499999999999999
40
0.75
40
0.75
40
1
40
1
40
1
40
1
41
1
10
13.7886751345948
20
14.9931545155677
30
0
41
1
10
13.7572057460936
20
14.9931545155677
30
0
41
1
10
13.7265863249372
20
14.9993270329223
30
0
41
1
10
13.6685627993564
20
15.0215159830933
30
0
41
1
10
13.642171873473
20
15.0369693753062
30
0
41
1
10
13.5684767776432
20
15.0924295001841
30
0
41
1
10
13.529486779677
20
15.1387838835226
30
0
41
1
10
13.4628524690449
20
15.2385754420444
30
0
41
1
10
13.4360331579795
20
15.2912821270176
30
0
41
1
10
13.3902293919743
20
15.4000512474235
30
0
41
1
10
13.3713425683518
20
15.4563289206726
30
0
41
1
10
13.3556624327025
20
15.5133461831292
30
0
0
SPLINE
5
154
100
AcDbEntity
8
1
62
256
6
ByLayer
370
18
48
1
60
0
100
AcDbSpline
70
4
71
3
72
22
73
18
40
0
40
0
40
0
40
0
40
0.250000000000002
40
0.250000000000002
40
0.375000000000004
40
0.375000000000004
40
0.500000000000006
40
0.500000000000006
40
0.625000000000008
40
0.625000000000008
40
0.687500000000008
40
0.687500000000008
40
0.750000000000008
40
0.750000000000008
40
0.875000000000004
40
0.875000000000004
40
1
40
1
40
1
40
1
41
1
10
33.7805459037029
20
48.1003108639834
30
0
41
1
10
33.8115432744114
20
48.200865396916
30
0
41
1
10
33.888446972798
20
48.2942967345146
30
0
41
1
10
34.0725427380866
20
48.424855892163
30
0
41
1
10
34.1461989487114
20
48.4670343571602
30
0
41
1
10
34.3136819867016
20
48.5461619510374
30
0
41
1
10
34.4075741598898
20
48.5833042113421
30
0
41
1
10
34.6155362575898
20
48.6531357441775
30
0
41
1
10
34.729602391792
20
48.6858246147281
30
0
41
1
10
34.9165528809402
20
48.7316651317666
30
0
41
1
10
34.9814966935984
20
48.746393887596
30
0
41
1
10
35.1146531454204
20
48.7743639705404
30
0
41
1
10
35.1831100867461
20
48.7876676902827
30
0
41
1
10
35.3940389082295
20
48.8256392190023
30
0
41
1
10
35.5420436217506
20
48.848376625456
30
0
41
1
10
35.8530152673846
20
48.8890185525445
30
0
41
1
10
36.0167983500687
20
48.9069886841631
30
0
41
1
10
36.1861384096167
20
48.9223456925298
30
0
0
SPLINE
5
155
100
AcDbEntity
8
1
62
256
6
ByLayer
370
18
48
1
60
0
100
AcDbSpline
70
4
71
3
72
16
73
12
40
0
40
0
40
0
40
0
40
0.0915354358990458
40
0.0915354358990458
40
0.276642368561029
40
0.276642368561029
40
0.646856233884996
40
0.646856233884996
40
0.83196316654698
40
0.83196316654698
40
1
40
1
40
1
40
1
41
1
10
103.859807364252
20
-49.7331085129047
30
0
41
1
10
103.889923930909
20
-49.7851769702305
30
0
41
1
10
103.919004270563
20
-49.8379853475324
30
0
41
1
10
104.003735725972
20
-49.9998432921265
30
0
41
1
10
104.056328397352
20
-50.111689080696
30
0
41
1
10
104.198394720304
20
-50.4505058798453
30
0
41
1
10
104.273146981944
20
-50.6820602591891
30
0
41
1
10
104.356498370237
20
-51.0376111764959
30
0
41
1
10
104.37946144167
20
-51.1575051766206
30
0
41
1
10
104.413997572968
20
-51.3888942626892
30
0
41
1
10
104.426401118471
20
-51.5004055390318
30
0
41
1
10
104.43465534958
20
-51.6112435024211
30
0
0
SPLINE
5
156
100
AcDbEntity
8
1
62
256
6
ByLayer
370
18
48
1
60
0
100
AcDbSpline
70
4
71
3
72
10
73
6
40
0
40
0
40
0
40
0
40
0.0059638447579567
40
0.0059638447579567
40
1
40
1
40
1
40
1
41
1
10
97.9506683179711
20
-55.5488777256384
30
0
41
1
10
97.9500395555433
20
-55.5485096223257
30
0
41
1
10
97.9494109258038
20
-55.5481413803363
30
0
41
1
10
97.8440264457383
20
-55.4863724267827
30
0
41
1
10
97.7424520272222
20
-55.4208888047551
30
0
41
1
10
97.6440103899177
20
-55.3513815581161
30
0
0
SPLINE
5
157
100
AcDbEntity
8
1
62
256
6
ByLayer
370
18
48
1
60
0
100
AcDbSpline
70
4
71
3
72
16
73
12
40
0
40
0
40
0
40
0
40
0.349113221500654
40
0.349113221500654
40
0.523669832250982
40
0.523669832250982
40
0.698226443001309
40
0.698226443001309
40
0.872783053751636
40
0.872783053751636
40
1
40
1
40
1
40
1
41
1
10
97.6440103899177
20
-55.3513815581161
30
0
41
1
10
97.4155032704336
20
-55.1578135628594
30
0
41
1
10
97.2137132668182
20
-54.9447100355719
30
0
41
1
10
96.9496992659914
20
-54.5990128921233
30
0
41
1
10
96.8681955621242
20
-54.4794092361409
30
0
41
1
10
96.7186365392304
20
-54.2318140886923
30
0
41
1
10
96.6515546381893
20
-54.1053150840926
30
0
41
1
10
96.5337204481638
20
-53.8509773842069
30
0
41
1
10
96.482710623731
20
-53.7226852446605
30
0
41
1
10
96.4080600211728
20
-53.5008640916508
30
0
41
1
10
96.3807409435477
20
-53.4072733243005
30
0
41
1
10
96.3576793396338
20
-53.3146030183353
30
0
0
SPLINE
5
158
100
AcDbEntity
8
1
62
256
6
ByLayer
370
18
48
1
60
0
100
AcDbSpline
70
4
71
3
72
8
73
4
40
0
40
0
40
0
40
0
40
1
40
1
40
1
40
1
41
1
10
96.5488631492608
20
-54.3912319650834
30
0
41
1
10
96.8298195899219
20
-54.6255106146203
30
0
41
1
10
97.1052774971751
20
-54.8562580755281
30
0
41
1
10
97.3786705737089
20
-55.0856794907041
30
0
0
SPLINE
5
159
100
AcDbEntity
8
1
62
256
6
ByLayer
370
18
48
1
60
0
100
AcDbSpline
70
4
71
3
72
8
73
4
40
0
40
0
40
0
40
0
40
1
40
1
40
1
40
1
41
1
10
103.189596692431
20
-55.9592082135839
30
0
41
1
10
103.271181558606
20
-56.0741414675248
30
0
41
1
10
103.352726708975
20
-56.1890562887198
30
0
41
1
10
103.434244341862
20
-56.3039583317926
30
0
0
SPLINE
5
15A
100
AcDbEntity
8
1
62
256
6
ByLayer
370
18
48
1
60
0
100
AcDbSpline
70
4
71
3
72
8
73
4
40
0
40
0
40
0
40
0
40
1
40
1
40
1
40
1
41
1
10
104.747261451371
20
-54.5560518590008
30
0
41
1
10
104.601161986941
20
-54.5271220401752
30
0
41
1
10
104.455043926856
20
-54.4981675663666
30
0
41
1
10
104.308899039402
20
-54.46917750255
30
0
0
SPLINE
5
15B
100
AcDbEntity
8
1
62
256
6
ByLayer
370
18
48
1
60
0
100
AcDbSpline
70
4
71
3
72
8
73
4
40
0
40
0
40
0
40
0
40
1
40
1
40
1
40
1
41
1
10
98.1361279670193
20
-49.6714601193139
30
0
41
1
10
98.2421535778438
20
-49.8288112253661
30
0
41
1
10
98.3482033204316
20
-49.9861692453019
30
0
41
1
10
98.4542878878287
20
-50.1435372265302
30
0
0
SPLINE
5
15C
100
AcDbEntity
8
1
62
256
6
ByLayer
370
18
48
1
60
0
100
AcDbSpline
70
4
71
3
72
8
73
4
40
0
40
0
40
0
40
0
40
1
40
1
40
1
40
1
41
1
10
97.3349855408578
20
-51.6335679375641
30
0
41
1
10
97.1643409521808
20
-51.5621431464601
30
0
41
1
10
96.9937182998782
20
-51.4907454739106
30
0
41
1
10
96.8231108575104
20
-51.4193665921058
30
0
0
SPLINE
5
15D
100
AcDbEntity
8
1
62
256
6
ByLayer
370
18
48
1
60
0
100
AcDbSpline
70
4
71
3
72
10
73
6
40
0
40
0
40
0
40
0
40
0.5
40
0.5
40
1
40
1
40
1
40
1
41
1
10
80.9482888433416
20
-38.5077321682214
30
0
41
1
10
80.9261895111532
20
-38.6553832786139
30
0
41
1
10
80.9041430415773
20
-38.8060431292976
30
0
41
1
10
80.8609955373823
20
-39.1097436115644
30
0
41
1
10
80.8398668853601
20
-39.2629618854899
30
0
41
1
10
80.8192679714006
20
-39.4178083304294
30
0
0
SPLINE
5
15E
100
AcDbEntity
8
1
62
256
6
ByLayer
370
18
48
1
60
0
100
AcDbSpline
70
4
71
3
72
10
73
6
40
0
40
0
40
0
40
0
40
0.5
40
0.5
40
1
40
1
40
1
40
1
41
1
10
84.3648186762008
20
-37.8846105332264
30
0
41
1
10
84.2383671458045
20
-37.792518139829
30
0
41
1
10
84.1118930061512
20
-37.7010342618757
30
0
41
1
10
83.8645011754934
20
-37.5231168535935
30
0
41
1
10
83.7430330497716
20
-37.4362750102216
30
0
41
1
10
83.6232267974206
20
-37.3510122901793
30
0
0
SPLINE
5
15F
100
AcDbEntity
8
1
62
256
6
ByLayer
370
18
48
1
60
0
100
AcDbSpline
70
4
71
3
72
8
73
4
40
0
40
0
40
0
40
0
40
1
40
1
40
1
40
1
41
1
10
84.708914329643
20
-42.2916475165155
30
0
41
1
10
85.0095849751612
20
-42.1675210839276
30
0
41
1
10
85.3036980909031
20
-42.0514586947097
30
0
41
1
10
85.5939469821512
20
-41.9401455998896
30
0
0
SPLINE
5
160
100
AcDbEntity
8
1
62
256
6
ByLayer
370
18
48
1
60
0
100
AcDbSpline
70
4
71
3
72
10
73
6
40
0
40
0
40
0
40
0
40
0.5
40
0.5
40
1
40
1
40
1
40
1
41
1
10
85.9460558668254
20
-39.0672190060134
30
0
41
1
10
85.819316478267
20
-38.9703133920376
30
0
41
1
10
85.6915706366989
20
-38.8730162368907
30
0
41
1
10
85.4333709111501
20
-38.6773684148216
30
0
41
1
10
85.3041348168047
20
-38.5799469363431
30
0
41
1
10
85.1756241844716
20
-38.4836687578965
30
0
0
SPLINE
5
161
100
AcDbEntity
8
1
62
256
6
ByLayer
370
18
48
1
60
0
100
AcDbSpline
70
4
71
3
72
10
73
6
40
0
40
0
40
0
40
0
40
0.5
40
0.5
40
1
40
1
40
1
40
1
41
1
10
83.6232267974206
20
-37.3510122901793
30
0
41
1
10
83.4771237990153
20
-37.4070441214985
30
0
41
1
10
83.3291280691083
20
-37.4646472039155
30
0
41
1
10
83.033586345442
20
-37.5818679059008
30
0
41
1
10
82.8858623537888
20
-37.6415520601918
30
0
41
1
10
82.7381941449126
20
-37.7025142068052
30
0
0
SPLINE
5
162
100
AcDbEntity
8
1
62
256
6
ByLayer
370
18
48
1
60
0
100
AcDbSpline
70
4
71
3
72
8
73
4
40
0
40
0
40
0
40
0
40
1
40
1
40
1
40
1
41
1
10
80.6963610270346
20
-40.4206305948196
30
0
41
1
10
80.6598635314981
20
-40.7453470386122
30
0
41
1
10
80.626962720125
20
-41.0646100962279
30
0
41
1
10
80.5961799586673
20
-41.3806587620976
30
0
0
SPLINE
5
163
100
AcDbEntity
8
1
62
256
6
ByLayer
370
18
48
1
60
0
100
AcDbSpline
70
4
71
3
72
8
73
4
40
0
40
0
40
0
40
0
40
1
40
1
40
1
40
1
41
1
10
81.8044816922759
20
-38.1062782465255
30
0
41
1
10
81.5092554749725
20
-38.2398347053997
30
0
41
1
10
81.2254178606806
20
-38.3736947852019
30
0
41
1
10
80.9482888433416
20
-38.5077321682214
30
0
0
SPLINE
5
164
100
AcDbEntity
8
1
62
256
6
ByLayer
370
18
48
1
60
0
100
AcDbSpline
70
4
71
3
72
10
73
6
40
0
40
0
40
0
40
0
40
0.5
40
0.5
40
1
40
1
40
1
40
1
41
1
10
82.9190090280721
20
-43.0968654779317
30
0
41
1
10
83.0585078568332
20
-43.0293948892472
30
0
41
1
10
83.2005949928465
20
-42.9615578220047
30
0
41
1
10
83.4863606808588
20
-42.8274045295702
30
0
41
1
10
83.630207587167
20
-42.7610050664763
30
0
41
1
10
83.7752018770065
20
-42.6954115562359
30
0
0
SPLINE
5
165
100
AcDbEntity
8
1
62
256
6
ByLayer
370
18
48
1
60
0
100
AcDbSpline
70
4
71
3
72
10
73
6
40
0
40
0
40
0
40
0
40
0.5
40
0.5
40
1
40
1
40
1
40
1
41
1
10
85.5939469821512
20
-41.9401455998896
30
0
41
1
10
85.6094421446954
20
-41.7810557321317
30
0
41
1
10
85.6255800203774
20
-41.6201618966226
30
0
41
1
10
85.6589514889185
20
-41.2995288239066
30
0
41
1
10
85.6762030555957
20
-41.1395952411782
30
0
41
1
10
85.6941280505185
20
-40.9801174326117
30
0
0
SPLINE
5
166
100
AcDbEntity
8
1
62
256
6
ByLayer
370
18
48
1
60
0
100
AcDbSpline
70
4
71
3
72
8
73
4
40
0
40
0
40
0
40
0
40
1
40
1
40
1
40
1
41
1
10
85.8170349948844
20
-39.9772951682214
30
0
41
1
10
85.8589769186357
20
-39.6620087507151
30
0
41
1
10
85.9021532314586
20
-39.3605433836837
30
0
41
1
10
85.9460558668254
20
-39.0672190060134
30
0
0
SPLINE
5
167
100
AcDbEntity
8
1
62
256
6
ByLayer
370
18
48
1
60
0
100
AcDbSpline
70
4
71
3
72
10
73
6
40
0
40
0
40
0
40
0
40
0.5
40
0.5
40
1
40
1
40
1
40
1
41
1
10
82.9190090280721
20
-43.0968654779317
30
0
41
1
10
82.7922696395137
20
-42.9999598639558
30
0
41
1
10
82.6645237979456
20
-42.9026627088089
30
0
41
1
10
82.4063240723968
20
-42.7070148867399
30
0
41
1
10
82.2770879780514
20
-42.6095934082613
30
0
41
1
10
82.1485773457182
20
-42.5133152298147
30
0
0
SPLINE
5
168
100
AcDbEntity
8
1
62
256
6
ByLayer
370
18
48
1
60
0
100
AcDbSpline
70
4
71
3
72
10
73
6
40
0
40
0
40
0
40
0
40
0.5
40
0.5
40
1
40
1
40
1
40
1
41
1
10
81.3377718374474
20
-41.9142570051446
30
0
41
1
10
81.2113203070511
20
-41.8221646117472
30
0
41
1
10
81.0848461673978
20
-41.7306807337939
30
0
41
1
10
80.8374543367401
20
-41.5527633255117
30
0
41
1
10
80.7159862110184
20
-41.4659214821399
30
0
41
1
10
80.5961799586673
20
-41.3806587620976
30
0
0
LINE
5
72
100
AcDbEntity
8
1
62
256
6
ByLayer
370
18
48
1
60
0
100
AcDbLine
10
77.970871
20
-43.043643
30
0
11
78.020114
21
-43.128933
31
0
39
0
210
0
220
0
230
1
0
LINE
5
73
100
AcDbEntity
8
1
62
256
6
ByLayer
370
18
48
1
60
0
100
AcDbLine
10
88.412419
20
-37.128933
30
0
11
88.363176
21
-37.043643
31
0
39
0
210
0
220
0
230
1
0
LINE
5
74
100
AcDbEntity
8
1
62
256
6
ByLayer
370
18
48
1
60
0
100
AcDbLine
10
25.155076
20
0.6
30
0
11
25.08759
21
0.6
31
0
39
0
210
0
220
0
230
1
0
LINE
5
75
100
AcDbEntity
8
1
62
256
6
ByLayer
370
18
48
1
60
0
100
AcDbLine
10
104.292565
20
-51.256531
30
0
11
103.741223
21
-50.301578
31
0
39
0
210
0
220
0
230
1
0
LINE
5
76
100
AcDbEntity
8
1
62
256
6
ByLayer
370
18
48
1
60
0
100
AcDbLine
10
85.714213
20
-60.831915
30
0
11
86.234425
21
-61.732948
31
0
39
0
210
0
220
0
230
1
0
LINE
5
77
100
AcDbEntity
8
1
62
256
6
ByLayer
370
18
48
1
60
0
100
AcDbLine
10
103.861719
20
-49.73642
30
0
11
103.845614
21
-49.708526
31
0
39
0
210
0
220
0
230
1
0
LINE
5
78
100
AcDbEntity
8
1
62
256
6
ByLayer
370
18
48
1
60
0
100
AcDbLine
10
115.555308
20
-44.622414
30
0
11
114.986739
21
-43.637623
31
0
39
0
210
0
220
0
230
1
0
LINE
5
79
100
AcDbEntity
8
1
62
256
6
ByLayer
370
18
48
1
60
0
100
AcDbLine
10
35.797178
20
-4.035621
30
0
11
31.811509
21
-1.973493
31
0
39
0
210
0
220
0
230
1
0
LINE
5
7A
100
AcDbEntity
8
1
62
256
6
ByLayer
370
18
48
1
60
0
100
AcDbLine
10
25.312541
20
2
30
0
11
25.003462
21
2
31
0
39
0
210
0
220
0
230
1
0
LINE
5
7B
100
AcDbEntity
8
1
62
256
6
ByLayer
370
18
48
1
60
0
100
AcDbLine
10
25.003462
20
-2
30
0
11
25.312541
21
-2
31
0
39
0
210
0
220
0
230
1
0
LINE
5
7C
100
AcDbEntity
8
1
62
256
6
ByLayer
370
18
48
1
60
0
100
AcDbLine
10
25.08759
20
-0.6
30
0
11
25.155076
21
-0.6
31
0
39
0
210
0
220
0
230
1
0
LINE
5
7D
100
AcDbEntity
8
1
62
256
6
ByLayer
370
18
48
1
60
0
100
AcDbLine
10
0
20
-49.7
30
0
11
0.3
21
-50
31
0
39
0
210
0
220
0
230
1
0
LINE
5
7E
100
AcDbEntity
8
1
62
256
6
ByLayer
370
18
48
1
60
0
100
AcDbLine
10
0.3
20
50
30
0
11
0
21
49.7
31
0
39
0
210
0
220
0
230
1
0
LINE
5
7F
100
AcDbEntity
8
1
62
256
6
ByLayer
370
18
48
1
60
0
100
AcDbLine
10
35.897119
20
-4.288865
30
0
11
35.836805
21
-4.090855
31
0
39
0
210
0
220
0
230
1
0
LINE
5
80
100
AcDbEntity
8
1
62
256
6
ByLayer
370
18
48
1
60
0
100
AcDbLine
10
33.567535
20
-8.476886
30
0
11
33.764005
21
-8.411734
31
0
39
0
210
0
220
0
230
1
0
LINE
5
81
100
AcDbEntity
8
1
62
256
6
ByLayer
370
18
48
1
60
0
100
AcDbLine
10
31.847479
20
-7.621686
30
0
11
33.499558
21
-8.476448
31
0
39
0
210
0
220
0
230
1
0
LINE
5
82
100
AcDbEntity
8
1
62
256
6
ByLayer
370
18
48
1
60
0
100
AcDbLine
10
0.3
20
-50
30
0
11
36.186138
21
-50
31
0
39
0
210
0
220
0
230
1
0
LINE
5
83
100
AcDbEntity
8
1
62
256
6
ByLayer
370
18
48
1
60
0
100
AcDbLine
10
36.186138
20
50
30
0
11
0.3
21
50
31
0
39
0
210
0
220
0
230
1
0
LINE
5
84
100
AcDbEntity
8
1
62
256
6
ByLayer
370
18
48
1
60
0
100
AcDbLine
10
36.652507
20
-50.15
30
0
11
39.5
21
-50.15
31
0
39
0
210
0
220
0
230
1
0
LINE
5
85
100
AcDbEntity
8
1
62
256
6
ByLayer
370
18
48
1
60
0
100
AcDbLine
10
38.714506
20
50.15
30
0
11
36.652507
21
50.15
31
0
39
0
210
0
220
0
230
1
0
LINE
5
86
100
AcDbEntity
8
1
62
256
6
ByLayer
370
18
48
1
60
0
100
AcDbLine
10
43.363703
20
-53.114724
30
0
11
43.624302
21
-54.087291
31
0
39
0
210
0
220
0
230
1
0
LINE
5
87
100
AcDbEntity
8
1
62
256
6
ByLayer
370
18
48
1
60
0
100
AcDbLine
10
96.726465
20
-53.763935
30
0
11
97.277807
21
-54.718888
31
0
39
0
210
0
220
0
230
1
0
LINE
5
88
100
AcDbEntity
8
1
62
256
6
ByLayer
370
18
48
1
60
0
100
AcDbLine
10
96.700295
20
-54.195867
30
0
11
96.753829
21
-54.28859
31
0
39
0
210
0
220
0
230
1
0
LINE
5
89
100
AcDbEntity
8
SK1
62
256
6
ByLayer
370
18
48
1
60
0
100
AcDbLine
10
-0.2
20
-37.983485
30
0
11
-0.2
21
-6.83962
31
0
39
0
210
0
220
0
230
1
0
LINE
5
8B
100
AcDbEntity
8
SK1
62
256
6
ByLayer
370
18
48
1
60
0
100
AcDbLine
10
-0.2
20
6.83962
30
0
11
-0.2
21
37.983485
31
0
39
0
210
0
220
0
230
1
0
LINE
5
8C
100
AcDbEntity
8
SK1
62
256
6
ByLayer
370
18
48
1
60
0
100
AcDbLine
10
-1.307107
20
-4.60538
30
0
11
-1.307107
21
4.60538
31
0
39
0
210
0
220
0
230
1
0
LINE
5
8D
100
AcDbEntity
8
1
62
256
6
ByLayer
370
18
48
1
60
0
100
AcDbLine
10
43.914933
20
-54.832685
30
0
11
85.565685
21
-61.386198
31
0
39
0
210
0
220
0
230
1
0
LINE
5
8E
100
AcDbEntity
8
1
62
256
6
ByLayer
370
18
48
1
60
0
100
AcDbLine
10
99.463375
20
-39.697808
30
0
11
99.638082
21
-39.045795
31
0
39
0
210
0
220
0
230
1
0
LINE
5
8F
100
AcDbEntity
8
1
62
256
6
ByLayer
370
18
48
1
60
0
100
AcDbLine
10
13.788675
20
-14.993155
30
0
11
18.211325
21
-14.993155
31
0
39
0
210
0
220
0
230
1
0
LINE
5
90
100
AcDbEntity
8
1
62
256
6
ByLayer
370
18
48
1
60
0
100
AcDbLine
10
18.211325
20
-14.993155
30
0
11
18.211325
21
-47.699112
31
0
39
0
210
0
220
0
230
1
0
LINE
5
91
100
AcDbEntity
8
1
62
256
6
ByLayer
370
18
48
1
60
0
100
AcDbLine
10
87.90147
20
-52.66893
30
0
11
85.565685
21
-61.386198
31
0
39
0
210
0
220
0
230
1
0
LINE
5
92
100
AcDbEntity
8
1
62
256
6
ByLayer
370
18
48
1
60
0
100
AcDbLine
10
98.693811
20
-38.714675
30
0
11
98.783676
21
-38.379294
31
0
39
0
210
0
220
0
230
1
0
LINE
5
93
100
AcDbEntity
8
1
62
256
6
ByLayer
370
18
48
1
60
0
100
AcDbLine
10
32.347248
20
2.246375
30
0
11
32.154577
21
1.12345
31
0
39
0
210
0
220
0
230
1
0
LINE
5
94
100
AcDbEntity
8
1
62
256
6
ByLayer
370
18
48
1
60
0
100
AcDbLine
10
13.355662
20
-15.513346
30
0
11
13.355662
21
-47.532474
31
0
39
0
210
0
220
0
230
1
0
LINE
5
95
100
AcDbEntity
8
1
62
256
6
ByLayer
370
18
48
1
60
0
100
AcDbLine
10
98.899941
20
-38.409631
30
0
11
98.783676
21
-38.379294
31
0
39
0
210
0
220
0
230
1
0
LINE
5
96
100
AcDbEntity
8
1
62
256
6
ByLayer
370
18
48
1
60
0
100
AcDbLine
10
39.203617
20
49.142878
30
0
11
37.765325
21
49.142878
31
0
39
0
210
0
220
0
230
1
0
LINE
5
97
100
AcDbEntity
8
1
62
256
6
ByLayer
370
18
48
1
60
0
100
AcDbLine
10
84.724172
20
-1.044479
30
0
11
38.854231
21
-27.527502
31
0
39
0
210
0
220
0
230
1
0
LINE
5
98
100
AcDbEntity
8
1
62
256
6
ByLayer
370
18
48
1
60
0
100
AcDbLine
10
0
20
-49.7
30
0
11
0
21
49.7
31
0
39
0
210
0
220
0
230
1
0
LINE
5
99
100
AcDbEntity
8
1
62
256
6
ByLayer
370
18
48
1
60
0
100
AcDbLine
10
98.518511
20
-38.352181
30
0
11
98.674894
21
-38.709829
31
0
39
0
210
0
220
0
230
1
0
LINE
5
9A
100
AcDbEntity
8
1
62
256
6
ByLayer
370
18
48
1
60
0
100
AcDbLine
10
114.986737
20
-34.105243
30
0
11
114.986737
21
-43.748275
31
0
39
0
210
0
220
0
230
1
0
LINE
5
9B
100
AcDbEntity
8
1
62
256
6
ByLayer
370
18
48
1
60
0
100
AcDbLine
10
39.203617
20
49.142878
30
0
11
84.724172
21
-1.044479
31
0
39
0
210
0
220
0
230
1
0
LINE
5
9C
100
AcDbEntity
8
1
62
256
6
ByLayer
370
18
48
1
60
0
100
AcDbLine
10
13.788675
20
-14.993155
30
0
11
13.788675
21
-47.699112
31
0
39
0
210
0
220
0
230
1
0
LINE
5
9D
100
AcDbEntity
8
1
62
256
6
ByLayer
370
18
48
1
60
0
100
AcDbLine
10
98.518511
20
-38.352181
30
0
11
98.442675
21
-38.635203
31
0
39
0
210
0
220
0
230
1
0
LINE
5
9E
100
AcDbEntity
8
1
62
256
6
ByLayer
370
18
48
1
60
0
100
AcDbLine
10
18.211325
20
14.993155
30
0
11
13.788675
21
14.993155
31
0
39
0
210
0
220
0
230
1
0
LINE
5
9F
100
AcDbEntity
8
1
62
256
6
ByLayer
370
18
48
1
60
0
100
AcDbLine
10
98.282881
20
-38.594241
30
0
11
98.63212
21
-37.290863
31
0
39
0
210
0
220
0
230
1
0
LINE
5
A0
100
AcDbEntity
8
1
62
256
6
ByLayer
370
18
48
1
60
0
100
AcDbLine
10
36.652507
20
49.110481
30
0
11
36.652507
21
50.15
31
0
39
0
210
0
220
0
230
1
0
LINE
5
A1
100
AcDbEntity
8
1
62
256
6
ByLayer
370
18
48
1
60
0
100
AcDbLine
10
36.652507
20
-50.15
30
0
11
36.652507
21
-49.524268
31
0
39
0
210
0
220
0
230
1
0
LINE
5
A2
100
AcDbEntity
8
1
62
256
6
ByLayer
370
18
48
1
60
0
100
AcDbLine
10
13.355662
20
47.532474
30
0
11
13.355662
21
15.513346
31
0
39
0
210
0
220
0
230
1
0
LINE
5
A3
100
AcDbEntity
8
1
62
256
6
ByLayer
370
18
48
1
60
0
100
AcDbLine
10
38.854231
20
-27.527502
30
0
11
38.643894
21
-49.634824
31
0
39
0
210
0
220
0
230
1
0
LINE
5
A4
100
AcDbEntity
8
1
62
256
6
ByLayer
370
18
48
1
60
0
100
AcDbLine
10
13.788675
20
47.699112
30
0
11
18.211325
21
47.699112
31
0
39
0
210
0
220
0
230
1
0
LINE
5
A5
100
AcDbEntity
8
1
62
256
6
ByLayer
370
18
48
1
60
0
100
AcDbLine
10
18.644338
20
47.532474
30
0
11
18.644338
21
15.513346
31
0
39
0
210
0
220
0
230
1
0
LINE
5
A6
100
AcDbEntity
8
1
62
256
6
ByLayer
370
18
48
1
60
0
100
AcDbLine
10
98.787791
20
-37.34722
30
0
11
98.518512
21
-38.352181
31
0
39
0
210
0
220
0
230
1
0
LINE
5
A7
100
AcDbEntity
8
1
62
256
6
ByLayer
370
18
48
1
60
0
100
AcDbLine
10
114.986737
20
-43.748275
30
0
11
114.511091
21
-43.624166
31
0
39
0
210
0
220
0
230
1
0
LINE
5
A8
100
AcDbEntity
8
1
62
256
6
ByLayer
370
18
48
1
60
0
100
AcDbLine
10
104.154584
20
-40.921872
30
0
11
99.463375
21
-39.697808
31
0
39
0
210
0
220
0
230
1
0
LINE
5
A9
100
AcDbEntity
8
1
62
256
6
ByLayer
370
18
48
1
60
0
100
AcDbLine
10
98.83174
20
-38.254085
30
0
11
99.463375
21
-39.697808
31
0
39
0
210
0
220
0
230
1
0
LINE
5
AA
100
AcDbEntity
8
1
62
256
6
ByLayer
370
18
48
1
60
0
100
AcDbLine
10
18.211325
20
-47.699112
30
0
11
13.788675
21
-47.699112
31
0
39
0
210
0
220
0
230
1
0
LINE
5
AB
100
AcDbEntity
8
1
62
256
6
ByLayer
370
18
48
1
60
0
100
AcDbLine
10
39.5
20
-50.15
30
0
11
39.5
21
-49.644145
31
0
39
0
210
0
220
0
230
1
0
LINE
5
AC
100
AcDbEntity
8
1
62
256
6
ByLayer
370
18
48
1
60
0
100
AcDbLine
10
114.986737
20
-34.105243
30
0
11
84.724172
21
-1.044479
31
0
39
0
210
0
220
0
230
1
0
LINE
5
AD
100
AcDbEntity
8
1
62
256
6
ByLayer
370
18
48
1
60
0
100
AcDbLine
10
98.787791
20
-37.34722
30
0
11
99.638082
21
-39.045795
31
0
39
0
210
0
220
0
230
1
0
LINE
5
AE
100
AcDbEntity
8
1
62
256
6
ByLayer
370
18
48
1
60
0
100
AcDbLine
10
0.3
20
-50
30
0
11
0.3
21
50
31
0
39
0
210
0
220
0
230
1
0
LINE
5
AF
100
AcDbEntity
8
1
62
256
6
ByLayer
370
18
48
1
60
0
100
AcDbLine
10
18.211325
20
47.699112
30
0
11
18.211325
21
14.993155
31
0
39
0
210
0
220
0
230
1
0
LINE
5
B0
100
AcDbEntity
8
1
62
256
6
ByLayer
370
18
48
1
60
0
100
AcDbLine
10
91.968409
20
-37.490907
30
0
11
89.703279
21
-45.94449
31
0
39
0
210
0
220
0
230
1
0
LINE
5
B1
100
AcDbEntity
8
1
62
256
6
ByLayer
370
18
48
1
60
0
100
AcDbLine
10
18.644338
20
-15.513346
30
0
11
18.644338
21
-47.532474
31
0
39
0
210
0
220
0
230
1
0
LINE
5
B2
100
AcDbEntity
8
1
62
256
6
ByLayer
370
18
48
1
60
0
100
AcDbLine
10
43.363703
20
-53.114724
30
0
11
43.363703
21
-52.725148
31
0
39
0
210
0
220
0
230
1
0
LINE
5
B3
100
AcDbEntity
8
1
62
256
6
ByLayer
370
18
48
1
60
0
100
AcDbLine
10
32.059319
20
0.568273
30
0
11
31.866648
21
-0.554652
31
0
39
0
210
0
220
0
230
1
0
LINE
5
B4
100
AcDbEntity
8
1
62
256
6
ByLayer
370
18
48
1
60
0
100
AcDbLine
10
33.780546
20
-48.100311
30
0
11
33.780546
21
-8.404026
31
0
39
0
210
0
220
0
230
1
0
LINE
5
B5
100
AcDbEntity
8
1
62
256
6
ByLayer
370
18
48
1
60
0
100
AcDbLine
10
33.780546
20
-2.991238
30
0
11
33.780546
21
48.100311
31
0
39
0
210
0
220
0
230
1
0
LINE
5
B6
100
AcDbEntity
8
1
62
256
6
ByLayer
370
18
48
1
60
0
100
AcDbLine
10
37.765325
20
49.142878
30
0
11
37.765325
21
-29.335989
31
0
39
0
210
0
220
0
230
1
0
LINE
5
B7
100
AcDbEntity
8
1
62
256
6
ByLayer
370
18
48
1
60
0
100
AcDbLine
10
60.148037
20
28.451293
30
0
11
62.461022
21
25.980808
31
0
39
0
210
0
220
0
230
1
0
LINE
5
B8
100
AcDbEntity
8
1
62
256
6
ByLayer
370
18
48
1
60
0
100
AcDbLine
10
89.262183
20
-47.014267
30
0
11
88.053515
21
-51.525076
31
0
39
0
210
0
220
0
230
1
0
LINE
5
B9
100
AcDbEntity
8
1
62
256
6
ByLayer
370
18
48
1
60
0
100
AcDbLine
10
13.788675
20
47.699112
30
0
11
13.788675
21
14.993155
31
0
39
0
210
0
220
0
230
1
0
LINE
5
BA
100
AcDbEntity
8
1
62
256
6
ByLayer
370
18
48
1
60
0
100
AcDbLine
10
36.186138
20
-50
30
0
11
36.186138
21
-49.304377
31
0
39
0
210
0
220
0
230
1
0
LINE
5
BB
100
AcDbEntity
8
1
62
256
6
ByLayer
370
18
48
1
60
0
100
AcDbLine
10
36.186138
20
48.922346
30
0
11
36.186138
21
50
31
0
39
0
210
0
220
0
230
1
0
LINE
5
BC
100
AcDbEntity
8
1
62
256
6
ByLayer
370
18
48
1
60
0
100
AcDbLine
10
114.986737
20
-32.83051
30
0
11
114.986737
21
-34.105243
31
0
39
0
210
0
220
0
230
1
0
LINE
5
BD
100
AcDbEntity
8
1
62
256
6
ByLayer
370
18
48
1
60
0
100
AcDbLine
10
101.269826
20
-16.192816
30
0
11
104.752111
21
-20.032107
31
0
39
0
210
0
220
0
230
1
0
LINE
5
BE
100
AcDbEntity
8
1
62
256
6
ByLayer
370
18
48
1
60
0
100
AcDbLine
10
92.725565
20
-37.366514
30
0
11
92.59245
21
-37.135951
31
0
39
0
210
0
220
0
230
1
0
LINE
5
BF
100
AcDbEntity
8
1
62
256
6
ByLayer
370
18
48
1
60
0
100
AcDbLine
10
98.477281
20
-38.644073
30
0
11
92.59245
21
-37.135951
31
0
39
0
210
0
220
0
230
1
0
LINE
5
C0
100
AcDbEntity
8
1
62
256
6
ByLayer
370
18
48
1
60
0
100
AcDbLine
10
91.31442
20
-40.129253
30
0
11
91.278252
21
-40.066608
31
0
39
0
210
0
220
0
230
1
0
LINE
5
C1
100
AcDbEntity
8
1
62
256
6
ByLayer
370
18
48
1
60
0
100
AcDbLine
10
114.106022
20
-43.525529
30
0
11
114.069854
21
-43.462884
31
0
39
0
210
0
220
0
230
1
0
LINE
5
C2
100
AcDbEntity
8
1
62
256
6
ByLayer
370
18
48
1
60
0
100
AcDbLine
10
93.638198
20
-37.419062
30
0
11
99.076249
21
-38.812686
31
0
39
0
210
0
220
0
230
1
0
LINE
5
C3
100
AcDbEntity
8
1
62
256
6
ByLayer
370
18
48
1
60
0
100
AcDbLine
10
85.966135
20
-59.8917
30
0
11
86.002303
21
-59.954345
31
0
39
0
210
0
220
0
230
1
0
LINE
5
C4
100
AcDbEntity
8
1
62
256
6
ByLayer
370
18
48
1
60
0
100
AcDbLine
10
98.136128
20
-49.67146
30
0
11
98.110871
21
-49.627714
31
0
39
0
210
0
220
0
230
1
0
LINE
5
C5
100
AcDbEntity
8
1
62
256
6
ByLayer
370
18
48
1
60
0
100
AcDbLine
10
96.766087
20
-51.320598
30
0
11
96.823111
21
-51.419367
31
0
39
0
210
0
220
0
230
1
0
LINE
5
C6
100
AcDbEntity
8
1
62
256
6
ByLayer
370
18
48
1
60
0
100
AcDbLine
10
85.482916
20
-38.715143
30
0
11
85.41382
21
-39.278907
31
0
39
0
210
0
220
0
230
1
0
LINE
5
C7
100
AcDbEntity
8
1
62
256
6
ByLayer
370
18
48
1
60
0
100
AcDbLine
10
80.636358
20
-40.995546
30
0
11
80.934557
21
-41.215868
31
0
39
0
210
0
220
0
230
1
0
LINE
5
C8
100
AcDbEntity
8
80
62
256
6
ByLayer
370
18
48
1
60
0
100
AcDbLine
10
0
20
0
30
0
11
-5
21
0
31
0
39
0
210
0
220
0
230
1
0
LINE
5
C9
100
AcDbEntity
8
4
62
256
6
ByLayer
370
18
48
0.05
60
0
100
AcDbLine
10
0
20
0
30
0
11
110
21
0
31
0
39
0
210
0
220
0
230
1
0
LINE
5
CB
100
AcDbEntity
8
81
62
256
6
ByLayer
370
18
48
1
60
0
100
AcDbLine
10
110
20
-68
30
0
11
120
21
-68
31
0
39
0
210
0
220
0
230
1
0
LINE
5
CC
100
AcDbEntity
8
SK4
62
256
6
ByLayer
370
18
48
0.05
60
0
100
AcDbLine
10
-65
20
0
30
0
11
110
21
0
31
0
39
0
210
0
220
0
230
1
0
LINE
5
CE
100
AcDbEntity
8
1
62
256
6
ByLayer
370
18
48
1
60
0
100
AcDbLine
10
85.290913
20
-40.281729
30
0
11
85.694128
21
-40.980117
31
0
39
0
210
0
220
0
230
1
0
LINE
5
CF
100
AcDbEntity
8
1
62
256
6
ByLayer
370
18
48
1
60
0
100
AcDbLine
10
81.745363
20
-41.814927
30
0
11
82.148577
21
-42.513315
31
0
39
0
210
0
220
0
230
1
0
LINE
5
D0
100
AcDbEntity
8
1
62
256
6
ByLayer
370
18
48
1
60
0
100
AcDbLine
10
82.919009
20
-43.096865
30
0
11
82.501374
21
-42.373501
31
0
39
0
210
0
220
0
230
1
0
LINE
5
D1
100
AcDbEntity
8
1
62
256
6
ByLayer
370
18
48
1
60
0
100
AcDbLine
10
85.176312
20
-41.216781
30
0
11
84.3057
21
-41.593259
31
0
39
0
210
0
220
0
230
1
0
LINE
5
D2
100
AcDbEntity
8
1
62
256
6
ByLayer
370
18
48
1
60
0
100
AcDbLine
10
85.817035
20
-39.977295
30
0
11
85.41382
21
-39.278907
31
0
39
0
210
0
220
0
230
1
0
LINE
5
D3
100
AcDbEntity
8
1
62
256
6
ByLayer
370
18
48
1
60
0
100
AcDbLine
10
81.745363
20
-41.814927
30
0
11
82.501374
21
-42.373501
31
0
39
0
210
0
220
0
230
1
0
LINE
5
D4
100
AcDbEntity
8
1
62
256
6
ByLayer
370
18
48
1
60
0
100
AcDbLine
10
81.337772
20
-41.914257
30
0
11
80.934557
21
-41.215868
31
0
39
0
210
0
220
0
230
1
0
LINE
5
D5
100
AcDbEntity
8
1
62
256
6
ByLayer
370
18
48
1
60
0
100
AcDbLine
10
83.371987
20
-41.997023
30
0
11
83.775202
21
-42.695412
31
0
39
0
210
0
220
0
230
1
0
LINE
5
D6
100
AcDbEntity
8
1
62
256
6
ByLayer
370
18
48
1
60
0
100
AcDbLine
10
85.593947
20
-41.940146
30
0
11
85.176312
21
-41.216781
31
0
39
0
210
0
220
0
230
1
0
LINE
5
D7
100
AcDbEntity
8
1
62
256
6
ByLayer
370
18
48
1
60
0
100
AcDbLine
10
85.290913
20
-40.281729
30
0
11
85.176312
21
-41.216781
31
0
39
0
210
0
220
0
230
1
0
LINE
5
D8
100
AcDbEntity
8
1
62
256
6
ByLayer
370
18
48
1
60
0
100
AcDbLine
10
83.371987
20
-41.997023
30
0
11
82.501374
21
-42.373501
31
0
39
0
210
0
220
0
230
1
0
LINE
5
D9
100
AcDbEntity
8
1
62
256
6
ByLayer
370
18
48
1
60
0
100
AcDbLine
10
84.708914
20
-42.291648
30
0
11
84.3057
21
-41.593259
31
0
39
0
210
0
220
0
230
1
0
LINE
5
DA
100
AcDbEntity
8
1
62
256
6
ByLayer
370
18
48
1
60
0
100
AcDbLine
10
115.78743
20
-46.401017
30
0
11
110.475313
21
-66.226109
31
0
39
0
210
0
220
0
230
1
0
LINE
5
DB
100
AcDbEntity
8
1
62
256
6
ByLayer
370
18
48
1
60
0
100
AcDbLine
10
94.221702
20
-38.42972
30
0
11
114.106022
21
-43.525529
31
0
39
0
210
0
220
0
230
1
0
LINE
5
DC
100
AcDbEntity
8
1
62
256
6
ByLayer
370
18
48
1
60
0
100
AcDbLine
10
93.638198
20
-37.419062
30
0
11
94.221702
21
-38.42972
31
0
39
0
210
0
220
0
230
1
0
LINE
5
DD
100
AcDbEntity
8
1
62
256
6
ByLayer
370
18
48
1
60
0
100
AcDbLine
10
86.002303
20
-59.954345
30
0
11
91.31442
21
-40.129253
31
0
39
0
210
0
220
0
230
1
0
LINE
5
DE
100
AcDbEntity
8
1
62
256
6
ByLayer
370
18
48
1
60
0
100
AcDbLine
10
107.568031
20
-67.925642
30
0
11
87.683711
21
-62.829833
31
0
39
0
210
0
220
0
230
1
0
MTEXT
5
169
100
AcDbEntity
8
SK6
62
256
6
ByLayer
370
13
48
1
60
0
100
AcDbMText
10
-10.467415
20
59.092503
30
0
210
0
220
0
230
1
1
\W0.7137;C10-PSKNL-68110-25
40
3.5
41
0
44
1.084337
50
0
71
7
72
5
7
iso_b_vert
0
DIMENSION
5
17B
100
AcDbEntity
8
SK2
62
256
6
ByLayer
370
13
48
1
60
0
100
AcDbDimension
2
DimnDraft3D1
10
-67.5
20
-50
30
0
11
-67.5
21
0
31
0
70
32
71
5
72
1
41
1
210
0
220
0
230
1
3
Standard
100
AcDbAlignedDimension
13
-1.5875
23
50
33
0
14
-1.5875
24
-50
34
0
50
90
100
AcDbRotatedDimension
1001
ACAD
1000
DSTYLE
1002
{
1070
    74
1070
     0
1070
   279
1070
     0
1070
   172
1070
     1
1070
   173
1070
     1
1070
   340
1005
16A
1070
   271
1070
     1
1070
   272
1070
     2
1070
    77
1070
     1
1070
    73
1070
     0
1070
   171
1070
     3
1070
   274
1070
     4
1070
   177
1070
   150
1070
   176
1070
     9
1070
   178
1070
    43
1070
    78
1070
     8
1070
    48
1040
-0.005
1070
    41
1041
3.175
1070
   147
1041
2.25
1070
    42
1041
1.5875
1070
    44
1041
3.175
1070
   140
1041
4.5
1070
   343
1005
17C
1070
   344
1005
17C
1002
}
0
DIMENSION
5
191
100
AcDbEntity
8
2
62
256
6
ByLayer
370
13
48
1
60
0
100
AcDbDimension
2
DimnDraft3D2
10
147.889337
20
0
30
0
11
147.889337
21
-34
31
0
70
32
71
5
72
1
41
1
210
0
220
0
230
1
3
Standard
100
AcDbAlignedDimension
13
111.5875
23
-68
33
0
14
51.5875
24
0
34
0
50
90
100
AcDbRotatedDimension
1001
ACAD
1000
DSTYLE
1002
{
1070
    74
1070
     0
1070
   279
1070
     0
1070
   172
1070
     1
1070
   173
1070
     1
1070
   340
1005
16A
1070
   271
1070
     1
1070
   272
1070
     2
1070
    77
1070
     1
1070
    73
1070
     0
1070
   171
1070
     3
1070
   274
1070
     4
1070
   177
1070
   150
1070
   176
1070
     9
1070
   178
1070
    43
1070
    78
1070
     8
1070
    48
1040
-0.005
1070
    41
1041
3.175
1070
   147
1041
2.25
1070
    42
1041
1.5875
1070
    44
1041
3.175
1070
   140
1041
4.5
1070
   343
1005
17C
1070
   344
1005
17C
1002
}
0
DIMENSION
5
19F
100
AcDbEntity
8
2
62
256
6
ByLayer
370
13
48
1
60
0
100
AcDbDimension
2
DimnDraft3D3
10
110
20
-84.5
30
0
11
55
21
-84.5
31
0
70
32
71
5
72
1
41
1
210
0
220
0
230
1
3
Standard
100
AcDbAlignedDimension
13
0
23
-51.5875
33
0
14
110
24
-69.5875
34
0
50
0
100
AcDbRotatedDimension
1001
ACAD
1000
DSTYLE
1002
{
1070
   279
1070
     0
1070
   172
1070
     1
1070
   173
1070
     1
1070
   340
1005
16A
1070
   271
1070
     1
1070
   272
1070
     2
1070
    77
1070
     1
1070
    73
1070
     0
1070
   171
1070
     3
1070
   274
1070
     4
1070
   177
1070
   150
1070
   176
1070
     9
1070
   178
1070
    43
1070
    78
1070
     8
1070
    48
1040
-0.005
1070
    41
1041
3.175
1070
   147
1041
2.25
1070
    42
1041
1.5875
1070
    44
1041
3.175
1070
   140
1041
4.5
1070
   343
1005
17C
1070
   344
1005
17C
1002
}
0
DIMENSION
5
1AC
100
AcDbEntity
8
2
62
256
6
ByLayer
370
13
48
1
60
0
100
AcDbDimension
2
DimnDraft3D4
10
116.389337
20
-42.086917
30
0
11
130.799322
21
-51.61498
31
0
70
34
71
5
72
1
41
1
210
0
220
0
230
1
3
Standard
100
AcDb2LineAngularDimension
13
105.2375
23
-68
33
0
14
110
24
-68
34
0
15
109.918861
25
-66.235063
35
0
16
127.229232
26
-54.354406
36
0
40
0
0
ENDSEC
0
SECTION
2
OBJECTS
0
DICTIONARY
5
217
330
0
100
AcDbDictionary
280
0
281
1
3
ACAD_GROUP
350
218
3
ACAD_MLINESTYLE
350
219
0
DICTIONARY
5
218
330
0
100
AcDbDictionary
280
0
281
1
0
DICTIONARY
5
219
330
0
100
AcDbDictionary
280
0
281
1
3
Standard
350
18
0
MLINESTYLE
5
18
330
219
100
AcDbMlineStyle
2
Standard
70
0
3

62
256
51
90
52
90
71
2
49
-0.5
62
256
6
ByLayer
49
0.5
62
256
6
ByLayer
0
RASTERVARIABLES
5
205
330

100
AcDbRasterVariables
90
0
70
1
71
1
72
1
0
ENDSEC
0
EOF
