0
SECTION
2
HEADER
9
$ACADVER
1
AC1015
9
$DWGCODEPAGE
3
ANSI_1252
9
$HANDSEED
5
1fc
9
$ANGBASE
50
0
9
$ANGDIR
70
0
9
$ATTMODE
70
1
9
$AUNITS
70
0
9
$AUPREC
70
0
9
$CECOLOR
62
256
9
$CELTSCALE
40
1
9
$CELTYPE
6
ByLayer
9
$CELWEIGHT
370
18
9
$CLAYER
8
0
9
$CMLJUST
70
0
9
$CMLSCALE
40
1
9
$CMLSTYLE
2
Standard
9
$DIMSTYLE
2
Standard
9
$TEXTSIZE
40
0.2
9
$TEXTSTYLE
7
Standard
9
$LUNITS
70
2
9
$LUPREC
70
4
9
$EXTNAMES
290
1
9
$INSUNITS
70
4
9
$LTSCALE
40
1
9
$LWDISPLAY
290
1
9
$PDMODE
70
0
9
$PDSIZE
40
0
9
$PLINEGEN
70
0
0
ENDSEC
0
SECTION
2
CLASSES
0
CLASS
1
RASTERVARIABLES
2
AcDbRasterVariables
3
ISM
90
0
280
0
281
0
0
ENDSEC
0
SECTION
2
TABLES
0
TABLE
2
VPORT
5
1f2
100
AcDbSymbolTable
0
VPORT
5
1
100
AcDbSymbolTableRecord
100
AcDbViewportTableRecord
2
*Active
70
0
10
0
20
0
11
1
21
1
12
-1
22
1
13
0
23
0
14
0.5
24
0.5
15
10
25
10
16
0
26
0
36
1
17
0
27
0
37
0
0
ENDTAB
0
TABLE
2
LTYPE
5
1f3
100
AcDbSymbolTable
0
LTYPE
5
14
100
AcDbSymbolTableRecord
100
AcDbLinetypeTableRecord
70
0
2
ByBlock
3

72
65
73
0
40
0
0
LTYPE
5
15
100
AcDbSymbolTableRecord
100
AcDbLinetypeTableRecord
70
0
2
ByLayer
3

72
65
73
0
40
0
0
LTYPE
5
16
100
AcDbSymbolTableRecord
100
AcDbLinetypeTableRecord
70
0
2
CONTINUOUS
3
Solid line
72
65
73
0
40
0
0
LTYPE
5
6A
100
AcDbSymbolTableRecord
100
AcDbLinetypeTableRecord
70
0
2
CENTER
3
____ _ ____ _ ____ _ ____
72
65
73
4
40
47.5
49
22
74
0
49
-8.5
74
0
49
8.5
74
0
49
-8.5
74
0
0
LTYPE
5
6B
100
AcDbSymbolTableRecord
100
AcDbLinetypeTableRecord
70
0
2
DASHED
3
__ __ __ __ __ __ __ __ __
72
65
73
2
40
25.72
49
12.86
74
0
49
-12.86
74
0
0
ENDTAB
0
TABLE
2
LAYER
5
1f4
100
AcDbSymbolTable
0
LAYER
5
10
100
AcDbSymbolTableRecord
100
AcDbLayerTableRecord
2
0
70
0
62
7
6
CONTINUOUS
290
1
370
-3
390
0
0
LAYER
5
6D
100
AcDbSymbolTableRecord
100
AcDbLayerTableRecord
2
81
70
0
62
-3
6
CONTINUOUS
290
1
370
-3
390
0
0
LAYER
5
6F
100
AcDbSymbolTableRecord
100
AcDbLayerTableRecord
2
1
70
0
62
4
6
CONTINUOUS
290
1
370
-3
390
0
0
LAYER
5
71
100
AcDbSymbolTableRecord
100
AcDbLayerTableRecord
2
80
70
0
62
-6
6
CONTINUOUS
290
1
370
-3
390
0
0
LAYER
5
BA
100
AcDbSymbolTableRecord
100
AcDbLayerTableRecord
2
4
70
0
62
-2
6
CENTER
290
1
370
-3
390
0
0
LAYER
5
16A
100
AcDbSymbolTableRecord
100
AcDbLayerTableRecord
2
2
70
0
62
7
6
CONTINUOUS
290
1
370
-3
390
0
0
LAYER
5
1de
100
AcDbSymbolTableRecord
100
AcDbLayerTableRecord
2
SK1
70
0
62
4
6
CONTINUOUS
290
1
370
-3
390
0
0
LAYER
5
1df
100
AcDbSymbolTableRecord
100
AcDbLayerTableRecord
2
SK4
70
0
62
2
6
CENTER
290
1
370
-3
390
0
0
LAYER
5
1e0
100
AcDbSymbolTableRecord
100
AcDbLayerTableRecord
2
SK6
70
0
62
5
6
CONTINUOUS
290
1
370
-3
390
0
0
LAYER
5
1e1
100
AcDbSymbolTableRecord
100
AcDbLayerTableRecord
2
SK2
70
0
62
7
6
CONTINUOUS
290
1
370
-3
390
0
0
ENDTAB
0
TABLE
2
STYLE
5
1f5
100
AcDbSymbolTable
0
STYLE
5
11
100
AcDbSymbolTableRecord
100
AcDbTextStyleTableRecord
2
Standard
3
txt
70
0
71
0
40
0
41
1
42
0
50
0
0
STYLE
5
14F
100
AcDbSymbolTableRecord
100
AcDbTextStyleTableRecord
2
iso_b_vert
3
simplex.shx
70
0
71
0
40
0
41
1
42
0
50
0
0
STYLE
5
150
100
AcDbSymbolTableRecord
100
AcDbTextStyleTableRecord
2
DWGDirectTextStyle
3
simplex
70
0
71
0
40
0
41
1
42
0
50
0
0
ENDTAB
0
TABLE
2
DIMSTYLE
5
1f6
100
AcDbSymbolTable
100
AcDbDimStyleTable
0
DIMSTYLE
105
27
100
AcDbSymbolTableRecord
100
AcDbDimStyleTableRecord
2
Standard
70
0
3
<>
41
0.18
42
0.0625
44
0.18
140
0.18
147
0.09
73
0
74
0
77
1
271
2
275
0
278
52
280
0
340
11
0
ENDTAB
0
TABLE
2
VIEW
5
1f7
100
AcDbSymbolTable
0
ENDTAB
0
TABLE
2
UCS
5
1f8
100
AcDbSymbolTable
0
ENDTAB
0
TABLE
2
APPID
5
1f9
100
AcDbSymbolTable
0
APPID
5
12
100
AcDbSymbolTableRecord
100
AcDbRegAppTableRecord
2
ACAD
70
0
0
ENDTAB
0
TABLE
2
BLOCK_RECORD
5
1fa
100
AcDbSymbolTable
0
BLOCK_RECORD
5
1F
100
AcDbSymbolTableRecord
100
AcDbBlockTableRecord
2
*Model_Space
340
0
70
0
0
BLOCK_RECORD
5
1B
100
AcDbSymbolTableRecord
100
AcDbBlockTableRecord
2
*Paper_Space
340
0
70
0
0
BLOCK_RECORD
5
23
100
AcDbSymbolTableRecord
100
AcDbBlockTableRecord
2
*Paper_Space0
340
0
70
0
0
BLOCK_RECORD
5
152
100
AcDbSymbolTableRecord
100
AcDbBlockTableRecord
2
DimnDraft3D1
340
0
70
0
0
BLOCK_RECORD
5
161
100
AcDbSymbolTableRecord
100
AcDbBlockTableRecord
2
_CLOSED
340
0
70
0
0
BLOCK_RECORD
5
168
100
AcDbSymbolTableRecord
100
AcDbBlockTableRecord
2
DimnDraft3D2
340
0
70
0
0
BLOCK_RECORD
5
177
100
AcDbSymbolTableRecord
100
AcDbBlockTableRecord
2
DimnDraft3D3
340
0
70
0
0
ENDTAB
0
ENDSEC
0
SECTION
2
BLOCKS
0
BLOCK
5
20
100
AcDbEntity
8
0
100
AcDbBlockBegin
2
*Model_Space
70
0
10
0
20
0
30
0
3
*Model_Space
0
ENDBLK
5
21
100
AcDbEntity
8
0
100
AcDbBlockEnd
0
BLOCK
5
1C
100
AcDbEntity
8
0
100
AcDbBlockBegin
2
*Paper_Space
70
0
10
0
20
0
30
0
3
*Paper_Space
0
ENDBLK
5
1D
100
AcDbEntity
8
0
100
AcDbBlockEnd
0
BLOCK
5
24
100
AcDbEntity
8
0
100
AcDbBlockBegin
2
*Paper_Space0
70
0
10
0
20
0
30
0
3
*Paper_Space0
0
ENDBLK
5
25
100
AcDbEntity
8
0
100
AcDbBlockEnd
0
BLOCK
5
15E
100
AcDbEntity
8
0
100
AcDbBlockBegin
2
DimnDraft3D1
70
0
10
0
20
0
30
0
3
DimnDraft3D1
0
MTEXT
5
153
100
AcDbEntity
8
SK2
62
256
6
ByLayer
370
13
48
1
60
0
100
AcDbMText
10
-68.625
20
-2.682237
30
0
210
0
220
0
230
1
1
\W0.6217;100
40
4.5
41
0
44
1.084337
50
90
71
7
72
5
7
iso_b_vert
0
LINE
5
155
100
AcDbEntity
8
SK2
62
256
6
ByLayer
370
13
48
1
60
0
100
AcDbLine
10
-1.5875
20
50
30
0
11
-70.675
21
50
31
0
39
0
210
0
220
0
230
1
0
LINE
5
156
100
AcDbEntity
8
SK2
62
256
6
ByLayer
370
13
48
1
60
0
100
AcDbLine
10
-1.5875
20
-50
30
0
11
-70.675
21
-50
31
0
39
0
210
0
220
0
230
1
0
LINE
5
157
100
AcDbEntity
8
SK2
62
256
6
ByLayer
370
13
48
1
60
0
100
AcDbLine
10
-67.5
20
50
30
0
11
-67.5
21
-50
31
0
39
0
210
0
220
0
230
1
0
LINE
5
158
100
AcDbEntity
8
SK2
62
256
6
ByLayer
370
13
48
1
60
0
100
AcDbLine
10
-67.5
20
50
30
0
11
-66.649261
21
46.825003
31
0
39
0
210
0
220
0
230
1
0
LINE
5
159
100
AcDbEntity
8
SK2
62
256
6
ByLayer
370
13
48
1
60
0
100
AcDbLine
10
-67.5
20
50
30
0
11
-68.350739
21
46.824997
31
0
39
0
210
0
220
0
230
1
0
LINE
5
15A
100
AcDbEntity
8
SK2
62
256
6
ByLayer
370
13
48
1
60
0
100
AcDbLine
10
-66.649261
20
46.825003
30
0
11
-68.350739
21
46.824997
31
0
39
0
210
0
220
0
230
1
0
LINE
5
15B
100
AcDbEntity
8
SK2
62
256
6
ByLayer
370
13
48
1
60
0
100
AcDbLine
10
-67.5
20
-50
30
0
11
-68.350739
21
-46.825003
31
0
39
0
210
0
220
0
230
1
0
LINE
5
15C
100
AcDbEntity
8
SK2
62
256
6
ByLayer
370
13
48
1
60
0
100
AcDbLine
10
-67.5
20
-50
30
0
11
-66.649261
21
-46.824997
31
0
39
0
210
0
220
0
230
1
0
LINE
5
15D
100
AcDbEntity
8
SK2
62
256
6
ByLayer
370
13
48
1
60
0
100
AcDbLine
10
-68.350739
20
-46.825003
30
0
11
-66.649261
21
-46.824997
31
0
39
0
210
0
220
0
230
1
0
ENDBLK
5
15F
100
AcDbEntity
8
0
100
AcDbBlockEnd
0
BLOCK
5
162
100
AcDbEntity
8
0
100
AcDbBlockBegin
2
_CLOSED
70
0
10
0
20
0
30
0
3
_CLOSED
0
LINE
5
164
100
AcDbEntity
8
0
62
256
6
ByLayer
370
-2
48
1
60
0
100
AcDbLine
10
-1
20
0.166667
30
0
11
0
21
0
31
0
39
0
210
0
220
0
230
1
0
LINE
5
165
100
AcDbEntity
8
0
62
256
6
ByLayer
370
-2
48
1
60
0
100
AcDbLine
10
0
20
0
30
0
11
-1
21
-0.166667
31
0
39
0
210
0
220
0
230
1
0
LINE
5
166
100
AcDbEntity
8
0
62
256
6
ByLayer
370
-2
48
1
60
0
100
AcDbLine
10
-1
20
0.166667
30
0
11
-1
21
-0.166667
31
0
39
0
210
0
220
0
230
1
0
LINE
5
167
100
AcDbEntity
8
0
62
256
6
ByLayer
370
-2
48
1
60
0
100
AcDbLine
10
0
20
0
30
0
11
-1
21
0
31
0
39
0
210
0
220
0
230
1
0
ENDBLK
5
163
100
AcDbEntity
8
0
100
AcDbBlockEnd
0
BLOCK
5
174
100
AcDbEntity
8
0
100
AcDbBlockBegin
2
DimnDraft3D2
70
0
10
0
20
0
30
0
3
DimnDraft3D2
0
MTEXT
5
169
100
AcDbEntity
8
2
62
256
6
ByLayer
370
13
48
1
60
0
100
AcDbMText
10
125.375
20
-35.563158
30
0
210
0
220
0
230
1
1
\W0.6740;68
40
4.5
41
0
44
1.084337
50
90
71
7
72
5
7
iso_b_vert
0
LINE
5
16B
100
AcDbEntity
8
2
62
256
6
ByLayer
370
13
48
1
60
0
100
AcDbLine
10
111.5875
20
-68
30
0
11
129.675
21
-68
31
0
39
0
210
0
220
0
230
1
0
LINE
5
16C
100
AcDbEntity
8
2
62
256
6
ByLayer
370
13
48
1
60
0
100
AcDbLine
10
51.5875
20
0
30
0
11
129.675
21
0
31
0
39
0
210
0
220
0
230
1
0
LINE
5
16D
100
AcDbEntity
8
2
62
256
6
ByLayer
370
13
48
1
60
0
100
AcDbLine
10
126.5
20
-68
30
0
11
126.5
21
0
31
0
39
0
210
0
220
0
230
1
0
LINE
5
16E
100
AcDbEntity
8
2
62
256
6
ByLayer
370
13
48
1
60
0
100
AcDbLine
10
126.5
20
-68
30
0
11
125.649261
21
-64.825003
31
0
39
0
210
0
220
0
230
1
0
LINE
5
16F
100
AcDbEntity
8
2
62
256
6
ByLayer
370
13
48
1
60
0
100
AcDbLine
10
126.5
20
-68
30
0
11
127.350739
21
-64.824997
31
0
39
0
210
0
220
0
230
1
0
LINE
5
170
100
AcDbEntity
8
2
62
256
6
ByLayer
370
13
48
1
60
0
100
AcDbLine
10
125.649261
20
-64.825003
30
0
11
127.350739
21
-64.824997
31
0
39
0
210
0
220
0
230
1
0
LINE
5
171
100
AcDbEntity
8
2
62
256
6
ByLayer
370
13
48
1
60
0
100
AcDbLine
10
126.5
20
0
30
0
11
127.350739
21
-3.174997
31
0
39
0
210
0
220
0
230
1
0
LINE
5
172
100
AcDbEntity
8
2
62
256
6
ByLayer
370
13
48
1
60
0
100
AcDbLine
10
126.5
20
0
30
0
11
125.649261
21
-3.175003
31
0
39
0
210
0
220
0
230
1
0
LINE
5
173
100
AcDbEntity
8
2
62
256
6
ByLayer
370
13
48
1
60
0
100
AcDbLine
10
127.350739
20
-3.174997
30
0
11
125.649261
21
-3.175003
31
0
39
0
210
0
220
0
230
1
0
ENDBLK
5
175
100
AcDbEntity
8
0
100
AcDbBlockEnd
0
BLOCK
5
182
100
AcDbEntity
8
0
100
AcDbBlockBegin
2
DimnDraft3D3
70
0
10
0
20
0
30
0
3
DimnDraft3D3
0
MTEXT
5
178
100
AcDbEntity
8
2
62
256
6
ByLayer
370
13
48
1
60
0
100
AcDbMText
10
52.880263
20
-93.375
30
0
210
0
220
0
230
1
1
\W0.5296;110
40
4.5
41
0
44
1.084337
50
0
71
7
72
5
7
iso_b_vert
0
LINE
5
179
100
AcDbEntity
8
2
62
256
6
ByLayer
370
13
48
1
60
0
100
AcDbLine
10
0
20
-51.5875
30
0
11
0
21
-97.675
31
0
39
0
210
0
220
0
230
1
0
LINE
5
17A
100
AcDbEntity
8
2
62
256
6
ByLayer
370
13
48
1
60
0
100
AcDbLine
10
110
20
-69.5875
30
0
11
110
21
-97.675
31
0
39
0
210
0
220
0
230
1
0
LINE
5
17B
100
AcDbEntity
8
2
62
256
6
ByLayer
370
13
48
1
60
0
100
AcDbLine
10
0
20
-94.5
30
0
11
110
21
-94.5
31
0
39
0
210
0
220
0
230
1
0
LINE
5
17C
100
AcDbEntity
8
2
62
256
6
ByLayer
370
13
48
1
60
0
100
AcDbLine
10
0
20
-94.5
30
0
11
3.174997
21
-93.649261
31
0
39
0
210
0
220
0
230
1
0
LINE
5
17D
100
AcDbEntity
8
2
62
256
6
ByLayer
370
13
48
1
60
0
100
AcDbLine
10
0
20
-94.5
30
0
11
3.175003
21
-95.350739
31
0
39
0
210
0
220
0
230
1
0
LINE
5
17E
100
AcDbEntity
8
2
62
256
6
ByLayer
370
13
48
1
60
0
100
AcDbLine
10
3.174997
20
-93.649261
30
0
11
3.175003
21
-95.350739
31
0
39
0
210
0
220
0
230
1
0
LINE
5
17F
100
AcDbEntity
8
2
62
256
6
ByLayer
370
13
48
1
60
0
100
AcDbLine
10
110
20
-94.5
30
0
11
106.825003
21
-95.350739
31
0
39
0
210
0
220
0
230
1
0
LINE
5
180
100
AcDbEntity
8
2
62
256
6
ByLayer
370
13
48
1
60
0
100
AcDbLine
10
110
20
-94.5
30
0
11
106.824997
21
-93.649261
31
0
39
0
210
0
220
0
230
1
0
LINE
5
181
100
AcDbEntity
8
2
62
256
6
ByLayer
370
13
48
1
60
0
100
AcDbLine
10
106.825003
20
-95.350739
30
0
11
106.824997
21
-93.649261
31
0
39
0
210
0
220
0
230
1
0
ENDBLK
5
183
100
AcDbEntity
8
0
100
AcDbBlockEnd
0
ENDSEC
0
SECTION
2
ENTITIES
0
ARC
5
C6
100
AcDbEntity
8
SK1
62
256
6
ByLayer
370
18
48
1
60
0
100
AcDbCircle
39
0
10
0.6
20
-38.9
30
0
40
1
210
0
220
0
230
-1
100
AcDbArc
50
113.578178
51
126.869898
0
ARC
5
C7
100
AcDbEntity
8
SK1
62
256
6
ByLayer
370
18
48
1
60
0
100
AcDbCircle
39
0
10
0.6
20
38.9
30
0
40
1
210
0
220
0
230
-1
100
AcDbArc
50
233.130102
51
246.421822
0
ARC
5
C8
100
AcDbEntity
8
1
62
256
6
ByLayer
370
18
48
1
60
0
100
AcDbCircle
39
0
10
-36.186138
20
-50.8
30
0
40
0.8
210
0
220
0
230
-1
100
AcDbArc
50
110.358405
51
114.065656
0
ARC
5
C9
100
AcDbEntity
8
1
62
256
6
ByLayer
370
18
48
1
60
0
100
AcDbCircle
39
0
10
-91.41906
20
-49.41906
30
0
40
12.5
210
0
220
0
230
-1
100
AcDbArc
50
26.289367
51
63.710634
0
ARC
5
CA
100
AcDbEntity
8
1
62
256
6
ByLayer
370
18
48
1
60
0
100
AcDbCircle
39
0
10
59.509996
20
-59.8
30
0
40
10.2
210
0
220
0
230
1
100
AcDbArc
50
60
51
91.905952
0
ARC
5
CC
100
AcDbEntity
8
1
62
256
6
ByLayer
370
18
48
1
60
0
100
AcDbCircle
39
0
10
-94
20
-52
30
0
40
4.11067325247731
210
0
220
0
230
-1
100
AcDbArc
50
179.999995
51
315
0
ARC
5
CD
100
AcDbEntity
8
1
62
256
6
ByLayer
370
18
48
1
60
0
100
AcDbCircle
39
0
10
-94
20
-52
30
0
40
4.11067325247731
210
0
220
0
230
-1
100
AcDbArc
50
315
51
328.325624
0
ARC
5
CE
100
AcDbEntity
8
1
62
256
6
ByLayer
370
18
48
1
60
0
100
AcDbCircle
39
0
10
-94
20
-52
30
0
40
4.11067325247731
210
0
220
0
230
-1
100
AcDbArc
50
121.674374
51
179.999995
0
ARC
5
CF
100
AcDbEntity
8
1
62
256
6
ByLayer
370
18
48
1
60
0
100
AcDbCircle
39
0
10
-94
20
-52
30
0
40
4.3
210
0
220
0
230
-1
100
AcDbArc
50
180.000004
51
315
0
ARC
5
D0
100
AcDbEntity
8
1
62
256
6
ByLayer
370
18
48
1
60
0
100
AcDbCircle
39
0
10
-94
20
-52
30
0
40
4.3
210
0
220
0
230
-1
100
AcDbArc
50
315
51
336.5325
0
ARC
5
D1
100
AcDbEntity
8
1
62
256
6
ByLayer
370
18
48
1
60
0
100
AcDbCircle
39
0
10
-94
20
-52
30
0
40
4.3
210
0
220
0
230
-1
100
AcDbArc
50
113.467505
51
180.000004
0
ARC
5
D2
100
AcDbEntity
8
1
62
256
6
ByLayer
370
18
48
1
60
0
100
AcDbCircle
39
0
10
-94
20
-52
30
0
40
4.75
210
0
220
0
230
-1
100
AcDbArc
50
180.000005
51
353.446874
0
ARC
5
D3
100
AcDbEntity
8
1
62
256
6
ByLayer
370
18
48
1
60
0
100
AcDbCircle
39
0
10
-94
20
-52
30
0
40
4.75
210
0
220
0
230
-1
100
AcDbArc
50
94.798129
51
180.000005
0
ARC
5
D6
100
AcDbEntity
8
1
62
256
6
ByLayer
370
18
48
1
60
0
100
AcDbCircle
39
0
10
94
20
-52
30
0
40
4.09931549024898
210
0
220
0
230
1
100
AcDbArc
50
212.362208
51
57.637792
0
ARC
5
D7
100
AcDbEntity
8
1
62
256
6
ByLayer
370
18
48
1
60
0
100
AcDbCircle
39
0
10
-94
20
-52
30
0
40
4.75
210
0
220
0
230
-1
100
AcDbArc
50
33.815057
51
56.41389
0
ARC
5
D8
100
AcDbEntity
8
1
62
256
6
ByLayer
370
18
48
1
60
0
100
AcDbCircle
39
0
10
-94
20
-52
30
0
40
5.35
210
0
220
0
230
-1
100
AcDbArc
50
44.360912
51
45
0
ARC
5
D9
100
AcDbEntity
8
1
62
256
6
ByLayer
370
18
48
1
60
0
100
AcDbCircle
39
0
10
-94
20
-52
30
0
40
5.35
210
0
220
0
230
-1
100
AcDbArc
50
45
51
45.639088
0
ARC
5
DA
100
AcDbEntity
8
1
62
256
6
ByLayer
370
18
48
1
60
0
100
AcDbCircle
39
0
10
94.067787
20
-52.067787
30
0
40
4
210
0
220
0
230
1
100
AcDbArc
50
225
51
45
0
ARC
5
DB
100
AcDbEntity
8
1
62
256
6
ByLayer
370
18
48
1
60
0
100
AcDbCircle
39
0
10
74.908117
20
-32.908117
30
0
40
2.575
210
0
220
0
230
1
100
AcDbArc
50
176.394176
51
213.605824
0
ARC
5
DD
100
AcDbEntity
8
1
62
256
6
ByLayer
370
18
48
1
60
0
100
AcDbCircle
39
0
10
74.908117
20
-32.908117
30
0
40
2.575
210
0
220
0
230
1
100
AcDbArc
50
296.394176
51
333.605824
0
ARC
5
DE
100
AcDbEntity
8
1
62
256
6
ByLayer
370
18
48
1
60
0
100
AcDbCircle
39
0
10
74.908117
20
-32.908117
30
0
40
2.575
210
0
220
0
230
1
100
AcDbArc
50
93.605824
51
116.394176
0
ARC
5
DF
100
AcDbEntity
8
1
62
256
6
ByLayer
370
18
48
1
60
0
100
AcDbCircle
39
0
10
74.908117
20
-32.908117
30
0
40
2.575
210
0
220
0
230
1
100
AcDbArc
50
213.605824
51
236.394176
0
ARC
5
E0
100
AcDbEntity
8
1
62
256
6
ByLayer
370
18
48
1
60
0
100
AcDbCircle
39
0
10
74.908117
20
-32.908117
30
0
40
2.575
210
0
220
0
230
1
100
AcDbArc
50
333.605824
51
356.394176
0
ARC
5
E1
100
AcDbEntity
8
1
62
256
6
ByLayer
370
18
48
1
60
0
100
AcDbCircle
39
0
10
74.908117
20
-32.908117
30
0
40
2.575
210
0
220
0
230
1
100
AcDbArc
50
236.394176
51
273.605824
0
ARC
5
E2
100
AcDbEntity
8
1
62
256
6
ByLayer
370
18
48
1
60
0
100
AcDbCircle
39
0
10
74.908117
20
-32.908117
30
0
40
2.575
210
0
220
0
230
1
100
AcDbArc
50
33.605824
51
56.394176
0
ARC
5
E3
100
AcDbEntity
8
1
62
256
6
ByLayer
370
18
48
1
60
0
100
AcDbCircle
39
0
10
74.908117
20
-32.908117
30
0
40
2.575
210
0
220
0
230
1
100
AcDbArc
50
153.605824
51
176.394176
0
ARC
5
E4
100
AcDbEntity
8
1
62
256
6
ByLayer
370
18
48
1
60
0
100
AcDbCircle
39
0
10
74.908117
20
-32.908117
30
0
40
2.575
210
0
220
0
230
1
100
AcDbArc
50
273.605824
51
296.394176
0
ARC
5
E5
100
AcDbEntity
8
1
62
256
6
ByLayer
370
18
48
1
60
0
100
AcDbCircle
39
0
10
74.908117
20
-32.908117
30
0
40
2.575
210
0
220
0
230
1
100
AcDbArc
50
56.394176
51
93.605824
0
ARC
5
E7
100
AcDbEntity
8
1
62
256
6
ByLayer
370
18
48
1
60
0
100
AcDbCircle
39
0
10
74.908117
20
-32.908117
30
0
40
2.575
210
0
220
0
230
1
100
AcDbArc
50
356.394176
51
33.605824
0
ARC
5
E8
100
AcDbEntity
8
1
62
256
6
ByLayer
370
18
48
1
60
0
100
AcDbCircle
39
0
10
74.908117
20
-32.908117
30
0
40
2.575
210
0
220
0
230
1
100
AcDbArc
50
116.394176
51
153.605824
0
CIRCLE
5
CB
100
AcDbEntity
8
1
62
256
6
ByLayer
370
18
48
1
60
0
100
AcDbCircle
10
74.908117
20
-32.908117
30
0
40
5.5
39
0
210
0
220
0
230
1
0
CIRCLE
5
D4
100
AcDbEntity
8
1
62
256
6
ByLayer
370
18
48
1
60
0
100
AcDbCircle
10
-94
20
-52
30
0
40
5.90053354912273
39
0
210
0
220
0
230
-1
0
CIRCLE
5
D5
100
AcDbEntity
8
1
62
256
6
ByLayer
370
18
48
1
60
0
100
AcDbCircle
10
94
20
-52
30
0
40
16
39
0
210
0
220
0
230
1
0
CIRCLE
5
DC
100
AcDbEntity
8
1
62
256
6
ByLayer
370
18
48
1
60
0
100
AcDbCircle
10
-74.908117
20
-32.908117
30
0
40
2.94739092362731
39
0
210
0
220
0
230
-1
0
CIRCLE
5
E6
100
AcDbEntity
8
1
62
256
6
ByLayer
370
18
48
1
60
0
100
AcDbCircle
10
-74.908117
20
-32.908117
30
0
40
5.235
39
0
210
0
220
0
230
-1
0
ELLIPSE
5
E9
100
AcDbEntity
8
1
62
256
6
ByLayer
370
18
48
1
60
0
100
AcDbEllipse
10
32.261842
20
-5.02128
30
0
11
0.0712703720551646
21
-7.34889618431603
31
0
210
0
220
0
230
-1
40
0.079216
41
-1.13400461176829
42
2.17120147370657
0
ELLIPSE
5
EA
100
AcDbEntity
8
1
62
256
6
ByLayer
370
18
48
1
60
0
100
AcDbEllipse
10
32.261842
20
-5.02128
30
0
11
0.0712703720551646
21
-7.34889618431603
31
0
210
0
220
0
230
-1
40
0.079216
41
-2.99393970927356
42
-1.9236256577102
0
ELLIPSE
5
EB
100
AcDbEntity
8
1
62
256
6
ByLayer
370
18
48
1
60
0
100
AcDbEllipse
10
25.312541
20
0
30
0
11
-4.59227382683336E-16
21
-2.4999999999997
31
0
210
0
220
0
230
1
40
0.97437
41
0.0705875162777694
42
1.57079617974638
0
ELLIPSE
5
EC
100
AcDbEntity
8
1
62
256
6
ByLayer
370
18
48
1
60
0
100
AcDbEllipse
10
25.312541
20
0
30
0
11
-4.59227382683336E-16
21
-2.4999999999997
31
0
210
0
220
0
230
1
40
0.97437
41
1.57079617974638
42
3.14159255297879
0
ELLIPSE
5
ED
100
AcDbEntity
8
1
62
256
6
ByLayer
370
18
48
1
60
0
100
AcDbEllipse
10
39.094011
20
0
30
0
11
23.4185446994524
21
-49.354372881872
31
0
210
0
220
0
230
-1
40
0.341999
41
2.04714540389041
42
2.98699413089088
0
ELLIPSE
5
EE
100
AcDbEntity
8
1
62
256
6
ByLayer
370
18
48
1
60
0
100
AcDbEllipse
10
34.869229
20
0
30
0
11
-3.06151588455594E-15
21
50
31
0
210
0
220
0
230
-1
40
0.087489
41
-3.0801264160719
42
-0.0614662375178944
0
ELLIPSE
5
EF
100
AcDbEntity
8
1
62
256
6
ByLayer
370
18
48
1
60
0
100
AcDbEllipse
10
25.312541
20
0
30
0
11
-3.71974179973483E-16
21
-2.02499999999965
31
0
210
0
220
0
230
1
40
0.97437
41
0
42
6.28318530717959
0
ELLIPSE
5
F0
100
AcDbEntity
8
1
62
256
6
ByLayer
370
18
48
1
60
0
100
AcDbEllipse
10
-7.094011
20
0
30
0
11
23.4185446994519
21
-49.3543728818715
31
0
210
0
220
0
230
-1
40
0.341999
41
-1.0944472496994
42
-0.154598522698919
0
ELLIPSE
5
F1
100
AcDbEntity
8
1
62
256
6
ByLayer
370
18
48
1
60
0
100
AcDbEllipse
10
39.094011
20
0
30
0
11
23.4185446994532
21
49.354372881873
31
0
210
0
220
0
230
-1
40
0.341999
41
-2.98699413089088
42
-2.04714540389042
0
ELLIPSE
5
F2
100
AcDbEntity
8
1
62
256
6
ByLayer
370
18
48
1
60
0
100
AcDbEllipse
10
32.261842
20
-5.02128
30
0
11
0.0630468675871181
21
-6.50094662458443
31
0
210
0
220
0
230
-1
40
0.079216
41
2.44060684365795
42
3.01984022795448
0
ELLIPSE
5
F3
100
AcDbEntity
8
1
62
256
6
ByLayer
370
18
48
1
60
0
100
AcDbEllipse
10
-7.094011
20
0
30
0
11
23.4185446994516
21
49.3543728818712
31
0
210
0
220
0
230
-1
40
0.341999
41
0.154598522698918
42
1.0944472496994
0
ELLIPSE
5
F4
100
AcDbEntity
8
1
62
256
6
ByLayer
370
18
48
1
60
0
100
AcDbEllipse
10
25.08759
20
0
30
0
11
-1.10214571844014E-16
21
-0.6
31
0
210
0
220
0
230
1
40
0.97437
41
-3.14159206999768
42
-2.51363722984569E-16
0
ELLIPSE
5
F5
100
AcDbEntity
8
1
62
256
6
ByLayer
370
18
48
1
60
0
100
AcDbEllipse
10
25.08759
20
0
30
0
11
-1.83690953073357E-16
21
-1
31
0
210
0
220
0
230
1
40
0.97437
41
0.11564954289628
42
1.57079617974693
0
ELLIPSE
5
F6
100
AcDbEntity
8
1
62
256
6
ByLayer
370
18
48
1
60
0
100
AcDbEllipse
10
25.08759
20
0
30
0
11
-1.83690953073357E-16
21
-1
31
0
210
0
220
0
230
1
40
0.97437
41
1.57079617974693
42
3.0259428089687
0
ELLIPSE
5
F7
100
AcDbEntity
8
1
62
256
6
ByLayer
370
18
48
1
60
0
100
AcDbEllipse
10
29.401009
20
-3.541126
30
0
11
-2.64226324214921
21
-5.10695065172821
31
0
210
0
220
0
230
1
40
0.154722
41
2.39868149952868
42
2.97789206033463
0
ELLIPSE
5
F8
100
AcDbEntity
8
1
62
256
6
ByLayer
370
18
48
1
60
0
100
AcDbEllipse
10
34.648368
20
-6.256034
30
0
11
-1.14881010528226
21
-2.22041332683835
31
0
210
0
220
0
230
1
40
0.154722
41
0
42
3.14159197849297
0
ELLIPSE
5
F9
100
AcDbEntity
8
1
62
256
6
ByLayer
370
18
48
1
60
0
100
AcDbEllipse
10
34.779988
20
-6.324133
30
0
11
1.07988149896533
21
2.08718852722805
31
0
210
0
220
0
230
1
40
0.154722
41
-2.98441444109676
42
-0.157275681815459
0
ELLIPSE
5
FA
100
AcDbEntity
8
1
62
256
6
ByLayer
370
18
48
1
60
0
100
AcDbEllipse
10
93.833241
20
-51.833241
30
0
11
2.8443533682495
21
2.8443533682495
31
0
210
0
220
0
230
1
40
0.984808
41
-1.57079632679477
42
-0.382663732360811
0
ELLIPSE
5
FB
100
AcDbEntity
8
1
62
256
6
ByLayer
370
18
48
1
60
0
100
AcDbEllipse
10
93.833241
20
-51.833241
30
0
11
2.8443533682495
21
2.8443533682495
31
0
210
0
220
0
230
1
40
0.984808
41
-2.75892892122844
42
-1.57079632679477
0
ELLIPSE
5
FC
100
AcDbEntity
8
1
62
256
6
ByLayer
370
18
48
1
60
0
100
AcDbEllipse
10
25.312541
20
0
30
0
11
-3.67381906146713E-16
21
-2
31
0
210
0
220
0
230
1
40
0.97437
41
0
42
6.28318530717959
0
ELLIPSE
5
FD
100
AcDbEntity
8
1
62
256
6
ByLayer
370
18
48
1
60
0
100
AcDbEllipse
10
25.312541
20
0
30
0
11
-1.83690953073357E-16
21
-1
31
0
210
0
220
0
230
1
40
0.97437
41
0
42
6.28318530717959
0
ELLIPSE
5
FE
100
AcDbEntity
8
1
62
256
6
ByLayer
370
18
48
1
60
0
100
AcDbEllipse
10
25.155076
20
0
30
0
11
-1.10214571844014E-16
21
-0.6
31
0
210
0
220
0
230
1
40
0.97437
41
0
42
6.28318530717959
0
POINT
5
6C
100
AcDbEntity
8
81
62
256
6
ByLayer
370
18
48
1
60
0
100
AcDbPoint
10
110
20
-68
30
0
39
0
210
0
220
0
230
1
50
360
0
POINT
5
6E
100
AcDbEntity
8
1
62
256
6
ByLayer
370
18
48
1
60
0
100
AcDbPoint
10
0
20
0
30
0
39
0
210
0
220
0
230
1
50
360
0
POINT
5
70
100
AcDbEntity
8
80
62
256
6
ByLayer
370
18
48
1
60
0
100
AcDbPoint
10
0
20
0
30
0
39
0
210
0
220
0
230
1
50
360
0
SPLINE
5
FF
100
AcDbEntity
8
SK1
62
256
6
ByLayer
370
18
48
1
60
0
100
AcDbSpline
70
4
71
3
72
13
73
9
40
0
40
0
40
0
40
0
40
0.239456597696736
40
0.368360333414499
40
0.499999646097829
40
0.631639017852484
40
0.760542916289456
40
1
40
1
40
1
40
1
41
1
10
-2.19999999999999
20
-36.020098714425
30
0
41
1
10
-2.19909199362425
20
-35.994041143702
30
0
41
1
10
-2.19103284825076
20
-35.956668418702
30
0
41
1
10
-2.16563593150636
20
-35.9104490513902
30
0
41
1
10
-2.13886379933885
20
-35.8791673697464
30
0
41
1
10
-2.10627714095577
20
-35.8539998944634
30
0
41
1
10
-2.05884066056876
20
-35.8309559959591
30
0
41
1
10
-2.02111031829244
20
-35.8247837166445
30
0
41
1
10
-1.99503997793928
20
-35.8251853523287
30
0
0
SPLINE
5
100
100
AcDbEntity
8
SK1
62
256
6
ByLayer
370
18
48
1
60
0
100
AcDbSpline
70
4
71
3
72
13
73
9
40
0
40
0
40
0
40
0
40
0.239457532542122
40
0.368361585145726
40
0.500001016450917
40
0.631640278503671
40
0.760543864568771
40
1
40
1
40
1
40
1
41
1
10
-1.99503997793928
20
35.8251861518663
30
0
41
1
10
-2.02111030872336
20
35.8247845119233
30
0
41
1
10
-2.0588406423276
20
35.8309567669304
30
0
41
1
10
-2.10627712748934
20
35.85400056933
30
0
41
1
10
-2.13886378678393
20
35.8791679394553
30
0
41
1
10
-2.16563592202678
20
35.9104494932211
30
0
41
1
10
-2.19103284106404
20
35.9566686669141
30
0
41
1
10
-2.19909198641739
20
35.9940412511455
30
0
41
1
10
-2.19999999999999
20
36.0200987271899
30
0
0
SPLINE
5
101
100
AcDbEntity
8
SK1
62
256
6
ByLayer
370
18
48
1
60
0
100
AcDbSpline
70
4
71
2
72
6
73
3
40
0
40
0
40
0
40
1
40
1
40
1
41
1
10
-58
20
-34.5974182144316
30
0
41
1
10
-30.1000000000006
20
-35.2979600359712
30
0
41
1
10
-2.19999999999999
20
-35.9985019194103
30
0
0
SPLINE
5
102
100
AcDbEntity
8
SK1
62
256
6
ByLayer
370
18
48
1
60
0
100
AcDbSpline
70
4
71
2
72
6
73
3
40
0
40
0
40
0
40
1
40
1
40
1
41
1
10
-2.19999999999996
20
35.9985021134432
30
0
41
1
10
-30.1
20
35.2979624159373
30
0
41
1
10
-58
20
34.5974227787246
30
0
0
SPLINE
5
103
100
AcDbEntity
8
SK1
62
256
6
ByLayer
370
18
48
1
60
0
100
AcDbSpline
70
4
71
2
72
6
73
3
40
0
40
0
40
0
40
1
40
1
40
1
41
1
10
-1.99503997793928
20
-35.8251729954496
30
0
41
1
10
-1.19500843340728
20
-35.8452725233881
30
0
41
1
10
-0.394976888875277
20
-35.8653720513261
30
0
0
SPLINE
5
104
100
AcDbEntity
8
SK1
62
256
6
ByLayer
370
18
48
1
60
0
100
AcDbSpline
70
4
71
2
72
6
73
3
40
0
40
0
40
0
40
1
40
1
40
1
41
1
10
-0.394976888875277
20
35.8653726648781
30
0
41
1
10
-1.19500843340728
20
35.845273220757
30
0
41
1
10
-1.99503997793928
20
35.8251737766339
30
0
0
SPLINE
5
105
100
AcDbEntity
8
SK1
62
256
6
ByLayer
370
18
48
1
60
0
100
AcDbSpline
70
4
71
3
72
13
73
9
40
0
40
0
40
0
40
0
40
0.0719354309777401
40
0.222834958029736
40
0.390919951172563
40
0.574614657391908
40
0.772352294926387
40
1
40
1
40
1
40
1
41
1
10
-0.243145327530414
20
22.8862638344426
30
0
41
1
10
-0.244623999393951
20
23.0977281498782
30
0
41
1
10
-0.249174199983742
20
23.744657208977
30
0
41
1
10
-0.256904385741478
20
24.8281095053013
30
0
41
1
10
-0.266779687492658
20
26.1598685344692
30
0
41
1
10
-0.277494249432237
20
27.5280400618138
30
0
41
1
10
-0.289335695416383
20
28.9474232102173
30
0
41
1
10
-0.297567240826083
20
29.8400010435041
30
0
41
1
10
-0.301962419063671
20
30.2914950302282
30
0
0
SPLINE
5
106
100
AcDbEntity
8
SK1
62
256
6
ByLayer
370
18
48
1
60
0
100
AcDbSpline
70
4
71
3
72
13
73
9
40
0
40
0
40
0
40
0
40
0.190122826608758
40
0.392450940297267
40
0.580399913969004
40
0.752357504959342
40
0.906718043019865
40
1
40
1
40
1
40
1
41
1
10
-0.300013984601321
20
-30.2529694801901
30
0
41
1
10
-0.296440176127646
20
-29.896457581267
30
0
41
1
10
-0.289044625165104
20
-29.1228860723135
30
0
41
1
10
-0.278043212423995
20
-27.8473471765744
30
0
41
1
10
-0.267345813412504
20
-26.5318559675837
30
0
41
1
10
-0.257477164058798
20
-25.2511354648047
30
0
41
1
10
-0.249352524294238
20
-24.1561206620944
30
0
41
1
10
-0.244396694433988
20
-23.4803662873379
30
0
41
1
10
-0.242514108045441
20
-23.222024149145
30
0
0
SPLINE
5
107
100
AcDbEntity
8
SK1
62
256
6
ByLayer
370
18
48
1
60
0
100
AcDbSpline
70
4
71
2
72
6
73
3
40
0
40
0
40
0
40
1
40
1
40
1
41
1
10
-60
20
-33.4633340188486
30
0
41
1
10
-59.0000000015328
20
-34.0406784545941
30
0
41
1
10
-58
20
-34.6180228183431
30
0
0
SPLINE
5
108
100
AcDbEntity
8
SK1
62
256
6
ByLayer
370
18
48
1
60
0
100
AcDbSpline
70
4
71
2
72
6
73
3
40
0
40
0
40
0
40
1
40
1
40
1
41
1
10
-58
20
34.6180277609944
30
0
41
1
10
-58.9999999990911
20
34.0406853811666
30
0
41
1
10
-60
20
33.4633429309407
30
0
0
SPLINE
5
109
100
AcDbEntity
8
1
62
256
6
ByLayer
370
18
48
1
60
0
100
AcDbSpline
70
4
71
3
72
22
73
18
40
0
40
0
40
0
40
0
40
0.128620787542224
40
0.128620787542224
40
0.257241575084449
40
0.257241575084449
40
0.385862362626673
40
0.385862362626673
40
0.514483150168898
40
0.514483150168898
40
0.643103937711122
40
0.643103937711122
40
0.771724725253347
40
0.771724725253347
40
0.900345512795571
40
0.900345512795571
40
1
40
1
40
1
40
1
41
1
10
101.264146769867
20
-36.9818712790462
30
0
41
1
10
101.239997125112
20
-36.940042867347
30
0
41
1
10
101.213971239854
20
-36.8949647117679
30
0
41
1
10
101.158395544392
20
-36.7987047835623
30
0
41
1
10
101.128533456116
20
-36.7469821294469
30
0
41
1
10
101.066680264553
20
-36.6398492590505
30
0
41
1
10
101.034935176091
20
-36.5848651529432
30
0
41
1
10
100.969850420506
20
-36.4721350494722
30
0
41
1
10
100.936214100542
20
-36.4138752343147
30
0
41
1
10
100.869829494189
20
-36.2988937232707
30
0
41
1
10
100.836850444361
20
-36.2417723333829
30
0
41
1
10
100.771323648006
20
-36.1282765928395
30
0
41
1
10
100.738811411798
20
-36.0719637478592
30
0
41
1
10
100.676955468683
20
-35.9648261116338
30
0
41
1
10
100.647250698217
20
-35.9133759399589
30
0
41
1
10
100.596802365748
20
-35.8259968649667
30
0
41
1
10
100.575857291782
20
-35.7897189326895
30
0
41
1
10
100.556265769867
20
-35.7557854213342
30
0
0
SPLINE
5
10A
100
AcDbEntity
8
SK1
62
256
6
ByLayer
370
18
48
1
60
0
100
AcDbSpline
70
4
71
3
72
322
73
318
40
0
40
0
40
0
40
0
40
0.0016965435911939
40
0.0034208712447431
40
0.0051451988982922
40
0.0068695265518414
40
0.0103181818589397
40
0.013766837166038
40
0.0172154924731363
40
0.0206641477802346
40
0.0241128030873329
40
0.0275614583944312
40
0.0310101137015295
40
0.0344587690086278
40
0.0379074243157261
40
0.0413560796228244
40
0.0448047349299228
40
0.0482533902370211
40
0.0517020455441194
40
0.0551507008512177
40
0.058599356158316
40
0.0620480114654143
40
0.0654966667725126
40
0.0689453220796109
40
0.0723939773867092
40
0.0758426326938075
40
0.0792912880009058
40
0.0827399433080041
40
0.0861885986151024
40
0.093085909229299
40
0.0965345645363973
40
0.0982588921899465
40
0.0999832198434956
40
0.103431875150594
40
0.106880530457692
40
0.113777841071889
40
0.117226496378987
40
0.120675151686086
40
0.127572462300282
40
0.134469772914479
40
0.137918428221577
40
0.141367083528675
40
0.144815738835774
40
0.148264394142872
40
0.155161704757069
40
0.162059015371265
40
0.165507670678364
40
0.168956325985462
40
0.175853636599658
40
0.182750947213855
40
0.189648257828052
40
0.19309691313515
40
0.196545568442248
40
0.199994223749347
40
0.203442879056445
40
0.210340189670641
40
0.217237500284838
40
0.220686155591936
40
0.224134810899035
40
0.227583466206133
40
0.231032121513231
40
0.237929432127428
40
0.244826742741624
40
0.251724053355821
40
0.255172708662919
40
0.258621363970018
40
0.265518674584214
40
0.272415985198411
40
0.275864640505509
40
0.279313295812608
40
0.282761951119706
40
0.286210606426804
40
0.293107917041001
40
0.296556572348099
40
0.300005227655197
40
0.303453882962296
40
0.306902538269394
40
0.313799848883591
40
0.317248504190689
40
0.320697159497787
40
0.324145814804886
40
0.327594470111984
40
0.334491780726181
40
0.337940436033279
40
0.341389091340377
40
0.344837746647475
40
0.348286401954574
40
0.350010729608123
40
0.351735057261672
40
0.35518371256877
40
0.362081023182967
40
0.365529678490065
40
0.368978333797163
40
0.372426989104262
40
0.37587564441136
40
0.379324299718458
40
0.382772955025557
40
0.386221610332655
40
0.389670265639753
40
0.393118920946852
40
0.39656757625395
40
0.400016231561048
40
0.403464886868147
40
0.405189214521696
40
0.406913542175245
40
0.410362197482343
40
0.413810852789442
40
0.41725950809654
40
0.420708163403638
40
0.424156818710737
40
0.425881146364285
40
0.427605474017835
40
0.431054129324933
40
0.432778456978482
40
0.434502784632031
40
0.43795143993913
40
0.441400095246228
40
0.443124422899777
40
0.444848750553326
40
0.448297405860425
40
0.451746061167523
40
0.453470388821072
40
0.455194716474621
40
0.45691904412817
40
0.458643371781719
40
0.460367699435269
40
0.462092027088818
40
0.462954190915592
40
0.463816354742367
40
0.465540682395916
40
0.466402846222691
40
0.467265010049465
40
0.468989337703014
40
0.470713665356564
40
0.471575829183338
40
0.472437993010113
40
0.473300156836887
40
0.474162320663662
40
0.475024484490436
40
0.475886648317211
40
0.476748812143986
40
0.47761097597076
40
0.479335303624309
40
0.481059631277859
40
0.482783958931408
40
0.484508286584957
40
0.486232614238506
40
0.487094778065281
40
0.487956941892055
40
0.48881910571883
40
0.489681269545604
40
0.491405597199153
40
0.493129924852703
40
0.493992088679477
40
0.494854252506252
40
0.495716416333026
40
0.496578580159801
40
0.49830290781335
40
0.499165071640125
40
0.500027235466899
40
0.500889399293674
40
0.501751563120448
40
0.503475890773997
40
0.504338054600772
40
0.505200218427547
40
0.506062382254321
40
0.506924546081096
40
0.508648873734645
40
0.510373201388194
40
0.511235365214969
40
0.512097529041743
40
0.512959692868518
40
0.513821856695292
40
0.515546184348841
40
0.516408348175616
40
0.517270512002391
40
0.51899483965594
40
0.519857003482714
40
0.520719167309489
40
0.521581331136264
40
0.522443494963038
40
0.523305658789813
40
0.524167822616587
40
0.525892150270136
40
0.526754314096911
40
0.527616477923686
40
0.52847864175046
40
0.529340805577235
40
0.531065133230784
40
0.532789460884333
40
0.533651624711108
40
0.534513788537882
40
0.536238116191431
40
0.537100280018206
40
0.537962443844981
40
0.53968677149853
40
0.541411099152079
40
0.543135426805628
40
0.544859754459177
40
0.546584082112726
40
0.548308409766275
40
0.551757065073374
40
0.555205720380472
40
0.556930048034021
40
0.55865437568757
40
0.562103030994669
40
0.565551686301767
40
0.567276013955316
40
0.569000341608865
40
0.572448996915964
40
0.575897652223062
40
0.57934630753016
40
0.582794962837259
40
0.586243618144357
40
0.589692273451455
40
0.593140928758553
40
0.596589584065652
40
0.60003823937275
40
0.603486894679848
40
0.606935549986947
40
0.610384205294045
40
0.613832860601143
40
0.617281515908242
40
0.62073017121534
40
0.622454498868889
40
0.624178826522438
40
0.627627481829537
40
0.631076137136635
40
0.634524792443733
40
0.637973447750831
40
0.64142210305793
40
0.644870758365028
40
0.648319413672126
40
0.650043741325675
40
0.651768068979225
40
0.655216724286323
40
0.658665379593421
40
0.66211403490052
40
0.665562690207618
40
0.672460000821814
40
0.675908656128913
40
0.679357311436011
40
0.682805966743109
40
0.686254622050208
40
0.693151932664404
40
0.696600587971503
40
0.700049243278601
40
0.703497898585699
40
0.706946553892798
40
0.713843864506994
40
0.717292519814092
40
0.720741175121191
40
0.724189830428289
40
0.727638485735387
40
0.734535796349584
40
0.741433106963781
40
0.744881762270879
40
0.748330417577977
40
0.755227728192174
40
0.762125038806371
40
0.769022349420567
40
0.772471004727665
40
0.775919660034764
40
0.779368315341862
40
0.78281697064896
40
0.789714281263157
40
0.796611591877353
40
0.800060247184452
40
0.80350890249155
40
0.806957557798648
40
0.810406213105747
40
0.817303523719943
40
0.82420083433414
40
0.831098144948336
40
0.834546800255435
40
0.837995455562533
40
0.84489276617673
40
0.851790076790926
40
0.855238732098025
40
0.858687387405123
40
0.862136042712221
40
0.86558469801932
40
0.872482008633516
40
0.879379319247713
40
0.882827974554811
40
0.886276629861909
40
0.893173940476106
40
0.896622595783204
40
0.900071251090303
40
0.901795578743852
40
0.903519906397401
40
0.906968561704499
40
0.913865872318696
40
0.917314527625794
40
0.920763182932893
40
0.924211838239991
40
0.927660493547089
40
0.931109148854187
40
0.934557804161286
40
0.938006459468384
40
0.941455114775482
40
0.944903770082581
40
0.948352425389679
40
0.955249736003876
40
0.958698391310974
40
0.962147046618072
40
0.96559570192517
40
0.969044357232269
40
0.972493012539367
40
0.975941667846465
40
0.979390323153564
40
0.982838978460662
40
0.98628763376776
40
0.989736289074859
40
0.993184944381957
40
0.996633599689055
40
1
40
1
40
1
40
1
41
1
10
-1.99503997793928
20
-35.8251630614967
30
0
41
1
10
-1.99503997793928
20
-35.8252435306472
30
0
41
1
10
-1.99503997793928
20
-35.8249661948889
30
0
41
1
10
-1.99503997793928
20
-35.8232300538525
30
0
41
1
10
-1.99503997793928
20
-35.8201626633944
30
0
41
1
10
-1.99503997793928
20
-35.8143275520899
30
0
41
1
10
-1.99503997793928
20
-35.8038035395423
30
0
41
1
10
-1.99503997793928
20
-35.786103718398
30
0
41
1
10
-1.99503997793931
20
-35.763434753032
30
0
41
1
10
-1.99503997793928
20
-35.7358925640298
30
0
41
1
10
-1.99503997793928
20
-35.7035662791796
30
0
41
1
10
-1.99503997793928
20
-35.6665412784639
30
0
41
1
10
-1.99503997793928
20
-35.6248991978807
30
0
41
1
10
-1.99503997793928
20
-35.5787156149852
30
0
41
1
10
-1.99503997793928
20
-35.5280658411496
30
0
41
1
10
-1.99503997793928
20
-35.4730177383402
30
0
41
1
10
-1.99503997793928
20
-35.4136393963591
30
0
41
1
10
-1.99503997793928
20
-35.3499946094464
30
0
41
1
10
-1.99503997793928
20
-35.2821433047988
30
0
41
1
10
-1.99503997793928
20
-35.2101443481799
30
0
41
1
10
-1.99503997793931
20
-35.1340535550079
30
0
41
1
10
-1.99503997793928
20
-35.0539244294382
30
0
41
1
10
-1.99503997793928
20
-34.9698083210839
30
0
41
1
10
-1.99503997793928
20
-34.8817544969816
30
0
41
1
10
-1.99503997793928
20
-34.7898102805557
30
0
41
1
10
-1.99503997793928
20
-34.6940212809506
30
0
41
1
10
-1.99503997793928
20
-34.5944312751917
30
0
41
1
10
-1.99503997793928
20
-34.4910822904624
30
0
41
1
10
-1.99503997793928
20
-34.3482948986979
30
0
41
1
10
-1.99503997793928
20
-34.1982444859641
30
0
41
1
10
-1.99503997793928
20
-34.0605701934049
30
0
41
1
10
-1.99503997793928
20
-33.98010670812
30
0
41
1
10
-1.99503997793928
20
-33.8984584677328
30
0
41
1
10
-1.99503997793928
20
-33.7942266244678
30
0
41
1
10
-1.99503997793928
20
-33.6227215100013
30
0
41
1
10
-1.99503997793928
20
-33.4443819493482
30
0
41
1
10
-1.99503997793928
20
-33.2591101879707
30
0
41
1
10
-1.99503997793928
20
-33.0693268620525
30
0
41
1
10
-1.99503997793928
20
-32.8237966604288
30
0
41
1
10
-1.99503997793928
20
-32.567262400264
30
0
41
1
10
-1.99503997793928
20
-32.3554556995001
30
0
41
1
10
-1.99503997793928
20
-32.1934025758849
30
0
41
1
10
-1.99503997793928
20
-32.0281430685794
30
0
41
1
10
-1.99503997793928
20
-31.803508135832
30
0
41
1
10
-1.99503997793928
20
-31.514907021043
30
0
41
1
10
-1.99503997793928
20
-31.2159040588431
30
0
41
1
10
-1.99503997793928
20
-30.9704527178571
30
0
41
1
10
-1.99503997793928
20
-30.7209148294369
30
0
41
1
10
-1.99503997793928
20
-30.4014843150581
30
0
41
1
10
-1.99503997793928
20
-30.0060620312649
30
0
41
1
10
-1.99503997793928
20
-29.6666623731205
30
0
41
1
10
-1.99503997793928
20
-29.3891503890766
30
0
41
1
10
-1.99503997793928
20
-29.1781205774538
30
0
41
1
10
-1.99503997793928
20
-28.964169578493
30
0
41
1
10
-1.99503997793928
20
-28.6749709038125
30
0
41
1
10
-1.99503997793928
20
-28.3063605307707
30
0
41
1
10
-1.99503997793928
20
-27.9281887523049
30
0
41
1
10
-1.99503997793928
20
-27.6198572645245
30
0
41
1
10
-1.99503997793928
20
-27.3858182086698
30
0
41
1
10
-1.99503997793928
20
-27.1489558193583
30
0
41
1
10
-1.99503997793928
20
-26.8293292051835
30
0
41
1
10
-1.99503997793928
20
-26.4229269800761
30
0
41
1
10
-1.99503997793928
20
-25.9240385075183
30
0
41
1
10
-1.99503997793928
20
-25.4991460740629
30
0
41
1
10
-1.99503997793928
20
-25.1536176922537
30
0
41
1
10
-1.99503997793928
20
-24.8044353771775
30
0
41
1
10
-1.99503997793928
20
-24.3612782589387
30
0
41
1
10
-1.99503997793928
20
-23.9090605721076
30
0
41
1
10
-1.99503997793928
20
-23.5417479137996
30
0
41
1
10
-1.99503997793928
20
-23.2636185109001
30
0
41
1
10
-1.99503997793928
20
-22.9827956359495
30
0
41
1
10
-1.99503997793931
20
-22.6047071741368
30
0
41
1
10
-1.99503997793928
20
-22.2214812917415
30
0
41
1
10
-1.99503997793928
20
-21.8326778029793
30
0
41
1
10
-1.99503997793928
20
-21.538466032195
30
0
41
1
10
-1.99503997793928
20
-21.2415899298926
30
0
41
1
10
-1.99503997793928
20
-20.8421270565358
30
0
41
1
10
-1.99503997793928
20
-20.4375997068478
30
0
41
1
10
-1.99503997793928
20
-20.0275173382951
30
0
41
1
10
-1.99503997793928
20
-19.7173732272647
30
0
41
1
10
-1.99503997793928
20
-19.4045841229999
30
0
41
1
10
-1.99503997793928
20
-18.9839194912414
30
0
41
1
10
-1.99503997793928
20
-18.5582479543883
30
0
41
1
10
-1.99503997793928
20
-18.1270203682571
30
0
41
1
10
-1.99503997793928
20
-17.8010357300387
30
0
41
1
10
-1.99503997793928
20
-17.4724160404973
30
0
41
1
10
-1.99503997793928
20
-17.1964201976603
30
0
41
1
10
-1.99503997793928
20
-16.9742159130046
30
0
41
1
10
-1.99503997793928
20
-16.7511340488146
30
0
41
1
10
-1.99503997793928
20
-16.3584761888621
30
0
41
1
10
-1.99503997793928
20
-15.9047277931739
30
0
41
1
10
-1.99503997793928
20
-15.4453839893882
30
0
41
1
10
-1.99503997793928
20
-15.0983254904573
30
0
41
1
10
-1.99503997793928
20
-14.7486306960068
30
0
41
1
10
-1.99503997793928
20
-14.3962994527456
30
0
41
1
10
-1.99503997793928
20
-14.0413293344855
30
0
41
1
10
-1.99503997793928
20
-13.683719865638
30
0
41
1
10
-1.99503997793928
20
-13.3234688690064
30
0
41
1
10
-1.99503997793928
20
-12.960574817857
30
0
41
1
10
-1.99503997793928
20
-12.595036086484
30
0
41
1
10
-1.99503997793928
20
-12.2268504032845
30
0
41
1
10
-1.99503997793928
20
-11.8560164651631
30
0
41
1
10
-1.99503997793928
20
-11.5448487178991
30
0
41
1
10
-1.99503997793928
20
-11.2944582734028
30
0
41
1
10
-1.99503997793928
20
-11.0431853255423
30
0
41
1
10
-1.99503997793928
20
-10.7276055574807
30
0
41
1
10
-1.99503997793928
20
-10.3461604572555
30
0
41
1
10
-1.99503997793928
20
-9.96205939515545
30
0
41
1
10
-1.99503997793928
20
-9.57530319982877
30
0
41
1
10
-1.99503997793928
20
-9.2508763048483
30
0
41
1
10
-1.99503997793928
20
-8.98985104945214
30
0
41
1
10
-1.99503997793928
20
-8.72794364001862
30
0
41
1
10
-1.99503997793928
20
-8.4649832423369
30
0
41
1
10
-1.99503997793928
20
-8.20041755954972
30
0
41
1
10
-1.99503997793928
20
-7.93497342164284
30
0
41
1
10
-1.99503997793928
20
-7.60174006365557
30
0
41
1
10
-1.99503997793928
20
-7.26630760435378
30
0
41
1
10
-1.99503997793928
20
-6.99646231552362
30
0
41
1
10
-1.99503997793928
20
-6.72574993640333
30
0
41
1
10
-1.99503997793928
20
-6.38598399194689
30
0
41
1
10
-1.99503997793928
20
-6.0440571882672
30
0
41
1
10
-1.99503997793928
20
-5.76902086988605
30
0
41
1
10
-1.99503997793928
20
-5.56220360150749
30
0
41
1
10
-1.99503997793928
20
-5.35475597589536
30
0
41
1
10
-1.99503997793928
20
-5.14668271481384
30
0
41
1
10
-1.99503997793928
20
-4.93799065000763
30
0
41
1
10
-1.99503997793928
20
-4.76363710905449
30
0
41
1
10
-1.99503997793928
20
-4.62372539696355
30
0
41
1
10
-1.99503997793928
20
-4.48361577983206
30
0
41
1
10
-1.99503997793928
20
-4.34342549686545
30
0
41
1
10
-1.99503997793928
20
-4.20271764804272
30
0
41
1
10
-1.99503997793928
20
-4.06181812904796
30
0
41
1
10
-1.99503997793928
20
-3.88550850742183
30
0
41
1
10
-1.99503997793928
20
-3.7087243230406
30
0
41
1
10
-1.99503997793928
20
-3.56687681977309
30
0
41
1
10
-1.99503997793928
20
-3.46041866707628
30
0
41
1
10
-1.99503997793928
20
-3.35382635526128
30
0
41
1
10
-1.99503997793928
20
-3.24710174058401
30
0
41
1
10
-1.99503997793928
20
-3.14024803839371
30
0
41
1
10
-1.99503997793928
20
-3.03326805859808
30
0
41
1
10
-1.99503997793928
20
-2.92616291868399
30
0
41
1
10
-1.99503997793928
20
-2.78310305721487
30
0
41
1
10
-1.99503997793928
20
-2.60418785734109
30
0
41
1
10
-1.99503997793928
20
-2.38891915598521
30
0
41
1
10
-1.99503997793928
20
-2.17322083473795
30
0
41
1
10
-1.99503997793928
20
-1.95712119571596
30
0
41
1
10
-1.99503997793928
20
-1.77682922491971
30
0
41
1
10
-1.99503997793928
20
-1.63223932075871
30
0
41
1
10
-1.99503997793928
20
-1.52379768483641
30
0
41
1
10
-1.99503997793928
20
-1.41528063419042
30
0
41
1
10
-1.99503997793928
20
-1.27038903897372
30
0
41
1
10
-1.99503997793928
20
-1.08935866678004
30
0
41
1
10
-1.99503997793928
20
-0.908138052921174
30
0
41
1
10
-1.99503997793928
20
-0.762866902191803
30
0
41
1
10
-1.99503997793928
20
-0.653960641303343
30
0
41
1
10
-1.99503997793928
20
-0.545019960941005
30
0
41
1
10
-1.99503997793928
20
-0.399611433921876
30
0
41
1
10
-1.99503997793928
20
-0.254507243772451
30
0
41
1
10
-1.99503997793928
20
-0.109027220249999
30
0
41
1
10
-1.99503997793928
20
9.1374375E-09
30
0
41
1
10
-1.99503997793928
20
0.109027235983319
30
0
41
1
10
-1.99503997793928
20
0.254507260377665
30
0
41
1
10
-1.99503997793928
20
0.399611451538959
30
0
41
1
10
-1.99503997793931
20
0.545019973860889
30
0
41
1
10
-1.99503997793928
20
0.653960658723463
30
0
41
1
10
-1.99503997793928
20
0.76286692146644
30
0
41
1
10
-1.99503997793928
20
0.908138069364867
30
0
41
1
10
-1.99503997793928
20
1.08935868161842
30
0
41
1
10
-1.99503997793928
20
1.27038905366359
30
0
41
1
10
-1.99503997793928
20
1.41528065788856
30
0
41
1
10
-1.99503997793928
20
1.52379770019974
30
0
41
1
10
-1.99503997793928
20
1.6322393388032
30
0
41
1
10
-1.99503997793928
20
1.77682919806017
30
0
41
1
10
-1.99503997793928
20
1.9209349148361
30
0
41
1
10
-1.99503997793928
20
2.06516367446017
30
0
41
1
10
-1.99503997793928
20
2.20926559475362
30
0
41
1
10
-1.99503997793928
20
2.3528667098262
30
0
41
1
10
-1.99503997793928
20
2.49654581237678
30
0
41
1
10
-1.99503997793928
20
2.6041237552831
30
0
41
1
10
-1.99503997793928
20
2.71158686216663
30
0
41
1
10
-1.99503997793928
20
2.81893418131361
30
0
41
1
10
-1.99503997793928
20
2.92616259642287
30
0
41
1
10
-1.99503997793928
20
3.06906085087897
30
0
41
1
10
-1.99503997793928
20
3.21144324089971
30
0
41
1
10
-1.99503997793928
20
3.35382641814786
30
0
41
1
10
-1.99503997793928
20
3.4604186809762
30
0
41
1
10
-1.99503997793928
20
3.5668768085371
30
0
41
1
10
-1.99503997793928
20
3.70872432201037
30
0
41
1
10
-1.99503997793928
20
3.88550853751428
30
0
41
1
10
-1.99503997793928
20
4.06181816740792
30
0
41
1
10
-1.99503997793928
20
4.20271766259083
30
0
41
1
10
-1.99503997793928
20
4.34342548405567
30
0
41
1
10
-1.99503997793928
20
4.48361575507573
30
0
41
1
10
-1.99503997793928
20
4.62372538326241
30
0
41
1
10
-1.99503997793928
20
4.76363712095309
30
0
41
1
10
-1.99503997793928
20
4.93799069007392
30
0
41
1
10
-1.99503997793928
20
5.14668274769548
30
0
41
1
10
-1.99503997793928
20
5.35475597096192
30
0
41
1
10
-1.99503997793928
20
5.56220357677802
30
0
41
1
10
-1.99503997793928
20
5.76902086592727
30
0
41
1
10
-1.99503997793928
20
6.04405722561486
30
0
41
1
10
-1.99503997793928
20
6.38598402190888
30
0
41
1
10
-1.99503997793928
20
6.72574990920415
30
0
41
1
10
-1.99503997793928
20
6.99646231662956
30
0
41
1
10
-1.99503997793928
20
7.26630764015115
30
0
41
1
10
-1.99503997793928
20
7.60174008666431
30
0
41
1
10
-1.99503997793928
20
7.93497336561654
30
0
41
1
10
-1.99503997793928
20
8.20041752296066
30
0
41
1
10
-1.99503997793928
20
8.46498321367616
30
0
41
1
10
-1.99503997793928
20
8.79382593589909
30
0
41
1
10
-1.99503997793928
20
9.18589158918715
30
0
41
1
10
-1.99503997793928
20
9.57530335790582
30
0
41
1
10
-1.99503997793928
20
9.96205972428265
30
0
41
1
10
-1.99503997793928
20
10.3461602965628
30
0
41
1
10
-1.99503997793928
20
10.7276051607687
30
0
41
1
10
-1.99503997793928
20
11.1063953922263
30
0
41
1
10
-1.99503997793928
20
11.4825318141738
30
0
41
1
10
-1.99503997793928
20
11.85601645061
30
0
41
1
10
-1.99503997793928
20
12.2268503778688
30
0
41
1
10
-1.99503997793928
20
12.5950360925706
30
0
41
1
10
-1.99503997793928
20
12.9605748020561
30
0
41
1
10
-1.99503997793928
20
13.3234688579879
30
0
41
1
10
-1.99503997793928
20
13.6837198698814
30
0
41
1
10
-1.99503997793928
20
13.9816645441138
30
0
41
1
10
-1.99503997793928
20
14.2188112194045
30
0
41
1
10
-1.99503997793928
20
14.455079118457
30
0
41
1
10
-1.99503997793928
20
14.7486309197531
30
0
41
1
10
-1.99503997793928
20
15.0983253104253
30
0
41
1
10
-1.99503997793928
20
15.4453840138398
30
0
41
1
10
-1.99503997793928
20
15.7898077032214
30
0
41
1
10
-1.99503997793928
20
16.1315968939283
30
0
41
1
10
-1.99503997793928
20
16.4707522036702
30
0
41
1
10
-1.99503997793928
20
16.7511340559088
30
0
41
1
10
-1.99503997793928
20
16.9742159134664
30
0
41
1
10
-1.99503997793928
20
17.1964202003686
30
0
41
1
10
-1.99503997793928
20
17.4724160483816
30
0
41
1
10
-1.99503997793928
20
17.8010357340039
30
0
41
1
10
-1.99503997793928
20
18.1270203733511
30
0
41
1
10
-1.99503997793928
20
18.5582479712653
30
0
41
1
10
-1.99503997793928
20
18.9839194922239
30
0
41
1
10
-1.99503997793928
20
19.4045841348166
30
0
41
1
10
-1.99503997793928
20
19.7173732218512
30
0
41
1
10
-1.99503997793928
20
20.0275173509219
30
0
41
1
10
-1.99503997793928
20
20.4375997139134
30
0
41
1
10
-1.99503997793928
20
20.8421270630884
30
0
41
1
10
-1.99503997793928
20
21.2415899372622
30
0
41
1
10
-1.99503997793928
20
21.5384660281962
30
0
41
1
10
-1.99503997793928
20
21.8326778142531
30
0
41
1
10
-1.99503997793928
20
22.2214812963055
30
0
41
1
10
-1.99503997793928
20
22.6047071794768
30
0
41
1
10
-1.99503997793928
20
22.9827956431365
30
0
41
1
10
-1.99503997793928
20
23.2636185073191
30
0
41
1
10
-1.99503997793928
20
23.5417479211437
30
0
41
1
10
-1.99503997793928
20
23.9090605798748
30
0
41
1
10
-1.99503997793928
20
24.3612782608926
30
0
41
1
10
-1.99503997793928
20
24.8044353773024
30
0
41
1
10
-1.99503997793928
20
25.1536176941803
30
0
41
1
10
-1.99503997793928
20
25.4991460823892
30
0
41
1
10
-1.99503997793928
20
25.9240385032945
30
0
41
1
10
-1.99503997793928
20
26.4229269838674
30
0
41
1
10
-1.99503997793928
20
26.8293292074653
30
0
41
1
10
-1.99503997793928
20
27.1489558217171
30
0
41
1
10
-1.99503997793928
20
27.3858182074443
30
0
41
1
10
-1.99503997793928
20
27.6198572656328
30
0
41
1
10
-1.99503997793928
20
27.9281887547298
30
0
41
1
10
-1.99503997793928
20
28.306360528673
30
0
41
1
10
-1.99503997793928
20
28.6749709053452
30
0
41
1
10
-1.99503997793928
20
28.9641695771706
30
0
41
1
10
-1.99503997793928
20
29.1781205760016
30
0
41
1
10
-1.99503997793928
20
29.3891503898005
30
0
41
1
10
-1.99503997793928
20
29.6666623719011
30
0
41
1
10
-1.99503997793926
20
30.0060620316198
30
0
41
1
10
-1.99503997793928
20
30.4014843078869
30
0
41
1
10
-1.99503997793928
20
30.720914832824
30
0
41
1
10
-1.99503997793928
20
30.9704527129577
30
0
41
1
10
-1.99503997793928
20
31.2159040534273
30
0
41
1
10
-1.99503997793928
20
31.5149070177094
30
0
41
1
10
-1.99503997793928
20
31.8035081361274
30
0
41
1
10
-1.99503997793931
20
32.0281430662551
30
0
41
1
10
-1.99503997793928
20
32.1934025642943
30
0
41
1
10
-1.99503997793928
20
32.3554556997831
30
0
41
1
10
-1.99503997793928
20
32.5672623983938
30
0
41
1
10
-1.99503997793928
20
32.8237966601455
30
0
41
1
10
-1.99503997793928
20
33.0693268459332
30
0
41
1
10
-1.99503997793931
20
33.2591101848391
30
0
41
1
10
-1.99503997793928
20
33.4443819491762
30
0
41
1
10
-1.99503997793928
20
33.622721506097
30
0
41
1
10
-1.99503997793928
20
33.7942266163982
30
0
41
1
10
-1.99503997793928
20
33.8984584538254
30
0
41
1
10
-1.99503997793928
20
33.9801066971493
30
0
41
1
10
-1.99503997793928
20
34.0605701909876
30
0
41
1
10
-1.99503997793928
20
34.1982444851696
30
0
41
1
10
-1.99503997793928
20
34.348294891195
30
0
41
1
10
-1.99503997793928
20
34.4910822889059
30
0
41
1
10
-1.99503997793928
20
34.5944312514431
30
0
41
1
10
-1.99503997793928
20
34.6940212865371
30
0
41
1
10
-1.99503997793928
20
34.7898102716018
30
0
41
1
10
-1.99503997793928
20
34.8817544739769
30
0
41
1
10
-1.99503997793928
20
34.9698083299964
30
0
41
1
10
-1.99503997793931
20
35.0539245925551
30
0
41
1
10
-1.99503997793928
20
35.1340530052702
30
0
41
1
10
-1.99503997793928
20
35.2101447225725
30
0
41
1
10
-1.99503997793928
20
35.3061643717785
30
0
41
1
10
-1.99503997793928
20
35.393827084185
30
0
41
1
10
-1.99503997793928
20
35.473017757568
30
0
41
1
10
-1.99503997793928
20
35.5280658263188
30
0
41
1
10
-1.99503997793928
20
35.5787156824351
30
0
41
1
10
-1.99503997793928
20
35.6248991716382
30
0
41
1
10
-1.99503997793928
20
35.6665413308515
30
0
41
1
10
-1.99503997793928
20
35.7035662864511
30
0
41
1
10
-1.99503997793928
20
35.7358925782285
30
0
41
1
10
-1.99503997793928
20
35.7634347985348
30
0
41
1
10
-1.99503997793928
20
35.7861037017736
30
0
41
1
10
-1.99503997793928
20
35.8038036057849
30
0
41
1
10
-1.99503997793928
20
35.8164351684488
30
0
41
1
10
-1.99503997793928
20
35.8238322562097
30
0
41
1
10
-1.99503997793931
20
35.8253027987532
30
0
41
1
10
-1.99503997793928
20
35.8251709523921
30
0
0
SPLINE
5
10B
100
AcDbEntity
8
SK1
62
256
6
ByLayer
370
18
48
1
60
0
100
AcDbSpline
70
4
71
3
72
316
73
312
40
0
40
0
40
0
40
0
40
0.0001689108919425
40
0.0036889472105682
40
0.0072089835291938
40
0.0107290198478195
40
0.0142490561664452
40
0.0177690924850709
40
0.0212891288036966
40
0.0248091651223222
40
0.0283292014409479
40
0.0318492377595736
40
0.0353692740781993
40
0.0388893103968249
40
0.0424093467154506
40
0.0459293830340763
40
0.049449419352702
40
0.0529694556713277
40
0.0564894919899533
40
0.060009528308579
40
0.0635295646272047
40
0.0670496009458304
40
0.070569637264456
40
0.0740896735830817
40
0.0776097099017074
40
0.0846497825389587
40
0.0881698188575844
40
0.0899298370168973
40
0.0916898551762101
40
0.0952098914948358
40
0.0987299278134615
40
0.105770000450713
40
0.109290036769339
40
0.112810073087964
40
0.119850145725216
40
0.126890218362467
40
0.130410254681093
40
0.133930290999718
40
0.137450327318344
40
0.14097036363697
40
0.148010436274221
40
0.155050508911472
40
0.158570545230098
40
0.162090581548724
40
0.169130654185975
40
0.176170726823226
40
0.183210799460478
40
0.186730835779103
40
0.190250872097729
40
0.193770908416355
40
0.19729094473498
40
0.204331017372232
40
0.211371090009483
40
0.214891126328109
40
0.218411162646734
40
0.22193119896536
40
0.225451235283986
40
0.232491307921237
40
0.239531380558489
40
0.24657145319574
40
0.250091489514366
40
0.253611525832991
40
0.260651598470243
40
0.267691671107494
40
0.27121170742612
40
0.274731743744745
40
0.278251780063371
40
0.281771816381997
40
0.288811889019248
40
0.292331925337874
40
0.295851961656499
40
0.299371997975125
40
0.302892034293751
40
0.309932106931002
40
0.313452143249628
40
0.316972179568254
40
0.320492215886879
40
0.324012252205505
40
0.331052324842756
40
0.334572361161382
40
0.338092397480008
40
0.341612433798633
40
0.345132470117259
40
0.346892488276572
40
0.348652506435885
40
0.35217254275451
40
0.359212615391762
40
0.362732651710387
40
0.366252688029013
40
0.369772724347639
40
0.373292760666264
40
0.37681279698489
40
0.380332833303516
40
0.383852869622141
40
0.387372905940767
40
0.390892942259393
40
0.394412978578018
40
0.397933014896644
40
0.40145305121527
40
0.403213069374583
40
0.404973087533895
40
0.408493123852521
40
0.412013160171147
40
0.415533196489772
40
0.419053232808398
40
0.422573269127024
40
0.424333287286337
40
0.42609330544565
40
0.429613341764275
40
0.431373359923588
40
0.433133378082901
40
0.436653414401527
40
0.440173450720152
40
0.441933468879465
40
0.443693487038778
40
0.447213523357404
40
0.450733559676029
40
0.452493577835342
40
0.454253595994655
40
0.456013614153968
40
0.457773632313281
40
0.459533650472593
40
0.461293668631906
40
0.462173677711563
40
0.463053686791219
40
0.464813704950532
40
0.465693714030188
40
0.466573723109845
40
0.468333741269158
40
0.47009375942847
40
0.470973768508127
40
0.471853777587783
40
0.47273378666744
40
0.473613795747096
40
0.474493804826753
40
0.475373813906409
40
0.476253822986065
40
0.477133832065722
40
0.478893850225035
40
0.480653868384347
40
0.48241388654366
40
0.484173904702973
40
0.485933922862286
40
0.486813931941942
40
0.487693941021599
40
0.488573950101255
40
0.489453959180912
40
0.491213977340224
40
0.492973995499537
40
0.493854004579194
40
0.49473401365885
40
0.495614022738507
40
0.496494031818163
40
0.498254049977476
40
0.499134059057132
40
0.500014068136789
40
0.500894077216445
40
0.501774086296102
40
0.503534104455414
40
0.504414113535071
40
0.505294122614727
40
0.506174131694384
40
0.50705414077404
40
0.508814158933353
40
0.510574177092666
40
0.511454186172322
40
0.512334195251979
40
0.513214204331635
40
0.514094213411291
40
0.515854231570604
40
0.516734240650261
40
0.517614249729917
40
0.51937426788923
40
0.520254276968886
40
0.521134286048543
40
0.522014295128199
40
0.522894304207856
40
0.523774313287512
40
0.524654322367168
40
0.526414340526481
40
0.527294349606138
40
0.528174358685794
40
0.529054367765451
40
0.529934376845107
40
0.53169439500442
40
0.533454413163733
40
0.534334422243389
40
0.535214431323045
40
0.536974449482358
40
0.537854458562015
40
0.538734467641671
40
0.540494485800984
40
0.542254503960297
40
0.54401452211961
40
0.545774540278922
40
0.547534558438235
40
0.549294576597548
40
0.552814612916174
40
0.5563346492348
40
0.558094667394112
40
0.559854685553425
40
0.563374721872051
40
0.566894758190677
40
0.568654776349989
40
0.570414794509302
40
0.573934830827928
40
0.577454867146554
40
0.580974903465179
40
0.584494939783805
40
0.588014976102431
40
0.591535012421056
40
0.595055048739682
40
0.598575085058308
40
0.602095121376933
40
0.605615157695559
40
0.609135194014185
40
0.61265523033281
40
0.616175266651436
40
0.619695302970062
40
0.623215339288687
40
0.624975357448
40
0.626735375607313
40
0.630255411925939
40
0.633775448244564
40
0.63729548456319
40
0.640815520881816
40
0.644335557200441
40
0.647855593519067
40
0.651375629837693
40
0.653135647997006
40
0.654895666156319
40
0.658415702474944
40
0.66193573879357
40
0.665455775112196
40
0.668975811430821
40
0.676015884068073
40
0.679535920386698
40
0.683055956705324
40
0.68657599302395
40
0.690096029342575
40
0.697136101979827
40
0.700656138298452
40
0.704176174617078
40
0.707696210935704
40
0.711216247254329
40
0.718256319891581
40
0.721776356210206
40
0.725296392528832
40
0.728816428847458
40
0.732336465166083
40
0.739376537803335
40
0.746416610440586
40
0.749936646759212
40
0.753456683077838
40
0.760496755715089
40
0.76753682835234
40
0.774576900989592
40
0.778096937308217
40
0.781616973626843
40
0.785137009945469
40
0.788657046264094
40
0.795697118901346
40
0.802737191538597
40
0.806257227857223
40
0.809777264175848
40
0.813297300494474
40
0.8168173368131
40
0.823857409450351
40
0.830897482087602
40
0.837937554724854
40
0.84145759104348
40
0.844977627362105
40
0.852017699999357
40
0.859057772636608
40
0.862577808955234
40
0.866097845273859
40
0.869617881592485
40
0.873137917911111
40
0.880177990548362
40
0.887218063185613
40
0.890738099504239
40
0.894258135822865
40
0.901298208460116
40
0.904818244778742
40
0.908338281097367
40
0.91009829925668
40
0.911858317415993
40
0.915378353734619
40
0.92241842637187
40
0.925938462690496
40
0.929458499009121
40
0.932978535327747
40
0.936498571646373
40
0.940018607964998
40
0.943538644283624
40
0.94705868060225
40
0.950578716920875
40
0.954098753239501
40
0.957618789558127
40
0.964658862195378
40
0.968178898514004
40
0.971698934832629
40
0.975218971151255
40
0.978739007469881
40
0.982259043788507
40
0.985779080107132
40
0.989299116425758
40
0.992819152744384
40
0.996339189063009
40
0.999859225381635
40
1
40
1
40
1
40
1
41
1
10
-2.20000000000002
20
-35.9984815366738
30
0
41
1
10
-2.19999999999999
20
-35.9982416279182
30
0
41
1
10
-2.19999999999999
20
-35.9929593917348
30
0
41
1
10
-2.19999999999996
20
-35.9808152586154
30
0
41
1
10
-2.19999999999999
20
-35.9580337844422
30
0
41
1
10
-2.19999999999999
20
-35.9303574155849
30
0
41
1
10
-2.19999999999999
20
-35.8978764072393
30
0
41
1
10
-2.19999999999999
20
-35.8606772012186
30
0
41
1
10
-2.19999999999999
20
-35.8188423507704
30
0
41
1
10
-2.19999999999996
20
-35.7724483138314
30
0
41
1
10
-2.19999999999999
20
-35.7215711806023
30
0
41
1
10
-2.19999999999999
20
-35.6662795049964
30
0
41
1
10
-2.19999999999996
20
-35.6066420981761
30
0
41
1
10
-2.19999999999999
20
-35.5427232831041
30
0
41
1
10
-2.19999999999999
20
-35.4745835494886
30
0
41
1
10
-2.19999999999999
20
-35.4022823040986
30
0
41
1
10
-2.19999999999999
20
-35.3258758054439
30
0
41
1
10
-2.19999999999999
20
-35.2454179865413
30
0
41
1
10
-2.19999999999996
20
-35.1609605897894
30
0
41
1
10
-2.19999999999999
20
-35.0725532425695
30
0
41
1
10
-2.19999999999999
20
-34.9802436065342
30
0
41
1
10
-2.19999999999999
20
-34.8840775983924
30
0
41
1
10
-2.19999999999999
20
-34.7840992673662
30
0
41
1
10
-2.19999999999999
20
-34.6803509079355
30
0
41
1
10
-2.19999999999999
20
-34.5370512446321
30
0
41
1
10
-2.19999999999999
20
-34.386361730786
30
0
41
1
10
-2.19999999999999
20
-34.2481903116661
30
0
41
1
10
-2.19999999999999
20
-34.1674461732589
30
0
41
1
10
-2.19999999999996
20
-34.0855143686358
30
0
41
1
10
-2.19999999999999
20
-33.9808791024373
30
0
41
1
10
-2.19999999999999
20
-33.8087856254549
30
0
41
1
10
-2.19999999999999
20
-33.6297179034793
30
0
41
1
10
-2.19999999999999
20
-33.4438214227632
30
0
41
1
10
-2.19999999999999
20
-33.2534024597305
30
0
41
1
10
-2.19999999999996
20
-33.0069583004128
30
0
41
1
10
-2.19999999999999
20
-32.7494770380993
30
0
41
1
10
-2.19999999999999
20
-32.5369772821028
30
0
41
1
10
-2.19999999999999
20
-32.3743609910527
30
0
41
1
10
-2.19999999999999
20
-32.2085294030258
30
0
41
1
10
-2.19999999999999
20
-31.9831685438612
30
0
41
1
10
-2.19999999999999
20
-31.6935278654741
30
0
41
1
10
-2.19999999999999
20
-31.3934533930513
30
0
41
1
10
-2.19999999999999
20
-31.1472201983193
30
0
41
1
10
-2.19999999999996
20
-30.8968896848934
30
0
41
1
10
-2.19999999999999
20
-30.5763259691741
30
0
41
1
10
-2.19999999999999
20
-30.1795721880178
30
0
41
1
10
-2.19999999999999
20
-29.8389753334019
30
0
41
1
10
-2.19999999999999
20
-29.5605910229122
30
0
41
1
10
-2.19999999999999
20
-29.3488540584265
30
0
41
1
10
-2.19999999999999
20
-29.1341864928692
30
0
41
1
10
-2.19999999999999
20
-28.8440802923644
30
0
41
1
10
-2.19999999999999
20
-28.4741740127019
30
0
41
1
10
-2.19999999999999
20
-28.0946721119014
30
0
41
1
10
-2.19999999999999
20
-27.7853718286964
30
0
41
1
10
-2.19999999999999
20
-27.5505474715739
30
0
41
1
10
-2.19999999999999
20
-27.3128894716318
30
0
41
1
10
-2.19999999999999
20
-26.9922551577599
30
0
41
1
10
-2.19999999999999
20
-26.5844139266108
30
0
41
1
10
-2.19999999999996
20
-26.0838374506717
30
0
41
1
10
-2.19999999999999
20
-25.6574288542629
30
0
41
1
10
-2.19999999999996
20
-25.310795566268
30
0
41
1
10
-2.19999999999999
20
-24.9604927320777
30
0
41
1
10
-2.19999999999996
20
-24.5157343073517
30
0
41
1
10
-2.19999999999999
20
-24.0618724844523
30
0
41
1
10
-2.19999999999999
20
-23.6933606289522
30
0
41
1
10
-2.19999999999999
20
-23.4142578696928
30
0
41
1
10
-2.19999999999999
20
-23.1324477508894
30
0
41
1
10
-2.19999999999999
20
-22.7531069145398
30
0
41
1
10
-2.19999999999999
20
-22.3683458335126
30
0
41
1
10
-2.19999999999999
20
-21.9782353272421
30
0
41
1
10
-2.19999999999996
20
-21.6829615863146
30
0
41
1
10
-2.19999999999999
20
-21.3850073833771
30
0
41
1
10
-2.19999999999996
20
-20.984175332485
30
0
41
1
10
-2.19999999999996
20
-20.5779672141207
30
0
41
1
10
-2.19999999999999
20
-20.1664517398788
30
0
41
1
10
-2.19999999999999
20
-19.8551416161418
30
0
41
1
10
-2.19999999999996
20
-19.5411672734658
30
0
41
1
10
-2.19999999999999
20
-19.1189951374152
30
0
41
1
10
-2.19999999999999
20
-18.6914694093052
30
0
41
1
10
-2.19999999999999
20
-18.2586575687845
30
0
41
1
10
-2.19999999999999
20
-17.9313816332312
30
0
41
1
10
-2.19999999999999
20
-17.601447067755
30
0
41
1
10
-2.19999999999999
20
-17.3242802462531
30
0
41
1
10
-2.19999999999999
20
-17.1012276238876
30
0
41
1
10
-2.19999999999996
20
-16.8772884002214
30
0
41
1
10
-2.19999999999999
20
-16.4830628393223
30
0
41
1
10
-2.19999999999999
20
-16.0271656941318
30
0
41
1
10
-2.19999999999999
20
-15.5659788017487
30
0
41
1
10
-2.19999999999999
20
-15.2174126385948
30
0
41
1
10
-2.19999999999996
20
-14.866177969354
30
0
41
1
10
-2.19999999999999
20
-14.5122728269276
30
0
41
1
10
-2.19999999999999
20
-14.1556932924213
30
0
41
1
10
-2.19999999999999
20
-13.7964372435234
30
0
41
1
10
-2.19999999999999
20
-13.434500435816
30
0
41
1
10
-2.19999999999999
20
-13.069879555812
30
0
41
1
10
-2.19999999999999
20
-12.7025705743373
30
0
41
1
10
-2.19999999999996
20
-12.3325690014507
30
0
41
1
10
-2.19999999999999
20
-11.9598708409375
30
0
41
1
10
-2.19999999999999
20
-11.6470295372759
30
0
41
1
10
-2.19999999999999
20
-11.3954184217635
30
0
41
1
10
-2.19999999999999
20
-11.1429046192032
30
0
41
1
10
-2.19999999999999
20
-10.8255481020131
30
0
41
1
10
-2.19999999999999
20
-10.4420145743896
30
0
41
1
10
-2.19999999999999
20
-10.0557602279918
30
0
41
1
10
-2.19999999999999
20
-9.66678089901876
30
0
41
1
10
-2.19999999999999
20
-9.34034669943736
30
0
41
1
10
-2.19999999999999
20
-9.07784991102179
30
0
41
1
10
-2.19999999999999
20
-8.81444106406229
30
0
41
1
10
-2.19999999999999
20
-8.54963209943352
30
0
41
1
10
-2.19999999999999
20
-8.28348543659979
30
0
41
1
10
-2.19999999999999
20
-8.01642493811286
30
0
41
1
10
-2.19999999999999
20
-7.68085993160076
30
0
41
1
10
-2.19999999999999
20
-7.34301151247959
30
0
41
1
10
-2.19999999999999
20
-7.07138465930166
30
0
41
1
10
-2.19999999999999
20
-6.79884546670326
30
0
41
1
10
-2.19999999999999
20
-6.45643328069664
30
0
41
1
10
-2.19999999999999
20
-6.11175146674469
30
0
41
1
10
-2.19999999999999
20
-5.83467460689428
30
0
41
1
10
-2.19999999999999
20
-5.6261808540489
30
0
41
1
10
-2.19999999999999
20
-5.41701391929837
30
0
41
1
10
-2.19999999999996
20
-5.20717745478146
30
0
41
1
10
-2.19999999999999
20
-4.99667509392859
30
0
41
1
10
-2.19999999999999
20
-4.82069761094564
30
0
41
1
10
-2.19999999999996
20
-4.67960211600027
30
0
41
1
10
-2.19999999999999
20
-4.53828872405643
30
0
41
1
10
-2.19999999999999
20
-4.39662510037121
30
0
41
1
10
-2.19999999999999
20
-4.25466574513038
30
0
41
1
10
-2.19999999999999
20
-4.1124933975407
30
0
41
1
10
-2.19999999999999
20
-3.93436102619759
30
0
41
1
10
-2.19999999999999
20
-3.7557080358111
30
0
41
1
10
-2.19999999999999
20
-3.61249538417181
30
0
41
1
10
-2.19999999999999
20
-3.50492661910167
30
0
41
1
10
-2.19999999999999
20
-3.39720741056175
30
0
41
1
10
-2.19999999999999
20
-3.28933976181253
30
0
41
1
10
-2.19999999999999
20
-3.18132544112754
30
0
41
1
10
-2.19999999999999
20
-3.07316631132792
30
0
41
1
10
-2.19999999999999
20
-2.96486450366427
30
0
41
1
10
-2.19999999999996
20
-2.8202855732074
30
0
41
1
10
-2.19999999999999
20
-2.63919374722943
30
0
41
1
10
-2.19999999999999
20
-2.42136740345268
30
0
41
1
10
-2.19999999999999
20
-2.2030366306553
30
0
41
1
10
-2.19999999999999
20
-1.98422944343233
30
0
41
1
10
-2.19999999999999
20
-1.80150795480097
30
0
41
1
10
-2.19999999999999
20
-1.65514766840653
30
0
41
1
10
-2.19999999999999
20
-1.5452706495837
30
0
41
1
10
-2.19999999999999
20
-1.43530118015903
30
0
41
1
10
-2.19999999999999
20
-1.28857135826542
30
0
41
1
10
-2.19999999999999
20
-1.10492621249188
30
0
41
1
10
-2.19999999999999
20
-0.921048397975113
30
0
41
1
10
-2.19999999999999
20
-0.773855181921306
30
0
41
1
10
-2.19999999999999
20
-0.663399753590824
30
0
41
1
10
-2.19999999999996
20
-0.552900673038835
30
0
41
1
10
-2.19999999999999
20
-0.405533020604224
30
0
41
1
10
-2.19999999999999
20
-0.258066027197003
30
0
41
1
10
-2.19999999999999
20
-0.110609798282297
30
0
41
1
10
-2.19999999999999
20
7.9678557E-09
30
0
41
1
10
-2.19999999999999
20
0.110609814521041
30
0
41
1
10
-2.19999999999999
20
0.25806604329776
30
0
41
1
10
-2.19999999999999
20
0.405533036679543
30
0
41
1
10
-2.19999999999999
20
0.552900689625886
30
0
41
1
10
-2.19999999999999
20
0.663399769480321
30
0
41
1
10
-2.19999999999999
20
0.773855197893681
30
0
41
1
10
-2.19999999999999
20
0.921048414140927
30
0
41
1
10
-2.19999999999999
20
1.1049262291302
30
0
41
1
10
-2.19999999999999
20
1.28857137427264
30
0
41
1
10
-2.19999999999999
20
1.43530119545
30
0
41
1
10
-2.19999999999999
20
1.54527066672026
30
0
41
1
10
-2.19999999999999
20
1.65514768405933
30
0
41
1
10
-2.19999999999999
20
1.8015079794429
30
0
41
1
10
-2.19999999999999
20
1.947699848149
30
0
41
1
10
-2.19999999999999
20
2.09363388662032
30
0
41
1
10
-2.19999999999999
20
2.23941432408861
30
0
41
1
10
-2.19999999999999
20
2.38499085138605
30
0
41
1
10
-2.19999999999999
20
2.53028147448529
30
0
41
1
10
-2.19999999999999
20
2.63912850340498
30
0
41
1
10
-2.19999999999999
20
2.74784323707018
30
0
41
1
10
-2.19999999999999
20
2.8564227422421
30
0
41
1
10
-2.19999999999999
20
2.96486450652623
30
0
41
1
10
-2.19999999999999
20
3.10925640073572
30
0
41
1
10
-2.19999999999999
20
3.25339347207256
30
0
41
1
10
-2.19999999999999
20
3.39720740223606
30
0
41
1
10
-2.19999999999999
20
3.50492662159448
30
0
41
1
10
-2.19999999999999
20
3.61249538774427
30
0
41
1
10
-2.19999999999996
20
3.75570803460607
30
0
41
1
10
-2.19999999999999
20
3.93436102607177
30
0
41
1
10
-2.19999999999999
20
4.11249340828527
30
0
41
1
10
-2.19999999999999
20
4.2546657616511
30
0
41
1
10
-2.19999999999999
20
4.39662511608438
30
0
41
1
10
-2.19999999999999
20
4.53828873143232
30
0
41
1
10
-2.19999999999999
20
4.67960211602713
30
0
41
1
10
-2.19999999999999
20
4.82069760714901
30
0
41
1
10
-2.19999999999999
20
4.99667509827836
30
0
41
1
10
-2.19999999999999
20
5.20717747481993
30
0
41
1
10
-2.19999999999999
20
5.41701393923276
30
0
41
1
10
-2.19999999999999
20
5.62618085956723
30
0
41
1
10
-2.19999999999999
20
5.83467460016635
30
0
41
1
10
-2.19999999999999
20
6.11175147173765
30
0
41
1
10
-2.19999999999999
20
6.456433316795
30
0
41
1
10
-2.19999999999999
20
6.79884546868331
30
0
41
1
10
-2.19999999999996
20
7.0713846512281
30
0
41
1
10
-2.19999999999999
20
7.34301151998699
30
0
41
1
10
-2.19999999999999
20
7.68085996867353
30
0
41
1
10
-2.19999999999999
20
8.01642492609366
30
0
41
1
10
-2.19999999999999
20
8.28348540775059
30
0
41
1
10
-2.19999999999999
20
8.54963206906427
30
0
41
1
10
-2.19999999999999
20
8.88062693308251
30
0
41
1
10
-2.19999999999999
20
9.27507092999488
30
0
41
1
10
-2.19999999999999
20
9.66678080103017
30
0
41
1
10
-2.19999999999996
20
10.055760504374
30
0
41
1
10
-2.19999999999999
20
10.4420146592236
30
0
41
1
10
-2.19999999999999
20
10.8255477577392
30
0
41
1
10
-2.19999999999999
20
11.2063650265909
30
0
41
1
10
-2.19999999999996
20
11.5844709045751
30
0
41
1
10
-2.19999999999999
20
11.9598708451067
30
0
41
1
10
-2.19999999999999
20
12.332568976433
30
0
41
1
10
-2.19999999999999
20
12.7025705750891
30
0
41
1
10
-2.19999999999999
20
13.0698795474479
30
0
41
1
10
-2.19999999999999
20
13.434500413039
30
0
41
1
10
-2.19999999999999
20
13.7964372758264
30
0
41
1
10
-2.19999999999996
20
14.0958244492637
30
0
41
1
10
-2.19999999999999
20
14.3339831373198
30
0
41
1
10
-2.19999999999999
20
14.5712504744562
30
0
41
1
10
-2.19999999999999
20
14.8661782384876
30
0
41
1
10
-2.19999999999999
20
15.2174125550855
30
0
41
1
10
-2.19999999999999
20
15.5659787170004
30
0
41
1
10
-2.19999999999999
20
15.9118789297515
30
0
41
1
10
-2.19999999999999
20
16.2551149485891
30
0
41
1
10
-2.19999999999999
20
16.5956885399058
30
0
41
1
10
-2.19999999999999
20
16.8772884036231
30
0
41
1
10
-2.19999999999999
20
17.1012276273506
30
0
41
1
10
-2.19999999999999
20
17.3242802479083
30
0
41
1
10
-2.19999999999999
20
17.6014470745968
30
0
41
1
10
-2.19999999999999
20
17.9313816381119
30
0
41
1
10
-2.19999999999999
20
18.2586575717451
30
0
41
1
10
-2.19999999999999
20
18.6914694264878
30
0
41
1
10
-2.19999999999999
20
19.1189951390116
30
0
41
1
10
-2.19999999999999
20
19.5411672873635
30
0
41
1
10
-2.19999999999999
20
19.8551416115087
30
0
41
1
10
-2.19999999999999
20
20.1664517496922
30
0
41
1
10
-2.19999999999999
20
20.5779672218009
30
0
41
1
10
-2.19999999999999
20
20.9841753387679
30
0
41
1
10
-2.19999999999999
20
21.385007393
30
0
41
1
10
-2.19999999999999
20
21.6829615822886
30
0
41
1
10
-2.19999999999999
20
21.9782353365019
30
0
41
1
10
-2.19999999999999
20
22.3683458387384
30
0
41
1
10
-2.19999999999999
20
22.7531069193881
30
0
41
1
10
-2.19999999999999
20
23.1324477597271
30
0
41
1
10
-2.19999999999999
20
23.414257866645
30
0
41
1
10
-2.19999999999999
20
23.6933606344229
30
0
41
1
10
-2.19999999999999
20
24.0618724924846
30
0
41
1
10
-2.19999999999999
20
24.5157343100948
30
0
41
1
10
-2.19999999999996
20
24.9604927323371
30
0
41
1
10
-2.19999999999999
20
25.3107955671813
30
0
41
1
10
-2.19999999999999
20
25.6574288628695
30
0
41
1
10
-2.19999999999999
20
26.0838374470222
30
0
41
1
10
-2.19999999999999
20
26.5844139299712
30
0
41
1
10
-2.19999999999999
20
26.9922551600878
30
0
41
1
10
-2.19999999999999
20
27.312889474477
30
0
41
1
10
-2.19999999999999
20
27.5505474706333
30
0
41
1
10
-2.19999999999999
20
27.7853718293799
30
0
41
1
10
-2.19999999999999
20
28.0946721145145
30
0
41
1
10
-2.19999999999999
20
28.4741740106829
30
0
41
1
10
-2.19999999999999
20
28.8440802938742
30
0
41
1
10
-2.19999999999999
20
29.1341864918563
30
0
41
1
10
-2.19999999999996
20
29.3488540567687
30
0
41
1
10
-2.19999999999999
20
29.5605910235312
30
0
41
1
10
-2.19999999999999
20
29.8389753322122
30
0
41
1
10
-2.19999999999999
20
30.1795721887093
30
0
41
1
10
-2.19999999999999
20
30.5763259617257
30
0
41
1
10
-2.19999999999999
20
30.8968896882167
30
0
41
1
10
-2.19999999999999
20
31.1472201940908
30
0
41
1
10
-2.19999999999999
20
31.393453387608
30
0
41
1
10
-2.19999999999999
20
31.6935278618122
30
0
41
1
10
-2.19999999999999
20
31.9831685440602
30
0
41
1
10
-2.19999999999999
20
32.2085294017453
30
0
41
1
10
-2.19999999999999
20
32.3743609793662
30
0
41
1
10
-2.19999999999996
20
32.5369772815204
30
0
41
1
10
-2.19999999999996
20
32.7494770362055
30
0
41
1
10
-2.19999999999999
20
33.0069583008311
30
0
41
1
10
-2.19999999999999
20
33.2534024436424
30
0
41
1
10
-2.19999999999999
20
33.4438214187486
30
0
41
1
10
-2.19999999999996
20
33.6297179032971
30
0
41
1
10
-2.19999999999999
20
33.8087856219281
30
0
41
1
10
-2.19999999999999
20
33.9808790950557
30
0
41
1
10
-2.19999999999999
20
34.0855143550287
30
0
41
1
10
-2.19999999999996
20
34.1674461612967
30
0
41
1
10
-2.19999999999999
20
34.2481903083142
30
0
41
1
10
-2.19999999999999
20
34.3863617301769
30
0
41
1
10
-2.19999999999999
20
34.5370512371171
30
0
41
1
10
-2.19999999999999
20
34.680350907395
30
0
41
1
10
-2.19999999999999
20
34.7840992432799
30
0
41
1
10
-2.19999999999999
20
34.8840776031987
30
0
41
1
10
-2.19999999999999
20
34.9802435989443
30
0
41
1
10
-2.19999999999999
20
35.0725532191378
30
0
41
1
10
-2.19999999999999
20
35.1609605893935
30
0
41
1
10
-2.19999999999996
20
35.2454181739629
30
0
41
1
10
-2.19999999999999
20
35.3258752465303
30
0
41
1
10
-2.19999999999999
20
35.4022826774254
30
0
41
1
10
-2.19999999999999
20
35.4986806355994
30
0
41
1
10
-2.19999999999999
20
35.5867654490801
30
0
41
1
10
-2.19999999999999
20
35.6662795296583
30
0
41
1
10
-2.19999999999999
20
35.7215711644677
30
0
41
1
10
-2.19999999999999
20
35.7724483817261
30
0
41
1
10
-2.19999999999999
20
35.8188423246858
30
0
41
1
10
-2.19999999999999
20
35.8606772530753
30
0
41
1
10
-2.19999999999996
20
35.8978764151194
30
0
41
1
10
-2.19999999999999
20
35.9303574291782
30
0
41
1
10
-2.19999999999999
20
35.9580338304474
30
0
41
1
10
-2.19999999999999
20
35.9808152416011
30
0
41
1
10
-2.19999999999996
20
35.9929120336003
30
0
41
1
10
-2.19999999999996
20
35.9981609759026
30
0
41
1
10
-2.19999999999996
20
35.9983614626161
30
0
0
SPLINE
5
10C
100
AcDbEntity
8
SK1
62
256
6
ByLayer
370
18
48
1
60
0
100
AcDbSpline
70
4
71
3
72
316
73
312
40
0
40
0
40
0
40
0
40
0.0029467161088665
40
0.0064470917372469
40
0.0099474673656273
40
0.0134478429940077
40
0.016948218622388
40
0.0204485942507684
40
0.0239489698791488
40
0.0274493455075291
40
0.0309497211359096
40
0.0344500967642899
40
0.0379504723926703
40
0.0414508480210507
40
0.044951223649431
40
0.0484515992778114
40
0.0519519749061918
40
0.0554523505345722
40
0.0589527261629526
40
0.0624531017913329
40
0.0659534774197133
40
0.0694538530480937
40
0.0729542286764741
40
0.0764546043048545
40
0.0799549799332348
40
0.0869557311899956
40
0.090456106818376
40
0.0922062946325662
40
0.0939564824467564
40
0.0974568580751368
40
0.100957233703517
40
0.107957984960278
40
0.111458360588658
40
0.114958736217039
40
0.121959487473799
40
0.12896023873056
40
0.132460614358941
40
0.135960989987321
40
0.139461365615701
40
0.142961741244082
40
0.149962492500842
40
0.156963243757603
40
0.160463619385984
40
0.163963995014364
40
0.170964746271125
40
0.177965497527885
40
0.184966248784646
40
0.188466624413027
40
0.191967000041407
40
0.195467375669787
40
0.198967751298168
40
0.205968502554928
40
0.212969253811689
40
0.21646962944007
40
0.21997000506845
40
0.22347038069683
40
0.226970756325211
40
0.233971507581971
40
0.240972258838732
40
0.247973010095493
40
0.251473385723873
40
0.254973761352254
40
0.261974512609015
40
0.268975263865775
40
0.272475639494155
40
0.275976015122536
40
0.279476390750917
40
0.282976766379297
40
0.289977517636058
40
0.293477893264438
40
0.296978268892818
40
0.300478644521199
40
0.303979020149579
40
0.31097977140634
40
0.31448014703472
40
0.317980522663101
40
0.321480898291481
40
0.324981273919861
40
0.331982025176622
40
0.335482400805002
40
0.338982776433383
40
0.342483152061763
40
0.345983527690144
40
0.347733715504334
40
0.349483903318524
40
0.352984278946904
40
0.359985030203665
40
0.363485405832046
40
0.366985781460426
40
0.370486157088806
40
0.373986532717187
40
0.377486908345567
40
0.380987283973947
40
0.384487659602328
40
0.387988035230708
40
0.391488410859089
40
0.394988786487469
40
0.398489162115849
40
0.40198953774423
40
0.40373972555842
40
0.40548991337261
40
0.40899028900099
40
0.412490664629371
40
0.415991040257751
40
0.419491415886131
40
0.422991791514512
40
0.424741979328702
40
0.426492167142892
40
0.429992542771273
40
0.431742730585463
40
0.433492918399653
40
0.436993294028033
40
0.440493669656414
40
0.442243857470604
40
0.443994045284794
40
0.447494420913174
40
0.450994796541555
40
0.452744984355745
40
0.454495172169935
40
0.456245359984126
40
0.457995547798316
40
0.459745735612506
40
0.461495923426696
40
0.462371017333791
40
0.463246111240886
40
0.464996299055076
40
0.465871392962172
40
0.466746486869267
40
0.468496674683457
40
0.470246862497647
40
0.471121956404742
40
0.471997050311837
40
0.472872144218932
40
0.473747238126027
40
0.474622332033122
40
0.475497425940218
40
0.476372519847313
40
0.477247613754408
40
0.478997801568598
40
0.480747989382788
40
0.482498177196978
40
0.484248365011169
40
0.485998552825359
40
0.486873646732454
40
0.487748740639549
40
0.488623834546644
40
0.489498928453739
40
0.491249116267929
40
0.492999304082119
40
0.493874397989215
40
0.49474949189631
40
0.495624585803405
40
0.4964996797105
40
0.49824986752469
40
0.499124961431785
40
0.50000005533888
40
0.500875149245975
40
0.50175024315307
40
0.503500430967261
40
0.504375524874356
40
0.505250618781451
40
0.506125712688546
40
0.507000806595641
40
0.508750994409831
40
0.510501182224021
40
0.511376276131116
40
0.512251370038212
40
0.513126463945307
40
0.514001557852402
40
0.515751745666592
40
0.516626839573687
40
0.517501933480782
40
0.519252121294972
40
0.520127215202067
40
0.521002309109162
40
0.521877403016258
40
0.522752496923353
40
0.523627590830448
40
0.524502684737543
40
0.526252872551733
40
0.527127966458828
40
0.528003060365923
40
0.528878154273018
40
0.529753248180113
40
0.531503435994304
40
0.533253623808494
40
0.534128717715589
40
0.535003811622684
40
0.536753999436874
40
0.537629093343969
40
0.538504187251064
40
0.540254375065255
40
0.542004562879445
40
0.543754750693635
40
0.545504938507825
40
0.547255126322015
40
0.549005314136205
40
0.552505689764586
40
0.556006065392966
40
0.557756253207156
40
0.559506441021347
40
0.563006816649727
40
0.566507192278108
40
0.568257380092298
40
0.570007567906488
40
0.573507943534868
40
0.577008319163248
40
0.580508694791629
40
0.584009070420009
40
0.58750944604839
40
0.59100982167677
40
0.59451019730515
40
0.598010572933531
40
0.601510948561911
40
0.605011324190292
40
0.608511699818672
40
0.612012075447052
40
0.615512451075433
40
0.619012826703813
40
0.622513202332193
40
0.624263390146384
40
0.626013577960574
40
0.629513953588954
40
0.633014329217334
40
0.636514704845715
40
0.640015080474095
40
0.643515456102476
40
0.647015831730856
40
0.650516207359236
40
0.652266395173427
40
0.654016582987617
40
0.657516958615997
40
0.661017334244378
40
0.664517709872758
40
0.668018085501138
40
0.675018836757899
40
0.67851921238628
40
0.68201958801466
40
0.68551996364304
40
0.689020339271421
40
0.696021090528181
40
0.699521466156562
40
0.703021841784942
40
0.706522217413323
40
0.710022593041703
40
0.717023344298464
40
0.720523719926844
40
0.724024095555225
40
0.727524471183605
40
0.731024846811985
40
0.738025598068746
40
0.745026349325507
40
0.748526724953887
40
0.752027100582268
40
0.759027851839028
40
0.766028603095789
40
0.77302935435255
40
0.77652972998093
40
0.78003010560931
40
0.783530481237691
40
0.787030856866071
40
0.794031608122832
40
0.801032359379593
40
0.804532735007973
40
0.808033110636353
40
0.811533486264734
40
0.815033861893114
40
0.822034613149875
40
0.829035364406636
40
0.836036115663397
40
0.839536491291777
40
0.843036866920157
40
0.850037618176918
40
0.857038369433679
40
0.860538745062059
40
0.86403912069044
40
0.86753949631882
40
0.8710398719472
40
0.878040623203961
40
0.885041374460722
40
0.888541750089102
40
0.892042125717483
40
0.899042876974243
40
0.902543252602624
40
0.906043628231004
40
0.907793816045194
40
0.909544003859385
40
0.913044379487765
40
0.920045130744526
40
0.923545506372906
40
0.927045882001286
40
0.930546257629667
40
0.934046633258047
40
0.937547008886428
40
0.941047384514808
40
0.944547760143188
40
0.948048135771569
40
0.951548511399949
40
0.955048887028329
40
0.96204963828509
40
0.965550013913471
40
0.969050389541851
40
0.972550765170231
40
0.976051140798612
40
0.979551516426992
40
0.983051892055372
40
0.986552267683753
40
0.990052643312133
40
0.993553018940514
40
0.997053394568894
40
1
40
1
40
1
40
1
41
1
10
-58
20
-34.6073035338611
30
0
41
1
10
-58
20
-34.6043542739041
30
0
41
1
10
-58
20
-34.5966210193371
30
0
41
1
10
-58
20
-34.5803797589321
30
0
41
1
10
-58
20
-34.5584074886069
30
0
41
1
10
-58
20
-34.5316961895766
30
0
41
1
10
-58
20
-34.5003280083155
30
0
41
1
10
-58
20
-34.4643817495677
30
0
41
1
10
-58
20
-34.4239333693917
30
0
41
1
10
-58
20
-34.3790529937039
30
0
41
1
10
-58
20
-34.3298111110901
30
0
41
1
10
-58
20
-34.2762712987306
30
0
41
1
10
-58
20
-34.2184971795059
30
0
41
1
10
-58
20
-34.1565492736136
30
0
41
1
10
-58
20
-34.090484024979
30
0
41
1
10
-58
20
-34.0203569492649
30
0
41
1
10
-58
20
-33.9462211181053
30
0
41
1
10
-58
20
-33.8681273799935
30
0
41
1
10
-58
20
-33.7861246522719
30
0
41
1
10
-58
20
-33.7002599705932
30
0
41
1
10
-58
20
-33.6105785639527
30
0
41
1
10
-58
20
-33.5171241369411
30
0
41
1
10
-58
20
-33.4199387810475
30
0
41
1
10
-58
20
-33.3190628682572
30
0
41
1
10
-58
20
-33.1794476462955
30
0
41
1
10
-58
20
-33.0333547777464
30
0
41
1
10
-58
20
-32.8987588718319
30
0
41
1
10
-58
20
-32.8200332917252
30
0
41
1
10
-58
20
-32.7401409831787
30
0
41
1
10
-58
20
-32.6384072799631
30
0
41
1
10
-58
20
-32.4705455180243
30
0
41
1
10
-58
20
-32.2967149944414
30
0
41
1
10
-58
20
-32.1153117201282
30
0
41
1
10
-58
20
-31.9294644880725
30
0
41
1
10
-58
20
-31.6895938415452
30
0
41
1
10
-58
20
-31.4389237596357
30
0
41
1
10
-58
20
-31.2314087063947
30
0
41
1
10
-58
20
-31.0728429182949
30
0
41
1
10
-58
20
-30.9111259407838
30
0
41
1
10
-58
20
-30.6909862057692
30
0
41
1
10
-58
20
-30.4088224430552
30
0
41
1
10
-58
20
-30.1164546579335
30
0
41
1
10
-58
20
-29.8758448368358
30
0
41
1
10
-58
20
-29.6312151678218
30
0
41
1
10
-58
20
-29.3188018441321
30
0
41
1
10
-58
20
-28.9316246713931
30
0
41
1
10
-58
20
-28.5996384848297
30
0
41
1
10
-58
20
-28.3275282602038
30
0
41
1
10
-58
20
-28.1208773937063
30
0
41
1
10
-58
20
-27.911363633098
30
0
41
1
10
-58
20
-27.6277846850599
30
0
41
1
10
-58
20
-27.2671990323819
30
0
41
1
10
-58
20
-26.8972638502991
30
0
41
1
10
-58
20
-26.5949314925857
30
0
41
1
10
-58
20
-26.365755304915
30
0
41
1
10
-58
20
-26.1338196230742
30
0
41
1
10
-58
20
-25.8204330482275
30
0
41
1
10
-58
20
-25.4229416666195
30
0
41
1
10
-58
20
-24.9345059187337
30
0
41
1
10
-58
20
-24.5190021121539
30
0
41
1
10
-58
20
-24.1803157072482
30
0
41
1
10
-58
20
-23.8380720499499
30
0
41
1
10
-58
20
-23.4048307980022
30
0
41
1
10
-58
20
-22.9627941936476
30
0
41
1
10
-58
20
-22.6029073961028
30
0
41
1
10
-58
20
-22.3308053662237
30
0
41
1
10
-58
20
-22.0560958606497
30
0
41
1
10
-58
20
-21.6857625528635
30
0
41
1
10
-58
20
-21.3120431731188
30
0
41
1
10
-58
20
-20.9313332073366
30
0
41
1
10
-58
20
-20.6436975380219
30
0
41
1
10
-58
20
-20.3534974230034
30
0
41
1
10
-58
20
-19.962512989893
30
0
41
1
10
-58
20
-19.5683935649799
30
0
41
1
10
-58
20
-19.1671855028189
30
0
41
1
10
-58
20
-18.8642617622701
30
0
41
1
10
-58
20
-18.5588120809721
30
0
41
1
10
-58
20
-18.1474824585398
30
0
41
1
10
-58
20
-17.7332927415188
30
0
41
1
10
-58
20
-17.31187542895
30
0
41
1
10
-58
20
-16.9938869687374
30
0
41
1
10
-58
20
-16.6734094643824
30
0
41
1
10
-58
20
-16.4046647430283
30
0
41
1
10
-58
20
-16.1877136709008
30
0
41
1
10
-58
20
-15.9699408852648
30
0
41
1
10
-58
20
-15.586990793997
30
0
41
1
10
-58
20
-15.1465482288459
30
0
41
1
10
-58
20
-14.6986174932262
30
0
41
1
10
-58
20
-14.3608949939723
30
0
41
1
10
-58
20
-14.0207356586279
30
0
41
1
10
-58
20
-13.6781505656526
30
0
41
1
10
-58
20
-13.3331465322306
30
0
41
1
10
-58
20
-12.9857332798767
30
0
41
1
10
-58
20
-12.6359214323733
30
0
41
1
10
-58
20
-12.2837205272056
30
0
41
1
10
-58
20
-11.9291438218093
30
0
41
1
10
-58
20
-11.572202781332
30
0
41
1
10
-58
20
-11.21291277944
30
0
41
1
10
-58
20
-10.912108295924
30
0
41
1
10
-58
20
-10.6692766858404
30
0
41
1
10
-58
20
-10.4256875570292
30
0
41
1
10
-58
20
-10.1211100592584
30
0
41
1
10
-58
20
-9.75259725338501
30
0
41
1
10
-58
20
-9.38183010290783
30
0
41
1
10
-58
20
-9.00884035151955
30
0
41
1
10
-58
20
-8.6968434093225
30
0
41
1
10
-58
20
-8.44493041618216
30
0
41
1
10
-58
20
-8.1923204484753
30
0
41
1
10
-58
20
-7.94080704287336
30
0
41
1
10
-58
20
-7.68603135773839
30
0
41
1
10
-58
20
-7.43059630648503
30
0
41
1
10
-58
20
-7.11180135563234
30
0
41
1
10
-58
20
-6.79132938935567
30
0
41
1
10
-58
20
-6.53251618838755
30
0
41
1
10
-58
20
-6.27311609603564
30
0
41
1
10
-58
20
-5.94973663199025
30
0
41
1
10
-58
20
-5.62486984380908
30
0
41
1
10
-58
20
-5.36246929286631
30
0
41
1
10
-58
20
-5.16603341989486
30
0
41
1
10
-58
20
-4.96923237547443
30
0
41
1
10
-58
20
-4.77207750487509
30
0
41
1
10
-58
20
-4.57459544495507
30
0
41
1
10
-58
20
-4.41029793772168
30
0
41
1
10
-58
20
-4.27771663526573
30
0
41
1
10
-58
20
-4.14506122516991
30
0
41
1
10
-58
20
-4.01399439838318
30
0
41
1
10
-58
20
-3.881036327884
30
0
41
1
10
-58
20
-3.74801862180837
30
0
41
1
10
-58
20
-3.5829961226784
30
0
41
1
10
-58
20
-3.41778425791247
30
0
41
1
10
-58
20
-3.28439024486022
30
0
41
1
10
-58
20
-3.18480940383549
30
0
41
1
10
-58
20
-3.08519524226034
30
0
41
1
10
-58
20
-2.98554870608601
30
0
41
1
10
-58
20
-2.88588197147467
30
0
41
1
10
-58
20
-2.78620371303603
30
0
41
1
10
-58
20
-2.68650877066608
30
0
41
1
10
-58
20
-2.55285553128311
30
0
41
1
10
-58
20
-2.38741878390206
30
0
41
1
10
-58
20
-2.18798792525018
30
0
41
1
10
-58
20
-1.98859069176862
30
0
41
1
10
-58
20
-1.78925716601177
30
0
41
1
10
-58
20
-1.62400964435551
30
0
41
1
10
-58
20
-1.49038258437858
30
0
41
1
10
-58
20
-1.39082935616076
30
0
41
1
10
-58
20
-1.29130620551007
30
0
41
1
10
-58
20
-1.15779757169761
30
0
41
1
10
-58
20
-0.992958818913309
30
0
41
1
10
-58
20
-0.828192548206232
30
0
41
1
10
-58
20
-0.694823517971344
30
0
41
1
10
-58
20
-0.595510259634295
30
0
41
1
10
-58
20
-0.496219754320578
30
0
41
1
10
-58
20
-0.362942837222505
30
0
41
1
10
-58
20
-0.232469975530592
30
0
41
1
10
-58
20
-0.0992273272949546
30
0
41
1
10
-58
20
1.6380028E-08
30
0
41
1
10
-58
20
0.099227339898448
30
0
41
1
10
-58
20
0.232469995259635
30
0
41
1
10
-58
20
0.362942864386611
30
0
41
1
10
-58
20
0.496219744531999
30
0
41
1
10
-58
20
0.595510286532431
30
0
41
1
10
-58
20
0.694823557694633
30
0
41
1
10
-58
20
0.828192566370632
30
0
41
1
10
-58
20
0.9929588226058
30
0
41
1
10
-58
20
1.15779757822995
30
0
41
1
10
-58
20
1.29130628126839
30
0
41
1
10
-58
20
1.39082936054342
30
0
41
1
10
-58
20
1.49038261723348
30
0
41
1
10
-58
20
1.62400929858032
30
0
41
1
10
-58
20
1.75519681152264
30
0
41
1
10
-58
20
1.88886587056908
30
0
41
1
10
-58
20
2.02257380819526
30
0
41
1
10
-58
20
2.15394245955969
30
0
41
1
10
-58
20
2.28764244667346
30
0
41
1
10
-58
20
2.38736175207308
30
0
41
1
10
-58
20
2.48707433529853
30
0
41
1
10
-58
20
2.58679151495221
30
0
41
1
10
-58
20
2.68650643512572
30
0
41
1
10
-58
20
2.82015553447045
30
0
41
1
10
-58
20
2.95167230604008
30
0
41
1
10
-58
20
3.08519574611896
30
0
41
1
10
-58
20
3.18480948837248
30
0
41
1
10
-58
20
3.28439014192511
30
0
41
1
10
-58
20
3.41778425796454
30
0
41
1
10
-58
20
3.58299633989347
30
0
41
1
10
-58
20
3.74801883117274
30
0
41
1
10
-58
20
3.881036330217
30
0
41
1
10
-58
20
4.01399420894896
30
0
41
1
10
-58
20
4.14506100143927
30
0
41
1
10
-58
20
4.27771653655563
30
0
41
1
10
-58
20
4.41029804681102
30
0
41
1
10
-58
20
4.57459570619073
30
0
41
1
10
-58
20
4.77207761728613
30
0
41
1
10
-58
20
4.96923221655041
30
0
41
1
10
-58
20
5.16603320786015
30
0
41
1
10
-58
20
5.36246930605509
30
0
41
1
10
-58
20
5.62487008150856
30
0
41
1
10
-58
20
5.94973662395361
30
0
41
1
10
-58
20
6.273115888148
30
0
41
1
10
-58
20
6.5325162463362
30
0
41
1
10
-58
20
6.79132960033488
30
0
41
1
10
-58
20
7.11180129155153
30
0
41
1
10
-58
20
7.43059597795101
30
0
41
1
10
-58
20
7.68603127322152
30
0
41
1
10
-58
20
7.94080702479252
30
0
41
1
10
-58
20
8.25632291017837
30
0
41
1
10
-58
20
8.63366100346425
30
0
41
1
10
-58
20
9.00884209524725
30
0
41
1
10
-58
20
9.38183075865138
30
0
41
1
10
-58
20
9.75259557230211
30
0
41
1
10
-58
20
10.1211093378308
30
0
41
1
10
-58
20
10.4873474239449
30
0
41
1
10
-58
20
10.851288265045
30
0
41
1
10
-58
20
11.2129126489515
30
0
41
1
10
-58
20
11.5722027534516
30
0
41
1
10
-58
20
11.9291438609312
30
0
41
1
10
-58
20
12.2837204653535
30
0
41
1
10
-58
20
12.6359214941673
30
0
41
1
10
-58
20
12.9857331103651
30
0
41
1
10
-58
20
13.2747453101746
30
0
41
1
10
-58
20
13.5056252380648
30
0
41
1
10
-58
20
13.7357042566719
30
0
41
1
10
-58
20
14.0207356013197
30
0
41
1
10
-58
20
14.3608942162371
30
0
41
1
10
-58
20
14.6986181938836
30
0
41
1
10
-58
20
15.0338987189648
30
0
41
1
10
-58
20
15.3667286289814
30
0
41
1
10
-58
20
15.6971014285855
30
0
41
1
10
-58
20
15.9699409152238
30
0
41
1
10
-58
20
16.1877136527783
30
0
41
1
10
-58
20
16.4046647522578
30
0
41
1
10
-58
20
16.6734094787226
30
0
41
1
10
-58
20
16.9938869670337
30
0
41
1
10
-58
20
17.3118754472546
30
0
41
1
10
-58
20
17.7332927565035
30
0
41
1
10
-58
20
18.1474824557211
30
0
41
1
10
-58
20
18.5588120799026
30
0
41
1
10
-58
20
18.8642617520243
30
0
41
1
10
-58
20
19.1671855328673
30
0
41
1
10
-58
20
19.5683935682398
30
0
41
1
10
-58
20
19.9625129981163
30
0
41
1
10
-58
20
20.3534974164195
30
0
41
1
10
-58
20
20.6436975341919
30
0
41
1
10
-58
20
20.9313332310817
30
0
41
1
10
-58
20
21.3120431735846
30
0
41
1
10
-58
20
21.6857625612491
30
0
41
1
10
-58
20
22.056095857614
30
0
41
1
10
-58
20
22.3308053593404
30
0
41
1
10
-58
20
22.6029074150481
30
0
41
1
10
-58
20
22.9627941997736
30
0
41
1
10
-58
20
23.4048307950687
30
0
41
1
10
-58
20
23.8380720492418
30
0
41
1
10
-58
20
24.1803157154495
30
0
41
1
10
-58
20
24.5190021187452
30
0
41
1
10
-58
20
24.934505910954
30
0
41
1
10
-58
20
25.4229416730791
30
0
41
1
10
-58
20
25.820433050224
30
0
41
1
10
-58
20
26.1338196224207
30
0
41
1
10
-58
20
26.3657553019254
30
0
41
1
10
-58
20
26.5949314963246
30
0
41
1
10
-58
20
26.8972638515592
30
0
41
1
10
-58
20
27.267199029797
30
0
41
1
10
-58
20
27.6277846867342
30
0
41
1
10
-58
20
27.9113636298593
30
0
41
1
10
-58
20
28.1208773935264
30
0
41
1
10
-58
20
28.3275282615774
30
0
41
1
10
-58
20
28.5996384834264
30
0
41
1
10
-58
20
28.9316246696634
30
0
41
1
10
-58
20
29.3188018386775
30
0
41
1
10
-58
20
29.631215171604
30
0
41
1
10
-58
20
29.8758448277823
30
0
41
1
10
-58
20
30.1164546526889
30
0
41
1
10
-58
20
30.4088224417549
30
0
41
1
10
-58
20
30.6909862066612
30
0
41
1
10
-58
20
30.9111259319957
30
0
41
1
10
-58
20
31.0728429072979
30
0
41
1
10
-58
20
31.2314087120365
30
0
41
1
10
-58
20
31.438923757912
30
0
41
1
10
-58
20
31.6895938369171
30
0
41
1
10
-58
20
31.9294644717604
30
0
41
1
10
-58
20
32.115311722464
30
0
41
1
10
-58
20
32.2967149943326
30
0
41
1
10
-58
20
32.4705455117827
30
0
41
1
10
-58
20
32.6384072676334
30
0
41
1
10
-58
20
32.7401409674119
30
0
41
1
10
-58
20
32.8200332868943
30
0
41
1
10
-58
20
32.8987588752027
30
0
41
1
10
-58
20
33.0333547758038
30
0
41
1
10
-58
20
33.1794476388675
30
0
41
1
10
-58
20
33.3190628604087
30
0
41
1
10
-58
20
33.4199387593896
30
0
41
1
10
-58
20
33.5171241473591
30
0
41
1
10
-58
20
33.6105785465519
30
0
41
1
10
-58
20
33.7002599502329
30
0
41
1
10
-58
20
33.7861247188261
30
0
41
1
10
-58
20
33.8681273926076
30
0
41
1
10
-58
20
33.9462206251882
30
0
41
1
10
-58
20
34.020357330257
30
0
41
1
10
-58
20
34.11403435413
30
0
41
1
10
-58
20
34.1990832647149
30
0
41
1
10
-58
20
34.2762712843076
30
0
41
1
10
-58
20
34.3298111043331
30
0
41
1
10
-58
20
34.3790530583999
30
0
41
1
10
-58
20
34.4239333421724
30
0
41
1
10
-58
20
34.4643818052429
30
0
41
1
10
-58
20
34.5003280118182
30
0
41
1
10
-58
20
34.5316962075247
30
0
41
1
10
-58
20
34.5584075309985
30
0
41
1
10
-58
20
34.580379744722
30
0
41
1
10
-58
20
34.5966208992417
30
0
41
1
10
-58
20
34.6043666883052
30
0
41
1
10
-58
20
34.6073164641936
30
0
0
SPLINE
5
10D
100
AcDbEntity
8
SK1
62
256
6
ByLayer
370
18
48
1
60
0
100
AcDbSpline
70
4
71
3
72
126
73
122
40
0
40
0
40
0
40
0
40
0.003455543874694
40
0.0072844961578345
40
0.0111134484409751
40
0.0149424007241157
40
0.0226003052903968
40
0.0302582098566779
40
0.0379161144229591
40
0.0455740189892402
40
0.0532319235555213
40
0.0608898281218025
40
0.0685477326880836
40
0.0762056372543648
40
0.0838635418206459
40
0.0915214463869271
40
0.0991793509532082
40
0.106837255519489
40
0.11449516008577
40
0.122153064652052
40
0.129810969218333
40
0.137468873784614
40
0.145126778350895
40
0.152784682917176
40
0.160442587483457
40
0.168100492049738
40
0.17575839661602
40
0.183416301182301
40
0.191074205748582
40
0.206390014881144
40
0.214047919447425
40
0.217876871730566
40
0.221705824013706
40
0.229363728579987
40
0.237021633146269
40
0.252337442278831
40
0.259995346845112
40
0.267653251411393
40
0.282969060543955
40
0.298284869676518
40
0.305942774242799
40
0.31360067880908
40
0.321258583375361
40
0.328916487941642
40
0.344232297074205
40
0.359548106206767
40
0.367206010773048
40
0.374863915339329
40
0.390179724471891
40
0.405495533604454
40
0.420811342737016
40
0.428469247303297
40
0.436127151869578
40
0.443785056435859
40
0.45144296100214
40
0.466758770134703
40
0.482074579267265
40
0.489732483833546
40
0.497390388399827
40
0.505048292966108
40
0.51270619753239
40
0.528022006664952
40
0.543337815797514
40
0.558653624930076
40
0.566311529496358
40
0.573969434062639
40
0.589285243195201
40
0.604601052327763
40
0.612258956894044
40
0.619916861460325
40
0.627574766026607
40
0.635232670592888
40
0.65054847972545
40
0.658206384291731
40
0.665864288858012
40
0.673522193424293
40
0.681180097990575
40
0.696495907123137
40
0.704153811689418
40
0.711811716255699
40
0.71946962082198
40
0.727127525388261
40
0.742443334520824
40
0.750101239087105
40
0.757759143653386
40
0.765417048219667
40
0.773074952785948
40
0.776903905069089
40
0.780732857352229
40
0.788390761918511
40
0.803706571051073
40
0.811364475617354
40
0.819022380183635
40
0.826680284749916
40
0.834338189316197
40
0.841996093882478
40
0.84965399844876
40
0.857311903015041
40
0.864969807581322
40
0.872627712147603
40
0.880285616713884
40
0.887943521280165
40
0.895601425846447
40
0.899430378129587
40
0.903259330412728
40
0.910917234979009
40
0.91857513954529
40
0.926233044111571
40
0.933890948677852
40
0.941548853244133
40
0.945377805527274
40
0.949206757810415
40
0.956864662376695
40
0.960693614659836
40
0.964522566942977
40
0.972180471509258
40
0.979838376075539
40
0.98366732835868
40
0.98749628064182
40
0.995154185208101
40
1
40
1
40
1
40
1
41
1
10
-0.394976888875306
20
-35.8653776107997
30
0
41
1
10
-0.394976888875249
20
-35.8654184059943
30
0
41
1
10
-0.394976888875277
20
-35.8651176226086
30
0
41
1
10
-0.394976888875277
20
-35.8634269812556
30
0
41
1
10
-0.394976888875277
20
-35.8603562366916
30
0
41
1
10
-0.394976888875277
20
-35.854515215742
30
0
41
1
10
-0.394976888875277
20
-35.8439794508304
30
0
41
1
10
-0.394976888875277
20
-35.8262611583919
30
0
41
1
10
-0.394976888875277
20
-35.8035689891332
30
0
41
1
10
-0.394976888875277
20
-35.7759991267868
30
0
41
1
10
-0.394976888875277
20
-35.7436409316581
30
0
41
1
10
-0.394976888875277
20
-35.7065800027222
30
0
41
1
10
-0.394976888875277
20
-35.6648981651514
30
0
41
1
10
-0.394976888875277
20
-35.6186711780713
30
0
41
1
10
-0.394976888875249
20
-35.5679745134804
30
0
41
1
10
-0.394976888875277
20
-35.5128761760524
30
0
41
1
10
-0.394976888875277
20
-35.4534444043634
30
0
41
1
10
-0.394976888875277
20
-35.3897431016973
30
0
41
1
10
-0.394976888875277
20
-35.3218323112639
30
0
41
1
10
-0.394976888875277
20
-35.2497710104041
30
0
41
1
10
-0.394976888875277
20
-35.1736151059194
30
0
41
1
10
-0.394976888875277
20
-35.093418190414
30
0
41
1
10
-0.394976888875277
20
-35.0092316945093
30
0
41
1
10
-0.394976888875277
20
-34.9211049595596
30
0
41
1
10
-0.394976888875277
20
-34.829085378746
30
0
41
1
10
-0.394976888875277
20
-34.7332186246447
30
0
41
1
10
-0.394976888875277
20
-34.6335485304196
30
0
41
1
10
-0.394976888875277
20
-34.5301171783813
30
0
41
1
10
-0.394976888875277
20
-34.3872241353875
30
0
41
1
10
-0.394976888875277
20
-34.2370419140072
30
0
41
1
10
-0.394976888875277
20
-34.0992650937292
30
0
41
1
10
-0.394976888875277
20
-34.0187437263543
30
0
41
1
10
-0.394976888875277
20
-33.9370370034868
30
0
41
1
10
-0.394976888875277
20
-33.8327219580027
30
0
41
1
10
-0.394976888875277
20
-33.6610954992522
30
0
41
1
10
-0.394976888875277
20
-33.4826057621145
30
0
41
1
10
-0.394976888875277
20
-33.2972051581974
30
0
41
1
10
-0.394976888875277
20
-33.1072907380499
30
0
41
1
10
-0.394976888875277
20
-32.8615720411721
30
0
41
1
10
-0.394976888875277
20
-32.6048424706425
30
0
41
1
10
-0.394976888875277
20
-32.3928928336978
30
0
41
1
10
-0.394976888875277
20
-32.2307235620492
30
0
41
1
10
-0.394976888875249
20
-32.0653460684281
30
0
41
1
10
-0.394976888875277
20
-31.8405614201245
30
0
41
1
10
-0.394976888875277
20
-31.5517459050345
30
0
41
1
10
-0.394976888875249
20
-31.2525219538402
30
0
41
1
10
-0.394976888875277
20
-31.0069093628079
30
0
41
1
10
-0.394976888875277
20
-30.7572080028694
30
0
41
1
10
-0.394976888875277
20
-30.4375437762783
30
0
41
1
10
-0.394976888875277
20
-30.0418468835666
30
0
41
1
10
-0.394976888875249
20
-29.7022003148107
30
0
41
1
10
-0.394976888875277
20
-29.4245084215695
30
0
41
1
10
-0.394976888875277
20
-29.2133327662611
30
0
41
1
10
-0.394976888875277
20
-28.9992339821199
30
0
41
1
10
-0.394976888875277
20
-28.7098481386985
30
0
41
1
10
-0.394976888875249
20
-28.3409704969971
30
0
41
1
10
-0.394976888875277
20
-27.9625243931996
30
0
41
1
10
-0.394976888875249
20
-27.6539931003944
30
0
41
1
10
-0.394976888875277
20
-27.4197920834741
30
0
41
1
10
-0.394976888875249
20
-27.1827656068871
30
0
41
1
10
-0.394976888875277
20
-26.8629311640439
30
0
41
1
10
-0.394976888875277
20
-26.4562321573554
30
0
41
1
10
-0.394976888875277
20
-25.9569955498363
30
0
41
1
10
-0.394976888875249
20
-25.5317904219061
30
0
41
1
10
-0.394976888875277
20
-25.1860341634964
30
0
41
1
10
-0.394976888875277
20
-24.8366207517989
30
0
41
1
10
-0.394976888875249
20
-24.3931333790251
30
0
41
1
10
-0.394976888875277
20
-23.9405766044572
30
0
41
1
10
-0.394976888875277
20
-23.5730166229076
30
0
41
1
10
-0.394976888875277
20
-23.294686474333
30
0
41
1
10
-0.394976888875249
20
-23.0136599895412
30
0
41
1
10
-0.394976888875277
20
-22.6353132371553
30
0
41
1
10
-0.394976888875277
20
-22.2517707343539
30
0
41
1
10
-0.394976888875277
20
-21.8626976854152
30
0
41
1
10
-0.394976888875277
20
-21.5682668931889
30
0
41
1
10
-0.394976888875277
20
-21.271168442681
30
0
41
1
10
-0.394976888875249
20
-20.8714231892215
30
0
41
1
10
-0.394976888875277
20
-20.4665491966628
30
0
41
1
10
-0.394976888875277
20
-20.0561712634217
30
0
41
1
10
-0.394976888875277
20
-19.7457866731406
30
0
41
1
10
-0.394976888875277
20
-19.4327531245027
30
0
41
1
10
-0.394976888875277
20
-19.0117775840375
30
0
41
1
10
-0.394976888875277
20
-18.5857236375232
30
0
41
1
10
-0.394976888875249
20
-18.1541693136932
30
0
41
1
10
-0.394976888875277
20
-17.8279183574374
30
0
41
1
10
-0.394976888875277
20
-17.4990274869922
30
0
41
1
10
-0.394976888875277
20
-17.2227901407219
30
0
41
1
10
-0.394976888875277
20
-17.0004108943221
30
0
41
1
10
-0.394976888875277
20
-16.7771522077328
30
0
41
1
10
-0.394976888875277
20
-16.3841710240748
30
0
41
1
10
-0.394976888875277
20
-15.9299794688331
30
0
41
1
10
-0.394976888875277
20
-15.4702555452062
30
0
41
1
10
-0.394976888875277
20
-15.1228861045844
30
0
41
1
10
-0.394976888875277
20
-14.7728737253136
30
0
41
1
10
-0.394976888875277
20
-14.4202178800222
30
0
41
1
10
-0.394976888875277
20
-14.0649158346649
30
0
41
1
10
-0.394976888875277
20
-13.706966774032
30
0
41
1
10
-0.394976888875277
20
-13.3463680945818
30
0
41
1
10
-0.394976888875249
20
-12.9831179010793
30
0
41
1
10
-0.394976888875249
20
-12.6172140721258
30
0
41
1
10
-0.394976888875277
20
-12.2486538786068
30
0
41
1
10
-0.394976888875277
20
-11.877435461996
30
0
41
1
10
-0.394976888875277
20
-11.5659225593266
30
0
41
1
10
-0.394976888875277
20
-11.3152803628128
30
0
41
1
10
-0.394976888875277
20
-11.0637515002381
30
0
41
1
10
-0.394976888875249
20
-10.7478052942324
30
0
41
1
10
-0.394976888875249
20
-10.3659294753254
30
0
41
1
10
-0.394976888875277
20
-9.98138431841269
30
0
41
1
10
-0.394976888875277
20
-9.59416962249634
30
0
41
1
10
-0.394976888875277
20
-9.26932873965481
30
0
41
1
10
-0.394976888875277
20
-9.00799999429159
30
0
41
1
10
-0.394976888875277
20
-8.74578292736533
30
0
41
1
10
-0.394976888875277
20
-8.48244127998382
30
0
41
1
10
-0.394976888875277
20
-8.21754953480053
30
0
41
1
10
-0.394976888875277
20
-7.95177203759235
30
0
41
1
10
-0.394976888875277
20
-7.61805779883338
30
0
41
1
10
-0.394976888875277
20
-7.28212707034135
30
0
41
1
10
-0.394976888875277
20
-7.01191435047286
30
0
41
1
10
-0.394976888875277
20
-6.74082520810299
30
0
41
1
10
-0.394976888875277
20
-6.45050039040558
30
0
41
1
10
-0.394976888875277
20
-6.22707378727881
30
0
41
1
10
-0.394976888875277
20
-6.1402972215279
30
0
0
SPLINE
5
10E
100
AcDbEntity
8
SK1
62
256
6
ByLayer
370
18
48
1
60
0
100
AcDbSpline
70
4
71
3
72
123
73
119
40
0
40
0
40
0
40
0
40
0.0048496390063069
40
0.0125135939486728
40
0.0163455714198557
40
0.0201775488910386
40
0.0278415038334045
40
0.0355054587757704
40
0.0393374362469533
40
0.0431694137181362
40
0.0508333686605021
40
0.058497323602868
40
0.0661612785452338
40
0.0738252334875997
40
0.0814891884299656
40
0.0891531433723314
40
0.0968170983146973
40
0.104481053257063
40
0.112145008199429
40
0.119808963141795
40
0.127472918084161
40
0.135136873026527
40
0.142800827968893
40
0.150464782911258
40
0.158128737853624
40
0.161960715324807
40
0.16579269279599
40
0.173456647738356
40
0.181120602680722
40
0.188784557623088
40
0.196448512565454
40
0.204112467507819
40
0.211776422450185
40
0.219440377392551
40
0.223272354863734
40
0.227104332334917
40
0.234768287277283
40
0.242432242219649
40
0.250096197162014
40
0.25776015210438
40
0.273088061989112
40
0.280752016931478
40
0.288415971873844
40
0.29607992681621
40
0.303743881758575
40
0.319071791643307
40
0.326735746585673
40
0.334399701528039
40
0.342063656470405
40
0.349727611412771
40
0.365055521297503
40
0.372719476239868
40
0.380383431182234
40
0.3880473861246
40
0.395711341066966
40
0.411039250951698
40
0.426367160836429
40
0.434031115778795
40
0.441695070721161
40
0.457022980605893
40
0.472350890490625
40
0.487678800375356
40
0.495342755317722
40
0.503006710260088
40
0.510670665202454
40
0.51833462014482
40
0.533662530029552
40
0.548990439914283
40
0.556654394856649
40
0.564318349799015
40
0.571982304741381
40
0.579646259683747
40
0.594974169568478
40
0.61030207945321
40
0.625629989337942
40
0.633293944280308
40
0.640957899222674
40
0.656285809107405
40
0.671613718992137
40
0.679277673934503
40
0.686941628876869
40
0.694605583819235
40
0.7022695387616
40
0.717597448646332
40
0.732925358531064
40
0.74058931347343
40
0.748253268415796
40
0.763581178300527
40
0.771245133242893
40
0.778909088185259
40
0.782741065656442
40
0.786573043127625
40
0.794236998069991
40
0.809564907954723
40
0.817228862897089
40
0.824892817839454
40
0.83255677278182
40
0.840220727724186
40
0.847884682666552
40
0.855548637608918
40
0.863212592551284
40
0.87087654749365
40
0.878540502436015
40
0.886204457378381
40
0.901532367263113
40
0.909196322205479
40
0.916860277147845
40
0.924524232090211
40
0.932188187032577
40
0.939852141974942
40
0.947516096917308
40
0.955180051859674
40
0.96284400680204
40
0.970507961744406
40
0.978171916686772
40
0.985835871629138
40
0.993499826571503
40
1
40
1
40
1
40
1
41
1
10
-0.394976888875277
20
6.14029748393358
30
0
41
1
10
-0.394976888875277
20
6.22707397316501
30
0
41
1
10
-0.394976888875277
20
6.4505004917111
30
0
41
1
10
-0.394976888875277
20
6.74082518692177
30
0
41
1
10
-0.394976888875277
20
7.01191434968564
30
0
41
1
10
-0.394976888875277
20
7.28212710030419
30
0
41
1
10
-0.394976888875277
20
7.61805782474269
30
0
41
1
10
-0.394976888875277
20
7.95177199064213
30
0
41
1
10
-0.394976888875277
20
8.21754949980777
30
0
41
1
10
-0.394976888875277
20
8.48244125097074
30
0
41
1
10
-0.394976888875277
20
8.81172783237585
30
0
41
1
10
-0.394976888875249
20
9.20428399686458
30
0
41
1
10
-0.394976888875277
20
9.59416972776228
30
0
41
1
10
-0.394976888875277
20
9.98138463666174
30
0
41
1
10
-0.394976888875277
20
10.3659293652704
30
0
41
1
10
-0.394976888875277
20
10.7478049083352
30
0
41
1
10
-0.394976888875277
20
11.1270131973585
30
0
41
1
10
-0.394976888875277
20
11.5035558012536
30
0
41
1
10
-0.394976888875277
20
11.8774354513043
30
0
41
1
10
-0.394976888875277
20
12.2486538532732
30
0
41
1
10
-0.394976888875277
20
12.6172140771122
30
0
41
1
10
-0.394976888875277
20
12.9831178868122
30
0
41
1
10
-0.394976888875277
20
13.3463680811382
30
0
41
1
10
-0.394976888875277
20
13.7069667840624
30
0
41
1
10
-0.394976888875277
20
14.0052089603083
30
0
41
1
10
-0.394976888875277
20
14.2425643537975
30
0
41
1
10
-0.394976888875277
20
14.4790383776377
30
0
41
1
10
-0.394976888875277
20
14.7728739584207
30
0
41
1
10
-0.394976888875277
20
15.1228859444593
30
0
41
1
10
-0.394976888875249
20
15.4702555471364
30
0
41
1
10
-0.394976888875277
20
15.8149837556983
30
0
41
1
10
-0.394976888875277
20
16.1570713412192
30
0
41
1
10
-0.394976888875277
20
16.4965191583142
30
0
41
1
10
-0.394976888875277
20
16.7771522140654
30
0
41
1
10
-0.394976888875277
20
17.0004108954029
30
0
41
1
10
-0.394976888875277
20
17.2227901432131
30
0
41
1
10
-0.394976888875277
20
17.4990274946616
30
0
41
1
10
-0.394976888875249
20
17.8279183615914
30
0
41
1
10
-0.394976888875277
20
18.1541693183472
30
0
41
1
10
-0.394976888875277
20
18.5857236544632
30
0
41
1
10
-0.394976888875277
20
19.0117775851467
30
0
41
1
10
-0.394976888875277
20
19.4327531367487
30
0
41
1
10
-0.394976888875277
20
19.7457866678881
30
0
41
1
10
-0.394976888875277
20
20.0561712754683
30
0
41
1
10
-0.394976888875277
20
20.4665492038552
30
0
41
1
10
-0.394976888875249
20
20.8714231957186
30
0
41
1
10
-0.394976888875277
20
21.2711684505154
30
0
41
1
10
-0.394976888875249
20
21.5682668891846
30
0
41
1
10
-0.394976888875277
20
21.8626976962736
30
0
41
1
10
-0.394976888875277
20
22.2517707390545
30
0
41
1
10
-0.394976888875277
20
22.635313242394
30
0
41
1
10
-0.394976888875277
20
23.0136599970686
30
0
41
1
10
-0.394976888875277
20
23.2946864708619
30
0
41
1
10
-0.394976888875277
20
23.5730166298655
30
0
41
1
10
-0.394976888875277
20
23.9405766122791
30
0
41
1
10
-0.394976888875277
20
24.3931333811418
30
0
41
1
10
-0.394976888875277
20
24.8366207519515
30
0
41
1
10
-0.394976888875277
20
25.1860341652141
30
0
41
1
10
-0.394976888875277
20
25.5317904302903
30
0
41
1
10
-0.394976888875277
20
25.9569955457311
30
0
41
1
10
-0.394976888875277
20
26.4562321610578
30
0
41
1
10
-0.394976888875277
20
26.8629311663352
30
0
41
1
10
-0.394976888875249
20
27.1827656093462
30
0
41
1
10
-0.394976888875277
20
27.4197920823074
30
0
41
1
10
-0.394976888875277
20
27.6539931014151
30
0
41
1
10
-0.394976888875277
20
27.9625243956634
30
0
41
1
10
-0.394976888875277
20
28.3409704949157
30
0
41
1
10
-0.394976888875277
20
28.7098481402264
30
0
41
1
10
-0.394976888875277
20
28.9992339808614
30
0
41
1
10
-0.394976888875277
20
29.2133327647665
30
0
41
1
10
-0.394976888875277
20
29.4245084222719
30
0
41
1
10
-0.394976888875277
20
29.7022003135975
30
0
41
1
10
-0.394976888875277
20
30.041846883991
30
0
41
1
10
-0.394976888875277
20
30.4375437690499
30
0
41
1
10
-0.394976888875249
20
30.7572080062434
30
0
41
1
10
-0.394976888875277
20
31.0069093580469
30
0
41
1
10
-0.394976888875277
20
31.2525219484188
30
0
41
1
10
-0.394976888875277
20
31.5517459016333
30
0
41
1
10
-0.394976888875277
20
31.8405614204
30
0
41
1
10
-0.394976888875277
20
32.0653460663191
30
0
41
1
10
-0.394976888875277
20
32.2307235504388
30
0
41
1
10
-0.394976888875277
20
32.3928928338024
30
0
41
1
10
-0.394976888875277
20
32.6048424687674
30
0
41
1
10
-0.394976888875277
20
32.8615720410336
30
0
41
1
10
-0.394976888875277
20
33.1072907219371
30
0
41
1
10
-0.394976888875277
20
33.2972051548837
30
0
41
1
10
-0.394976888875249
20
33.4826057619405
30
0
41
1
10
-0.394976888875249
20
33.6610954954258
30
0
41
1
10
-0.394976888875249
20
33.832721950075
30
0
41
1
10
-0.394976888875249
20
33.9370369896414
30
0
41
1
10
-0.394976888875277
20
34.0187437151791
30
0
41
1
10
-0.394976888875277
20
34.0992650911192
30
0
41
1
10
-0.394976888875277
20
34.237041913251
30
0
41
1
10
-0.394976888875277
20
34.3872241278821
30
0
41
1
10
-0.394976888875249
20
34.5301171770343
30
0
41
1
10
-0.394976888875277
20
34.6335485066014
30
0
41
1
10
-0.394976888875277
20
34.7332186300704
30
0
41
1
10
-0.394976888875277
20
34.8290853700734
30
0
41
1
10
-0.394976888875277
20
34.9211049364669
30
0
41
1
10
-0.394976888875277
20
35.0092317015021
30
0
41
1
10
-0.394976888875277
20
35.0934183585436
30
0
41
1
10
-0.394976888875277
20
35.1736145542893
30
0
41
1
10
-0.394976888875277
20
35.2497713845769
30
0
41
1
10
-0.394976888875277
20
35.3458690564808
30
0
41
1
10
-0.394976888875277
20
35.4336188232989
30
0
41
1
10
-0.394976888875277
20
35.5128761964009
30
0
41
1
10
-0.394976888875277
20
35.5679744983808
30
0
41
1
10
-0.394976888875277
20
35.6186712456131
30
0
41
1
10
-0.394976888875277
20
35.6648981389415
30
0
41
1
10
-0.394976888875249
20
35.7065800550003
30
0
41
1
10
-0.394976888875277
20
35.7436409390551
30
0
41
1
10
-0.394976888875277
20
35.7759991408607
30
0
41
1
10
-0.394976888875277
20
35.8035690347397
30
0
41
1
10
-0.394976888875277
20
35.826261141687
30
0
41
1
10
-0.394976888875277
20
35.8439795171219
30
0
41
1
10
-0.394976888875277
20
35.8566245309614
30
0
41
1
10
-0.394976888875277
20
35.8637111796871
30
0
41
1
10
-0.394976888875277
20
35.8652966748926
30
0
41
1
10
-0.394976888875249
20
35.8653774843958
30
0
0
SPLINE
5
10F
100
AcDbEntity
8
SK1
62
256
6
ByLayer
370
18
48
1
60
0
100
AcDbSpline
70
4
71
3
72
22
73
18
40
0
40
0
40
0
40
0
40
0.185527839086973
40
0.185527839086973
40
0.389145879315245
40
0.389145879315245
40
0.592763919543516
40
0.592763919543516
40
0.694572939657643
40
0.694572939657643
40
0.79638195977177
40
0.79638195977177
40
0.847286469828827
40
0.847286469828827
40
0.898190979885885
40
0.898190979885885
40
1
40
1
40
1
40
1
41
1
10
-0.21194267294112
20
35.6650568137949
30
0
41
1
10
-0.214561562399808
20
35.6534189575661
30
0
41
1
10
-0.217735272093734
20
35.6415541256883
30
0
41
1
10
-0.22586364882676
20
35.6161145448391
30
0
41
1
10
-0.230960514215326
20
35.6025224313216
30
0
41
1
10
-0.243909555635184
20
35.5745706733976
30
0
41
1
10
-0.251695294089984
20
35.5601957054633
30
0
41
1
10
-0.267365014533766
20
35.5381024431321
30
0
41
1
10
-0.27325875158968
20
35.5306388063929
30
0
41
1
10
-0.287574896861202
20
35.5154087724192
30
0
41
1
10
-0.296025217598157
20
35.5075032524917
30
0
41
1
10
-0.312744846045774
20
35.4959387739217
30
0
41
1
10
-0.318964047572109
20
35.4921743471967
30
0
41
1
10
-0.333306356179037
20
35.4852786897172
30
0
41
1
10
-0.341563767889937
20
35.4821798260204
30
0
41
1
10
-0.366640249432464
20
35.4758809411679
30
0
41
1
10
-0.38235976072545
20
35.4758754263808
30
0
41
1
10
-0.394976888875476
20
35.4775230333215
30
0
0
SPLINE
5
110
100
AcDbEntity
8
SK1
62
256
6
ByLayer
370
18
48
1
60
0
100
AcDbSpline
70
4
71
3
72
18
73
14
40
0
40
0
40
0
40
0
40
0.0413415492462383
40
0.0413415492462383
40
0.130531055633645
40
0.130531055633645
40
0.308910068408458
40
0.308910068408458
40
0.487289081183271
40
0.487289081183271
40
0.844047106732898
40
0.844047106732898
40
1
40
1
40
1
40
1
41
1
10
-0.291345249407016
20
29.3424590630779
30
0
41
1
10
-0.28733627133559
20
29.3391754712402
30
0
41
1
10
-0.283732713069583
20
29.3356427152175
30
0
41
1
10
-0.273149842595188
20
29.3241187006639
30
0
41
1
10
-0.267232186715035
20
29.31567185154
30
0
41
1
10
-0.251523005226773
20
29.2893856902037
30
0
41
1
10
-0.243762997944032
20
29.2705582101087
30
0
41
1
10
-0.230811685423532
20
29.2317835550302
30
0
41
1
10
-0.225742324946225
20
29.2119188835138
30
0
41
1
10
-0.213066387151372
20
29.1513482593076
30
0
41
1
10
-0.207959408398551
20
29.109674994757
30
0
41
1
10
-0.203233530196968
20
29.0485667332102
30
0
41
1
10
-0.202160219818723
20
29.0298129602056
30
0
41
1
10
-0.201407384082927
20
29.0109078351419
30
0
0
SPLINE
5
111
100
AcDbEntity
8
SK1
62
256
6
ByLayer
370
18
48
1
60
0
100
AcDbSpline
70
4
71
3
72
18
73
14
40
0
40
0
40
0
40
0
40
0.141695326082436
40
0.141695326082436
40
0.508118666227943
40
0.508118666227943
40
0.691330336300696
40
0.691330336300696
40
0.87454200637345
40
0.87454200637345
40
0.966147841409826
40
0.966147841409826
40
1
40
1
40
1
40
1
41
1
10
-0.201682998215318
20
-29.0174984733813
30
0
41
1
10
-0.202416260233775
20
-29.0342091312936
30
0
41
1
10
-0.203405110369971
20
-29.0508046335258
30
0
41
1
10
-0.207978089311865
20
-29.1098671795148
30
0
41
1
10
-0.213104238159218
20
-29.15166329712
30
0
41
1
10
-0.225863680076003
20
-29.212430708525
30
0
41
1
10
-0.230960581829919
20
-29.2323021122834
30
0
41
1
10
-0.243909693549114
20
-29.2709230268983
30
0
41
1
10
-0.251695468058244
20
-29.2897316982483
30
0
41
1
10
-0.267365194374264
20
-29.3158651092749
30
0
41
1
10
-0.273258925336989
20
-29.3242443982196
30
0
41
1
10
-0.28306217636387
20
-29.3349099720778
30
0
41
1
10
-0.285883844414428
20
-29.3377334938766
30
0
41
1
10
-0.28895282857448
20
-29.3404255668611
30
0
0
SPLINE
5
112
100
AcDbEntity
8
SK1
62
256
6
ByLayer
370
18
48
1
60
0
100
AcDbSpline
70
4
71
3
72
24
73
20
40
0
40
0
40
0
40
0
40
0.0602342518632736
40
0.0602342518632736
40
0.120468503726547
40
0.120468503726547
40
0.180702755589821
40
0.180702755589821
40
0.240937007453094
40
0.240937007453094
40
0.361405511179634
40
0.361405511179634
40
0.481874014906174
40
0.481874014906174
40
0.722811022359253
40
0.722811022359253
40
0.963748029812332
40
0.963748029812332
40
1
40
1
40
1
40
1
41
1
10
-0.39497688887522
20
-35.4775231381726
30
0
41
1
10
-0.388671475101006
20
-35.4766997478129
30
0
41
1
10
-0.381811534709044
20
-35.4762709949138
30
0
41
1
10
-0.366640616938554
20
-35.4768792325637
30
0
41
1
10
-0.358277609119398
20
-35.4779823276479
30
0
41
1
10
-0.341585771346587
20
-35.4821737215532
30
0
41
1
10
-0.333329482090619
20
-35.485267549144
30
0
41
1
10
-0.318937365839929
20
-35.4921874163471
30
0
41
1
10
-0.312691079617082
20
-35.4959734507353
30
0
41
1
10
-0.296014776342275
20
-35.5075158416867
30
0
41
1
10
-0.287611873902904
20
-35.5153652851929
30
0
41
1
10
-0.273149668288966
20
-35.5307592099813
30
0
41
1
10
-0.267232007764989
20
-35.5382733023983
30
0
41
1
10
-0.251522836037708
20
-35.5604731484623
30
0
41
1
10
-0.243762874650884
20
-35.5748469170972
30
0
41
1
10
-0.230811617005912
20
-35.6028852486128
30
0
41
1
10
-0.225742287920838
20
-35.6164587953366
30
0
41
1
10
-0.220881252165242
20
-35.6317139083429
30
0
41
1
10
-0.220264428959467
20
-35.6337019857535
30
0
41
1
10
-0.219665880413714
20
-35.6356831804889
30
0
0
SPLINE
5
113
100
AcDbEntity
8
SK1
62
256
6
ByLayer
370
18
48
1
60
0
100
AcDbSpline
70
4
71
3
72
321
73
317
40
0
40
0
40
0
40
0
40
0.0022722446357293
40
0.0057231687390188
40
0.0091740928423082
40
0.0126250169455977
40
0.0160759410488872
40
0.0195268651521766
40
0.022977789255466
40
0.0264287133587555
40
0.0298796374620449
40
0.0333305615653344
40
0.0367814856686238
40
0.0402324097719133
40
0.0436833338752027
40
0.0471342579784922
40
0.0505851820817816
40
0.0574870302883605
40
0.06093795439165
40
0.0643888784949394
40
0.0678398025982288
40
0.0712907267015183
40
0.0747416508048077
40
0.0781925749080972
40
0.0816434990113866
40
0.085094423114676
40
0.0885453472179655
40
0.091996271321255
40
0.0988981195278337
40
0.102349043631123
40
0.104074505682768
40
0.105799967734413
40
0.109250891837702
40
0.112701815940992
40
0.11960366414757
40
0.12305458825086
40
0.126505512354149
40
0.133407360560728
40
0.140309208767307
40
0.143760132870596
40
0.147211056973886
40
0.150661981077175
40
0.154112905180465
40
0.161014753387044
40
0.167916601593623
40
0.171367525696912
40
0.174818449800202
40
0.18172029800678
40
0.188622146213359
40
0.195523994419938
40
0.198974918523228
40
0.202425842626517
40
0.205876766729807
40
0.209327690833096
40
0.216229539039675
40
0.223131387246254
40
0.226582311349543
40
0.230033235452833
40
0.233484159556122
40
0.236935083659411
40
0.24383693186599
40
0.250738780072569
40
0.257640628279148
40
0.261091552382438
40
0.264542476485727
40
0.271444324692306
40
0.278346172898885
40
0.281797097002174
40
0.285248021105464
40
0.288698945208753
40
0.292149869312043
40
0.299051717518621
40
0.302502641621911
40
0.3059535657252
40
0.30940448982849
40
0.312855413931779
40
0.319757262138358
40
0.323208186241648
40
0.326659110344937
40
0.330110034448227
40
0.333560958551516
40
0.340462806758095
40
0.343913730861384
40
0.347364654964674
40
0.350815579067963
40
0.354266503171253
40
0.355991965222897
40
0.357717427274542
40
0.361168351377831
40
0.364619275481121
40
0.36807019958441
40
0.3715211236877
40
0.374972047790989
40
0.378422971894279
40
0.381873895997568
40
0.383599358049213
40
0.385324820100858
40
0.388775744204147
40
0.392226668307437
40
0.395677592410726
40
0.399128516514015
40
0.402579440617305
40
0.406030364720594
40
0.409481288823884
40
0.412932212927173
40
0.416383137030463
40
0.419834061133752
40
0.423284985237042
40
0.426735909340331
40
0.43018683344362
40
0.43363775754691
40
0.437088681650199
40
0.438814143701844
40
0.440539605753489
40
0.443990529856778
40
0.447441453960068
40
0.449166916011712
40
0.450892378063357
40
0.454343302166646
40
0.457794226269936
40
0.459519688321581
40
0.461245150373225
40
0.46297061242487
40
0.464696074476515
40
0.46642153652816
40
0.468146998579804
40
0.469009729605627
40
0.469872460631449
40
0.471597922683094
40
0.472460653708916
40
0.473323384734739
40
0.475048846786383
40
0.476774308838028
40
0.47763703986385
40
0.478499770889673
40
0.479362501915495
40
0.480225232941317
40
0.481950694992962
40
0.482813426018784
40
0.483676157044607
40
0.484538888070429
40
0.485401619096252
40
0.486264350122074
40
0.487127081147896
40
0.488852543199541
40
0.489715274225363
40
0.490578005251186
40
0.49230346730283
40
0.493166198328653
40
0.494028929354475
40
0.494891660380297
40
0.49575439140612
40
0.497479853457765
40
0.499205315509409
40
0.500068046535232
40
0.500930777561054
40
0.501793508586876
40
0.502656239612699
40
0.504381701664343
40
0.505244432690166
40
0.506107163715988
40
0.506969894741811
40
0.507832625767633
40
0.509558087819278
40
0.5104208188451
40
0.511283549870922
40
0.512146280896745
40
0.513009011922567
40
0.514734473974212
40
0.516459936025856
40
0.517322667051679
40
0.518185398077501
40
0.519048129103324
40
0.519910860129146
40
0.521636322180791
40
0.523361784232435
40
0.52508724628408
40
0.526812708335725
40
0.52853817038737
40
0.529400901413192
40
0.530263632439014
40
0.531126363464837
40
0.531989094490659
40
0.532851825516481
40
0.533714556542304
40
0.534577287568126
40
0.535440018593948
40
0.537165480645593
40
0.538890942697238
40
0.53975367372306
40
0.540616404748883
40
0.542341866800527
40
0.54320459782635
40
0.544067328852172
40
0.545792790903817
40
0.547518252955461
40
0.549243715007106
40
0.550969177058751
40
0.552694639110396
40
0.55442010116204
40
0.55787102526533
40
0.561321949368619
40
0.563047411420264
40
0.564772873471909
40
0.568223797575198
40
0.571674721678488
40
0.573400183730132
40
0.575125645781777
40
0.578576569885067
40
0.580302031936711
40
0.582027493988356
40
0.585478418091645
40
0.588929342194935
40
0.592380266298224
40
0.595831190401514
40
0.599282114504803
40
0.601007576556448
40
0.602733038608092
40
0.606183962711382
40
0.609634886814671
40
0.613085810917961
40
0.61653673502125
40
0.61998765912454
40
0.623438583227829
40
0.626889507331119
40
0.630340431434408
40
0.633791355537698
40
0.637242279640987
40
0.640693203744276
40
0.644144127847566
40
0.651045976054145
40
0.654496900157434
40
0.656222362209079
40
0.657947824260724
40
0.661398748364013
40
0.664849672467303
40
0.668300596570592
40
0.671751520673882
40
0.67865336888046
40
0.68210429298375
40
0.685555217087039
40
0.689006141190329
40
0.692457065293618
40
0.699358913500197
40
0.702809837603486
40
0.706260761706776
40
0.709711685810065
40
0.713162609913355
40
0.720064458119934
40
0.723515382223223
40
0.726966306326513
40
0.730417230429802
40
0.733868154533091
40
0.74077000273967
40
0.747671850946249
40
0.751122775049539
40
0.754573699152828
40
0.761475547359407
40
0.768377395565986
40
0.775279243772565
40
0.778730167875854
40
0.782181091979144
40
0.785632016082433
40
0.789082940185722
40
0.795984788392302
40
0.80288663659888
40
0.80633756070217
40
0.809788484805459
40
0.813239408908749
40
0.816690333012038
40
0.823592181218617
40
0.830494029425196
40
0.837395877631775
40
0.840846801735064
40
0.844297725838354
40
0.851199574044933
40
0.858101422251511
40
0.861552346354801
40
0.86500327045809
40
0.86845419456138
40
0.871905118664669
40
0.878806966871248
40
0.885708815077827
40
0.889159739181116
40
0.892610663284406
40
0.899512511490985
40
0.902963435594274
40
0.906414359697564
40
0.908139821749208
40
0.909865283800853
40
0.913316207904143
40
0.920218056110721
40
0.923668980214011
40
0.9271199043173
40
0.93057082842059
40
0.934021752523879
40
0.937472676627169
40
0.940923600730458
40
0.944374524833748
40
0.947825448937037
40
0.951276373040326
40
0.954727297143616
40
0.958178221246905
40
0.961629145350195
40
0.965080069453484
40
0.968530993556774
40
0.971981917660063
40
0.975432841763352
40
0.978883765866642
40
0.982334689969931
40
0.985785614073221
40
0.98923653817651
40
0.9926874622798
40
0.996138386383089
40
0.999589310486379
40
1
40
1
40
1
40
1
41
1
10
-60
20
33.4556558428413
30
0
41
1
10
-60
20
33.4576332119445
30
0
41
1
10
-60
20
33.4616638192557
30
0
41
1
10
-60
20
33.4643410509434
30
0
41
1
10
-60
20
33.4623133815696
30
0
41
1
10
-60
20
33.4553334593645
30
0
41
1
10
-60
20
33.4434921454555
30
0
41
1
10
-60
20
33.4268774268509
30
0
41
1
10
-60
20
33.4055717280174
30
0
41
1
10
-60
20
33.3796553140389
30
0
41
1
10
-60
20
33.3492037178841
30
0
41
1
10
-60
20
33.314289538161
30
0
41
1
10
-60
20
33.2749830705361
30
0
41
1
10
-60
20
33.2313495484921
30
0
41
1
10
-60
20
33.1834545182116
30
0
41
1
10
-60
20
33.1313576224893
30
0
41
1
10
-60
20
33.0560855188702
30
0
41
1
10
-60
20
32.9735372025895
30
0
41
1
10
-60
20
32.8821013415762
30
0
41
1
10
-60
20
32.8098349743486
30
0
41
1
10
-60
20
32.733688775323
30
0
41
1
10
-60
20
32.6537081477481
30
0
41
1
10
-60
20
32.5699376540553
30
0
41
1
10
-60
20
32.4824210440016
30
0
41
1
10
-60
20
32.3912001164081
30
0
41
1
10
-60
20
32.2963152268368
30
0
41
1
10
-60
20
32.1978052794717
30
0
41
1
10
-60
20
32.0612248425865
30
0
41
1
10
-60
20
31.9189181156055
30
0
41
1
10
-60
20
31.7872672789305
30
0
41
1
10
-60
20
31.7102043249634
30
0
41
1
10
-60
20
31.6319918777348
30
0
41
1
10
-60
20
31.5326481176695
30
0
41
1
10
-60
20
31.3682719173465
30
0
41
1
10
-60
20
31.1987551463809
30
0
41
1
10
-60
20
31.0210528170066
30
0
41
1
10
-60
20
30.8389711768625
30
0
41
1
10
-60
20
30.6045149696702
30
0
41
1
10
-60
20
30.3594550872206
30
0
41
1
10
-60
20
30.1560458164262
30
0
41
1
10
-60
20
30.0008163011261
30
0
41
1
10
-60
20
29.8424884168047
30
0
41
1
10
-60
20
29.6266492024767
30
0
41
1
10
-60
20
29.3506439800406
30
0
41
1
10
-60
20
29.0646239872063
30
0
41
1
10
-60
20
28.8286459848585
30
0
41
1
10
-60
20
28.588711970395
30
0
41
1
10
-60
20
28.2830119047979
30
0
41
1
10
-60
20
27.9037227355801
30
0
41
1
10
-60
20
27.5788289346229
30
0
41
1
10
-60
20
27.3118865150179
30
0
41
1
10
-60
20
27.1094249342747
30
0
41
1
10
-60
20
26.9041562227329
30
0
41
1
10
-60
20
26.6259536097733
30
0
41
1
10
-60
20
26.2730451104148
30
0
41
1
10
-60
20
25.9109897890729
30
0
41
1
10
-60
20
25.6143967365825
30
0
41
1
10
-60
20
25.3898727883459
30
0
41
1
10
-60
20
25.1626504323296
30
0
41
1
10
-60
20
24.8552336369894
30
0
41
1
10
-60
20
24.4662671647181
30
0
41
1
10
-60
20
23.9878313987672
30
0
41
1
10
-60
20
23.581309600239
30
0
41
1
10
-60
20
23.249168845647
30
0
41
1
10
-60
20
22.9135633071667
30
0
41
1
10
-60
20
22.4898084449714
30
0
41
1
10
-60
20
22.0575119779296
30
0
41
1
10
-60
20
21.7047294419233
30
0
41
1
10
-60
20
21.4383936907813
30
0
41
1
10
-60
20
21.1695327729883
30
0
41
1
10
-60
20
20.8066187564656
30
0
41
1
10
-60
20
20.4419941243111
30
0
41
1
10
-60
20
20.0690271785162
30
0
41
1
10
-60
20
19.787682750911
30
0
41
1
10
-60
20
19.5038694602985
30
0
41
1
10
-60
20
19.1209962837445
30
0
41
1
10
-60
20
18.7368339912086
30
0
41
1
10
-60
20
18.3441159235589
30
0
41
1
10
-60
20
18.0480997672743
30
0
41
1
10
-60
20
17.7496716294468
30
0
41
1
10
-60
20
17.3472727105996
30
0
41
1
10
-60
20
16.9440675389051
30
0
41
1
10
-60
20
16.532035620606
30
0
41
1
10
-60
20
16.2216969743561
30
0
41
1
10
-60
20
15.9090090330769
30
0
41
1
10
-60
20
15.6472013716544
30
0
41
1
10
-60
20
15.4352759364928
30
0
41
1
10
-60
20
15.2225823733161
30
0
41
1
10
-60
20
14.9569585815733
30
0
41
1
10
-60
20
14.634987908958
30
0
41
1
10
-60
20
14.3107292402958
30
0
41
1
10
-60
20
13.9841958759155
30
0
41
1
10
-60
20
13.6554023236347
30
0
41
1
10
-60
20
13.3243664763056
30
0
41
1
10
-60
20
13.0474865550707
30
0
41
1
10
-60
20
12.8233283675937
30
0
41
1
10
-60
20
12.5984437652583
30
0
41
1
10
-60
20
12.3179771615538
30
0
41
1
10
-60
20
11.9781527958056
30
0
41
1
10
-60
20
11.6361816637219
30
0
41
1
10
-60
20
11.292092379822
30
0
41
1
10
-60
20
10.9459088594489
30
0
41
1
10
-60
20
10.5976625981365
30
0
41
1
10
-60
20
10.2473847821601
30
0
41
1
10
-60
20
9.89511131375593
30
0
41
1
10
-60
20
9.54088172151239
30
0
41
1
10
-60
20
9.18473899017405
30
0
41
1
10
-60
20
8.82673234426119
30
0
41
1
10
-60
20
8.46691508480725
30
0
41
1
10
-60
20
8.10534831886906
30
0
41
1
10
-60
20
7.74209991377398
30
0
41
1
10
-60
20
7.43933366074933
30
0
41
1
10
-60
20
7.19392383197427
30
0
41
1
10
-60
20
6.94806390056183
30
0
41
1
10
-60
20
6.64308245049975
30
0
41
1
10
-60
20
6.33692354274459
30
0
41
1
10
-60
20
6.08866434779782
30
0
41
1
10
-60
20
5.84008609772042
30
0
41
1
10
-60
20
5.53238372840596
30
0
41
1
10
-60
20
5.22383853567212
30
0
41
1
10
-60
20
4.97352607912163
30
0
41
1
10
-60
20
4.78702154756596
30
0
41
1
10
-60
20
4.60040605057171
30
0
41
1
10
-60
20
4.41369717399607
30
0
41
1
10
-60
20
4.22693988185341
30
0
41
1
10
-60
20
4.07226259629712
30
0
41
1
10
-60
20
3.9466938307813
30
0
41
1
10
-60
20
3.82116954124064
30
0
41
1
10
-60
20
3.69883107629951
30
0
41
1
10
-60
20
3.57328747913135
30
0
41
1
10
-60
20
3.44781059563368
30
0
41
1
10
-60
20
3.29358638075718
30
0
41
1
10
-60
20
3.13944522665
30
0
41
1
10
-60
20
3.01413837924019
30
0
41
1
10
-60
20
2.92113732640235
30
0
41
1
10
-60
20
2.82819985495797
30
0
41
1
10
-60
20
2.70315242408563
30
0
41
1
10
-60
20
2.58203066540025
30
0
41
1
10
-60
20
2.45723012695294
30
0
41
1
10
-60
20
2.36470328144028
30
0
41
1
10
-60
20
2.27228576896138
30
0
41
1
10
-60
20
2.17998802306417
30
0
41
1
10
-60
20
2.08778698627512
30
0
41
1
10
-60
20
1.96363390475221
30
0
41
1
10
-60
20
1.84396791149473
30
0
41
1
10
-60
20
1.72020377819322
30
0
41
1
10
-60
20
1.59663706390083
30
0
41
1
10
-60
20
1.47780824879951
30
0
41
1
10
-60
20
1.35466991435547
30
0
41
1
10
-60
20
1.26362007097094
30
0
41
1
10
-60
20
1.17270141325395
30
0
41
1
10
-60
20
1.05008260157575
30
0
41
1
10
-60
20
0.900734180171582
30
0
41
1
10
-60
20
0.751709618123755
30
0
41
1
10
-60
20
0.629727249897627
30
0
41
1
10
-60
20
0.539591484049993
30
0
41
1
10
-60
20
0.44953312334124
30
0
41
1
10
-60
20
0.327862446496653
30
0
41
1
10
-60
20
0.211387195797528
30
0
41
1
10
-60
20
0.0898518914115414
30
0
41
1
10
-60
20
2.33089281E-08
30
0
41
1
10
-60
20
-0.0898518818022467
30
0
41
1
10
-60
20
-0.211387173079942
30
0
41
1
10
-60
20
-0.32786241019906
30
0
41
1
10
-60
20
-0.44953315485472
30
0
41
1
10
-60
20
-0.539591448084252
30
0
41
1
10
-60
20
-0.629727190611248
30
0
41
1
10
-60
20
-0.751709598313141
30
0
41
1
10
-60
20
-0.900734187142177
30
0
41
1
10
-60
20
-1.05008260284762
30
0
41
1
10
-60
20
-1.17270128769022
30
0
41
1
10
-60
20
-1.26362007709338
30
0
41
1
10
-60
20
-1.35466986733158
30
0
41
1
10
-60
20
-1.47780889967763
30
0
41
1
10
-60
20
-1.62866356892965
30
0
41
1
10
-60
20
-1.81195714590723
30
0
41
1
10
-60
20
-1.99575931518561
30
0
41
1
10
-60
20
-2.18003829088599
30
0
41
1
10
-60
20
-2.33258035694229
30
0
41
1
10
-60
20
-2.45723438857442
30
0
41
1
10
-60
20
-2.54984007971646
30
0
41
1
10
-60
20
-2.64253286485464
30
0
41
1
10
-60
20
-2.7353239097923
30
0
41
1
10
-60
20
-2.82819892922646
30
0
41
1
10
-60
20
-2.92113717428768
30
0
41
1
10
-60
20
-3.0141385699028
30
0
41
1
10
-60
20
-3.13944522556258
30
0
41
1
10
-60
20
-3.2935859845241
30
0
41
1
10
-60
20
-3.44781022267125
30
0
41
1
10
-60
20
-3.57328748848445
30
0
41
1
10
-60
20
-3.6988314347083
30
0
41
1
10
-60
20
-3.82116995532769
30
0
41
1
10
-60
20
-3.94669401081842
30
0
41
1
10
-60
20
-4.07226239422653
30
0
41
1
10
-60
20
-4.22693940902752
30
0
41
1
10
-60
20
-4.41369698550011
30
0
41
1
10
-60
20
-4.60040635681673
30
0
41
1
10
-60
20
-4.7870219387934
30
0
41
1
10
-60
20
-4.97352604952792
30
0
41
1
10
-60
20
-5.22383810629833
30
0
41
1
10
-60
20
-5.53238377279544
30
0
41
1
10
-60
20
-5.8400864784706
30
0
41
1
10
-60
20
-6.08866423546837
30
0
41
1
10
-60
20
-6.33692316417091
30
0
41
1
10
-60
20
-6.64308259789809
30
0
41
1
10
-60
20
-6.94806448980088
30
0
41
1
10
-60
20
-7.19392396234315
30
0
41
1
10
-60
20
-7.43933366870851
30
0
41
1
10
-60
20
-7.67989586792567
30
0
41
1
10
-60
20
-7.92361107948267
30
0
41
1
10
-60
20
-8.16680647555478
30
0
41
1
10
-60
20
-8.46691182410564
30
0
41
1
10
-60
20
-8.82673137604746
30
0
41
1
10
-60
20
-9.18474212579679
30
0
41
1
10
-60
20
-9.54088275359166
30
0
41
1
10
-60
20
-9.8349345052263
30
0
41
1
10
-60
20
-10.0711726122456
30
0
41
1
10
-60
20
-10.3067727719092
30
0
41
1
10
-60
20
-10.5976628395392
30
0
41
1
10
-60
20
-10.9459088896872
30
0
41
1
10
-60
20
-11.2920923090958
30
0
41
1
10
-60
20
-11.6361817696307
30
0
41
1
10
-60
20
-11.9781526643528
30
0
41
1
10
-60
20
-12.3179774972949
30
0
41
1
10
-60
20
-12.6556361459602
30
0
41
1
10
-60
20
-12.991105740016
30
0
41
1
10
-60
20
-13.3243668024954
30
0
41
1
10
-60
20
-13.6554036731857
30
0
41
1
10
-60
20
-13.9841945283398
30
0
41
1
10
-60
20
-14.421206512195
30
0
41
1
10
-60
20
-14.8489195414718
30
0
41
1
10
-60
20
-15.2225823214827
30
0
41
1
10
-60
20
-15.4352759723946
30
0
41
1
10
-60
20
-15.647201356186
30
0
41
1
10
-60
20
-15.9090090125605
30
0
41
1
10
-60
20
-16.2216969814831
30
0
41
1
10
-60
20
-16.5320355896629
30
0
41
1
10
-60
20
-16.9440675257307
30
0
41
1
10
-60
20
-17.3472727170548
30
0
41
1
10
-60
20
-17.7496716428444
30
0
41
1
10
-60
20
-18.0480997821431
30
0
41
1
10
-60
20
-18.3441158768435
30
0
41
1
10
-60
20
-18.7368339915895
30
0
41
1
10
-60
20
-19.120996273923
30
0
41
1
10
-60
20
-19.5038694802314
30
0
41
1
10
-60
20
-19.7876827545796
30
0
41
1
10
-60
20
-20.0690271428399
30
0
41
1
10
-60
20
-20.441994127766
30
0
41
1
10
-60
20
-20.8066187451665
30
0
41
1
10
-60
20
-21.1695327858038
30
0
41
1
10
-60
20
-21.4383937008238
30
0
41
1
10
-60
20
-21.7047294118794
30
0
41
1
10
-60
20
-22.0575119733736
30
0
41
1
10
-60
20
-22.4898084525807
30
0
41
1
10
-60
20
-22.9135633086718
30
0
41
1
10
-60
20
-23.2491688314427
30
0
41
1
10
-60
20
-23.5813095953077
30
0
41
1
10
-60
20
-23.9878314099488
30
0
41
1
10
-60
20
-24.4662671557058
30
0
41
1
10
-60
20
-24.8552336352659
30
0
41
1
10
-60
20
-25.1626504358649
30
0
41
1
10
-60
20
-25.3898727930233
30
0
41
1
10
-60
20
-25.6143967303269
30
0
41
1
10
-60
20
-25.9109897889273
30
0
41
1
10
-60
20
-26.2730451134659
30
0
41
1
10
-60
20
-26.6259536079636
30
0
41
1
10
-60
20
-26.904156227805
30
0
41
1
10
-60
20
-27.1094249332373
30
0
41
1
10
-60
20
-27.3118865130228
30
0
41
1
10
-60
20
-27.5788289362021
30
0
41
1
10
-60
20
-27.903722739304
30
0
41
1
10
-60
20
-28.2830119086102
30
0
41
1
10
-60
20
-28.5887119662347
30
0
41
1
10
-60
20
-28.8286459978862
30
0
41
1
10
-60
20
-29.0646239922872
30
0
41
1
10
-60
20
-29.3506439793957
30
0
41
1
10
-60
20
-29.626649201014
30
0
41
1
10
-60
20
-29.8424884317765
30
0
41
1
10
-60
20
-30.000816311555
30
0
41
1
10
-60
20
-30.1560458056576
30
0
41
1
10
-60
20
-30.3594550888042
30
0
41
1
10
-60
20
-30.6045149784549
30
0
41
1
10
-60
20
-30.8389711933591
30
0
41
1
10
-60
20
-31.0210528094401
30
0
41
1
10
-60
20
-31.1987551464293
30
0
41
1
10
-60
20
-31.3682719258243
30
0
41
1
10
-60
20
-31.5326481340748
30
0
41
1
10
-60
20
-31.6319918952804
30
0
41
1
10
-60
20
-31.7102043239203
30
0
41
1
10
-60
20
-31.7872672700223
30
0
41
1
10
-60
20
-31.9189181186464
30
0
41
1
10
-60
20
-32.061224849943
30
0
41
1
10
-60
20
-32.1978052933397
30
0
41
1
10
-60
20
-32.2963152464944
30
0
41
1
10
-60
20
-32.3912001013678
30
0
41
1
10
-60
20
-32.4824210694835
30
0
41
1
10
-60
20
-32.5699376718859
30
0
41
1
10
-60
20
-32.6537080260487
30
0
41
1
10
-60
20
-32.7336889066932
30
0
41
1
10
-60
20
-32.8098354129061
30
0
41
1
10
-60
20
-32.8821009542705
30
0
41
1
10
-60
20
-32.9504372229349
30
0
41
1
10
-60
20
-33.0147937722119
30
0
41
1
10
-60
20
-33.0751182914419
30
0
41
1
10
-60
20
-33.1313576691056
30
0
41
1
10
-60
20
-33.1834545172445
30
0
41
1
10
-60
20
-33.2313494864308
30
0
41
1
10
-60
20
-33.2749830986899
30
0
41
1
10
-60
20
-33.3142894793407
30
0
41
1
10
-60
20
-33.3492037179871
30
0
41
1
10
-60
20
-33.3796552925038
30
0
41
1
10
-60
20
-33.4055716886024
30
0
41
1
10
-60
20
-33.4268774387512
30
0
41
1
10
-60
20
-33.443492082087
30
0
41
1
10
-60
20
-33.4518270479873
30
0
41
1
10
-60
20
-33.4552356364994
30
0
41
1
10
-60
20
-33.455586788856
30
0
0
SPLINE
5
114
100
AcDbEntity
8
1
62
256
6
ByLayer
370
18
48
1
60
0
100
AcDbSpline
70
4
71
3
72
22
73
18
40
0
40
0
40
0
40
0
40
0.128620787542925
40
0.128620787542925
40
0.257241575085851
40
0.257241575085851
40
0.385862362628776
40
0.385862362628776
40
0.514483150171702
40
0.514483150171702
40
0.643103937714627
40
0.643103937714627
40
0.771724725257553
40
0.771724725257553
40
0.900345512800478
40
0.900345512800478
40
1
40
1
40
1
40
1
41
1
10
78.9818712790463
20
-59.2641467698666
30
0
41
1
10
78.9400428673469
20
-59.2399971251122
30
0
41
1
10
78.8949647117678
20
-59.2139712398537
30
0
41
1
10
78.7987047835623
20
-59.158395544392
30
0
41
1
10
78.7469821294469
20
-59.1285334561157
30
0
41
1
10
78.6398492590505
20
-59.0666802645533
30
0
41
1
10
78.5848651529433
20
-59.0349351760911
30
0
41
1
10
78.4721350494723
20
-58.9698504205063
30
0
41
1
10
78.4138752343148
20
-58.9362141005422
30
0
41
1
10
78.2988937232707
20
-58.8698294941891
30
0
41
1
10
78.2417723333829
20
-58.8368504443609
30
0
41
1
10
78.1282765928394
20
-58.7713236480062
30
0
41
1
10
78.0719637478592
20
-58.7388114117981
30
0
41
1
10
77.9648261116338
20
-58.6769554686829
30
0
41
1
10
77.9133759399589
20
-58.6472506982166
30
0
41
1
10
77.8259968649688
20
-58.5968023657495
30
0
41
1
10
77.7897189326934
20
-58.5758572917848
30
0
41
1
10
77.7557854213398
20
-58.5562657698702
30
0
0
SPLINE
5
115
100
AcDbEntity
8
1
62
256
6
ByLayer
370
18
48
1
60
0
100
AcDbSpline
70
4
71
3
72
16
73
12
40
0
40
0
40
0
40
0
40
0.25
40
0.25
40
0.5
40
0.5
40
0.75
40
0.75
40
0.875
40
0.875
40
1
40
1
40
1
40
1
41
1
10
18.6443375672974
20
-47.532474059346
30
0
41
1
10
18.628663043577
20
-47.5510763302182
30
0
41
1
10
18.609922401016
20
-47.5691972862268
30
0
41
1
10
18.5642089472352
20
-47.6042475586049
30
0
41
1
10
18.5371631998437
20
-47.621296285613
30
0
41
1
10
18.4704947598567
20
-47.6531299493423
30
0
41
1
10
18.4307979975499
20
-47.6679778471913
30
0
41
1
10
18.3582709830991
20
-47.685218753302
30
0
41
1
10
18.3313299686496
20
-47.6901974749824
30
0
41
1
10
18.273779935704
20
-47.6971341405705
30
0
41
1
10
18.2427481222218
20
-47.6991123363142
30
0
41
1
10
18.2113248654052
20
-47.6991123363142
30
0
0
SPLINE
5
116
100
AcDbEntity
8
1
62
256
6
ByLayer
370
18
48
1
60
0
100
AcDbSpline
70
4
71
3
72
16
73
12
40
0
40
0
40
0
40
0
40
0.249999999999999
40
0.249999999999999
40
0.499999999999998
40
0.499999999999998
40
0.749999999999997
40
0.749999999999997
40
0.874999999999998
40
0.874999999999998
40
1
40
1
40
1
40
1
41
1
10
18.6443375672974
20
15.5133461831291
30
0
41
1
10
18.628663043577
20
15.4563493271806
30
0
41
1
10
18.609922401016
20
15.400478236028
30
0
41
1
10
18.5642089472352
20
15.2917910897776
30
0
41
1
10
18.5371631998437
20
15.2385985420777
30
0
41
1
10
18.4704947598566
20
15.1387566028337
30
0
41
1
10
18.4307979975499
20
15.0918966685263
30
0
41
1
10
18.3582709830991
20
15.0372961905784
30
0
41
1
10
18.3313299686496
20
15.021491213259
30
0
41
1
10
18.273779935704
20
14.9994509315928
30
0
41
1
10
18.2427481222218
20
14.9931545155676
30
0
41
1
10
18.2113248654052
20
14.9931545155676
30
0
0
SPLINE
5
117
100
AcDbEntity
8
1
62
256
6
ByLayer
370
18
48
1
60
0
100
AcDbSpline
70
4
71
3
72
16
73
12
40
0
40
0
40
0
40
0
40
0.250000000000001
40
0.250000000000001
40
0.500000000000002
40
0.500000000000002
40
0.750000000000003
40
0.750000000000003
40
0.875000000000002
40
0.875000000000002
40
1
40
1
40
1
40
1
41
1
10
13.3556624327026
20
47.5324740593459
30
0
41
1
10
13.3713369564231
20
47.5510763302181
30
0
41
1
10
13.390077598984
20
47.5691972862268
30
0
41
1
10
13.4357910527648
20
47.6042475586048
30
0
41
1
10
13.4628368001564
20
47.6212962856129
30
0
41
1
10
13.5295052401434
20
47.6531299493423
30
0
41
1
10
13.5692020024501
20
47.6679778471913
30
0
41
1
10
13.641729016901
20
47.685218753302
30
0
41
1
10
13.6686700313504
20
47.6901974749824
30
0
41
1
10
13.726220064296
20
47.6971341405705
30
0
41
1
10
13.7572518777783
20
47.6991123363141
30
0
41
1
10
13.7886751345948
20
47.6991123363141
30
0
0
SPLINE
5
118
100
AcDbEntity
8
1
62
256
6
ByLayer
370
18
48
1
60
0
100
AcDbSpline
70
4
71
3
72
16
73
12
40
0
40
0
40
0
40
0
40
0.125000000000002
40
0.125000000000002
40
0.250000000000003
40
0.250000000000003
40
0.500000000000002
40
0.500000000000002
40
0.750000000000001
40
0.750000000000001
40
1
40
1
40
1
40
1
41
1
10
13.7886751345948
20
14.9931545155676
30
0
41
1
10
13.7572057460937
20
14.9931545155676
30
0
41
1
10
13.7265863249372
20
14.9993270329222
30
0
41
1
10
13.6685627993565
20
15.0215159830932
30
0
41
1
10
13.642171873473
20
15.0369693753061
30
0
41
1
10
13.5684767776432
20
15.092429500184
30
0
41
1
10
13.529486779677
20
15.1387838835225
30
0
41
1
10
13.4628524690449
20
15.2385754420444
30
0
41
1
10
13.4360331579796
20
15.2912821270175
30
0
41
1
10
13.3902293919744
20
15.4000512474235
30
0
41
1
10
13.3713425683518
20
15.4563289206726
30
0
41
1
10
13.3556624327026
20
15.5133461831291
30
0
0
SPLINE
5
119
100
AcDbEntity
8
1
62
256
6
ByLayer
370
18
48
1
60
0
100
AcDbSpline
70
4
71
3
72
16
73
12
40
0
40
0
40
0
40
0
40
0.250000000000002
40
0.250000000000002
40
0.500000000000005
40
0.500000000000005
40
0.750000000000007
40
0.750000000000007
40
0.875000000000003
40
0.875000000000003
40
1
40
1
40
1
40
1
41
1
10
13.3556624327026
20
-15.5133461831291
30
0
41
1
10
13.3713369564231
20
-15.4563493271807
30
0
41
1
10
13.390077598984
20
-15.4004782360281
30
0
41
1
10
13.4357910527648
20
-15.2917910897776
30
0
41
1
10
13.4628368001564
20
-15.2385985420777
30
0
41
1
10
13.5295052401434
20
-15.1387566028337
30
0
41
1
10
13.5692020024501
20
-15.0918966685263
30
0
41
1
10
13.641729016901
20
-15.0372961905784
30
0
41
1
10
13.6686700313504
20
-15.021491213259
30
0
41
1
10
13.7262200642961
20
-14.9994509315928
30
0
41
1
10
13.7572518777782
20
-14.9931545155676
30
0
41
1
10
13.7886751345948
20
-14.9931545155676
30
0
0
SPLINE
5
11A
100
AcDbEntity
8
1
62
256
6
ByLayer
370
18
48
1
60
0
100
AcDbSpline
70
4
71
3
72
16
73
12
40
0
40
0
40
0
40
0
40
0.125
40
0.125
40
0.25
40
0.25
40
0.5
40
0.5
40
0.75
40
0.75
40
1
40
1
40
1
40
1
41
1
10
13.7886751345948
20
-47.6991123363141
30
0
41
1
10
13.7572057460937
20
-47.6991123363141
30
0
41
1
10
13.7265863249372
20
-47.6971731220929
30
0
41
1
10
13.6685627993565
20
-47.6901896918971
30
0
41
1
10
13.642171873473
20
-47.6853219328561
30
0
41
1
10
13.5684767776432
20
-47.6678096320571
30
0
41
1
10
13.529486779677
20
-47.6531212535631
30
0
41
1
10
13.4628524690449
20
-47.6213036484294
30
0
41
1
10
13.4360331579796
20
-47.6044110998707
30
0
41
1
10
13.3902293919744
20
-47.5693355727224
30
0
41
1
10
13.3713425683518
20
-47.5510829903643
30
0
41
1
10
13.3556624327026
20
-47.5324740593459
30
0
0
SPLINE
5
11B
100
AcDbEntity
8
1
62
256
6
ByLayer
370
18
48
1
60
0
100
AcDbSpline
70
4
71
3
72
10
73
6
40
0
40
0
40
0
40
0
40
0.5
40
0.5
40
1
40
1
40
1
40
1
41
1
10
39.5000000000004
20
-50.1466459496555
30
0
41
1
10
39.6397609833155
20
-50.1466459496555
30
0
41
1
10
39.7790198148408
20
-50.1539923989206
30
0
41
1
10
40.054197949631
20
-50.1828114642809
30
0
41
1
10
40.1904979346
20
-50.2042832258883
30
0
41
1
10
40.3255186002153
20
-50.2327637295002
30
0
0
SPLINE
5
11C
100
AcDbEntity
8
1
62
256
6
ByLayer
370
18
48
1
60
0
100
AcDbSpline
70
4
71
3
72
16
73
12
40
0
40
0
40
0
40
0
40
0.125000000000006
40
0.125000000000006
40
0.250000000000011
40
0.250000000000011
40
0.500000000000008
40
0.500000000000008
40
0.750000000000004
40
0.750000000000004
40
1
40
1
40
1
40
1
41
1
10
18.2113248654052
20
-14.9931545155676
30
0
41
1
10
18.2427942539064
20
-14.9931545155676
30
0
41
1
10
18.2734136750629
20
-14.9993270329222
30
0
41
1
10
18.3314372006436
20
-15.0215159830932
30
0
41
1
10
18.357828126527
20
-15.0369693753061
30
0
41
1
10
18.4315232223568
20
-15.092429500184
30
0
41
1
10
18.4705132203231
20
-15.1387838835225
30
0
41
1
10
18.5371475309552
20
-15.2385754420444
30
0
41
1
10
18.5639668420205
20
-15.2912821270175
30
0
41
1
10
18.6097706080257
20
-15.4000512474235
30
0
41
1
10
18.6286574316482
20
-15.4563289206725
30
0
41
1
10
18.6443375672975
20
-15.5133461831291
30
0
0
SPLINE
5
11D
100
AcDbEntity
8
1
62
256
6
ByLayer
370
18
48
1
60
0
100
AcDbSpline
70
4
71
3
72
18
73
14
40
0
40
0
40
0
40
0
40
0.249999999999997
40
0.249999999999997
40
0.374999999999997
40
0.374999999999997
40
0.499999999999996
40
0.499999999999996
40
0.749999999999998
40
0.749999999999998
40
0.874999999999999
40
0.874999999999999
40
1
40
1
40
1
40
1
41
1
10
34.600518703703
20
49.9055772749467
30
0
41
1
10
34.6250966983469
20
49.9228666267411
30
0
41
1
10
34.6786288981315
20
49.937321307518
30
0
41
1
10
34.8007592698206
20
49.9553222018851
30
0
41
1
10
34.8484993103423
20
49.9607074320792
30
0
41
1
10
34.9584767472877
20
49.9703309310279
30
0
41
1
10
35.0205037929037
20
49.9745373047119
30
0
41
1
10
35.2240085054839
20
49.9853746104178
30
0
41
1
10
35.3838223574464
20
49.9903351056753
30
0
41
1
10
35.6602253802149
20
49.9953779832576
30
0
41
1
10
35.7587869736563
20
49.9966559958459
30
0
41
1
10
35.9650451659098
20
49.9985361792088
30
0
41
1
10
36.0731032076548
20
49.9991470208408
30
0
41
1
10
36.1861384096169
20
49.9995187679639
30
0
0
SPLINE
5
11E
100
AcDbEntity
8
1
62
256
6
ByLayer
370
18
48
1
60
0
100
AcDbSpline
70
4
71
3
72
12
73
8
40
0
40
0
40
0
40
0
40
0.5
40
0.5
40
0.75
40
0.75
40
1
40
1
40
1
40
1
41
1
10
36.6525073622716
20
50.1499328867444
30
0
41
1
10
36.9489727979181
20
50.1496652035488
30
0
41
1
10
37.2595751390727
20
50.1487143762339
30
0
41
1
10
37.746005054389
20
50.1475790713819
30
0
41
1
10
37.9125238142014
20
50.1472393557961
30
0
41
1
10
38.24757372003
20
50.1467731767302
30
0
41
1
10
38.415987675457
20
50.1466459496546
30
0
41
1
10
38.58529749607
20
50.1466459496546
30
0
0
SPLINE
5
11F
100
AcDbEntity
8
1
62
256
6
ByLayer
370
18
48
1
60
0
100
AcDbSpline
70
4
71
3
72
12
73
8
40
0
40
0
40
0
40
0
40
0.499999999999986
40
0.499999999999986
40
0.749999999999993
40
0.749999999999993
40
1
40
1
40
1
40
1
41
1
10
36.6525073622716
20
-50.1499328867452
30
0
41
1
10
36.5797637780496
20
-50.0978056532961
30
0
41
1
10
36.5029902633229
20
-50.0607724241613
30
0
41
1
10
36.3840932408847
20
-50.0237105531354
30
0
41
1
10
36.3439716827277
20
-50.0145947321021
30
0
41
1
10
36.2646932909303
20
-50.0026043685009
30
0
41
1
10
36.2252820705308
20
-49.999647502581
30
0
41
1
10
36.186138409617
20
-49.999518767965
30
0
0
SPLINE
5
120
100
AcDbEntity
8
1
62
256
6
ByLayer
370
18
48
1
60
0
100
AcDbSpline
70
4
71
3
72
16
73
12
40
0
40
0
40
0
40
0
40
0.125000000000004
40
0.125000000000004
40
0.250000000000008
40
0.250000000000008
40
0.500000000000005
40
0.500000000000005
40
0.750000000000003
40
0.750000000000003
40
1
40
1
40
1
40
1
41
1
10
18.2113248654052
20
47.6991123363141
30
0
41
1
10
18.2427942539063
20
47.6991123363141
30
0
41
1
10
18.2734136750628
20
47.6971731220929
30
0
41
1
10
18.3314372006436
20
47.690189691897
30
0
41
1
10
18.357828126527
20
47.685321932856
30
0
41
1
10
18.4315232223568
20
47.6678096320571
30
0
41
1
10
18.470513220323
20
47.6531212535631
30
0
41
1
10
18.5371475309551
20
47.6213036484293
30
0
41
1
10
18.5639668420204
20
47.6044110998707
30
0
41
1
10
18.6097706080257
20
47.5693355727224
30
0
41
1
10
18.6286574316483
20
47.5510829903643
30
0
41
1
10
18.6443375672975
20
47.5324740593459
30
0
0
SPLINE
5
121
100
AcDbEntity
8
1
62
256
6
ByLayer
370
18
48
1
60
0
100
AcDbSpline
70
4
71
3
72
10
73
6
40
0
40
0
40
0
40
0
40
0.5
40
0.5
40
1
40
1
40
1
40
1
41
1
10
36.186138409617
20
49.999518767964
30
0
41
1
10
36.2645063075561
20
49.9997765021928
30
0
41
1
10
36.3432758453214
20
50.0111917195635
30
0
41
1
10
36.5005678295854
20
50.0598174351388
30
0
41
1
10
36.5796298496565
20
50.0977096817126
30
0
41
1
10
36.6525073622727
20
50.149932886741
30
0
0
SPLINE
5
122
100
AcDbEntity
8
1
62
256
6
ByLayer
370
18
48
1
60
0
100
AcDbSpline
70
2053
71
3
72
95
73
91
40
0
40
0
40
0
40
0
40
0.0312500000000008
40
0.0312500000000008
40
0.0468750000000012
40
0.0468750000000012
40
0.0625000000000016
40
0.0625000000000016
40
0.0937500000000024
40
0.0937500000000024
40
0.125000000000003
40
0.125000000000003
40
0.156250000000004
40
0.156250000000004
40
0.171875000000004
40
0.171875000000004
40
0.187500000000004
40
0.187500000000004
40
0.218750000000004
40
0.218750000000004
40
0.234375000000004
40
0.234375000000004
40
0.250000000000004
40
0.265625000000004
40
0.265625000000004
40
0.281250000000005
40
0.281250000000005
40
0.312500000000004
40
0.312500000000004
40
0.328125000000004
40
0.328125000000004
40
0.343750000000004
40
0.343750000000004
40
0.375000000000004
40
0.375000000000004
40
0.390625000000004
40
0.390625000000004
40
0.406250000000004
40
0.421875000000004
40
0.421875000000004
40
0.437500000000003
40
0.437500000000003
40
0.468750000000003
40
0.468750000000003
40
0.484375000000003
40
0.484375000000003
40
0.500000000000003
40
0.500000000000003
40
0.531250000000002
40
0.531250000000002
40
0.546875000000003
40
0.546875000000003
40
0.562500000000003
40
0.562500000000003
40
0.593750000000003
40
0.593750000000003
40
0.625000000000004
40
0.625000000000004
40
0.640625000000004
40
0.640625000000004
40
0.656250000000003
40
0.656250000000003
40
0.687500000000003
40
0.687500000000003
40
0.718750000000003
40
0.718750000000003
40
0.750000000000003
40
0.750000000000003
40
0.765625000000003
40
0.765625000000003
40
0.781250000000003
40
0.781250000000003
40
0.812500000000002
40
0.812500000000002
40
0.828125000000002
40
0.828125000000002
40
0.843750000000002
40
0.859375000000002
40
0.859375000000002
40
0.875000000000001
40
0.875000000000001
40
0.906250000000001
40
0.906250000000001
40
0.921875000000001
40
0.921875000000001
40
0.937500000000001
40
0.937500000000001
40
0.96875
40
0.96875
40
1
40
1
40
1
40
1
41
1
10
27.3740432985721
20
-1.74467200416228
30
0
41
1
10
27.2552632537008
20
-1.86250225542869
30
0
41
1
10
27.1269995991704
20
-1.96679626030712
30
0
41
1
10
26.921212356392
20
-2.10413601687625
30
0
41
1
10
26.8503671865097
20
-2.14670744987444
30
0
41
1
10
26.7041168367747
20
-2.22534814981509
30
0
41
1
10
26.6283480822202
20
-2.26154103428342
30
0
41
1
10
26.3985189209501
20
-2.35818409640356
30
0
41
1
10
26.2410119306485
20
-2.40748235075012
30
0
41
1
10
25.9175932236562
20
-2.47643154640744
30
0
41
1
10
25.7501293510082
20
-2.49590939064944
30
0
41
1
10
25.4192825891329
20
-2.50291109214237
30
0
41
1
10
25.2547838250433
20
-2.4909500177051
30
0
41
1
10
25.0094450517713
20
-2.44943762482694
30
0
41
1
10
24.9274587090796
20
-2.43150838692262
30
0
41
1
10
24.7667770866411
20
-2.38814994571163
30
0
41
1
10
24.6880094982647
20
-2.36276369343366
30
0
41
1
10
24.4563340157091
20
-2.27569922738297
30
0
41
1
10
24.3080088231406
20
-2.20322061064394
30
0
41
1
10
24.09512947981
20
-2.07184467287905
30
0
41
1
10
24.0261729797133
20
-2.02443624093928
30
0
41
1
10
23.8944828968225
20
-1.92405930764022
30
0
41
1
10
23.7683145383247
20
-1.8177005002307
30
0
41
1
10
23.6531032997213
20
-1.69946732776521
30
0
41
1
10
23.5434861505063
20
-1.57516961380998
30
0
41
1
10
23.491202397557
20
-1.50958935395659
30
0
41
1
10
23.3454860164577
20
-1.30663080945121
30
0
41
1
10
23.2631380916434
20
-1.16358587629597
30
0
41
1
10
23.1614128363467
20
-0.937610743839315
30
0
41
1
10
23.1311632690811
20
-0.860370786572815
30
0
41
1
10
23.0782457452273
20
-0.701921974143062
30
0
41
1
10
23.0558646229482
20
-0.621471498237156
30
0
41
1
10
23.0013884899381
20
-0.379204975414041
30
0
41
1
10
22.9814599487889
20
-0.215377082514266
30
0
41
1
10
22.9764809620774
20
0.033887389648811
30
0
41
1
10
22.979070595803
20
0.117916015502857
30
0
41
1
10
22.9926094741712
20
0.283542030139614
30
0
41
1
10
23.0144237800013
20
0.447501598831906
30
0
41
1
10
23.0524471736799
20
0.608197397330912
30
0
41
1
10
23.0986476703081
20
0.767246961047931
30
0
41
1
10
23.1259760669421
20
0.846285636196285
30
0
41
1
10
23.2197307028069
20
1.0784673218671
30
0
41
1
10
23.2967914708005
20
1.22463152063182
30
0
41
1
10
23.4334361196507
20
1.43141354930123
30
0
41
1
10
23.4825195109085
20
1.49824797699685
30
0
41
1
10
23.5879415823283
20
1.62762296728414
30
0
41
1
10
23.6439542538925
20
1.68970088413286
30
0
41
1
10
23.8192711198862
20
1.86570994255297
30
0
41
1
10
23.9466810632558
20
1.97063003000659
30
0
41
1
10
24.1535498802317
20
2.1094463352477
30
0
41
1
10
24.2255114141462
20
2.15276508099123
30
0
41
1
10
24.3719688045697
20
2.23143697378384
30
0
41
1
10
24.446680168254
20
2.26698092764971
30
0
41
1
10
24.6751425391511
20
2.36254612607439
30
0
41
1
10
24.8333673636597
20
2.41164242256357
30
0
41
1
10
25.1608714157402
20
2.47950007671221
30
0
41
1
10
25.3253036699699
20
2.49729728661111
30
0
41
1
10
25.5729248355784
20
2.50092718158919
30
0
41
1
10
25.6556285408955
20
2.49826463164115
30
0
41
1
10
25.8213686380346
20
2.48505078851215
30
0
41
1
10
25.9046691377659
20
2.47441627833948
30
0
41
1
10
26.1500235742523
20
2.43122737575226
30
0
41
1
10
26.3091083891556
20
2.38747309598375
30
0
41
1
10
26.6183987484318
20
2.27033153865432
30
0
41
1
10
26.7697332023494
20
2.19597953948369
30
0
41
1
10
27.0512495404541
20
2.0224969836438
30
0
41
1
10
27.1827950892684
20
1.92312386224901
30
0
41
1
10
27.3659156609998
20
1.75458374539929
30
0
41
1
10
27.4248645528988
20
1.69477383422171
30
0
41
1
10
27.5356072544906
20
1.57071482113889
30
0
41
1
10
27.5875689921788
20
1.50637818638287
30
0
41
1
10
27.7333749044614
20
1.30654581109826
30
0
41
1
10
27.8172441065663
20
1.16429820421348
30
0
41
1
10
27.9218363758899
20
0.936560697161383
30
0
41
1
10
27.9527462061932
20
0.859014318146279
30
0
41
1
10
28.0061505737052
20
0.702390531423617
30
0
41
1
10
28.051380991117
20
0.543715211578501
30
0
41
1
10
28.080318718501
20
0.380949981507342
30
0
41
1
10
28.1008953556818
20
0.216085655635851
30
0
41
1
10
28.1069752654892
20
0.132200235397164
30
0
41
1
10
28.1120577136183
20
-0.117107456001492
30
0
41
1
10
28.0983672122126
20
-0.281614397172291
30
0
41
1
10
28.0525798633186
20
-0.525864248156466
30
0
41
1
10
28.0329582561843
20
-0.607245512307912
30
0
41
1
10
27.985492984995
20
-0.767269557888824
30
0
41
1
10
27.957833542672
20
-0.845457369265176
30
0
41
1
10
27.8635022365869
20
-1.07474783004787
30
0
41
1
10
27.7855853521407
20
-1.22062755523277
30
0
41
1
10
27.5992449485223
20
-1.49822565487426
30
0
41
1
10
27.4928233434434
20
-1.62684175289587
30
0
41
1
10
27.3740432985721
20
-1.74467200416228
30
0
0
SPLINE
5
123
100
AcDbEntity
8
1
62
256
6
ByLayer
370
18
48
1
60
0
100
AcDbSpline
70
4
71
3
72
18
73
14
40
0
40
0
40
0
40
0
40
0.249999999999999
40
0.249999999999999
40
0.374999999999999
40
0.374999999999999
40
0.499999999999998
40
0.499999999999998
40
0.75
40
0.75
40
0.875
40
0.875
40
1
40
1
40
1
40
1
41
1
10
36.1861384096169
20
-49.9995187679639
30
0
41
1
10
35.9600687870379
20
-49.9987752762875
30
0
41
1
10
35.7557880924188
20
-49.9970890229793
30
0
41
1
10
35.4807617327848
20
-49.9921193942502
30
0
41
1
10
35.394362610795
20
-49.9900543172992
30
0
41
1
10
35.2324333301622
20
-49.984900031366
30
0
41
1
10
35.1574024333914
20
-49.9818173771752
30
0
41
1
10
34.9536793461335
20
-49.9709988951815
30
0
41
1
10
34.844414727549
20
-49.9616498701674
30
0
41
1
10
34.72077548668
20
-49.9435848328879
30
0
41
1
10
34.6863331846962
20
-49.9368662584824
30
0
41
1
10
34.6324526837923
20
-49.9221959453001
30
0
41
1
10
34.6128078795842
20
-49.9142220764512
30
0
41
1
10
34.600518703703
20
-49.9055772749467
30
0
0
SPLINE
5
124
100
AcDbEntity
8
1
62
256
6
ByLayer
370
18
48
1
60
0
100
AcDbSpline
70
4
71
3
72
12
73
8
40
0
40
0
40
0
40
0
40
0.500000000000005
40
0.500000000000005
40
0.750000000000002
40
0.750000000000002
40
1
40
1
40
1
40
1
41
1
10
38.58529749607
20
-50.1466459496556
30
0
41
1
10
38.2466775577439
20
-50.1466459496556
30
0
41
1
10
37.9152651795772
20
-50.1471866895614
30
0
41
1
10
37.4286098426917
20
-50.1483185676327
30
0
41
1
10
37.2673155723763
20
-50.1487436326874
30
0
41
1
10
36.9533615352196
20
-50.1494840299882
30
0
41
1
10
36.8007400232797
20
-50.1497990451989
30
0
41
1
10
36.6525073622715
20
-50.1499328867454
30
0
0
SPLINE
5
125
100
AcDbEntity
8
SK1
62
256
6
ByLayer
370
18
48
1
60
0
100
AcDbSpline
70
4
71
3
72
24
73
20
40
0
40
0
40
0
40
0
40
0.25
40
0.25
40
0.5
40
0.5
40
0.625000000000002
40
0.625000000000002
40
0.750000000000003
40
0.750000000000003
40
0.812500000000002
40
0.812500000000002
40
0.875
40
0.875
40
0.906249999999999
40
0.906249999999999
40
0.937499999999997
40
0.937499999999997
40
1
40
1
40
1
40
1
41
1
10
-0.19999999999996
20
-6.83961978441502
30
0
41
1
10
-0.19999999999996
20
-6.77266365744987
30
0
41
1
10
-0.201382572616922
20
-6.70565659874697
30
0
41
1
10
-0.207977972208141
20
-6.57153390296779
30
0
41
1
10
-0.213104017709412
20
-6.50438623378955
30
0
41
1
10
-0.225863327175574
20
-6.40368599150975
30
0
41
1
10
-0.230960199961117
20
-6.37022262623046
30
0
41
1
10
-0.243909322930961
20
-6.30365027444694
30
0
41
1
10
-0.251695140322767
20
-6.27046679752883
30
0
41
1
10
-0.267365003958759
20
-6.22224043421213
30
0
41
1
10
-0.273258792574524
20
-6.20639762175682
30
0
41
1
10
-0.287575041851966
20
-6.17559244970451
30
0
41
1
10
-0.296025423984304
20
-6.16029740280646
30
0
41
1
10
-0.312745147160342
20
-6.14053723214866
30
0
41
1
10
-0.318964396069788
20
-6.13456921276233
30
0
41
1
10
-0.333306743992097
20
-6.12532418760179
30
0
41
1
10
-0.341564173961842
20
-6.12220353729683
30
0
41
1
10
-0.366640590815507
20
-6.12048722824937
30
0
41
1
10
-0.382359877230158
20
-6.12921276185216
30
0
41
1
10
-0.394976888875476
20
-6.14029722152827
30
0
0
SPLINE
5
126
100
AcDbEntity
8
SK1
62
256
6
ByLayer
370
18
48
1
60
0
100
AcDbSpline
70
4
71
3
72
26
73
22
40
0
40
0
40
0
40
0
40
0.0312500000000002
40
0.0312500000000002
40
0.0625000000000005
40
0.0625000000000005
40
0.0937500000000007
40
0.0937500000000007
40
0.125000000000001
40
0.125000000000001
40
0.187500000000001
40
0.187500000000001
40
0.250000000000001
40
0.250000000000001
40
0.375000000000002
40
0.375000000000002
40
0.500000000000003
40
0.500000000000003
40
0.750000000000001
40
0.750000000000001
40
1
40
1
40
1
40
1
41
1
10
-0.394976888875277
20
-6.14029722153333
30
0
41
1
10
-0.411386827853335
20
-6.15471389261225
30
0
41
1
10
-0.428762929070388
20
-6.16792682850337
30
0
41
1
10
-0.466312490804569
20
-6.19087886287883
30
0
41
1
10
-0.486486340955366
20
-6.20053205424261
30
0
41
1
10
-0.528636087579201
20
-6.21387385760761
30
0
41
1
10
-0.551333806654242
20
-6.21763094422391
30
0
41
1
10
-0.595996896779297
20
-6.21759710275111
30
0
41
1
10
-0.618501718611896
20
-6.21388050874924
30
0
41
1
10
-0.682666367362856
20
-6.19354801200382
30
0
41
1
10
-0.720497492514312
20
-6.16857769971645
30
0
41
1
10
-0.786209064871855
20
-6.11129360410715
30
0
41
1
10
-0.81507485217719
20
-6.07817489743726
30
0
41
1
10
-0.892438429618124
20
-5.97534441057218
30
0
41
1
10
-0.933322586559768
20
-5.90108526750922
30
0
41
1
10
-1.00643010561569
20
-5.7477442089712
30
0
41
1
10
-1.03799495343557
20
-5.6687517075986
30
0
41
1
10
-1.12311078163742
20
-5.43037042400047
30
0
41
1
10
-1.16788167463841
20
-5.26810674825339
30
0
41
1
10
-1.24572901926436
20
-4.9396173942236
30
0
41
1
10
-1.27842602392926
20
-4.77330384397376
30
0
41
1
10
-1.30710678118652
20
-4.60538003006582
30
0
0
SPLINE
5
127
100
AcDbEntity
8
SK1
62
256
6
ByLayer
370
18
48
1
60
0
100
AcDbSpline
70
4
71
3
72
24
73
20
40
0
40
0
40
0
40
0
40
0.25
40
0.25
40
0.312499999999999
40
0.312499999999999
40
0.374999999999999
40
0.374999999999999
40
0.499999999999999
40
0.499999999999999
40
0.624999999999999
40
0.624999999999999
40
0.749999999999999
40
0.749999999999999
40
0.812499999999999
40
0.812499999999999
40
0.874999999999999
40
0.874999999999999
40
1
40
1
40
1
40
1
41
1
10
-1.30710678118652
20
4.60538005832734
30
0
41
1
10
-1.4344509556567
20
3.85978933676717
30
0
41
1
10
-1.54387892248155
20
3.10383348780144
30
0
41
1
10
-1.64182277486114
20
2.14038734740558
30
0
41
1
10
-1.65943153712075
20
1.94675919611092
30
0
41
1
10
-1.69016128102567
20
1.55744142286926
30
0
41
1
10
-1.70329012775193
20
1.36146410626918
30
0
41
1
10
-1.73493134584365
20
0.775190730927392
30
0
41
1
10
-1.74573673637366
20
0.385182075791505
30
0
41
1
10
-1.74559091779466
20
-0.393092212237605
30
0
41
1
10
-1.73464574767846
20
-0.781358231864147
30
0
41
1
10
-1.69272967974092
20
-1.55625432464245
30
0
41
1
10
-1.66183533058268
20
-1.94288898079074
30
0
41
1
10
-1.60308307844798
20
-2.52176892060308
30
0
41
1
10
-1.58142702957943
20
-2.71455586541933
30
0
41
1
10
-1.53472161640744
20
-3.09756881527216
30
0
41
1
10
-1.5096411313821
20
-3.28809225111149
30
0
41
1
10
-1.42989928264944
20
-3.85698267981991
30
0
41
1
10
-1.37076249597743
20
-4.23268030289685
30
0
41
1
10
-1.30710678119235
20
-4.60538003003171
30
0
0
SPLINE
5
128
100
AcDbEntity
8
SK1
62
256
6
ByLayer
370
18
48
1
60
0
100
AcDbSpline
70
4
71
3
72
26
73
22
40
0
40
0
40
0
40
0
40
0.249999999999998
40
0.249999999999998
40
0.499999999999996
40
0.499999999999996
40
0.624999999999997
40
0.624999999999997
40
0.687499999999997
40
0.687499999999997
40
0.749999999999997
40
0.749999999999997
40
0.812499999999998
40
0.812499999999998
40
0.874999999999998
40
0.874999999999998
40
0.906249999999998
40
0.906249999999998
40
0.937499999999999
40
0.937499999999999
40
1
40
1
40
1
40
1
41
1
10
-1.30710678118652
20
4.60538005832731
30
0
41
1
10
-1.27841932930969
20
4.77334296698425
30
0
41
1
10
-1.24568573836763
20
4.93989365706818
30
0
41
1
10
-1.16755021864049
20
5.26941198485821
30
0
41
1
10
-1.12236330163589
20
5.43277058328297
30
0
41
1
10
-1.03736348465083
20
5.67036427900956
30
0
41
1
10
-1.00612384847764
20
5.74840054491565
30
0
41
1
10
-0.951664768597567
20
5.86260604873684
30
0
41
1
10
-0.932227264069724
20
5.90019356697593
30
0
41
1
10
-0.889529369037234
20
5.97397527026539
30
0
41
1
10
-0.866205195590823
20
6.01027560258413
30
0
41
1
10
-0.814627264862708
20
6.07870671929965
30
0
41
1
10
-0.786411999023954
20
6.1111217268699
30
0
41
1
10
-0.720237073541171
20
6.16880021462495
30
0
41
1
10
-0.682055653726962
20
6.1937767706556
30
0
41
1
10
-0.618548195707547
20
6.21384852858478
30
0
41
1
10
-0.595883870694593
20
6.21761323445148
30
0
41
1
10
-0.551151188429884
20
6.21761557504368
30
0
41
1
10
-0.528825837373574
20
6.21393440359404
30
0
41
1
10
-0.465027161701187
20
6.19373948168717
30
0
41
1
10
-0.427781370963942
20
6.16911732468003
30
0
41
1
10
-0.394976888875277
20
6.14029748393358
30
0
0
SPLINE
5
129
100
AcDbEntity
8
SK1
62
256
6
ByLayer
370
18
48
1
60
0
100
AcDbSpline
70
4
71
3
72
26
73
22
40
0
40
0
40
0
40
0
40
0.0312500000000004
40
0.0312500000000004
40
0.0625000000000007
40
0.0625000000000007
40
0.0937500000000011
40
0.0937500000000011
40
0.125000000000001
40
0.125000000000001
40
0.187500000000002
40
0.187500000000002
40
0.250000000000003
40
0.250000000000003
40
0.375000000000002
40
0.375000000000002
40
0.500000000000002
40
0.500000000000002
40
0.750000000000001
40
0.750000000000001
40
1
40
1
40
1
40
1
41
1
10
-0.394976888875277
20
6.14029748393355
30
0
41
1
10
-0.388671542343815
20
6.13475802495364
30
0
41
1
10
-0.38181168823624
20
6.12988869329268
30
0
41
1
10
-0.366640931323502
20
6.12297362066232
30
0
41
1
10
-0.358278007449996
20
6.12106156290503
30
0
41
1
10
-0.34158624418788
20
6.12220054473727
30
0
41
1
10
-0.333329946063969
20
6.12530915500173
30
0
41
1
10
-0.318937761824742
20
6.13458695676914
30
0
41
1
10
-0.31269144711527
20
6.1405942391097
30
0
41
1
10
-0.296015040763592
20
6.16032344698255
30
0
41
1
10
-0.287612080656288
20
6.17550182303998
30
0
41
1
10
-0.273149761403374
20
6.20664379931853
30
0
41
1
10
-0.267232047922107
20
6.22260462544975
30
0
41
1
10
-0.251522730309745
20
6.27109030505437
30
0
41
1
10
-0.243762688270124
20
6.30429135194927
30
0
41
1
10
-0.23081134795666
20
6.3711040042067
30
0
41
1
10
-0.225742010447959
20
6.40454205690904
30
0
41
1
10
-0.213066187746563
20
6.50489212673546
30
0
41
1
10
-0.207959301007548
20
6.57183900384277
30
0
41
1
10
-0.201382597553788
20
6.70573141098549
30
0
41
1
10
-0.200000000000046
20
6.77268016381564
30
0
41
1
10
-0.200000000000046
20
6.83961987074574
30
0
0
SPLINE
5
12A
100
AcDbEntity
8
1
62
256
6
ByLayer
370
18
48
1
60
0
100
AcDbSpline
70
4
71
3
72
15
73
11
40
0
40
0
40
0
40
0
40
0.165931346499828
40
0.165931346499828
40
0.582965673249914
40
0.582965673249914
40
0.791482836624957
40
0.895741418312479
40
0.895741418312479
40
1
40
1
40
1
40
1
41
1
10
95.6517590144714
20
-47.5706406962671
30
0
41
1
10
95.7318425490634
20
-47.6507242308591
30
0
41
1
10
95.8111290239123
20
-47.730010705708
30
0
41
1
10
96.0873418983297
20
-48.0062235801254
30
0
41
1
10
96.2807215319652
20
-48.1996032137608
30
0
41
1
10
96.5675093432814
20
-48.4863910250771
30
0
41
1
10
96.7099871293936
20
-48.6288688111892
30
0
41
1
10
96.8517777630741
20
-48.7706594448698
30
0
41
1
10
96.9462285075957
20
-48.8651101893914
30
0
41
1
10
96.9936812574408
20
-48.9125629392366
30
0
41
1
10
97.0405591591022
20
-48.9594408408978
30
0
0
SPLINE
5
12B
100
AcDbEntity
8
1
62
256
6
ByLayer
370
18
48
1
60
0
100
AcDbSpline
70
4
71
3
72
15
73
11
40
0
40
0
40
0
40
0
40
0.10985367634729
40
0.10985367634729
40
0.21970735269458
40
0.439414705389158
40
0.439414705389158
40
0.878829410778317
40
0.878829410778317
40
1
40
1
40
1
40
1
41
1
10
90.9594408408978
20
-55.0405591591021
30
0
41
1
10
90.9125629392376
20
-54.9936812574419
30
0
41
1
10
90.8651101893915
20
-54.9462285075957
30
0
41
1
10
90.7706594448698
20
-54.8517777630741
30
0
41
1
10
90.6288688111892
20
-54.7099871293935
30
0
41
1
10
90.4863910250771
20
-54.5675093432814
30
0
41
1
10
90.1996032137608
20
-54.2807215319651
30
0
41
1
10
90.0062235801254
20
-54.0873418983297
30
0
41
1
10
89.7541427313085
20
-53.8352610495127
30
0
41
1
10
89.6993349797694
20
-53.7804532979737
30
0
41
1
10
89.6441635380338
20
-53.7252818562381
30
0
0
SPLINE
5
12C
100
AcDbEntity
8
1
62
256
6
ByLayer
370
18
48
1
60
0
100
AcDbSpline
70
4
71
1
72
4
73
2
40
0
40
0
40
1
40
1
41
1
10
95.9611547824601
20
-48.3041896281055
30
0
41
1
10
95.5368808525539
20
-48.7284624328186
30
0
0
SPLINE
5
12D
100
AcDbEntity
8
1
62
256
6
ByLayer
370
18
48
1
60
0
100
AcDbSpline
70
4
71
3
72
25
73
21
40
0
40
0
40
0
40
0
40
0.0422365926431574
40
0.0837363968957681
40
0.124568360009294
40
0.166858632618783
40
0.208560146178659
40
0.249721206884473
40
0.273425840278866
40
0.299032595570145
40
0.326676698548404
40
0.356468060291585
40
0.388496913072041
40
0.422838279826145
40
0.459555439313185
40
0.498702586448849
40
0.609329624157414
40
0.729292686933999
40
0.859326806422576
40
1
40
1
40
1
40
1
41
1
10
91.3723493533589
20
-48.0429869751027
30
0
41
1
10
91.355813582383
20
-48.0453990627145
30
0
41
1
10
91.323030495615
20
-48.0501811607238
30
0
41
1
10
91.2740288095158
20
-48.0601770931129
30
0
41
1
10
91.224989164554
20
-48.0724100206069
30
0
41
1
10
91.1759885719867
20
-48.0869585641195
30
0
41
1
10
91.1270485745339
20
-48.1033032528634
30
0
41
1
10
91.0857612575585
20
-48.1196372019022
30
0
41
1
10
91.0507038077698
20
-48.1330431051497
30
0
41
1
10
91.0207682780304
20
-48.1422586648739
30
0
41
1
10
90.9885731576152
20
-48.1507568927575
30
0
41
1
10
90.9540625764764
20
-48.1584170119026
30
0
41
1
10
90.9172137646334
20
-48.1653437780379
30
0
41
1
10
90.8779921659882
20
-48.171583923322
30
0
41
1
10
90.836372349417
20
-48.1771768692102
30
0
41
1
10
90.7664167978161
20
-48.1852827148437
30
0
41
1
10
90.6667970187191
20
-48.19238662792
30
0
41
1
10
90.5371199888121
20
-48.1935342834933
30
0
41
1
10
90.3998818881177
20
-48.1880816787634
30
0
41
1
10
90.3074447200018
20
-48.1794854437939
30
0
41
1
10
90.2594096983512
20
-48.175018405899
30
0
0
SPLINE
5
12E
100
AcDbEntity
8
1
62
256
6
ByLayer
370
18
48
1
60
0
100
AcDbSpline
70
4
71
3
72
23
73
19
40
0
40
0
40
0
40
0
40
0.0939937780677243
40
0.183426963764844
40
0.268433584809216
40
0.349171520086719
40
0.425826993741724
40
0.498619717834052
40
0.629002256055454
40
0.746565658231405
40
0.789721335194609
40
0.831897186895369
40
0.87318393894122
40
0.889659496699546
40
0.910550341022856
40
0.935899648529594
40
0.965718433729556
40
1
40
1
40
1
40
1
41
1
10
90.175018405893
20
-48.2594096983576
30
0
41
1
10
90.178027793159
20
-48.2906130647453
30
0
41
1
10
90.1839005517644
20
-48.35150580545
30
0
41
1
10
90.1896704934335
20
-48.4422152768278
30
0
41
1
10
90.1927841406034
20
-48.529685214455
30
0
41
1
10
90.1929901695376
20
-48.614122616173
30
0
41
1
10
90.1902573777844
20
-48.6956218500056
30
0
41
1
10
90.1828389033484
20
-48.7963185817749
30
0
41
1
10
90.1669830111446
20
-48.9144440325228
30
0
41
1
10
90.1401247556031
20
-49.024499434034
30
0
41
1
10
90.115163506288
20
-49.1014550404254
30
0
41
1
10
90.0988827291122
20
-49.1495942838227
30
0
41
1
10
90.0841326042645
20
-49.1874761563522
30
0
41
1
10
90.0736836737898
20
-49.2174941782135
30
0
41
1
10
90.0672433960288
20
-49.24153449444
30
0
41
1
10
90.0604707810515
20
-49.2706595813779
30
0
41
1
10
90.053636867635
20
-49.3048847847842
30
0
41
1
10
90.0495507835822
20
-49.3293706654521
30
0
41
1
10
90.0473655013173
20
-49.3424659811805
30
0
0
SPLINE
5
12F
100
AcDbEntity
8
1
62
256
6
ByLayer
370
18
48
1
60
0
100
AcDbSpline
70
4
71
3
72
8
73
4
40
0
40
0
40
0
40
0
40
1
40
1
40
1
40
1
41
1
10
91.5079734444739
20
-54.7849625974364
30
0
41
1
10
91.5878144481866
20
-54.6021105350057
30
0
41
1
10
91.6678016120135
20
-54.4193211626525
30
0
41
1
10
91.747934835887
20
-54.2365946420683
30
0
0
SPLINE
5
130
100
AcDbEntity
8
1
62
256
6
ByLayer
370
18
48
1
60
0
100
AcDbSpline
70
4
71
2
72
11
73
8
40
0
40
0
40
0
40
0.25
40
0.25
40
0.5
40
0.75
40
0.75
40
1
40
1
40
1
41
1
10
91.7479318173941
20
-54.236601670174
30
0
41
1
10
92.7275118269477
20
-54.6570109700848
30
0
41
1
10
93.7560612651293
20
-54.4633547541019
30
0
41
1
10
94.7918260474953
20
-54.2683400266076
30
0
41
1
10
96.2674267234893
20
-52.793566615496
30
0
41
1
10
96.4633547626767
20
-51.7560612196507
30
0
41
1
10
96.6574141164109
20
-50.7284511468478
30
0
41
1
10
96.2366016517641
20
-49.7479317745312
30
0
0
SPLINE
5
131
100
AcDbEntity
8
1
62
256
6
ByLayer
370
18
48
1
60
0
100
AcDbSpline
70
4
71
3
72
24
73
20
40
0
40
0
40
0
40
0
40
0.250000000000002
40
0.250000000000002
40
0.375000000000002
40
0.375000000000002
40
0.500000000000003
40
0.500000000000003
40
0.625000000000003
40
0.625000000000003
40
0.687500000000003
40
0.687500000000003
40
0.750000000000003
40
0.750000000000003
40
0.875000000000002
40
0.875000000000002
40
0.937500000000001
40
0.937500000000001
40
1
40
1
40
1
40
1
41
1
10
97.5177974931266
20
-50.2405360896216
30
0
41
1
10
97.6736069402861
20
-50.6024103290888
30
0
41
1
10
97.7730297982787
20
-50.9888702207445
30
0
41
1
10
97.8317991460984
20
-51.580124768799
30
0
41
1
10
97.8363840877743
20
-51.7780474825779
30
0
41
1
10
97.8156573811857
20
-52.1748737038156
30
0
41
1
10
97.790477459013
20
-52.3715813816927
30
0
41
1
10
97.710714423676
20
-52.7616123395445
30
0
41
1
10
97.6564730574477
20
-52.9530766106098
30
0
41
1
10
97.5540561321312
20
-53.2339042433437
30
0
41
1
10
97.5164005392793
20
-53.326378661849
30
0
41
1
10
97.4349904999465
20
-53.5071546984552
30
0
41
1
10
97.3911399316991
20
-53.5957325823852
30
0
41
1
10
97.2503183784599
20
-53.8561318160391
30
0
41
1
10
97.1441283175196
20
-54.0226479651493
30
0
41
1
10
96.9661163403537
20
-54.2616456330775
30
0
41
1
10
96.903440715704
20
-54.3397342192992
30
0
41
1
10
96.7728128369353
20
-54.4908436467737
30
0
41
1
10
96.7048934408171
20
-54.5638703301371
30
0
41
1
10
96.6343818854774
20
-54.6343818854767
30
0
0
SPLINE
5
132
100
AcDbEntity
8
1
62
256
6
ByLayer
370
18
48
1
60
0
100
AcDbSpline
70
4
71
3
72
8
73
4
40
0
40
0
40
0
40
0
40
1
40
1
40
1
40
1
41
1
10
95.9610990202781
20
-48.3042447707857
30
0
41
1
10
96.306870231483
20
-48.6500159749102
30
0
41
1
10
96.58783552461
20
-49.0603811540955
30
0
41
1
10
96.7852018587552
20
-49.5079404549826
30
0
0
SPLINE
5
133
100
AcDbEntity
8
1
62
256
6
ByLayer
370
18
48
1
60
0
100
AcDbSpline
70
4
71
1
72
4
73
2
40
0
40
0
40
1
40
1
41
1
10
90.3872416096829
20
-53.1955677217514
30
0
41
1
10
89.9372996206016
20
-53.5991676453598
30
0
0
SPLINE
5
134
100
AcDbEntity
8
1
62
256
6
ByLayer
370
18
48
1
60
0
100
AcDbSpline
70
4
71
3
72
8
73
4
40
0
40
0
40
0
40
0
40
1
40
1
40
1
40
1
41
1
10
96.7853414654913
20
-49.5077966464715
30
0
41
1
10
96.6024878617596
20
-49.587983573852
30
0
41
1
10
96.4195745342511
20
-49.6680286407535
30
0
41
1
10
96.2366016517641
20
-49.7479317745312
30
0
0
SPLINE
5
135
100
AcDbEntity
8
1
62
256
6
ByLayer
370
18
48
1
60
0
100
AcDbSpline
70
4
71
2
72
6
73
3
40
0
40
0
40
0
40
1
40
1
40
1
41
1
10
90.7285485722043
20
-53.5367952595927
30
0
41
1
10
91.1727057186054
20
-53.980270088339
30
0
41
1
10
91.7479348358871
20
-54.2365946420683
30
0
0
SPLINE
5
136
100
AcDbEntity
8
1
62
256
6
ByLayer
370
18
48
1
60
0
100
AcDbSpline
70
4
71
3
72
65
73
61
40
0
40
0
40
0
40
0
40
0.0215278305301518
40
0.0429045527862456
40
0.0641301931771433
40
0.085204778684012
40
0.106128336876712
40
0.126900895930781
40
0.14752248464503
40
0.167993132459781
40
0.188312869475765
40
0.208481726473728
40
0.228499734934762
40
0.248366927061398
40
0.26808333579948
40
0.287648994860897
40
0.307063938747166
40
0.32632820277392
40
0.345441823096362
40
0.364404836735704
40
0.383217281606648
40
0.401879196545966
40
0.420390621342208
40
0.438751596766625
40
0.456962164605339
40
0.475022367692824
40
0.492932249946782
40
0.510691856404457
40
0.528301233260479
40
0.545760427906294
40
0.563069488971296
40
0.580228466365695
40
0.597237411325263
40
0.61409637645802
40
0.63080541579298
40
0.647364584831052
40
0.663773940598222
40
0.680033541701133
40
0.696143448385188
40
0.712103722595328
40
0.727914428039605
40
0.743575630255742
40
0.759087396680806
40
0.774449796724199
40
0.789662901844151
40
0.804726785627892
40
0.819641523875747
40
0.834407194689374
40
0.849023878564355
40
0.863491658487459
40
0.877810620038799
40
0.891980851499219
40
0.906002443963192
40
0.919875491457613
40
0.933600091066803
40
0.947176343064151
40
0.960604351050796
40
0.973884222101794
40
0.987016066920259
40
1
40
1
40
1
40
1
41
1
10
89.9406172616002
20
-53.5974771424999
30
0
41
1
10
89.9193765244817
20
-53.570858133976
30
0
41
1
10
89.8770441433512
20
-53.5178069612287
30
0
41
1
10
89.8162897760273
20
-53.4365523118861
30
0
41
1
10
89.7578296932192
20
-53.3545215488584
30
0
41
1
10
89.7018340833809
20
-53.2716504713399
30
0
41
1
10
89.6482464366319
20
-53.1880548967058
30
0
41
1
10
89.5970674581519
20
-53.1038010834748
30
0
41
1
10
89.5482799170158
20
-53.0189665304224
30
0
41
1
10
89.5018686801934
20
-52.9336238042023
30
0
41
1
10
89.4578155150731
20
-52.8478447750583
30
0
41
1
10
89.4161005790202
20
-52.7616994482173
30
0
41
1
10
89.3767021358589
20
-52.6752562323736
30
0
41
1
10
89.3395967412901
20
-52.5885818319654
30
0
41
1
10
89.3047593029512
20
-52.5017412436453
30
0
41
1
10
89.2721631724645
20
-52.4147977295068
30
0
41
1
10
89.241780227655
20
-52.327812800694
30
0
41
1
10
89.2135809558992
20
-52.2408462023433
30
0
41
1
10
89.1875345355921
20
-52.1539559021143
30
0
41
1
10
89.1636089164279
20
-52.0671980815678
30
0
41
1
10
89.1417708982158
20
-51.9806271304458
30
0
41
1
10
89.1219862082195
20
-51.8942956436952
30
0
41
1
10
89.1042195769432
20
-51.8082544211351
30
0
41
1
10
89.088434812313
20
-51.7225524696515
30
0
41
1
10
89.0745948722032
20
-51.6372370078094
30
0
41
1
10
89.0626619352623
20
-51.5523534727707
30
0
41
1
10
89.052597469999
20
-51.4679455294095
30
0
41
1
10
89.0443623020939
20
-51.3840550815146
30
0
41
1
10
89.0379166799069
20
-51.3007222849747
30
0
41
1
10
89.0332203381554
20
-51.2179855628379
30
0
41
1
10
89.0302325597414
20
-51.1358816221444
30
0
41
1
10
89.0289122357129
20
-51.0544454724287
30
0
41
1
10
89.0292179233441
20
-50.9737104457913
30
0
41
1
10
89.0311079023295
20
-50.8937082184431
30
0
41
1
10
89.0345402290837
20
-50.8144688336239
30
0
41
1
10
89.0394727891466
20
-50.7360207258042
30
0
41
1
10
89.0458633476976
20
-50.6583907460758
30
0
41
1
10
89.0536695981811
20
-50.5816041886437
30
0
41
1
10
89.0628492090531
20
-50.5056848183316
30
0
41
1
10
89.0733598686606
20
-50.4306548990162
30
0
41
1
10
89.0851593282654
20
-50.3565352229085
30
0
41
1
10
89.0982054432304
20
-50.283345140603
30
0
41
1
10
89.1124562123857
20
-50.2111025918155
30
0
41
1
10
89.1278698155967
20
-50.1398241367385
30
0
41
1
10
89.1444046495538
20
-50.069524987937
30
0
41
1
10
89.1620193618187
20
-50.0002190427237
30
0
41
1
10
89.1806728831183
20
-49.9319189159253
30
0
41
1
10
89.2003244580416
20
-49.8646359730452
30
0
41
1
10
89.2209336737058
20
-49.7983803635116
30
0
41
1
10
89.2424604881234
20
-49.7331610548611
30
0
41
1
10
89.2648652520508
20
-49.6689858644616
30
0
41
1
10
89.2881087473295
20
-49.6058615009918
30
0
41
1
10
89.3121521573261
20
-49.5437935705334
30
0
41
1
10
89.3369572796668
20
-49.4827867128836
30
0
41
1
10
89.3624858420618
20
-49.4228442595635
30
0
41
1
10
89.3887021050945
20
-49.3639696481066
30
0
41
1
10
89.4155633894695
20
-49.306161387291
30
0
41
1
10
89.4430549277375
20
-49.2494316970999
30
0
41
1
10
89.4710620163698
20
-49.1937382495712
30
0
41
1
10
89.4903560549219
20
-49.1571957731261
30
0
41
1
10
89.4999484364461
20
-49.1390280175808
30
0
0
SPLINE
5
137
100
AcDbEntity
8
1
62
256
6
ByLayer
370
18
48
1
60
0
100
AcDbSpline
70
4
71
3
72
8
73
4
40
0
40
0
40
0
40
0
40
1
40
1
40
1
40
1
41
1
10
91.5079404549824
20
-54.7852018587551
30
0
41
1
10
91.0603811685478
20
-54.5878355321412
30
0
41
1
10
90.6500160017236
20
-54.306870251216
30
0
41
1
10
90.3042448056956
20
-53.9610990551879
30
0
0
SPLINE
5
138
100
AcDbEntity
8
1
62
256
6
ByLayer
370
18
48
1
60
0
100
AcDbSpline
70
4
71
3
72
42
73
38
40
0
40
0
40
0
40
0
40
0.0215970545199938
40
0.0436004916453789
40
0.0660108147540574
40
0.0888285002079462
40
0.112053999216359
40
0.135687739543744
40
0.159730127076879
40
0.184181547264974
40
0.209042366444676
40
0.234312933060683
40
0.259993578791566
40
0.286084619589372
40
0.312586356640716
40
0.339499077256298
40
0.366823055695065
40
0.394558553928623
40
0.422705822350993
40
0.451265100438262
40
0.480236617362283
40
0.509620592562173
40
0.539417236277009
40
0.569626750042816
40
0.600249327156654
40
0.631285153110361
40
0.662734405996279
40
0.694597256887094
40
0.726873870191732
40
0.759564403989085
40
0.792669010341175
40
0.826187835587286
40
0.860121020620378
40
0.894468701147074
40
0.929231007932362
40
0.964408067030052
40
1
40
1
40
1
40
1
41
1
10
91.1390280175808
20
-47.4999484364461
30
0
41
1
10
91.1692954466417
20
-47.4840832210969
30
0
41
1
10
91.2303998341255
20
-47.4520542613774
30
0
41
1
10
91.3244759599791
20
-47.4066423932415
30
0
41
1
10
91.4213959989004
20
-47.3627723991688
30
0
41
1
10
91.5212724120263
20
-47.3208327047043
30
0
41
1
10
91.6240594909538
20
-47.2809328520436
30
0
41
1
10
91.7297455720276
20
-47.2432639418416
30
0
41
1
10
91.8382995787389
20
-47.2079990974056
30
0
41
1
10
91.9496851913158
20
-47.1753205124013
30
0
41
1
10
92.0638564093196
20
-47.1454116282338
30
0
41
1
10
92.1807582351093
20
-47.1184588603659
30
0
41
1
10
92.3003259551896
20
-47.0946506563477
30
0
41
1
10
92.4224848152091
20
-47.0741772426839
30
0
41
1
10
92.5471495979682
20
-47.0572301368145
30
0
41
1
10
92.6742242421934
20
-47.0440016768186
30
0
41
1
10
92.8036014674319
20
-47.0346844985028
30
0
41
1
10
92.9351624179327
20
-47.0294709783569
30
0
41
1
10
93.0687763255251
20
-47.0285526366562
30
0
41
1
10
93.2043001952079
20
-47.0321195018229
30
0
41
1
10
93.3415785163197
20
-47.0403594354985
30
0
41
1
10
93.4804430025645
20
-47.0534574184587
30
0
41
1
10
93.6207123641816
20
-47.0715947976084
30
0
41
1
10
93.7621921158176
20
-47.0949484943858
30
0
41
1
10
93.9046744232402
20
-47.1236901757681
30
0
41
1
10
94.0479379940981
20
-47.1579853868942
30
0
41
1
10
94.1917480105131
20
-47.1979926538557
30
0
41
1
10
94.3358561298897
20
-47.2438625302144
30
0
41
1
10
94.4800004717788
20
-47.2957366953986
30
0
41
1
10
94.6239059219168
20
-47.3537467024146
30
0
41
1
10
94.7672835123422
20
-47.4180139168885
30
0
41
1
10
94.9098336166117
20
-47.4886447946729
30
0
41
1
10
95.0512349583266
20
-47.5657437672501
30
0
41
1
10
95.1911878884687
20
-47.6493590898784
30
0
41
1
10
95.3292517600887
20
-47.7396833935239
30
0
41
1
10
95.465465080262
20
-47.8362863304871
30
0
41
1
10
95.5533014786578
20
-47.9057046326854
30
0
41
1
10
95.5974771424999
20
-47.9406172616002
30
0
0
SPLINE
5
139
100
AcDbEntity
8
1
62
256
6
ByLayer
370
18
48
1
60
0
100
AcDbSpline
70
4
71
1
72
4
73
2
40
0
40
0
40
1
40
1
41
1
10
95.5991676453598
20
-47.9372996206016
30
0
41
1
10
95.1955677217514
20
-48.3872416096829
30
0
0
SPLINE
5
13A
100
AcDbEntity
8
1
62
256
6
ByLayer
370
18
48
1
60
0
100
AcDbSpline
70
4
71
2
72
7
73
4
40
0
40
0
40
0
40
0.5
40
1
40
1
40
1
41
1
10
90.0429869751032
20
-49.3723493533582
30
0
41
1
10
89.5459375380624
20
-50.2571699711153
30
0
41
1
10
89.736693154932
20
-52.3971622683604
30
0
41
1
10
90.3849207965031
20
-53.1974483995826
30
0
0
SPLINE
5
13B
100
AcDbEntity
8
1
62
256
6
ByLayer
370
18
48
1
60
0
100
AcDbSpline
70
4
71
2
72
7
73
4
40
0
40
0
40
0
40
0.5
40
1
40
1
40
1
41
1
10
95.1974483995827
20
-48.3849207965031
30
0
41
1
10
94.3977287172833
20
-47.737151975641
30
0
41
1
10
92.257796856726
20
-47.5455853840413
30
0
41
1
10
91.3723493533591
20
-48.0429869751027
30
0
0
SPLINE
5
13C
100
AcDbEntity
8
1
62
256
6
ByLayer
370
18
48
1
60
0
100
AcDbSpline
70
4
71
3
72
94
73
90
40
0
40
0
40
0
40
0
40
0.0098417319821127
40
0.0196398962521028
40
0.0293945247742854
40
0.0391056499432568
40
0.048773304591313
40
0.058397521996025
40
0.0679783358879666
40
0.077515780458606
40
0.0870098903683589
40
0.0964607007548088
40
0.105868247241101
40
0.115232565944514
40
0.124553693485202
40
0.133831666995134
40
0.14306652412721
40
0.152258303064579
40
0.161407042530147
40
0.170512781796296
40
0.179575560694798
40
0.188595419626953
40
0.197572399573935
40
0.206506542107368
40
0.215397889400123
40
0.224246484237348
40
0.233052370027746
40
0.241815590815081
40
0.250536191289952
40
0.259214216801808
40
0.267849713371235
40
0.276442727702508
40
0.284993307196418
40
0.29350149996338
40
0.301967354836834
40
0.310390921386935
40
0.31877224993455
40
0.327111391565565
40
0.335408398145504
40
0.343663322334481
40
0.351876217602482
40
0.36004713824498
40
0.368176139398915
40
0.376263277059015
40
0.384308608094494
40
0.392312190266124
40
0.400274082243682
40
0.408194343623803
40
0.416073034948224
40
0.423910217722454
40
0.431705954434846
40
0.439460308576122
40
0.447173344659328
40
0.454845128240245
40
0.462475725938267
40
0.470065205457743
40
0.477613635609824
40
0.485121086334786
40
0.492587628724877
40
0.500013335047681
40
0.514900717982589
40
0.529952015255172
40
0.545167791314651
40
0.560548592477585
40
0.576094947638631
40
0.591807368949952
40
0.60768635247069
40
0.623732378787904
40
0.639945913610261
40
0.656327408335771
40
0.672877300594746
40
0.689596014769159
40
0.706483962489486
40
0.723541543110089
40
0.740769144164143
40
0.758167141799057
40
0.775735901193304
40
0.793475776955525
40
0.811387113506733
40
0.829470245446404
40
0.847725497903201
40
0.866153186871053
40
0.884753619531247
40
0.903527094561204
40
0.922473902430532
40
0.941594325684947
40
0.960888639218625
40
0.980357110535495
40
1
40
1
40
1
40
1
41
1
10
96.7850924126168
20
-49.5078309768999
30
0
41
1
10
96.7973416284676
20
-49.5368202858901
30
0
41
1
10
96.8217858349263
20
-49.5946705730166
30
0
41
1
10
96.8558251072355
20
-49.6822940575528
30
0
41
1
10
96.8878429909927
20
-49.7702248472248
30
0
41
1
10
96.9176678340464
20
-49.8584854718422
30
0
41
1
10
96.9453582544647
20
-49.9470008338824
30
0
41
1
10
96.9709132475845
20
-50.0357228932326
30
0
41
1
10
96.9943492919276
20
-50.1245975138036
30
0
41
1
10
97.0156797751919
20
-50.2135733180917
30
0
41
1
10
97.0349204178144
20
-50.3025993593166
30
0
41
1
10
97.0520877773803
20
-50.3916257677897
30
0
41
1
10
97.0671995945068
20
-50.4806036038405
30
0
41
1
10
97.0802746487333
20
-50.5694849200497
30
0
41
1
10
97.0913327449464
20
-50.6582227659572
30
0
41
1
10
97.1003946652532
20
-50.7467712062899
30
0
41
1
10
97.1074821302874
20
-50.835085333836
30
0
41
1
10
97.1126177582895
20
-50.9231212820246
30
0
41
1
10
97.1158250251119
20
-51.0108362358991
30
0
41
1
10
97.1171282243534
20
-51.0981884418709
30
0
41
1
10
97.1165524278772
20
-51.1851372161873
30
0
41
1
10
97.1141234466862
20
-51.271642952171
30
0
41
1
10
97.1098677921998
20
-51.3576671262521
30
0
41
1
10
97.1038126379583
20
-51.4431723028286
30
0
41
1
10
97.0959857817813
20
-51.5281221379836
30
0
41
1
10
97.0864156084074
20
-51.6124813820934
30
0
41
1
10
97.0751310526385
20
-51.6962158813562
30
0
41
1
10
97.0621615630106
20
-51.7792925782748
30
0
41
1
10
97.0475370660155
20
-51.861679511125
30
0
41
1
10
97.0312879308896
20
-51.9433458124421
30
0
41
1
10
97.013444934992
20
-52.0242617065578
30
0
41
1
10
96.9940392297867
20
-52.1043985062192
30
0
41
1
10
96.9731023074472
20
-52.1837286083239
30
0
41
1
10
96.9506659680964
20
-52.2622254888004
30
0
41
1
10
96.9267622876971
20
-52.3398636966692
30
0
41
1
10
96.9014235866039
20
-52.416618847314
30
0
41
1
10
96.8746823987896
20
-52.4924676149956
30
0
41
1
10
96.8465714417545
20
-52.5673877246407
30
0
41
1
10
96.8171235871285
20
-52.6413579429347
30
0
41
1
10
96.7863718319737
20
-52.7143580687521
30
0
41
1
10
96.7543492707939
20
-52.7863689229528
30
0
41
1
10
96.7210890682582
20
-52.8573723375764
30
0
41
1
10
96.6866244326405
20
-52.9273511444625
30
0
41
1
10
96.6509885899831
20
-52.996289163329
30
0
41
1
10
96.6142147589833
20
-53.0641711893343
30
0
41
1
10
96.5763361266063
20
-53.1309829801555
30
0
41
1
10
96.5373858244276
20
-53.1967112426081
30
0
41
1
10
96.4973969057015
20
-53.2613436188362
30
0
41
1
10
96.4564023231574
20
-53.3248686721013
30
0
41
1
10
96.414434907525
20
-53.3872758721919
30
0
41
1
10
96.3715273467712
20
-53.4485555804958
30
0
41
1
10
96.3277121661061
20
-53.5086990347044
30
0
41
1
10
96.2830217085268
20
-53.5676983333821
30
0
41
1
10
96.2374881167442
20
-53.6255464196568
30
0
41
1
10
96.1911433133382
20
-53.6822370669009
30
0
41
1
10
96.1440189907997
20
-53.737764855891
30
0
41
1
10
96.0961465682761
20
-53.7921251824724
30
0
41
1
10
96.0475572748458
20
-53.8453141513673
30
0
41
1
10
95.9982817676626
20
-53.8973288906167
30
0
41
1
10
95.9315361161688
20
-53.9652871657094
30
0
41
1
10
95.8454995349443
20
-54.0482749083112
30
0
41
1
10
95.737961704233
20
-54.1447293208148
30
0
41
1
10
95.625752330657
20
-54.238195441295
30
0
41
1
10
95.5089121242313
20
-54.328419736382
30
0
41
1
10
95.3874937220913
20
-54.4151460162505
30
0
41
1
10
95.2615635817617
20
-54.498114550823
30
0
41
1
10
95.1312021111557
20
-54.577063069924
30
0
41
1
10
94.9965042553319
20
-54.6517273088447
30
0
41
1
10
94.857579931363
20
-54.7218417366896
30
0
41
1
10
94.714554472741
20
-54.7871402942983
30
0
41
1
10
94.5675690349189
20
-54.8473571889814
30
0
41
1
10
94.4167809705507
20
-54.9022277330241
30
0
41
1
10
94.2623641673427
20
-54.9514892290296
30
0
41
1
10
94.1045093455556
20
-54.9948819004899
30
0
41
1
10
93.9434243109797
20
-55.0321498668522
30
0
41
1
10
93.7793341593389
20
-55.0630421620021
30
0
41
1
10
93.6124814283625
20
-55.0873137938756
30
0
41
1
10
93.4431261921082
20
-55.1047268463933
30
0
41
1
10
93.2715460983086
20
-55.1150516101242
30
0
41
1
10
93.0980363259557
20
-55.1180677825405
30
0
41
1
10
92.9229095295703
20
-55.1135655709171
30
0
41
1
10
92.746495498901
20
-55.1013473159251
30
0
41
1
10
92.5691415413391
20
-55.0812272808185
30
0
41
1
10
92.3912097556141
20
-55.0530385022262
30
0
41
1
10
92.2130856777115
20
-55.0166130175019
30
0
41
1
10
92.0351434856719
20
-54.971862910505
30
0
41
1
10
91.8578751364037
20
-54.9184799670404
30
0
41
1
10
91.6813988873627
20
-54.857078199964
30
0
41
1
10
91.5658586985633
20
-54.8091589075165
30
0
41
1
10
91.5078309769
20
-54.7850924126168
30
0
0
SPLINE
5
13D
100
AcDbEntity
8
1
62
256
6
ByLayer
370
18
48
1
60
0
100
AcDbSpline
70
4
71
1
72
4
73
2
40
0
40
0
40
1
40
1
41
1
10
90.3042448156531
20
-53.9610990651455
30
0
41
1
10
90.728508884365
20
-53.5368349964336
30
0
0
SPLINE
5
13E
100
AcDbEntity
8
1
62
256
6
ByLayer
370
18
48
1
60
0
100
AcDbSpline
70
4
71
3
72
16
73
12
40
0
40
0
40
0
40
0
40
0.0837887201403857
40
0.167362222467984
40
0.250748697395535
40
0.333976535551096
40
0.417074301001143
40
0.500070703626943
40
0.666903192639056
40
0.833527722847095
40
1
40
1
40
1
40
1
41
1
10
90.2594096983512
20
-48.175018405899
30
0
41
1
10
90.2821071237686
20
-48.1543209679231
30
0
41
1
10
90.3274436745093
20
-48.1129792549426
30
0
41
1
10
90.3967109899872
20
-48.052064853855
30
0
41
1
10
90.4667703001042
20
-47.9920801063003
30
0
41
1
10
90.5377090398946
20
-47.9331021270663
30
0
41
1
10
90.6094967531549
20
-47.8751341140435
30
0
41
1
10
90.7065817895723
20
-47.7989409183665
30
0
41
1
10
90.83041459021
20
-47.7064305409408
30
0
41
1
10
90.9824655892765
20
-47.5998030881008
30
0
41
1
10
91.0866411644065
20
-47.5328934211127
30
0
41
1
10
91.1387051435032
20
-47.4994538792712
30
0
0
SPLINE
5
13F
100
AcDbEntity
8
1
62
256
6
ByLayer
370
18
48
1
60
0
100
AcDbSpline
70
4
71
3
72
20
73
16
40
0
40
0
40
0
40
0
40
0.125
40
0.125
40
0.250000000000001
40
0.250000000000001
40
0.5
40
0.5
40
0.625
40
0.625
40
0.75
40
0.75
40
0.875
40
0.875
40
1
40
1
40
1
40
1
41
1
10
96.6343818854774
20
-54.6343818854767
30
0
41
1
10
96.4936006392712
20
-54.775163131683
30
0
41
1
10
96.3420506971597
20
-54.906191847386
30
0
41
1
10
96.0228813170368
20
-55.1439910090254
30
0
41
1
10
95.8541011297183
20
-55.2516308085448
30
0
41
1
10
95.3290555886551
20
-55.5349215412239
30
0
41
1
10
94.9512165424868
20
-55.6723864431265
30
0
41
1
10
94.3677520570086
20
-55.7910333432521
30
0
41
1
10
94.171108980222
20
-55.8160203787365
30
0
41
1
10
93.7751357241082
20
-55.8363669819539
30
0
41
1
10
93.5777135640866
20
-55.8316704989998
30
0
41
1
10
93.184006694875
20
-55.7923136595699
30
0
41
1
10
92.9897940398988
20
-55.7578298791306
30
0
41
1
10
92.6078633013762
20
-55.6593602492463
30
0
41
1
10
92.4212033788704
20
-55.5955860378405
30
0
41
1
10
92.2405360896236
20
-55.5177974931274
30
0
0
SPLINE
5
140
100
AcDbEntity
8
1
62
256
6
ByLayer
370
18
48
1
60
0
100
AcDbSpline
70
4
71
3
72
17
73
13
40
0
40
0
40
0
40
0
40
0.0999918438521409
40
0.199976429428275
40
0.299954377576319
40
0.399926308256111
40
0.499892840621715
40
0.579095779561042
40
0.668606390402737
40
0.768536573173545
40
0.87897578347115
40
1
40
1
40
1
40
1
41
1
10
89.4994538792712
20
-49.1387051435033
30
0
41
1
10
89.519226673142
20
-49.1072888743888
30
0
41
1
10
89.5587708256025
20
-49.0444586166255
30
0
41
1
10
89.6206827756609
20
-48.9518448626247
30
0
41
1
10
89.6844668557843
20
-48.8604943373336
30
0
41
1
10
89.7502334831528
20
-48.7705423820998
30
0
41
1
10
89.8133826774995
20
-48.6882129379514
30
0
41
1
10
89.8752870807422
20
-48.6099496043892
30
0
41
1
10
89.93775480344
20
-48.5325623727433
30
0
41
1
10
90.0085959565778
20
-48.4475282316187
30
0
41
1
10
90.088152961059
20
-48.3550980118959
30
0
41
1
10
90.1451937507523
20
-48.2922636249992
30
0
41
1
10
90.1750184058931
20
-48.2594096983573
30
0
0
SPLINE
5
141
100
AcDbEntity
8
1
62
256
6
ByLayer
370
18
48
1
60
0
100
AcDbSpline
70
4
71
2
72
6
73
3
40
0
40
0
40
0
40
1
40
1
40
1
41
1
10
96.2366003681457
20
-49.7479323428424
30
0
41
1
10
95.9819459399558
20
-49.1730017730493
30
0
41
1
10
95.5368811158201
20
-48.7284626956899
30
0
0
SPLINE
5
142
100
AcDbEntity
8
1
62
256
6
ByLayer
370
18
48
1
60
0
100
AcDbSpline
70
4
71
3
72
10
73
6
40
0
40
0
40
0
40
0
40
0.5
40
0.5
40
1
40
1
40
1
40
1
41
1
10
77.7235519475767
20
-32.1537233627565
30
0
41
1
10
77.6140132450062
20
-32.0441846601859
30
0
41
1
10
77.503266991401
20
-31.9334384065808
30
0
41
1
10
77.2785253514587
20
-31.7086967666385
30
0
41
1
10
77.165584213185
20
-31.5957556283648
30
0
41
1
10
77.0527442370428
20
-31.4829156522226
30
0
0
SPLINE
5
143
100
AcDbEntity
8
1
62
256
6
ByLayer
370
18
48
1
60
0
100
AcDbSpline
70
4
71
3
72
8
73
4
40
0
40
0
40
0
40
0
40
1
40
1
40
1
40
1
41
1
10
73.7634157872002
20
-30.6015427504465
30
0
41
1
10
73.4498180633679
20
-30.6855710072956
30
0
41
1
10
73.1456647027215
20
-30.767068654656
30
0
41
1
10
72.8470754135564
20
-30.8470754135564
30
0
0
SPLINE
5
144
100
AcDbEntity
8
1
62
256
6
ByLayer
370
18
48
1
60
0
100
AcDbSpline
70
4
71
3
72
10
73
6
40
0
40
0
40
0
40
0
40
0.5
40
0.5
40
1
40
1
40
1
40
1
41
1
10
74.1537233627564
20
-35.7235519475768
30
0
41
1
10
74.3040246791582
20
-35.6832788312256
30
0
41
1
10
74.4566841948412
20
-35.6423738372814
30
0
41
1
10
74.7626040486328
20
-35.5604028595093
30
0
41
1
10
74.9160466586568
20
-35.5192880360689
30
0
41
1
10
75.0700637364003
20
-35.4780192844669
30
0
0
SPLINE
5
145
100
AcDbEntity
8
1
62
256
6
ByLayer
370
18
48
1
60
0
100
AcDbSpline
70
4
71
3
72
8
73
4
40
0
40
0
40
0
40
0
40
1
40
1
40
1
40
1
41
1
10
76.0528180287261
20
-35.2146910654799
30
0
41
1
10
76.3664157525585
20
-35.1306628086308
30
0
41
1
10
76.6705691132048
20
-35.0491651612704
30
0
41
1
10
76.96915840237
20
-34.96915840237
30
0
0
SPLINE
5
146
100
AcDbEntity
8
1
62
256
6
ByLayer
370
18
48
1
60
0
100
AcDbSpline
70
4
71
3
72
10
73
6
40
0
40
0
40
0
40
0
40
0.5
40
0.5
40
1
40
1
40
1
40
1
41
1
10
74.1537233627564
20
-35.7235519475768
30
0
41
1
10
74.0441846601859
20
-35.6140132450062
30
0
41
1
10
73.9334384065807
20
-35.503266991401
30
0
41
1
10
73.7086967666384
20
-35.2785253514587
30
0
41
1
10
73.5957556283647
20
-35.165584213185
30
0
41
1
10
73.4829156522225
20
-35.0527442370429
30
0
0
SPLINE
5
147
100
AcDbEntity
8
1
62
256
6
ByLayer
370
18
48
1
60
0
100
AcDbSpline
70
4
71
3
72
10
73
6
40
0
40
0
40
0
40
0
40
0.5
40
0.5
40
1
40
1
40
1
40
1
41
1
10
75.6625104531699
20
-30.0926818683497
30
0
41
1
10
75.5122091367682
20
-30.1329549847008
30
0
41
1
10
75.3595496210852
20
-30.173859978645
30
0
41
1
10
75.0536297672936
20
-30.2558309564171
30
0
41
1
10
74.9001871572696
20
-30.2969457798576
30
0
41
1
10
74.7461700795261
20
-30.3382145314596
30
0
0
SPLINE
5
148
100
AcDbEntity
8
1
62
256
6
ByLayer
370
18
48
1
60
0
100
AcDbSpline
70
4
71
3
72
10
73
6
40
0
40
0
40
0
40
0
40
0.5
40
0.5
40
1
40
1
40
1
40
1
41
1
10
72.7634895788835
20
-34.3333181637038
30
0
41
1
10
72.6500963269006
20
-34.2199249117209
30
0
41
1
10
72.5361244632581
20
-34.1059530480784
30
0
41
1
10
72.3122667280823
20
-33.8820953129027
30
0
41
1
10
72.2018939113788
20
-33.7717224961991
30
0
41
1
10
72.0926818683496
20
-33.6625104531699
30
0
0
SPLINE
5
149
100
AcDbEntity
8
1
62
256
6
ByLayer
370
18
48
1
60
0
100
AcDbSpline
70
4
71
3
72
10
73
6
40
0
40
0
40
0
40
0
40
0.5
40
0.5
40
1
40
1
40
1
40
1
41
1
10
76.96915840237
20
-34.96915840237
30
0
41
1
10
77.0094315187212
20
-34.8188570859683
30
0
41
1
10
77.0503365126654
20
-34.6661975702853
30
0
41
1
10
77.1323074904375
20
-34.3602777164937
30
0
41
1
10
77.1734223138779
20
-34.2068351064697
30
0
41
1
10
77.2146910654799
20
-34.0528180287262
30
0
0
SPLINE
5
14A
100
AcDbEntity
8
1
62
256
6
ByLayer
370
18
48
1
60
0
100
AcDbSpline
70
4
71
3
72
10
73
6
40
0
40
0
40
0
40
0
40
0.5
40
0.5
40
1
40
1
40
1
40
1
41
1
10
72.8470754135564
20
-30.8470754135564
30
0
41
1
10
72.8068022972052
20
-30.9973767299581
30
0
41
1
10
72.765897303261
20
-31.1500362456411
30
0
41
1
10
72.6839263254889
20
-31.4559560994327
30
0
41
1
10
72.6428115020485
20
-31.6093987094567
30
0
41
1
10
72.6015427504465
20
-31.7634157872002
30
0
0
SPLINE
5
14B
100
AcDbEntity
8
1
62
256
6
ByLayer
370
18
48
1
60
0
100
AcDbSpline
70
4
71
3
72
10
73
6
40
0
40
0
40
0
40
0
40
0.5
40
0.5
40
1
40
1
40
1
40
1
41
1
10
76.3333181637038
20
-30.7634895788836
30
0
41
1
10
76.2199249117209
20
-30.6500963269007
30
0
41
1
10
76.1059530480784
20
-30.5361244632582
30
0
41
1
10
75.8820953129026
20
-30.3122667280824
30
0
41
1
10
75.7717224961991
20
-30.2018939113788
30
0
41
1
10
75.6625104531699
20
-30.0926818683497
30
0
0
SPLINE
5
14C
100
AcDbEntity
8
1
62
256
6
ByLayer
370
18
48
1
60
0
100
AcDbSpline
70
4
71
3
72
8
73
4
40
0
40
0
40
0
40
0
40
1
40
1
40
1
40
1
41
1
10
72.3382145314595
20
-32.7461700795261
30
0
41
1
10
72.2541862746104
20
-33.0597678033584
30
0
41
1
10
72.17268862725
20
-33.3639211640048
30
0
41
1
10
72.0926818683496
20
-33.66251045317
30
0
0
SPLINE
5
14D
100
AcDbEntity
8
1
62
256
6
ByLayer
370
18
48
1
60
0
100
AcDbSpline
70
4
71
3
72
8
73
4
40
0
40
0
40
0
40
0
40
1
40
1
40
1
40
1
41
1
10
77.4780192844669
20
-33.0700637364003
30
0
41
1
10
77.5620475413159
20
-32.756466012568
30
0
41
1
10
77.6435451886764
20
-32.4523126519216
30
0
41
1
10
77.7235519475767
20
-32.1537233627565
30
0
0
LINE
5
72
100
AcDbEntity
8
1
62
256
6
ByLayer
370
18
48
1
60
0
100
AcDbLine
10
25.312541
20
2
30
0
11
25.003462
21
2
31
0
39
0
210
0
220
0
230
1
0
LINE
5
73
100
AcDbEntity
8
1
62
256
6
ByLayer
370
18
48
1
60
0
100
AcDbLine
10
0.3
20
-50
30
0
11
36.186138
21
-50
31
0
39
0
210
0
220
0
230
1
0
LINE
5
74
100
AcDbEntity
8
1
62
256
6
ByLayer
370
18
48
1
60
0
100
AcDbLine
10
35.897119
20
-4.288865
30
0
11
35.836805
21
-4.090855
31
0
39
0
210
0
220
0
230
1
0
LINE
5
75
100
AcDbEntity
8
1
62
256
6
ByLayer
370
18
48
1
60
0
100
AcDbLine
10
33.567535
20
-8.476886
30
0
11
33.764005
21
-8.411734
31
0
39
0
210
0
220
0
230
1
0
LINE
5
76
100
AcDbEntity
8
1
62
256
6
ByLayer
370
18
48
1
60
0
100
AcDbLine
10
25.003462
20
-2
30
0
11
25.312541
21
-2
31
0
39
0
210
0
220
0
230
1
0
LINE
5
77
100
AcDbEntity
8
1
62
256
6
ByLayer
370
18
48
1
60
0
100
AcDbLine
10
31.740156
20
-7.566158
30
0
11
33.499558
21
-8.476448
31
0
39
0
210
0
220
0
230
1
0
LINE
5
78
100
AcDbEntity
8
1
62
256
6
ByLayer
370
18
48
1
60
0
100
AcDbLine
10
35.797178
20
-4.035621
30
0
11
31.704252
21
-1.918
31
0
39
0
210
0
220
0
230
1
0
LINE
5
79
100
AcDbEntity
8
1
62
256
6
ByLayer
370
18
48
1
60
0
100
AcDbLine
10
25.08759
20
-0.6
30
0
11
25.155076
21
-0.6
31
0
39
0
210
0
220
0
230
1
0
LINE
5
7A
100
AcDbEntity
8
1
62
256
6
ByLayer
370
18
48
1
60
0
100
AcDbLine
10
25.155076
20
0.6
30
0
11
25.08759
21
0.6
31
0
39
0
210
0
220
0
230
1
0
LINE
5
7B
100
AcDbEntity
8
1
62
256
6
ByLayer
370
18
48
1
60
0
100
AcDbLine
10
36.186138
20
50
30
0
11
0.3
21
50
31
0
39
0
210
0
220
0
230
1
0
LINE
5
7C
100
AcDbEntity
8
1
62
256
6
ByLayer
370
18
48
1
60
0
100
AcDbLine
10
0
20
-49.7
30
0
11
0.3
21
-50
31
0
39
0
210
0
220
0
230
1
0
LINE
5
7D
100
AcDbEntity
8
1
62
256
6
ByLayer
370
18
48
1
60
0
100
AcDbLine
10
0.3
20
50
30
0
11
0
21
49.7
31
0
39
0
210
0
220
0
230
1
0
LINE
5
7E
100
AcDbEntity
8
1
62
256
6
ByLayer
370
18
48
1
60
0
100
AcDbLine
10
100.902649
20
-37.565551
30
0
11
101.345471
21
-37.122729
31
0
39
0
210
0
220
0
230
1
0
LINE
5
7F
100
AcDbEntity
8
1
62
256
6
ByLayer
370
18
48
1
60
0
100
AcDbLine
10
101.902758
20
-38.087979
30
0
11
101.345471
21
-37.122729
31
0
39
0
210
0
220
0
230
1
0
LINE
5
80
100
AcDbEntity
8
1
62
256
6
ByLayer
370
18
48
1
60
0
100
AcDbLine
10
80.087979
20
-59.902758
30
0
11
79.122729
21
-59.345471
31
0
39
0
210
0
220
0
230
1
0
LINE
5
81
100
AcDbEntity
8
1
62
256
6
ByLayer
370
18
48
1
60
0
100
AcDbLine
10
79.122729
20
-59.345471
30
0
11
79.565551
21
-58.902649
31
0
39
0
210
0
220
0
230
1
0
LINE
5
82
100
AcDbEntity
8
SK1
62
256
6
ByLayer
370
18
48
1
60
0
100
AcDbLine
10
-0.2
20
6.83962
30
0
11
-0.2
21
37.983485
31
0
39
0
210
0
220
0
230
1
0
LINE
5
84
100
AcDbEntity
8
SK1
62
256
6
ByLayer
370
18
48
1
60
0
100
AcDbLine
10
-0.2
20
-37.983485
30
0
11
-0.2
21
-6.83962
31
0
39
0
210
0
220
0
230
1
0
LINE
5
85
100
AcDbEntity
8
1
62
256
6
ByLayer
370
18
48
1
60
0
100
AcDbLine
10
36.186138
20
-49.999519
30
0
11
36.186138
21
-50
31
0
39
0
210
0
220
0
230
1
0
LINE
5
86
100
AcDbEntity
8
1
62
256
6
ByLayer
370
18
48
1
60
0
100
AcDbLine
10
36.186138
20
50
30
0
11
36.186138
21
49.999519
31
0
39
0
210
0
220
0
230
1
0
LINE
5
87
100
AcDbEntity
8
1
62
256
6
ByLayer
370
18
48
1
60
0
100
AcDbLine
10
0.3
20
-50
30
0
11
0.3
21
50
31
0
39
0
210
0
220
0
230
1
0
LINE
5
88
100
AcDbEntity
8
1
62
256
6
ByLayer
370
18
48
1
60
0
100
AcDbLine
10
34.600519
20
-49.905577
30
0
11
34.600519
21
-7.382906
31
0
39
0
210
0
220
0
230
1
0
LINE
5
89
100
AcDbEntity
8
1
62
256
6
ByLayer
370
18
48
1
60
0
100
AcDbLine
10
34.600519
20
-3.415413
30
0
11
34.600519
21
49.905577
31
0
39
0
210
0
220
0
230
1
0
LINE
5
8A
100
AcDbEntity
8
1
62
256
6
ByLayer
370
18
48
1
60
0
100
AcDbLine
10
0
20
-49.7
30
0
11
0
21
49.7
31
0
39
0
210
0
220
0
230
1
0
LINE
5
8B
100
AcDbEntity
8
1
62
256
6
ByLayer
370
18
48
1
60
0
100
AcDbLine
10
99.521204
20
-33.963006
30
0
11
97.167562
21
-36.316648
31
0
39
0
210
0
220
0
230
1
0
LINE
5
8C
100
AcDbEntity
8
1
62
256
6
ByLayer
370
18
48
1
60
0
100
AcDbLine
10
78.316648
20
-55.167562
30
0
11
75.963006
21
-57.521204
31
0
39
0
210
0
220
0
230
1
0
LINE
5
8D
100
AcDbEntity
8
1
62
256
6
ByLayer
370
18
48
1
60
0
100
AcDbLine
10
98.462203
20
-36.634793
30
0
11
100.111525
21
-34.985471
31
0
39
0
210
0
220
0
230
1
0
LINE
5
8E
100
AcDbEntity
8
1
62
256
6
ByLayer
370
18
48
1
60
0
100
AcDbLine
10
76.985471
20
-58.111525
30
0
11
78.634793
21
-56.462203
31
0
39
0
210
0
220
0
230
1
0
LINE
5
8F
100
AcDbEntity
8
1
62
256
6
ByLayer
370
18
48
1
60
0
100
AcDbLine
10
100.118947
20
-34.998328
30
0
11
98.477924
21
-36.639351
31
0
39
0
210
0
220
0
230
1
0
LINE
5
90
100
AcDbEntity
8
1
62
256
6
ByLayer
370
18
48
1
60
0
100
AcDbLine
10
78.639351
20
-56.477924
30
0
11
76.998328
21
-58.118947
31
0
39
0
210
0
220
0
230
1
0
LINE
5
91
100
AcDbEntity
8
1
62
256
6
ByLayer
370
18
48
1
60
0
100
AcDbLine
10
77.698198
20
-58.523018
30
0
11
78.907971
21
-57.313244
31
0
39
0
210
0
220
0
230
1
0
LINE
5
92
100
AcDbEntity
8
1
62
256
6
ByLayer
370
18
48
1
60
0
100
AcDbLine
10
99.313244
20
-36.907971
30
0
11
100.523018
21
-35.698198
31
0
39
0
210
0
220
0
230
1
0
LINE
5
93
100
AcDbEntity
8
1
62
256
6
ByLayer
370
18
48
1
60
0
100
AcDbLine
10
78.913382
20
-57.328544
30
0
11
77.711328
21
-58.530598
31
0
39
0
210
0
220
0
230
1
0
LINE
5
94
100
AcDbEntity
8
1
62
256
6
ByLayer
370
18
48
1
60
0
100
AcDbLine
10
100.530598
20
-35.711328
30
0
11
99.328544
21
-36.913382
31
0
39
0
210
0
220
0
230
1
0
LINE
5
95
100
AcDbEntity
8
1
62
256
6
ByLayer
370
18
48
1
60
0
100
AcDbLine
10
78.981871
20
-59.264147
30
0
11
79.49435
21
-58.751669
31
0
39
0
210
0
220
0
230
1
0
LINE
5
96
100
AcDbEntity
8
1
62
256
6
ByLayer
370
18
48
1
60
0
100
AcDbLine
10
100.751669
20
-37.49435
30
0
11
101.264147
21
-36.981871
31
0
39
0
210
0
220
0
230
1
0
LINE
5
97
100
AcDbEntity
8
1
62
256
6
ByLayer
370
18
48
1
60
0
100
AcDbLine
10
31.881514
20
-0.056434
30
0
11
31.741239
21
-0.873982
31
0
39
0
210
0
220
0
230
1
0
LINE
5
98
100
AcDbEntity
8
1
62
256
6
ByLayer
370
18
48
1
60
0
100
AcDbLine
10
13.355662
20
-15.513346
30
0
11
13.355662
21
-47.532474
31
0
39
0
210
0
220
0
230
1
0
LINE
5
99
100
AcDbEntity
8
1
62
256
6
ByLayer
370
18
48
1
60
0
100
AcDbLine
10
50.960474
20
50.146646
30
0
11
99.521204
21
-33.963006
31
0
39
0
210
0
220
0
230
1
0
LINE
5
9A
100
AcDbEntity
8
1
62
256
6
ByLayer
370
18
48
1
60
0
100
AcDbLine
10
18.644338
20
-15.513346
30
0
11
18.644338
21
-47.532474
31
0
39
0
210
0
220
0
230
1
0
LINE
5
9B
100
AcDbEntity
8
1
62
256
6
ByLayer
370
18
48
1
60
0
100
AcDbLine
10
38.585297
20
-50.146646
30
0
11
39.5
21
-50.146646
31
0
39
0
210
0
220
0
230
1
0
LINE
5
9C
100
AcDbEntity
8
1
62
256
6
ByLayer
370
18
48
1
60
0
100
AcDbLine
10
99.521204
20
-33.963006
30
0
11
100.111525
21
-34.985471
31
0
39
0
210
0
220
0
230
1
0
LINE
5
9D
100
AcDbEntity
8
1
62
256
6
ByLayer
370
18
48
1
60
0
100
AcDbLine
10
64.609996
20
-50.966541
30
0
11
75.963006
21
-57.521204
31
0
39
0
210
0
220
0
230
1
0
LINE
5
9E
100
AcDbEntity
8
1
62
256
6
ByLayer
370
18
48
1
60
0
100
AcDbLine
10
76.998328
20
-58.118947
30
0
11
77.698198
21
-58.523018
31
0
39
0
210
0
220
0
230
1
0
LINE
5
9F
100
AcDbEntity
8
1
62
256
6
ByLayer
370
18
48
1
60
0
100
AcDbLine
10
77.711328
20
-58.530598
30
0
11
77.698198
21
-58.523018
31
0
39
0
210
0
220
0
230
1
0
LINE
5
A0
100
AcDbEntity
8
1
62
256
6
ByLayer
370
18
48
1
60
0
100
AcDbLine
10
100.118947
20
-34.998328
30
0
11
100.523018
21
-35.698198
31
0
39
0
210
0
220
0
230
1
0
LINE
5
A1
100
AcDbEntity
8
1
62
256
6
ByLayer
370
18
48
1
60
0
100
AcDbLine
10
76.985471
20
-58.111525
30
0
11
76.998328
21
-58.118947
31
0
39
0
210
0
220
0
230
1
0
LINE
5
A2
100
AcDbEntity
8
1
62
256
6
ByLayer
370
18
48
1
60
0
100
AcDbLine
10
13.788675
20
-14.993155
30
0
11
13.788675
21
-47.699112
31
0
39
0
210
0
220
0
230
1
0
LINE
5
A3
100
AcDbEntity
8
1
62
256
6
ByLayer
370
18
48
1
60
0
100
AcDbLine
10
79.122729
20
-59.345471
30
0
11
78.981871
21
-59.264147
31
0
39
0
210
0
220
0
230
1
0
LINE
5
A4
100
AcDbEntity
8
1
62
256
6
ByLayer
370
18
48
1
60
0
100
AcDbLine
10
50.960474
20
50.146646
30
0
11
38.585297
21
50.146646
31
0
39
0
210
0
220
0
230
1
0
LINE
5
A5
100
AcDbEntity
8
1
62
256
6
ByLayer
370
18
48
1
60
0
100
AcDbLine
10
13.355662
20
47.532474
30
0
11
13.355662
21
15.513346
31
0
39
0
210
0
220
0
230
1
0
LINE
5
A6
100
AcDbEntity
8
1
62
256
6
ByLayer
370
18
48
1
60
0
100
AcDbLine
10
18.211325
20
-14.993155
30
0
11
18.211325
21
-47.699112
31
0
39
0
210
0
220
0
230
1
0
LINE
5
A7
100
AcDbEntity
8
1
62
256
6
ByLayer
370
18
48
1
60
0
100
AcDbLine
10
40.325519
20
-50.232764
30
0
11
59.170754
21
-49.605643
31
0
39
0
210
0
220
0
230
1
0
LINE
5
A8
100
AcDbEntity
8
1
62
256
6
ByLayer
370
18
48
1
60
0
100
AcDbLine
10
100.111525
20
-34.985471
30
0
11
100.118947
21
-34.998328
31
0
39
0
210
0
220
0
230
1
0
LINE
5
A9
100
AcDbEntity
8
1
62
256
6
ByLayer
370
18
48
1
60
0
100
AcDbLine
10
13.788675
20
-14.993155
30
0
11
18.211325
21
-14.993155
31
0
39
0
210
0
220
0
230
1
0
LINE
5
AA
100
AcDbEntity
8
1
62
256
6
ByLayer
370
18
48
1
60
0
100
AcDbLine
10
18.211325
20
-47.699112
30
0
11
13.788675
21
-47.699112
31
0
39
0
210
0
220
0
230
1
0
LINE
5
AB
100
AcDbEntity
8
1
62
256
6
ByLayer
370
18
48
1
60
0
100
AcDbLine
10
101.345471
20
-37.122729
30
0
11
101.264147
21
-36.981871
31
0
39
0
210
0
220
0
230
1
0
LINE
5
AC
100
AcDbEntity
8
1
62
256
6
ByLayer
370
18
48
1
60
0
100
AcDbLine
10
18.211325
20
14.993155
30
0
11
13.788675
21
14.993155
31
0
39
0
210
0
220
0
230
1
0
LINE
5
AD
100
AcDbEntity
8
1
62
256
6
ByLayer
370
18
48
1
60
0
100
AcDbLine
10
13.788675
20
47.699112
30
0
11
13.788675
21
14.993155
31
0
39
0
210
0
220
0
230
1
0
LINE
5
AE
100
AcDbEntity
8
1
62
256
6
ByLayer
370
18
48
1
60
0
100
AcDbLine
10
18.211325
20
47.699112
30
0
11
18.211325
21
14.993155
31
0
39
0
210
0
220
0
230
1
0
LINE
5
AF
100
AcDbEntity
8
1
62
256
6
ByLayer
370
18
48
1
60
0
100
AcDbLine
10
75.963006
20
-57.521204
30
0
11
76.985471
21
-58.111525
31
0
39
0
210
0
220
0
230
1
0
LINE
5
B0
100
AcDbEntity
8
1
62
256
6
ByLayer
370
18
48
1
60
0
100
AcDbLine
10
100.530598
20
-35.711328
30
0
11
100.523018
21
-35.698198
31
0
39
0
210
0
220
0
230
1
0
LINE
5
B1
100
AcDbEntity
8
1
62
256
6
ByLayer
370
18
48
1
60
0
100
AcDbLine
10
18.644338
20
47.532474
30
0
11
18.644338
21
15.513346
31
0
39
0
210
0
220
0
230
1
0
LINE
5
B2
100
AcDbEntity
8
1
62
256
6
ByLayer
370
18
48
1
60
0
100
AcDbLine
10
13.788675
20
47.699112
30
0
11
18.211325
21
47.699112
31
0
39
0
210
0
220
0
230
1
0
LINE
5
B3
100
AcDbEntity
8
1
62
256
6
ByLayer
370
18
48
1
60
0
100
AcDbLine
10
32.276991
20
2.248484
30
0
11
32.136716
21
1.430936
31
0
39
0
210
0
220
0
230
1
0
LINE
5
B4
100
AcDbEntity
8
1
62
256
6
ByLayer
370
18
48
1
60
0
100
AcDbLine
10
38.585297
20
50.146646
30
0
11
38.585297
21
-50.146646
31
0
39
0
210
0
220
0
230
1
0
LINE
5
B5
100
AcDbEntity
8
SK1
62
256
6
ByLayer
370
18
48
1
60
0
100
AcDbLine
10
-1.307107
20
-4.60538
30
0
11
-1.307107
21
4.60538
31
0
39
0
210
0
220
0
230
1
0
LINE
5
B6
100
AcDbEntity
8
1
62
256
6
ByLayer
370
18
48
1
60
0
100
AcDbLine
10
90.641248
20
-55.358752
30
0
11
90.959441
21
-55.040559
31
0
39
0
210
0
220
0
230
1
0
LINE
5
B7
100
AcDbEntity
8
1
62
256
6
ByLayer
370
18
48
1
60
0
100
AcDbLine
10
97.358752
20
-48.641248
30
0
11
97.040559
21
-48.959441
31
0
39
0
210
0
220
0
230
1
0
LINE
5
B8
100
AcDbEntity
8
80
62
256
6
ByLayer
370
18
48
1
60
0
100
AcDbLine
10
0
20
0
30
0
11
-5
21
0
31
0
39
0
210
0
220
0
230
1
0
LINE
5
B9
100
AcDbEntity
8
4
62
256
6
ByLayer
370
18
48
0.05
60
0
100
AcDbLine
10
0
20
0
30
0
11
110
21
0
31
0
39
0
210
0
220
0
230
1
0
LINE
5
BB
100
AcDbEntity
8
81
62
256
6
ByLayer
370
18
48
1
60
0
100
AcDbLine
10
110
20
-68
30
0
11
120
21
-68
31
0
39
0
210
0
220
0
230
1
0
LINE
5
BC
100
AcDbEntity
8
SK4
62
256
6
ByLayer
370
18
48
0.05
60
0
100
AcDbLine
10
-65
20
0
30
0
11
110
21
0
31
0
39
0
210
0
220
0
230
1
0
LINE
5
BE
100
AcDbEntity
8
1
62
256
6
ByLayer
370
18
48
1
60
0
100
AcDbLine
10
92.240536
20
-55.517797
30
0
11
91.507886
21
-54.785147
31
0
39
0
210
0
220
0
230
1
0
LINE
5
BF
100
AcDbEntity
8
1
62
256
6
ByLayer
370
18
48
1
60
0
100
AcDbLine
10
95.536835
20
-48.728509
30
0
11
95.195568
21
-48.387242
31
0
39
0
210
0
220
0
230
1
0
LINE
5
C0
100
AcDbEntity
8
1
62
256
6
ByLayer
370
18
48
1
60
0
100
AcDbLine
10
90.304245
20
-53.961099
30
0
11
89.939227
21
-53.596081
31
0
39
0
210
0
220
0
230
1
0
LINE
5
C1
100
AcDbEntity
8
1
62
256
6
ByLayer
370
18
48
1
60
0
100
AcDbLine
10
90.387242
20
-53.195568
30
0
11
90.728509
21
-53.536835
31
0
39
0
210
0
220
0
230
1
0
LINE
5
C2
100
AcDbEntity
8
1
62
256
6
ByLayer
370
18
48
1
60
0
100
AcDbLine
10
96.785142
20
-49.507881
30
0
11
97.517797
21
-50.240536
31
0
39
0
210
0
220
0
230
1
0
LINE
5
C3
100
AcDbEntity
8
1
62
256
6
ByLayer
370
18
48
1
60
0
100
AcDbLine
10
95.596081
20
-47.939227
30
0
11
95.961099
21
-48.304245
31
0
39
0
210
0
220
0
230
1
0
LINE
5
C4
100
AcDbEntity
8
1
62
256
6
ByLayer
370
18
48
1
60
0
100
AcDbLine
10
90.304253
20
-53.961108
30
0
11
91.23936
21
-54.896214
31
0
39
0
210
0
220
0
230
1
0
LINE
5
C5
100
AcDbEntity
8
1
62
256
6
ByLayer
370
18
48
1
60
0
100
AcDbLine
10
95.961099
20
-48.304245
30
0
11
96.896214
21
-49.23936
31
0
39
0
210
0
220
0
230
1
0
MTEXT
5
14E
100
AcDbEntity
8
SK6
62
256
6
ByLayer
370
13
48
1
60
0
100
AcDbMText
10
-10.467415
20
59.092503
30
0
210
0
220
0
230
1
1
\W0.7095;C10-PRSCL-68110-32
40
3.5
41
0
44
1.084337
50
0
71
7
72
5
7
iso_b_vert
0
DIMENSION
5
160
100
AcDbEntity
8
SK2
62
256
6
ByLayer
370
13
48
1
60
0
100
AcDbDimension
2
DimnDraft3D1
10
-67.5
20
-50
30
0
11
-67.5
21
0
31
0
70
32
71
5
72
1
41
1
210
0
220
0
230
1
3
Standard
100
AcDbAlignedDimension
13
-1.5875
23
50
33
0
14
-1.5875
24
-50
34
0
50
90
100
AcDbRotatedDimension
1001
ACAD
1000
DSTYLE
1002
{
1070
    74
1070
     0
1070
   279
1070
     0
1070
   172
1070
     1
1070
   173
1070
     1
1070
   340
1005
14F
1070
   271
1070
     1
1070
   272
1070
     2
1070
    77
1070
     1
1070
    73
1070
     0
1070
   171
1070
     3
1070
   274
1070
     4
1070
   177
1070
   150
1070
   176
1070
     9
1070
   178
1070
    43
1070
    78
1070
     8
1070
    48
1040
-0.005
1070
    41
1041
3.175
1070
   147
1041
2.25
1070
    42
1041
1.5875
1070
    44
1041
3.175
1070
   140
1041
4.5
1070
   343
1005
161
1070
   344
1005
161
1002
}
0
DIMENSION
5
176
100
AcDbEntity
8
2
62
256
6
ByLayer
370
13
48
1
60
0
100
AcDbDimension
2
DimnDraft3D2
10
126.5
20
0
30
0
11
126.5
21
-34
31
0
70
32
71
5
72
1
41
1
210
0
220
0
230
1
3
Standard
100
AcDbAlignedDimension
13
111.5875
23
-68
33
0
14
51.5875
24
0
34
0
50
90
100
AcDbRotatedDimension
1001
ACAD
1000
DSTYLE
1002
{
1070
    74
1070
     0
1070
   279
1070
     0
1070
   172
1070
     1
1070
   173
1070
     1
1070
   340
1005
14F
1070
   271
1070
     1
1070
   272
1070
     2
1070
    77
1070
     1
1070
    73
1070
     0
1070
   171
1070
     3
1070
   274
1070
     4
1070
   177
1070
   150
1070
   176
1070
     9
1070
   178
1070
    43
1070
    78
1070
     8
1070
    48
1040
-0.005
1070
    41
1041
3.175
1070
   147
1041
2.25
1070
    42
1041
1.5875
1070
    44
1041
3.175
1070
   140
1041
4.5
1070
   343
1005
161
1070
   344
1005
161
1002
}
0
DIMENSION
5
184
100
AcDbEntity
8
2
62
256
6
ByLayer
370
13
48
1
60
0
100
AcDbDimension
2
DimnDraft3D3
10
110
20
-94.5
30
0
11
55
21
-94.5
31
0
70
32
71
5
72
1
41
1
210
0
220
0
230
1
3
Standard
100
AcDbAlignedDimension
13
0
23
-51.5875
33
0
14
110
24
-69.5875
34
0
50
0
100
AcDbRotatedDimension
1001
ACAD
1000
DSTYLE
1002
{
1070
   279
1070
     0
1070
   172
1070
     1
1070
   173
1070
     1
1070
   340
1005
14F
1070
   271
1070
     1
1070
   272
1070
     2
1070
    77
1070
     1
1070
    73
1070
     0
1070
   171
1070
     3
1070
   274
1070
     4
1070
   177
1070
   150
1070
   176
1070
     9
1070
   178
1070
    43
1070
    78
1070
     8
1070
    48
1040
-0.005
1070
    41
1041
3.175
1070
   147
1041
2.25
1070
    42
1041
1.5875
1070
    44
1041
3.175
1070
   140
1041
4.5
1070
   343
1005
161
1070
   344
1005
161
1002
}
0
ENDSEC
0
SECTION
2
OBJECTS
0
DICTIONARY
5
1ef
330
0
100
AcDbDictionary
280
0
281
1
3
ACAD_GROUP
350
1f0
3
ACAD_MLINESTYLE
350
1f1
0
DICTIONARY
5
1f0
330
0
100
AcDbDictionary
280
0
281
1
0
DICTIONARY
5
1f1
330
0
100
AcDbDictionary
280
0
281
1
3
Standard
350
18
0
MLINESTYLE
5
18
330
1f1
100
AcDbMlineStyle
2
Standard
70
0
3

62
256
51
90
52
90
71
2
49
-0.5
62
256
6
ByLayer
49
0.5
62
256
6
ByLayer
0
RASTERVARIABLES
5
1dd
330

100
AcDbRasterVariables
90
0
70
1
71
1
72
1
0
ENDSEC
0
EOF
