0
SECTION
2
HEADER
9
$ACADVER
1
AC1015
9
$DWGCODEPAGE
3
ANSI_1252
9
$HANDSEED
5
1e7
9
$ANGBASE
50
0
9
$ANGDIR
70
0
9
$ATTMODE
70
1
9
$AUNITS
70
0
9
$AUPREC
70
0
9
$CECOLOR
62
256
9
$CELTSCALE
40
1
9
$CELTYPE
6
ByLayer
9
$CELWEIGHT
370
18
9
$CLAYER
8
0
9
$CMLJUST
70
0
9
$CMLSCALE
40
1
9
$CMLSTYLE
2
Standard
9
$DIMSTYLE
2
Standard
9
$TEXTSIZE
40
0.2
9
$TEXTSTYLE
7
Standard
9
$LUNITS
70
2
9
$LUPREC
70
4
9
$EXTNAMES
290
1
9
$INSUNITS
70
4
9
$LTSCALE
40
1
9
$LWDISPLAY
290
1
9
$PDMODE
70
0
9
$PDSIZE
40
0
9
$PLINEGEN
70
0
0
ENDSEC
0
SECTION
2
CLASSES
0
CLASS
1
RASTERVARIABLES
2
AcDbRasterVariables
3
ISM
90
0
280
0
281
0
0
ENDSEC
0
SECTION
2
TABLES
0
TABLE
2
VPORT
5
1dd
100
AcDbSymbolTable
0
VPORT
5
1
100
AcDbSymbolTableRecord
100
AcDbViewportTableRecord
2
*Active
70
0
10
0
20
0
11
1
21
1
12
-1
22
1
13
0
23
0
14
0.5
24
0.5
15
10
25
10
16
0
26
0
36
1
17
0
27
0
37
0
0
ENDTAB
0
TABLE
2
LTYPE
5
1de
100
AcDbSymbolTable
0
LTYPE
5
14
100
AcDbSymbolTableRecord
100
AcDbLinetypeTableRecord
70
0
2
ByBlock
3

72
65
73
0
40
0
0
LTYPE
5
15
100
AcDbSymbolTableRecord
100
AcDbLinetypeTableRecord
70
0
2
ByLayer
3

72
65
73
0
40
0
0
LTYPE
5
16
100
AcDbSymbolTableRecord
100
AcDbLinetypeTableRecord
70
0
2
CONTINUOUS
3
Solid line
72
65
73
0
40
0
0
LTYPE
5
6A
100
AcDbSymbolTableRecord
100
AcDbLinetypeTableRecord
70
0
2
CENTER
3
____ _ ____ _ ____ _ ____
72
65
73
4
40
47.5
49
22
74
0
49
-8.5
74
0
49
8.5
74
0
49
-8.5
74
0
0
LTYPE
5
6B
100
AcDbSymbolTableRecord
100
AcDbLinetypeTableRecord
70
0
2
DASHED
3
__ __ __ __ __ __ __ __ __
72
65
73
2
40
25.72
49
12.86
74
0
49
-12.86
74
0
0
ENDTAB
0
TABLE
2
LAYER
5
1df
100
AcDbSymbolTable
0
LAYER
5
10
100
AcDbSymbolTableRecord
100
AcDbLayerTableRecord
2
0
70
0
62
7
6
CONTINUOUS
290
1
370
-3
390
0
0
LAYER
5
6D
100
AcDbSymbolTableRecord
100
AcDbLayerTableRecord
2
80
70
0
62
-6
6
CONTINUOUS
290
1
370
-3
390
0
0
LAYER
5
6F
100
AcDbSymbolTableRecord
100
AcDbLayerTableRecord
2
81
70
0
62
-3
6
CONTINUOUS
290
1
370
-3
390
0
0
LAYER
5
71
100
AcDbSymbolTableRecord
100
AcDbLayerTableRecord
2
1
70
0
62
4
6
CONTINUOUS
290
1
370
-3
390
0
0
LAYER
5
B8
100
AcDbSymbolTableRecord
100
AcDbLayerTableRecord
2
4
70
0
62
-2
6
CENTER
290
1
370
-3
390
0
0
LAYER
5
155
100
AcDbSymbolTableRecord
100
AcDbLayerTableRecord
2
2
70
0
62
7
6
CONTINUOUS
290
1
370
-3
390
0
0
LAYER
5
1c9
100
AcDbSymbolTableRecord
100
AcDbLayerTableRecord
2
SK1
70
0
62
4
6
CONTINUOUS
290
1
370
-3
390
0
0
LAYER
5
1ca
100
AcDbSymbolTableRecord
100
AcDbLayerTableRecord
2
SK4
70
0
62
2
6
CENTER
290
1
370
-3
390
0
0
LAYER
5
1cb
100
AcDbSymbolTableRecord
100
AcDbLayerTableRecord
2
SK6
70
0
62
5
6
CONTINUOUS
290
1
370
-3
390
0
0
LAYER
5
1cc
100
AcDbSymbolTableRecord
100
AcDbLayerTableRecord
2
SK2
70
0
62
7
6
CONTINUOUS
290
1
370
-3
390
0
0
ENDTAB
0
TABLE
2
STYLE
5
1e0
100
AcDbSymbolTable
0
STYLE
5
11
100
AcDbSymbolTableRecord
100
AcDbTextStyleTableRecord
2
Standard
3
txt
70
0
71
0
40
0
41
1
42
0
50
0
0
STYLE
5
13A
100
AcDbSymbolTableRecord
100
AcDbTextStyleTableRecord
2
iso_b_vert
3
simplex.shx
70
0
71
0
40
0
41
1
42
0
50
0
0
STYLE
5
13B
100
AcDbSymbolTableRecord
100
AcDbTextStyleTableRecord
2
DWGDirectTextStyle
3
simplex
70
0
71
0
40
0
41
1
42
0
50
0
0
ENDTAB
0
TABLE
2
DIMSTYLE
5
1e1
100
AcDbSymbolTable
100
AcDbDimStyleTable
0
DIMSTYLE
105
27
100
AcDbSymbolTableRecord
100
AcDbDimStyleTableRecord
2
Standard
70
0
3
<>
41
0.18
42
0.0625
44
0.18
140
0.18
147
0.09
73
0
74
0
77
1
271
2
275
0
278
52
280
0
340
11
0
ENDTAB
0
TABLE
2
VIEW
5
1e2
100
AcDbSymbolTable
0
ENDTAB
0
TABLE
2
UCS
5
1e3
100
AcDbSymbolTable
0
ENDTAB
0
TABLE
2
APPID
5
1e4
100
AcDbSymbolTable
0
APPID
5
12
100
AcDbSymbolTableRecord
100
AcDbRegAppTableRecord
2
ACAD
70
0
0
ENDTAB
0
TABLE
2
BLOCK_RECORD
5
1e5
100
AcDbSymbolTable
0
BLOCK_RECORD
5
1F
100
AcDbSymbolTableRecord
100
AcDbBlockTableRecord
2
*Model_Space
340
0
70
0
0
BLOCK_RECORD
5
1B
100
AcDbSymbolTableRecord
100
AcDbBlockTableRecord
2
*Paper_Space
340
0
70
0
0
BLOCK_RECORD
5
23
100
AcDbSymbolTableRecord
100
AcDbBlockTableRecord
2
*Paper_Space0
340
0
70
0
0
BLOCK_RECORD
5
13D
100
AcDbSymbolTableRecord
100
AcDbBlockTableRecord
2
DimnDraft3D1
340
0
70
0
0
BLOCK_RECORD
5
14C
100
AcDbSymbolTableRecord
100
AcDbBlockTableRecord
2
_CLOSED
340
0
70
0
0
BLOCK_RECORD
5
153
100
AcDbSymbolTableRecord
100
AcDbBlockTableRecord
2
DimnDraft3D2
340
0
70
0
0
BLOCK_RECORD
5
162
100
AcDbSymbolTableRecord
100
AcDbBlockTableRecord
2
DimnDraft3D3
340
0
70
0
0
ENDTAB
0
ENDSEC
0
SECTION
2
BLOCKS
0
BLOCK
5
20
100
AcDbEntity
8
0
100
AcDbBlockBegin
2
*Model_Space
70
0
10
0
20
0
30
0
3
*Model_Space
0
ENDBLK
5
21
100
AcDbEntity
8
0
100
AcDbBlockEnd
0
BLOCK
5
1C
100
AcDbEntity
8
0
100
AcDbBlockBegin
2
*Paper_Space
70
0
10
0
20
0
30
0
3
*Paper_Space
0
ENDBLK
5
1D
100
AcDbEntity
8
0
100
AcDbBlockEnd
0
BLOCK
5
24
100
AcDbEntity
8
0
100
AcDbBlockBegin
2
*Paper_Space0
70
0
10
0
20
0
30
0
3
*Paper_Space0
0
ENDBLK
5
25
100
AcDbEntity
8
0
100
AcDbBlockEnd
0
BLOCK
5
149
100
AcDbEntity
8
0
100
AcDbBlockBegin
2
DimnDraft3D1
70
0
10
0
20
0
30
0
3
DimnDraft3D1
0
MTEXT
5
13E
100
AcDbEntity
8
SK2
62
256
6
ByLayer
370
13
48
1
60
0
100
AcDbMText
10
-68.625
20
-2.682237
30
0
210
0
220
0
230
1
1
\W0.6217;100
40
4.5
41
0
44
1.084337
50
90
71
7
72
5
7
iso_b_vert
0
LINE
5
140
100
AcDbEntity
8
SK2
62
256
6
ByLayer
370
13
48
1
60
0
100
AcDbLine
10
-1.5875
20
50
30
0
11
-70.675
21
50
31
0
39
0
210
0
220
0
230
1
0
LINE
5
141
100
AcDbEntity
8
SK2
62
256
6
ByLayer
370
13
48
1
60
0
100
AcDbLine
10
-1.5875
20
-50
30
0
11
-70.675
21
-50
31
0
39
0
210
0
220
0
230
1
0
LINE
5
142
100
AcDbEntity
8
SK2
62
256
6
ByLayer
370
13
48
1
60
0
100
AcDbLine
10
-67.5
20
50
30
0
11
-67.5
21
-50
31
0
39
0
210
0
220
0
230
1
0
LINE
5
143
100
AcDbEntity
8
SK2
62
256
6
ByLayer
370
13
48
1
60
0
100
AcDbLine
10
-67.5
20
50
30
0
11
-66.649261
21
46.825003
31
0
39
0
210
0
220
0
230
1
0
LINE
5
144
100
AcDbEntity
8
SK2
62
256
6
ByLayer
370
13
48
1
60
0
100
AcDbLine
10
-67.5
20
50
30
0
11
-68.350739
21
46.824997
31
0
39
0
210
0
220
0
230
1
0
LINE
5
145
100
AcDbEntity
8
SK2
62
256
6
ByLayer
370
13
48
1
60
0
100
AcDbLine
10
-66.649261
20
46.825003
30
0
11
-68.350739
21
46.824997
31
0
39
0
210
0
220
0
230
1
0
LINE
5
146
100
AcDbEntity
8
SK2
62
256
6
ByLayer
370
13
48
1
60
0
100
AcDbLine
10
-67.5
20
-50
30
0
11
-68.350739
21
-46.825003
31
0
39
0
210
0
220
0
230
1
0
LINE
5
147
100
AcDbEntity
8
SK2
62
256
6
ByLayer
370
13
48
1
60
0
100
AcDbLine
10
-67.5
20
-50
30
0
11
-66.649261
21
-46.824997
31
0
39
0
210
0
220
0
230
1
0
LINE
5
148
100
AcDbEntity
8
SK2
62
256
6
ByLayer
370
13
48
1
60
0
100
AcDbLine
10
-68.350739
20
-46.825003
30
0
11
-66.649261
21
-46.824997
31
0
39
0
210
0
220
0
230
1
0
ENDBLK
5
14A
100
AcDbEntity
8
0
100
AcDbBlockEnd
0
BLOCK
5
14D
100
AcDbEntity
8
0
100
AcDbBlockBegin
2
_CLOSED
70
0
10
0
20
0
30
0
3
_CLOSED
0
LINE
5
14F
100
AcDbEntity
8
0
62
256
6
ByLayer
370
-2
48
1
60
0
100
AcDbLine
10
-1
20
0.166667
30
0
11
0
21
0
31
0
39
0
210
0
220
0
230
1
0
LINE
5
150
100
AcDbEntity
8
0
62
256
6
ByLayer
370
-2
48
1
60
0
100
AcDbLine
10
0
20
0
30
0
11
-1
21
-0.166667
31
0
39
0
210
0
220
0
230
1
0
LINE
5
151
100
AcDbEntity
8
0
62
256
6
ByLayer
370
-2
48
1
60
0
100
AcDbLine
10
-1
20
0.166667
30
0
11
-1
21
-0.166667
31
0
39
0
210
0
220
0
230
1
0
LINE
5
152
100
AcDbEntity
8
0
62
256
6
ByLayer
370
-2
48
1
60
0
100
AcDbLine
10
0
20
0
30
0
11
-1
21
0
31
0
39
0
210
0
220
0
230
1
0
ENDBLK
5
14E
100
AcDbEntity
8
0
100
AcDbBlockEnd
0
BLOCK
5
15F
100
AcDbEntity
8
0
100
AcDbBlockBegin
2
DimnDraft3D2
70
0
10
0
20
0
30
0
3
DimnDraft3D2
0
MTEXT
5
154
100
AcDbEntity
8
2
62
256
6
ByLayer
370
13
48
1
60
0
100
AcDbMText
10
125.375
20
-35.563158
30
0
210
0
220
0
230
1
1
\W0.6740;68
40
4.5
41
0
44
1.084337
50
90
71
7
72
5
7
iso_b_vert
0
LINE
5
156
100
AcDbEntity
8
2
62
256
6
ByLayer
370
13
48
1
60
0
100
AcDbLine
10
111.5875
20
-68
30
0
11
129.675
21
-68
31
0
39
0
210
0
220
0
230
1
0
LINE
5
157
100
AcDbEntity
8
2
62
256
6
ByLayer
370
13
48
1
60
0
100
AcDbLine
10
51.5875
20
0
30
0
11
129.675
21
0
31
0
39
0
210
0
220
0
230
1
0
LINE
5
158
100
AcDbEntity
8
2
62
256
6
ByLayer
370
13
48
1
60
0
100
AcDbLine
10
126.5
20
-68
30
0
11
126.5
21
0
31
0
39
0
210
0
220
0
230
1
0
LINE
5
159
100
AcDbEntity
8
2
62
256
6
ByLayer
370
13
48
1
60
0
100
AcDbLine
10
126.5
20
-68
30
0
11
125.649261
21
-64.825003
31
0
39
0
210
0
220
0
230
1
0
LINE
5
15A
100
AcDbEntity
8
2
62
256
6
ByLayer
370
13
48
1
60
0
100
AcDbLine
10
126.5
20
-68
30
0
11
127.350739
21
-64.824997
31
0
39
0
210
0
220
0
230
1
0
LINE
5
15B
100
AcDbEntity
8
2
62
256
6
ByLayer
370
13
48
1
60
0
100
AcDbLine
10
125.649261
20
-64.825003
30
0
11
127.350739
21
-64.824997
31
0
39
0
210
0
220
0
230
1
0
LINE
5
15C
100
AcDbEntity
8
2
62
256
6
ByLayer
370
13
48
1
60
0
100
AcDbLine
10
126.5
20
0
30
0
11
127.350739
21
-3.174997
31
0
39
0
210
0
220
0
230
1
0
LINE
5
15D
100
AcDbEntity
8
2
62
256
6
ByLayer
370
13
48
1
60
0
100
AcDbLine
10
126.5
20
0
30
0
11
125.649261
21
-3.175003
31
0
39
0
210
0
220
0
230
1
0
LINE
5
15E
100
AcDbEntity
8
2
62
256
6
ByLayer
370
13
48
1
60
0
100
AcDbLine
10
127.350739
20
-3.174997
30
0
11
125.649261
21
-3.175003
31
0
39
0
210
0
220
0
230
1
0
ENDBLK
5
160
100
AcDbEntity
8
0
100
AcDbBlockEnd
0
BLOCK
5
16D
100
AcDbEntity
8
0
100
AcDbBlockBegin
2
DimnDraft3D3
70
0
10
0
20
0
30
0
3
DimnDraft3D3
0
MTEXT
5
163
100
AcDbEntity
8
2
62
256
6
ByLayer
370
13
48
1
60
0
100
AcDbMText
10
52.880263
20
-93.375
30
0
210
0
220
0
230
1
1
\W0.5296;110
40
4.5
41
0
44
1.084337
50
0
71
7
72
5
7
iso_b_vert
0
LINE
5
164
100
AcDbEntity
8
2
62
256
6
ByLayer
370
13
48
1
60
0
100
AcDbLine
10
0
20
-51.5875
30
0
11
0
21
-97.675
31
0
39
0
210
0
220
0
230
1
0
LINE
5
165
100
AcDbEntity
8
2
62
256
6
ByLayer
370
13
48
1
60
0
100
AcDbLine
10
110
20
-69.5875
30
0
11
110
21
-97.675
31
0
39
0
210
0
220
0
230
1
0
LINE
5
166
100
AcDbEntity
8
2
62
256
6
ByLayer
370
13
48
1
60
0
100
AcDbLine
10
0
20
-94.5
30
0
11
110
21
-94.5
31
0
39
0
210
0
220
0
230
1
0
LINE
5
167
100
AcDbEntity
8
2
62
256
6
ByLayer
370
13
48
1
60
0
100
AcDbLine
10
0
20
-94.5
30
0
11
3.174997
21
-93.649261
31
0
39
0
210
0
220
0
230
1
0
LINE
5
168
100
AcDbEntity
8
2
62
256
6
ByLayer
370
13
48
1
60
0
100
AcDbLine
10
0
20
-94.5
30
0
11
3.175003
21
-95.350739
31
0
39
0
210
0
220
0
230
1
0
LINE
5
169
100
AcDbEntity
8
2
62
256
6
ByLayer
370
13
48
1
60
0
100
AcDbLine
10
3.174997
20
-93.649261
30
0
11
3.175003
21
-95.350739
31
0
39
0
210
0
220
0
230
1
0
LINE
5
16A
100
AcDbEntity
8
2
62
256
6
ByLayer
370
13
48
1
60
0
100
AcDbLine
10
110
20
-94.5
30
0
11
106.825003
21
-95.350739
31
0
39
0
210
0
220
0
230
1
0
LINE
5
16B
100
AcDbEntity
8
2
62
256
6
ByLayer
370
13
48
1
60
0
100
AcDbLine
10
110
20
-94.5
30
0
11
106.824997
21
-93.649261
31
0
39
0
210
0
220
0
230
1
0
LINE
5
16C
100
AcDbEntity
8
2
62
256
6
ByLayer
370
13
48
1
60
0
100
AcDbLine
10
106.825003
20
-95.350739
30
0
11
106.824997
21
-93.649261
31
0
39
0
210
0
220
0
230
1
0
ENDBLK
5
16E
100
AcDbEntity
8
0
100
AcDbBlockEnd
0
ENDSEC
0
SECTION
2
ENTITIES
0
ARC
5
C0
100
AcDbEntity
8
1
62
256
6
ByLayer
370
18
48
1
60
0
100
AcDbCircle
39
0
10
-36.186138
20
-50.8
30
0
40
0.8
210
0
220
0
230
-1
100
AcDbArc
50
119.665591
51
125.659088
0
ARC
5
C1
100
AcDbEntity
8
SK1
62
256
6
ByLayer
370
18
48
1
60
0
100
AcDbCircle
39
0
10
0.6
20
-38.9
30
0
40
1
210
0
220
0
230
-1
100
AcDbArc
50
113.578178
51
126.869898
0
ARC
5
C2
100
AcDbEntity
8
SK1
62
256
6
ByLayer
370
18
48
1
60
0
100
AcDbCircle
39
0
10
0.6
20
38.9
30
0
40
1
210
0
220
0
230
-1
100
AcDbArc
50
233.130102
51
246.421822
0
ARC
5
C3
100
AcDbEntity
8
1
62
256
6
ByLayer
370
13
48
1
60
0
100
AcDbCircle
39
0
10
81.802229
20
-39.802229
30
0
40
4.5
210
0
220
0
230
1
100
AcDbArc
50
75
51
345
0
ARC
5
C4
100
AcDbEntity
8
1
62
256
6
ByLayer
370
18
48
1
60
0
100
AcDbCircle
39
0
10
63.047818
20
-59.8
30
0
40
10.2
210
0
220
0
230
1
100
AcDbArc
50
60
51
91.660281
0
ARC
5
C5
100
AcDbEntity
8
1
62
256
6
ByLayer
370
18
48
1
60
0
100
AcDbCircle
39
0
10
-96.693898
20
-54.693898
30
0
40
11.5
210
0
220
0
230
-1
100
AcDbArc
50
14.971281
51
75.028722
0
ARC
5
C6
100
AcDbEntity
8
1
62
256
6
ByLayer
370
18
48
1
60
0
100
AcDbCircle
39
0
10
-97.5
20
-55.5
30
0
40
3.6
210
0
220
0
230
-1
100
AcDbArc
50
179.999999
51
348.93
0
ARC
5
C7
100
AcDbEntity
8
1
62
256
6
ByLayer
370
18
48
1
60
0
100
AcDbCircle
39
0
10
-97.5
20
-55.5
30
0
40
3.6
210
0
220
0
230
-1
100
AcDbArc
50
101.345626
51
179.999999
0
ARC
5
C8
100
AcDbEntity
8
1
62
256
6
ByLayer
370
18
48
1
60
0
100
AcDbCircle
39
0
10
-97.5
20
-55.5
30
0
40
3.21519224698779
210
0
220
0
230
-1
100
AcDbArc
50
180.000005
51
215.893138
0
ARC
5
C9
100
AcDbEntity
8
1
62
256
6
ByLayer
370
18
48
1
60
0
100
AcDbCircle
39
0
10
-97.5
20
-55.5
30
0
40
3.21519224698779
210
0
220
0
230
-1
100
AcDbArc
50
221.686883
51
315
0
ARC
5
CA
100
AcDbEntity
8
1
62
256
6
ByLayer
370
18
48
1
60
0
100
AcDbCircle
39
0
10
-97.5
20
-55.5
30
0
40
3.21519224698779
210
0
220
0
230
-1
100
AcDbArc
50
315
51
330.384378
0
ARC
5
CB
100
AcDbEntity
8
1
62
256
6
ByLayer
370
18
48
1
60
0
100
AcDbCircle
39
0
10
-97.5
20
-55.5
30
0
40
3.21519224698779
210
0
220
0
230
-1
100
AcDbArc
50
120.459367
51
179.999987
0
ARC
5
CF
100
AcDbEntity
8
1
62
256
6
ByLayer
370
18
48
1
60
0
100
AcDbCircle
39
0
10
97.58285
20
-55.58285
30
0
40
3.1
210
0
220
0
230
1
100
AcDbArc
50
225
51
286.902062
0
ARC
5
D0
100
AcDbEntity
8
1
62
256
6
ByLayer
370
18
48
1
60
0
100
AcDbCircle
39
0
10
97.5
20
-55.5
30
0
40
3.20383448475946
210
0
220
0
230
1
100
AcDbArc
50
342.111008
51
59.626936
0
ARC
5
D1
100
AcDbEntity
8
1
62
256
6
ByLayer
370
18
48
1
60
0
100
AcDbCircle
39
0
10
97.58285
20
-55.58285
30
0
40
3.1
210
0
220
0
230
1
100
AcDbArc
50
343.097938
51
45
0
ARC
5
D2
100
AcDbEntity
8
1
62
256
6
ByLayer
370
18
48
1
60
0
100
AcDbCircle
39
0
10
97.5
20
-55.5
30
0
40
3.20383448475946
210
0
220
0
230
1
100
AcDbArc
50
210.373064
51
287.888992
0
ARC
5
D3
100
AcDbEntity
8
1
62
256
6
ByLayer
370
18
48
1
60
0
100
AcDbCircle
39
0
10
81.802229
20
-39.802229
30
0
40
2.07
210
0
220
0
230
1
100
AcDbArc
50
57.681921
51
92.318079
0
ARC
5
D4
100
AcDbEntity
8
1
62
256
6
ByLayer
370
18
48
1
60
0
100
AcDbCircle
39
0
10
81.802229
20
-39.802229
30
0
40
2.07
210
0
220
0
230
1
100
AcDbArc
50
117.681921
51
152.318079
0
ARC
5
D5
100
AcDbEntity
8
1
62
256
6
ByLayer
370
18
48
1
60
0
100
AcDbCircle
39
0
10
81.802229
20
-39.802229
30
0
40
2.07
210
0
220
0
230
1
100
AcDbArc
50
297.681921
51
332.318079
0
ARC
5
D6
100
AcDbEntity
8
1
62
256
6
ByLayer
370
18
48
1
60
0
100
AcDbCircle
39
0
10
81.802229
20
-39.802229
30
0
40
2.07
210
0
220
0
230
1
100
AcDbArc
50
177.681921
51
212.318079
0
ARC
5
D8
100
AcDbEntity
8
1
62
256
6
ByLayer
370
18
48
1
60
0
100
AcDbCircle
39
0
10
81.802229
20
-39.802229
30
0
40
2.07
210
0
220
0
230
1
100
AcDbArc
50
272.318079
51
297.681921
0
ARC
5
DA
100
AcDbEntity
8
1
62
256
6
ByLayer
370
18
48
1
60
0
100
AcDbCircle
39
0
10
81.802229
20
-39.802229
30
0
40
2.07
210
0
220
0
230
1
100
AcDbArc
50
332.318079
51
357.681921
0
ARC
5
DB
100
AcDbEntity
8
1
62
256
6
ByLayer
370
18
48
1
60
0
100
AcDbCircle
39
0
10
81.802229
20
-39.802229
30
0
40
2.07
210
0
220
0
230
1
100
AcDbArc
50
92.318079
51
117.681921
0
ARC
5
DC
100
AcDbEntity
8
1
62
256
6
ByLayer
370
18
48
1
60
0
100
AcDbCircle
39
0
10
81.802229
20
-39.802229
30
0
40
2.07
210
0
220
0
230
1
100
AcDbArc
50
357.681921
51
32.318079
0
ARC
5
DD
100
AcDbEntity
8
1
62
256
6
ByLayer
370
18
48
1
60
0
100
AcDbCircle
39
0
10
81.802229
20
-39.802229
30
0
40
2.07
210
0
220
0
230
1
100
AcDbArc
50
212.318079
51
237.681921
0
ARC
5
DE
100
AcDbEntity
8
1
62
256
6
ByLayer
370
18
48
1
60
0
100
AcDbCircle
39
0
10
81.802229
20
-39.802229
30
0
40
2.07
210
0
220
0
230
1
100
AcDbArc
50
32.318079
51
57.681921
0
ARC
5
E0
100
AcDbEntity
8
1
62
256
6
ByLayer
370
18
48
1
60
0
100
AcDbCircle
39
0
10
81.802229
20
-39.802229
30
0
40
2.07
210
0
220
0
230
1
100
AcDbArc
50
237.681921
51
272.318079
0
ARC
5
E1
100
AcDbEntity
8
1
62
256
6
ByLayer
370
18
48
1
60
0
100
AcDbCircle
39
0
10
81.802229
20
-39.802229
30
0
40
2.07
210
0
220
0
230
1
100
AcDbArc
50
152.318079
51
177.681921
0
CIRCLE
5
CC
100
AcDbEntity
8
1
62
256
6
ByLayer
370
18
48
1
60
0
100
AcDbCircle
10
-97.5
20
-55.5
30
0
40
4.55877795760228
39
0
210
0
220
0
230
-1
0
CIRCLE
5
CD
100
AcDbEntity
8
1
62
256
6
ByLayer
370
18
48
1
60
0
100
AcDbCircle
10
97.5
20
-55.5
30
0
40
12.5
39
0
210
0
220
0
230
1
0
CIRCLE
5
CE
100
AcDbEntity
8
1
62
256
6
ByLayer
370
18
48
1
60
0
100
AcDbCircle
10
-96.685287
20
-54.685287
30
0
40
2.647822497
39
0
210
0
220
0
230
-1
0
CIRCLE
5
D7
100
AcDbEntity
8
1
62
256
6
ByLayer
370
18
48
1
60
0
100
AcDbCircle
10
-81.802229
20
-39.802229
30
0
40
2.44239092362731
39
0
210
0
220
0
230
-1
0
CIRCLE
5
D9
100
AcDbEntity
8
1
62
256
6
ByLayer
370
18
48
1
60
0
100
AcDbCircle
10
-81.802229
20
-39.802229
30
0
40
4.235
39
0
210
0
220
0
230
-1
0
CIRCLE
5
DF
100
AcDbEntity
8
1
62
256
6
ByLayer
370
18
48
1
60
0
100
AcDbCircle
10
-81.802229
20
-39.802229
30
0
40
5
39
0
210
0
220
0
230
-1
0
ELLIPSE
5
E2
100
AcDbEntity
8
1
62
256
6
ByLayer
370
18
48
1
60
0
100
AcDbEllipse
10
32.276466
20
-5.028847
30
0
11
0.0630468675835639
21
-6.50094662449602
31
0
210
0
220
0
230
-1
40
0.079216
41
2.45828703706769
42
3.00216003453907
0
ELLIPSE
5
E3
100
AcDbEntity
8
1
62
256
6
ByLayer
370
18
48
1
60
0
100
AcDbEllipse
10
34.883628
20
0
30
0
11
-3.06151588455594E-15
21
50
31
0
210
0
220
0
230
-1
40
0.087489
41
-3.07847320937107
42
-0.0631194442187254
0
ELLIPSE
5
E4
100
AcDbEntity
8
1
62
256
6
ByLayer
370
18
48
1
60
0
100
AcDbEllipse
10
25.312541
20
0
30
0
11
-3.71974179973508E-16
21
-2.02499999999979
31
0
210
0
220
0
230
1
40
0.97437
41
0
42
6.28318530717959
0
ELLIPSE
5
E5
100
AcDbEntity
8
1
62
256
6
ByLayer
370
18
48
1
60
0
100
AcDbEllipse
10
32.276466
20
-5.028847
30
0
11
0.0712703720551646
21
-7.34889618431603
31
0
210
0
220
0
230
-1
40
0.079216
41
-1.13403932470231
42
2.17942723937636
0
ELLIPSE
5
E6
100
AcDbEntity
8
1
62
256
6
ByLayer
370
18
48
1
60
0
100
AcDbEllipse
10
32.276466
20
-5.028847
30
0
11
0.0712703720551646
21
-7.34889618431603
31
0
210
0
220
0
230
-1
40
0.079216
41
-3.00216547494335
42
-1.92358457795424
0
ELLIPSE
5
E7
100
AcDbEntity
8
1
62
256
6
ByLayer
370
18
48
1
60
0
100
AcDbEllipse
10
39.094011
20
0
30
0
11
23.4185446994537
21
49.3543728818737
31
0
210
0
220
0
230
-1
40
0.341999
41
-2.98699413089088
42
-2.04714540389043
0
ELLIPSE
5
E8
100
AcDbEntity
8
1
62
256
6
ByLayer
370
18
48
1
60
0
100
AcDbEllipse
10
-7.094011
20
0
30
0
11
23.4185446994528
21
-49.3543728818727
31
0
210
0
220
0
230
-1
40
0.341999
41
-1.09444724969938
42
-0.154598522698914
0
ELLIPSE
5
E9
100
AcDbEntity
8
1
62
256
6
ByLayer
370
18
48
1
60
0
100
AcDbEllipse
10
25.312541
20
0
30
0
11
-4.59227382683314E-16
21
-2.49999999999958
31
0
210
0
220
0
230
1
40
0.97437
41
0.070587516277468
42
1.57079617974616
0
ELLIPSE
5
EA
100
AcDbEntity
8
1
62
256
6
ByLayer
370
18
48
1
60
0
100
AcDbEllipse
10
25.312541
20
0
30
0
11
-4.59227382683314E-16
21
-2.49999999999958
31
0
210
0
220
0
230
1
40
0.97437
41
1.57079617974616
42
3.14159255297864
0
ELLIPSE
5
EB
100
AcDbEntity
8
1
62
256
6
ByLayer
370
18
48
1
60
0
100
AcDbEllipse
10
39.094011
20
0
30
0
11
23.4185446994526
21
-49.3543728818723
31
0
210
0
220
0
230
-1
40
0.341999
41
2.04714540389041
42
2.98699413089088
0
ELLIPSE
5
EC
100
AcDbEntity
8
1
62
256
6
ByLayer
370
18
48
1
60
0
100
AcDbEllipse
10
-7.094011
20
0
30
0
11
23.4185446994538
21
49.3543728818738
31
0
210
0
220
0
230
-1
40
0.341999
41
0.154598522698913
42
1.09444724969936
0
ELLIPSE
5
ED
100
AcDbEntity
8
1
62
256
6
ByLayer
370
18
48
1
60
0
100
AcDbEllipse
10
29.401009
20
-3.541126
30
0
11
-2.6422632421492
21
-5.10695065172821
31
0
210
0
220
0
230
1
40
0.154722
41
2.41635529269889
42
2.96021788625043
0
ELLIPSE
5
EE
100
AcDbEntity
8
1
62
256
6
ByLayer
370
18
48
1
60
0
100
AcDbEllipse
10
34.648368
20
-6.256034
30
0
11
-1.14881010528226
21
-2.22041332683835
31
0
210
0
220
0
230
1
40
0.154722
41
0
42
3.14159197849298
0
ELLIPSE
5
EF
100
AcDbEntity
8
1
62
256
6
ByLayer
370
18
48
1
60
0
100
AcDbEllipse
10
34.779988
20
-6.324133
30
0
11
1.07988149896533
21
2.08718852722805
31
0
210
0
220
0
230
1
40
0.154722
41
-2.98441444109674
42
-0.157275681815442
0
ELLIPSE
5
F0
100
AcDbEntity
8
1
62
256
6
ByLayer
370
18
48
1
60
0
100
AcDbEllipse
10
25.08759
20
0
30
0
11
-1.10214571844014E-16
21
-0.6
31
0
210
0
220
0
230
1
40
0.97437
41
-3.14159206999768
42
-2.51363722984569E-16
0
ELLIPSE
5
F1
100
AcDbEntity
8
1
62
256
6
ByLayer
370
18
48
1
60
0
100
AcDbEllipse
10
25.08759
20
0
30
0
11
-1.83690953073357E-16
21
-1
31
0
210
0
220
0
230
1
40
0.97437
41
0.11564954289628
42
1.57079617974693
0
ELLIPSE
5
F2
100
AcDbEntity
8
1
62
256
6
ByLayer
370
18
48
1
60
0
100
AcDbEllipse
10
25.08759
20
0
30
0
11
-1.83690953073357E-16
21
-1
31
0
210
0
220
0
230
1
40
0.97437
41
1.57079617974693
42
3.0259428089687
0
ELLIPSE
5
F3
100
AcDbEntity
8
1
62
256
6
ByLayer
370
18
48
1
60
0
100
AcDbEllipse
10
25.312541
20
0
30
0
11
-3.67381906146713E-16
21
-2
31
0
210
0
220
0
230
1
40
0.97437
41
0
42
6.28318530717959
0
ELLIPSE
5
F4
100
AcDbEntity
8
1
62
256
6
ByLayer
370
18
48
1
60
0
100
AcDbEllipse
10
25.312541
20
0
30
0
11
-1.83690953073357E-16
21
-1
31
0
210
0
220
0
230
1
40
0.97437
41
0
42
6.28318530717959
0
ELLIPSE
5
F5
100
AcDbEntity
8
1
62
256
6
ByLayer
370
18
48
1
60
0
100
AcDbEllipse
10
25.155076
20
0
30
0
11
-1.10214571844014E-16
21
-0.6
31
0
210
0
220
0
230
1
40
0.97437
41
0
42
6.28318530717959
0
POINT
5
6C
100
AcDbEntity
8
80
62
256
6
ByLayer
370
18
48
1
60
0
100
AcDbPoint
10
0
20
0
30
0
39
0
210
0
220
0
230
1
50
360
0
POINT
5
6E
100
AcDbEntity
8
81
62
256
6
ByLayer
370
18
48
1
60
0
100
AcDbPoint
10
110
20
-68
30
0
39
0
210
0
220
0
230
1
50
360
0
POINT
5
70
100
AcDbEntity
8
1
62
256
6
ByLayer
370
18
48
1
60
0
100
AcDbPoint
10
0
20
0
30
0
39
0
210
0
220
0
230
1
50
360
0
SPLINE
5
F6
100
AcDbEntity
8
SK1
62
256
6
ByLayer
370
18
48
1
60
0
100
AcDbSpline
70
4
71
2
72
6
73
3
40
0
40
0
40
0
40
1
40
1
40
1
41
1
10
-58
20
-34.5974182144316
30
0
41
1
10
-30.1000000000006
20
-35.2979600359712
30
0
41
1
10
-2.20000000000002
20
-35.9985019194102
30
0
0
SPLINE
5
F7
100
AcDbEntity
8
SK1
62
256
6
ByLayer
370
18
48
1
60
0
100
AcDbSpline
70
4
71
2
72
6
73
3
40
0
40
0
40
0
40
1
40
1
40
1
41
1
10
-2.19999999999999
20
35.9985021134432
30
0
41
1
10
-30.1000000000001
20
35.2979624159374
30
0
41
1
10
-58
20
34.5974227787246
30
0
0
SPLINE
5
F8
100
AcDbEntity
8
SK1
62
256
6
ByLayer
370
18
48
1
60
0
100
AcDbSpline
70
4
71
3
72
13
73
9
40
0
40
0
40
0
40
0
40
0.239456597696456
40
0.368360333414212
40
0.499999646097612
40
0.631639017852278
40
0.760542916289309
40
1
40
1
40
1
40
1
41
1
10
-2.20000000000002
20
-36.020098714425
30
0
41
1
10
-2.19909199362428
20
-35.994041143702
30
0
41
1
10
-2.19103284825081
20
-35.956668418702
30
0
41
1
10
-2.16563593150642
20
-35.9104490513902
30
0
41
1
10
-2.13886379933893
20
-35.8791673697465
30
0
41
1
10
-2.10627714095583
20
-35.8539998944634
30
0
41
1
10
-2.05884066056882
20
-35.8309559959591
30
0
41
1
10
-2.02111031829247
20
-35.8247837166445
30
0
41
1
10
-1.99503997793931
20
-35.8251853523286
30
0
0
SPLINE
5
F9
100
AcDbEntity
8
SK1
62
256
6
ByLayer
370
18
48
1
60
0
100
AcDbSpline
70
4
71
3
72
13
73
9
40
0
40
0
40
0
40
0
40
0.239457532542271
40
0.368361585145929
40
0.500001016451157
40
0.631640278503927
40
0.760543864569086
40
1
40
1
40
1
40
1
41
1
10
-1.99503997793931
20
35.8251861518663
30
0
41
1
10
-2.02111030872339
20
35.8247845119233
30
0
41
1
10
-2.05884064232768
20
35.8309567669304
30
0
41
1
10
-2.10627712748942
20
35.85400056933
30
0
41
1
10
-2.13886378678402
20
35.8791679394554
30
0
41
1
10
-2.16563592202687
20
35.9104494932212
30
0
41
1
10
-2.19103284106407
20
35.9566686669141
30
0
41
1
10
-2.19909198641739
20
35.9940412511456
30
0
41
1
10
-2.19999999999999
20
36.0200987271899
30
0
0
SPLINE
5
FA
100
AcDbEntity
8
SK1
62
256
6
ByLayer
370
18
48
1
60
0
100
AcDbSpline
70
4
71
2
72
6
73
3
40
0
40
0
40
0
40
1
40
1
40
1
41
1
10
-1.99503997793931
20
-35.8251729954496
30
0
41
1
10
-1.19500843340731
20
-35.8452725233881
30
0
41
1
10
-0.394976888875306
20
-35.8653720513261
30
0
0
SPLINE
5
FB
100
AcDbEntity
8
SK1
62
256
6
ByLayer
370
18
48
1
60
0
100
AcDbSpline
70
4
71
2
72
6
73
3
40
0
40
0
40
0
40
1
40
1
40
1
41
1
10
-0.394976888875277
20
35.8653726648781
30
0
41
1
10
-1.19500843340728
20
35.845273220757
30
0
41
1
10
-1.99503997793931
20
35.8251737766339
30
0
0
SPLINE
5
FC
100
AcDbEntity
8
SK1
62
256
6
ByLayer
370
18
48
1
60
0
100
AcDbSpline
70
4
71
3
72
13
73
9
40
0
40
0
40
0
40
0
40
0.0719354309887394
40
0.222834958041856
40
0.39091995118593
40
0.574614657406642
40
0.772352294942592
40
1
40
1
40
1
40
1
41
1
10
-0.243145327530556
20
22.8862638343572
30
0
41
1
10
-0.244623999394321
20
23.0977281498237
30
0
41
1
10
-0.24917419998431
20
23.7446572089526
30
0
41
1
10
-0.256904385742274
20
24.8281095053064
30
0
41
1
10
-0.266779687493425
20
26.1598685344734
30
0
41
1
10
-0.277494249433005
20
27.528040061817
30
0
41
1
10
-0.289335695416781
20
28.9474232101798
30
0
41
1
10
-0.297567240826055
20
29.8400010434283
30
0
41
1
10
-0.301962419063301
20
30.2914950301177
30
0
0
SPLINE
5
FD
100
AcDbEntity
8
SK1
62
256
6
ByLayer
370
18
48
1
60
0
100
AcDbSpline
70
4
71
3
72
15
73
11
40
0
40
0
40
0
40
0
40
0.0431519861022758
40
0.22125154990461
40
0.388780709949744
40
0.544416936523474
40
0.686836803027471
40
0.814708003244822
40
0.926702152017656
40
1
40
1
40
1
40
1
41
1
10
-0.303542371733329
20
-30.32305159239
30
0
41
1
10
-0.302558609433817
20
-30.2236255302988
30
0
41
1
10
-0.297511026085459
20
-29.7044723109682
30
0
41
1
10
-0.288589433500391
20
-28.6714331615965
30
0
41
1
10
-0.277071290094881
20
-27.2604897539553
30
0
41
1
10
-0.266337672013179
20
-25.8452466779775
30
0
41
1
10
-0.256475067981597
20
-24.473167260149
30
0
41
1
10
-0.247510695440354
20
-23.1769372477406
30
0
41
1
10
-0.240055909397483
20
-22.0714261561102
30
0
41
1
10
-0.235394926117635
20
-21.3935450568635
30
0
41
1
10
-0.233523737469227
20
-21.121893713144
30
0
0
SPLINE
5
FE
100
AcDbEntity
8
SK1
62
256
6
ByLayer
370
18
48
1
60
0
100
AcDbSpline
70
4
71
2
72
6
73
3
40
0
40
0
40
0
40
1
40
1
40
1
41
1
10
-60
20
-33.4633340188486
30
0
41
1
10
-59.0000000015328
20
-34.0406784545941
30
0
41
1
10
-58
20
-34.6180228183431
30
0
0
SPLINE
5
FF
100
AcDbEntity
8
SK1
62
256
6
ByLayer
370
18
48
1
60
0
100
AcDbSpline
70
4
71
2
72
6
73
3
40
0
40
0
40
0
40
1
40
1
40
1
41
1
10
-58
20
34.6180277609945
30
0
41
1
10
-58.9999999990911
20
34.0406853811666
30
0
41
1
10
-60
20
33.4633429309407
30
0
0
SPLINE
5
100
100
AcDbEntity
8
SK1
62
256
6
ByLayer
370
18
48
1
60
0
100
AcDbSpline
70
4
71
3
72
321
73
317
40
0
40
0
40
0
40
0
40
0.0022722255652512
40
0.0057231496712249
40
0.0091740737771985
40
0.0126249978831722
40
0.0160759219891458
40
0.0195268460951195
40
0.0229777702010931
40
0.0264286943070667
40
0.0298796184130404
40
0.033330542519014
40
0.0367814666249877
40
0.0402323907309614
40
0.0436833148369349
40
0.0471342389429086
40
0.0505851630488823
40
0.0574870112608296
40
0.0609379353668032
40
0.0643888594727768
40
0.0678397835787505
40
0.0712907076847241
40
0.0747416317906978
40
0.0781925558966714
40
0.081643480002645
40
0.0850944041086187
40
0.0885453282145923
40
0.0919962523205659
40
0.0988981005325132
40
0.102349024638487
40
0.104074486691474
40
0.10579994874446
40
0.109250872850434
40
0.112701796956408
40
0.119603645168355
40
0.123054569274329
40
0.126505493380302
40
0.13340734159225
40
0.140309189804197
40
0.14376011391017
40
0.147211038016144
40
0.150661962122118
40
0.154112886228091
40
0.161014734440039
40
0.167916582651986
40
0.17136750675796
40
0.174818430863933
40
0.181720279075881
40
0.188622127287828
40
0.195523975499775
40
0.198974899605749
40
0.202425823711722
40
0.205876747817696
40
0.20932767192367
40
0.216229520135617
40
0.223131368347564
40
0.226582292453538
40
0.230033216559512
40
0.233484140665485
40
0.236935064771459
40
0.243836912983406
40
0.250738761195353
40
0.257640609407301
40
0.261091533513274
40
0.264542457619248
40
0.271444305831195
40
0.278346154043143
40
0.281797078149116
40
0.28524800225509
40
0.288698926361063
40
0.292149850467037
40
0.299051698678984
40
0.302502622784958
40
0.305953546890932
40
0.309404470996905
40
0.312855395102879
40
0.319757243314826
40
0.3232081674208
40
0.326659091526774
40
0.330110015632747
40
0.333560939738721
40
0.340462787950668
40
0.343913712056642
40
0.347364636162615
40
0.350815560268589
40
0.354266484374563
40
0.355991946427549
40
0.357717408480536
40
0.36116833258651
40
0.364619256692484
40
0.368070180798457
40
0.371521104904431
40
0.374972029010405
40
0.378422953116378
40
0.381873877222352
40
0.383599339275339
40
0.385324801328325
40
0.388775725434299
40
0.392226649540273
40
0.395677573646246
40
0.39912849775222
40
0.402579421858194
40
0.406030345964167
40
0.409481270070141
40
0.412932194176114
40
0.416383118282088
40
0.419834042388062
40
0.423284966494036
40
0.426735890600009
40
0.430186814705983
40
0.433637738811956
40
0.43708866291793
40
0.438814124970917
40
0.440539587023904
40
0.443990511129877
40
0.447441435235851
40
0.449166897288838
40
0.450892359341825
40
0.454343283447798
40
0.457794207553772
40
0.459519669606759
40
0.461245131659746
40
0.462970593712732
40
0.464696055765719
40
0.466421517818706
40
0.468146979871693
40
0.469009710898186
40
0.469872441924679
40
0.471597903977666
40
0.47246063500416
40
0.473323366030653
40
0.47504882808364
40
0.476774290136627
40
0.47763702116312
40
0.478499752189614
40
0.479362483216107
40
0.480225214242601
40
0.481950676295587
40
0.482813407322081
40
0.483676138348574
40
0.484538869375068
40
0.485401600401561
40
0.486264331428054
40
0.487127062454548
40
0.488852524507535
40
0.489715255534028
40
0.490577986560521
40
0.492303448613508
40
0.493166179640002
40
0.494028910666495
40
0.494891641692988
40
0.495754372719482
40
0.497479834772469
40
0.499205296825456
40
0.500068027851949
40
0.500930758878442
40
0.501793489904936
40
0.502656220931429
40
0.504381682984416
40
0.505244414010909
40
0.506107145037403
40
0.506969876063896
40
0.50783260709039
40
0.509558069143377
40
0.51042080016987
40
0.511283531196363
40
0.512146262222857
40
0.51300899324935
40
0.514734455302337
40
0.516459917355324
40
0.517322648381817
40
0.518185379408311
40
0.519048110434804
40
0.519910841461297
40
0.521636303514284
40
0.523361765567271
40
0.525087227620258
40
0.526812689673245
40
0.528538151726231
40
0.529400882752725
40
0.530263613779218
40
0.531126344805712
40
0.531989075832205
40
0.532851806858699
40
0.533714537885192
40
0.534577268911685
40
0.535439999938179
40
0.537165461991166
40
0.538890924044152
40
0.539753655070646
40
0.540616386097139
40
0.542341848150126
40
0.54320457917662
40
0.544067310203113
40
0.5457927722561
40
0.547518234309086
40
0.549243696362073
40
0.55096915841506
40
0.552694620468047
40
0.554420082521034
40
0.557871006627007
40
0.561321930732981
40
0.563047392785968
40
0.564772854838955
40
0.568223778944928
40
0.571674703050902
40
0.573400165103889
40
0.575125627156875
40
0.578576551262849
40
0.580302013315836
40
0.582027475368823
40
0.585478399474797
40
0.58892932358077
40
0.592380247686744
40
0.595831171792718
40
0.599282095898691
40
0.601007557951678
40
0.602733020004665
40
0.606183944110638
40
0.609634868216612
40
0.613085792322586
40
0.616536716428559
40
0.619987640534533
40
0.623438564640507
40
0.62688948874648
40
0.630340412852454
40
0.633791336958427
40
0.637242261064401
40
0.640693185170375
40
0.644144109276349
40
0.651045957488296
40
0.654496881594269
40
0.656222343647256
40
0.657947805700243
40
0.661398729806217
40
0.66484965391219
40
0.668300578018164
40
0.671751502124138
40
0.678653350336085
40
0.682104274442059
40
0.685555198548032
40
0.689006122654006
40
0.69245704675998
40
0.699358894971927
40
0.7028098190779
40
0.706260743183874
40
0.709711667289848
40
0.713162591395821
40
0.720064439607768
40
0.723515363713742
40
0.726966287819716
40
0.73041721192569
40
0.733868136031663
40
0.740769984243611
40
0.747671832455558
40
0.751122756561531
40
0.754573680667505
40
0.761475528879452
40
0.7683773770914
40
0.775279225303347
40
0.778730149409321
40
0.782181073515294
40
0.785631997621268
40
0.789082921727241
40
0.795984769939189
40
0.802886618151136
40
0.80633754225711
40
0.809788466363083
40
0.813239390469057
40
0.816690314575031
40
0.823592162786978
40
0.830494010998925
40
0.837395859210872
40
0.840846783316846
40
0.84429770742282
40
0.851199555634767
40
0.858101403846714
40
0.861552327952688
40
0.865003252058662
40
0.868454176164635
40
0.871905100270609
40
0.878806948482556
40
0.885708796694503
40
0.889159720800477
40
0.892610644906451
40
0.899512493118398
40
0.902963417224372
40
0.906414341330345
40
0.908139803383332
40
0.909865265436319
40
0.913316189542292
40
0.92021803775424
40
0.923668961860213
40
0.927119885966187
40
0.930570810072161
40
0.934021734178134
40
0.937472658284108
40
0.940923582390082
40
0.944374506496055
40
0.947825430602029
40
0.951276354708002
40
0.954727278813976
40
0.95817820291995
40
0.961629127025924
40
0.965080051131897
40
0.968530975237871
40
0.971981899343844
40
0.975432823449818
40
0.978883747555792
40
0.982334671661765
40
0.985785595767739
40
0.989236519873713
40
0.992687443979686
40
0.99613836808566
40
0.999589292191634
40
1
40
1
40
1
40
1
41
1
10
-60
20
33.4556558926328
30
0
41
1
10
-60
20
33.4576332388083
30
0
41
1
10
-60
20
33.4616638248215
30
0
41
1
10
-60
20
33.4643410509435
30
0
41
1
10
-60
20
33.4623133815696
30
0
41
1
10
-60
20
33.4553334593645
30
0
41
1
10
-60
20
33.4434921454555
30
0
41
1
10
-60
20
33.4268774268509
30
0
41
1
10
-60
20
33.4055717280174
30
0
41
1
10
-60
20
33.3796553140389
30
0
41
1
10
-60
20
33.3492037178841
30
0
41
1
10
-60
20
33.3142895381611
30
0
41
1
10
-60
20
33.2749830705361
30
0
41
1
10
-60
20
33.2313495484921
30
0
41
1
10
-60
20
33.1834545182116
30
0
41
1
10
-60
20
33.1313576224893
30
0
41
1
10
-60
20
33.0560855188702
30
0
41
1
10
-60
20
32.9735372025895
30
0
41
1
10
-60
20
32.8821013415762
30
0
41
1
10
-60
20
32.8098349743486
30
0
41
1
10
-60
20
32.733688775323
30
0
41
1
10
-60
20
32.6537081477481
30
0
41
1
10
-60
20
32.5699376540554
30
0
41
1
10
-60
20
32.4824210440017
30
0
41
1
10
-60
20
32.3912001164081
30
0
41
1
10
-60
20
32.2963152268368
30
0
41
1
10
-60
20
32.1978052794718
30
0
41
1
10
-60
20
32.0612248425865
30
0
41
1
10
-60
20
31.9189181156055
30
0
41
1
10
-60
20
31.7872672789306
30
0
41
1
10
-60
20
31.7102043249634
30
0
41
1
10
-60
20
31.6319918777348
30
0
41
1
10
-60
20
31.5326481176695
30
0
41
1
10
-60
20
31.3682719173466
30
0
41
1
10
-60
20
31.1987551463809
30
0
41
1
10
-60
20
31.0210528170066
30
0
41
1
10
-60
20
30.8389711768625
30
0
41
1
10
-60
20
30.6045149696702
30
0
41
1
10
-60
20
30.3594550872206
30
0
41
1
10
-60
20
30.1560458164262
30
0
41
1
10
-60
20
30.0008163011261
30
0
41
1
10
-60
20
29.8424884168047
30
0
41
1
10
-60
20
29.6266492024767
30
0
41
1
10
-60
20
29.3506439800406
30
0
41
1
10
-60
20
29.0646239872063
30
0
41
1
10
-60
20
28.8286459848585
30
0
41
1
10
-60
20
28.588711970395
30
0
41
1
10
-60
20
28.2830119047979
30
0
41
1
10
-60
20
27.9037227355801
30
0
41
1
10
-60
20
27.5788289346229
30
0
41
1
10
-60
20
27.3118865150179
30
0
41
1
10
-60
20
27.1094249342747
30
0
41
1
10
-60
20
26.9041562227329
30
0
41
1
10
-60
20
26.6259536097734
30
0
41
1
10
-60
20
26.2730451104148
30
0
41
1
10
-60
20
25.910989789073
30
0
41
1
10
-60
20
25.6143967365825
30
0
41
1
10
-60
20
25.389872788346
30
0
41
1
10
-60
20
25.1626504323296
30
0
41
1
10
-60
20
24.8552336369894
30
0
41
1
10
-60
20
24.4662671647181
30
0
41
1
10
-60
20
23.9878313987672
30
0
41
1
10
-60
20
23.581309600239
30
0
41
1
10
-60
20
23.249168845647
30
0
41
1
10
-60
20
22.9135633071667
30
0
41
1
10
-60
20
22.4898084449714
30
0
41
1
10
-60
20
22.0575119779296
30
0
41
1
10
-60
20
21.7047294419233
30
0
41
1
10
-60
20
21.4383936907813
30
0
41
1
10
-60
20
21.1695327729883
30
0
41
1
10
-60
20
20.8066187564656
30
0
41
1
10
-60
20
20.4419941243112
30
0
41
1
10
-60
20
20.0690271785162
30
0
41
1
10
-60
20
19.787682750911
30
0
41
1
10
-60
20
19.5038694602985
30
0
41
1
10
-60
20
19.1209962837445
30
0
41
1
10
-60
20
18.7368339912086
30
0
41
1
10
-60
20
18.3441159235589
30
0
41
1
10
-60
20
18.0480997672743
30
0
41
1
10
-60
20
17.7496716294469
30
0
41
1
10
-60
20
17.3472727105996
30
0
41
1
10
-60
20
16.9440675389051
30
0
41
1
10
-60
20
16.532035620606
30
0
41
1
10
-60
20
16.2216969743561
30
0
41
1
10
-60
20
15.9090090330769
30
0
41
1
10
-60
20
15.6472013716544
30
0
41
1
10
-60
20
15.4352759364928
30
0
41
1
10
-60
20
15.2225823733162
30
0
41
1
10
-60
20
14.9569585815733
30
0
41
1
10
-60
20
14.6349879089581
30
0
41
1
10
-60
20
14.3107292402958
30
0
41
1
10
-60
20
13.9841958759155
30
0
41
1
10
-60
20
13.6554023236347
30
0
41
1
10
-60
20
13.3243664763057
30
0
41
1
10
-60
20
13.0474865550707
30
0
41
1
10
-60
20
12.8233283675937
30
0
41
1
10
-60
20
12.5984437652583
30
0
41
1
10
-60
20
12.3179771615538
30
0
41
1
10
-60
20
11.9781527958057
30
0
41
1
10
-60
20
11.6361816637219
30
0
41
1
10
-60
20
11.292092379822
30
0
41
1
10
-60
20
10.945908859449
30
0
41
1
10
-60
20
10.5976625981365
30
0
41
1
10
-60
20
10.2473847821601
30
0
41
1
10
-60
20
9.89511131375596
30
0
41
1
10
-60
20
9.54088172151239
30
0
41
1
10
-60
20
9.18473899017405
30
0
41
1
10
-60
20
8.82673234426119
30
0
41
1
10
-60
20
8.46691508480725
30
0
41
1
10
-60
20
8.10534831886906
30
0
41
1
10
-60
20
7.74209991377398
30
0
41
1
10
-60
20
7.43933366074933
30
0
41
1
10
-60
20
7.19392383197427
30
0
41
1
10
-60
20
6.94806390056186
30
0
41
1
10
-60
20
6.64308245049978
30
0
41
1
10
-60
20
6.33692354274461
30
0
41
1
10
-60
20
6.08866434779785
30
0
41
1
10
-60
20
5.84008609772042
30
0
41
1
10
-60
20
5.53238372840596
30
0
41
1
10
-60
20
5.22383853567212
30
0
41
1
10
-60
20
4.97352607912165
30
0
41
1
10
-60
20
4.78702154756598
30
0
41
1
10
-60
20
4.60040605057171
30
0
41
1
10
-60
20
4.41369717399607
30
0
41
1
10
-60
20
4.22693988185344
30
0
41
1
10
-60
20
4.07226259629715
30
0
41
1
10
-60
20
3.94669383078133
30
0
41
1
10
-60
20
3.82116954124061
30
0
41
1
10
-60
20
3.69883107629954
30
0
41
1
10
-60
20
3.57328747913138
30
0
41
1
10
-60
20
3.44781059563368
30
0
41
1
10
-60
20
3.2935863807572
30
0
41
1
10
-60
20
3.13944522665
30
0
41
1
10
-60
20
3.01413837924022
30
0
41
1
10
-60
20
2.92113732640237
30
0
41
1
10
-60
20
2.828199854958
30
0
41
1
10
-60
20
2.70315242408563
30
0
41
1
10
-60
20
2.58203066540028
30
0
41
1
10
-60
20
2.45723012695294
30
0
41
1
10
-60
20
2.36470328144031
30
0
41
1
10
-60
20
2.27228576896138
30
0
41
1
10
-60
20
2.17998802306417
30
0
41
1
10
-60
20
2.08778698627512
30
0
41
1
10
-60
20
1.96363390475224
30
0
41
1
10
-60
20
1.84396791149476
30
0
41
1
10
-60
20
1.72020377819325
30
0
41
1
10
-60
20
1.59663706390086
30
0
41
1
10
-60
20
1.47780824879953
30
0
41
1
10
-60
20
1.35466991435547
30
0
41
1
10
-60
20
1.26362007097097
30
0
41
1
10
-60
20
1.17270141325398
30
0
41
1
10
-60
20
1.05008260157575
30
0
41
1
10
-60
20
0.900734180171582
30
0
41
1
10
-60
20
0.751709618123783
30
0
41
1
10
-60
20
0.629727249897627
30
0
41
1
10
-60
20
0.539591484049993
30
0
41
1
10
-60
20
0.44953312334124
30
0
41
1
10
-60
20
0.327862446496681
30
0
41
1
10
-60
20
0.211387195797528
30
0
41
1
10
-60
20
0.0898518914115414
30
0
41
1
10
-60
20
2.33089281E-08
30
0
41
1
10
-60
20
-0.0898518818022183
30
0
41
1
10
-60
20
-0.211387173079885
30
0
41
1
10
-60
20
-0.327862410199032
30
0
41
1
10
-60
20
-0.44953315485472
30
0
41
1
10
-60
20
-0.539591448084224
30
0
41
1
10
-60
20
-0.62972719061122
30
0
41
1
10
-60
20
-0.751709598313113
30
0
41
1
10
-60
20
-0.900734187142177
30
0
41
1
10
-60
20
-1.0500826028476
30
0
41
1
10
-60
20
-1.17270128769019
30
0
41
1
10
-60
20
-1.26362007709335
30
0
41
1
10
-60
20
-1.35466986733158
30
0
41
1
10
-60
20
-1.47780889967763
30
0
41
1
10
-60
20
-1.62866356892962
30
0
41
1
10
-60
20
-1.81195714590723
30
0
41
1
10
-60
20
-1.99575931518561
30
0
41
1
10
-60
20
-2.18003829088596
30
0
41
1
10
-60
20
-2.33258035694226
30
0
41
1
10
-60
20
-2.45723438857442
30
0
41
1
10
-60
20
-2.54984007971643
30
0
41
1
10
-60
20
-2.64253286485462
30
0
41
1
10
-60
20
-2.7353239097923
30
0
41
1
10
-60
20
-2.82819892922643
30
0
41
1
10
-60
20
-2.92113717428765
30
0
41
1
10
-60
20
-3.01413856990274
30
0
41
1
10
-60
20
-3.13944522556258
30
0
41
1
10
-60
20
-3.29358598452407
30
0
41
1
10
-60
20
-3.44781022267122
30
0
41
1
10
-60
20
-3.5732874884844
30
0
41
1
10
-60
20
-3.6988314347083
30
0
41
1
10
-60
20
-3.82116995532769
30
0
41
1
10
-60
20
-3.94669401081839
30
0
41
1
10
-60
20
-4.0722623942265
30
0
41
1
10
-60
20
-4.22693940902749
30
0
41
1
10
-60
20
-4.41369698550008
30
0
41
1
10
-60
20
-4.60040635681671
30
0
41
1
10
-60
20
-4.7870219387934
30
0
41
1
10
-60
20
-4.97352604952792
30
0
41
1
10
-60
20
-5.22383810629833
30
0
41
1
10
-60
20
-5.53238377279544
30
0
41
1
10
-60
20
-5.8400864784706
30
0
41
1
10
-60
20
-6.08866423546834
30
0
41
1
10
-60
20
-6.33692316417088
30
0
41
1
10
-60
20
-6.64308259789806
30
0
41
1
10
-60
20
-6.94806448980088
30
0
41
1
10
-60
20
-7.19392396234309
30
0
41
1
10
-60
20
-7.43933366870848
30
0
41
1
10
-60
20
-7.67989586792564
30
0
41
1
10
-60
20
-7.92361107948267
30
0
41
1
10
-60
20
-8.16680647555478
30
0
41
1
10
-60
20
-8.46691182410564
30
0
41
1
10
-60
20
-8.82673137604746
30
0
41
1
10
-60
20
-9.18474212579679
30
0
41
1
10
-60
20
-9.54088275359163
30
0
41
1
10
-60
20
-9.83493450522627
30
0
41
1
10
-60
20
-10.0711726122456
30
0
41
1
10
-60
20
-10.3067727719092
30
0
41
1
10
-60
20
-10.5976628395392
30
0
41
1
10
-60
20
-10.9459088896872
30
0
41
1
10
-60
20
-11.2920923090958
30
0
41
1
10
-60
20
-11.6361817696307
30
0
41
1
10
-60
20
-11.9781526643528
30
0
41
1
10
-60
20
-12.3179774972949
30
0
41
1
10
-60
20
-12.6556361459602
30
0
41
1
10
-60
20
-12.991105740016
30
0
41
1
10
-60
20
-13.3243668024954
30
0
41
1
10
-60
20
-13.6554036731856
30
0
41
1
10
-60
20
-13.9841945283397
30
0
41
1
10
-60
20
-14.421206512195
30
0
41
1
10
-60
20
-14.8489195414718
30
0
41
1
10
-60
20
-15.2225823214827
30
0
41
1
10
-60
20
-15.4352759723945
30
0
41
1
10
-60
20
-15.647201356186
30
0
41
1
10
-60
20
-15.9090090125604
30
0
41
1
10
-60
20
-16.2216969814831
30
0
41
1
10
-60
20
-16.5320355896629
30
0
41
1
10
-60
20
-16.9440675257307
30
0
41
1
10
-60
20
-17.3472727170548
30
0
41
1
10
-60
20
-17.7496716428444
30
0
41
1
10
-60
20
-18.0480997821431
30
0
41
1
10
-60
20
-18.3441158768435
30
0
41
1
10
-60
20
-18.7368339915895
30
0
41
1
10
-60
20
-19.120996273923
30
0
41
1
10
-60
20
-19.5038694802314
30
0
41
1
10
-60
20
-19.7876827545796
30
0
41
1
10
-60
20
-20.0690271428399
30
0
41
1
10
-60
20
-20.441994127766
30
0
41
1
10
-60
20
-20.8066187451665
30
0
41
1
10
-60
20
-21.1695327858038
30
0
41
1
10
-60
20
-21.4383937008238
30
0
41
1
10
-60
20
-21.7047294118794
30
0
41
1
10
-60
20
-22.0575119733736
30
0
41
1
10
-60
20
-22.4898084525806
30
0
41
1
10
-60
20
-22.9135633086718
30
0
41
1
10
-60
20
-23.2491688314427
30
0
41
1
10
-60
20
-23.5813095953077
30
0
41
1
10
-60
20
-23.9878314099488
30
0
41
1
10
-60
20
-24.4662671557057
30
0
41
1
10
-60
20
-24.8552336352658
30
0
41
1
10
-60
20
-25.1626504358649
30
0
41
1
10
-60
20
-25.3898727930232
30
0
41
1
10
-60
20
-25.6143967303269
30
0
41
1
10
-60
20
-25.9109897889272
30
0
41
1
10
-60
20
-26.2730451134658
30
0
41
1
10
-60
20
-26.6259536079636
30
0
41
1
10
-60
20
-26.9041562278049
30
0
41
1
10
-60
20
-27.1094249332373
30
0
41
1
10
-60
20
-27.3118865130228
30
0
41
1
10
-60
20
-27.5788289362021
30
0
41
1
10
-60
20
-27.9037227393039
30
0
41
1
10
-60
20
-28.2830119086102
30
0
41
1
10
-60
20
-28.5887119662347
30
0
41
1
10
-60
20
-28.8286459978862
30
0
41
1
10
-60
20
-29.0646239922872
30
0
41
1
10
-60
20
-29.3506439793956
30
0
41
1
10
-60
20
-29.626649201014
30
0
41
1
10
-60
20
-29.8424884317765
30
0
41
1
10
-60
20
-30.000816311555
30
0
41
1
10
-60
20
-30.1560458056576
30
0
41
1
10
-60
20
-30.3594550888042
30
0
41
1
10
-60
20
-30.6045149784548
30
0
41
1
10
-60
20
-30.8389711933591
30
0
41
1
10
-60
20
-31.0210528094401
30
0
41
1
10
-60
20
-31.1987551464293
30
0
41
1
10
-60
20
-31.3682719258243
30
0
41
1
10
-60
20
-31.5326481340748
30
0
41
1
10
-60
20
-31.6319918952805
30
0
41
1
10
-60
20
-31.7102043239203
30
0
41
1
10
-60
20
-31.7872672700223
30
0
41
1
10
-60
20
-31.9189181186464
30
0
41
1
10
-60
20
-32.061224849943
30
0
41
1
10
-60
20
-32.1978052933397
30
0
41
1
10
-60
20
-32.2963152464944
30
0
41
1
10
-60
20
-32.3912001013677
30
0
41
1
10
-60
20
-32.4824210694835
30
0
41
1
10
-60
20
-32.5699376718859
30
0
41
1
10
-60
20
-32.6537080260487
30
0
41
1
10
-60
20
-32.7336889066932
30
0
41
1
10
-60
20
-32.8098354129061
30
0
41
1
10
-60
20
-32.8821009542705
30
0
41
1
10
-60
20
-32.9504372229349
30
0
41
1
10
-60
20
-33.0147937722119
30
0
41
1
10
-60
20
-33.0751182914419
30
0
41
1
10
-60
20
-33.1313576691056
30
0
41
1
10
-60
20
-33.1834545172445
30
0
41
1
10
-60
20
-33.2313494864308
30
0
41
1
10
-60
20
-33.2749830986899
30
0
41
1
10
-60
20
-33.3142894793406
30
0
41
1
10
-60
20
-33.3492037179871
30
0
41
1
10
-60
20
-33.3796552925038
30
0
41
1
10
-60
20
-33.4055716886024
30
0
41
1
10
-60
20
-33.4268774387512
30
0
41
1
10
-60
20
-33.443492082087
30
0
41
1
10
-60
20
-33.4518270688396
30
0
41
1
10
-60
20
-33.4552356687958
30
0
41
1
10
-60
20
-33.4555868357828
30
0
0
SPLINE
5
101
100
AcDbEntity
8
SK1
62
256
6
ByLayer
370
18
48
1
60
0
100
AcDbSpline
70
4
71
3
72
26
73
22
40
0
40
0
40
0
40
0
40
0.25
40
0.25
40
0.5
40
0.5
40
0.624999999999999
40
0.624999999999999
40
0.687499999999999
40
0.687499999999999
40
0.749999999999999
40
0.749999999999999
40
0.812499999999999
40
0.812499999999999
40
0.874999999999999
40
0.874999999999999
40
0.906249999999999
40
0.906249999999999
40
0.9375
40
0.9375
40
1
40
1
40
1
40
1
41
1
10
-1.30710678118655
20
4.60538005832734
30
0
41
1
10
-1.27841932930974
20
4.77334296698427
30
0
41
1
10
-1.24568573836763
20
4.93989365706821
30
0
41
1
10
-1.16755021864049
20
5.26941198485821
30
0
41
1
10
-1.12236330163586
20
5.43277058328295
30
0
41
1
10
-1.03736348465083
20
5.67036427900956
30
0
41
1
10
-1.00612384847767
20
5.74840054491565
30
0
41
1
10
-0.951664768597595
20
5.86260604873686
30
0
41
1
10
-0.932227264069724
20
5.90019356697593
30
0
41
1
10
-0.889529369037234
20
5.97397527026539
30
0
41
1
10
-0.866205195590851
20
6.01027560258413
30
0
41
1
10
-0.814627264862736
20
6.07870671929965
30
0
41
1
10
-0.786411999023983
20
6.1111217268699
30
0
41
1
10
-0.720237073541199
20
6.16880021462495
30
0
41
1
10
-0.682055653727019
20
6.19377677065566
30
0
41
1
10
-0.618548195707604
20
6.2138485285848
30
0
41
1
10
-0.595883870694621
20
6.21761323445151
30
0
41
1
10
-0.551151188429913
20
6.21761557504371
30
0
41
1
10
-0.528825837373574
20
6.2139344035941
30
0
41
1
10
-0.465027161701215
20
6.1937394816872
30
0
41
1
10
-0.42778137096397
20
6.16911732468003
30
0
41
1
10
-0.394976888875277
20
6.14029748393358
30
0
0
SPLINE
5
102
100
AcDbEntity
8
SK1
62
256
6
ByLayer
370
18
48
1
60
0
100
AcDbSpline
70
4
71
3
72
26
73
22
40
0
40
0
40
0
40
0
40
0.0312500000000016
40
0.0312500000000016
40
0.0625000000000032
40
0.0625000000000032
40
0.0937500000000048
40
0.0937500000000048
40
0.125000000000006
40
0.125000000000006
40
0.187500000000008
40
0.187500000000008
40
0.250000000000009
40
0.250000000000009
40
0.375000000000007
40
0.375000000000007
40
0.500000000000006
40
0.500000000000006
40
0.750000000000003
40
0.750000000000003
40
1
40
1
40
1
40
1
41
1
10
-0.394976888875306
20
6.14029748393358
30
0
41
1
10
-0.388671542343815
20
6.13475802495364
30
0
41
1
10
-0.38181168823624
20
6.12988869329277
30
0
41
1
10
-0.366640931323474
20
6.12297362066241
30
0
41
1
10
-0.358278007449968
20
6.12106156290508
30
0
41
1
10
-0.341586244187852
20
6.12220054473732
30
0
41
1
10
-0.333329946063969
20
6.12530915500176
30
0
41
1
10
-0.318937761824742
20
6.13458695676917
30
0
41
1
10
-0.312691447115242
20
6.14059423910973
30
0
41
1
10
-0.296015040763564
20
6.16032344698257
30
0
41
1
10
-0.287612080656288
20
6.17550182304001
30
0
41
1
10
-0.273149761403374
20
6.20664379931858
30
0
41
1
10
-0.267232047922107
20
6.2226046254498
30
0
41
1
10
-0.251522730309745
20
6.2710903050544
30
0
41
1
10
-0.243762688270124
20
6.3042913519493
30
0
41
1
10
-0.230811347956632
20
6.37110400420676
30
0
41
1
10
-0.225742010447959
20
6.40454205690907
30
0
41
1
10
-0.213066187746591
20
6.50489212673548
30
0
41
1
10
-0.207959301007548
20
6.5718390038428
30
0
41
1
10
-0.201382597553817
20
6.70573141098552
30
0
41
1
10
-0.200000000000074
20
6.77268016381566
30
0
41
1
10
-0.200000000000074
20
6.83961987074576
30
0
0
SPLINE
5
103
100
AcDbEntity
8
SK1
62
256
6
ByLayer
370
18
48
1
60
0
100
AcDbSpline
70
4
71
3
72
24
73
20
40
0
40
0
40
0
40
0
40
0.0605000578209317
40
0.0605000578209317
40
0.121000115641863
40
0.121000115641863
40
0.181500173462795
40
0.181500173462795
40
0.242000231283727
40
0.242000231283727
40
0.36300034692559
40
0.36300034692559
40
0.484000462567453
40
0.484000462567453
40
0.72600069385118
40
0.72600069385118
40
0.968000925134906
40
0.968000925134906
40
1
40
1
40
1
40
1
41
1
10
-0.394976888875249
20
-35.4775231381726
30
0
41
1
10
-0.388671475101035
20
-35.4766997478129
30
0
41
1
10
-0.381811534709072
20
-35.4762709949138
30
0
41
1
10
-0.366640616938582
20
-35.4768792325637
30
0
41
1
10
-0.358277609119426
20
-35.4779823276479
30
0
41
1
10
-0.341585771346644
20
-35.4821737215532
30
0
41
1
10
-0.333329482090704
20
-35.4852675491439
30
0
41
1
10
-0.318937365840014
20
-35.4921874163471
30
0
41
1
10
-0.312691079617167
20
-35.4959734507352
30
0
41
1
10
-0.296014776342332
20
-35.5075158416867
30
0
41
1
10
-0.287611873902989
20
-35.5153652851928
30
0
41
1
10
-0.273149668288994
20
-35.5307592099813
30
0
41
1
10
-0.267232007765045
20
-35.5382733023982
30
0
41
1
10
-0.251522836037765
20
-35.5604731484623
30
0
41
1
10
-0.243762874650912
20
-35.5748469170972
30
0
41
1
10
-0.230811617005941
20
-35.6028852486128
30
0
41
1
10
-0.225742287920895
20
-35.6164587953366
30
0
41
1
10
-0.220958300238038
20
-35.6314721127429
30
0
41
1
10
-0.220414216140995
20
-35.6332200002975
30
0
41
1
10
-0.21988430637623
20
-35.6349625564941
30
0
0
SPLINE
5
104
100
AcDbEntity
8
SK1
62
256
6
ByLayer
370
18
48
1
60
0
100
AcDbSpline
70
4
71
3
72
18
73
14
40
0
40
0
40
0
40
0
40
0.0413415492521646
40
0.0413415492521646
40
0.130531055639248
40
0.130531055639248
40
0.308910068413416
40
0.308910068413416
40
0.487289081187583
40
0.487289081187583
40
0.844047106735906
40
0.844047106735906
40
1
40
1
40
1
40
1
41
1
10
-0.291345249408778
20
29.3424590630794
30
0
41
1
10
-0.287336271336613
20
29.3391754712412
30
0
41
1
10
-0.283732713070066
20
29.3356427152181
30
0
41
1
10
-0.273149842595217
20
29.3241187006639
30
0
41
1
10
-0.267232186715006
20
29.3156718515401
30
0
41
1
10
-0.251523005226773
20
29.2893856902038
30
0
41
1
10
-0.243762997944032
20
29.2705582101087
30
0
41
1
10
-0.230811685423561
20
29.2317835550302
30
0
41
1
10
-0.225742324946253
20
29.2119188835138
30
0
41
1
10
-0.213066387151372
20
29.1513482593076
30
0
41
1
10
-0.207959408398551
20
29.109674994757
30
0
41
1
10
-0.203233530197025
20
29.0485667332104
30
0
41
1
10
-0.202160219818751
20
29.0298129602061
30
0
41
1
10
-0.201407384082927
20
29.0109078351427
30
0
0
SPLINE
5
105
100
AcDbEntity
8
SK1
62
256
6
ByLayer
370
18
48
1
60
0
100
AcDbSpline
70
4
71
3
72
18
73
14
40
0
40
0
40
0
40
0
40
0.139336561052264
40
0.139336561052264
40
0.499660147653484
40
0.499660147653484
40
0.679821940954086
40
0.679821940954086
40
0.859983734254688
40
0.859983734254688
40
0.95006463090499
40
0.95006463090499
40
1
40
1
40
1
40
1
41
1
10
-0.201682998215148
20
-29.0174984733749
30
0
41
1
10
-0.202416260233605
20
-29.0342091312894
30
0
41
1
10
-0.203405110369829
20
-29.0508046335236
30
0
41
1
10
-0.207978089311865
20
-29.1098671795148
30
0
41
1
10
-0.213104238159218
20
-29.15166329712
30
0
41
1
10
-0.225863680076003
20
-29.212430708525
30
0
41
1
10
-0.230960581829919
20
-29.2323021122834
30
0
41
1
10
-0.243909693549142
20
-29.2709230268983
30
0
41
1
10
-0.251695468058244
20
-29.2897316982483
30
0
41
1
10
-0.267365194374264
20
-29.3158651092749
30
0
41
1
10
-0.273258925337018
20
-29.3242443982196
30
0
41
1
10
-0.284384967821126
20
-29.3363491201673
30
0
41
1
10
-0.288750053684481
20
-29.3405438339503
30
0
41
1
10
-0.293751375735752
20
-29.3443560080422
30
0
0
SPLINE
5
106
100
AcDbEntity
8
SK1
62
256
6
ByLayer
370
18
48
1
60
0
100
AcDbSpline
70
4
71
3
72
24
73
20
40
0
40
0
40
0
40
0
40
0.249999999999997
40
0.249999999999997
40
0.499999999999994
40
0.499999999999994
40
0.624999999999992
40
0.624999999999992
40
0.749999999999991
40
0.749999999999991
40
0.812499999999991
40
0.812499999999991
40
0.874999999999991
40
0.874999999999991
40
0.906249999999991
40
0.906249999999991
40
0.937499999999992
40
0.937499999999992
40
1
40
1
40
1
40
1
41
1
10
-0.200000000000017
20
-6.83961978441499
30
0
41
1
10
-0.200000000000017
20
-6.77266365744984
30
0
41
1
10
-0.20138257261695
20
-6.70565659874694
30
0
41
1
10
-0.20797797220817
20
-6.57153390296776
30
0
41
1
10
-0.213104017709412
20
-6.50438623378952
30
0
41
1
10
-0.225863327175603
20
-6.40368599150972
30
0
41
1
10
-0.230960199961146
20
-6.37022262623046
30
0
41
1
10
-0.243909322930989
20
-6.30365027444694
30
0
41
1
10
-0.251695140322795
20
-6.27046679752883
30
0
41
1
10
-0.267365003958759
20
-6.22224043421215
30
0
41
1
10
-0.273258792574524
20
-6.20639762175682
30
0
41
1
10
-0.287575041851937
20
-6.17559244970451
30
0
41
1
10
-0.296025423984304
20
-6.16029740280644
30
0
41
1
10
-0.312745147160342
20
-6.14053723214866
30
0
41
1
10
-0.318964396069788
20
-6.13456921276233
30
0
41
1
10
-0.333306743992097
20
-6.12532418760176
30
0
41
1
10
-0.341564173961842
20
-6.1222035372968
30
0
41
1
10
-0.366640590815507
20
-6.12048722824935
30
0
41
1
10
-0.382359877230186
20
-6.12921276185213
30
0
41
1
10
-0.394976888875504
20
-6.14029722152824
30
0
0
SPLINE
5
107
100
AcDbEntity
8
SK1
62
256
6
ByLayer
370
18
48
1
60
0
100
AcDbSpline
70
4
71
3
72
22
73
18
40
0
40
0
40
0
40
0
40
0.185527839111921
40
0.185527839111921
40
0.389145879333923
40
0.389145879333923
40
0.592763919555924
40
0.592763919555924
40
0.694572939666934
40
0.694572939666934
40
0.796381959777944
40
0.796381959777944
40
0.847286469833458
40
0.847286469833458
40
0.898190979888972
40
0.898190979888972
40
1
40
1
40
1
40
1
41
1
10
-0.211942672939784
20
35.6650568138007
30
0
41
1
10
-0.214561562398757
20
35.65341895757
30
0
41
1
10
-0.21773527209308
20
35.6415541256903
30
0
41
1
10
-0.22586364882676
20
35.6161145448391
30
0
41
1
10
-0.230960514215326
20
35.6025224313217
30
0
41
1
10
-0.243909555635156
20
35.5745706733976
30
0
41
1
10
-0.251695294089984
20
35.5601957054633
30
0
41
1
10
-0.267365014533766
20
35.5381024431322
30
0
41
1
10
-0.273258751589736
20
35.5306388063928
30
0
41
1
10
-0.287574896861258
20
35.5154087724191
30
0
41
1
10
-0.296025217598185
20
35.5075032524917
30
0
41
1
10
-0.312744846045774
20
35.4959387739217
30
0
41
1
10
-0.318964047572109
20
35.4921743471967
30
0
41
1
10
-0.333306356179008
20
35.4852786897173
30
0
41
1
10
-0.341563767889937
20
35.4821798260204
30
0
41
1
10
-0.366640249432493
20
35.4758809411679
30
0
41
1
10
-0.382359760725478
20
35.4758754263809
30
0
41
1
10
-0.394976888875504
20
35.4775230333216
30
0
0
SPLINE
5
108
100
AcDbEntity
8
SK1
62
256
6
ByLayer
370
18
48
1
60
0
100
AcDbSpline
70
4
71
3
72
26
73
22
40
0
40
0
40
0
40
0
40
0.0312499999999998
40
0.0312499999999998
40
0.0624999999999997
40
0.0624999999999997
40
0.0937499999999994
40
0.0937499999999994
40
0.124999999999999
40
0.124999999999999
40
0.187499999999999
40
0.187499999999999
40
0.249999999999999
40
0.249999999999999
40
0.374999999999999
40
0.374999999999999
40
0.499999999999999
40
0.499999999999999
40
0.749999999999999
40
0.749999999999999
40
1
40
1
40
1
40
1
41
1
10
-0.394976888875277
20
-6.1402972215333
30
0
41
1
10
-0.411386827853335
20
-6.15471389261222
30
0
41
1
10
-0.428762929070359
20
-6.16792682850334
30
0
41
1
10
-0.46631249080454
20
-6.19087886287883
30
0
41
1
10
-0.486486340955366
20
-6.20053205424256
30
0
41
1
10
-0.528636087579201
20
-6.21387385760758
30
0
41
1
10
-0.551333806654242
20
-6.21763094422386
30
0
41
1
10
-0.595996896779297
20
-6.21759710275106
30
0
41
1
10
-0.618501718611867
20
-6.21388050874924
30
0
41
1
10
-0.682666367362856
20
-6.19354801200379
30
0
41
1
10
-0.720497492514312
20
-6.16857769971645
30
0
41
1
10
-0.786209064871855
20
-6.11129360410715
30
0
41
1
10
-0.815074852177219
20
-6.07817489743729
30
0
41
1
10
-0.892438429618153
20
-5.97534441057221
30
0
41
1
10
-0.933322586559768
20
-5.90108526750919
30
0
41
1
10
-1.00643010561572
20
-5.74774420897123
30
0
41
1
10
-1.03799495343557
20
-5.6687517075986
30
0
41
1
10
-1.12311078163748
20
-5.4303704240005
30
0
41
1
10
-1.16788167463841
20
-5.26810674825339
30
0
41
1
10
-1.24572901926439
20
-4.9396173942236
30
0
41
1
10
-1.27842602392926
20
-4.77330384397376
30
0
41
1
10
-1.30710678118655
20
-4.60538003006579
30
0
0
SPLINE
5
109
100
AcDbEntity
8
SK1
62
256
6
ByLayer
370
18
48
1
60
0
100
AcDbSpline
70
4
71
3
72
316
73
312
40
0
40
0
40
0
40
0
40
0.0029467165123024
40
0.0064470921380345
40
0.0099474677637665
40
0.0134478433894986
40
0.0169482190152306
40
0.0204485946409627
40
0.0239489702666947
40
0.0274493458924267
40
0.0309497215181588
40
0.0344500971438908
40
0.0379504727696229
40
0.0414508483953549
40
0.0449512240210869
40
0.048451599646819
40
0.0519519752725511
40
0.0554523508982831
40
0.0589527265240152
40
0.0624531021497472
40
0.0659534777754793
40
0.0694538534012113
40
0.0729542290269434
40
0.0764546046526754
40
0.0799549802784074
40
0.0869557315298715
40
0.0904561071556036
40
0.0922062949684696
40
0.0939564827813356
40
0.0974568584070677
40
0.1009572340328
40
0.107957985284264
40
0.111458360909996
40
0.114958736535728
40
0.121959487787192
40
0.128960239038656
40
0.132460614664388
40
0.13596099029012
40
0.139461365915852
40
0.142961741541584
40
0.149962492793048
40
0.156963244044512
40
0.160463619670245
40
0.163963995295977
40
0.170964746547441
40
0.177965497798905
40
0.184966249050369
40
0.188466624676101
40
0.191967000301833
40
0.195467375927565
40
0.198967751553297
40
0.205968502804761
40
0.212969254056225
40
0.216469629681957
40
0.219970005307689
40
0.223470380933421
40
0.226970756559153
40
0.233971507810618
40
0.240972259062082
40
0.247973010313546
40
0.251473385939278
40
0.25497376156501
40
0.261974512816474
40
0.268975264067938
40
0.27247563969367
40
0.275976015319402
40
0.279476390945134
40
0.282976766570866
40
0.28997751782233
40
0.293477893448062
40
0.296978269073794
40
0.300478644699527
40
0.303979020325258
40
0.310979771576723
40
0.314480147202455
40
0.317980522828187
40
0.321480898453919
40
0.324981274079651
40
0.331982025331115
40
0.335482400956847
40
0.338982776582579
40
0.342483152208311
40
0.345983527834043
40
0.347733715646909
40
0.349483903459775
40
0.352984279085507
40
0.359985030336971
40
0.363485405962703
40
0.366985781588435
40
0.370486157214167
40
0.3739865328399
40
0.377486908465631
40
0.380987284091364
40
0.384487659717096
40
0.387988035342828
40
0.39148841096856
40
0.394988786594292
40
0.398489162220024
40
0.401989537845756
40
0.403739725658622
40
0.405489913471488
40
0.40899028909722
40
0.412490664722952
40
0.415991040348684
40
0.419491415974416
40
0.422991791600148
40
0.424741979413014
40
0.42649216722588
40
0.429992542851612
40
0.431742730664478
40
0.433492918477344
40
0.436993294103076
40
0.440493669728808
40
0.442243857541674
40
0.443994045354541
40
0.447494420980272
40
0.450994796606004
40
0.452744984418871
40
0.454495172231737
40
0.456245360044602
40
0.457995547857469
40
0.459745735670335
40
0.461495923483201
40
0.462371017389633
40
0.463246111296067
40
0.464996299108933
40
0.465871393015366
40
0.466746486921799
40
0.468496674734665
40
0.470246862547531
40
0.471121956453964
40
0.471997050360397
40
0.47287214426683
40
0.473747238173263
40
0.474622332079696
40
0.475497425986129
40
0.476372519892562
40
0.477247613798995
40
0.478997801611861
40
0.480747989424727
40
0.482498177237593
40
0.484248365050459
40
0.485998552863325
40
0.486873646769758
40
0.487748740676191
40
0.488623834582624
40
0.489498928489057
40
0.491249116301923
40
0.492999304114789
40
0.493874398021222
40
0.494749491927655
40
0.495624585834088
40
0.496499679740521
40
0.498249867553387
40
0.49912496145982
40
0.500000055366253
40
0.500875149272686
40
0.501750243179119
40
0.503500430991985
40
0.504375524898418
40
0.505250618804851
40
0.506125712711284
40
0.507000806617717
40
0.508750994430583
40
0.510501182243449
40
0.511376276149882
40
0.512251370056315
40
0.513126463962748
40
0.514001557869181
40
0.515751745682047
40
0.51662683958848
40
0.517501933494913
40
0.519252121307779
40
0.520127215214212
40
0.521002309120645
40
0.521877403027078
40
0.522752496933511
40
0.523627590839944
40
0.524502684746377
40
0.526252872559243
40
0.527127966465677
40
0.52800306037211
40
0.528878154278543
40
0.529753248184976
40
0.531503435997842
40
0.533253623810708
40
0.53412871771714
40
0.535003811623574
40
0.53675399943644
40
0.537629093342873
40
0.538504187249306
40
0.540254375062172
40
0.542004562875038
40
0.543754750687904
40
0.54550493850077
40
0.547255126313636
40
0.549005314126502
40
0.552505689752234
40
0.556006065377966
40
0.557756253190832
40
0.559506441003698
40
0.56300681662943
40
0.566507192255162
40
0.568257380068028
40
0.570007567880894
40
0.573507943506626
40
0.577008319132358
40
0.58050869475809
40
0.584009070383822
40
0.587509446009554
40
0.591009821635286
40
0.594510197261018
40
0.59801057288675
40
0.601510948512483
40
0.605011324138215
40
0.608511699763947
40
0.612012075389679
40
0.615512451015411
40
0.619012826641143
40
0.622513202266875
40
0.624263390079741
40
0.626013577892607
40
0.629513953518339
40
0.633014329144071
40
0.636514704769803
40
0.640015080395535
40
0.643515456021267
40
0.647015831646999
40
0.650516207272731
40
0.652266395085597
40
0.654016582898463
40
0.657516958524195
40
0.661017334149927
40
0.664517709775659
40
0.668018085401391
40
0.675018836652855
40
0.678519212278588
40
0.68201958790432
40
0.685519963530052
40
0.689020339155784
40
0.696021090407248
40
0.69952146603298
40
0.703021841658712
40
0.706522217284444
40
0.710022592910176
40
0.71702334416164
40
0.720523719787372
40
0.724024095413104
40
0.727524471038836
40
0.731024846664568
40
0.738025597916032
40
0.745026349167496
40
0.748526724793228
40
0.752027100418961
40
0.759027851670425
40
0.766028602921889
40
0.773029354173353
40
0.776529729799085
40
0.780030105424817
40
0.783530481050549
40
0.787030856676281
40
0.794031607927745
40
0.801032359179209
40
0.804532734804941
40
0.808033110430673
40
0.811533486056405
40
0.815033861682138
40
0.822034612933601
40
0.829035364185066
40
0.83603611543653
40
0.839536491062262
40
0.843036866687994
40
0.850037617939458
40
0.857038369190922
40
0.860538744816654
40
0.864039120442386
40
0.867539496068118
40
0.87103987169385
40
0.878040622945314
40
0.885041374196778
40
0.88854174982251
40
0.892042125448242
40
0.899042876699707
40
0.902543252325439
40
0.906043627951171
40
0.907793815764037
40
0.909544003576903
40
0.913044379202635
40
0.920045130454099
40
0.923545506079831
40
0.927045881705563
40
0.930546257331295
40
0.934046632957027
40
0.937547008582759
40
0.941047384208491
40
0.944547759834223
40
0.948048135459955
40
0.951548511085687
40
0.955048886711419
40
0.962049637962883
40
0.965550013588616
40
0.969050389214348
40
0.97255076484008
40
0.976051140465811
40
0.979551516091544
40
0.983051891717276
40
0.986552267343008
40
0.99005264296874
40
0.993553018594472
40
0.997053394220204
40
1
40
1
40
1
40
1
41
1
10
-58
20
-34.6073035350792
30
0
41
1
10
-58
20
-34.6043542748773
30
0
41
1
10
-58
20
-34.5966210199994
30
0
41
1
10
-58
20
-34.5803797589321
30
0
41
1
10
-58
20
-34.5584074886069
30
0
41
1
10
-58
20
-34.5316961895766
30
0
41
1
10
-58
20
-34.5003280083155
30
0
41
1
10
-58
20
-34.4643817495677
30
0
41
1
10
-58
20
-34.4239333693917
30
0
41
1
10
-58
20
-34.3790529937039
30
0
41
1
10
-58
20
-34.3298111110901
30
0
41
1
10
-58
20
-34.2762712987306
30
0
41
1
10
-58
20
-34.2184971795059
30
0
41
1
10
-58
20
-34.1565492736136
30
0
41
1
10
-58
20
-34.090484024979
30
0
41
1
10
-58
20
-34.0203569492649
30
0
41
1
10
-58
20
-33.9462211181053
30
0
41
1
10
-58
20
-33.8681273799935
30
0
41
1
10
-58
20
-33.7861246522718
30
0
41
1
10
-58
20
-33.7002599705932
30
0
41
1
10
-58
20
-33.6105785639527
30
0
41
1
10
-58
20
-33.517124136941
30
0
41
1
10
-58
20
-33.4199387810475
30
0
41
1
10
-58
20
-33.3190628682572
30
0
41
1
10
-58
20
-33.1794476462955
30
0
41
1
10
-58
20
-33.0333547777464
30
0
41
1
10
-58
20
-32.8987588718318
30
0
41
1
10
-58
20
-32.8200332917252
30
0
41
1
10
-58
20
-32.7401409831787
30
0
41
1
10
-58
20
-32.6384072799631
30
0
41
1
10
-58
20
-32.4705455180243
30
0
41
1
10
-58
20
-32.2967149944414
30
0
41
1
10
-58
20
-32.1153117201281
30
0
41
1
10
-58
20
-31.9294644880725
30
0
41
1
10
-58
20
-31.6895938415452
30
0
41
1
10
-58
20
-31.4389237596358
30
0
41
1
10
-58
20
-31.2314087063946
30
0
41
1
10
-58
20
-31.0728429182949
30
0
41
1
10
-58
20
-30.9111259407838
30
0
41
1
10
-58
20
-30.6909862057692
30
0
41
1
10
-58
20
-30.4088224430552
30
0
41
1
10
-58
20
-30.1164546579335
30
0
41
1
10
-58
20
-29.8758448368357
30
0
41
1
10
-58
20
-29.6312151678218
30
0
41
1
10
-58
20
-29.3188018441321
30
0
41
1
10
-58
20
-28.931624671393
30
0
41
1
10
-58
20
-28.5996384848297
30
0
41
1
10
-58
20
-28.3275282602038
30
0
41
1
10
-58
20
-28.1208773937063
30
0
41
1
10
-58
20
-27.911363633098
30
0
41
1
10
-58
20
-27.6277846850599
30
0
41
1
10
-58
20
-27.2671990323819
30
0
41
1
10
-58
20
-26.8972638502991
30
0
41
1
10
-58
20
-26.5949314925857
30
0
41
1
10
-58
20
-26.365755304915
30
0
41
1
10
-58
20
-26.1338196230742
30
0
41
1
10
-58
20
-25.8204330482275
30
0
41
1
10
-58
20
-25.4229416666195
30
0
41
1
10
-58
20
-24.9345059187337
30
0
41
1
10
-58
20
-24.5190021121539
30
0
41
1
10
-58
20
-24.1803157072481
30
0
41
1
10
-58
20
-23.8380720499499
30
0
41
1
10
-58
20
-23.4048307980022
30
0
41
1
10
-58
20
-22.9627941936476
30
0
41
1
10
-58
20
-22.6029073961028
30
0
41
1
10
-58
20
-22.3308053662237
30
0
41
1
10
-58
20
-22.0560958606497
30
0
41
1
10
-58
20
-21.6857625528635
30
0
41
1
10
-58
20
-21.3120431731187
30
0
41
1
10
-58
20
-20.9313332073365
30
0
41
1
10
-58
20
-20.6436975380219
30
0
41
1
10
-58
20
-20.3534974230034
30
0
41
1
10
-58
20
-19.962512989893
30
0
41
1
10
-58
20
-19.5683935649799
30
0
41
1
10
-58
20
-19.1671855028189
30
0
41
1
10
-58
20
-18.8642617622701
30
0
41
1
10
-58
20
-18.5588120809721
30
0
41
1
10
-58
20
-18.1474824585398
30
0
41
1
10
-58
20
-17.7332927415188
30
0
41
1
10
-58
20
-17.31187542895
30
0
41
1
10
-58
20
-16.9938869687374
30
0
41
1
10
-58
20
-16.6734094643824
30
0
41
1
10
-58
20
-16.4046647430283
30
0
41
1
10
-58
20
-16.1877136709007
30
0
41
1
10
-58
20
-15.9699408852648
30
0
41
1
10
-58
20
-15.586990793997
30
0
41
1
10
-58
20
-15.1465482288459
30
0
41
1
10
-58
20
-14.6986174932262
30
0
41
1
10
-58
20
-14.3608949939722
30
0
41
1
10
-58
20
-14.0207356586278
30
0
41
1
10
-58
20
-13.6781505656526
30
0
41
1
10
-58
20
-13.3331465322306
30
0
41
1
10
-58
20
-12.9857332798767
30
0
41
1
10
-58
20
-12.6359214323733
30
0
41
1
10
-58
20
-12.2837205272056
30
0
41
1
10
-58
20
-11.9291438218093
30
0
41
1
10
-58
20
-11.5722027813319
30
0
41
1
10
-58
20
-11.21291277944
30
0
41
1
10
-58
20
-10.912108295924
30
0
41
1
10
-58
20
-10.6692766858404
30
0
41
1
10
-58
20
-10.4256875570292
30
0
41
1
10
-58
20
-10.1211100592584
30
0
41
1
10
-58
20
-9.75259725338498
30
0
41
1
10
-58
20
-9.38183010290783
30
0
41
1
10
-58
20
-9.00884035151952
30
0
41
1
10
-58
20
-8.69684340932247
30
0
41
1
10
-58
20
-8.44493041618213
30
0
41
1
10
-58
20
-8.19232044847527
30
0
41
1
10
-58
20
-7.94080704287336
30
0
41
1
10
-58
20
-7.68603135773836
30
0
41
1
10
-58
20
-7.43059630648503
30
0
41
1
10
-58
20
-7.11180135563231
30
0
41
1
10
-58
20
-6.79132938935564
30
0
41
1
10
-58
20
-6.53251618838752
30
0
41
1
10
-58
20
-6.27311609603561
30
0
41
1
10
-58
20
-5.94973663199025
30
0
41
1
10
-58
20
-5.62486984380905
30
0
41
1
10
-58
20
-5.36246929286631
30
0
41
1
10
-58
20
-5.16603341989483
30
0
41
1
10
-58
20
-4.96923237547441
30
0
41
1
10
-58
20
-4.77207750487506
30
0
41
1
10
-58
20
-4.57459544495504
30
0
41
1
10
-58
20
-4.41029793772165
30
0
41
1
10
-58
20
-4.2777166352657
30
0
41
1
10
-58
20
-4.14506122516988
30
0
41
1
10
-58
20
-4.01399439838315
30
0
41
1
10
-58
20
-3.881036327884
30
0
41
1
10
-58
20
-3.74801862180834
30
0
41
1
10
-58
20
-3.5829961226784
30
0
41
1
10
-58
20
-3.41778425791247
30
0
41
1
10
-58
20
-3.28439024486019
30
0
41
1
10
-58
20
-3.18480940383549
30
0
41
1
10
-58
20
-3.08519524226034
30
0
41
1
10
-58
20
-2.98554870608601
30
0
41
1
10
-58
20
-2.88588197147465
30
0
41
1
10
-58
20
-2.786203713036
30
0
41
1
10
-58
20
-2.68650877066605
30
0
41
1
10
-58
20
-2.55285553128309
30
0
41
1
10
-58
20
-2.38741878390206
30
0
41
1
10
-58
20
-2.18798792525015
30
0
41
1
10
-58
20
-1.98859069176859
30
0
41
1
10
-58
20
-1.78925716601174
30
0
41
1
10
-58
20
-1.62400964435548
30
0
41
1
10
-58
20
-1.49038258437855
30
0
41
1
10
-58
20
-1.39082935616074
30
0
41
1
10
-58
20
-1.29130620551004
30
0
41
1
10
-58
20
-1.15779757169759
30
0
41
1
10
-58
20
-0.99295881891328
30
0
41
1
10
-58
20
-0.828192548206204
30
0
41
1
10
-58
20
-0.694823517971315
30
0
41
1
10
-58
20
-0.595510259634267
30
0
41
1
10
-58
20
-0.496219754320578
30
0
41
1
10
-58
20
-0.362942837222477
30
0
41
1
10
-58
20
-0.232469975530563
30
0
41
1
10
-58
20
-0.0992273272949262
30
0
41
1
10
-58
20
1.63800564E-08
30
0
41
1
10
-58
20
0.0992273398984764
30
0
41
1
10
-58
20
0.232469995259663
30
0
41
1
10
-58
20
0.362942864386611
30
0
41
1
10
-58
20
0.496219744532027
30
0
41
1
10
-58
20
0.595510286532459
30
0
41
1
10
-58
20
0.69482355769469
30
0
41
1
10
-58
20
0.828192566370689
30
0
41
1
10
-58
20
0.992958822605829
30
0
41
1
10
-58
20
1.15779757822997
30
0
41
1
10
-58
20
1.29130628126842
30
0
41
1
10
-58
20
1.39082936054345
30
0
41
1
10
-58
20
1.49038261723351
30
0
41
1
10
-58
20
1.62400929858035
30
0
41
1
10
-58
20
1.75519681152264
30
0
41
1
10
-58
20
1.88886587056908
30
0
41
1
10
-58
20
2.02257380819529
30
0
41
1
10
-58
20
2.15394245955972
30
0
41
1
10
-58
20
2.28764244667349
30
0
41
1
10
-58
20
2.38736175207308
30
0
41
1
10
-58
20
2.48707433529856
30
0
41
1
10
-58
20
2.58679151495227
30
0
41
1
10
-58
20
2.68650643512578
30
0
41
1
10
-58
20
2.82015553447045
30
0
41
1
10
-58
20
2.95167230604008
30
0
41
1
10
-58
20
3.08519574611898
30
0
41
1
10
-58
20
3.18480948837248
30
0
41
1
10
-58
20
3.28439014192514
30
0
41
1
10
-58
20
3.41778425796454
30
0
41
1
10
-58
20
3.5829963398935
30
0
41
1
10
-58
20
3.74801883117277
30
0
41
1
10
-58
20
3.88103633021703
30
0
41
1
10
-58
20
4.01399420894896
30
0
41
1
10
-58
20
4.1450610014393
30
0
41
1
10
-58
20
4.27771653655569
30
0
41
1
10
-58
20
4.41029804681102
30
0
41
1
10
-58
20
4.57459570619073
30
0
41
1
10
-58
20
4.77207761728616
30
0
41
1
10
-58
20
4.96923221655044
30
0
41
1
10
-58
20
5.16603320786018
30
0
41
1
10
-58
20
5.36246930605515
30
0
41
1
10
-58
20
5.62487008150856
30
0
41
1
10
-58
20
5.94973662395361
30
0
41
1
10
-58
20
6.27311588814803
30
0
41
1
10
-58
20
6.53251624633623
30
0
41
1
10
-58
20
6.79132960033488
30
0
41
1
10
-58
20
7.11180129155156
30
0
41
1
10
-58
20
7.43059597795101
30
0
41
1
10
-58
20
7.68603127322154
30
0
41
1
10
-58
20
7.94080702479252
30
0
41
1
10
-58
20
8.25632291017837
30
0
41
1
10
-58
20
8.63366100346428
30
0
41
1
10
-58
20
9.00884209524727
30
0
41
1
10
-58
20
9.38183075865143
30
0
41
1
10
-58
20
9.75259557230214
30
0
41
1
10
-58
20
10.1211093378308
30
0
41
1
10
-58
20
10.487347423945
30
0
41
1
10
-58
20
10.851288265045
30
0
41
1
10
-58
20
11.2129126489515
30
0
41
1
10
-58
20
11.5722027534516
30
0
41
1
10
-58
20
11.9291438609312
30
0
41
1
10
-58
20
12.2837204653535
30
0
41
1
10
-58
20
12.6359214941673
30
0
41
1
10
-58
20
12.9857331103651
30
0
41
1
10
-58
20
13.2747453101746
30
0
41
1
10
-58
20
13.5056252380649
30
0
41
1
10
-58
20
13.7357042566719
30
0
41
1
10
-58
20
14.0207356013197
30
0
41
1
10
-58
20
14.3608942162371
30
0
41
1
10
-58
20
14.6986181938836
30
0
41
1
10
-58
20
15.0338987189648
30
0
41
1
10
-58
20
15.3667286289814
30
0
41
1
10
-58
20
15.6971014285855
30
0
41
1
10
-58
20
15.9699409152238
30
0
41
1
10
-58
20
16.1877136527783
30
0
41
1
10
-58
20
16.4046647522579
30
0
41
1
10
-58
20
16.6734094787226
30
0
41
1
10
-58
20
16.9938869670337
30
0
41
1
10
-58
20
17.3118754472546
30
0
41
1
10
-58
20
17.7332927565035
30
0
41
1
10
-58
20
18.1474824557212
30
0
41
1
10
-58
20
18.5588120799026
30
0
41
1
10
-58
20
18.8642617520243
30
0
41
1
10
-58
20
19.1671855328673
30
0
41
1
10
-58
20
19.5683935682398
30
0
41
1
10
-58
20
19.9625129981163
30
0
41
1
10
-58
20
20.3534974164196
30
0
41
1
10
-58
20
20.6436975341919
30
0
41
1
10
-58
20
20.9313332310817
30
0
41
1
10
-58
20
21.3120431735846
30
0
41
1
10
-58
20
21.6857625612491
30
0
41
1
10
-58
20
22.0560958576141
30
0
41
1
10
-58
20
22.3308053593404
30
0
41
1
10
-58
20
22.6029074150482
30
0
41
1
10
-58
20
22.9627941997736
30
0
41
1
10
-58
20
23.4048307950687
30
0
41
1
10
-58
20
23.8380720492418
30
0
41
1
10
-58
20
24.1803157154495
30
0
41
1
10
-58
20
24.5190021187452
30
0
41
1
10
-58
20
24.934505910954
30
0
41
1
10
-58
20
25.4229416730791
30
0
41
1
10
-58
20
25.820433050224
30
0
41
1
10
-58
20
26.1338196224208
30
0
41
1
10
-58
20
26.3657553019254
30
0
41
1
10
-58
20
26.5949314963246
30
0
41
1
10
-58
20
26.8972638515593
30
0
41
1
10
-58
20
27.267199029797
30
0
41
1
10
-58
20
27.6277846867342
30
0
41
1
10
-58
20
27.9113636298593
30
0
41
1
10
-58
20
28.1208773935264
30
0
41
1
10
-58
20
28.3275282615775
30
0
41
1
10
-58
20
28.5996384834264
30
0
41
1
10
-58
20
28.9316246696635
30
0
41
1
10
-58
20
29.3188018386775
30
0
41
1
10
-58
20
29.6312151716041
30
0
41
1
10
-58
20
29.8758448277823
30
0
41
1
10
-58
20
30.1164546526889
30
0
41
1
10
-58
20
30.4088224417549
30
0
41
1
10
-58
20
30.6909862066612
30
0
41
1
10
-58
20
30.9111259319957
30
0
41
1
10
-58
20
31.0728429072979
30
0
41
1
10
-58
20
31.2314087120365
30
0
41
1
10
-58
20
31.4389237579121
30
0
41
1
10
-58
20
31.6895938369171
30
0
41
1
10
-58
20
31.9294644717604
30
0
41
1
10
-58
20
32.115311722464
30
0
41
1
10
-58
20
32.2967149943326
30
0
41
1
10
-58
20
32.4705455117827
30
0
41
1
10
-58
20
32.6384072676335
30
0
41
1
10
-58
20
32.740140967412
30
0
41
1
10
-58
20
32.8200332868944
30
0
41
1
10
-58
20
32.8987588752027
30
0
41
1
10
-58
20
33.0333547758038
30
0
41
1
10
-58
20
33.1794476388675
30
0
41
1
10
-58
20
33.3190628604088
30
0
41
1
10
-58
20
33.4199387593897
30
0
41
1
10
-58
20
33.5171241473591
30
0
41
1
10
-58
20
33.6105785465519
30
0
41
1
10
-58
20
33.7002599502328
30
0
41
1
10
-58
20
33.7861247188262
30
0
41
1
10
-58
20
33.8681273926077
30
0
41
1
10
-58
20
33.9462206251882
30
0
41
1
10
-58
20
34.020357330257
30
0
41
1
10
-58
20
34.11403435413
30
0
41
1
10
-58
20
34.1990832647149
30
0
41
1
10
-58
20
34.2762712843076
30
0
41
1
10
-58
20
34.3298111043331
30
0
41
1
10
-58
20
34.3790530583999
30
0
41
1
10
-58
20
34.4239333421725
30
0
41
1
10
-58
20
34.4643818052429
30
0
41
1
10
-58
20
34.5003280118182
30
0
41
1
10
-58
20
34.5316962075247
30
0
41
1
10
-58
20
34.5584075309985
30
0
41
1
10
-58
20
34.5803797447221
30
0
41
1
10
-58
20
34.5966208998147
30
0
41
1
10
-58
20
34.6043666891485
30
0
41
1
10
-58
20
34.6073164652476
30
0
0
SPLINE
5
10A
100
AcDbEntity
8
SK1
62
256
6
ByLayer
370
18
48
1
60
0
100
AcDbSpline
70
4
71
3
72
24
73
20
40
0
40
0
40
0
40
0
40
0.25
40
0.25
40
0.3125
40
0.3125
40
0.375
40
0.375
40
0.5
40
0.5
40
0.625
40
0.625
40
0.75
40
0.75
40
0.8125
40
0.8125
40
0.875
40
0.875
40
1
40
1
40
1
40
1
41
1
10
-1.30710678118655
20
4.60538005832734
30
0
41
1
10
-1.4344509556569
20
3.85978933676722
30
0
41
1
10
-1.54387892248144
20
3.10383348780141
30
0
41
1
10
-1.64182277486117
20
2.14038734740558
30
0
41
1
10
-1.65943153712078
20
1.94675919611092
30
0
41
1
10
-1.69016128102567
20
1.55744142286926
30
0
41
1
10
-1.70329012775193
20
1.36146410626918
30
0
41
1
10
-1.73493134584373
20
0.775190730927392
30
0
41
1
10
-1.74573673637374
20
0.385182075791505
30
0
41
1
10
-1.7455909177946
20
-0.393092212237576
30
0
41
1
10
-1.73464574767846
20
-0.781358231864118
30
0
41
1
10
-1.69272967974092
20
-1.55625432464242
30
0
41
1
10
-1.6618353305827
20
-1.94288898079074
30
0
41
1
10
-1.60308307844801
20
-2.52176892060308
30
0
41
1
10
-1.58142702957946
20
-2.71455586541933
30
0
41
1
10
-1.53472161640747
20
-3.09756881527213
30
0
41
1
10
-1.50964113138215
20
-3.28809225111147
30
0
41
1
10
-1.42989928264939
20
-3.85698267981988
30
0
41
1
10
-1.37076249597743
20
-4.23268030289685
30
0
41
1
10
-1.30710678119237
20
-4.60538003003171
30
0
0
SPLINE
5
10B
100
AcDbEntity
8
SK1
62
256
6
ByLayer
370
18
48
1
60
0
100
AcDbSpline
70
4
71
3
72
123
73
119
40
0
40
0
40
0
40
0
40
0.0048496390487368
40
0.0125135940581554
40
0.0163455715628646
40
0.0201775490675739
40
0.0278415040769924
40
0.035505459086411
40
0.0393374365911202
40
0.0431694140958295
40
0.050833369105248
40
0.0584973241146666
40
0.0661612791240851
40
0.0738252341335036
40
0.0814891891429222
40
0.0891531441523407
40
0.0968170991617592
40
0.104481054171178
40
0.112145009180596
40
0.119808964190015
40
0.127472919199433
40
0.135136874208852
40
0.14280082921827
40
0.150464784227689
40
0.158128739237107
40
0.161960716741817
40
0.165792694246526
40
0.173456649255945
40
0.181120604265363
40
0.188784559274782
40
0.1964485142842
40
0.204112469293619
40
0.211776424303037
40
0.219440379312456
40
0.223272356817165
40
0.227104334321874
40
0.234768289331293
40
0.242432244340711
40
0.25009619935013
40
0.257760154359548
40
0.273088064378385
40
0.280752019387804
40
0.288415974397222
40
0.296079929406641
40
0.303743884416059
40
0.319071794434897
40
0.326735749444315
40
0.334399704453734
40
0.342063659463152
40
0.349727614472571
40
0.365055524491408
40
0.372719479500826
40
0.380383434510245
40
0.388047389519663
40
0.395711344529082
40
0.411039254547919
40
0.426367164566756
40
0.434031119576175
40
0.441695074585593
40
0.45702298460443
40
0.472350894623267
40
0.487678804642104
40
0.495342759651523
40
0.503006714660941
40
0.51067066967036
40
0.518334624679778
40
0.533662534698615
40
0.548990444717453
40
0.556654399726871
40
0.56431835473629
40
0.571982309745708
40
0.579646264755127
40
0.594974174773964
40
0.610302084792801
40
0.625629994811638
40
0.633293949821056
40
0.640957904830475
40
0.656285814849312
40
0.671613724868149
40
0.679277679877568
40
0.686941634886986
40
0.694605589896405
40
0.702269544905823
40
0.71759745492466
40
0.732925364943497
40
0.740589319952916
40
0.748253274962334
40
0.763581184981171
40
0.77124513999059
40
0.778909095000008
40
0.782741072504718
40
0.786573050009427
40
0.794237005018845
40
0.809564915037683
40
0.817228870047101
40
0.82489282505652
40
0.832556780065938
40
0.840220735075357
40
0.847884690084775
40
0.855548645094194
40
0.863212600103612
40
0.870876555113031
40
0.878540510122449
40
0.886204465131868
40
0.901532375150705
40
0.909196330160124
40
0.916860285169542
40
0.924524240178961
40
0.932188195188379
40
0.939852150197797
40
0.947516105207216
40
0.955180060216635
40
0.962844015226053
40
0.970507970235472
40
0.97817192524489
40
0.985835880254309
40
0.993499835263727
40
1
40
1
40
1
40
1
41
1
10
-0.394976888875306
20
6.14029748393358
30
0
41
1
10
-0.394976888875306
20
6.22707397316503
30
0
41
1
10
-0.394976888875306
20
6.45050049171113
30
0
41
1
10
-0.394976888875277
20
6.74082518692177
30
0
41
1
10
-0.394976888875277
20
7.01191434968567
30
0
41
1
10
-0.394976888875277
20
7.28212710030419
30
0
41
1
10
-0.394976888875277
20
7.61805782474269
30
0
41
1
10
-0.394976888875277
20
7.95177199064213
30
0
41
1
10
-0.394976888875277
20
8.2175494998078
30
0
41
1
10
-0.394976888875306
20
8.48244125097077
30
0
41
1
10
-0.394976888875277
20
8.81172783237588
30
0
41
1
10
-0.394976888875277
20
9.2042839968646
30
0
41
1
10
-0.394976888875277
20
9.59416972776228
30
0
41
1
10
-0.394976888875306
20
9.98138463666174
30
0
41
1
10
-0.394976888875306
20
10.3659293652704
30
0
41
1
10
-0.394976888875306
20
10.7478049083352
30
0
41
1
10
-0.394976888875277
20
11.1270131973586
30
0
41
1
10
-0.394976888875306
20
11.5035558012536
30
0
41
1
10
-0.394976888875277
20
11.8774354513043
30
0
41
1
10
-0.394976888875277
20
12.2486538532732
30
0
41
1
10
-0.394976888875306
20
12.6172140771122
30
0
41
1
10
-0.394976888875306
20
12.9831178868123
30
0
41
1
10
-0.394976888875277
20
13.3463680811382
30
0
41
1
10
-0.394976888875306
20
13.7069667840625
30
0
41
1
10
-0.394976888875306
20
14.0052089603084
30
0
41
1
10
-0.394976888875277
20
14.2425643537976
30
0
41
1
10
-0.394976888875277
20
14.4790383776377
30
0
41
1
10
-0.394976888875277
20
14.7728739584207
30
0
41
1
10
-0.394976888875277
20
15.1228859444593
30
0
41
1
10
-0.394976888875277
20
15.4702555471364
30
0
41
1
10
-0.394976888875277
20
15.8149837556983
30
0
41
1
10
-0.394976888875277
20
16.1570713412192
30
0
41
1
10
-0.394976888875306
20
16.4965191583142
30
0
41
1
10
-0.394976888875277
20
16.7771522140655
30
0
41
1
10
-0.394976888875277
20
17.0004108954029
30
0
41
1
10
-0.394976888875277
20
17.2227901432131
30
0
41
1
10
-0.394976888875306
20
17.4990274946616
30
0
41
1
10
-0.394976888875306
20
17.8279183615915
30
0
41
1
10
-0.394976888875306
20
18.1541693183472
30
0
41
1
10
-0.394976888875306
20
18.5857236544633
30
0
41
1
10
-0.394976888875277
20
19.0117775851467
30
0
41
1
10
-0.394976888875277
20
19.4327531367487
30
0
41
1
10
-0.394976888875277
20
19.7457866678881
30
0
41
1
10
-0.394976888875277
20
20.0561712754683
30
0
41
1
10
-0.394976888875277
20
20.4665492038552
30
0
41
1
10
-0.394976888875277
20
20.8714231957186
30
0
41
1
10
-0.394976888875277
20
21.2711684505154
30
0
41
1
10
-0.394976888875277
20
21.5682668891846
30
0
41
1
10
-0.394976888875306
20
21.8626976962737
30
0
41
1
10
-0.394976888875277
20
22.2517707390545
30
0
41
1
10
-0.394976888875277
20
22.635313242394
30
0
41
1
10
-0.394976888875277
20
23.0136599970686
30
0
41
1
10
-0.394976888875277
20
23.294686470862
30
0
41
1
10
-0.394976888875277
20
23.5730166298655
30
0
41
1
10
-0.394976888875277
20
23.9405766122791
30
0
41
1
10
-0.394976888875277
20
24.3931333811418
30
0
41
1
10
-0.394976888875277
20
24.8366207519515
30
0
41
1
10
-0.394976888875277
20
25.1860341652141
30
0
41
1
10
-0.394976888875277
20
25.5317904302903
30
0
41
1
10
-0.394976888875277
20
25.9569955457311
30
0
41
1
10
-0.394976888875277
20
26.4562321610578
30
0
41
1
10
-0.394976888875306
20
26.8629311663352
30
0
41
1
10
-0.394976888875277
20
27.1827656093462
30
0
41
1
10
-0.394976888875277
20
27.4197920823074
30
0
41
1
10
-0.394976888875277
20
27.6539931014151
30
0
41
1
10
-0.394976888875277
20
27.9625243956634
30
0
41
1
10
-0.394976888875277
20
28.3409704949157
30
0
41
1
10
-0.394976888875306
20
28.7098481402265
30
0
41
1
10
-0.394976888875277
20
28.9992339808614
30
0
41
1
10
-0.394976888875277
20
29.2133327647665
30
0
41
1
10
-0.394976888875277
20
29.4245084222719
30
0
41
1
10
-0.394976888875277
20
29.7022003135975
30
0
41
1
10
-0.394976888875277
20
30.041846883991
30
0
41
1
10
-0.394976888875277
20
30.4375437690499
30
0
41
1
10
-0.394976888875306
20
30.7572080062434
30
0
41
1
10
-0.394976888875277
20
31.0069093580469
30
0
41
1
10
-0.394976888875277
20
31.2525219484188
30
0
41
1
10
-0.394976888875277
20
31.5517459016333
30
0
41
1
10
-0.394976888875277
20
31.8405614204
30
0
41
1
10
-0.394976888875306
20
32.0653460663191
30
0
41
1
10
-0.394976888875306
20
32.2307235504389
30
0
41
1
10
-0.394976888875277
20
32.3928928338024
30
0
41
1
10
-0.394976888875277
20
32.6048424687674
30
0
41
1
10
-0.394976888875277
20
32.8615720410336
30
0
41
1
10
-0.394976888875277
20
33.1072907219371
30
0
41
1
10
-0.394976888875306
20
33.2972051548837
30
0
41
1
10
-0.394976888875277
20
33.4826057619405
30
0
41
1
10
-0.394976888875306
20
33.6610954954258
30
0
41
1
10
-0.394976888875277
20
33.8327219500751
30
0
41
1
10
-0.394976888875277
20
33.9370369896415
30
0
41
1
10
-0.394976888875306
20
34.0187437151791
30
0
41
1
10
-0.394976888875306
20
34.0992650911193
30
0
41
1
10
-0.394976888875306
20
34.237041913251
30
0
41
1
10
-0.394976888875277
20
34.3872241278821
30
0
41
1
10
-0.394976888875277
20
34.5301171770343
30
0
41
1
10
-0.394976888875277
20
34.6335485066014
30
0
41
1
10
-0.394976888875306
20
34.7332186300704
30
0
41
1
10
-0.394976888875277
20
34.8290853700734
30
0
41
1
10
-0.394976888875277
20
34.9211049364669
30
0
41
1
10
-0.394976888875277
20
35.0092317015021
30
0
41
1
10
-0.394976888875277
20
35.0934183585436
30
0
41
1
10
-0.394976888875277
20
35.1736145542893
30
0
41
1
10
-0.394976888875277
20
35.2497713845769
30
0
41
1
10
-0.394976888875306
20
35.3458690564809
30
0
41
1
10
-0.394976888875306
20
35.4336188232989
30
0
41
1
10
-0.394976888875277
20
35.5128761964009
30
0
41
1
10
-0.394976888875306
20
35.5679744983808
30
0
41
1
10
-0.394976888875277
20
35.6186712456131
30
0
41
1
10
-0.394976888875277
20
35.6648981389415
30
0
41
1
10
-0.394976888875277
20
35.7065800550004
30
0
41
1
10
-0.394976888875277
20
35.7436409390551
30
0
41
1
10
-0.394976888875306
20
35.7759991408607
30
0
41
1
10
-0.394976888875277
20
35.8035690347397
30
0
41
1
10
-0.394976888875277
20
35.826261141687
30
0
41
1
10
-0.394976888875277
20
35.8439795171219
30
0
41
1
10
-0.394976888875277
20
35.8566245309614
30
0
41
1
10
-0.394976888875277
20
35.8637111768467
30
0
41
1
10
-0.394976888875306
20
35.865296672934
30
0
41
1
10
-0.394976888875277
20
35.8653774840696
30
0
0
SPLINE
5
10C
100
AcDbEntity
8
SK1
62
256
6
ByLayer
370
18
48
1
60
0
100
AcDbSpline
70
4
71
3
72
322
73
318
40
0
40
0
40
0
40
0
40
0.0016966252672531
40
0.0034209528680827
40
0.0051452804689123
40
0.0068696080697419
40
0.0103182632714011
40
0.0137669184730603
40
0.0172155736747196
40
0.0206642288763788
40
0.024112884078038
40
0.0275615392796972
40
0.0310101944813564
40
0.0344588496830157
40
0.0379075048846749
40
0.0413561600863341
40
0.0448048152879933
40
0.0482534704896525
40
0.0517021256913118
40
0.055150780892971
40
0.0585994360946302
40
0.0620480912962894
40
0.0654967464979486
40
0.0689454016996078
40
0.0723940569012671
40
0.0758427121029263
40
0.0792913673045855
40
0.0827400225062447
40
0.0861886777079039
40
0.0930859881112224
40
0.0965346433128816
40
0.0982589709137112
40
0.0999832985145408
40
0.1034319537162
40
0.106880608917859
40
0.113777919321178
40
0.117226574522837
40
0.120675229724496
40
0.127572540127814
40
0.134469850531133
40
0.137918505732792
40
0.141367160934452
40
0.144815816136111
40
0.14826447133777
40
0.155161781741088
40
0.162059092144407
40
0.165507747346066
40
0.168956402547725
40
0.175853712951044
40
0.182751023354362
40
0.189648333757681
40
0.19309698895934
40
0.196545644160999
40
0.199994299362658
40
0.203442954564317
40
0.210340264967636
40
0.217237575370954
40
0.220686230572613
40
0.224134885774273
40
0.227583540975932
40
0.231032196177591
40
0.23792950658091
40
0.244826816984228
40
0.251724127387547
40
0.255172782589206
40
0.258621437790865
40
0.265518748194183
40
0.272416058597502
40
0.275864713799161
40
0.27931336900082
40
0.282762024202479
40
0.286210679404139
40
0.293107989807457
40
0.296556645009116
40
0.300005300210775
40
0.303453955412435
40
0.306902610614094
40
0.313799921017412
40
0.317248576219072
40
0.320697231420731
40
0.32414588662239
40
0.327594541824049
40
0.334491852227368
40
0.337940507429027
40
0.341389162630686
40
0.344837817832345
40
0.348286473034005
40
0.350010800634834
40
0.351735128235664
40
0.355183783437323
40
0.362081093840641
40
0.365529749042301
40
0.36897840424396
40
0.372427059445619
40
0.375875714647278
40
0.379324369848938
40
0.382773025050597
40
0.386221680252256
40
0.389670335453915
40
0.393118990655574
40
0.396567645857234
40
0.400016301058893
40
0.403464956260552
40
0.405189283861382
40
0.406913611462211
40
0.41036226666387
40
0.41381092186553
40
0.417259577067189
40
0.420708232268848
40
0.424156887470507
40
0.425881215071337
40
0.427605542672167
40
0.431054197873826
40
0.432778525474655
40
0.434502853075485
40
0.437951508277144
40
0.441400163478804
40
0.443124491079633
40
0.444848818680463
40
0.448297473882122
40
0.451746129083781
40
0.453470456684611
40
0.45519478428544
40
0.45691911188627
40
0.4586434394871
40
0.460367767087929
40
0.462092094688759
40
0.462954258489174
40
0.463816422289588
40
0.465540749890418
40
0.466402913690833
40
0.467265077491248
40
0.468989405092077
40
0.470713732692907
40
0.471575896493322
40
0.472438060293736
40
0.473300224094151
40
0.474162387894566
40
0.475024551694981
40
0.475886715495396
40
0.476748879295811
40
0.477611043096225
40
0.479335370697055
40
0.481059698297884
40
0.482784025898714
40
0.484508353499544
40
0.486232681100373
40
0.487094844900788
40
0.487957008701203
40
0.488819172501618
40
0.489681336302032
40
0.491405663902862
40
0.493129991503692
40
0.493992155304107
40
0.494854319104521
40
0.495716482904936
40
0.496578646705351
40
0.49830297430618
40
0.499165138106595
40
0.50002730190701
40
0.500889465707425
40
0.50175162950784
40
0.503475957108669
40
0.504338120909084
40
0.505200284709499
40
0.506062448509914
40
0.506924612310329
40
0.508648939911158
40
0.510373267511988
40
0.511235431312403
40
0.512097595112817
40
0.512959758913232
40
0.513821922713647
40
0.515546250314477
40
0.516408414114891
40
0.517270577915306
40
0.518994905516136
40
0.519857069316551
40
0.520719233116965
40
0.52158139691738
40
0.522443560717795
40
0.52330572451821
40
0.524167888318625
40
0.525892215919454
40
0.526754379719869
40
0.527616543520284
40
0.528478707320699
40
0.529340871121114
40
0.531065198721943
40
0.532789526322773
40
0.533651690123187
40
0.534513853923602
40
0.536238181524432
40
0.537100345324847
40
0.537962509125262
40
0.539686836726091
40
0.541411164326921
40
0.54313549192775
40
0.54485981952858
40
0.54658414712941
40
0.548308474730239
40
0.551757129931898
40
0.555205785133558
40
0.556930112734387
40
0.558654440335217
40
0.562103095536876
40
0.565551750738535
40
0.567276078339365
40
0.569000405940195
40
0.572449061141854
40
0.575897716343513
40
0.579346371545172
40
0.582795026746831
40
0.586243681948491
40
0.58969233715015
40
0.593140992351809
40
0.596589647553468
40
0.600038302755127
40
0.603486957956787
40
0.606935613158446
40
0.610384268360105
40
0.613832923561764
40
0.617281578763424
40
0.620730233965083
40
0.622454561565913
40
0.624178889166742
40
0.627627544368401
40
0.63107619957006
40
0.63452485477172
40
0.637973509973379
40
0.641422165175038
40
0.644870820376697
40
0.648319475578357
40
0.650043803179186
40
0.651768130780016
40
0.655216785981675
40
0.658665441183334
40
0.662114096384993
40
0.665562751586653
40
0.672460061989971
40
0.67590871719163
40
0.67935737239329
40
0.682806027594949
40
0.686254682796608
40
0.693151993199926
40
0.696600648401586
40
0.700049303603245
40
0.703497958804904
40
0.706946614006563
40
0.713843924409882
40
0.717292579611541
40
0.7207412348132
40
0.724189890014859
40
0.727638545216519
40
0.734535855619837
40
0.741433166023155
40
0.744881821224815
40
0.748330476426474
40
0.755227786829792
40
0.762125097233111
40
0.769022407636429
40
0.772471062838088
40
0.775919718039748
40
0.779368373241407
40
0.782817028443066
40
0.789714338846385
40
0.796611649249703
40
0.800060304451362
40
0.803508959653021
40
0.806957614854681
40
0.81040627005634
40
0.817303580459658
40
0.824200890862977
40
0.831098201266295
40
0.834546856467954
40
0.837995511669614
40
0.844892822072932
40
0.851790132476251
40
0.85523878767791
40
0.858687442879569
40
0.862136098081228
40
0.865584753282887
40
0.872482063686206
40
0.879379374089524
40
0.882828029291184
40
0.886276684492843
40
0.893173994896161
40
0.89662265009782
40
0.90007130529948
40
0.901795632900309
40
0.903519960501139
40
0.906968615702798
40
0.913865926106117
40
0.917314581307776
40
0.920763236509435
40
0.924211891711094
40
0.927660546912753
40
0.931109202114413
40
0.934557857316072
40
0.938006512517731
40
0.94145516771939
40
0.944903822921049
40
0.948352478122709
40
0.955249788526027
40
0.958698443727686
40
0.962147098929345
40
0.965595754131005
40
0.969044409332664
40
0.972493064534323
40
0.975941719735982
40
0.979390374937642
40
0.982839030139301
40
0.98628768534096
40
0.989736340542619
40
0.993184995744278
40
0.996633650945938
40
1
40
1
40
1
40
1
41
1
10
-1.99503997793928
20
-35.8251630498659
30
0
41
1
10
-1.99503997793928
20
-35.8252435438984
30
0
41
1
10
-1.99503997793931
20
-35.8249662224663
30
0
41
1
10
-1.99503997793931
20
-35.8232300538525
30
0
41
1
10
-1.99503997793931
20
-35.8201626633944
30
0
41
1
10
-1.99503997793931
20
-35.8143275520899
30
0
41
1
10
-1.99503997793931
20
-35.8038035395423
30
0
41
1
10
-1.99503997793931
20
-35.786103718398
30
0
41
1
10
-1.99503997793931
20
-35.763434753032
30
0
41
1
10
-1.99503997793931
20
-35.7358925640298
30
0
41
1
10
-1.99503997793928
20
-35.7035662791796
30
0
41
1
10
-1.99503997793931
20
-35.6665412784639
30
0
41
1
10
-1.99503997793931
20
-35.6248991978807
30
0
41
1
10
-1.99503997793928
20
-35.5787156149852
30
0
41
1
10
-1.99503997793931
20
-35.5280658411496
30
0
41
1
10
-1.99503997793931
20
-35.4730177383402
30
0
41
1
10
-1.99503997793931
20
-35.4136393963591
30
0
41
1
10
-1.99503997793931
20
-35.3499946094464
30
0
41
1
10
-1.99503997793931
20
-35.2821433047987
30
0
41
1
10
-1.99503997793928
20
-35.2101443481799
30
0
41
1
10
-1.99503997793928
20
-35.1340535550079
30
0
41
1
10
-1.99503997793931
20
-35.0539244294382
30
0
41
1
10
-1.99503997793931
20
-34.9698083210839
30
0
41
1
10
-1.99503997793931
20
-34.8817544969816
30
0
41
1
10
-1.99503997793931
20
-34.7898102805557
30
0
41
1
10
-1.99503997793931
20
-34.6940212809506
30
0
41
1
10
-1.99503997793931
20
-34.5944312751917
30
0
41
1
10
-1.99503997793931
20
-34.4910822904624
30
0
41
1
10
-1.99503997793928
20
-34.3482948986979
30
0
41
1
10
-1.99503997793931
20
-34.1982444859641
30
0
41
1
10
-1.99503997793931
20
-34.0605701934049
30
0
41
1
10
-1.99503997793931
20
-33.98010670812
30
0
41
1
10
-1.99503997793931
20
-33.8984584677327
30
0
41
1
10
-1.99503997793931
20
-33.7942266244678
30
0
41
1
10
-1.99503997793931
20
-33.6227215100013
30
0
41
1
10
-1.99503997793931
20
-33.4443819493482
30
0
41
1
10
-1.99503997793931
20
-33.2591101879707
30
0
41
1
10
-1.99503997793928
20
-33.0693268620525
30
0
41
1
10
-1.99503997793931
20
-32.8237966604288
30
0
41
1
10
-1.99503997793931
20
-32.567262400264
30
0
41
1
10
-1.99503997793931
20
-32.3554556995001
30
0
41
1
10
-1.99503997793931
20
-32.1934025758849
30
0
41
1
10
-1.99503997793931
20
-32.0281430685794
30
0
41
1
10
-1.99503997793931
20
-31.803508135832
30
0
41
1
10
-1.99503997793928
20
-31.5149070210429
30
0
41
1
10
-1.99503997793931
20
-31.2159040588431
30
0
41
1
10
-1.99503997793928
20
-30.9704527178571
30
0
41
1
10
-1.99503997793931
20
-30.7209148294369
30
0
41
1
10
-1.99503997793931
20
-30.4014843150581
30
0
41
1
10
-1.99503997793931
20
-30.0060620312649
30
0
41
1
10
-1.99503997793928
20
-29.6666623731204
30
0
41
1
10
-1.99503997793928
20
-29.3891503890766
30
0
41
1
10
-1.99503997793931
20
-29.1781205774538
30
0
41
1
10
-1.99503997793931
20
-28.964169578493
30
0
41
1
10
-1.99503997793931
20
-28.6749709038125
30
0
41
1
10
-1.99503997793928
20
-28.3063605307707
30
0
41
1
10
-1.99503997793931
20
-27.9281887523049
30
0
41
1
10
-1.99503997793931
20
-27.6198572645245
30
0
41
1
10
-1.99503997793928
20
-27.3858182086698
30
0
41
1
10
-1.99503997793928
20
-27.1489558193583
30
0
41
1
10
-1.99503997793931
20
-26.8293292051835
30
0
41
1
10
-1.99503997793931
20
-26.4229269800761
30
0
41
1
10
-1.99503997793931
20
-25.9240385075182
30
0
41
1
10
-1.99503997793931
20
-25.4991460740629
30
0
41
1
10
-1.99503997793931
20
-25.1536176922536
30
0
41
1
10
-1.99503997793931
20
-24.8044353771775
30
0
41
1
10
-1.99503997793931
20
-24.3612782589387
30
0
41
1
10
-1.99503997793931
20
-23.9090605721076
30
0
41
1
10
-1.99503997793928
20
-23.5417479137996
30
0
41
1
10
-1.99503997793931
20
-23.2636185109001
30
0
41
1
10
-1.99503997793928
20
-22.9827956359495
30
0
41
1
10
-1.99503997793928
20
-22.6047071741367
30
0
41
1
10
-1.99503997793928
20
-22.2214812917415
30
0
41
1
10
-1.99503997793928
20
-21.8326778029793
30
0
41
1
10
-1.99503997793931
20
-21.538466032195
30
0
41
1
10
-1.99503997793928
20
-21.2415899298926
30
0
41
1
10
-1.99503997793931
20
-20.8421270565358
30
0
41
1
10
-1.99503997793928
20
-20.4375997068478
30
0
41
1
10
-1.99503997793931
20
-20.0275173382951
30
0
41
1
10
-1.99503997793931
20
-19.7173732272647
30
0
41
1
10
-1.99503997793928
20
-19.4045841229999
30
0
41
1
10
-1.99503997793931
20
-18.9839194912414
30
0
41
1
10
-1.99503997793931
20
-18.5582479543883
30
0
41
1
10
-1.99503997793931
20
-18.1270203682571
30
0
41
1
10
-1.99503997793931
20
-17.8010357300387
30
0
41
1
10
-1.99503997793931
20
-17.4724160404973
30
0
41
1
10
-1.99503997793931
20
-17.1964201976603
30
0
41
1
10
-1.99503997793928
20
-16.9742159130046
30
0
41
1
10
-1.99503997793931
20
-16.7511340488146
30
0
41
1
10
-1.99503997793931
20
-16.3584761888621
30
0
41
1
10
-1.99503997793931
20
-15.9047277931739
30
0
41
1
10
-1.99503997793931
20
-15.4453839893882
30
0
41
1
10
-1.99503997793931
20
-15.0983254904573
30
0
41
1
10
-1.99503997793931
20
-14.7486306960068
30
0
41
1
10
-1.99503997793931
20
-14.3962994527456
30
0
41
1
10
-1.99503997793931
20
-14.0413293344855
30
0
41
1
10
-1.99503997793931
20
-13.683719865638
30
0
41
1
10
-1.99503997793928
20
-13.3234688690064
30
0
41
1
10
-1.99503997793931
20
-12.960574817857
30
0
41
1
10
-1.99503997793931
20
-12.595036086484
30
0
41
1
10
-1.99503997793928
20
-12.2268504032845
30
0
41
1
10
-1.99503997793931
20
-11.856016465163
30
0
41
1
10
-1.99503997793931
20
-11.5448487178991
30
0
41
1
10
-1.99503997793931
20
-11.2944582734028
30
0
41
1
10
-1.99503997793931
20
-11.0431853255423
30
0
41
1
10
-1.99503997793931
20
-10.7276055574807
30
0
41
1
10
-1.99503997793931
20
-10.3461604572555
30
0
41
1
10
-1.99503997793931
20
-9.96205939515542
30
0
41
1
10
-1.99503997793931
20
-9.57530319982877
30
0
41
1
10
-1.99503997793931
20
-9.2508763048483
30
0
41
1
10
-1.99503997793931
20
-8.98985104945214
30
0
41
1
10
-1.99503997793931
20
-8.72794364001862
30
0
41
1
10
-1.99503997793928
20
-8.4649832423369
30
0
41
1
10
-1.99503997793931
20
-8.20041755954969
30
0
41
1
10
-1.99503997793931
20
-7.93497342164284
30
0
41
1
10
-1.99503997793931
20
-7.60174006365557
30
0
41
1
10
-1.99503997793931
20
-7.26630760435378
30
0
41
1
10
-1.99503997793931
20
-6.99646231552359
30
0
41
1
10
-1.99503997793931
20
-6.7257499364033
30
0
41
1
10
-1.99503997793931
20
-6.38598399194689
30
0
41
1
10
-1.99503997793928
20
-6.0440571882672
30
0
41
1
10
-1.99503997793928
20
-5.76902086988602
30
0
41
1
10
-1.99503997793931
20
-5.56220360150749
30
0
41
1
10
-1.99503997793931
20
-5.35475597589533
30
0
41
1
10
-1.99503997793931
20
-5.14668271481384
30
0
41
1
10
-1.99503997793931
20
-4.93799065000763
30
0
41
1
10
-1.99503997793928
20
-4.76363710905446
30
0
41
1
10
-1.99503997793931
20
-4.62372539696355
30
0
41
1
10
-1.99503997793931
20
-4.48361577983206
30
0
41
1
10
-1.99503997793931
20
-4.34342549686542
30
0
41
1
10
-1.99503997793931
20
-4.20271764804272
30
0
41
1
10
-1.99503997793931
20
-4.06181812904794
30
0
41
1
10
-1.99503997793928
20
-3.8855085074218
30
0
41
1
10
-1.99503997793931
20
-3.70872432304057
30
0
41
1
10
-1.99503997793931
20
-3.56687681977306
30
0
41
1
10
-1.99503997793931
20
-3.46041866707625
30
0
41
1
10
-1.99503997793931
20
-3.35382635526125
30
0
41
1
10
-1.99503997793928
20
-3.24710174058401
30
0
41
1
10
-1.99503997793928
20
-3.14024803839368
30
0
41
1
10
-1.99503997793928
20
-3.03326805859808
30
0
41
1
10
-1.99503997793928
20
-2.92616291868399
30
0
41
1
10
-1.99503997793931
20
-2.78310305721487
30
0
41
1
10
-1.99503997793931
20
-2.60418785734106
30
0
41
1
10
-1.99503997793928
20
-2.38891915598521
30
0
41
1
10
-1.99503997793928
20
-2.17322083473795
30
0
41
1
10
-1.99503997793931
20
-1.95712119571593
30
0
41
1
10
-1.99503997793931
20
-1.77682922491971
30
0
41
1
10
-1.99503997793928
20
-1.63223932075869
30
0
41
1
10
-1.99503997793928
20
-1.52379768483641
30
0
41
1
10
-1.99503997793928
20
-1.41528063419042
30
0
41
1
10
-1.99503997793931
20
-1.27038903897369
30
0
41
1
10
-1.99503997793931
20
-1.08935866678002
30
0
41
1
10
-1.99503997793931
20
-0.908138052921174
30
0
41
1
10
-1.99503997793931
20
-0.762866902191803
30
0
41
1
10
-1.99503997793931
20
-0.653960641303343
30
0
41
1
10
-1.99503997793931
20
-0.545019960941005
30
0
41
1
10
-1.99503997793931
20
-0.399611433921848
30
0
41
1
10
-1.99503997793931
20
-0.254507243772423
30
0
41
1
10
-1.99503997793928
20
-0.109027220249999
30
0
41
1
10
-1.99503997793928
20
9.1374659E-09
30
0
41
1
10
-1.99503997793931
20
0.109027235983348
30
0
41
1
10
-1.99503997793928
20
0.254507260377693
30
0
41
1
10
-1.99503997793931
20
0.399611451538988
30
0
41
1
10
-1.99503997793931
20
0.545019973860917
30
0
41
1
10
-1.99503997793928
20
0.653960658723463
30
0
41
1
10
-1.99503997793931
20
0.76286692146644
30
0
41
1
10
-1.99503997793931
20
0.908138069364895
30
0
41
1
10
-1.99503997793931
20
1.08935868161845
30
0
41
1
10
-1.99503997793931
20
1.27038905366359
30
0
41
1
10
-1.99503997793931
20
1.41528065788859
30
0
41
1
10
-1.99503997793931
20
1.52379770019974
30
0
41
1
10
-1.99503997793931
20
1.63223933880323
30
0
41
1
10
-1.99503997793928
20
1.77682919806017
30
0
41
1
10
-1.99503997793931
20
1.92093491483612
30
0
41
1
10
-1.99503997793931
20
2.06516367446019
30
0
41
1
10
-1.99503997793928
20
2.20926559475362
30
0
41
1
10
-1.99503997793928
20
2.35286670982623
30
0
41
1
10
-1.99503997793928
20
2.49654581237678
30
0
41
1
10
-1.99503997793928
20
2.60412375528313
30
0
41
1
10
-1.99503997793928
20
2.71158686216666
30
0
41
1
10
-1.99503997793931
20
2.81893418131361
30
0
41
1
10
-1.99503997793931
20
2.92616259642287
30
0
41
1
10
-1.99503997793931
20
3.06906085087897
30
0
41
1
10
-1.99503997793928
20
3.21144324089971
30
0
41
1
10
-1.99503997793928
20
3.35382641814786
30
0
41
1
10
-1.99503997793928
20
3.4604186809762
30
0
41
1
10
-1.99503997793928
20
3.5668768085371
30
0
41
1
10
-1.99503997793931
20
3.70872432201037
30
0
41
1
10
-1.99503997793928
20
3.88550853751431
30
0
41
1
10
-1.99503997793931
20
4.06181816740792
30
0
41
1
10
-1.99503997793928
20
4.20271766259083
30
0
41
1
10
-1.99503997793931
20
4.34342548405567
30
0
41
1
10
-1.99503997793928
20
4.48361575507573
30
0
41
1
10
-1.99503997793928
20
4.62372538326241
30
0
41
1
10
-1.99503997793931
20
4.76363712095312
30
0
41
1
10
-1.99503997793931
20
4.93799069007395
30
0
41
1
10
-1.99503997793931
20
5.14668274769548
30
0
41
1
10
-1.99503997793928
20
5.35475597096192
30
0
41
1
10
-1.99503997793928
20
5.56220357677805
30
0
41
1
10
-1.99503997793928
20
5.76902086592727
30
0
41
1
10
-1.99503997793931
20
6.04405722561486
30
0
41
1
10
-1.99503997793928
20
6.38598402190888
30
0
41
1
10
-1.99503997793931
20
6.72574990920415
30
0
41
1
10
-1.99503997793931
20
6.99646231662959
30
0
41
1
10
-1.99503997793931
20
7.26630764015118
30
0
41
1
10
-1.99503997793931
20
7.60174008666431
30
0
41
1
10
-1.99503997793931
20
7.93497336561654
30
0
41
1
10
-1.99503997793928
20
8.20041752296069
30
0
41
1
10
-1.99503997793931
20
8.46498321367619
30
0
41
1
10
-1.99503997793928
20
8.79382593589909
30
0
41
1
10
-1.99503997793928
20
9.18589158918718
30
0
41
1
10
-1.99503997793928
20
9.57530335790582
30
0
41
1
10
-1.99503997793928
20
9.96205972428268
30
0
41
1
10
-1.99503997793931
20
10.3461602965628
30
0
41
1
10
-1.99503997793928
20
10.7276051607687
30
0
41
1
10
-1.99503997793928
20
11.1063953922263
30
0
41
1
10
-1.99503997793928
20
11.4825318141738
30
0
41
1
10
-1.99503997793931
20
11.85601645061
30
0
41
1
10
-1.99503997793931
20
12.2268503778689
30
0
41
1
10
-1.99503997793928
20
12.5950360925706
30
0
41
1
10
-1.99503997793928
20
12.9605748020561
30
0
41
1
10
-1.99503997793931
20
13.3234688579879
30
0
41
1
10
-1.99503997793931
20
13.6837198698814
30
0
41
1
10
-1.99503997793931
20
13.9816645441138
30
0
41
1
10
-1.99503997793931
20
14.2188112194045
30
0
41
1
10
-1.99503997793931
20
14.455079118457
30
0
41
1
10
-1.99503997793928
20
14.7486309197531
30
0
41
1
10
-1.99503997793931
20
15.0983253104253
30
0
41
1
10
-1.99503997793931
20
15.4453840138399
30
0
41
1
10
-1.99503997793931
20
15.7898077032214
30
0
41
1
10
-1.99503997793928
20
16.1315968939283
30
0
41
1
10
-1.99503997793931
20
16.4707522036702
30
0
41
1
10
-1.99503997793931
20
16.7511340559088
30
0
41
1
10
-1.99503997793931
20
16.9742159134664
30
0
41
1
10
-1.99503997793931
20
17.1964202003686
30
0
41
1
10
-1.99503997793931
20
17.4724160483816
30
0
41
1
10
-1.99503997793928
20
17.8010357340039
30
0
41
1
10
-1.99503997793931
20
18.1270203733511
30
0
41
1
10
-1.99503997793928
20
18.5582479712653
30
0
41
1
10
-1.99503997793928
20
18.983919492224
30
0
41
1
10
-1.99503997793931
20
19.4045841348166
30
0
41
1
10
-1.99503997793931
20
19.7173732218513
30
0
41
1
10
-1.99503997793928
20
20.0275173509219
30
0
41
1
10
-1.99503997793931
20
20.4375997139134
30
0
41
1
10
-1.99503997793928
20
20.8421270630884
30
0
41
1
10
-1.99503997793931
20
21.2415899372622
30
0
41
1
10
-1.99503997793928
20
21.5384660281962
30
0
41
1
10
-1.99503997793931
20
21.8326778142531
30
0
41
1
10
-1.99503997793928
20
22.2214812963055
30
0
41
1
10
-1.99503997793928
20
22.6047071794768
30
0
41
1
10
-1.99503997793928
20
22.9827956431365
30
0
41
1
10
-1.99503997793928
20
23.2636185073191
30
0
41
1
10
-1.99503997793928
20
23.5417479211438
30
0
41
1
10
-1.99503997793931
20
23.9090605798749
30
0
41
1
10
-1.99503997793928
20
24.3612782608926
30
0
41
1
10
-1.99503997793928
20
24.8044353773023
30
0
41
1
10
-1.99503997793931
20
25.1536176941803
30
0
41
1
10
-1.99503997793928
20
25.4991460823892
30
0
41
1
10
-1.99503997793928
20
25.9240385032945
30
0
41
1
10
-1.99503997793928
20
26.4229269838674
30
0
41
1
10
-1.99503997793931
20
26.8293292074653
30
0
41
1
10
-1.99503997793931
20
27.1489558217171
30
0
41
1
10
-1.99503997793928
20
27.3858182074443
30
0
41
1
10
-1.99503997793931
20
27.6198572656328
30
0
41
1
10
-1.99503997793931
20
27.9281887547298
30
0
41
1
10
-1.99503997793928
20
28.306360528673
30
0
41
1
10
-1.99503997793928
20
28.6749709053452
30
0
41
1
10
-1.99503997793931
20
28.9641695771706
30
0
41
1
10
-1.99503997793928
20
29.1781205760016
30
0
41
1
10
-1.99503997793928
20
29.3891503898005
30
0
41
1
10
-1.99503997793928
20
29.6666623719011
30
0
41
1
10
-1.99503997793931
20
30.0060620316198
30
0
41
1
10
-1.99503997793931
20
30.4014843078869
30
0
41
1
10
-1.99503997793931
20
30.720914832824
30
0
41
1
10
-1.99503997793928
20
30.9704527129577
30
0
41
1
10
-1.99503997793928
20
31.2159040534274
30
0
41
1
10
-1.99503997793931
20
31.5149070177094
30
0
41
1
10
-1.99503997793928
20
31.8035081361274
30
0
41
1
10
-1.99503997793931
20
32.0281430662551
30
0
41
1
10
-1.99503997793931
20
32.1934025642943
30
0
41
1
10
-1.99503997793931
20
32.3554556997831
30
0
41
1
10
-1.99503997793931
20
32.5672623983938
30
0
41
1
10
-1.99503997793928
20
32.8237966601455
30
0
41
1
10
-1.99503997793931
20
33.0693268459333
30
0
41
1
10
-1.99503997793931
20
33.2591101848391
30
0
41
1
10
-1.99503997793928
20
33.4443819491762
30
0
41
1
10
-1.99503997793931
20
33.622721506097
30
0
41
1
10
-1.99503997793931
20
33.7942266163982
30
0
41
1
10
-1.99503997793928
20
33.8984584538254
30
0
41
1
10
-1.99503997793928
20
33.9801066971493
30
0
41
1
10
-1.99503997793931
20
34.0605701909876
30
0
41
1
10
-1.99503997793931
20
34.1982444851697
30
0
41
1
10
-1.99503997793928
20
34.348294891195
30
0
41
1
10
-1.99503997793931
20
34.4910822889059
30
0
41
1
10
-1.99503997793931
20
34.5944312514431
30
0
41
1
10
-1.99503997793931
20
34.6940212865371
30
0
41
1
10
-1.99503997793928
20
34.7898102716018
30
0
41
1
10
-1.99503997793931
20
34.8817544739769
30
0
41
1
10
-1.99503997793931
20
34.9698083299964
30
0
41
1
10
-1.99503997793931
20
35.0539245925552
30
0
41
1
10
-1.99503997793928
20
35.1340530052702
30
0
41
1
10
-1.99503997793931
20
35.2101447225725
30
0
41
1
10
-1.99503997793931
20
35.3061643717786
30
0
41
1
10
-1.99503997793928
20
35.393827084185
30
0
41
1
10
-1.99503997793931
20
35.473017757568
30
0
41
1
10
-1.99503997793928
20
35.5280658263188
30
0
41
1
10
-1.99503997793931
20
35.5787156824351
30
0
41
1
10
-1.99503997793931
20
35.6248991716382
30
0
41
1
10
-1.99503997793928
20
35.6665413308515
30
0
41
1
10
-1.99503997793931
20
35.7035662864511
30
0
41
1
10
-1.99503997793931
20
35.7358925782286
30
0
41
1
10
-1.99503997793928
20
35.7634347985348
30
0
41
1
10
-1.99503997793931
20
35.7861037017736
30
0
41
1
10
-1.99503997793928
20
35.8038036057849
30
0
41
1
10
-1.99503997793931
20
35.8164351684488
30
0
41
1
10
-1.99503997793928
20
35.823832219343
30
0
41
1
10
-1.99503997793934
20
35.8253027766772
30
0
41
1
10
-1.99503997793931
20
35.8251709584019
30
0
0
SPLINE
5
10D
100
AcDbEntity
8
SK1
62
256
6
ByLayer
370
18
48
1
60
0
100
AcDbSpline
70
4
71
3
72
126
73
122
40
0
40
0
40
0
40
0
40
0.0034555595833204
40
0.0072845118061048
40
0.0111134640288892
40
0.0149424162516736
40
0.0226003206972425
40
0.0302582251428113
40
0.0379161295883802
40
0.045574034033949
40
0.0532319384795179
40
0.0608898429250867
40
0.0685477473706556
40
0.0762056518162244
40
0.0838635562617932
40
0.0915214607073621
40
0.099179365152931
40
0.1068372695985
40
0.114495174044069
40
0.122153078489637
40
0.129810982935206
40
0.137468887380775
40
0.145126791826344
40
0.152784696271913
40
0.160442600717482
40
0.168100505163051
40
0.175758409608619
40
0.183416314054188
40
0.191074218499757
40
0.206390027390895
40
0.214047931836464
40
0.217876884059248
40
0.221705836282032
40
0.229363740727601
40
0.23702164517317
40
0.252337454064308
40
0.259995358509877
40
0.267653262955446
40
0.282969071846583
40
0.298284880737721
40
0.30594278518329
40
0.313600689628859
40
0.321258594074427
40
0.328916498519996
40
0.344232307411134
40
0.359548116302272
40
0.367206020747841
40
0.37486392519341
40
0.390179734084547
40
0.405495542975685
40
0.420811351866823
40
0.428469256312392
40
0.43612716075796
40
0.443785065203529
40
0.451442969649098
40
0.466758778540236
40
0.482074587431373
40
0.489732491876942
40
0.497390396322511
40
0.50504830076808
40
0.512706205213649
40
0.528022014104786
40
0.543337822995924
40
0.558653631887062
40
0.566311536332631
40
0.5739694407782
40
0.589285249669337
40
0.604601058560475
40
0.612258963006044
40
0.619916867451613
40
0.627574771897181
40
0.63523267634275
40
0.650548485233888
40
0.658206389679457
40
0.665864294125026
40
0.673522198570594
40
0.681180103016164
40
0.696495911907301
40
0.70415381635287
40
0.711811720798439
40
0.719469625244008
40
0.727127529689576
40
0.742443338580714
40
0.750101243026283
40
0.757759147471852
40
0.765417051917421
40
0.77307495636299
40
0.776903908585774
40
0.780732860808558
40
0.788390765254127
40
0.803706574145265
40
0.811364478590834
40
0.819022383036403
40
0.826680287481972
40
0.83433819192754
40
0.841996096373109
40
0.849654000818678
40
0.857311905264247
40
0.864969809709816
40
0.872627714155385
40
0.880285618600953
40
0.887943523046522
40
0.895601427492091
40
0.899430379714876
40
0.90325933193766
40
0.910917236383229
40
0.918575140828798
40
0.926233045274367
40
0.933890949719935
40
0.941548854165504
40
0.945377806388289
40
0.949206758611073
40
0.956864663056642
40
0.960693615279426
40
0.964522567502211
40
0.97218047194778
40
0.979838376393348
40
0.983667328616133
40
0.987496280838917
40
0.995154185284486
40
1
40
1
40
1
40
1
41
1
10
-0.394976888875306
20
-35.8653776102414
30
0
41
1
10
-0.394976888875277
20
-35.865418407296
30
0
41
1
10
-0.394976888875277
20
-35.8651176250065
30
0
41
1
10
-0.394976888875306
20
-35.8634269812556
30
0
41
1
10
-0.394976888875306
20
-35.8603562366916
30
0
41
1
10
-0.394976888875306
20
-35.854515215742
30
0
41
1
10
-0.394976888875277
20
-35.8439794508304
30
0
41
1
10
-0.394976888875306
20
-35.8262611583918
30
0
41
1
10
-0.394976888875306
20
-35.8035689891332
30
0
41
1
10
-0.394976888875306
20
-35.7759991267868
30
0
41
1
10
-0.394976888875306
20
-35.7436409316581
30
0
41
1
10
-0.394976888875306
20
-35.7065800027222
30
0
41
1
10
-0.394976888875306
20
-35.6648981651514
30
0
41
1
10
-0.394976888875306
20
-35.6186711780713
30
0
41
1
10
-0.394976888875306
20
-35.5679745134804
30
0
41
1
10
-0.394976888875277
20
-35.5128761760524
30
0
41
1
10
-0.394976888875306
20
-35.4534444043633
30
0
41
1
10
-0.394976888875306
20
-35.3897431016973
30
0
41
1
10
-0.394976888875306
20
-35.3218323112639
30
0
41
1
10
-0.394976888875306
20
-35.2497710104041
30
0
41
1
10
-0.394976888875306
20
-35.1736151059194
30
0
41
1
10
-0.394976888875306
20
-35.093418190414
30
0
41
1
10
-0.394976888875306
20
-35.0092316945093
30
0
41
1
10
-0.394976888875277
20
-34.9211049595596
30
0
41
1
10
-0.394976888875306
20
-34.829085378746
30
0
41
1
10
-0.394976888875306
20
-34.7332186246447
30
0
41
1
10
-0.394976888875306
20
-34.6335485304196
30
0
41
1
10
-0.394976888875306
20
-34.5301171783813
30
0
41
1
10
-0.394976888875306
20
-34.3872241353874
30
0
41
1
10
-0.394976888875306
20
-34.2370419140071
30
0
41
1
10
-0.394976888875306
20
-34.0992650937292
30
0
41
1
10
-0.394976888875306
20
-34.0187437263543
30
0
41
1
10
-0.394976888875306
20
-33.9370370034868
30
0
41
1
10
-0.394976888875306
20
-33.8327219580027
30
0
41
1
10
-0.394976888875306
20
-33.6610954992522
30
0
41
1
10
-0.394976888875306
20
-33.4826057621145
30
0
41
1
10
-0.394976888875306
20
-33.2972051581974
30
0
41
1
10
-0.394976888875306
20
-33.1072907380499
30
0
41
1
10
-0.394976888875306
20
-32.8615720411722
30
0
41
1
10
-0.394976888875306
20
-32.6048424706425
30
0
41
1
10
-0.394976888875306
20
-32.3928928336977
30
0
41
1
10
-0.394976888875306
20
-32.2307235620492
30
0
41
1
10
-0.394976888875306
20
-32.0653460684281
30
0
41
1
10
-0.394976888875306
20
-31.8405614201245
30
0
41
1
10
-0.394976888875306
20
-31.5517459050345
30
0
41
1
10
-0.394976888875306
20
-31.2525219538402
30
0
41
1
10
-0.394976888875277
20
-31.0069093628079
30
0
41
1
10
-0.394976888875277
20
-30.7572080028694
30
0
41
1
10
-0.394976888875306
20
-30.4375437762782
30
0
41
1
10
-0.394976888875306
20
-30.0418468835666
30
0
41
1
10
-0.394976888875277
20
-29.7022003148107
30
0
41
1
10
-0.394976888875277
20
-29.4245084215695
30
0
41
1
10
-0.394976888875306
20
-29.2133327662611
30
0
41
1
10
-0.394976888875306
20
-28.9992339821199
30
0
41
1
10
-0.394976888875306
20
-28.7098481386985
30
0
41
1
10
-0.394976888875306
20
-28.340970496997
30
0
41
1
10
-0.394976888875306
20
-27.9625243931996
30
0
41
1
10
-0.394976888875306
20
-27.6539931003944
30
0
41
1
10
-0.394976888875306
20
-27.4197920834741
30
0
41
1
10
-0.394976888875306
20
-27.1827656068871
30
0
41
1
10
-0.394976888875277
20
-26.8629311640439
30
0
41
1
10
-0.394976888875277
20
-26.4562321573553
30
0
41
1
10
-0.394976888875306
20
-25.9569955498363
30
0
41
1
10
-0.394976888875306
20
-25.5317904219061
30
0
41
1
10
-0.394976888875306
20
-25.1860341634964
30
0
41
1
10
-0.394976888875306
20
-24.8366207517989
30
0
41
1
10
-0.394976888875277
20
-24.3931333790251
30
0
41
1
10
-0.394976888875277
20
-23.9405766044572
30
0
41
1
10
-0.394976888875306
20
-23.5730166229076
30
0
41
1
10
-0.394976888875306
20
-23.294686474333
30
0
41
1
10
-0.394976888875277
20
-23.0136599895412
30
0
41
1
10
-0.394976888875306
20
-22.6353132371553
30
0
41
1
10
-0.394976888875306
20
-22.2517707343539
30
0
41
1
10
-0.394976888875306
20
-21.8626976854152
30
0
41
1
10
-0.394976888875306
20
-21.5682668931889
30
0
41
1
10
-0.394976888875306
20
-21.271168442681
30
0
41
1
10
-0.394976888875306
20
-20.8714231892215
30
0
41
1
10
-0.394976888875277
20
-20.4665491966628
30
0
41
1
10
-0.394976888875306
20
-20.0561712634217
30
0
41
1
10
-0.394976888875277
20
-19.7457866731406
30
0
41
1
10
-0.394976888875306
20
-19.4327531245027
30
0
41
1
10
-0.394976888875306
20
-19.0117775840375
30
0
41
1
10
-0.394976888875277
20
-18.5857236375232
30
0
41
1
10
-0.394976888875277
20
-18.1541693136931
30
0
41
1
10
-0.394976888875306
20
-17.8279183574374
30
0
41
1
10
-0.394976888875306
20
-17.4990274869922
30
0
41
1
10
-0.394976888875277
20
-17.2227901407219
30
0
41
1
10
-0.394976888875277
20
-17.0004108943221
30
0
41
1
10
-0.394976888875277
20
-16.7771522077328
30
0
41
1
10
-0.394976888875306
20
-16.3841710240748
30
0
41
1
10
-0.394976888875306
20
-15.9299794688331
30
0
41
1
10
-0.394976888875277
20
-15.4702555452062
30
0
41
1
10
-0.394976888875277
20
-15.1228861045844
30
0
41
1
10
-0.394976888875306
20
-14.7728737253136
30
0
41
1
10
-0.394976888875306
20
-14.4202178800222
30
0
41
1
10
-0.394976888875277
20
-14.0649158346649
30
0
41
1
10
-0.394976888875306
20
-13.706966774032
30
0
41
1
10
-0.394976888875306
20
-13.3463680945818
30
0
41
1
10
-0.394976888875277
20
-12.9831179010793
30
0
41
1
10
-0.394976888875306
20
-12.6172140721258
30
0
41
1
10
-0.394976888875306
20
-12.2486538786068
30
0
41
1
10
-0.394976888875306
20
-11.877435461996
30
0
41
1
10
-0.394976888875306
20
-11.5659225593266
30
0
41
1
10
-0.394976888875306
20
-11.3152803628128
30
0
41
1
10
-0.394976888875306
20
-11.0637515002381
30
0
41
1
10
-0.394976888875277
20
-10.7478052942324
30
0
41
1
10
-0.394976888875277
20
-10.3659294753254
30
0
41
1
10
-0.394976888875277
20
-9.98138431841267
30
0
41
1
10
-0.394976888875277
20
-9.59416962249634
30
0
41
1
10
-0.394976888875277
20
-9.26932873965478
30
0
41
1
10
-0.394976888875277
20
-9.00799999429159
30
0
41
1
10
-0.394976888875277
20
-8.7457829273653
30
0
41
1
10
-0.394976888875306
20
-8.48244127998379
30
0
41
1
10
-0.394976888875306
20
-8.21754953480053
30
0
41
1
10
-0.394976888875277
20
-7.95177203759235
30
0
41
1
10
-0.394976888875277
20
-7.61805779883338
30
0
41
1
10
-0.394976888875306
20
-7.28212707034135
30
0
41
1
10
-0.394976888875306
20
-7.01191435047284
30
0
41
1
10
-0.394976888875277
20
-6.74082520810296
30
0
41
1
10
-0.394976888875277
20
-6.45050039040558
30
0
41
1
10
-0.394976888875306
20
-6.22707378727881
30
0
41
1
10
-0.394976888875306
20
-6.14029722152787
30
0
0
SPLINE
5
10E
100
AcDbEntity
8
SK1
62
256
6
ByLayer
370
18
48
1
60
0
100
AcDbSpline
70
4
71
3
72
316
73
312
40
0
40
0
40
0
40
0
40
0.0001689122067074
40
0.003688948524491
40
0.0072089848422746
40
0.0107290211600582
40
0.0142490574778418
40
0.0177690937956255
40
0.0212891301134091
40
0.0248091664311927
40
0.0283292027489763
40
0.0318492390667599
40
0.0353692753845435
40
0.0388893117023271
40
0.0424093480201108
40
0.0459293843378944
40
0.049449420655678
40
0.0529694569734616
40
0.0564894932912452
40
0.0600095296090288
40
0.0635295659268125
40
0.0670496022445961
40
0.0705696385623797
40
0.0740896748801633
40
0.0776097111979469
40
0.0846497838335141
40
0.0881698201512978
40
0.0899298383101896
40
0.0916898564690814
40
0.095209892786865
40
0.0987299291046486
40
0.105770001740216
40
0.109290038057999
40
0.112810074375783
40
0.11985014701135
40
0.126890219646917
40
0.130410255964701
40
0.133930292282485
40
0.137450328600268
40
0.140970364918052
40
0.148010437553619
40
0.155050510189186
40
0.15857054650697
40
0.162090582824754
40
0.169130655460321
40
0.176170728095888
40
0.183210800731455
40
0.186730837049239
40
0.190250873367023
40
0.193770909684806
40
0.19729094600259
40
0.204331018638157
40
0.211371091273724
40
0.214891127591508
40
0.218411163909291
40
0.221931200227075
40
0.225451236544859
40
0.232491309180426
40
0.239531381815993
40
0.246571454451561
40
0.250091490769344
40
0.253611527087128
40
0.260651599722695
40
0.267691672358262
40
0.271211708676046
40
0.274731744993829
40
0.278251781311613
40
0.281771817629397
40
0.288811890264964
40
0.292331926582747
40
0.295851962900531
40
0.299371999218315
40
0.302892035536098
40
0.309932108171666
40
0.313452144489449
40
0.316972180807233
40
0.320492217125016
40
0.3240122534428
40
0.331052326078367
40
0.334572362396151
40
0.338092398713934
40
0.341612435031718
40
0.345132471349502
40
0.346892489508394
40
0.348652507667285
40
0.352172543985069
40
0.359212616620636
40
0.36273265293842
40
0.366252689256203
40
0.369772725573987
40
0.373292761891771
40
0.376812798209554
40
0.380332834527338
40
0.383852870845121
40
0.387372907162905
40
0.390892943480689
40
0.394412979798472
40
0.397933016116256
40
0.40145305243404
40
0.403213070592931
40
0.404973088751823
40
0.408493125069607
40
0.41201316138739
40
0.415533197705174
40
0.419053234022958
40
0.422573270340741
40
0.424333288499633
40
0.426093306658525
40
0.429613342976308
40
0.4313733611352
40
0.433133379294092
40
0.436653415611876
40
0.440173451929659
40
0.441933470088551
40
0.443693488247443
40
0.447213524565227
40
0.45073356088301
40
0.452493579041902
40
0.454253597200794
40
0.456013615359685
40
0.457773633518577
40
0.459533651677469
40
0.461293669836361
40
0.462173678915807
40
0.463053687995253
40
0.464813706154145
40
0.46569371523359
40
0.466573724313036
40
0.468333742471928
40
0.47009376063082
40
0.470973769710266
40
0.471853778789712
40
0.472733787869158
40
0.473613796948604
40
0.47449380602805
40
0.475373815107495
40
0.476253824186941
40
0.477133833266387
40
0.478893851425279
40
0.480653869584171
40
0.482413887743063
40
0.484173905901955
40
0.485933924060846
40
0.486813933140292
40
0.487693942219738
40
0.488573951299184
40
0.48945396037863
40
0.491213978537522
40
0.492973996696414
40
0.493854005775859
40
0.494734014855305
40
0.495614023934751
40
0.496494033014197
40
0.498254051173089
40
0.499134060252535
40
0.500014069331981
40
0.500894078411427
40
0.501774087490872
40
0.503534105649764
40
0.50441411472921
40
0.505294123808656
40
0.506174132888102
40
0.507054141967548
40
0.50881416012644
40
0.510574178285332
40
0.511454187364777
40
0.512334196444223
40
0.513214205523669
40
0.514094214603115
40
0.515854232762007
40
0.516734241841453
40
0.517614250920899
40
0.519374269079791
40
0.520254278159237
40
0.521134287238682
40
0.522014296318128
40
0.522894305397574
40
0.52377431447702
40
0.524654323556466
40
0.526414341715358
40
0.527294350794804
40
0.52817435987425
40
0.529054368953696
40
0.529934378033141
40
0.531694396192033
40
0.533454414350925
40
0.534334423430371
40
0.535214432509817
40
0.536974450668709
40
0.537854459748155
40
0.538734468827601
40
0.540494486986492
40
0.542254505145384
40
0.544014523304276
40
0.545774541463168
40
0.54753455962206
40
0.549294577780951
40
0.552814614098735
40
0.556334650416519
40
0.55809466857541
40
0.559854686734302
40
0.563374723052086
40
0.566894759369869
40
0.568654777528761
40
0.570414795687653
40
0.573934832005437
40
0.57745486832322
40
0.580974904641004
40
0.584494940958788
40
0.588014977276571
40
0.591535013594355
40
0.595055049912138
40
0.598575086229922
40
0.602095122547706
40
0.605615158865489
40
0.609135195183273
40
0.612655231501057
40
0.61617526781884
40
0.619695304136624
40
0.623215340454407
40
0.624975358613299
40
0.626735376772191
40
0.630255413089974
40
0.633775449407758
40
0.637295485725542
40
0.640815522043325
40
0.644335558361109
40
0.647855594678893
40
0.651375630996676
40
0.653135649155568
40
0.65489566731446
40
0.658415703632243
40
0.661935739950027
40
0.665455776267811
40
0.668975812585594
40
0.676015885221162
40
0.679535921538945
40
0.683055957856729
40
0.686575994174512
40
0.690096030492296
40
0.697136103127863
40
0.700656139445647
40
0.704176175763431
40
0.707696212081214
40
0.711216248398998
40
0.718256321034565
40
0.721776357352348
40
0.725296393670132
40
0.728816429987916
40
0.732336466305699
40
0.739376538941267
40
0.746416611576834
40
0.749936647894617
40
0.753456684212401
40
0.760496756847968
40
0.767536829483536
40
0.774576902119103
40
0.778096938436886
40
0.78161697475467
40
0.785137011072453
40
0.788657047390237
40
0.795697120025804
40
0.802737192661372
40
0.806257228979155
40
0.809777265296939
40
0.813297301614722
40
0.816817337932506
40
0.823857410568073
40
0.830897483203641
40
0.837937555839208
40
0.841457592156991
40
0.844977628474775
40
0.852017701110342
40
0.859057773745909
40
0.862577810063693
40
0.866097846381477
40
0.86961788269926
40
0.873137919017044
40
0.880177991652611
40
0.887218064288178
40
0.890738100605962
40
0.894258136923746
40
0.901298209559313
40
0.904818245877097
40
0.90833828219488
40
0.910098300353772
40
0.911858318512664
40
0.915378354830447
40
0.922418427466015
40
0.925938463783798
40
0.929458500101582
40
0.932978536419365
40
0.936498572737149
40
0.940018609054933
40
0.943538645372716
40
0.9470586816905
40
0.950578718008284
40
0.954098754326067
40
0.957618790643851
40
0.964658863279418
40
0.968178899597202
40
0.971698935914985
40
0.975218972232769
40
0.978739008550553
40
0.982259044868336
40
0.98577908118612
40
0.989299117503903
40
0.992819153821687
40
0.99633919013947
40
0.999859226457254
40
1
40
1
40
1
40
1
41
1
10
-2.20000000000002
20
-35.9984815422762
30
0
41
1
10
-2.20000000000002
20
-35.9982416316835
30
0
41
1
10
-2.20000000000002
20
-35.9929593939497
30
0
41
1
10
-2.20000000000002
20
-35.9808152586154
30
0
41
1
10
-2.20000000000002
20
-35.9580337844422
30
0
41
1
10
-2.20000000000002
20
-35.9303574155849
30
0
41
1
10
-2.20000000000002
20
-35.8978764072393
30
0
41
1
10
-2.20000000000002
20
-35.8606772012186
30
0
41
1
10
-2.20000000000002
20
-35.8188423507704
30
0
41
1
10
-2.19999999999999
20
-35.7724483138314
30
0
41
1
10
-2.20000000000002
20
-35.7215711806023
30
0
41
1
10
-2.20000000000002
20
-35.6662795049963
30
0
41
1
10
-2.20000000000002
20
-35.606642098176
30
0
41
1
10
-2.20000000000002
20
-35.5427232831041
30
0
41
1
10
-2.20000000000002
20
-35.4745835494885
30
0
41
1
10
-2.20000000000002
20
-35.4022823040986
30
0
41
1
10
-2.20000000000002
20
-35.3258758054439
30
0
41
1
10
-2.20000000000002
20
-35.2454179865413
30
0
41
1
10
-2.20000000000002
20
-35.1609605897894
30
0
41
1
10
-2.20000000000002
20
-35.0725532425695
30
0
41
1
10
-2.20000000000002
20
-34.9802436065341
30
0
41
1
10
-2.20000000000002
20
-34.8840775983924
30
0
41
1
10
-2.20000000000002
20
-34.7840992673662
30
0
41
1
10
-2.20000000000002
20
-34.6803509079355
30
0
41
1
10
-2.20000000000002
20
-34.5370512446321
30
0
41
1
10
-2.20000000000002
20
-34.3863617307859
30
0
41
1
10
-2.20000000000002
20
-34.2481903116661
30
0
41
1
10
-2.20000000000002
20
-34.1674461732589
30
0
41
1
10
-2.20000000000002
20
-34.0855143686357
30
0
41
1
10
-2.20000000000002
20
-33.9808791024373
30
0
41
1
10
-2.20000000000002
20
-33.8087856254549
30
0
41
1
10
-2.20000000000002
20
-33.6297179034793
30
0
41
1
10
-2.20000000000002
20
-33.4438214227632
30
0
41
1
10
-2.20000000000002
20
-33.2534024597305
30
0
41
1
10
-2.20000000000002
20
-33.0069583004128
30
0
41
1
10
-2.20000000000002
20
-32.7494770380993
30
0
41
1
10
-2.19999999999999
20
-32.5369772821028
30
0
41
1
10
-2.20000000000002
20
-32.3743609910527
30
0
41
1
10
-2.20000000000002
20
-32.2085294030258
30
0
41
1
10
-2.20000000000002
20
-31.9831685438611
30
0
41
1
10
-2.20000000000002
20
-31.6935278654741
30
0
41
1
10
-2.20000000000002
20
-31.3934533930513
30
0
41
1
10
-2.20000000000002
20
-31.1472201983193
30
0
41
1
10
-2.20000000000002
20
-30.8968896848934
30
0
41
1
10
-2.20000000000002
20
-30.5763259691741
30
0
41
1
10
-2.19999999999999
20
-30.1795721880178
30
0
41
1
10
-2.20000000000002
20
-29.8389753334018
30
0
41
1
10
-2.20000000000002
20
-29.5605910229122
30
0
41
1
10
-2.20000000000002
20
-29.3488540584265
30
0
41
1
10
-2.20000000000002
20
-29.1341864928692
30
0
41
1
10
-2.20000000000002
20
-28.8440802923644
30
0
41
1
10
-2.20000000000002
20
-28.4741740127019
30
0
41
1
10
-2.19999999999999
20
-28.0946721119014
30
0
41
1
10
-2.20000000000002
20
-27.7853718286964
30
0
41
1
10
-2.20000000000002
20
-27.5505474715739
30
0
41
1
10
-2.20000000000002
20
-27.3128894716318
30
0
41
1
10
-2.20000000000002
20
-26.9922551577599
30
0
41
1
10
-2.20000000000002
20
-26.5844139266108
30
0
41
1
10
-2.20000000000002
20
-26.0838374506717
30
0
41
1
10
-2.20000000000002
20
-25.6574288542629
30
0
41
1
10
-2.20000000000002
20
-25.310795566268
30
0
41
1
10
-2.19999999999999
20
-24.9604927320777
30
0
41
1
10
-2.20000000000002
20
-24.5157343073517
30
0
41
1
10
-2.20000000000002
20
-24.0618724844523
30
0
41
1
10
-2.20000000000002
20
-23.6933606289522
30
0
41
1
10
-2.20000000000002
20
-23.4142578696928
30
0
41
1
10
-2.19999999999999
20
-23.1324477508894
30
0
41
1
10
-2.20000000000002
20
-22.7531069145398
30
0
41
1
10
-2.20000000000002
20
-22.3683458335126
30
0
41
1
10
-2.19999999999999
20
-21.9782353272421
30
0
41
1
10
-2.19999999999999
20
-21.6829615863146
30
0
41
1
10
-2.20000000000002
20
-21.3850073833771
30
0
41
1
10
-2.20000000000002
20
-20.984175332485
30
0
41
1
10
-2.20000000000002
20
-20.5779672141207
30
0
41
1
10
-2.20000000000002
20
-20.1664517398788
30
0
41
1
10
-2.20000000000002
20
-19.8551416161418
30
0
41
1
10
-2.20000000000002
20
-19.5411672734658
30
0
41
1
10
-2.20000000000002
20
-19.1189951374152
30
0
41
1
10
-2.20000000000002
20
-18.6914694093051
30
0
41
1
10
-2.19999999999999
20
-18.2586575687844
30
0
41
1
10
-2.20000000000002
20
-17.9313816332312
30
0
41
1
10
-2.20000000000002
20
-17.601447067755
30
0
41
1
10
-2.20000000000002
20
-17.3242802462531
30
0
41
1
10
-2.20000000000002
20
-17.1012276238876
30
0
41
1
10
-2.19999999999999
20
-16.8772884002214
30
0
41
1
10
-2.19999999999999
20
-16.4830628393222
30
0
41
1
10
-2.19999999999999
20
-16.0271656941318
30
0
41
1
10
-2.19999999999999
20
-15.5659788017487
30
0
41
1
10
-2.20000000000002
20
-15.2174126385948
30
0
41
1
10
-2.20000000000002
20
-14.8661779693539
30
0
41
1
10
-2.19999999999999
20
-14.5122728269276
30
0
41
1
10
-2.20000000000002
20
-14.1556932924213
30
0
41
1
10
-2.20000000000002
20
-13.7964372435234
30
0
41
1
10
-2.19999999999999
20
-13.434500435816
30
0
41
1
10
-2.20000000000002
20
-13.0698795558119
30
0
41
1
10
-2.19999999999999
20
-12.7025705743373
30
0
41
1
10
-2.20000000000002
20
-12.3325690014507
30
0
41
1
10
-2.19999999999999
20
-11.9598708409374
30
0
41
1
10
-2.20000000000002
20
-11.6470295372759
30
0
41
1
10
-2.19999999999999
20
-11.3954184217635
30
0
41
1
10
-2.19999999999999
20
-11.1429046192032
30
0
41
1
10
-2.19999999999999
20
-10.8255481020131
30
0
41
1
10
-2.19999999999999
20
-10.4420145743896
30
0
41
1
10
-2.19999999999999
20
-10.0557602279918
30
0
41
1
10
-2.20000000000002
20
-9.66678089901873
30
0
41
1
10
-2.20000000000002
20
-9.34034669943736
30
0
41
1
10
-2.19999999999999
20
-9.07784991102176
30
0
41
1
10
-2.20000000000002
20
-8.81444106406229
30
0
41
1
10
-2.20000000000002
20
-8.54963209943352
30
0
41
1
10
-2.20000000000002
20
-8.28348543659976
30
0
41
1
10
-2.20000000000002
20
-8.01642493811286
30
0
41
1
10
-2.20000000000002
20
-7.68085993160074
30
0
41
1
10
-2.20000000000002
20
-7.34301151247959
30
0
41
1
10
-2.20000000000002
20
-7.07138465930166
30
0
41
1
10
-2.20000000000002
20
-6.79884546670323
30
0
41
1
10
-2.20000000000002
20
-6.45643328069661
30
0
41
1
10
-2.20000000000002
20
-6.11175146674466
30
0
41
1
10
-2.20000000000002
20
-5.83467460689425
30
0
41
1
10
-2.20000000000002
20
-5.6261808540489
30
0
41
1
10
-2.20000000000002
20
-5.41701391929834
30
0
41
1
10
-2.19999999999999
20
-5.20717745478146
30
0
41
1
10
-2.20000000000002
20
-4.99667509392856
30
0
41
1
10
-2.19999999999999
20
-4.82069761094562
30
0
41
1
10
-2.20000000000002
20
-4.67960211600024
30
0
41
1
10
-2.20000000000002
20
-4.53828872405643
30
0
41
1
10
-2.19999999999999
20
-4.39662510037118
30
0
41
1
10
-2.19999999999999
20
-4.25466574513038
30
0
41
1
10
-2.20000000000002
20
-4.1124933975407
30
0
41
1
10
-2.20000000000002
20
-3.93436102619756
30
0
41
1
10
-2.20000000000002
20
-3.75570803581104
30
0
41
1
10
-2.19999999999999
20
-3.61249538417181
30
0
41
1
10
-2.20000000000002
20
-3.50492661910167
30
0
41
1
10
-2.20000000000002
20
-3.39720741056175
30
0
41
1
10
-2.20000000000002
20
-3.2893397618125
30
0
41
1
10
-2.20000000000002
20
-3.18132544112754
30
0
41
1
10
-2.19999999999999
20
-3.0731663113279
30
0
41
1
10
-2.20000000000002
20
-2.96486450366424
30
0
41
1
10
-2.19999999999999
20
-2.82028557320737
30
0
41
1
10
-2.20000000000002
20
-2.6391937472294
30
0
41
1
10
-2.19999999999999
20
-2.42136740345268
30
0
41
1
10
-2.19999999999999
20
-2.2030366306553
30
0
41
1
10
-2.20000000000002
20
-1.98422944343233
30
0
41
1
10
-2.20000000000002
20
-1.80150795480097
30
0
41
1
10
-2.20000000000002
20
-1.65514766840653
30
0
41
1
10
-2.20000000000002
20
-1.5452706495837
30
0
41
1
10
-2.19999999999999
20
-1.435301180159
30
0
41
1
10
-2.20000000000002
20
-1.28857135826542
30
0
41
1
10
-2.19999999999999
20
-1.10492621249185
30
0
41
1
10
-2.19999999999999
20
-0.921048397975085
30
0
41
1
10
-2.20000000000002
20
-0.773855181921306
30
0
41
1
10
-2.19999999999999
20
-0.663399753590795
30
0
41
1
10
-2.19999999999999
20
-0.552900673038835
30
0
41
1
10
-2.19999999999999
20
-0.405533020604196
30
0
41
1
10
-2.19999999999999
20
-0.258066027197003
30
0
41
1
10
-2.19999999999999
20
-0.110609798282297
30
0
41
1
10
-2.20000000000002
20
7.9678557E-09
30
0
41
1
10
-2.19999999999999
20
0.110609814521041
30
0
41
1
10
-2.19999999999999
20
0.258066043297788
30
0
41
1
10
-2.20000000000002
20
0.405533036679572
30
0
41
1
10
-2.19999999999999
20
0.552900689625886
30
0
41
1
10
-2.19999999999999
20
0.663399769480321
30
0
41
1
10
-2.20000000000002
20
0.77385519789371
30
0
41
1
10
-2.19999999999999
20
0.921048414140955
30
0
41
1
10
-2.20000000000002
20
1.10492622913023
30
0
41
1
10
-2.20000000000002
20
1.28857137427266
30
0
41
1
10
-2.19999999999999
20
1.43530119545
30
0
41
1
10
-2.20000000000002
20
1.54527066672028
30
0
41
1
10
-2.19999999999999
20
1.65514768405933
30
0
41
1
10
-2.20000000000002
20
1.8015079794429
30
0
41
1
10
-2.20000000000002
20
1.94769984814903
30
0
41
1
10
-2.20000000000002
20
2.09363388662035
30
0
41
1
10
-2.19999999999999
20
2.23941432408864
30
0
41
1
10
-2.20000000000002
20
2.38499085138608
30
0
41
1
10
-2.19999999999999
20
2.53028147448529
30
0
41
1
10
-2.20000000000002
20
2.639128503405
30
0
41
1
10
-2.20000000000002
20
2.74784323707021
30
0
41
1
10
-2.19999999999999
20
2.85642274224213
30
0
41
1
10
-2.20000000000002
20
2.96486450652625
30
0
41
1
10
-2.20000000000002
20
3.10925640073572
30
0
41
1
10
-2.20000000000002
20
3.25339347207256
30
0
41
1
10
-2.20000000000002
20
3.39720740223609
30
0
41
1
10
-2.20000000000002
20
3.50492662159448
30
0
41
1
10
-2.20000000000002
20
3.6124953877443
30
0
41
1
10
-2.19999999999999
20
3.75570803460607
30
0
41
1
10
-2.20000000000002
20
3.93436102607177
30
0
41
1
10
-2.19999999999999
20
4.11249340828527
30
0
41
1
10
-2.19999999999999
20
4.2546657616511
30
0
41
1
10
-2.20000000000002
20
4.39662511608441
30
0
41
1
10
-2.19999999999999
20
4.53828873143234
30
0
41
1
10
-2.20000000000002
20
4.67960211602716
30
0
41
1
10
-2.19999999999999
20
4.82069760714901
30
0
41
1
10
-2.20000000000002
20
4.99667509827836
30
0
41
1
10
-2.19999999999999
20
5.20717747481996
30
0
41
1
10
-2.20000000000002
20
5.41701393923279
30
0
41
1
10
-2.19999999999999
20
5.62618085956723
30
0
41
1
10
-2.20000000000002
20
5.83467460016638
30
0
41
1
10
-2.20000000000002
20
6.11175147173768
30
0
41
1
10
-2.19999999999999
20
6.45643331679503
30
0
41
1
10
-2.19999999999999
20
6.79884546868334
30
0
41
1
10
-2.19999999999999
20
7.07138465122813
30
0
41
1
10
-2.20000000000002
20
7.34301151998699
30
0
41
1
10
-2.20000000000002
20
7.68085996867356
30
0
41
1
10
-2.19999999999999
20
8.01642492609369
30
0
41
1
10
-2.20000000000002
20
8.28348540775059
30
0
41
1
10
-2.20000000000002
20
8.5496320690643
30
0
41
1
10
-2.20000000000002
20
8.88062693308254
30
0
41
1
10
-2.20000000000002
20
9.27507092999488
30
0
41
1
10
-2.19999999999999
20
9.6667808010302
30
0
41
1
10
-2.19999999999999
20
10.055760504374
30
0
41
1
10
-2.19999999999999
20
10.4420146592237
30
0
41
1
10
-2.19999999999999
20
10.8255477577392
30
0
41
1
10
-2.19999999999999
20
11.2063650265909
30
0
41
1
10
-2.19999999999999
20
11.5844709045752
30
0
41
1
10
-2.20000000000002
20
11.9598708451068
30
0
41
1
10
-2.20000000000002
20
12.332568976433
30
0
41
1
10
-2.19999999999999
20
12.7025705750891
30
0
41
1
10
-2.20000000000002
20
13.0698795474479
30
0
41
1
10
-2.19999999999999
20
13.434500413039
30
0
41
1
10
-2.19999999999999
20
13.7964372758264
30
0
41
1
10
-2.19999999999999
20
14.0958244492637
30
0
41
1
10
-2.19999999999999
20
14.3339831373198
30
0
41
1
10
-2.19999999999999
20
14.5712504744562
30
0
41
1
10
-2.20000000000002
20
14.8661782384876
30
0
41
1
10
-2.19999999999999
20
15.2174125550855
30
0
41
1
10
-2.20000000000002
20
15.5659787170004
30
0
41
1
10
-2.20000000000002
20
15.9118789297515
30
0
41
1
10
-2.19999999999999
20
16.2551149485891
30
0
41
1
10
-2.19999999999999
20
16.5956885399058
30
0
41
1
10
-2.19999999999999
20
16.8772884036232
30
0
41
1
10
-2.19999999999999
20
17.1012276273506
30
0
41
1
10
-2.20000000000002
20
17.3242802479084
30
0
41
1
10
-2.19999999999999
20
17.6014470745968
30
0
41
1
10
-2.19999999999999
20
17.9313816381119
30
0
41
1
10
-2.19999999999999
20
18.2586575717451
30
0
41
1
10
-2.20000000000002
20
18.6914694264878
30
0
41
1
10
-2.19999999999999
20
19.1189951390116
30
0
41
1
10
-2.20000000000002
20
19.5411672873635
30
0
41
1
10
-2.20000000000002
20
19.8551416115088
30
0
41
1
10
-2.19999999999999
20
20.1664517496922
30
0
41
1
10
-2.20000000000002
20
20.5779672218009
30
0
41
1
10
-2.19999999999999
20
20.9841753387679
30
0
41
1
10
-2.20000000000002
20
21.385007393
30
0
41
1
10
-2.19999999999999
20
21.6829615822886
30
0
41
1
10
-2.19999999999999
20
21.9782353365019
30
0
41
1
10
-2.19999999999999
20
22.3683458387384
30
0
41
1
10
-2.20000000000002
20
22.7531069193882
30
0
41
1
10
-2.20000000000002
20
23.1324477597271
30
0
41
1
10
-2.19999999999999
20
23.4142578666451
30
0
41
1
10
-2.20000000000002
20
23.6933606344229
30
0
41
1
10
-2.19999999999999
20
24.0618724924846
30
0
41
1
10
-2.19999999999999
20
24.5157343100948
30
0
41
1
10
-2.19999999999999
20
24.9604927323371
30
0
41
1
10
-2.19999999999999
20
25.3107955671813
30
0
41
1
10
-2.20000000000002
20
25.6574288628695
30
0
41
1
10
-2.20000000000002
20
26.0838374470223
30
0
41
1
10
-2.20000000000002
20
26.5844139299712
30
0
41
1
10
-2.19999999999999
20
26.9922551600878
30
0
41
1
10
-2.20000000000002
20
27.312889474477
30
0
41
1
10
-2.20000000000002
20
27.5505474706334
30
0
41
1
10
-2.19999999999999
20
27.7853718293799
30
0
41
1
10
-2.20000000000002
20
28.0946721145145
30
0
41
1
10
-2.20000000000002
20
28.4741740106829
30
0
41
1
10
-2.19999999999999
20
28.8440802938742
30
0
41
1
10
-2.19999999999999
20
29.1341864918563
30
0
41
1
10
-2.20000000000002
20
29.3488540567688
30
0
41
1
10
-2.19999999999999
20
29.5605910235313
30
0
41
1
10
-2.19999999999999
20
29.8389753322122
30
0
41
1
10
-2.19999999999999
20
30.1795721887094
30
0
41
1
10
-2.19999999999999
20
30.5763259617257
30
0
41
1
10
-2.19999999999999
20
30.8968896882167
30
0
41
1
10
-2.20000000000002
20
31.1472201940908
30
0
41
1
10
-2.19999999999999
20
31.393453387608
30
0
41
1
10
-2.20000000000002
20
31.6935278618122
30
0
41
1
10
-2.20000000000002
20
31.9831685440602
30
0
41
1
10
-2.19999999999999
20
32.2085294017453
30
0
41
1
10
-2.19999999999999
20
32.3743609793662
30
0
41
1
10
-2.20000000000002
20
32.5369772815204
30
0
41
1
10
-2.19999999999999
20
32.7494770362055
30
0
41
1
10
-2.19999999999999
20
33.0069583008311
30
0
41
1
10
-2.19999999999999
20
33.2534024436424
30
0
41
1
10
-2.19999999999999
20
33.4438214187487
30
0
41
1
10
-2.19999999999999
20
33.6297179032972
30
0
41
1
10
-2.19999999999999
20
33.8087856219281
30
0
41
1
10
-2.20000000000002
20
33.9808790950557
30
0
41
1
10
-2.19999999999999
20
34.0855143550287
30
0
41
1
10
-2.20000000000002
20
34.1674461612967
30
0
41
1
10
-2.19999999999999
20
34.2481903083142
30
0
41
1
10
-2.19999999999999
20
34.3863617301769
30
0
41
1
10
-2.19999999999999
20
34.5370512371172
30
0
41
1
10
-2.19999999999999
20
34.680350907395
30
0
41
1
10
-2.19999999999999
20
34.7840992432799
30
0
41
1
10
-2.19999999999999
20
34.8840776031987
30
0
41
1
10
-2.19999999999999
20
34.9802435989443
30
0
41
1
10
-2.20000000000002
20
35.0725532191378
30
0
41
1
10
-2.19999999999999
20
35.1609605893935
30
0
41
1
10
-2.20000000000002
20
35.2454181739629
30
0
41
1
10
-2.19999999999999
20
35.3258752465303
30
0
41
1
10
-2.19999999999999
20
35.4022826774254
30
0
41
1
10
-2.19999999999999
20
35.4986806355994
30
0
41
1
10
-2.19999999999999
20
35.5867654490801
30
0
41
1
10
-2.19999999999999
20
35.6662795296584
30
0
41
1
10
-2.20000000000002
20
35.7215711644677
30
0
41
1
10
-2.20000000000002
20
35.7724483817261
30
0
41
1
10
-2.20000000000002
20
35.8188423246858
30
0
41
1
10
-2.19999999999999
20
35.8606772530753
30
0
41
1
10
-2.19999999999999
20
35.8978764151194
30
0
41
1
10
-2.19999999999999
20
35.9303574291782
30
0
41
1
10
-2.19999999999999
20
35.9580338304474
30
0
41
1
10
-2.20000000000002
20
35.9808152416011
30
0
41
1
10
-2.19999999999999
20
35.9929120317884
30
0
41
1
10
-2.19999999999999
20
35.9981609728181
30
0
41
1
10
-2.19999999999999
20
35.9983614580206
30
0
0
SPLINE
5
10F
100
AcDbEntity
8
1
62
256
6
ByLayer
370
18
48
1
60
0
100
AcDbSpline
70
4
71
3
72
12
73
8
40
0
40
0
40
0
40
0
40
0.499999999999995
40
0.499999999999995
40
0.749999999999998
40
0.749999999999998
40
1
40
1
40
1
40
1
41
1
10
36.6525073622715
20
50.149999804554
30
0
41
1
10
36.9498411559946
20
50.1500143626225
30
0
41
1
10
37.2615093446271
20
50.1492640677977
30
0
41
1
10
37.7498294396938
20
50.1483307587185
30
0
41
1
10
37.9170416090398
20
50.148041722376
30
0
41
1
10
38.2533961133114
20
50.1476428067821
30
0
41
1
10
38.422480326444
20
50.1475322797643
30
0
41
1
10
38.59247879607
20
50.1475322797643
30
0
0
SPLINE
5
110
100
AcDbEntity
8
1
62
256
6
ByLayer
370
18
48
1
60
0
100
AcDbSpline
70
4
71
3
72
18
73
14
40
0
40
0
40
0
40
0
40
0.249999999999998
40
0.249999999999998
40
0.374999999999997
40
0.374999999999997
40
0.499999999999996
40
0.499999999999996
40
0.749999999999997
40
0.749999999999997
40
0.874999999999998
40
0.874999999999998
40
1
40
1
40
1
40
1
41
1
10
36.1861384096169
20
-49.9990558725525
30
0
41
1
10
35.9610428885105
20
-49.9980141007865
30
0
41
1
10
35.7576705624532
20
-49.9959934024909
30
0
41
1
10
35.4839096019284
20
-49.9904782836756
30
0
41
1
10
35.3979157361439
20
-49.9882240317583
30
0
41
1
10
35.2367594678512
20
-49.9826781612062
30
0
41
1
10
35.1620617580079
20
-49.9793927547232
30
0
41
1
10
34.9592779698666
20
-49.9679620179483
30
0
41
1
10
34.8505357018451
20
-49.9581945948008
30
0
41
1
10
34.7274832945921
20
-49.9394975809902
30
0
41
1
10
34.6931908352703
20
-49.9325652773447
30
0
41
1
10
34.6395278002985
20
-49.9174699704119
30
0
41
1
10
34.6199556558117
20
-49.9092851639327
30
0
41
1
10
34.6077000037031
20
-49.9004314579131
30
0
0
SPLINE
5
111
100
AcDbEntity
8
1
62
256
6
ByLayer
370
18
48
1
60
0
100
AcDbSpline
70
4
71
3
72
22
73
18
40
0
40
0
40
0
40
0
40
0.0926823831556012
40
0.0926823831556012
40
0.222299185561944
40
0.222299185561944
40
0.351915987968287
40
0.351915987968287
40
0.481532790374629
40
0.481532790374629
40
0.611149592780972
40
0.611149592780972
40
0.740766395187315
40
0.740766395187315
40
0.870383197593657
40
0.870383197593657
40
1
40
1
40
1
40
1
41
1
10
102.526573728563
20
-42.706281085861
30
0
41
1
10
102.544941637003
20
-42.738095236508
30
0
41
1
10
102.564396340677
20
-42.7717917717172
30
0
41
1
10
102.612679619425
20
-42.8554208636648
30
0
41
1
10
102.642408292013
20
-42.9069124350299
30
0
41
1
10
102.705088328408
20
-43.0154774426858
30
0
41
1
10
102.737076579457
20
-43.0708827187467
30
0
41
1
10
102.802246462773
20
-43.1837602677728
30
0
41
1
10
102.835757191639
20
-43.2418025527691
30
0
41
1
10
102.90242168834
20
-43.357268848116
30
0
41
1
10
102.9353414076
20
-43.4142874744455
30
0
41
1
10
103.000366776293
20
-43.5269147168028
30
0
41
1
10
103.032774510435
20
-43.5830465588951
30
0
41
1
10
103.094349548967
20
-43.6896976541095
30
0
41
1
10
103.12371798375
20
-43.7405652752937
30
0
41
1
10
103.179561869952
20
-43.8372897234871
30
0
41
1
10
103.206062762213
20
-43.8831906153288
30
0
41
1
10
103.230203228558
20
-43.9250031295565
30
0
0
SPLINE
5
112
100
AcDbEntity
8
1
62
256
6
ByLayer
370
18
48
1
60
0
100
AcDbSpline
70
4
71
3
72
12
73
8
40
0
40
0
40
0
40
0
40
0.500000000000014
40
0.500000000000014
40
0.750000000000007
40
0.750000000000007
40
1
40
1
40
1
40
1
41
1
10
36.6525073622715
20
-50.1499998045549
30
0
41
1
10
36.579740527236
20
-50.0977867143951
30
0
41
1
10
36.5029546386022
20
-50.0606768745672
30
0
41
1
10
36.3840669383863
20
-50.0234888043268
30
0
41
1
10
36.343946241342
20
-50.0143273728925
30
0
41
1
10
36.2646762833894
20
-50.0022429475222
30
0
41
1
10
36.2252720413294
20
-49.9992369881636
30
0
41
1
10
36.1861384096171
20
-49.9990558725536
30
0
0
SPLINE
5
113
100
AcDbEntity
8
1
62
256
6
ByLayer
370
18
48
1
60
0
100
AcDbSpline
70
4
71
3
72
16
73
12
40
0
40
0
40
0
40
0
40
0.125000000000002
40
0.125000000000002
40
0.250000000000004
40
0.250000000000004
40
0.500000000000003
40
0.500000000000003
40
0.750000000000001
40
0.750000000000001
40
1
40
1
40
1
40
1
41
1
10
13.7886751345948
20
14.9931545155677
30
0
41
1
10
13.7572057460937
20
14.9931545155677
30
0
41
1
10
13.7265863249372
20
14.9993270329222
30
0
41
1
10
13.6685627993564
20
15.0215159830932
30
0
41
1
10
13.642171873473
20
15.0369693753061
30
0
41
1
10
13.5684767776432
20
15.0924295001841
30
0
41
1
10
13.529486779677
20
15.1387838835226
30
0
41
1
10
13.4628524690449
20
15.2385754420444
30
0
41
1
10
13.4360331579796
20
15.2912821270175
30
0
41
1
10
13.3902293919744
20
15.4000512474235
30
0
41
1
10
13.3713425683518
20
15.4563289206726
30
0
41
1
10
13.3556624327026
20
15.5133461831291
30
0
0
SPLINE
5
114
100
AcDbEntity
8
1
62
256
6
ByLayer
370
18
48
1
60
0
100
AcDbSpline
70
4
71
3
72
10
73
6
40
0
40
0
40
0
40
0
40
0.5
40
0.5
40
1
40
1
40
1
40
1
41
1
10
39.5000000000004
20
-50.1475322797652
30
0
41
1
10
39.6540074247049
20
-50.1475322797652
30
0
41
1
10
39.8073195935425
20
-50.1564478140661
30
0
41
1
10
40.1099677848433
20
-50.1913818415034
30
0
41
1
10
40.2597310580259
20
-50.2173999379208
30
0
41
1
10
40.407938102933
20
-50.2519439474119
30
0
0
SPLINE
5
115
100
AcDbEntity
8
1
62
256
6
ByLayer
370
18
48
1
60
0
100
AcDbSpline
70
4
71
3
72
16
73
12
40
0
40
0
40
0
40
0
40
0.125000000000004
40
0.125000000000004
40
0.250000000000008
40
0.250000000000008
40
0.500000000000005
40
0.500000000000005
40
0.750000000000003
40
0.750000000000003
40
1
40
1
40
1
40
1
41
1
10
18.2113248654052
20
47.6991123363141
30
0
41
1
10
18.2427942539063
20
47.6991123363141
30
0
41
1
10
18.2734136750628
20
47.6971731220929
30
0
41
1
10
18.3314372006436
20
47.6901896918971
30
0
41
1
10
18.357828126527
20
47.6853219328561
30
0
41
1
10
18.4315232223568
20
47.6678096320571
30
0
41
1
10
18.470513220323
20
47.6531212535631
30
0
41
1
10
18.5371475309551
20
47.6213036484293
30
0
41
1
10
18.5639668420204
20
47.6044110998707
30
0
41
1
10
18.6097706080256
20
47.5693355727224
30
0
41
1
10
18.6286574316483
20
47.5510829903643
30
0
41
1
10
18.6443375672975
20
47.5324740593459
30
0
0
SPLINE
5
116
100
AcDbEntity
8
1
62
256
6
ByLayer
370
18
48
1
60
0
100
AcDbSpline
70
4
71
3
72
16
73
12
40
0
40
0
40
0
40
0
40
0.25
40
0.25
40
0.5
40
0.5
40
0.75
40
0.75
40
0.875
40
0.875
40
1
40
1
40
1
40
1
41
1
10
13.3556624327026
20
-15.5133461831291
30
0
41
1
10
13.3713369564231
20
-15.4563493271806
30
0
41
1
10
13.390077598984
20
-15.400478236028
30
0
41
1
10
13.4357910527648
20
-15.2917910897776
30
0
41
1
10
13.4628368001563
20
-15.2385985420777
30
0
41
1
10
13.5295052401434
20
-15.1387566028337
30
0
41
1
10
13.5692020024501
20
-15.0918966685263
30
0
41
1
10
13.641729016901
20
-15.0372961905784
30
0
41
1
10
13.6686700313504
20
-15.021491213259
30
0
41
1
10
13.726220064296
20
-14.9994509315928
30
0
41
1
10
13.7572518777782
20
-14.9931545155676
30
0
41
1
10
13.7886751345948
20
-14.9931545155676
30
0
0
SPLINE
5
117
100
AcDbEntity
8
1
62
256
6
ByLayer
370
18
48
1
60
0
100
AcDbSpline
70
4
71
3
72
16
73
12
40
0
40
0
40
0
40
0
40
0.25
40
0.25
40
0.5
40
0.5
40
0.75
40
0.75
40
0.875
40
0.875
40
1
40
1
40
1
40
1
41
1
10
13.3556624327026
20
47.532474059346
30
0
41
1
10
13.3713369564231
20
47.5510763302182
30
0
41
1
10
13.390077598984
20
47.5691972862268
30
0
41
1
10
13.4357910527648
20
47.6042475586048
30
0
41
1
10
13.4628368001564
20
47.6212962856129
30
0
41
1
10
13.5295052401434
20
47.6531299493423
30
0
41
1
10
13.5692020024501
20
47.6679778471913
30
0
41
1
10
13.641729016901
20
47.685218753302
30
0
41
1
10
13.6686700313504
20
47.6901974749824
30
0
41
1
10
13.726220064296
20
47.6971341405705
30
0
41
1
10
13.7572518777782
20
47.6991123363141
30
0
41
1
10
13.7886751345948
20
47.6991123363141
30
0
0
SPLINE
5
118
100
AcDbEntity
8
1
62
256
6
ByLayer
370
18
48
1
60
0
100
AcDbSpline
70
4
71
3
72
16
73
12
40
0
40
0
40
0
40
0
40
0.124999999999999
40
0.124999999999999
40
0.249999999999997
40
0.249999999999997
40
0.499999999999998
40
0.499999999999998
40
0.749999999999999
40
0.749999999999999
40
1
40
1
40
1
40
1
41
1
10
13.7886751345948
20
-47.6991123363141
30
0
41
1
10
13.7572057460937
20
-47.6991123363141
30
0
41
1
10
13.7265863249372
20
-47.6971731220929
30
0
41
1
10
13.6685627993565
20
-47.6901896918971
30
0
41
1
10
13.642171873473
20
-47.6853219328561
30
0
41
1
10
13.5684767776432
20
-47.667809632057
30
0
41
1
10
13.529486779677
20
-47.6531212535631
30
0
41
1
10
13.4628524690449
20
-47.6213036484293
30
0
41
1
10
13.4360331579796
20
-47.6044110998707
30
0
41
1
10
13.3902293919744
20
-47.5693355727224
30
0
41
1
10
13.3713425683518
20
-47.5510829903643
30
0
41
1
10
13.3556624327026
20
-47.5324740593459
30
0
0
SPLINE
5
119
100
AcDbEntity
8
1
62
256
6
ByLayer
370
18
48
1
60
0
100
AcDbSpline
70
4
71
3
72
16
73
12
40
0
40
0
40
0
40
0
40
0.249999999999999
40
0.249999999999999
40
0.499999999999998
40
0.499999999999998
40
0.749999999999997
40
0.749999999999997
40
0.874999999999998
40
0.874999999999998
40
1
40
1
40
1
40
1
41
1
10
18.6443375672974
20
-47.532474059346
30
0
41
1
10
18.628663043577
20
-47.5510763302182
30
0
41
1
10
18.609922401016
20
-47.5691972862268
30
0
41
1
10
18.5642089472352
20
-47.6042475586049
30
0
41
1
10
18.5371631998437
20
-47.621296285613
30
0
41
1
10
18.4704947598566
20
-47.6531299493423
30
0
41
1
10
18.4307979975499
20
-47.6679778471913
30
0
41
1
10
18.358270983099
20
-47.685218753302
30
0
41
1
10
18.3313299686496
20
-47.6901974749824
30
0
41
1
10
18.273779935704
20
-47.6971341405705
30
0
41
1
10
18.2427481222218
20
-47.6991123363142
30
0
41
1
10
18.2113248654052
20
-47.6991123363141
30
0
0
SPLINE
5
11A
100
AcDbEntity
8
1
62
256
6
ByLayer
370
18
48
1
60
0
100
AcDbSpline
70
4
71
3
72
22
73
18
40
0
40
0
40
0
40
0
40
0.0926823831671262
40
0.0926823831671262
40
0.222299185571822
40
0.222299185571822
40
0.351915987976519
40
0.351915987976519
40
0.481532790381215
40
0.481532790381215
40
0.611149592785911
40
0.611149592785911
40
0.740766395190608
40
0.740766395190608
40
0.870383197595304
40
0.870383197595304
40
1
40
1
40
1
40
1
41
1
10
84.7062810858482
20
-60.526573728555
30
0
41
1
10
84.738095236499
20
-60.5449416369974
30
0
41
1
10
84.7717917717128
20
-60.5643963406737
30
0
41
1
10
84.8554208636652
20
-60.6126796194245
30
0
41
1
10
84.9069124350303
20
-60.6424082920132
30
0
41
1
10
85.0154774426861
20
-60.7050883284079
30
0
41
1
10
85.070882718747
20
-60.7370765794565
30
0
41
1
10
85.1837602677731
20
-60.8022464627722
30
0
41
1
10
85.2418025527694
20
-60.8357571916388
30
0
41
1
10
85.3572688481163
20
-60.9024216883397
30
0
41
1
10
85.4142874744458
20
-60.9353414075999
30
0
41
1
10
85.5269147168031
20
-61.0003667762929
30
0
41
1
10
85.5830465588954
20
-61.032774510435
30
0
41
1
10
85.6896976541098
20
-61.0943495489664
30
0
41
1
10
85.7405652752941
20
-61.1237179837501
30
0
41
1
10
85.8372897234874
20
-61.1795618699518
30
0
41
1
10
85.8831906153291
20
-61.2060627622126
30
0
41
1
10
85.9250031295568
20
-61.2302032285574
30
0
0
SPLINE
5
11B
100
AcDbEntity
8
1
62
256
6
ByLayer
370
18
48
1
60
0
100
AcDbSpline
70
4
71
3
72
10
73
6
40
0
40
0
40
0
40
0
40
0.5
40
0.5
40
1
40
1
40
1
40
1
41
1
10
36.1861384096171
20
49.9990558725525
30
0
41
1
10
36.2644792240145
20
49.9994184441762
30
0
41
1
10
36.3432408321895
20
50.0109224643468
30
0
41
1
10
36.5005501933821
20
50.0597253194563
30
0
41
1
10
36.5796126942727
20
50.0976949891704
30
0
41
1
10
36.6525073622722
20
50.1499998045517
30
0
0
SPLINE
5
11C
100
AcDbEntity
8
1
62
256
6
ByLayer
370
18
48
1
60
0
100
AcDbSpline
70
4
71
3
72
12
73
8
40
0
40
0
40
0
40
0
40
0.5
40
0.5
40
0.75
40
0.75
40
1
40
1
40
1
40
1
41
1
10
38.59247879607
20
-50.1475322797653
30
0
41
1
10
38.2524816197611
20
-50.1475322797653
30
0
41
1
10
37.9197495931857
20
-50.1480076028915
30
0
41
1
10
37.4312012389857
20
-50.1489389637665
30
0
41
1
10
37.2692796578543
20
-50.1492791836626
30
0
41
1
10
36.9542760546645
20
-50.1498131895932
30
0
41
1
10
36.801174157379
20
-50.1500070835843
30
0
41
1
10
36.6525073622715
20
-50.1499998045551
30
0
0
SPLINE
5
11D
100
AcDbEntity
8
1
62
256
6
ByLayer
370
18
48
1
60
0
100
AcDbSpline
70
4
71
3
72
16
73
12
40
0
40
0
40
0
40
0
40
0.124999999999994
40
0.124999999999994
40
0.249999999999989
40
0.249999999999989
40
0.499999999999993
40
0.499999999999993
40
0.749999999999996
40
0.749999999999996
40
1
40
1
40
1
40
1
41
1
10
18.2113248654052
20
-14.9931545155676
30
0
41
1
10
18.2427942539063
20
-14.9931545155676
30
0
41
1
10
18.2734136750628
20
-14.9993270329222
30
0
41
1
10
18.3314372006436
20
-15.0215159830932
30
0
41
1
10
18.357828126527
20
-15.0369693753061
30
0
41
1
10
18.4315232223568
20
-15.092429500184
30
0
41
1
10
18.470513220323
20
-15.1387838835225
30
0
41
1
10
18.5371475309551
20
-15.2385754420443
30
0
41
1
10
18.5639668420204
20
-15.2912821270175
30
0
41
1
10
18.6097706080257
20
-15.4000512474235
30
0
41
1
10
18.6286574316482
20
-15.4563289206725
30
0
41
1
10
18.6443375672974
20
-15.513346183129
30
0
0
SPLINE
5
11E
100
AcDbEntity
8
1
62
256
6
ByLayer
370
18
48
1
60
0
100
AcDbSpline
70
2053
71
3
72
95
73
91
40
0
40
0
40
0
40
0
40
0.0312500000000001
40
0.0312500000000001
40
0.0468750000000001
40
0.0468750000000001
40
0.0625000000000002
40
0.0625000000000002
40
0.093750000000001
40
0.093750000000001
40
0.125000000000002
40
0.125000000000002
40
0.156250000000003
40
0.156250000000003
40
0.171875000000003
40
0.171875000000003
40
0.187500000000003
40
0.187500000000003
40
0.218750000000002
40
0.218750000000002
40
0.234375000000002
40
0.234375000000002
40
0.250000000000002
40
0.265625000000002
40
0.265625000000002
40
0.281250000000001
40
0.281250000000001
40
0.312500000000001
40
0.312500000000001
40
0.328125000000001
40
0.328125000000001
40
0.343750000000001
40
0.343750000000001
40
0.375
40
0.375
40
0.390625
40
0.390625
40
0.40625
40
0.421875
40
0.421875
40
0.4375
40
0.4375
40
0.468749999999999
40
0.468749999999999
40
0.484374999999999
40
0.484374999999999
40
0.499999999999999
40
0.499999999999999
40
0.531249999999998
40
0.531249999999998
40
0.546874999999998
40
0.546874999999998
40
0.562499999999998
40
0.562499999999998
40
0.593749999999998
40
0.593749999999998
40
0.624999999999998
40
0.624999999999998
40
0.640624999999998
40
0.640624999999998
40
0.656249999999998
40
0.656249999999998
40
0.687499999999999
40
0.687499999999999
40
0.718749999999999
40
0.718749999999999
40
0.749999999999999
40
0.749999999999999
40
0.765624999999999
40
0.765624999999999
40
0.781249999999999
40
0.781249999999999
40
0.812499999999999
40
0.812499999999999
40
0.828124999999999
40
0.828124999999999
40
0.843749999999999
40
0.859374999999999
40
0.859374999999999
40
0.874999999999999
40
0.874999999999999
40
0.906249999999999
40
0.906249999999999
40
0.921874999999999
40
0.921874999999999
40
0.9375
40
0.9375
40
0.96875
40
0.96875
40
1
40
1
40
1
40
1
41
1
10
27.374043298572
20
-1.74467200416224
30
0
41
1
10
27.2552632537007
20
-1.86250225542864
30
0
41
1
10
27.1269995991703
20
-1.96679626030704
30
0
41
1
10
26.9212123563919
20
-2.1041360168762
30
0
41
1
10
26.8503671865096
20
-2.14670744987436
30
0
41
1
10
26.7041168367746
20
-2.22534814981501
30
0
41
1
10
26.6283480822201
20
-2.26154103428334
30
0
41
1
10
26.39851892095
20
-2.35818409640348
30
0
41
1
10
26.2410119306485
20
-2.40748235075003
30
0
41
1
10
25.9175932236562
20
-2.47643154640736
30
0
41
1
10
25.7501293510081
20
-2.49590939064936
30
0
41
1
10
25.4192825891329
20
-2.50291109214231
30
0
41
1
10
25.2547838250433
20
-2.49095001770502
30
0
41
1
10
25.0094450517713
20
-2.44943762482689
30
0
41
1
10
24.9274587090796
20
-2.43150838692253
30
0
41
1
10
24.7667770866411
20
-2.38814994571155
30
0
41
1
10
24.6880094982647
20
-2.36276369343361
30
0
41
1
10
24.4563340157091
20
-2.27569922738292
30
0
41
1
10
24.3080088231406
20
-2.20322061064388
30
0
41
1
10
24.09512947981
20
-2.071844672879
30
0
41
1
10
24.0261729797133
20
-2.02443624093922
30
0
41
1
10
23.8944828968226
20
-1.92405930764016
30
0
41
1
10
23.7683145383247
20
-1.81770050023067
30
0
41
1
10
23.6531032997213
20
-1.69946732776518
30
0
41
1
10
23.5434861505064
20
-1.57516961380992
30
0
41
1
10
23.491202397557
20
-1.50958935395656
30
0
41
1
10
23.3454860164577
20
-1.30663080945118
30
0
41
1
10
23.2631380916434
20
-1.16358587629597
30
0
41
1
10
23.1614128363467
20
-0.937610743839315
30
0
41
1
10
23.1311632690811
20
-0.860370786572815
30
0
41
1
10
23.0782457452273
20
-0.701921974143062
30
0
41
1
10
23.0558646229482
20
-0.621471498237185
30
0
41
1
10
23.0013884899382
20
-0.379204975414069
30
0
41
1
10
22.981459948789
20
-0.215377082514294
30
0
41
1
10
22.9764809620774
20
0.0338873896487826
30
0
41
1
10
22.9790705958031
20
0.117916015502829
30
0
41
1
10
22.9926097395016
20
0.283541976452227
30
0
41
1
10
23.0144237800014
20
0.447501598831849
30
0
41
1
10
23.05244717368
20
0.608197397330855
30
0
41
1
10
23.0986476703081
20
0.767246961047874
30
0
41
1
10
23.1259760669421
20
0.8462856361962
30
0
41
1
10
23.219730702807
20
1.07846732186701
30
0
41
1
10
23.2967914708005
20
1.22463152063173
30
0
41
1
10
23.4334361196507
20
1.43141354930114
30
0
41
1
10
23.4825195109085
20
1.49824797699674
30
0
41
1
10
23.5879415823283
20
1.62762296728403
30
0
41
1
10
23.6439542538925
20
1.68970088413275
30
0
41
1
10
23.8192711198862
20
1.86570994255285
30
0
41
1
10
23.9466810632558
20
1.97063003000647
30
0
41
1
10
24.1535498802317
20
2.10944633524755
30
0
41
1
10
24.2255114141462
20
2.15276508099112
30
0
41
1
10
24.3719688045697
20
2.23143697378373
30
0
41
1
10
24.446680168254
20
2.26698092764957
30
0
41
1
10
24.6751425391511
20
2.36254612607428
30
0
41
1
10
24.8333673636597
20
2.41164242256346
30
0
41
1
10
25.1608714157401
20
2.4795000767121
30
0
41
1
10
25.3253036699699
20
2.497297286611
30
0
41
1
10
25.5729248355783
20
2.50092718158905
30
0
41
1
10
25.6556285408955
20
2.49826463164101
30
0
41
1
10
25.8213686380346
20
2.48505078851201
30
0
41
1
10
25.9046691377658
20
2.47441627833936
30
0
41
1
10
26.1500235742522
20
2.43122737575214
30
0
41
1
10
26.3091083891555
20
2.38747309598364
30
0
41
1
10
26.6183987484317
20
2.2703315386542
30
0
41
1
10
26.7697332023493
20
2.19597953948357
30
0
41
1
10
27.051249540454
20
2.02249698364372
30
0
41
1
10
27.1827950892683
20
1.9231238622489
30
0
41
1
10
27.3659156609997
20
1.7545837453992
30
0
41
1
10
27.4248645528986
20
1.69477383422162
30
0
41
1
10
27.5356072544905
20
1.57071482113881
30
0
41
1
10
27.5875689921787
20
1.50637818638279
30
0
41
1
10
27.7333749044612
20
1.30654581109817
30
0
41
1
10
27.8172441065661
20
1.16429820421342
30
0
41
1
10
27.9218363758898
20
0.936560697161326
30
0
41
1
10
27.952746206193
20
0.859014318146222
30
0
41
1
10
28.0061510010042
20
0.702390639028607
30
0
41
1
10
28.0513809911168
20
0.543715211578444
30
0
41
1
10
28.0803187185008
20
0.380949981507314
30
0
41
1
10
28.1008953556817
20
0.216085655635823
30
0
41
1
10
28.106975265489
20
0.132200235397136
30
0
41
1
10
28.1120577136182
20
-0.117107456001492
30
0
41
1
10
28.0983672122124
20
-0.281614397172291
30
0
41
1
10
28.0525798633185
20
-0.525864248156466
30
0
41
1
10
28.0329582561841
20
-0.607245512307884
30
0
41
1
10
27.9854929849948
20
-0.767269557888795
30
0
41
1
10
27.9578335426719
20
-0.845457369265148
30
0
41
1
10
27.8635022365867
20
-1.07474783004784
30
0
41
1
10
27.7855853521405
20
-1.22062755523274
30
0
41
1
10
27.5992449485221
20
-1.49822565487423
30
0
41
1
10
27.4928233434433
20
-1.62684175289584
30
0
41
1
10
27.374043298572
20
-1.74467200416224
30
0
0
SPLINE
5
11F
100
AcDbEntity
8
1
62
256
6
ByLayer
370
18
48
1
60
0
100
AcDbSpline
70
4
71
3
72
16
73
12
40
0
40
0
40
0
40
0
40
0.249999999999999
40
0.249999999999999
40
0.499999999999998
40
0.499999999999998
40
0.749999999999997
40
0.749999999999997
40
0.874999999999998
40
0.874999999999998
40
1
40
1
40
1
40
1
41
1
10
18.6443375672974
20
15.5133461831291
30
0
41
1
10
18.628663043577
20
15.4563493271806
30
0
41
1
10
18.609922401016
20
15.400478236028
30
0
41
1
10
18.5642089472352
20
15.2917910897776
30
0
41
1
10
18.5371631998437
20
15.2385985420777
30
0
41
1
10
18.4704947598566
20
15.1387566028337
30
0
41
1
10
18.4307979975499
20
15.0918966685263
30
0
41
1
10
18.358270983099
20
15.0372961905784
30
0
41
1
10
18.3313299686496
20
15.021491213259
30
0
41
1
10
18.273779935704
20
14.9994509315928
30
0
41
1
10
18.2427481222218
20
14.9931545155676
30
0
41
1
10
18.2113248654052
20
14.9931545155676
30
0
0
SPLINE
5
120
100
AcDbEntity
8
1
62
256
6
ByLayer
370
18
48
1
60
0
100
AcDbSpline
70
4
71
3
72
18
73
14
40
0
40
0
40
0
40
0
40
0.250000000000001
40
0.250000000000001
40
0.375000000000002
40
0.375000000000002
40
0.500000000000002
40
0.500000000000002
40
0.750000000000001
40
0.750000000000001
40
0.875000000000001
40
0.875000000000001
40
1
40
1
40
1
40
1
41
1
10
34.6077000037031
20
49.9004314579131
30
0
41
1
10
34.6322109686369
20
49.9181386248476
30
0
41
1
10
34.6855206202897
20
49.9330138562752
30
0
41
1
10
34.8070935194052
20
49.9516458235669
30
0
41
1
10
34.854609850473
20
49.9572414439063
30
0
41
1
10
34.9640579049247
20
49.9672849531386
30
0
41
1
10
35.0258065380293
20
49.9717018042439
30
0
41
1
10
35.228375792181
20
49.9831512931087
30
0
41
1
10
35.3874476456507
20
49.98850117194
30
0
41
1
10
35.6625258149287
20
49.9940929563782
30
0
41
1
10
35.7606382269538
20
49.995548866601
30
0
41
1
10
35.9659989711983
20
49.9977652145709
30
0
41
1
10
36.0735901244116
20
49.9985349842413
30
0
41
1
10
36.1861384096169
20
49.9990558725525
30
0
0
SPLINE
5
121
100
AcDbEntity
8
1
62
256
6
ByLayer
370
18
48
1
60
0
100
AcDbSpline
70
4
71
3
72
18
73
14
40
0
40
0
40
0
40
0
40
0.155779736895641
40
0.155779736895641
40
0.240201763206076
40
0.240201763206076
40
0.324623789516512
40
0.324623789516512
40
0.662311894758256
40
0.662311894758256
40
0.831155947379128
40
0.831155947379128
40
1
40
1
40
1
40
1
41
1
10
96.1094466357583
20
-51.571179298999
30
0
41
1
10
96.2443998579073
20
-51.5482915097628
30
0
41
1
10
96.3802489574848
20
-51.5343626307736
30
0
41
1
10
96.5910913448205
20
-51.5266002398551
30
0
41
1
10
96.6654569939545
20
-51.5264940483249
30
0
41
1
10
96.8147231425707
20
-51.5316250528771
30
0
41
1
10
96.8898050976785
20
-51.5369003646264
30
0
41
1
10
97.2608081459477
20
-51.5762945930385
30
0
41
1
10
97.5478733145866
20
-51.6486302529497
30
0
41
1
10
97.963862425586
20
-51.8184217133507
30
0
41
1
10
98.0978644985628
20
-51.8845812232572
30
0
41
1
10
98.3537800668749
20
-52.0337835727044
30
0
41
1
10
98.4762203759734
20
-52.1170413471123
30
0
41
1
10
98.5930947425644
20
-52.2090326992078
30
0
0
SPLINE
5
122
100
AcDbEntity
8
1
62
256
6
ByLayer
370
18
48
1
60
0
100
AcDbSpline
70
4
71
3
72
18
73
14
40
0
40
0
40
0
40
0
40
0.337844914005226
40
0.337844914005226
40
0.506767371007839
40
0.506767371007839
40
0.675689828010452
40
0.675689828010452
40
0.760151056511759
40
0.760151056511759
40
0.844612285013065
40
0.844612285013065
40
1
40
1
40
1
40
1
41
1
10
94.2090326992078
20
-56.5930947425644
30
0
41
1
10
94.023492175557
20
-56.3573668107024
30
0
41
1
10
93.8747695953015
20
-56.1016255256741
30
0
41
1
10
93.7060130354004
20
-55.6886049052251
30
0
41
1
10
93.6589433595637
20
-55.5452893270191
30
0
41
1
10
93.5864447506431
20
-55.257410207977
30
0
41
1
10
93.5605081221367
20
-55.111844001756
30
0
41
1
10
93.53701841729
20
-54.8910618613124
30
0
41
1
10
93.5317671042014
20
-54.8170608630619
30
0
41
1
10
93.5265296800563
20
-54.6682276947721
30
0
41
1
10
93.5265605560075
20
-54.5930884639333
30
0
41
1
10
93.5342748460303
20
-54.3809665125333
30
0
41
1
10
93.5482274243514
20
-54.2452149105679
30
0
41
1
10
93.570900814392
20
-54.1110920939536
30
0
0
SPLINE
5
123
100
AcDbEntity
8
1
62
256
6
ByLayer
370
18
48
1
60
0
100
AcDbSpline
70
4
71
3
72
36
73
32
40
0
40
0
40
0
40
0
40
0.125000000000001
40
0.125000000000001
40
0.187500000000001
40
0.187500000000001
40
0.250000000000002
40
0.250000000000002
40
0.312500000000002
40
0.312500000000002
40
0.375000000000003
40
0.375000000000003
40
0.437500000000003
40
0.437500000000003
40
0.468750000000003
40
0.468750000000003
40
0.500000000000003
40
0.500000000000003
40
0.562500000000003
40
0.562500000000003
40
0.625000000000003
40
0.625000000000003
40
0.750000000000002
40
0.750000000000002
40
0.812500000000001
40
0.812500000000001
40
0.875000000000001
40
0.875000000000001
40
0.9375
40
0.9375
40
1
40
1
40
1
40
1
41
1
10
99.6812346828403
20
-53.8041664523995
30
0
41
1
10
99.7627984982785
20
-54.0743042558834
30
0
41
1
10
99.8078969587238
20
-54.3504914197624
30
0
41
1
10
99.8200629799366
20
-54.7739828856971
30
0
41
1
10
99.8146290012233
20
-54.9145440728434
30
0
41
1
10
99.7854178510542
20
-55.1920454418182
30
0
41
1
10
99.7616525455537
20
-55.3293895914406
30
0
41
1
10
99.695515336565
20
-55.6012225461158
30
0
41
1
10
99.6526837967441
20
-55.736728969554
30
0
41
1
10
99.5499221617817
20
-55.998076192509
30
0
41
1
10
99.4901077701612
20
-56.1241893239909
30
0
41
1
10
99.3538753499539
20
-56.3674380922222
30
0
41
1
10
99.2774588741156
20
-56.4845745676761
30
0
41
1
10
99.1498979803377
20
-56.6532852516012
30
0
41
1
10
99.1052330336048
20
-56.7082870582215
30
0
41
1
10
99.0129751153391
20
-56.8142225316921
30
0
41
1
10
98.9652177152632
20
-56.8653818434975
30
0
41
1
10
98.8171454414608
20
-57.0135291701827
30
0
41
1
10
98.7120515777712
20
-57.105209986719
30
0
41
1
10
98.4890397238237
20
-57.2743301374051
30
0
41
1
10
98.3701385252125
20
-57.3522508194434
30
0
41
1
10
98.0027288075317
20
-57.5583539624407
30
0
41
1
10
97.743116303694
20
-57.6606573596756
30
0
41
1
10
97.3316027839192
20
-57.7612784646187
30
0
41
1
10
97.1929308966949
20
-57.7852891024393
30
0
41
1
10
96.9152352466702
20
-57.8145915849835
30
0
41
1
10
96.7757971645325
20
-57.8199831023185
30
0
41
1
10
96.4957357043327
20
-57.812198770921
30
0
41
1
10
96.3543649597396
20
-57.7988367071993
30
0
41
1
10
96.0764119723191
20
-57.7537169860567
30
0
41
1
10
95.9393358908211
20
-57.7220469460116
30
0
41
1
10
95.8041664523991
20
-57.6812346828401
30
0
0
SPLINE
5
124
100
AcDbEntity
8
1
62
256
6
ByLayer
370
18
48
1
60
0
100
AcDbSpline
70
4
71
3
72
10
73
6
40
0
40
0
40
0
40
0
40
0.5
40
0.5
40
1
40
1
40
1
40
1
41
1
10
99.3149217181836
20
-58.1355377358075
30
0
41
1
10
99.4755085006937
20
-58.0249521671507
30
0
41
1
10
99.624895298065
20
-57.9005955092028
30
0
41
1
10
99.9007096664203
20
-57.624766322234
30
0
41
1
10
100.024952128037
20
-57.4755085574932
30
0
41
1
10
100.135537735808
20
-57.3149217181836
30
0
0
SPLINE
5
125
100
AcDbEntity
8
1
62
256
6
ByLayer
370
18
48
1
60
0
100
AcDbSpline
70
4
71
3
72
36
73
32
40
0
40
0
40
0
40
0
40
0.0271552888295374
40
0.0543874308765139
40
0.0816957095873824
40
0.109079400964974
40
0.136537776174599
40
0.164070104193817
40
0.191675654503665
40
0.219353699819003
40
0.247103518855471
40
0.27492439913038
40
0.302815639794694
40
0.330776554493064
40
0.35880647424868
40
0.38690475036951
40
0.415070757372271
40
0.44330389592025
40
0.471603595770885
40
0.499969318728749
40
0.541598936564008
40
0.584000552705514
40
0.627171622020454
40
0.67110971908815
40
0.715812591714742
40
0.761278216081911
40
0.807504853384064
40
0.85449110774568
40
0.902235985144649
40
0.950738952998612
40
1
40
1
40
1
40
1
41
1
10
99.4881128368146
20
-57.4881128368147
30
0
41
1
10
99.4665081915096
20
-57.5093657807506
30
0
41
1
10
99.4232377567699
20
-57.5519318173886
30
0
41
1
10
99.3559692173737
20
-57.6134911249209
30
0
41
1
10
99.2869098816135
20
-57.6734029733333
30
0
41
1
10
99.2159376767325
20
-57.7314307240389
30
0
41
1
10
99.1431453372766
20
-57.7875509140208
30
0
41
1
10
99.068570987141
20
-57.8416839364731
30
0
41
1
10
98.9922706210663
20
-57.893766620129
30
0
41
1
10
98.9142985906454
20
-57.943732818302
30
0
41
1
10
98.8347128372754
20
-57.9915187484682
30
0
41
1
10
98.7535734632837
20
-58.0370616738577
30
0
41
1
10
98.6709430906745
20
-58.0803003769254
30
0
41
1
10
98.5868867357627
20
-58.1211751507474
30
0
41
1
10
98.5014718055506
20
-58.1596279223715
30
0
41
1
10
98.4147680722008
20
-58.1956023335339
30
0
41
1
10
98.3268475915459
20
-58.2290438602748
30
0
41
1
10
98.2377848467976
20
-58.2598998192832
30
0
41
1
10
98.1476560227959
20
-58.288119788947
30
0
41
1
10
98.042409788622
20
-58.3176148731155
30
0
41
1
10
97.9209272662229
20
-58.3468141855002
30
0
41
1
10
97.7821875678009
20
-58.3736236735141
30
0
41
1
10
97.6399173560935
20
-58.3943810037862
30
0
41
1
10
97.4943856375791
20
-58.408669873003
30
0
41
1
10
97.3458970073396
20
-58.4160777220968
30
0
41
1
10
97.1947930758291
20
-58.4162038638063
30
0
41
1
10
97.0414595135854
20
-58.4086412259594
30
0
41
1
10
96.8863015742876
20
-58.3930614629678
30
0
41
1
10
96.729841694924
20
-58.3689053671916
30
0
41
1
10
96.5723485869072
20
-58.3365832611939
30
0
41
1
10
96.468426171476
20
-58.3076892890856
30
0
41
1
10
96.416062047533
20
-58.293130278593
30
0
0
SPLINE
5
126
100
AcDbEntity
8
1
62
256
6
ByLayer
370
18
48
1
60
0
100
AcDbSpline
70
4
71
3
72
14
73
10
40
0
40
0
40
0
40
0
40
0.125000000000001
40
0.125000000000001
40
0.250000000000002
40
0.250000000000002
40
0.500000000000002
40
0.500000000000002
40
1
40
1
40
1
40
1
41
1
10
100.548940102135
20
-56.4841339641167
30
0
41
1
10
100.536390138286
20
-56.5202366432217
30
0
41
1
10
100.523445667392
20
-56.5564550201541
30
0
41
1
10
100.496406342483
20
-56.6285661719055
30
0
41
1
10
100.482327598958
20
-56.6644831183838
30
0
41
1
10
100.438275312381
20
-56.7715947768339
30
0
41
1
10
100.406486436561
20
-56.8421486377312
30
0
41
1
10
100.303487782392
20
-57.0506672815706
30
0
41
1
10
100.224332186418
20
-57.1859788976931
30
0
41
1
10
100.135537735798
20
-57.3149217181975
30
0
0
SPLINE
5
127
100
AcDbEntity
8
1
62
256
6
ByLayer
370
18
48
1
60
0
100
AcDbSpline
70
4
71
3
72
10
73
6
40
0
40
0
40
0
40
0
40
0.5
40
0.5
40
1
40
1
40
1
40
1
41
1
10
94.5245904581678
20
-56.9086525015244
30
0
41
1
10
94.4717742463424
20
-56.855836289699
30
0
41
1
10
94.4185443408191
20
-56.8026063841757
30
0
41
1
10
94.3132562945839
20
-56.6973183379405
30
0
41
1
10
94.2609741445264
20
-56.645036187883
30
0
41
1
10
94.2090326992079
20
-56.5930947425645
30
0
0
SPLINE
5
128
100
AcDbEntity
8
1
62
256
6
ByLayer
370
18
48
1
60
0
100
AcDbSpline
70
4
71
3
72
37
73
33
40
0
40
0
40
0
40
0
40
0.027246716396536
40
0.054263342111145
40
0.0810499403428986
40
0.107606521247141
40
0.133933044962791
40
0.160029424651339
40
0.185895529539375
40
0.211531187957075
40
0.236936190365763
40
0.262110292368202
40
0.287053217695959
40
0.311764661168732
40
0.336244291621133
40
0.360491754792996
40
0.384506676179832
40
0.408288663840602
40
0.431837311160493
40
0.455152199566919
40
0.47823290119745
40
0.501078981518842
40
0.551978319441938
40
0.602663759146755
40
0.653131958846283
40
0.703379292807178
40
0.753401906254736
40
0.803195769763315
40
0.85275673290913
40
0.90208057698531
40
0.951163066600292
40
1
40
1
40
1
40
1
41
1
10
100.293130278593
20
-54.4160620475328
30
0
41
1
10
100.301384661623
20
-54.4449596897862
30
0
41
1
10
100.317823721794
20
-54.5025109420172
30
0
41
1
10
100.339092387219
20
-54.5894063470299
30
0
41
1
10
100.357797901911
20
-54.6761352466973
30
0
41
1
10
100.373759403108
20
-54.7626783961714
30
0
41
1
10
100.387093375337
20
-54.8489287661057
30
0
41
1
10
100.397840507768
20
-54.9348072653485
30
0
41
1
10
100.406064145188
20
-55.0202321345783
30
0
41
1
10
100.411824007161
20
-55.1051270339903
30
0
41
1
10
100.415182901928
20
-55.1894188875507
30
0
41
1
10
100.41620472192
20
-55.2730384266873
30
0
41
1
10
100.414954751479
20
-55.3559200114755
30
0
41
1
10
100.411499370528
20
-55.4380016344606
30
0
41
1
10
100.405905925008
20
-55.5192248690038
30
0
41
1
10
100.398242561584
20
-55.5995348232745
30
0
41
1
10
100.38857807605
20
-55.6788800928857
30
0
41
1
10
100.376981777816
20
-55.7572126827726
30
0
41
1
10
100.363523313349
20
-55.8344880233789
30
0
41
1
10
100.348272671611
20
-55.9106646190571
30
0
41
1
10
100.331299548044
20
-55.985705030516
30
0
41
1
10
100.304988031594
20
-56.0900597903281
30
0
41
1
10
100.265885971528
20
-56.2228664879476
30
0
41
1
10
100.209368920977
20
-56.3824327359102
30
0
41
1
10
100.1446123892
20
-56.5381649858522
30
0
41
1
10
100.071932473559
20
-56.6896411200113
30
0
41
1
10
99.9916665541114
20
-56.8364717420666
30
0
41
1
10
99.9041554057462
20
-56.9782775201202
30
0
41
1
10
99.8098049928717
20
-57.1147551142425
30
0
41
1
10
99.7088482130388
20
-57.2454405121065
30
0
41
1
10
99.6022197511089
20
-57.3705860347277
30
0
41
1
10
99.5260848327812
20
-57.449002785663
30
0
41
1
10
99.4881128368146
20
-57.4881128368147
30
0
0
SPLINE
5
129
100
AcDbEntity
8
1
62
256
6
ByLayer
370
18
48
1
60
0
100
AcDbSpline
70
4
71
3
72
14
73
10
40
0
40
0
40
0
40
0
40
0.5
40
0.5
40
0.750000000000001
40
0.750000000000001
40
0.875000000000001
40
0.875000000000001
40
1
40
1
40
1
40
1
41
1
10
99.3149217181838
20
-58.1355377358074
30
0
41
1
10
99.1855397640474
20
-58.2246345889136
30
0
41
1
10
99.0511574064169
20
-58.303208037794
30
0
41
1
10
98.8428688080554
20
-58.4061493975883
30
0
41
1
10
98.7723127047606
20
-58.4379640402741
30
0
41
1
10
98.6650540643837
20
-58.4821006831623
30
0
41
1
10
98.629064119382
20
-58.4962151609433
30
0
41
1
10
98.556750594092
20
-58.5233392555887
30
0
41
1
10
98.5204034773007
20
-58.5363321436524
30
0
41
1
10
98.4841339641167
20
-58.5489401021348
30
0
0
SPLINE
5
12A
100
AcDbEntity
8
1
62
256
6
ByLayer
370
18
48
1
60
0
100
AcDbSpline
70
4
71
3
72
14
73
10
40
0
40
0
40
0
40
0
40
0.25
40
0.25
40
0.5
40
0.5
40
0.75
40
0.75
40
1
40
1
40
1
40
1
41
1
10
98.9086525015244
20
-52.5245904581678
30
0
41
1
10
98.9980561403454
20
-52.6139940969888
30
0
41
1
10
99.081640499177
20
-52.7084222343931
30
0
41
1
10
99.2372256685134
20
-52.907279952907
30
0
41
1
10
99.3088457487077
20
-53.0113297477827
30
0
41
1
10
99.4381996264562
20
-53.2257795524808
30
0
41
1
10
99.4962372946347
20
-53.3365572590313
30
0
41
1
10
99.5989879018122
20
-53.56524306964
30
0
41
1
10
99.6438558347725
20
-53.6837315872989
30
0
41
1
10
99.6812346828471
20
-53.8041664523975
30
0
0
SPLINE
5
12B
100
AcDbEntity
8
1
62
256
6
ByLayer
370
18
48
1
60
0
100
AcDbSpline
70
4
71
3
72
12
73
8
40
0
40
0
40
0
40
0
40
0.500000000000001
40
0.500000000000001
40
0.75
40
0.75
40
1
40
1
40
1
40
1
41
1
10
95.8041664523976
20
-57.6812346828471
30
0
41
1
10
95.5639255162043
20
-57.6066721427728
30
0
41
1
10
95.3326255788339
20
-57.5028105391934
30
0
41
1
10
95.0093000709003
20
-57.3075393756475
30
0
41
1
10
94.9053881600491
20
-57.2358255233867
30
0
41
1
10
94.7078343945417
20
-57.081099583447
30
0
41
1
10
94.6138006752431
20
-56.9978627185997
30
0
41
1
10
94.5245904581678
20
-56.9086525015244
30
0
0
SPLINE
5
12C
100
AcDbEntity
8
1
62
256
6
ByLayer
370
18
48
1
60
0
100
AcDbSpline
70
4
71
3
72
10
73
6
40
0
40
0
40
0
40
0
40
0.5
40
0.5
40
1
40
1
40
1
40
1
41
1
10
98.9086525015244
20
-52.5245904581678
30
0
41
1
10
98.855836289699
20
-52.4717742463424
30
0
41
1
10
98.8026063841757
20
-52.4185443408191
30
0
41
1
10
98.6973183379405
20
-52.3132562945839
30
0
41
1
10
98.645036187883
20
-52.2609741445264
30
0
41
1
10
98.5930947425645
20
-52.2090326992079
30
0
0
SPLINE
5
12D
100
AcDbEntity
8
1
62
256
6
ByLayer
370
18
48
1
60
0
100
AcDbSpline
70
4
71
3
72
8
73
4
40
0
40
0
40
0
40
0
40
1
40
1
40
1
40
1
41
1
10
83.8705355401338
20
-39.8859548970208
30
0
41
1
10
83.933427838496
20
-39.651237644128
30
0
41
1
10
83.9945836684307
20
-39.4230009796327
30
0
41
1
10
84.0546890248566
20
-39.1986847356442
30
0
0
SPLINE
5
12E
100
AcDbEntity
8
1
62
256
6
ByLayer
370
18
48
1
60
0
100
AcDbSpline
70
4
71
3
72
10
73
6
40
0
40
0
40
0
40
0
40
0.5
40
0.5
40
1
40
1
40
1
40
1
41
1
10
81.1986847356442
20
-42.0546890248567
30
0
41
1
10
81.1164761962257
20
-41.9724804854382
30
0
41
1
10
81.0334163256681
20
-41.8894206148805
30
0
41
1
10
80.8650459727825
20
-41.721050261995
30
0
41
1
10
80.7802259121638
20
-41.6362302013763
30
0
41
1
10
80.6955680589904
20
-41.5515723482029
30
0
0
SPLINE
5
12F
100
AcDbEntity
8
1
62
256
6
ByLayer
370
18
48
1
60
0
100
AcDbSpline
70
4
71
3
72
10
73
6
40
0
40
0
40
0
40
0
40
0.5
40
0.5
40
1
40
1
40
1
40
1
41
1
10
80.0528865671144
20
-40.9088908563269
30
0
41
1
10
79.9677269373965
20
-40.823731226609
30
0
41
1
10
79.8823214111956
20
-40.7383257004081
30
0
41
1
10
79.7145589269178
20
-40.5705632161303
30
0
41
1
10
79.6317553902603
20
-40.4877596794728
30
0
41
1
10
79.5497698904606
20
-40.4057741796731
30
0
0
SPLINE
5
130
100
AcDbEntity
8
1
62
256
6
ByLayer
370
18
48
1
60
0
100
AcDbSpline
70
4
71
3
72
10
73
6
40
0
40
0
40
0
40
0
40
0.5
40
0.5
40
1
40
1
40
1
40
1
41
1
10
83.4511443028422
20
-41.4511443028422
30
0
41
1
10
83.4813674703038
20
-41.3383499063099
30
0
41
1
10
83.5120381523148
20
-41.2238853627418
30
0
41
1
10
83.5735239154532
20
-40.9944173707673
30
0
41
1
10
83.6043572386705
20
-40.8793458419539
30
0
41
1
10
83.6352977875651
20
-40.7638741414656
30
0
0
SPLINE
5
131
100
AcDbEntity
8
1
62
256
6
ByLayer
370
18
48
1
60
0
100
AcDbSpline
70
4
71
3
72
10
73
6
40
0
40
0
40
0
40
0
40
0.5
40
0.5
40
1
40
1
40
1
40
1
41
1
10
82.9088908563268
20
-38.0528865671144
30
0
41
1
10
82.823731226609
20
-37.9677269373965
30
0
41
1
10
82.7383257004081
20
-37.8823214111956
30
0
41
1
10
82.5705632161303
20
-37.7145589269179
30
0
41
1
10
82.4877596794728
20
-37.6317553902603
30
0
41
1
10
82.4057741796731
20
-37.5497698904607
30
0
0
SPLINE
5
132
100
AcDbEntity
8
1
62
256
6
ByLayer
370
18
48
1
60
0
100
AcDbSpline
70
4
71
3
72
8
73
4
40
0
40
0
40
0
40
0
40
1
40
1
40
1
40
1
41
1
10
82.7638741414656
20
-41.6352977875651
30
0
41
1
10
82.9985913943584
20
-41.5724054892028
30
0
41
1
10
83.2268280588537
20
-41.5112496592681
30
0
41
1
10
83.4511443028422
20
-41.4511443028422
30
0
0
SPLINE
5
133
100
AcDbEntity
8
1
62
256
6
ByLayer
370
18
48
1
60
0
100
AcDbSpline
70
4
71
3
72
10
73
6
40
0
40
0
40
0
40
0
40
0.5
40
0.5
40
1
40
1
40
1
40
1
41
1
10
80.1533146124751
20
-38.1533146124751
30
0
41
1
10
80.1230914450135
20
-38.2661090090074
30
0
41
1
10
80.0924207630024
20
-38.3805735525755
30
0
41
1
10
80.0309349998641
20
-38.61004154455
30
0
41
1
10
80.0001016766467
20
-38.7251130733634
30
0
41
1
10
79.9691611277522
20
-38.8405847738517
30
0
0
SPLINE
5
134
100
AcDbEntity
8
1
62
256
6
ByLayer
370
18
48
1
60
0
100
AcDbSpline
70
4
71
3
72
10
73
6
40
0
40
0
40
0
40
0
40
0.5
40
0.5
40
1
40
1
40
1
40
1
41
1
10
82.4057741796731
20
-37.5497698904607
30
0
41
1
10
82.2929797831408
20
-37.5799930579222
30
0
41
1
10
82.1785152395727
20
-37.6106637399333
30
0
41
1
10
81.9490472475982
20
-37.6721495030716
30
0
41
1
10
81.8339757187848
20
-37.702982826289
30
0
41
1
10
81.7185040182964
20
-37.7339233751835
30
0
0
SPLINE
5
135
100
AcDbEntity
8
1
62
256
6
ByLayer
370
18
48
1
60
0
100
AcDbSpline
70
4
71
3
72
10
73
6
40
0
40
0
40
0
40
0
40
0.5
40
0.5
40
1
40
1
40
1
40
1
41
1
10
84.0546890248566
20
-39.1986847356442
30
0
41
1
10
83.9724804854382
20
-39.1164761962258
30
0
41
1
10
83.8894206148805
20
-39.0334163256681
30
0
41
1
10
83.721050261995
20
-38.8650459727825
30
0
41
1
10
83.6362302013763
20
-38.7802259121639
30
0
41
1
10
83.5515723482029
20
-38.6955680589905
30
0
0
SPLINE
5
136
100
AcDbEntity
8
1
62
256
6
ByLayer
370
18
48
1
60
0
100
AcDbSpline
70
4
71
3
72
8
73
4
40
0
40
0
40
0
40
0
40
1
40
1
40
1
40
1
41
1
10
79.7339233751835
20
-39.7185040182965
30
0
41
1
10
79.6710310768212
20
-39.9532212711894
30
0
41
1
10
79.6098752468865
20
-40.1814579356846
30
0
41
1
10
79.5497698904606
20
-40.4057741796731
30
0
0
SPLINE
5
137
100
AcDbEntity
8
1
62
256
6
ByLayer
370
18
48
1
60
0
100
AcDbSpline
70
4
71
3
72
8
73
4
40
0
40
0
40
0
40
0
40
1
40
1
40
1
40
1
41
1
10
80.8405847738517
20
-37.9691611277522
30
0
41
1
10
80.6058675209588
20
-38.0320534261145
30
0
41
1
10
80.3776308564635
20
-38.0932092560492
30
0
41
1
10
80.1533146124751
20
-38.1533146124751
30
0
0
SPLINE
5
138
100
AcDbEntity
8
1
62
256
6
ByLayer
370
18
48
1
60
0
100
AcDbSpline
70
4
71
3
72
10
73
6
40
0
40
0
40
0
40
0
40
0.5
40
0.5
40
1
40
1
40
1
40
1
41
1
10
81.1986847356442
20
-42.0546890248567
30
0
41
1
10
81.3114791321765
20
-42.0244658573951
30
0
41
1
10
81.4259436757445
20
-41.993795175384
30
0
41
1
10
81.6554116677191
20
-41.9323094122457
30
0
41
1
10
81.7704831965325
20
-41.9014760890283
30
0
41
1
10
81.8859548970208
20
-41.8705355401338
30
0
0
LINE
5
72
100
AcDbEntity
8
1
62
256
6
ByLayer
370
18
48
1
60
0
100
AcDbLine
10
0.3
20
50
30
0
11
0
21
49.7
31
0
39
0
210
0
220
0
230
1
0
LINE
5
73
100
AcDbEntity
8
1
62
256
6
ByLayer
370
18
48
1
60
0
100
AcDbLine
10
0
20
-49.7
30
0
11
0.3
21
-50
31
0
39
0
210
0
220
0
230
1
0
LINE
5
74
100
AcDbEntity
8
1
62
256
6
ByLayer
370
18
48
1
60
0
100
AcDbLine
10
25.08759
20
-0.6
30
0
11
25.155076
21
-0.6
31
0
39
0
210
0
220
0
230
1
0
LINE
5
75
100
AcDbEntity
8
1
62
256
6
ByLayer
370
18
48
1
60
0
100
AcDbLine
10
25.155076
20
0.6
30
0
11
25.08759
21
0.6
31
0
39
0
210
0
220
0
230
1
0
LINE
5
76
100
AcDbEntity
8
1
62
256
6
ByLayer
370
18
48
1
60
0
100
AcDbLine
10
35.897119
20
-4.288865
30
0
11
35.836805
21
-4.090855
31
0
39
0
210
0
220
0
230
1
0
LINE
5
77
100
AcDbEntity
8
1
62
256
6
ByLayer
370
18
48
1
60
0
100
AcDbLine
10
33.567535
20
-8.476886
30
0
11
33.764005
21
-8.411734
31
0
39
0
210
0
220
0
230
1
0
LINE
5
78
100
AcDbEntity
8
1
62
256
6
ByLayer
370
18
48
1
60
0
100
AcDbLine
10
25.312541
20
2
30
0
11
25.003462
21
2
31
0
39
0
210
0
220
0
230
1
0
LINE
5
79
100
AcDbEntity
8
1
62
256
6
ByLayer
370
18
48
1
60
0
100
AcDbLine
10
25.003462
20
-2
30
0
11
25.312541
21
-2
31
0
39
0
210
0
220
0
230
1
0
LINE
5
7A
100
AcDbEntity
8
1
62
256
6
ByLayer
370
18
48
1
60
0
100
AcDbLine
10
0.3
20
-50
30
0
11
36.186138
21
-50
31
0
39
0
210
0
220
0
230
1
0
LINE
5
7B
100
AcDbEntity
8
1
62
256
6
ByLayer
370
18
48
1
60
0
100
AcDbLine
10
31.754785
20
-7.573727
30
0
11
33.499558
21
-8.476448
31
0
39
0
210
0
220
0
230
1
0
LINE
5
7C
100
AcDbEntity
8
1
62
256
6
ByLayer
370
18
48
1
60
0
100
AcDbLine
10
35.797178
20
-4.035621
30
0
11
31.718815
21
-1.925534
31
0
39
0
210
0
220
0
230
1
0
LINE
5
7D
100
AcDbEntity
8
1
62
256
6
ByLayer
370
18
48
1
60
0
100
AcDbLine
10
36.186138
20
50
30
0
11
0.3
21
50
31
0
39
0
210
0
220
0
230
1
0
LINE
5
7E
100
AcDbEntity
8
SK1
62
256
6
ByLayer
370
18
48
1
60
0
100
AcDbLine
10
-1.307107
20
-4.60538
30
0
11
-1.307107
21
4.60538
31
0
39
0
210
0
220
0
230
1
0
LINE
5
80
100
AcDbEntity
8
SK1
62
256
6
ByLayer
370
18
48
1
60
0
100
AcDbLine
10
-0.2
20
-37.983485
30
0
11
-0.2
21
-6.83962
31
0
39
0
210
0
220
0
230
1
0
LINE
5
81
100
AcDbEntity
8
SK1
62
256
6
ByLayer
370
18
48
1
60
0
100
AcDbLine
10
-0.2
20
6.83962
30
0
11
-0.2
21
37.983485
31
0
39
0
210
0
220
0
230
1
0
LINE
5
82
100
AcDbEntity
8
1
62
256
6
ByLayer
370
18
48
1
60
0
100
AcDbLine
10
13.788675
20
47.699112
30
0
11
13.788675
21
14.993155
31
0
39
0
210
0
220
0
230
1
0
LINE
5
83
100
AcDbEntity
8
1
62
256
6
ByLayer
370
18
48
1
60
0
100
AcDbLine
10
13.355662
20
47.532474
30
0
11
13.355662
21
15.513346
31
0
39
0
210
0
220
0
230
1
0
LINE
5
84
100
AcDbEntity
8
1
62
256
6
ByLayer
370
18
48
1
60
0
100
AcDbLine
10
48.9174
20
50.147532
30
0
11
38.592479
21
50.147532
31
0
39
0
210
0
220
0
230
1
0
LINE
5
85
100
AcDbEntity
8
1
62
256
6
ByLayer
370
18
48
1
60
0
100
AcDbLine
10
13.788675
20
-14.993155
30
0
11
18.211325
21
-14.993155
31
0
39
0
210
0
220
0
230
1
0
LINE
5
86
100
AcDbEntity
8
1
62
256
6
ByLayer
370
18
48
1
60
0
100
AcDbLine
10
102.496655
20
-42.65446
30
0
11
102.489074
21
-42.64133
31
0
39
0
210
0
220
0
230
1
0
LINE
5
87
100
AcDbEntity
8
1
62
256
6
ByLayer
370
18
48
1
60
0
100
AcDbLine
10
18.644338
20
47.532474
30
0
11
18.644338
21
15.513346
31
0
39
0
210
0
220
0
230
1
0
LINE
5
88
100
AcDbEntity
8
1
62
256
6
ByLayer
370
18
48
1
60
0
100
AcDbLine
10
85.925003
20
-61.230203
30
0
11
86.065861
21
-61.311528
31
0
39
0
210
0
220
0
230
1
0
LINE
5
89
100
AcDbEntity
8
1
62
256
6
ByLayer
370
18
48
1
60
0
100
AcDbLine
10
34.6077
20
-49.900431
30
0
11
34.6077
21
-7.371229
31
0
39
0
210
0
220
0
230
1
0
LINE
5
8A
100
AcDbEntity
8
1
62
256
6
ByLayer
370
18
48
1
60
0
100
AcDbLine
10
34.6077
20
-3.419739
30
0
11
34.6077
21
49.900431
31
0
39
0
210
0
220
0
230
1
0
LINE
5
8B
100
AcDbEntity
8
1
62
256
6
ByLayer
370
18
48
1
60
0
100
AcDbLine
10
38.592479
20
-50.147532
30
0
11
39.5
21
-50.147532
31
0
39
0
210
0
220
0
230
1
0
LINE
5
8C
100
AcDbEntity
8
1
62
256
6
ByLayer
370
18
48
1
60
0
100
AcDbLine
10
101.479872
20
-43.650532
30
0
11
102.489074
21
-42.64133
31
0
39
0
210
0
220
0
230
1
0
LINE
5
8D
100
AcDbEntity
8
1
62
256
6
ByLayer
370
18
48
1
60
0
100
AcDbLine
10
83.318562
20
-59.725374
30
0
11
84.191036
21
-60.229097
31
0
39
0
210
0
220
0
230
1
0
LINE
5
8E
100
AcDbEntity
8
1
62
256
6
ByLayer
370
18
48
1
60
0
100
AcDbLine
10
102.236519
20
-42.203892
30
0
11
102.489074
21
-42.64133
31
0
39
0
210
0
220
0
230
1
0
LINE
5
8F
100
AcDbEntity
8
1
62
256
6
ByLayer
370
18
48
1
60
0
100
AcDbLine
10
31.902437
20
0.009419
30
0
11
31.758104
21
-0.831786
31
0
39
0
210
0
220
0
230
1
0
LINE
5
90
100
AcDbEntity
8
1
62
256
6
ByLayer
370
18
48
1
60
0
100
AcDbLine
10
102.919307
20
-44.235899
30
0
11
103.230203
21
-43.925003
31
0
39
0
210
0
220
0
230
1
0
LINE
5
91
100
AcDbEntity
8
1
62
256
6
ByLayer
370
18
48
1
60
0
100
AcDbLine
10
84.203892
20
-60.236519
30
0
11
84.64133
21
-60.489074
31
0
39
0
210
0
220
0
230
1
0
LINE
5
92
100
AcDbEntity
8
1
62
256
6
ByLayer
370
18
48
1
60
0
100
AcDbLine
10
103.311528
20
-44.065861
30
0
11
103.068492
21
-44.308897
31
0
39
0
210
0
220
0
230
1
0
LINE
5
93
100
AcDbEntity
8
1
62
256
6
ByLayer
370
18
48
1
60
0
100
AcDbLine
10
86.600959
20
-61.620466
30
0
11
86.065861
21
-61.311528
31
0
39
0
210
0
220
0
230
1
0
LINE
5
94
100
AcDbEntity
8
1
62
256
6
ByLayer
370
18
48
1
60
0
100
AcDbLine
10
100.938054
20
-43.482078
30
0
11
102.229097
21
-42.191036
31
0
39
0
210
0
220
0
230
1
0
LINE
5
95
100
AcDbEntity
8
1
62
256
6
ByLayer
370
18
48
1
60
0
100
AcDbLine
10
0
20
-49.7
30
0
11
0
21
49.7
31
0
39
0
210
0
220
0
230
1
0
LINE
5
96
100
AcDbEntity
8
1
62
256
6
ByLayer
370
18
48
1
60
0
100
AcDbLine
10
86.308897
20
-61.068492
30
0
11
86.065861
21
-61.311528
31
0
39
0
210
0
220
0
230
1
0
LINE
5
97
100
AcDbEntity
8
1
62
256
6
ByLayer
370
18
48
1
60
0
100
AcDbLine
10
13.788675
20
47.699112
30
0
11
18.211325
21
47.699112
31
0
39
0
210
0
220
0
230
1
0
LINE
5
98
100
AcDbEntity
8
1
62
256
6
ByLayer
370
18
48
1
60
0
100
AcDbLine
10
18.644338
20
-15.513346
30
0
11
18.644338
21
-47.532474
31
0
39
0
210
0
220
0
230
1
0
LINE
5
99
100
AcDbEntity
8
1
62
256
6
ByLayer
370
18
48
1
60
0
100
AcDbLine
10
101.725374
20
-41.318562
30
0
11
99.825708
21
-43.218229
31
0
39
0
210
0
220
0
230
1
0
LINE
5
9A
100
AcDbEntity
8
1
62
256
6
ByLayer
370
18
48
1
60
0
100
AcDbLine
10
40.407938
20
-50.251944
30
0
11
62.752291
21
-49.604282
31
0
39
0
210
0
220
0
230
1
0
LINE
5
9B
100
AcDbEntity
8
1
62
256
6
ByLayer
370
18
48
1
60
0
100
AcDbLine
10
85.218229
20
-57.825708
30
0
11
83.318562
21
-59.725374
31
0
39
0
210
0
220
0
230
1
0
LINE
5
9C
100
AcDbEntity
8
1
62
256
6
ByLayer
370
18
48
1
60
0
100
AcDbLine
10
103.620466
20
-44.600959
30
0
11
103.311528
21
-44.065861
31
0
39
0
210
0
220
0
230
1
0
LINE
5
9D
100
AcDbEntity
8
1
62
256
6
ByLayer
370
18
48
1
60
0
100
AcDbLine
10
13.355662
20
-15.513346
30
0
11
13.355662
21
-47.532474
31
0
39
0
210
0
220
0
230
1
0
LINE
5
9E
100
AcDbEntity
8
1
62
256
6
ByLayer
370
18
48
1
60
0
100
AcDbLine
10
84.191036
20
-60.229097
30
0
11
84.203892
21
-60.236519
31
0
39
0
210
0
220
0
230
1
0
LINE
5
9F
100
AcDbEntity
8
1
62
256
6
ByLayer
370
18
48
1
60
0
100
AcDbLine
10
48.9174
20
50.147532
30
0
11
101.725374
21
-41.318562
31
0
39
0
210
0
220
0
230
1
0
LINE
5
A0
100
AcDbEntity
8
1
62
256
6
ByLayer
370
18
48
1
60
0
100
AcDbLine
10
0.3
20
-50
30
0
11
0.3
21
50
31
0
39
0
210
0
220
0
230
1
0
LINE
5
A1
100
AcDbEntity
8
1
62
256
6
ByLayer
370
18
48
1
60
0
100
AcDbLine
10
32.286793
20
2.249519
30
0
11
32.142459
21
1.408314
31
0
39
0
210
0
220
0
230
1
0
LINE
5
A2
100
AcDbEntity
8
1
62
256
6
ByLayer
370
18
48
1
60
0
100
AcDbLine
10
68.147818
20
-50.966541
30
0
11
83.318562
21
-59.725374
31
0
39
0
210
0
220
0
230
1
0
LINE
5
A3
100
AcDbEntity
8
1
62
256
6
ByLayer
370
18
48
1
60
0
100
AcDbLine
10
38.592479
20
50.147532
30
0
11
38.592479
21
-50.147532
31
0
39
0
210
0
220
0
230
1
0
LINE
5
A4
100
AcDbEntity
8
1
62
256
6
ByLayer
370
18
48
1
60
0
100
AcDbLine
10
18.211325
20
-14.993155
30
0
11
18.211325
21
-47.699112
31
0
39
0
210
0
220
0
230
1
0
LINE
5
A5
100
AcDbEntity
8
1
62
256
6
ByLayer
370
18
48
1
60
0
100
AcDbLine
10
101.725374
20
-41.318562
30
0
11
102.229097
21
-42.191036
31
0
39
0
210
0
220
0
230
1
0
LINE
5
A6
100
AcDbEntity
8
1
62
256
6
ByLayer
370
18
48
1
60
0
100
AcDbLine
10
102.496655
20
-42.65446
30
0
11
101.495374
21
-43.65574
31
0
39
0
210
0
220
0
230
1
0
LINE
5
A7
100
AcDbEntity
8
1
62
256
6
ByLayer
370
18
48
1
60
0
100
AcDbLine
10
102.236519
20
-42.203892
30
0
11
100.953823
21
-43.486588
31
0
39
0
210
0
220
0
230
1
0
LINE
5
A8
100
AcDbEntity
8
1
62
256
6
ByLayer
370
18
48
1
60
0
100
AcDbLine
10
85.65574
20
-59.495374
30
0
11
84.65446
21
-60.496655
31
0
39
0
210
0
220
0
230
1
0
LINE
5
A9
100
AcDbEntity
8
1
62
256
6
ByLayer
370
18
48
1
60
0
100
AcDbLine
10
18.211325
20
-47.699112
30
0
11
13.788675
21
-47.699112
31
0
39
0
210
0
220
0
230
1
0
LINE
5
AA
100
AcDbEntity
8
1
62
256
6
ByLayer
370
18
48
1
60
0
100
AcDbLine
10
18.211325
20
14.993155
30
0
11
13.788675
21
14.993155
31
0
39
0
210
0
220
0
230
1
0
LINE
5
AB
100
AcDbEntity
8
1
62
256
6
ByLayer
370
18
48
1
60
0
100
AcDbLine
10
103.230203
20
-43.925003
30
0
11
103.311528
21
-44.065861
31
0
39
0
210
0
220
0
230
1
0
LINE
5
AC
100
AcDbEntity
8
1
62
256
6
ByLayer
370
18
48
1
60
0
100
AcDbLine
10
13.788675
20
-14.993155
30
0
11
13.788675
21
-47.699112
31
0
39
0
210
0
220
0
230
1
0
LINE
5
AD
100
AcDbEntity
8
1
62
256
6
ByLayer
370
18
48
1
60
0
100
AcDbLine
10
84.191036
20
-60.229097
30
0
11
85.482078
21
-58.938054
31
0
39
0
210
0
220
0
230
1
0
LINE
5
AE
100
AcDbEntity
8
1
62
256
6
ByLayer
370
18
48
1
60
0
100
AcDbLine
10
85.486588
20
-58.953823
30
0
11
84.203892
21
-60.236519
31
0
39
0
210
0
220
0
230
1
0
LINE
5
AF
100
AcDbEntity
8
1
62
256
6
ByLayer
370
18
48
1
60
0
100
AcDbLine
10
36.186138
20
-49.999056
30
0
11
36.186138
21
-50
31
0
39
0
210
0
220
0
230
1
0
LINE
5
B0
100
AcDbEntity
8
1
62
256
6
ByLayer
370
18
48
1
60
0
100
AcDbLine
10
36.186138
20
50
30
0
11
36.186138
21
49.999056
31
0
39
0
210
0
220
0
230
1
0
LINE
5
B1
100
AcDbEntity
8
1
62
256
6
ByLayer
370
18
48
1
60
0
100
AcDbLine
10
18.211325
20
47.699112
30
0
11
18.211325
21
14.993155
31
0
39
0
210
0
220
0
230
1
0
LINE
5
B2
100
AcDbEntity
8
1
62
256
6
ByLayer
370
18
48
1
60
0
100
AcDbLine
10
84.64133
20
-60.489074
30
0
11
85.650532
21
-59.479872
31
0
39
0
210
0
220
0
230
1
0
LINE
5
B3
100
AcDbEntity
8
1
62
256
6
ByLayer
370
18
48
1
60
0
100
AcDbLine
10
84.65446
20
-60.496655
30
0
11
84.64133
21
-60.489074
31
0
39
0
210
0
220
0
230
1
0
LINE
5
B4
100
AcDbEntity
8
1
62
256
6
ByLayer
370
18
48
1
60
0
100
AcDbLine
10
102.229097
20
-42.191036
30
0
11
102.236519
21
-42.203892
31
0
39
0
210
0
220
0
230
1
0
LINE
5
B5
100
AcDbEntity
8
1
62
256
6
ByLayer
370
18
48
1
60
0
100
AcDbLine
10
85.925003
20
-61.230203
30
0
11
86.235899
21
-60.919307
31
0
39
0
210
0
220
0
230
1
0
LINE
5
B6
100
AcDbEntity
8
80
62
256
6
ByLayer
370
18
48
1
60
0
100
AcDbLine
10
0
20
0
30
0
11
-5
21
0
31
0
39
0
210
0
220
0
230
1
0
LINE
5
B7
100
AcDbEntity
8
4
62
256
6
ByLayer
370
18
48
0.05
60
0
100
AcDbLine
10
0
20
0
30
0
11
110
21
0
31
0
39
0
210
0
220
0
230
1
0
LINE
5
B9
100
AcDbEntity
8
81
62
256
6
ByLayer
370
18
48
1
60
0
100
AcDbLine
10
110
20
-68
30
0
11
120
21
-68
31
0
39
0
210
0
220
0
230
1
0
LINE
5
BA
100
AcDbEntity
8
SK4
62
256
6
ByLayer
370
18
48
0.05
60
0
100
AcDbLine
10
-65
20
0
30
0
11
110
21
0
31
0
39
0
210
0
220
0
230
1
0
LINE
5
BC
100
AcDbEntity
8
1
62
256
6
ByLayer
370
18
48
1
60
0
100
AcDbLine
10
96.416062
20
-58.29313
30
0
11
95.804166
21
-57.681235
31
0
39
0
210
0
220
0
230
1
0
LINE
5
BD
100
AcDbEntity
8
1
62
256
6
ByLayer
370
18
48
1
60
0
100
AcDbLine
10
98.908653
20
-52.52459
30
0
11
99.774881
21
-53.390819
31
0
39
0
210
0
220
0
230
1
0
LINE
5
BE
100
AcDbEntity
8
1
62
256
6
ByLayer
370
18
48
1
60
0
100
AcDbLine
10
99.681235
20
-53.804166
30
0
11
100.29313
21
-54.416062
31
0
39
0
210
0
220
0
230
1
0
LINE
5
BF
100
AcDbEntity
8
1
62
256
6
ByLayer
370
18
48
1
60
0
100
AcDbLine
10
94.52459
20
-56.908653
30
0
11
95.390819
21
-57.774881
31
0
39
0
210
0
220
0
230
1
0
MTEXT
5
139
100
AcDbEntity
8
SK6
62
256
6
ByLayer
370
13
48
1
60
0
100
AcDbMText
10
-10.467415
20
59.092503
30
0
210
0
220
0
230
1
1
\W0.7095;C10-PRSCL-68110-25
40
3.5
41
0
44
1.084337
50
0
71
7
72
5
7
iso_b_vert
0
DIMENSION
5
14B
100
AcDbEntity
8
SK2
62
256
6
ByLayer
370
13
48
1
60
0
100
AcDbDimension
2
DimnDraft3D1
10
-67.5
20
-50
30
0
11
-67.5
21
0
31
0
70
32
71
5
72
1
41
1
210
0
220
0
230
1
3
Standard
100
AcDbAlignedDimension
13
-1.5875
23
50
33
0
14
-1.5875
24
-50
34
0
50
90
100
AcDbRotatedDimension
1001
ACAD
1000
DSTYLE
1002
{
1070
    74
1070
     0
1070
   279
1070
     0
1070
   172
1070
     1
1070
   173
1070
     1
1070
   340
1005
13A
1070
   271
1070
     1
1070
   272
1070
     2
1070
    77
1070
     1
1070
    73
1070
     0
1070
   171
1070
     3
1070
   274
1070
     4
1070
   177
1070
   150
1070
   176
1070
     9
1070
   178
1070
    43
1070
    78
1070
     8
1070
    48
1040
-0.005
1070
    41
1041
3.175
1070
   147
1041
2.25
1070
    42
1041
1.5875
1070
    44
1041
3.175
1070
   140
1041
4.5
1070
   343
1005
14C
1070
   344
1005
14C
1002
}
0
DIMENSION
5
161
100
AcDbEntity
8
2
62
256
6
ByLayer
370
13
48
1
60
0
100
AcDbDimension
2
DimnDraft3D2
10
126.5
20
0
30
0
11
126.5
21
-34
31
0
70
32
71
5
72
1
41
1
210
0
220
0
230
1
3
Standard
100
AcDbAlignedDimension
13
111.5875
23
-68
33
0
14
51.5875
24
0
34
0
50
90
100
AcDbRotatedDimension
1001
ACAD
1000
DSTYLE
1002
{
1070
    74
1070
     0
1070
   279
1070
     0
1070
   172
1070
     1
1070
   173
1070
     1
1070
   340
1005
13A
1070
   271
1070
     1
1070
   272
1070
     2
1070
    77
1070
     1
1070
    73
1070
     0
1070
   171
1070
     3
1070
   274
1070
     4
1070
   177
1070
   150
1070
   176
1070
     9
1070
   178
1070
    43
1070
    78
1070
     8
1070
    48
1040
-0.005
1070
    41
1041
3.175
1070
   147
1041
2.25
1070
    42
1041
1.5875
1070
    44
1041
3.175
1070
   140
1041
4.5
1070
   343
1005
14C
1070
   344
1005
14C
1002
}
0
DIMENSION
5
16F
100
AcDbEntity
8
2
62
256
6
ByLayer
370
13
48
1
60
0
100
AcDbDimension
2
DimnDraft3D3
10
110
20
-94.5
30
0
11
55
21
-94.5
31
0
70
32
71
5
72
1
41
1
210
0
220
0
230
1
3
Standard
100
AcDbAlignedDimension
13
0
23
-51.5875
33
0
14
110
24
-69.5875
34
0
50
0
100
AcDbRotatedDimension
1001
ACAD
1000
DSTYLE
1002
{
1070
   279
1070
     0
1070
   172
1070
     1
1070
   173
1070
     1
1070
   340
1005
13A
1070
   271
1070
     1
1070
   272
1070
     2
1070
    77
1070
     1
1070
    73
1070
     0
1070
   171
1070
     3
1070
   274
1070
     4
1070
   177
1070
   150
1070
   176
1070
     9
1070
   178
1070
    43
1070
    78
1070
     8
1070
    48
1040
-0.005
1070
    41
1041
3.175
1070
   147
1041
2.25
1070
    42
1041
1.5875
1070
    44
1041
3.175
1070
   140
1041
4.5
1070
   343
1005
14C
1070
   344
1005
14C
1002
}
0
ENDSEC
0
SECTION
2
OBJECTS
0
DICTIONARY
5
1da
330
0
100
AcDbDictionary
280
0
281
1
3
ACAD_GROUP
350
1db
3
ACAD_MLINESTYLE
350
1dc
0
DICTIONARY
5
1db
330
0
100
AcDbDictionary
280
0
281
1
0
DICTIONARY
5
1dc
330
0
100
AcDbDictionary
280
0
281
1
3
Standard
350
18
0
MLINESTYLE
5
18
330
1dc
100
AcDbMlineStyle
2
Standard
70
0
3

62
256
51
90
52
90
71
2
49
-0.5
62
256
6
ByLayer
49
0.5
62
256
6
ByLayer
0
RASTERVARIABLES
5
1c8
330

100
AcDbRasterVariables
90
0
70
1
71
1
72
1
0
ENDSEC
0
EOF
