0
SECTION
2
HEADER
9
$ACADVER
1
AC1015
9
$DWGCODEPAGE
3
ANSI_1252
9
$HANDSEED
5
1e2
9
$ANGBASE
50
0
9
$ANGDIR
70
0
9
$ATTMODE
70
1
9
$AUNITS
70
0
9
$AUPREC
70
0
9
$CECOLOR
62
256
9
$CELTSCALE
40
1
9
$CELTYPE
6
ByLayer
9
$CELWEIGHT
370
18
9
$CLAYER
8
0
9
$CMLJUST
70
0
9
$CMLSCALE
40
1
9
$CMLSTYLE
2
Standard
9
$DIMSTYLE
2
Standard
9
$TEXTSIZE
40
0.2
9
$TEXTSTYLE
7
Standard
9
$LUNITS
70
2
9
$LUPREC
70
4
9
$EXTNAMES
290
1
9
$INSUNITS
70
4
9
$LTSCALE
40
1
9
$LWDISPLAY
290
1
9
$PDMODE
70
0
9
$PDSIZE
40
0
9
$PLINEGEN
70
0
0
ENDSEC
0
SECTION
2
CLASSES
0
CLASS
1
RASTERVARIABLES
2
AcDbRasterVariables
3
ISM
90
0
280
0
281
0
0
ENDSEC
0
SECTION
2
TABLES
0
TABLE
2
VPORT
5
1d8
100
AcDbSymbolTable
0
VPORT
5
1
100
AcDbSymbolTableRecord
100
AcDbViewportTableRecord
2
*Active
70
0
10
0
20
0
11
1
21
1
12
-1
22
1
13
0
23
0
14
0.5
24
0.5
15
10
25
10
16
0
26
0
36
1
17
0
27
0
37
0
0
ENDTAB
0
TABLE
2
LTYPE
5
1d9
100
AcDbSymbolTable
0
LTYPE
5
14
100
AcDbSymbolTableRecord
100
AcDbLinetypeTableRecord
70
0
2
ByBlock
3

72
65
73
0
40
0
0
LTYPE
5
15
100
AcDbSymbolTableRecord
100
AcDbLinetypeTableRecord
70
0
2
ByLayer
3

72
65
73
0
40
0
0
LTYPE
5
16
100
AcDbSymbolTableRecord
100
AcDbLinetypeTableRecord
70
0
2
CONTINUOUS
3
Solid line
72
65
73
0
40
0
0
LTYPE
5
6A
100
AcDbSymbolTableRecord
100
AcDbLinetypeTableRecord
70
0
2
CENTER
3
____ _ ____ _ ____ _ ____
72
65
73
4
40
47.5
49
22
74
0
49
-8.5
74
0
49
8.5
74
0
49
-8.5
74
0
0
LTYPE
5
6B
100
AcDbSymbolTableRecord
100
AcDbLinetypeTableRecord
70
0
2
DASHED
3
__ __ __ __ __ __ __ __ __
72
65
73
2
40
25.72
49
12.86
74
0
49
-12.86
74
0
0
ENDTAB
0
TABLE
2
LAYER
5
1da
100
AcDbSymbolTable
0
LAYER
5
10
100
AcDbSymbolTableRecord
100
AcDbLayerTableRecord
2
0
70
0
62
7
6
CONTINUOUS
290
1
370
-3
390
0
0
LAYER
5
6D
100
AcDbSymbolTableRecord
100
AcDbLayerTableRecord
2
81
70
0
62
-3
6
CONTINUOUS
290
1
370
-3
390
0
0
LAYER
5
6F
100
AcDbSymbolTableRecord
100
AcDbLayerTableRecord
2
80
70
0
62
-6
6
CONTINUOUS
290
1
370
-3
390
0
0
LAYER
5
71
100
AcDbSymbolTableRecord
100
AcDbLayerTableRecord
2
1
70
0
62
4
6
CONTINUOUS
290
1
370
-3
390
0
0
LAYER
5
142
100
AcDbSymbolTableRecord
100
AcDbLayerTableRecord
2
4
70
0
62
-2
6
CENTER
290
1
370
-3
390
0
0
LAYER
5
158
100
AcDbSymbolTableRecord
100
AcDbLayerTableRecord
2
2
70
0
62
7
6
CONTINUOUS
290
1
370
-3
390
0
0
LAYER
5
1c4
100
AcDbSymbolTableRecord
100
AcDbLayerTableRecord
2
SK1
70
0
62
4
6
CONTINUOUS
290
1
370
-3
390
0
0
LAYER
5
1c5
100
AcDbSymbolTableRecord
100
AcDbLayerTableRecord
2
SK4
70
0
62
2
6
CENTER
290
1
370
-3
390
0
0
LAYER
5
1c6
100
AcDbSymbolTableRecord
100
AcDbLayerTableRecord
2
SK6
70
0
62
5
6
CONTINUOUS
290
1
370
-3
390
0
0
LAYER
5
1c7
100
AcDbSymbolTableRecord
100
AcDbLayerTableRecord
2
SK2
70
0
62
7
6
CONTINUOUS
290
1
370
-3
390
0
0
ENDTAB
0
TABLE
2
STYLE
5
1db
100
AcDbSymbolTable
0
STYLE
5
11
100
AcDbSymbolTableRecord
100
AcDbTextStyleTableRecord
2
Standard
3
txt
70
0
71
0
40
0
41
1
42
0
50
0
0
STYLE
5
147
100
AcDbSymbolTableRecord
100
AcDbTextStyleTableRecord
2
iso_b_vert
3
simplex.shx
70
0
71
0
40
0
41
1
42
0
50
0
0
STYLE
5
148
100
AcDbSymbolTableRecord
100
AcDbTextStyleTableRecord
2
DWGDirectTextStyle
3
simplex
70
0
71
0
40
0
41
1
42
0
50
0
0
ENDTAB
0
TABLE
2
DIMSTYLE
5
1dc
100
AcDbSymbolTable
100
AcDbDimStyleTable
0
DIMSTYLE
105
27
100
AcDbSymbolTableRecord
100
AcDbDimStyleTableRecord
2
Standard
70
0
3
<>
41
0.18
42
0.0625
44
0.18
140
0.18
147
0.09
73
0
74
0
77
1
271
2
275
0
278
52
280
0
340
11
0
ENDTAB
0
TABLE
2
VIEW
5
1dd
100
AcDbSymbolTable
0
ENDTAB
0
TABLE
2
UCS
5
1de
100
AcDbSymbolTable
0
ENDTAB
0
TABLE
2
APPID
5
1df
100
AcDbSymbolTable
0
APPID
5
12
100
AcDbSymbolTableRecord
100
AcDbRegAppTableRecord
2
ACAD
70
0
0
ENDTAB
0
TABLE
2
BLOCK_RECORD
5
1e0
100
AcDbSymbolTable
0
BLOCK_RECORD
5
1F
100
AcDbSymbolTableRecord
100
AcDbBlockTableRecord
2
*Model_Space
340
0
70
0
0
BLOCK_RECORD
5
1B
100
AcDbSymbolTableRecord
100
AcDbBlockTableRecord
2
*Paper_Space
340
0
70
0
0
BLOCK_RECORD
5
23
100
AcDbSymbolTableRecord
100
AcDbBlockTableRecord
2
*Paper_Space0
340
0
70
0
0
BLOCK_RECORD
5
14A
100
AcDbSymbolTableRecord
100
AcDbBlockTableRecord
2
DimnDraft3D1
340
0
70
0
0
BLOCK_RECORD
5
156
100
AcDbSymbolTableRecord
100
AcDbBlockTableRecord
2
DimnDraft3D2
340
0
70
0
0
BLOCK_RECORD
5
161
100
AcDbSymbolTableRecord
100
AcDbBlockTableRecord
2
DimnDraft3D3
340
0
70
0
0
ENDTAB
0
ENDSEC
0
SECTION
2
BLOCKS
0
BLOCK
5
20
100
AcDbEntity
8
0
100
AcDbBlockBegin
2
*Model_Space
70
0
10
0
20
0
30
0
3
*Model_Space
0
ENDBLK
5
21
100
AcDbEntity
8
0
100
AcDbBlockEnd
0
BLOCK
5
1C
100
AcDbEntity
8
0
100
AcDbBlockBegin
2
*Paper_Space
70
0
10
0
20
0
30
0
3
*Paper_Space
0
ENDBLK
5
1D
100
AcDbEntity
8
0
100
AcDbBlockEnd
0
BLOCK
5
24
100
AcDbEntity
8
0
100
AcDbBlockBegin
2
*Paper_Space0
70
0
10
0
20
0
30
0
3
*Paper_Space0
0
ENDBLK
5
25
100
AcDbEntity
8
0
100
AcDbBlockEnd
0
BLOCK
5
153
100
AcDbEntity
8
0
100
AcDbBlockBegin
2
DimnDraft3D1
70
0
10
0
20
0
30
0
3
DimnDraft3D1
0
MTEXT
5
14B
100
AcDbEntity
8
SK2
62
256
6
ByLayer
370
18
48
1
60
0
100
AcDbMText
10
-84.016089
20
1.482895
30
0
210
0
220
0
230
1
1
\W0.6044;100
40
3.5
41
0
44
1.084337
50
90
71
7
72
5
7
iso_b_vert
0
MTEXT
5
14D
100
AcDbEntity
8
SK2
62
256
6
ByLayer
370
18
48
1
60
0
100
AcDbMText
10
-84.016089
20
-3.739762
30
0
210
0
220
0
230
1
1
%%c
40
3.5
41
0
44
1.084337
50
90
71
7
72
5
7
iso_b_vert
0
LINE
5
14E
100
AcDbEntity
8
SK2
62
256
6
ByLayer
370
13
48
1
60
0
100
AcDbLine
10
-1.2875
20
50
30
0
11
-84.266089
21
50
31
0
39
0
210
0
220
0
230
1
0
LINE
5
14F
100
AcDbEntity
8
SK2
62
256
6
ByLayer
370
13
48
1
60
0
100
AcDbLine
10
-1.2875
20
-50
30
0
11
-84.266089
21
-50
31
0
39
0
210
0
220
0
230
1
0
LINE
5
150
100
AcDbEntity
8
SK2
62
256
6
ByLayer
370
13
48
1
60
0
100
AcDbLine
10
-82.266089
20
50
30
0
11
-82.266089
21
-50
31
0
39
0
210
0
220
0
230
1
0
SOLID
5
151
100
AcDbEntity
8
SK2
62
256
6
ByLayer
370
13
48
1
60
0
100
AcDbTrace
10
-82.266089
20
50
30
0
11
-81.805305
21
46.500002
31
0
12
-82.726873
22
46.499998
32
0
13
-82.266089
23
50
33
0
39
0
210
0
220
0
230
1
0
SOLID
5
152
100
AcDbEntity
8
SK2
62
256
6
ByLayer
370
13
48
1
60
0
100
AcDbTrace
10
-82.266089
20
-50
30
0
11
-82.726873
21
-46.500002
31
0
12
-81.805305
22
-46.499998
32
0
13
-82.266089
23
-50
33
0
39
0
210
0
220
0
230
1
0
ENDBLK
5
154
100
AcDbEntity
8
0
100
AcDbBlockEnd
0
BLOCK
5
15E
100
AcDbEntity
8
0
100
AcDbBlockBegin
2
DimnDraft3D2
70
0
10
0
20
0
30
0
3
DimnDraft3D2
0
MTEXT
5
157
100
AcDbEntity
8
2
62
256
6
ByLayer
370
18
48
1
60
0
100
AcDbMText
10
64.798684
20
-61.375929
30
0
210
0
220
0
230
1
1
\W0.6336;134
40
3.5
41
0
44
1.084337
50
0
71
7
72
5
7
iso_b_vert
0
LINE
5
159
100
AcDbEntity
8
2
62
256
6
ByLayer
370
13
48
1
60
0
100
AcDbLine
10
0
20
-51.2875
30
0
11
0
21
-64.250929
31
0
39
0
210
0
220
0
230
1
0
LINE
5
15A
100
AcDbEntity
8
2
62
256
6
ByLayer
370
13
48
1
60
0
100
AcDbLine
10
134
20
17.412483
30
0
11
134
21
-64.250929
31
0
39
0
210
0
220
0
230
1
0
LINE
5
15B
100
AcDbEntity
8
2
62
256
6
ByLayer
370
13
48
1
60
0
100
AcDbLine
10
0
20
-62.250929
30
0
11
134
21
-62.250929
31
0
39
0
210
0
220
0
230
1
0
SOLID
5
15C
100
AcDbEntity
8
2
62
256
6
ByLayer
370
13
48
1
60
0
100
AcDbTrace
10
0
20
-62.250929
30
0
11
3.499998
21
-61.790145
31
0
12
3.500002
22
-62.711713
32
0
13
0
23
-62.250929
33
0
39
0
210
0
220
0
230
1
0
SOLID
5
15D
100
AcDbEntity
8
2
62
256
6
ByLayer
370
13
48
1
60
0
100
AcDbTrace
10
134
20
-62.250929
30
0
11
130.500002
21
-62.711713
31
0
12
130.499998
22
-61.790145
32
0
13
134
23
-62.250929
33
0
39
0
210
0
220
0
230
1
0
ENDBLK
5
15F
100
AcDbEntity
8
0
100
AcDbBlockEnd
0
BLOCK
5
168
100
AcDbEntity
8
0
100
AcDbBlockBegin
2
DimnDraft3D3
70
0
10
0
20
0
30
0
3
DimnDraft3D3
0
MTEXT
5
162
100
AcDbEntity
8
2
62
256
6
ByLayer
370
18
48
1
60
0
100
AcDbMText
10
155.9429
20
16.330255
30
0
210
0
220
0
230
1
1
\W0.6563;35
40
3.5
41
0
44
1.084337
50
90
71
7
72
5
7
iso_b_vert
0
LINE
5
163
100
AcDbEntity
8
2
62
256
6
ByLayer
370
13
48
1
60
0
100
AcDbLine
10
139.779972
20
0
30
0
11
158.8179
21
0
31
0
39
0
210
0
220
0
230
1
0
LINE
5
164
100
AcDbEntity
8
2
62
256
6
ByLayer
370
13
48
1
60
0
100
AcDbLine
10
125.302065
20
34.999983
30
0
11
158.8179
21
34.999983
31
0
39
0
210
0
220
0
230
1
0
LINE
5
165
100
AcDbEntity
8
2
62
256
6
ByLayer
370
13
48
1
60
0
100
AcDbLine
10
156.8179
20
0
30
0
11
156.8179
21
34.999983
31
0
39
0
210
0
220
0
230
1
0
SOLID
5
166
100
AcDbEntity
8
2
62
256
6
ByLayer
370
13
48
1
60
0
100
AcDbTrace
10
156.8179
20
0
30
0
11
156.357116
21
3.499998
31
0
12
157.278684
22
3.500002
32
0
13
156.8179
23
0
33
0
39
0
210
0
220
0
230
1
0
SOLID
5
167
100
AcDbEntity
8
2
62
256
6
ByLayer
370
13
48
1
60
0
100
AcDbTrace
10
156.8179
20
34.999983
30
0
11
157.278684
21
31.499985
31
0
12
156.357116
22
31.499981
32
0
13
156.8179
23
34.999983
33
0
39
0
210
0
220
0
230
1
0
ENDBLK
5
169
100
AcDbEntity
8
0
100
AcDbBlockEnd
0
ENDSEC
0
SECTION
2
ENTITIES
0
ARC
5
BD
100
AcDbEntity
8
1
62
256
6
ByLayer
370
18
48
1
60
0
100
AcDbCircle
39
0
10
91
20
18.999983
30
0
40
2.575
210
0
220
0
230
1
100
AcDbArc
50
161.394176
51
198.605824
0
ARC
5
BF
100
AcDbEntity
8
1
62
256
6
ByLayer
370
18
48
1
60
0
100
AcDbCircle
39
0
10
91
20
18.999983
30
0
40
2.575
210
0
220
0
230
1
100
AcDbArc
50
281.394176
51
318.605824
0
ARC
5
C0
100
AcDbEntity
8
1
62
256
6
ByLayer
370
18
48
1
60
0
100
AcDbCircle
39
0
10
91
20
18.999983
30
0
40
2.575
210
0
220
0
230
1
100
AcDbArc
50
341.394176
51
18.605824
0
ARC
5
C1
100
AcDbEntity
8
1
62
256
6
ByLayer
370
18
48
1
60
0
100
AcDbCircle
39
0
10
91
20
18.999983
30
0
40
2.575
210
0
220
0
230
1
100
AcDbArc
50
138.605824
51
161.394176
0
ARC
5
C2
100
AcDbEntity
8
1
62
256
6
ByLayer
370
18
48
1
60
0
100
AcDbCircle
39
0
10
91
20
18.999983
30
0
40
2.575
210
0
220
0
230
1
100
AcDbArc
50
78.605824
51
101.394176
0
ARC
5
C3
100
AcDbEntity
8
1
62
256
6
ByLayer
370
18
48
1
60
0
100
AcDbCircle
39
0
10
91
20
18.999983
30
0
40
2.575
210
0
220
0
230
1
100
AcDbArc
50
258.605824
51
281.394176
0
ARC
5
C4
100
AcDbEntity
8
1
62
256
6
ByLayer
370
18
48
1
60
0
100
AcDbCircle
39
0
10
91
20
18.999983
30
0
40
2.575
210
0
220
0
230
1
100
AcDbArc
50
101.394176
51
138.605824
0
ARC
5
C5
100
AcDbEntity
8
1
62
256
6
ByLayer
370
18
48
1
60
0
100
AcDbCircle
39
0
10
91
20
18.999983
30
0
40
2.575
210
0
220
0
230
1
100
AcDbArc
50
41.394176
51
78.605824
0
ARC
5
C6
100
AcDbEntity
8
1
62
256
6
ByLayer
370
18
48
1
60
0
100
AcDbCircle
39
0
10
91
20
18.999983
30
0
40
2.575
210
0
220
0
230
1
100
AcDbArc
50
318.605824
51
341.394176
0
ARC
5
C7
100
AcDbEntity
8
1
62
256
6
ByLayer
370
18
48
1
60
0
100
AcDbCircle
39
0
10
91
20
18.999983
30
0
40
2.575
210
0
220
0
230
1
100
AcDbArc
50
221.394176
51
258.605824
0
ARC
5
C9
100
AcDbEntity
8
1
62
256
6
ByLayer
370
18
48
1
60
0
100
AcDbCircle
39
0
10
91
20
18.999983
30
0
40
2.575
210
0
220
0
230
1
100
AcDbArc
50
198.605824
51
221.394176
0
ARC
5
CA
100
AcDbEntity
8
1
62
256
6
ByLayer
370
18
48
1
60
0
100
AcDbCircle
39
0
10
91
20
18.999983
30
0
40
2.575
210
0
220
0
230
1
100
AcDbArc
50
18.605824
51
41.394176
0
ARC
5
CB
100
AcDbEntity
8
1
62
256
6
ByLayer
370
13
48
1
60
0
100
AcDbCircle
39
0
10
81.990608
20
33.499831
30
0
40
3.2
210
0
220
0
230
1
100
AcDbArc
50
355
51
15
0
ARC
5
CC
100
AcDbEntity
8
1
62
256
6
ByLayer
370
13
48
1
60
0
100
AcDbCircle
39
0
10
-80.028801
20
11.076276
30
0
40
1.60000000012932
210
0
220
0
230
-1
100
AcDbArc
50
185
51
210
0
ARC
5
CD
100
AcDbEntity
8
1
62
256
6
ByLayer
370
13
48
1
60
0
100
AcDbCircle
39
0
10
81
20
-34.800017
30
0
40
40
210
0
220
0
230
1
100
AcDbArc
50
113.591329
51
141.19942
0
ARC
5
CE
100
AcDbEntity
8
1
62
256
6
ByLayer
370
13
48
1
60
0
100
AcDbCircle
39
0
10
114.35
20
18.999983
30
0
40
12.5
210
0
220
0
230
1
100
AcDbArc
50
161.289367
51
198.710634
0
ARC
5
CF
100
AcDbEntity
8
1
62
256
6
ByLayer
370
13
48
1
60
0
100
AcDbCircle
39
0
10
80.028801
20
11.076276
30
0
40
3.2
210
0
220
0
230
1
100
AcDbArc
50
330
51
355
0
ARC
5
D0
100
AcDbEntity
8
1
62
256
6
ByLayer
370
13
48
1
60
0
100
AcDbCircle
39
0
10
-81
20
-34.800017
30
0
40
40
210
0
220
0
230
-1
100
AcDbArc
50
89.037247
51
90
0
ARC
5
D2
100
AcDbEntity
8
1
62
256
6
ByLayer
370
13
48
1
60
0
100
AcDbCircle
39
0
10
-81
20
-34.800017
30
0
40
40.0000000000157
210
0
220
0
230
-1
100
AcDbArc
50
66.408671
51
86.325043
0
ARC
5
D3
100
AcDbEntity
8
1
62
256
6
ByLayer
370
13
48
1
60
0
100
AcDbCircle
39
0
10
-81.990608
20
33.499831
30
0
40
1.59999999970999
210
0
220
0
230
-1
100
AcDbArc
50
165
51
185
0
ARC
5
D4
100
AcDbEntity
8
1
62
256
6
ByLayer
370
18
48
1
60
0
100
AcDbCircle
39
0
10
-118
20
18.999983
30
0
40
5.35
210
0
220
0
230
-1
100
AcDbArc
50
360
51
0.639088
0
ARC
5
D5
100
AcDbEntity
8
1
62
256
6
ByLayer
370
18
48
1
60
0
100
AcDbCircle
39
0
10
-118
20
18.999983
30
0
40
4.3
210
0
220
0
230
-1
100
AcDbArc
50
180.000003
51
270
0
ARC
5
D6
100
AcDbEntity
8
1
62
256
6
ByLayer
370
18
48
1
60
0
100
AcDbCircle
39
0
10
-118
20
18.999983
30
0
40
4.3
210
0
220
0
230
-1
100
AcDbArc
50
270
51
291.5325
0
ARC
5
D7
100
AcDbEntity
8
1
62
256
6
ByLayer
370
18
48
1
60
0
100
AcDbCircle
39
0
10
-118
20
18.999983
30
0
40
4.3
210
0
220
0
230
-1
100
AcDbArc
50
68.473128
51
180.000003
0
ARC
5
D8
100
AcDbEntity
8
1
62
256
6
ByLayer
370
18
48
1
60
0
100
AcDbCircle
39
0
10
-118
20
18.999983
30
0
40
4.75
210
0
220
0
230
-1
100
AcDbArc
50
348.815057
51
11.41389
0
ARC
5
D9
100
AcDbEntity
8
1
62
256
6
ByLayer
370
18
48
1
60
0
100
AcDbCircle
39
0
10
118.095865
20
18.999983
30
0
40
4
210
0
220
0
230
1
100
AcDbArc
50
270
51
90
0
ARC
5
DA
100
AcDbEntity
8
1
62
256
6
ByLayer
370
18
48
1
60
0
100
AcDbCircle
39
0
10
118
20
18.999983
30
0
40
4.09931549024898
210
0
220
0
230
1
100
AcDbArc
50
257.362208
51
102.637792
0
ARC
5
DB
100
AcDbEntity
8
1
62
256
6
ByLayer
370
18
48
1
60
0
100
AcDbCircle
39
0
10
-118
20
18.999983
30
0
40
5.35
210
0
220
0
230
-1
100
AcDbArc
50
359.360912
51
360
0
ARC
5
DC
100
AcDbEntity
8
1
62
256
6
ByLayer
370
13
48
1
60
0
100
AcDbCircle
39
0
10
-118
20
18.999983
30
0
40
4.11067325247731
210
0
220
0
230
-1
100
AcDbArc
50
180.000006
51
270
0
ARC
5
DD
100
AcDbEntity
8
1
62
256
6
ByLayer
370
13
48
1
60
0
100
AcDbCircle
39
0
10
-118
20
18.999983
30
0
40
4.11067325247731
210
0
220
0
230
-1
100
AcDbArc
50
270
51
282.611245
0
ARC
5
DE
100
AcDbEntity
8
1
62
256
6
ByLayer
370
13
48
1
60
0
100
AcDbCircle
39
0
10
-118
20
18.999983
30
0
40
4.11067325247731
210
0
220
0
230
-1
100
AcDbArc
50
77.405619
51
89.999998
0
ARC
5
DF
100
AcDbEntity
8
1
62
256
6
ByLayer
370
13
48
1
60
0
100
AcDbCircle
39
0
10
-118
20
18.999983
30
0
40
4.11067325247731
210
0
220
0
230
-1
100
AcDbArc
50
89.999998
51
179.999992
0
ARC
5
E2
100
AcDbEntity
8
1
62
256
6
ByLayer
370
18
48
1
60
0
100
AcDbCircle
39
0
10
-118
20
18.999983
30
0
40
4.75
210
0
220
0
230
-1
100
AcDbArc
50
180.000001
51
308.092497
0
ARC
5
E3
100
AcDbEntity
8
1
62
256
6
ByLayer
370
18
48
1
60
0
100
AcDbCircle
39
0
10
-118
20
18.999983
30
0
40
4.75
210
0
220
0
230
-1
100
AcDbArc
50
51.49687
51
179.999989
0
CIRCLE
5
BE
100
AcDbEntity
8
1
62
256
6
ByLayer
370
18
48
1
60
0
100
AcDbCircle
10
-91
20
18.999983
30
0
40
2.94739092362731
39
0
210
0
220
0
230
-1
0
CIRCLE
5
C8
100
AcDbEntity
8
1
62
256
6
ByLayer
370
18
48
1
60
0
100
AcDbCircle
10
-91
20
18.999983
30
0
40
5.235
39
0
210
0
220
0
230
-1
0
CIRCLE
5
D1
100
AcDbEntity
8
1
62
256
6
ByLayer
370
13
48
1
60
0
100
AcDbCircle
10
-91
20
18.999983
30
0
40
5.5
39
0
210
0
220
0
230
-1
0
CIRCLE
5
E0
100
AcDbEntity
8
1
62
256
6
ByLayer
370
18
48
1
60
0
100
AcDbCircle
10
-118
20
18.999983
30
0
40
5.90053354912273
39
0
210
0
220
0
230
-1
0
CIRCLE
5
E1
100
AcDbEntity
8
1
62
256
6
ByLayer
370
18
48
1
60
0
100
AcDbCircle
10
118
20
18.999983
30
0
40
16
39
0
210
0
220
0
230
1
0
ELLIPSE
5
E4
100
AcDbEntity
8
1
62
256
6
ByLayer
370
13
48
1
60
0
100
AcDbEllipse
10
63.186903
20
22.057053
30
0
11
0.905866657858827
21
-3.38074039201174
31
0
210
0
220
0
230
1
40
0.939693
41
-3.08318829692629
42
-1.57079640168333
0
ELLIPSE
5
E5
100
AcDbEntity
8
1
62
256
6
ByLayer
370
13
48
1
60
0
100
AcDbEllipse
10
63.186903
20
22.057053
30
0
11
0.905866657858827
21
-3.38074039201174
31
0
210
0
220
0
230
1
40
0.939693
41
-1.57079640168333
42
-0.0584045160167643
0
ELLIPSE
5
E6
100
AcDbEntity
8
1
62
256
6
ByLayer
370
13
48
1
60
0
100
AcDbEllipse
10
93.794591
20
0
30
0
11
23.4242827383055
21
45.5276900330304
31
0
210
0
220
0
230
-1
40
0.897777
41
-1.09765428754134
42
-1.03377441524422
0
ELLIPSE
5
E7
100
AcDbEntity
8
1
62
256
6
ByLayer
370
13
48
1
60
0
100
AcDbEllipse
10
63.186903
20
22.057053
30
0
11
0.782927611435129
21
-2.92192562452443
31
0
210
0
220
0
230
1
40
0.939693
41
0
42
6.28318530717959
0
ELLIPSE
5
E8
100
AcDbEntity
8
1
62
256
6
ByLayer
370
13
48
1
60
0
100
AcDbEllipse
10
62.791183
20
21.95102
30
0
11
3.59770877969039
21
0.964003162120404
31
-4.99282390388545E-16
210
-1.38777878078145E-16
220
6.16297582203915E-33
230
-1
40
0.939693
41
0.347335022429604
42
-0.347335022429609
0
ELLIPSE
5
E9
100
AcDbEntity
8
1
62
256
6
ByLayer
370
13
48
1
60
0
100
AcDbEllipse
10
39.094011
20
0
30
0
11
23.4185446994558
21
49.354372881876
31
0
210
0
220
0
230
-1
40
0.341999
41
-2.98699413089087
42
-2.04714540389049
0
ELLIPSE
5
EA
100
AcDbEntity
8
1
62
256
6
ByLayer
370
13
48
1
60
0
100
AcDbEllipse
10
50.291177
20
0
30
0
11
-3.07070043220967E-15
21
50.150000000001
31
0
210
0
220
0
230
-1
40
0.267949
41
-2.26625564028873
42
-0.875337013301063
0
ELLIPSE
5
EB
100
AcDbEntity
8
1
62
256
6
ByLayer
370
13
48
1
60
0
100
AcDbEllipse
10
-7.094011
20
0
30
0
11
23.4185446994552
21
-49.354372881876
31
0
210
0
220
0
230
-1
40
0.341999
41
-1.09444724969931
42
-0.154598522698927
0
ELLIPSE
5
EC
100
AcDbEntity
8
1
62
256
6
ByLayer
370
13
48
1
60
0
100
AcDbEllipse
10
39.094011
20
0
30
0
11
23.4185446994571
21
-49.3543728818777
31
0
210
0
220
0
230
-1
40
0.341999
41
2.04714540389052
42
2.98699413089087
0
ELLIPSE
5
ED
100
AcDbEntity
8
1
62
256
6
ByLayer
370
13
48
1
60
0
100
AcDbEllipse
10
-7.094011
20
0
30
0
11
23.4185446994529
21
49.3543728818731
31
0
210
0
220
0
230
-1
40
0.341999
41
0.154598522698935
42
1.09444724969936
0
ELLIPSE
5
EE
100
AcDbEntity
8
1
62
256
6
ByLayer
370
18
48
1
60
0
100
AcDbEllipse
10
117.764167
20
18.999983
30
0
11
-6.46879186745839E-16
21
4.02252310956004
31
0
210
0
220
0
230
1
40
0.984808
41
-1.57079632679477
42
-0.38266373236081
0
ELLIPSE
5
EF
100
AcDbEntity
8
1
62
256
6
ByLayer
370
18
48
1
60
0
100
AcDbEllipse
10
117.764167
20
18.999983
30
0
11
-6.46879186745839E-16
21
4.02252310956004
31
0
210
0
220
0
230
1
40
0.984808
41
-2.75892892122844
42
-1.57079632679477
0
ELLIPSE
5
F0
100
AcDbEntity
8
1
62
256
6
ByLayer
370
18
48
1
60
0
100
AcDbEllipse
10
63.847636
20
22.234095
30
0
11
-0.452933328929416
21
1.69037019600587
31
0
210
0
220
0
230
1
40
0.939693
41
2.8321163951556
42
2.93215673235092
0
ELLIPSE
5
F1
100
AcDbEntity
8
1
62
256
6
ByLayer
370
18
48
1
60
0
100
AcDbEllipse
10
63.847636
20
22.234095
30
0
11
-0.452933328929416
21
1.69037019600587
31
0
210
0
220
0
230
1
40
0.939693
41
0.209475126075231
42
2.83211579075608
0
ELLIPSE
5
F2
100
AcDbEntity
8
1
62
256
6
ByLayer
370
18
48
1
60
0
100
AcDbEllipse
10
63.682453
20
22.189835
30
0
11
-0.349405710888407
21
1.30399986549024
31
0
210
0
220
0
230
1
40
0.939693
41
-0.309476345670266
42
0
0
ELLIPSE
5
F3
100
AcDbEntity
8
1
62
256
6
ByLayer
370
18
48
1
60
0
100
AcDbEllipse
10
63.682453
20
22.189835
30
0
11
-0.349405710888407
21
1.30399986549024
31
0
210
0
220
0
230
1
40
0.939693
41
0
42
-2.44841008727487
0
ELLIPSE
5
F4
100
AcDbEntity
8
1
62
256
6
ByLayer
370
18
48
1
60
0
100
AcDbEllipse
10
63.682453
20
22.189835
30
0
11
-0.349405710888407
21
1.30399986549024
31
0
210
0
220
0
230
1
40
0.939693
41
-0.693241573971786
42
-0.309476345670261
0
ELLIPSE
5
F5
100
AcDbEntity
8
1
62
256
6
ByLayer
370
18
48
1
60
0
100
AcDbEllipse
10
63.847636
20
22.234095
30
0
11
-0.349405710888407
21
1.30399986549024
31
0
210
0
220
0
230
1
40
0.939693
41
-3.14152418817458
42
-2.77189622248629
0
ELLIPSE
5
F6
100
AcDbEntity
8
1
62
256
6
ByLayer
370
18
48
1
60
0
100
AcDbEllipse
10
63.847636
20
22.234095
30
0
11
-0.349405710888407
21
1.30399986549024
31
0
210
0
220
0
230
1
40
0.939693
41
0
42
2.83211642214995
0
ELLIPSE
5
F7
100
AcDbEntity
8
1
62
256
6
ByLayer
370
18
48
1
60
0
100
AcDbEllipse
10
63.847636
20
22.234095
30
0
11
-0.349405710888407
21
1.30399986549024
31
0
210
0
220
0
230
1
40
0.939693
41
-0.369559773398896
42
0
0
ELLIPSE
5
F8
100
AcDbEntity
8
1
62
256
6
ByLayer
370
18
48
1
60
0
100
AcDbEllipse
10
63.186903
20
22.057053
30
0
11
-0.776457135307571
21
2.8977774788672
31
0
210
0
220
0
230
1
40
0.939693
41
0
42
6.28318530717959
0
ELLIPSE
5
F9
100
AcDbEntity
8
1
62
256
6
ByLayer
370
18
48
1
60
0
100
AcDbEllipse
10
63.186903
20
22.057053
30
0
11
-0.452933328929416
21
1.69037019600587
31
0
210
0
220
0
230
1
40
0.939693
41
0
42
6.28318530717959
0
POINT
5
6C
100
AcDbEntity
8
81
62
256
6
ByLayer
370
18
48
1
60
0
100
AcDbPoint
10
134
20
18.999983
30
0
39
0
210
0
220
0
230
1
50
360
0
POINT
5
6E
100
AcDbEntity
8
80
62
256
6
ByLayer
370
18
48
1
60
0
100
AcDbPoint
10
0
20
0
30
0
39
0
210
0
220
0
230
1
50
360
0
SPLINE
5
FA
100
AcDbEntity
8
SK1
62
256
6
ByLayer
370
13
48
1
60
0
100
AcDbSpline
70
4
71
2
72
6
73
3
40
0
40
0
40
0
40
1
40
1
40
1
41
1
10
-58
20
-34.597799315609
30
0
41
1
10
-30.0000000035995
20
-35.3006986786285
30
0
41
1
10
-2
20
-36.0035920701207
30
0
0
SPLINE
5
FB
100
AcDbEntity
8
SK1
62
256
6
ByLayer
370
13
48
1
60
0
100
AcDbSpline
70
4
71
2
72
6
73
3
40
0
40
0
40
0
40
1
40
1
40
1
41
1
10
-2
20
36.0035923004002
30
0
41
1
10
-30.0000000035997
20
35.3006989045224
30
0
41
1
10
-58
20
34.5977995369543
30
0
0
SPLINE
5
FC
100
AcDbEntity
8
SK1
62
256
6
ByLayer
370
13
48
1
60
0
100
AcDbSpline
70
4
71
3
72
13
73
9
40
0
40
0
40
0
40
0
40
0.239442105704902
40
0.368341145973332
40
0.499978867909368
40
0.631620104856085
40
0.760528837013044
40
1
40
1
40
1
40
1
41
1
10
-2
20
-36.0251058507278
30
0
41
1
10
-1.99909176796154
20
-35.9990514165152
30
0
41
1
10
-1.99103262330817
20
-35.9616833459708
30
0
41
1
10
-1.96563563428612
20
-35.9154703455011
30
0
41
1
10
-1.9388634055361
20
-35.8841928744204
30
0
41
1
10
-1.90627671849177
20
-35.8590288580891
30
0
41
1
10
-1.85884008786013
20
-35.8359881210146
30
0
41
1
10
-1.82111001788059
20
-35.8298166435709
30
0
41
1
10
-1.79503997793932
20
-35.8302184104253
30
0
0
SPLINE
5
FD
100
AcDbEntity
8
SK1
62
256
6
ByLayer
370
13
48
1
60
0
100
AcDbSpline
70
4
71
3
72
13
73
9
40
0
40
0
40
0
40
0
40
0.239471162861981
40
0.368379894978827
40
0.500021131911216
40
0.631658853861719
40
0.760557894170434
40
1
40
1
40
1
40
1
41
1
10
-1.79503997793932
20
35.8302182314503
30
0
41
1
10
-1.82111001788354
20
35.8298164645971
30
0
41
1
10
-1.85884008786593
20
35.8359879420501
30
0
41
1
10
-1.90627671849541
20
35.8590286791604
30
0
41
1
10
-1.93886340553934
20
35.8841926955311
30
0
41
1
10
-1.96563563428862
20
35.9154701666599
30
0
41
1
10
-1.99103262331016
20
35.9616831672024
30
0
41
1
10
-1.99909176796348
20
35.999051237801
30
0
41
1
10
-2
20
36.0251056720507
30
0
0
SPLINE
5
FE
100
AcDbEntity
8
SK1
62
256
6
ByLayer
370
13
48
1
60
0
100
AcDbSpline
70
4
71
2
72
6
73
3
40
0
40
0
40
0
40
1
40
1
40
1
41
1
10
-1.79503997793932
20
-35.8302051248413
30
0
41
1
10
-0.995008433407747
20
-35.8503019786911
30
0
41
1
10
-0.194976888875317
20
-35.8703988325332
30
0
0
SPLINE
5
FF
100
AcDbEntity
8
SK1
62
256
6
ByLayer
370
13
48
1
60
0
100
AcDbSpline
70
4
71
2
72
6
73
3
40
0
40
0
40
0
40
1
40
1
40
1
41
1
10
-0.194976888875317
20
35.8703986548775
30
0
41
1
10
-0.995008433407747
20
35.8503018010039
30
0
41
1
10
-1.79503997793932
20
35.8302049471226
30
0
0
SPLINE
5
100
100
AcDbEntity
8
SK1
62
256
6
ByLayer
370
13
48
1
60
0
100
AcDbSpline
70
4
71
2
72
6
73
3
40
0
40
0
40
0
40
1
40
1
40
1
41
1
10
-0.194976888875317
20
-35.8704121281555
30
0
41
1
10
-0.102989214655565
20
-35.9102663052026
30
0
41
1
10
-0.0624061490483996
20
-35.8190898228332
30
0
0
SPLINE
5
101
100
AcDbEntity
8
SK1
62
256
6
ByLayer
370
13
48
1
60
0
100
AcDbSpline
70
4
71
2
72
6
73
3
40
0
40
0
40
0
40
1
40
1
40
1
41
1
10
-0.0624076347566529
20
35.8190898213106
30
0
41
1
10
-0.102990515051772
20
35.9102690257094
30
0
41
1
10
-0.194976888875317
20
35.870411949242
30
0
0
SPLINE
5
102
100
AcDbEntity
8
SK1
62
256
6
ByLayer
370
13
48
1
60
0
100
AcDbSpline
70
4
71
2
72
6
73
3
40
0
40
0
40
0
40
1
40
1
40
1
41
1
10
-60.0000000000001
20
-33.463618416063
30
0
41
1
10
-59.0000000079414
20
-34.0408955105386
30
0
41
1
10
-58
20
-34.6181729253396
30
0
0
SPLINE
5
103
100
AcDbEntity
8
SK1
62
256
6
ByLayer
370
13
48
1
60
0
100
AcDbSpline
70
4
71
2
72
6
73
3
40
0
40
0
40
0
40
1
40
1
40
1
41
1
10
-58
20
34.6181727480099
30
0
41
1
10
-59.0000000079399
20
34.0408953324973
30
0
41
1
10
-60
20
33.4636182372901
30
0
0
SPLINE
5
104
100
AcDbEntity
8
1
62
256
6
ByLayer
370
18
48
1
60
0
100
AcDbSpline
70
4
71
3
72
12
73
8
40
0
40
0
40
0
40
0
40
0.5
40
0.5
40
0.75
40
0.75
40
1
40
1
40
1
40
1
41
1
10
92.4573764170019
20
21.5242330020303
30
0
41
1
10
92.3024652982219
20
21.5242330020303
30
0
41
1
10
92.1458464443914
20
21.5242330020303
30
0
41
1
10
91.9074719379642
20
21.5242330020303
30
0
41
1
10
91.8276677608873
20
21.5242330020303
30
0
41
1
10
91.6682491696366
20
21.5242330020303
30
0
41
1
10
91.5885009673395
20
21.5242330020303
30
0
41
1
10
91.5087110550205
20
21.5242330020303
30
0
0
SPLINE
5
105
100
AcDbEntity
8
1
62
256
6
ByLayer
370
18
48
1
60
0
100
AcDbSpline
70
4
71
3
72
12
73
8
40
0
40
0
40
0
40
0
40
0.249999999999998
40
0.249999999999998
40
0.499999999999996
40
0.499999999999996
40
1
40
1
40
1
40
1
41
1
10
93.9147528340038
20
18.9999830020303
30
0
41
1
10
93.8758519908151
20
19.0673612388905
30
0
41
1
10
93.8367205809951
20
19.1351388288704
30
0
41
1
10
93.757919849708
20
19.2716256991332
30
0
41
1
10
93.7183398252585
20
19.3401803124448
30
0
41
1
10
93.5995729986041
20
19.5458904904638
30
0
41
1
10
93.5201452589952
20
19.6834633709968
30
0
41
1
10
93.4404201530131
20
19.8215513051966
30
0
0
SPLINE
5
106
100
AcDbEntity
8
1
62
256
6
ByLayer
370
18
48
1
60
0
100
AcDbSpline
70
4
71
3
72
8
73
4
40
0
40
0
40
0
40
0
40
1
40
1
40
1
40
1
41
1
10
93.440420153013
20
18.1784146988639
30
0
41
1
10
93.6027502798702
20
18.4595787261796
30
0
41
1
10
93.7601916446047
20
18.7322751691128
30
0
41
1
10
93.9147528340038
20
18.9999830020303
30
0
0
SPLINE
5
107
100
AcDbEntity
8
1
62
256
6
ByLayer
370
18
48
1
60
0
100
AcDbSpline
70
4
71
3
72
12
73
8
40
0
40
0
40
0
40
0
40
0.250000000000002
40
0.250000000000002
40
0.500000000000005
40
0.500000000000005
40
1
40
1
40
1
40
1
41
1
10
89.542623582998
20
21.5242330020303
30
0
41
1
10
89.5037227398093
20
21.4568547651701
30
0
41
1
10
89.4645913299894
20
21.3890771751902
30
0
41
1
10
89.3857905987023
20
21.2525903049274
30
0
41
1
10
89.3462105742527
20
21.1840356916158
30
0
41
1
10
89.2274437475983
20
20.9783255135967
30
0
41
1
10
89.1480160079894
20
20.8407526330637
30
0
41
1
10
89.0682909020073
20
20.7026646988639
30
0
0
SPLINE
5
108
100
AcDbEntity
8
1
62
256
6
ByLayer
370
18
48
1
60
0
100
AcDbSpline
70
4
71
3
72
8
73
4
40
0
40
0
40
0
40
0
40
1
40
1
40
1
40
1
41
1
10
89.0682909020073
20
17.2973013051966
30
0
41
1
10
89.2306210288645
20
17.0161372778808
30
0
41
1
10
89.3880623935989
20
16.7434408349478
30
0
41
1
10
89.542623582998
20
16.4757330020303
30
0
0
SPLINE
5
109
100
AcDbEntity
8
1
62
256
6
ByLayer
370
18
48
1
60
0
100
AcDbSpline
70
4
71
3
72
12
73
8
40
0
40
0
40
0
40
0
40
0.249999999999998
40
0.249999999999998
40
0.499999999999996
40
0.499999999999996
40
1
40
1
40
1
40
1
41
1
10
88.0852471659961
20
18.9999830020303
30
0
41
1
10
88.1241480091849
20
18.9326047651701
30
0
41
1
10
88.1632794190048
20
18.8648271751902
30
0
41
1
10
88.2420801502919
20
18.7283403049273
30
0
41
1
10
88.2816601747415
20
18.6597856916157
30
0
41
1
10
88.4004270013959
20
18.4540755135968
30
0
41
1
10
88.4798547410048
20
18.3165026330638
30
0
41
1
10
88.5595798469869
20
18.178414698864
30
0
0
SPLINE
5
10A
100
AcDbEntity
8
1
62
256
6
ByLayer
370
18
48
1
60
0
100
AcDbSpline
70
4
71
3
72
10
73
6
40
0
40
0
40
0
40
0
40
0.5
40
0.5
40
1
40
1
40
1
40
1
41
1
10
90.4912889449794
20
16.4757330020303
30
0
41
1
10
90.3309266701436
20
16.4757330020303
30
0
41
1
10
90.1697461148515
20
16.4757330020303
30
0
41
1
10
89.8531634697238
20
16.4757330020303
30
0
41
1
10
89.6970727354243
20
16.4757330020303
30
0
41
1
10
89.542623582998
20
16.4757330020303
30
0
0
SPLINE
5
10B
100
AcDbEntity
8
1
62
256
6
ByLayer
370
18
48
1
60
0
100
AcDbSpline
70
4
71
3
72
8
73
4
40
0
40
0
40
0
40
0
40
1
40
1
40
1
40
1
41
1
10
88.5595798469869
20
19.8215513051966
30
0
41
1
10
88.3972497201297
20
19.5403872778809
30
0
41
1
10
88.2398083553953
20
19.2676908349479
30
0
41
1
10
88.0852471659961
20
18.9999830020303
30
0
0
SPLINE
5
10C
100
AcDbEntity
8
1
62
256
6
ByLayer
370
18
48
1
60
0
100
AcDbSpline
70
4
71
3
72
12
73
8
40
0
40
0
40
0
40
0
40
0.25
40
0.25
40
0.5
40
0.5
40
1
40
1
40
1
40
1
41
1
10
92.4573764170019
20
16.4757330020303
30
0
41
1
10
92.4962772601907
20
16.5431112388905
30
0
41
1
10
92.5354086700106
20
16.6108888288704
30
0
41
1
10
92.6142094012977
20
16.7473756991332
30
0
41
1
10
92.6537894257473
20
16.8159303124448
30
0
41
1
10
92.7725562524017
20
17.0216404904638
30
0
41
1
10
92.8519839920106
20
17.1592133709968
30
0
41
1
10
92.9317090979927
20
17.2973013051966
30
0
0
SPLINE
5
10D
100
AcDbEntity
8
1
62
256
6
ByLayer
370
18
48
1
60
0
100
AcDbSpline
70
4
71
3
72
8
73
4
40
0
40
0
40
0
40
0
40
1
40
1
40
1
40
1
41
1
10
92.9317090979926
20
20.7026646988639
30
0
41
1
10
92.7693789711354
20
20.9838287261797
30
0
41
1
10
92.611937606401
20
21.2565251691127
30
0
41
1
10
92.4573764170019
20
21.5242330020303
30
0
0
SPLINE
5
10E
100
AcDbEntity
8
1
62
256
6
ByLayer
370
18
48
1
60
0
100
AcDbSpline
70
4
71
3
72
10
73
6
40
0
40
0
40
0
40
0
40
0.5
40
0.5
40
1
40
1
40
1
40
1
41
1
10
90.4912889449795
20
21.5242330020303
30
0
41
1
10
90.3309266701438
20
21.5242330020303
30
0
41
1
10
90.1697461148516
20
21.5242330020303
30
0
41
1
10
89.8531634697238
20
21.5242330020303
30
0
41
1
10
89.6970727354244
20
21.5242330020303
30
0
41
1
10
89.542623582998
20
21.5242330020303
30
0
0
SPLINE
5
10F
100
AcDbEntity
8
1
62
256
6
ByLayer
370
18
48
1
60
0
100
AcDbSpline
70
4
71
3
72
12
73
8
40
0
40
0
40
0
40
0
40
0.5
40
0.5
40
0.75
40
0.75
40
1
40
1
40
1
40
1
41
1
10
92.4573764170019
20
16.4757330020303
30
0
41
1
10
92.3024652982218
20
16.4757330020303
30
0
41
1
10
92.1458464443913
20
16.4757330020303
30
0
41
1
10
91.9074719379641
20
16.4757330020303
30
0
41
1
10
91.8276677608872
20
16.4757330020303
30
0
41
1
10
91.6682491696365
20
16.4757330020303
30
0
41
1
10
91.5885009673395
20
16.4757330020303
30
0
41
1
10
91.5087110550204
20
16.4757330020303
30
0
0
SPLINE
5
110
100
AcDbEntity
8
SK1
62
256
6
ByLayer
370
13
48
1
60
0
100
AcDbSpline
70
4
71
3
72
23
73
19
40
0
40
0
40
0
40
0
40
0.0072676395236309
40
0.0681923631761317
40
0.129117086828633
40
0.190041810481133
40
0.250966534133634
40
0.372815981438636
40
0.494665428743638
40
0.616514876048639
40
0.67743959970114
40
0.738364323353641
40
0.799289047006142
40
0.860213770658643
40
0.921138494311144
40
0.951600856137394
40
0.982063217963644
40
1
40
1
40
1
40
1
41
1
10
-0.194976888875203
20
35.8704041496878
30
0
41
1
10
-0.19497688887526
20
35.8704964433729
30
0
41
1
10
-0.194976888875317
20
35.8636733790859
30
0
41
1
10
-0.194976888875317
20
35.7174198887681
30
0
41
1
10
-0.194976888875317
20
35.2208724917283
30
0
41
1
10
-0.194976888875317
20
34.4664108038087
30
0
41
1
10
-0.194976888875317
20
33.1465711622766
30
0
41
1
10
-0.194976888875317
20
30.9532458019737
30
0
41
1
10
-0.194976888875317
20
27.5438608680676
30
0
41
1
10
-0.194976888875317
20
24.1019818923575
30
0
41
1
10
-0.194976888875317
20
21.0030581436865
30
0
41
1
10
-0.194976888875317
20
18.5090285522972
30
0
41
1
10
-0.194976888875317
20
15.8459932106695
30
0
41
1
10
-0.194976888875317
20
13.01403182172
30
0
41
1
10
-0.194976888875317
20
10.5128856077908
30
0
41
1
10
-0.194976888875317
20
8.42548355648717
30
0
41
1
10
-0.194976888875317
20
7.03804325869044
30
0
41
1
10
-0.194976888875317
20
6.16878599736884
30
0
41
1
10
-0.194976888875317
20
5.84425674889019
30
0
0
SPLINE
5
111
100
AcDbEntity
8
1
62
256
6
ByLayer
370
13
48
1
60
0
100
AcDbSpline
70
4
71
3
72
22
73
18
40
0
40
0
40
0
40
0
40
0.250000000000004
40
0.250000000000004
40
0.375000000000002
40
0.375000000000002
40
0.5
40
0.5
40
0.624999999999998
40
0.624999999999998
40
0.749999999999996
40
0.749999999999996
40
0.812499999999998
40
0.812499999999998
40
0.874999999999999
40
0.874999999999999
40
1
40
1
40
1
40
1
41
1
10
18.6443375672972
20
-47.5324740593456
30
0
41
1
10
18.6286630435768
20
-47.5510763302178
30
0
41
1
10
18.6099224010158
20
-47.5691972862264
30
0
41
1
10
18.5756373106802
20
-47.59548499051
30
0
41
1
10
18.5631695734009
20
-47.6040973909193
30
0
41
1
10
18.5356352389808
20
-47.6209630227398
30
0
41
1
10
18.5204960898467
20
-47.6292547015449
30
0
41
1
10
18.4871618698532
20
-47.6451715334097
30
0
41
1
10
18.4690247593557
20
-47.6527863810654
30
0
41
1
10
18.4286870548352
20
-47.6670929420699
30
0
41
1
10
18.4066223260661
20
-47.6737248158945
30
0
41
1
10
18.3703588188407
20
-47.6823452689499
30
0
41
1
10
18.3577088110856
20
-47.685006320191
30
0
41
1
10
18.3310088557485
20
-47.6898031435891
30
0
41
1
10
18.316942460413
20
-47.6919316413791
30
0
41
1
10
18.2737799357038
20
-47.6971341405702
30
0
41
1
10
18.2427481222217
20
-47.6991123363138
30
0
41
1
10
18.2113248654051
20
-47.6991123363138
30
0
0
SPLINE
5
112
100
AcDbEntity
8
SK1
62
256
6
ByLayer
370
13
48
1
60
0
100
AcDbSpline
70
4
71
3
72
24
73
20
40
0
40
0
40
0
40
0
40
0.125
40
0.125
40
0.25
40
0.25
40
0.3125
40
0.3125
40
0.375
40
0.375
40
0.5
40
0.5
40
0.75
40
0.75
40
0.8125
40
0.8125
40
0.875
40
0.875
40
1
40
1
40
1
40
1
41
1
10
-1.31543506509496
20
-4.59640415560551
30
0
41
1
10
-1.3789196178389
20
-4.22431944475011
30
0
41
1
10
-1.43778205769132
20
-3.84960414750225
30
0
41
1
10
-1.54358299367488
20
-3.09402151305568
30
0
41
1
10
-1.59053901135872
20
-2.71316035754927
30
0
41
1
10
-1.64908575631762
20
-2.13625723440924
30
0
41
1
10
-1.66661602998158
20
-1.94301929126209
30
0
41
1
10
-1.69715091423342
20
-1.55447763492202
30
0
41
1
10
-1.7101622246409
20
-1.35887252184762
30
0
41
1
10
-1.74159404728488
20
-0.773693576923733
30
0
41
1
10
-1.75256119499386
20
-0.384416890188731
30
0
41
1
10
-1.75233597419526
20
0.780703070865172
30
0
41
1
10
-1.70806020507382
20
1.55384193065783
30
0
41
1
10
-1.61052384761029
20
2.51655718179558
30
0
41
1
10
-1.58893122407079
20
2.70898867016007
30
0
41
1
10
-1.54234695189774
20
3.09130415399341
30
0
41
1
10
-1.51732838724962
20
3.28147917647209
30
0
41
1
10
-1.43783024398971
20
3.8493457043208
30
0
41
1
10
-1.37890939965519
20
4.22438027915405
30
0
41
1
10
-1.3154350650949
20
4.59640482501129
30
0
0
SPLINE
5
113
100
AcDbEntity
8
SK1
62
256
6
ByLayer
370
13
48
1
60
0
100
AcDbSpline
70
4
71
3
72
23
73
19
40
0
40
0
40
0
40
0
40
0.0179367863922319
40
0.0483991605890347
40
0.0788615347858376
40
0.139786283179443
40
0.200711031573049
40
0.261635779966655
40
0.32256052836026
40
0.383485276753866
40
0.505334773541077
40
0.627184270328289
40
0.7490337671155
40
0.809958515509106
40
0.870883263902712
40
0.931808012296317
40
0.992732760689923
40
1
40
1
40
1
40
1
41
1
10
-0.194976888875317
20
-5.84425690653001
30
0
41
1
10
-0.194976888875317
20
-6.16878610916757
30
0
41
1
10
-0.194976888875317
20
-7.03804331354922
30
0
41
1
10
-0.194976888875317
20
-8.42548325232269
30
0
41
1
10
-0.194976888875317
20
-10.5128857072926
30
0
41
1
10
-0.194976888875317
20
-13.0140317926818
30
0
41
1
10
-0.194976888875317
20
-15.845993340449
30
0
41
1
10
-0.194976888875317
20
-18.5090283517536
30
0
41
1
10
-0.194976888875317
20
-21.0030580601043
30
0
41
1
10
-0.194976888875317
20
-24.1019820230192
30
0
41
1
10
-0.194976888875317
20
-27.5438608332977
30
0
41
1
10
-0.194976888875317
20
-30.9532460203106
30
0
41
1
10
-0.194976888875317
20
-33.146571023226
30
0
41
1
10
-0.194976888875317
20
-34.4664113979883
30
0
41
1
10
-0.194976888875317
20
-35.2208725954616
30
0
41
1
10
-0.194976888875317
20
-35.7174195918578
30
0
41
1
10
-0.194976888875317
20
-35.8636727292736
30
0
41
1
10
-0.19497688887526
20
-35.8704965120009
30
0
41
1
10
-0.19497688887526
20
-35.8704043499775
30
0
0
SPLINE
5
114
100
AcDbEntity
8
1
62
256
6
ByLayer
370
13
48
1
60
0
100
AcDbSpline
70
4
71
3
72
44
73
40
40
0
40
0
40
0
40
0
40
0.0624999999999982
40
0.0624999999999982
40
0.124999999999996
40
0.124999999999996
40
0.156249999999995
40
0.156249999999995
40
0.171874999999995
40
0.171874999999995
40
0.187499999999994
40
0.187499999999994
40
0.249999999999992
40
0.249999999999992
40
0.31249999999999
40
0.31249999999999
40
0.343749999999989
40
0.343749999999989
40
0.374999999999989
40
0.374999999999989
40
0.437499999999987
40
0.437499999999987
40
0.499999999999986
40
0.499999999999986
40
0.531249999999986
40
0.531249999999986
40
0.562499999999986
40
0.562499999999986
40
0.624999999999988
40
0.624999999999988
40
0.74999999999999
40
0.74999999999999
40
0.812499999999991
40
0.812499999999991
40
0.843749999999992
40
0.843749999999992
40
0.874999999999993
40
0.874999999999993
40
1
40
1
40
1
40
1
41
1
10
49.8267352773854
20
39.4657767763157
30
0
41
1
10
49.4956869860221
20
39.4657767763157
30
0
41
1
10
49.1682855427904
20
39.4531890741911
30
0
41
1
10
48.5204315511658
20
39.4039174878885
30
0
41
1
10
48.1999804193804
20
39.3672283644864
30
0
41
1
10
47.7244406337309
20
39.294139860073
30
0
41
1
10
47.5667852758083
20
39.2667602484238
30
0
41
1
10
47.3315948185723
20
39.2211009933792
30
0
41
1
10
47.2534135338125
20
39.2051158018856
30
0
41
1
10
47.0974842441047
20
39.1715980933163
30
0
41
1
10
47.0196082480394
20
39.1540342819039
30
0
41
1
10
46.6333384786072
20
39.0627838093113
30
0
41
1
10
46.3339316360806
20
38.9788235943277
30
0
41
1
10
45.7530130378021
20
38.7898492341732
30
0
41
1
10
45.4715075342656
20
38.6848283862837
30
0
41
1
10
45.0621193699999
20
38.51159423195
30
0
41
1
10
44.9278055589371
20
38.4512272665476
30
0
41
1
10
44.6634243185654
20
38.3252085049033
30
0
41
1
10
44.533037327267
20
38.2593773494847
30
0
41
1
10
44.1514298917246
20
38.0556180882284
30
0
41
1
10
43.9092882688706
20
37.911311188928
30
0
41
1
10
43.4474816283608
20
37.6063676072093
30
0
41
1
10
43.2278244316138
20
37.4457266043211
30
0
41
1
10
42.9141316983188
20
37.1926832733767
30
0
41
1
10
42.8122036897561
20
37.1063193372048
30
0
41
1
10
42.6134830410148
20
36.9295609988792
30
0
41
1
10
42.5164919585516
20
36.8389669753194
30
0
41
1
10
42.2347100319818
20
36.5627754046083
30
0
41
1
10
42.059236433352
20
36.3730211626866
30
0
41
1
10
41.5661526625247
20
35.7875525608623
30
0
41
1
10
41.2816979464971
20
35.375682934888
30
0
41
1
10
40.9110418383873
20
34.7268930580392
30
0
41
1
10
40.7968811069403
20
34.5054506233939
30
0
41
1
10
40.6388038932943
20
34.1655818827459
30
0
41
1
10
40.5882769936953
20
34.0509338967992
30
0
41
1
10
40.4916175578796
20
33.8193972006595
30
0
41
1
10
40.4455777733481
20
33.7027402953838
30
0
41
1
10
40.2262910613903
20
33.1150591391611
30
0
41
1
10
40.0856201447822
20
32.6308672785548
30
0
41
1
10
39.9742918492369
20
32.1330181922734
30
0
0
SPLINE
5
115
100
AcDbEntity
8
SK1
62
256
6
ByLayer
370
13
48
1
60
0
100
AcDbSpline
70
4
71
3
72
45
73
41
40
0
40
0
40
0
40
0
40
0.0090831740171695
40
0.0363556067902264
40
0.0636280395632833
40
0.0909004723363403
40
0.118172905109397
40
0.172717770655511
40
0.227262636201625
40
0.281807501747739
40
0.309079934520796
40
0.336352367293853
40
0.36362480006691
40
0.390897232839966
40
0.418169665613023
40
0.431805881999552
40
0.44544209838608
40
0.459078314772609
40
0.472714531159137
40
0.486350747545666
40
0.499986963932194
40
0.513623180318723
40
0.527259396705251
40
0.54089561309178
40
0.554531829478308
40
0.568168045864836
40
0.581804262251365
40
0.609076695024422
40
0.636349127797479
40
0.663621560570536
40
0.690893993343593
40
0.718166426116649
40
0.772711291662763
40
0.827256157208877
40
0.881801022754991
40
0.909073455528048
40
0.936345888301105
40
0.963618321074162
40
0.990890753847219
40
1
40
1
40
1
40
1
41
1
10
-60
20
33.455942870484
30
0
41
1
10
-60
20
33.4639508311543
30
0
41
1
10
-60
20
33.4713312343305
30
0
41
1
10
-60
20
33.320505979277
30
0
41
1
10
-60
20
32.8505413389773
30
0
41
1
10
-60
20
32.1329354066868
30
0
41
1
10
-60
20
30.8692321935904
30
0
41
1
10
-60
20
28.774261639096
30
0
41
1
10
-60
20
25.5059646455253
30
0
41
1
10
-60
20
22.2159007552988
30
0
41
1
10
-60
20
19.2446113686131
30
0
41
1
10
-60
20
16.8668255987051
30
0
41
1
10
-60
20
14.3374917832808
30
0
41
1
10
-60
20
11.6629512781542
30
0
41
1
10
-60
20
9.32834034262243
30
0
41
1
10
-60
20
7.38361300065992
30
0
41
1
10
-60
20
5.91000599371364
30
0
41
1
10
-60
20
4.42008434581288
30
0
41
1
10
-60
20
2.92686113867091
30
0
41
1
10
-60
20
1.45031301894568
30
0
41
1
10
-60
20
1.134358172E-07
30
0
41
1
10
-60
20
-1.4503127870359
30
0
41
1
10
-60
20
-2.92686112732412
30
0
41
1
10
-60
20
-4.42008459121479
30
0
41
1
10
-60
20
-5.91000562515001
30
0
41
1
10
-60
20
-7.38361258216298
30
0
41
1
10
-60
20
-9.32834072434076
30
0
41
1
10
-60
20
-11.6629512208233
30
0
41
1
10
-60
20
-14.3374918397398
30
0
41
1
10
-60
20
-16.8668253225731
30
0
41
1
10
-60
20
-19.2446113747563
30
0
41
1
10
-60
20
-22.2159008998679
30
0
41
1
10
-60
20
-25.505964618162
30
0
41
1
10
-60
20
-28.7742618385114
30
0
41
1
10
-60
20
-30.8692321054012
30
0
41
1
10
-60
20
-32.132935993889
30
0
41
1
10
-60
20
-32.8505413891005
30
0
41
1
10
-60
20
-33.320505681501
30
0
41
1
10
-60
20
-33.4713928750939
30
0
41
1
10
-59.9999999999999
20
-33.4639404868928
30
0
41
1
10
-59.9999999999999
20
-33.4558741013465
30
0
0
SPLINE
5
116
100
AcDbEntity
8
1
62
256
6
ByLayer
370
13
48
1
60
0
100
AcDbSpline
70
4
71
3
72
22
73
18
40
0
40
0
40
0
40
0
40
0.249999999999996
40
0.249999999999996
40
0.374999999999996
40
0.374999999999996
40
0.499999999999997
40
0.499999999999997
40
0.624999999999998
40
0.624999999999998
40
0.749999999999999
40
0.749999999999999
40
0.812499999999999
40
0.812499999999999
40
0.875
40
0.875
40
1
40
1
40
1
40
1
41
1
10
18.6443375672972
20
15.5133461831301
30
0
41
1
10
18.6286630435768
20
15.4563493271817
30
0
41
1
10
18.6099224010158
20
15.400478236029
30
0
41
1
10
18.5756373106802
20
15.3189628763412
30
0
41
1
10
18.5631695734009
20
15.2921769035844
30
0
41
1
10
18.5356352389808
20
15.2395749166927
30
0
41
1
10
18.5204960898467
20
15.2136380572677
30
0
41
1
10
18.4871618698532
20
15.1637170876458
30
0
41
1
10
18.4690247593557
20
15.1397658465112
30
0
41
1
10
18.4286870548352
20
15.0946616463804
30
0
41
1
10
18.4066223260661
20
15.0736965092114
30
0
41
1
10
18.3703588188407
20
15.0463962702374
30
0
41
1
10
18.3577088110856
20
15.0379598317328
30
0
41
1
10
18.3310088557485
20
15.0227407547084
30
0
41
1
10
18.316942460413
20
15.0159811428435
30
0
41
1
10
18.2737799357038
20
14.9994509315939
30
0
41
1
10
18.2427481222217
20
14.9931545155687
30
0
41
1
10
18.2113248654051
20
14.9931545155687
30
0
0
SPLINE
5
117
100
AcDbEntity
8
1
62
256
6
ByLayer
370
13
48
1
60
0
100
AcDbSpline
70
4
71
3
72
22
73
18
40
0
40
0
40
0
40
0
40
0.25000000000001
40
0.25000000000001
40
0.375000000000011
40
0.375000000000011
40
0.500000000000011
40
0.500000000000011
40
0.625000000000012
40
0.625000000000012
40
0.750000000000013
40
0.750000000000013
40
0.812500000000011
40
0.812500000000011
40
0.875000000000009
40
0.875000000000009
40
1
40
1
40
1
40
1
41
1
10
13.3556624327026
20
-15.51334618313
30
0
41
1
10
13.371336956423
20
-15.4563493271815
30
0
41
1
10
13.390077598984
20
-15.4004782360289
30
0
41
1
10
13.4243626893195
20
-15.3189628763411
30
0
41
1
10
13.4368304265988
20
-15.2921769035842
30
0
41
1
10
13.464364761019
20
-15.2395749166926
30
0
41
1
10
13.479503910153
20
-15.2136380572675
30
0
41
1
10
13.5128381301466
20
-15.1637170876455
30
0
41
1
10
13.530975240644
20
-15.139765846511
30
0
41
1
10
13.5713129451646
20
-15.0946616463802
30
0
41
1
10
13.5933776739337
20
-15.0736965092112
30
0
41
1
10
13.6296411811591
20
-15.0463962702372
30
0
41
1
10
13.6422911889142
20
-15.0379598317326
30
0
41
1
10
13.6689911442513
20
-15.0227407547082
30
0
41
1
10
13.6830575395867
20
-15.0159811428433
30
0
41
1
10
13.7262200642959
20
-14.9994509315937
30
0
41
1
10
13.7572518777782
20
-14.9931545155685
30
0
41
1
10
13.7886751345947
20
-14.9931545155685
30
0
0
SPLINE
5
118
100
AcDbEntity
8
SK1
62
256
6
ByLayer
370
13
48
1
60
0
100
AcDbSpline
70
4
71
3
72
28
73
24
40
0
40
0
40
0
40
0
40
0.0625000000000003
40
0.0625000000000003
40
0.125000000000001
40
0.125000000000001
40
0.15625
40
0.15625
40
0.187499999999999
40
0.187499999999999
40
0.218749999999998
40
0.218749999999998
40
0.249999999999997
40
0.249999999999997
40
0.312499999999997
40
0.312499999999997
40
0.374999999999997
40
0.374999999999997
40
0.499999999999998
40
0.499999999999998
40
0.749999999999999
40
0.749999999999999
40
1
40
1
40
1
40
1
41
1
10
-0.194976888875317
20
5.84425674889019
30
0
41
1
10
-0.188428812317113
20
5.83066549738368
30
0
41
1
10
-0.181480004811192
20
5.81741999821281
30
0
41
1
10
-0.166277904014862
20
5.79206024289613
30
0
41
1
10
-0.158078676143305
20
5.77989943970897
30
0
41
1
10
-0.143716136323974
20
5.76344762377312
30
0
41
1
10
-0.138580146332117
20
5.7582875536695
30
0
41
1
10
-0.127413648419861
20
5.7494423468662
30
0
41
1
10
-0.12136149723915
20
5.74572484699854
30
0
41
1
10
-0.108180742856121
20
5.74147307913364
30
0
41
1
10
-0.100947588687575
20
5.74115347355922
30
0
41
1
10
-0.0874491991482387
20
5.74545088612041
30
0
41
1
10
-0.0812437739041343
20
5.74992885866789
30
0
41
1
10
-0.0654033851181453
20
5.76655733149892
30
0
41
1
10
-0.0581513212972027
20
5.78108105601467
30
0
41
1
10
-0.0462419818246644
20
5.81029118675144
30
0
41
1
10
-0.0416420222528018
20
5.82538378975011
30
0
41
1
10
-0.029696701903049
20
5.87133364983146
30
0
41
1
10
-0.0242902207561428
20
5.90272657732123
30
0
41
1
10
-0.0112751722928692
20
5.99613681571759
30
0
41
1
10
-0.0068418419953105
20
6.05846502623962
30
0
41
1
10
-0.0010873862841549
20
6.18311762976754
30
0
41
1
10
0
20
6.24549709356245
30
0
41
1
10
0
20
6.3076949246522
30
0
0
SPLINE
5
119
100
AcDbEntity
8
SK1
62
256
6
ByLayer
370
13
48
1
60
0
100
AcDbSpline
70
4
71
3
72
38
73
34
40
0
40
0
40
0
40
0
40
0.250000000000004
40
0.250000000000004
40
0.375000000000006
40
0.375000000000006
40
0.500000000000008
40
0.500000000000008
40
0.562500000000008
40
0.562500000000008
40
0.625000000000009
40
0.625000000000009
40
0.656250000000008
40
0.656250000000008
40
0.687500000000007
40
0.687500000000007
40
0.718750000000006
40
0.718750000000006
40
0.750000000000006
40
0.750000000000006
40
0.781250000000005
40
0.781250000000005
40
0.796875000000004
40
0.796875000000004
40
0.812500000000004
40
0.812500000000004
40
0.843750000000003
40
0.843750000000003
40
0.875000000000002
40
0.875000000000002
40
0.937500000000001
40
0.937500000000001
40
1
40
1
40
1
40
1
41
1
10
-1.31543506509496
20
4.59640482501129
30
0
41
1
10
-1.28166264133216
20
4.79434578335105
30
0
41
1
10
-1.2424400288707
20
4.98991007435637
30
0
41
1
10
-1.16977278808133
20
5.27837155597672
30
0
41
1
10
-1.14321566069515
20
5.37370346321092
30
0
41
1
10
-1.08321051336168
20
5.56216941591998
30
0
41
1
10
-1.04988200828456
20
5.65533434470137
30
0
41
1
10
-0.990990840383063
20
5.79248536949734
30
0
41
1
10
-0.969856878276289
20
5.83776436907715
30
0
41
1
10
-0.923004780349743
20
5.92704145266038
30
0
41
1
10
-0.897153743479066
20
5.97131475869594
30
0
41
1
10
-0.853557501836917
20
6.03433343455259
30
0
41
1
10
-0.838194630492524
20
6.05480959523237
30
0
41
1
10
-0.805132572557341
20
6.09428316282077
30
0
41
1
10
-0.787446676238233
20
6.11325429676515
30
0
41
1
10
-0.749424527097574
20
6.14820542368199
30
0
41
1
10
-0.728991888491862
20
6.16433614797239
30
0
41
1
10
-0.683913215127006
20
6.19194646453479
30
0
41
1
10
-0.65983794216146
20
6.20303987977508
30
0
41
1
10
-0.608030056732503
20
6.21673274209576
30
0
41
1
10
-0.581551870360158
20
6.21890978382413
30
0
41
1
10
-0.541514391926455
20
6.2144552934306
30
0
41
1
10
-0.528537032147312
20
6.21174340004592
30
0
41
1
10
-0.503217432470194
20
6.20420343769251
30
0
41
1
10
-0.490782065486883
20
6.19932278989609
30
0
41
1
10
-0.455230765015017
20
6.18236766141706
30
0
41
1
10
-0.433674781620709
20
6.16807167142281
30
0
41
1
10
-0.393305081259086
20
6.13564098406852
30
0
41
1
10
-0.374846538452459
20
6.11774279229849
30
0
41
1
10
-0.323484754492711
20
6.06149211222464
30
0
41
1
10
-0.293996346239226
20
6.02012966398507
30
0
41
1
10
-0.24061280661391
20
5.93420392169406
30
0
41
1
10
-0.216878359150883
20
5.88971565399464
30
0
41
1
10
-0.194976888875317
20
5.84425674889008
30
0
0
SPLINE
5
11A
100
AcDbEntity
8
1
62
256
6
ByLayer
370
13
48
1
60
0
100
AcDbSpline
70
4
71
3
72
20
73
16
40
0
40
0
40
0
40
0
40
0.0625000000000075
40
0.0625000000000075
40
0.125000000000015
40
0.125000000000015
40
0.250000000000017
40
0.250000000000017
40
0.375000000000019
40
0.375000000000019
40
0.500000000000021
40
0.500000000000021
40
0.750000000000011
40
0.750000000000011
40
1
40
1
40
1
40
1
41
1
10
18.2113248654051
20
47.6991123363139
30
0
41
1
10
18.2270595596556
20
47.6991123363139
30
0
41
1
10
18.2425066022336
20
47.6986325211242
30
0
41
1
10
18.2728766057231
20
47.6967979090792
30
0
41
1
10
18.2879195564578
20
47.6954272645437
30
0
41
1
10
18.3314372006434
20
47.6901896918969
30
0
41
1
10
18.3578281265268
20
47.6853219328558
30
0
41
1
10
18.4069581904134
20
47.6736470656565
30
0
41
1
10
18.4288334491965
20
47.6670413844206
30
0
41
1
10
18.4688968105681
20
47.6528313964604
30
0
41
1
10
18.4871717979809
20
47.6451668522794
30
0
41
1
10
18.5371475309549
20
47.6213036484291
30
0
41
1
10
18.5639668420202
20
47.6044110998705
30
0
41
1
10
18.6097706080254
20
47.5693355727221
30
0
41
1
10
18.628657431648
20
47.5510829903641
30
0
41
1
10
18.6443375672973
20
47.5324740593457
30
0
0
SPLINE
5
11B
100
AcDbEntity
8
1
62
256
6
ByLayer
370
13
48
1
60
0
100
AcDbSpline
70
4
71
3
72
20
73
16
40
0
40
0
40
0
40
0
40
0.0624999999999972
40
0.0624999999999972
40
0.124999999999994
40
0.124999999999994
40
0.249999999999995
40
0.249999999999995
40
0.374999999999996
40
0.374999999999996
40
0.499999999999997
40
0.499999999999997
40
0.749999999999998
40
0.749999999999998
40
1
40
1
40
1
40
1
41
1
10
13.7886751345947
20
14.9931545155687
30
0
41
1
10
13.7729404403441
20
14.9931545155687
30
0
41
1
10
13.7574933977662
20
14.9946812225938
30
0
41
1
10
13.7271233942767
20
15.000515943557
30
0
41
1
10
13.7120804435419
20
15.004874270466
30
0
41
1
10
13.6685627993564
20
15.0215159830942
30
0
41
1
10
13.6421718734729
20
15.0369693753071
30
0
41
1
10
13.5930418095864
20
15.0739427918924
30
0
41
1
10
13.5711665508032
20
15.0948242086547
30
0
41
1
10
13.5311031894316
20
15.1396239099514
30
0
41
1
10
13.5128282020189
20
15.163731773154
30
0
41
1
10
13.4628524690448
20
15.2385754420454
30
0
41
1
10
13.4360331579795
20
15.2912821270186
30
0
41
1
10
13.3902293919743
20
15.4000512474245
30
0
41
1
10
13.3713425683517
20
15.4563289206736
30
0
41
1
10
13.3556624327025
20
15.5133461831302
30
0
0
SPLINE
5
11C
100
AcDbEntity
8
SK1
62
256
6
ByLayer
370
13
48
1
60
0
100
AcDbSpline
70
4
71
3
72
43
73
39
40
0
40
0
40
0
40
0
40
0.0239410660195912
40
0.0519445316931629
40
0.0799479973667346
40
0.107951463040306
40
0.16395839438745
40
0.219965325734593
40
0.275972257081736
40
0.303975722755308
40
0.331979188428879
40
0.359982654102451
40
0.387986119776023
40
0.415989585449594
40
0.42999131828638
40
0.443993051123166
40
0.457994783959952
40
0.471996516796738
40
0.485998249633524
40
0.499999982470309
40
0.514001715307095
40
0.528003448143881
40
0.542005180980667
40
0.556006913817453
40
0.570008646654238
40
0.584010379491024
40
0.612013845164596
40
0.640017310838168
40
0.668020776511739
40
0.696024242185311
40
0.724027707858883
40
0.780034639206026
40
0.836041570553169
40
0.892048501900313
40
0.920051967573884
40
0.948055433247456
40
0.976058898921027
40
1
40
1
40
1
40
1
41
1
10
-57.9999999999999
20
34.6074809579844
30
0
41
1
10
-58
20
34.5835417513296
30
0
41
1
10
-58
20
34.447073091286
30
0
41
1
10
-58
20
33.9876977370146
30
0
41
1
10
-58
20
33.2524104110211
30
0
41
1
10
-58
20
31.9617759825608
30
0
41
1
10
-58
20
29.8196201237797
30
0
41
1
10
-58
20
26.4836367844204
30
0
41
1
10
-58
20
23.1207402456521
30
0
41
1
10
-58
20
20.0882188107893
30
0
41
1
10
-58
20
17.6546655565884
30
0
41
1
10
-58
20
15.0611889964793
30
0
41
1
10
-58
20
12.3111264846423
30
0
41
1
10
-58
20
9.89662094994924
30
0
41
1
10
-58
20
7.8834460164436
30
0
41
1
10
-58
20
6.3454568584649
30
0
41
1
10
-58
20
4.77873663160255
30
0
41
1
10
-58
20
3.19085665722645
30
0
41
1
10
-58
20
1.59441910829963
30
0
41
1
10
-58
20
6.85259351E-08
30
0
41
1
10
-58
20
-1.59441895347737
30
0
41
1
10
-58
20
-3.19085661429443
30
0
41
1
10
-58
20
-4.77873674380191
30
0
41
1
10
-58
20
-6.3454566917535
30
0
41
1
10
-58
20
-7.88344565279721
30
0
41
1
10
-58
20
-9.89662119627542
30
0
41
1
10
-58
20
-12.3111264408846
30
0
41
1
10
-58
20
-15.0611890881134
30
0
41
1
10
-58
20
-17.6546653167196
30
0
41
1
10
-58
20
-20.0882187738871
30
0
41
1
10
-58
20
-23.1207403835491
30
0
41
1
10
-58
20
-26.4836367535039
30
0
41
1
10
-58
20
-29.8196203322726
30
0
41
1
10
-58
20
-31.9617758699711
30
0
41
1
10
-58
20
-33.2524110015706
30
0
41
1
10
-58
20
-33.987697812857
30
0
41
1
10
-58
20
-34.4470730134204
30
0
41
1
10
-58.0000000000001
20
-34.5835417322885
30
0
41
1
10
-58.0000000000001
20
-34.6074810412968
30
0
0
SPLINE
5
11D
100
AcDbEntity
8
SK1
62
256
6
ByLayer
370
13
48
1
60
0
100
AcDbSpline
70
4
71
3
72
42
73
38
40
0
40
0
40
0
40
0
40
0.0625000000000036
40
0.0625000000000036
40
0.125000000000007
40
0.125000000000007
40
0.156250000000007
40
0.156250000000007
40
0.187500000000008
40
0.187500000000008
40
0.203125000000007
40
0.203125000000007
40
0.218750000000007
40
0.218750000000007
40
0.234375000000006
40
0.234375000000006
40
0.250000000000006
40
0.250000000000006
40
0.265625000000006
40
0.265625000000006
40
0.281250000000005
40
0.281250000000005
40
0.312500000000004
40
0.312500000000004
40
0.343750000000003
40
0.343750000000003
40
0.375000000000003
40
0.375000000000003
40
0.437500000000002
40
0.437500000000002
40
0.500000000000001
40
0.500000000000001
40
0.625
40
0.625
40
0.749999999999999
40
0.749999999999999
40
1
40
1
40
1
40
1
41
1
10
-0.194976888875317
20
-5.84425690653006
30
0
41
1
10
-0.216730814448795
20
-5.88940958424035
30
0
41
1
10
-0.240289757578182
20
-5.93359324503467
30
0
41
1
10
-0.293196819167235
20
-6.01893194581714
30
0
41
1
10
-0.322515329432122
20
-6.06016523023175
30
0
41
1
10
-0.373187138381127
20
-6.11605012533795
30
0
41
1
10
-0.391240731976381
20
-6.13372645430701
30
0
41
1
10
-0.430972944984546
20
-6.16612877955612
30
0
41
1
10
-0.452658934702356
20
-6.18079472630416
30
0
41
1
10
-0.487791523584008
20
-6.19804025847725
30
0
41
1
10
-0.500103841394775
20
-6.20305519955969
30
0
41
1
10
-0.525155238216598
20
-6.2109070555519
30
0
41
1
10
-0.537932986860483
20
-6.21378084222971
30
0
41
1
10
-0.564054206887135
20
-6.2171682613282
30
0
41
1
10
-0.577570061061294
20
-6.21765763198573
30
0
41
1
10
-0.604094246831323
20
-6.21607508661157
30
0
41
1
10
-0.617148103455065
20
-6.21404652723038
30
0
41
1
10
-0.642875075276379
20
-6.20772677792115
30
0
41
1
10
-0.655597865371533
20
-6.20339377564864
30
0
41
1
10
-0.679806170506936
20
-6.19309358021582
30
0
41
1
10
-0.691420767915361
20
-6.18710522372055
30
0
41
1
10
-0.725081221216158
20
-6.16711200914267
30
0
41
1
10
-0.745936393119052
20
-6.15105397734737
30
0
41
1
10
-0.784103856567356
20
-6.11662658117336
30
0
41
1
10
-0.801680243849205
20
-6.09807457148793
30
0
41
1
10
-0.834788104059669
20
-6.05914548377564
30
0
41
1
10
-0.850317744760332
20
-6.03872589315608
30
0
41
1
10
-0.893904938456558
20
-5.97650518497557
30
0
41
1
10
-0.919384019936444
20
-5.93337334628723
30
0
41
1
10
-0.966228668019482
20
-5.84516419276741
30
0
41
1
10
-0.987530963471727
20
-5.8000585307837
30
0
41
1
10
-1.0471136308027
20
-5.66264154537265
30
0
41
1
10
-1.08116506545082
20
-5.56813611298207
30
0
41
1
10
-1.14200080523722
20
-5.37795284594125
30
0
41
1
10
-1.1688341532269
20
-5.281886567301
30
0
41
1
10
-1.24214334079164
20
-4.99149989574028
30
0
41
1
10
-1.28154781515417
20
-4.79501826019236
30
0
41
1
10
-1.31543506510064
20
-4.59640415560779
30
0
0
SPLINE
5
11E
100
AcDbEntity
8
1
62
256
6
ByLayer
370
13
48
1
60
0
100
AcDbSpline
70
4
71
3
72
31
73
27
40
0
40
0
40
0
40
0
40
0.125000000000001
40
0.250000000000001
40
0.250000000000001
40
0.312500000000001
40
0.312500000000001
40
0.375000000000002
40
0.375000000000002
40
0.499999999999989
40
0.499999999999989
40
0.562499999999988
40
0.562499999999988
40
0.624999999999987
40
0.624999999999987
40
0.749999999999996
40
0.749999999999996
40
0.781249999999997
40
0.781249999999997
40
0.812499999999997
40
0.812499999999997
40
0.874999999999998
40
0.874999999999998
40
0.937499999999999
40
0.937499999999999
40
1
40
1
40
1
40
1
41
1
10
80.327903140206
20
5.19433617608542
30
0
41
1
10
80.2125168901922
20
5.19239713394217
30
0
41
1
10
79.9852417046105
20
5.18758009988028
30
0
41
1
10
79.7645909716862
20
5.18104813254291
30
0
41
1
10
79.6017106491582
20
5.1755722784963
30
0
41
1
10
79.547612461818
20
5.17364166848955
30
0
41
1
10
79.4415416567657
20
5.16964680266864
30
0
41
1
10
79.3898079542279
20
5.16759275496543
30
0
41
1
10
79.2385116766677
20
5.16130617876576
30
0
41
1
10
79.1428112670621
20
5.15694713355646
30
0
41
1
10
79.0077002758852
20
5.15036191085602
30
0
41
1
10
78.9640794839301
20
5.14815945986771
30
0
41
1
10
78.8799399599097
20
5.14378252186418
30
0
41
1
10
78.8400244741357
20
5.14163939603378
30
0
41
1
10
78.7275539083514
20
5.13545129572179
30
0
41
1
10
78.6618785252352
20
5.13162743292622
30
0
41
1
10
78.593093213025
20
5.12750470893633
30
0
41
1
10
78.5800296970679
20
5.12671456029534
30
0
41
1
10
78.5556459937512
20
5.12522918392585
30
0
41
1
10
78.5442766650784
20
5.12453102131821
30
0
41
1
10
78.5126387255938
20
5.12257661090041
30
0
41
1
10
78.4948330957616
20
5.12146027737981
30
0
41
1
10
78.4659724076524
20
5.11963872731883
30
0
41
1
10
78.4549157070306
20
5.11893341382478
30
0
41
1
10
78.4399745651415
20
5.11797801443669
30
0
41
1
10
78.436143955733
20
5.11773146139916
30
0
41
1
10
78.4361596747819
20
5.11773247313863
30
0
0
SPLINE
5
11F
100
AcDbEntity
8
1
62
256
6
ByLayer
370
13
48
1
60
0
100
AcDbSpline
70
4
71
3
72
22
73
18
40
0
40
0
40
0
40
0
40
0.249999999999999
40
0.249999999999999
40
0.374999999999997
40
0.374999999999997
40
0.499999999999995
40
0.499999999999995
40
0.624999999999993
40
0.624999999999993
40
0.74999999999999
40
0.74999999999999
40
0.812499999999991
40
0.812499999999991
40
0.874999999999992
40
0.874999999999992
40
1
40
1
40
1
40
1
41
1
10
13.3556624327026
20
47.5324740593457
30
0
41
1
10
13.371336956423
20
47.5510763302179
30
0
41
1
10
13.390077598984
20
47.5691972862265
30
0
41
1
10
13.4243626893195
20
47.59548499051
30
0
41
1
10
13.4368304265988
20
47.6040973909193
30
0
41
1
10
13.464364761019
20
47.6209630227398
30
0
41
1
10
13.479503910153
20
47.6292547015451
30
0
41
1
10
13.5128381301466
20
47.6451715334097
30
0
41
1
10
13.530975240644
20
47.6527863810654
30
0
41
1
10
13.5713129451646
20
47.66709294207
30
0
41
1
10
13.5933776739337
20
47.6737248158946
30
0
41
1
10
13.6296411811591
20
47.68234526895
30
0
41
1
10
13.6422911889142
20
47.6850063201911
30
0
41
1
10
13.6689911442513
20
47.6898031435892
30
0
41
1
10
13.6830575395867
20
47.6919316413793
30
0
41
1
10
13.7262200642959
20
47.6971341405703
30
0
41
1
10
13.7572518777782
20
47.6991123363139
30
0
41
1
10
13.7886751345947
20
47.6991123363139
30
0
0
SPLINE
5
120
100
AcDbEntity
8
1
62
256
6
ByLayer
370
13
48
1
60
0
100
AcDbSpline
70
4
71
3
72
20
73
16
40
0
40
0
40
0
40
0
40
0.0625000000000024
40
0.0625000000000024
40
0.125000000000005
40
0.125000000000005
40
0.250000000000006
40
0.250000000000006
40
0.375000000000007
40
0.375000000000007
40
0.500000000000008
40
0.500000000000008
40
0.750000000000004
40
0.750000000000004
40
1
40
1
40
1
40
1
41
1
10
13.7886751345947
20
-47.6991123363138
30
0
41
1
10
13.7729404403441
20
-47.6991123363138
30
0
41
1
10
13.7574933977662
20
-47.6986325211241
30
0
41
1
10
13.7271233942767
20
-47.6967979090791
30
0
41
1
10
13.7120804435419
20
-47.6954272645436
30
0
41
1
10
13.6685627993564
20
-47.6901896918968
30
0
41
1
10
13.6421718734729
20
-47.6853219328557
30
0
41
1
10
13.5930418095864
20
-47.6736470656564
30
0
41
1
10
13.5711665508032
20
-47.6670413844205
30
0
41
1
10
13.5311031894316
20
-47.6528313964603
30
0
41
1
10
13.5128282020189
20
-47.6451668522793
30
0
41
1
10
13.4628524690448
20
-47.621303648429
30
0
41
1
10
13.4360331579795
20
-47.6044110998704
30
0
41
1
10
13.3902293919743
20
-47.569335572722
30
0
41
1
10
13.3713425683517
20
-47.5510829903639
30
0
41
1
10
13.3556624327025
20
-47.5324740593456
30
0
0
SPLINE
5
121
100
AcDbEntity
8
1
62
256
6
ByLayer
370
13
48
1
60
0
100
AcDbSpline
70
4
71
3
72
8
73
4
40
0
40
0
40
0
40
0
40
1
40
1
40
1
40
1
41
1
10
39.9742918492369
20
-32.1330181922734
30
0
41
1
10
40.0220939109877
20
-32.3467842671822
30
0
41
1
10
40.0752471117513
20
-32.5576539263141
30
0
41
1
10
40.1340700078594
20
-32.7656118209397
30
0
0
SPLINE
5
122
100
AcDbEntity
8
1
62
256
6
ByLayer
370
13
48
1
60
0
100
AcDbSpline
70
4
71
3
72
26
73
22
40
0
40
0
40
0
40
0
40
0.130536293168325
40
0.130536293168325
40
0.195804439752475
40
0.195804439752475
40
0.261072586336625
40
0.261072586336625
40
0.39160887950492
40
0.39160887950492
40
0.522145172673215
40
0.522145172673215
40
0.65268146584151
40
0.65268146584151
40
0.71794961242567
40
0.71794961242567
40
0.783217759009831
40
0.783217759009831
40
0.913754052178181
40
0.913754052178181
40
1
40
1
40
1
40
1
41
1
10
112.517106781188
20
33.9796522528736
30
0
41
1
10
112.470454083218
20
33.9878783822486
30
0
41
1
10
112.420082981747
20
33.9967601664857
30
0
41
1
10
112.339226867167
20
34.0110172810414
30
0
41
1
10
112.311384909623
20
34.0159265693525
30
0
41
1
10
112.253889629683
20
34.0260645384692
30
0
41
1
10
112.224115450713
20
34.03131452955
30
0
41
1
10
112.133895724882
20
34.0472227014061
30
0
41
1
10
112.072066838907
20
34.0581248021907
30
0
41
1
10
111.945101115818
20
34.0805122847964
30
0
41
1
10
111.879457850357
20
34.0920869635991
30
0
41
1
10
111.750078805692
20
34.1148999799118
30
0
41
1
10
111.685777108896
20
34.1262381039622
30
0
41
1
10
111.589916576662
20
34.1431409021802
30
0
41
1
10
111.557954875165
20
34.1487766125034
30
0
41
1
10
111.495562933325
20
34.1597779952286
30
0
41
1
10
111.464980548626
20
34.1651704947855
30
0
41
1
10
111.375042308327
20
34.1810290331476
30
0
41
1
10
111.317452875497
20
34.1911836039592
30
0
41
1
10
111.226078687877
20
34.207295338577
30
0
41
1
10
111.191627073381
20
34.2133700877416
30
0
41
1
10
111.159035224015
20
34.2191169101359
30
0
0
SPLINE
5
123
100
AcDbEntity
8
SK1
62
256
6
ByLayer
370
13
48
1
60
0
100
AcDbSpline
70
4
71
3
72
43
73
39
40
0
40
0
40
0
40
0
40
0.0212617098338965
40
0.0494227892592812
40
0.0775838686846659
40
0.105744948110051
40
0.16206710696082
40
0.218389265811589
40
0.274711424662359
40
0.302872504087744
40
0.331033583513128
40
0.359194662938513
40
0.387355742363898
40
0.415516821789282
40
0.429597361501975
40
0.443677901214667
40
0.457758440927359
40
0.471838980640052
40
0.485919520352744
40
0.500000060065436
40
0.514080599778129
40
0.528161139490821
40
0.542241679203514
40
0.556322218916206
40
0.570402758628898
40
0.584483298341591
40
0.612644377766975
40
0.64080545719236
40
0.668966536617745
40
0.697127616043129
40
0.725288695468514
40
0.781610854319283
40
0.837933013170053
40
0.894255172020822
40
0.922416251446207
40
0.950577330871592
40
0.978738410296976
40
1
40
1
40
1
40
1
41
1
10
-2
20
36.0034362987581
30
0
41
1
10
-2.00000000000006
20
35.9732176941974
30
0
41
1
10
-2.00000000000006
20
35.8308022227289
30
0
41
1
10
-2
20
35.3732364539303
30
0
41
1
10
-2
20
34.6164056924106
30
0
41
1
10
-2
20
33.2929576231487
30
0
41
1
10
-2
20
31.0933100542812
30
0
41
1
10
-2
20
27.6748560425868
30
0
41
1
10
-2
20
24.2232184523813
30
0
41
1
10
-2
20
21.1160904166923
30
0
41
1
10
-2
20
18.6145887177866
30
0
41
1
10
-2
20
15.9429590941908
30
0
41
1
10
-2
20
13.1008787522144
30
0
41
1
10
-2
20
10.5890277155294
30
0
41
1
10
-2
20
8.49245458954442
30
0
41
1
10
-2
20
6.87602066962461
30
0
41
1
10
-2
20
5.21572720627603
30
0
41
1
10
-2
20
3.5125151491298
30
0
41
1
10
-2
20
1.77000143495923
30
0
41
1
10
-2
20
1.38065843E-08
30
0
41
1
10
-2
20
-1.7700013740623
30
0
41
1
10
-2
20
-3.51251506771371
30
0
41
1
10
-2
20
-5.21572715617828
30
0
41
1
10
-2
20
-6.87602074885478
30
0
41
1
10
-2
20
-8.49245429272918
30
0
41
1
10
-2
20
-10.5890277968904
30
0
41
1
10
-2
20
-13.1008787249948
30
0
41
1
10
-2
20
-15.9429592286832
30
0
41
1
10
-2
20
-18.6145885221019
30
0
41
1
10
-2
20
-21.1160903273424
30
0
41
1
10
-2
20
-24.223218582149
30
0
41
1
10
-2
20
-27.674856007341
30
0
41
1
10
-2
20
-31.0933102738345
30
0
41
1
10
-2
20
-33.2929574808288
30
0
41
1
10
-2
20
-34.6164062870387
30
0
41
1
10
-2
20
-35.3732365611097
30
0
41
1
10
-2
20
-35.8308012503757
30
0
41
1
10
-2.00000000000006
20
-35.9732167835122
30
0
41
1
10
-2.00000000000011
20
-36.0034356999184
30
0
0
SPLINE
5
124
100
AcDbEntity
8
1
62
256
6
ByLayer
370
13
48
1
60
0
100
AcDbSpline
70
4
71
3
72
24
73
20
40
0
40
0
40
0
40
0
40
0.124999999999999
40
0.124999999999999
40
0.249999999999998
40
0.249999999999998
40
0.374999999999997
40
0.374999999999997
40
0.499999999999996
40
0.499999999999996
40
0.562499999999996
40
0.562499999999996
40
0.624999999999996
40
0.624999999999996
40
0.749999999999998
40
0.749999999999998
40
0.874999999999999
40
0.874999999999999
40
1
40
1
40
1
40
1
41
1
10
49.8267352773854
20
-9.73554879028995
30
0
41
1
10
49.3792987831888
20
-10.2920360121443
30
0
41
1
10
48.9503813037333
20
-10.8559575515731
30
0
41
1
10
48.1273164121748
20
-11.9990802829268
30
0
41
1
10
47.7331782144345
20
-12.578277990499
30
0
41
1
10
46.9781952477956
20
-13.7523587521791
30
0
41
1
10
46.6173553765786
20
-14.3472395052827
30
0
41
1
10
45.9280506619011
20
-15.5531801645659
30
0
41
1
10
45.5995883761216
20
-16.1642379511626
30
0
41
1
10
45.1308269545093
20
-17.093442626059
30
0
41
1
10
44.9789415112338
20
-17.404547308505
30
0
41
1
10
44.6842564682233
20
-18.0284400863487
30
0
41
1
10
44.5413615853639
20
-18.3414165745455
30
0
41
1
10
44.1257015946111
20
-19.2836550242722
30
0
41
1
10
43.8659436828526
20
-19.9162173311918
30
0
41
1
10
43.3798844430545
20
-21.1914705448057
30
0
41
1
10
43.1535847196091
20
-21.8341552145624
30
0
41
1
10
42.7337472324424
20
-23.1313143926406
30
0
41
1
10
42.5402085835071
20
-23.7857804065718
30
0
41
1
10
42.3629669484373
20
-24.4472551938689
30
0
0
SPLINE
5
125
100
AcDbEntity
8
1
62
256
6
ByLayer
370
13
48
1
60
0
100
AcDbSpline
70
4
71
3
72
20
73
16
40
0
40
0
40
0
40
0
40
0.0625000000000075
40
0.0625000000000075
40
0.125000000000015
40
0.125000000000015
40
0.250000000000017
40
0.250000000000017
40
0.375000000000019
40
0.375000000000019
40
0.500000000000021
40
0.500000000000021
40
0.750000000000011
40
0.750000000000011
40
1
40
1
40
1
40
1
41
1
10
18.2113248654051
20
-14.9931545155685
30
0
41
1
10
18.2270595596556
20
-14.9931545155685
30
0
41
1
10
18.2425066022336
20
-14.9946812225937
30
0
41
1
10
18.2728766057231
20
-15.0005159435568
30
0
41
1
10
18.2879195564578
20
-15.0048742704658
30
0
41
1
10
18.3314372006434
20
-15.021515983094
30
0
41
1
10
18.3578281265268
20
-15.036969375307
30
0
41
1
10
18.4069581904134
20
-15.0739427918923
30
0
41
1
10
18.4288334491965
20
-15.0948242086545
30
0
41
1
10
18.4688968105681
20
-15.1396239099512
30
0
41
1
10
18.4871717979808
20
-15.1637317731538
30
0
41
1
10
18.5371475309549
20
-15.2385754420451
30
0
41
1
10
18.5639668420202
20
-15.2912821270183
30
0
41
1
10
18.6097706080254
20
-15.4000512474242
30
0
41
1
10
18.628657431648
20
-15.4563289206734
30
0
41
1
10
18.6443375672973
20
-15.51334618313
30
0
0
SPLINE
5
126
100
AcDbEntity
8
1
62
256
6
ByLayer
370
13
48
1
60
0
100
AcDbSpline
70
4
71
3
72
30
73
26
40
0
40
0
40
0
40
0
40
0.124932877325658
40
0.124932877325658
40
0.249942466279136
40
0.249942466279136
40
0.312447260755875
40
0.312447260755875
40
0.343699657994244
40
0.343699657994244
40
0.374952055232614
40
0.374952055232614
40
0.499961644186091
40
0.499961644186091
40
0.624971233139568
40
0.624971233139568
40
0.749980822093046
40
0.749980822093046
40
0.812485616569784
40
0.812485616569784
40
0.843738013808154
40
0.843738013808154
40
0.874990411046523
40
0.874990411046523
40
1
40
1
40
1
40
1
41
1
10
30.8652619713038
20
49.9999999746094
30
0
41
1
10
30.8652194970712
20
50.0000208788767
30
0
41
1
10
30.8912463616729
20
49.987150141004
30
0
41
1
10
30.995223327751
20
49.9361517929904
30
0
41
1
10
31.0732034310663
20
49.8980074152208
30
0
41
1
10
31.2304235802195
20
49.8221636027149
30
0
41
1
10
31.2895540304277
20
49.7937770891738
30
0
41
1
10
31.3886442145403
20
49.746575484769
30
0
41
1
10
31.423407775394
20
49.730071282433
30
0
41
1
10
31.4964670248773
20
49.6955279297075
30
0
41
1
10
31.5347594437858
20
49.6774906163654
30
0
41
1
10
31.7341012052322
20
49.5840111050118
30
0
41
1
10
31.9194766621293
20
49.4983350514168
30
0
41
1
10
32.3425801560557
20
49.3077705597162
30
0
41
1
10
32.580307381788
20
49.2028766931832
30
0
41
1
10
33.1104173380958
20
48.9764453009291
30
0
41
1
10
33.4027897774886
20
48.854901858941
30
0
41
1
10
33.8854921821437
20
48.6621610049041
30
0
41
1
10
34.0537660548003
20
48.5961783293997
30
0
41
1
10
34.3177943124138
20
48.4948829487185
30
0
41
1
10
34.4077823378378
20
48.4607166371873
30
0
41
1
10
34.590900701522
20
48.3919726596702
30
0
41
1
10
34.6841243911937
20
48.3573587876324
30
0
41
1
10
35.1586495681535
20
48.1832452796543
30
0
41
1
10
35.5651016697499
20
48.0406013334547
30
0
41
1
10
36.0000000000001
20
47.8967984607639
30
0
0
SPLINE
5
127
100
AcDbEntity
8
SK1
62
256
6
ByLayer
370
13
48
1
60
0
100
AcDbSpline
70
4
71
3
72
30
73
26
40
0
40
0
40
0
40
0
40
0.250000000000002
40
0.250000000000002
40
0.500000000000003
40
0.500000000000003
40
0.625000000000003
40
0.625000000000003
40
0.687500000000003
40
0.687500000000003
40
0.718750000000004
40
0.718750000000004
40
0.750000000000004
40
0.750000000000004
40
0.781250000000004
40
0.781250000000004
40
0.812500000000004
40
0.812500000000004
40
0.843750000000004
40
0.843750000000004
40
0.875000000000004
40
0.875000000000004
40
0.937500000000002
40
0.937500000000002
40
1
40
1
40
1
40
1
41
1
10
0
20
-6.30769515885794
30
0
41
1
10
0
20
-6.24532722702622
30
0
41
1
10
-0.0010896487742684
20
-6.18290599754124
30
0
41
1
10
-0.0068744980231941
20
-6.0579216857048
30
0
41
1
10
-0.0113234225237875
20
-5.99536177376865
30
0
41
1
10
-0.0245128092182085
20
-5.90134976217604
30
0
41
1
10
-0.0299710114587128
20
-5.86991272051296
30
0
41
1
10
-0.0420841002100474
20
-5.82387982300185
30
0
41
1
10
-0.0467511619696097
20
-5.80877244968326
30
0
41
1
10
-0.0558453956152789
20
-5.78689372911828
30
0
41
1
10
-0.0592385011251508
20
-5.77973563598766
30
0
41
1
10
-0.0671068035329654
20
-5.76623437746247
30
0
41
1
10
-0.0715951631805751
20
-5.75985344361419
30
0
41
1
10
-0.0821792491754536
20
-5.74919027656108
30
0
41
1
10
-0.0884847711539578
20
-5.74488426215385
30
0
41
1
10
-0.102086674094892
20
-5.74106927603003
30
0
41
1
10
-0.109151939449134
20
-5.74164097684002
30
0
41
1
10
-0.122123072215515
20
-5.74613697574927
30
0
41
1
10
-0.128123101503831
20
-5.74992913855471
30
0
41
1
10
-0.139087550668194
20
-5.7587737472158
30
0
41
1
10
-0.144174306311754
20
-5.76393553280946
30
0
41
1
10
-0.158293364463191
20
-5.78022418849611
30
0
41
1
10
-0.16642759878755
20
-5.79229470703132
30
0
41
1
10
-0.181538521365667
20
-5.81753336290279
30
0
41
1
10
-0.188475050245586
20
-5.83076162159028
30
0
41
1
10
-0.194976888875317
20
-5.84425690653001
30
0
0
SPLINE
5
128
100
AcDbEntity
8
1
62
256
6
ByLayer
370
13
48
1
60
0
100
AcDbSpline
70
4
71
3
72
18
73
14
40
0
40
0
40
0
40
0
40
0.25
40
0.25
40
0.500000000000001
40
0.500000000000001
40
0.750000000000001
40
0.750000000000001
40
0.875
40
0.875
40
0.9375
40
0.9375
40
1
40
1
40
1
40
1
41
1
10
41.611724610827
20
46.4821842069532
30
0
41
1
10
41.0726772637577
20
46.5772327981208
30
0
41
1
10
40.5526782658732
20
46.6803046194393
30
0
41
1
10
39.5483660845823
20
46.8989009488589
30
0
41
1
10
39.0640630549553
20
47.0144323900831
30
0
41
1
10
38.1297965015264
20
47.2546487158443
30
0
41
1
10
37.6798377251762
20
47.3793388148298
30
0
41
1
10
37.0302553498143
20
47.5708379513183
30
0
41
1
10
36.8179598281426
20
47.6354152991606
30
0
41
1
10
36.5058660807151
20
47.7330949612417
30
0
41
1
10
36.4028208808068
20
47.7658138134459
30
0
41
1
10
36.1991665282965
20
47.831370283606
30
0
41
1
10
36.0988461076638
20
47.8641141452638
30
0
41
1
10
35.9999999999999
20
47.8967984607639
30
0
0
SPLINE
5
129
100
AcDbEntity
8
SK1
62
256
6
ByLayer
370
13
48
1
60
0
100
AcDbSpline
70
4
71
3
72
45
73
41
40
0
40
0
40
0
40
0
40
0.0033948895417512
40
0.030984171350842
40
0.0585734531599327
40
0.0861627349690234
40
0.113752016778114
40
0.168930580396296
40
0.224109144014477
40
0.279287707632659
40
0.306876989441749
40
0.33446627125084
40
0.362055553059931
40
0.389644834869022
40
0.417234116678112
40
0.431028757582658
40
0.444823398487203
40
0.458618039391749
40
0.472412680296294
40
0.486207321200839
40
0.500001962105385
40
0.51379660300993
40
0.527591243914475
40
0.541385884819021
40
0.555180525723566
40
0.568975166628111
40
0.582769807532657
40
0.610359089341748
40
0.637948371150838
40
0.665537652959929
40
0.69312693476902
40
0.72071621657811
40
0.775894780196292
40
0.831073343814474
40
0.886251907432655
40
0.913841189241746
40
0.941430471050836
40
0.969019752859927
40
0.996609034669018
40
1
40
1
40
1
40
1
41
1
10
-1.79503997793932
20
35.8301992929388
30
0
41
1
10
-1.79503997793932
20
35.8303475992071
30
0
41
1
10
-1.79503997793938
20
35.8237459312444
30
0
41
1
10
-1.79503997793932
20
35.6773875321226
30
0
41
1
10
-1.79503997793932
20
35.1812841103103
30
0
41
1
10
-1.79503997793932
20
34.4274379733907
30
0
41
1
10
-1.79503997793932
20
33.1085359014205
30
0
41
1
10
-1.79503997793932
20
30.9168532261752
30
0
41
1
10
-1.79503997793932
20
27.5098246901038
30
0
41
1
10
-1.79503997793932
20
24.0704812729809
30
0
41
1
10
-1.79503997793932
20
20.9736892255276
30
0
41
1
10
-1.79503997793932
20
18.4816010948227
30
0
41
1
10
-1.79503997793932
20
15.8207987859126
30
0
41
1
10
-1.79503997793932
20
12.9914665814906
30
0
41
1
10
-1.79503997793932
20
10.4931017772869
30
0
41
1
10
-1.79503997793932
20
8.40808262543817
30
0
41
1
10
-1.79503997793932
20
6.80251643206799
30
0
41
1
10
-1.79503997793932
20
5.15518659205549
30
0
41
1
10
-1.79503997793932
20
3.46795262582225
30
0
41
1
10
-1.79503997793932
20
1.74567628352963
30
0
41
1
10
-1.79503997793932
20
2.13873932E-08
30
0
41
1
10
-1.79503997793932
20
-1.74567620962028
30
0
41
1
10
-1.79503997793932
20
-3.46795254973767
30
0
41
1
10
-1.79503997793932
20
-5.15518656444232
30
0
41
1
10
-1.79503997793932
20
-6.80251647722542
30
0
41
1
10
-1.79503997793932
20
-8.40808231936416
30
0
41
1
10
-1.79503997793932
20
-10.4931018815021
30
0
41
1
10
-1.79503997793932
20
-12.9914665519798
30
0
41
1
10
-1.79503997793932
20
-15.8207989144674
30
0
41
1
10
-1.79503997793932
20
-18.4816008930167
30
0
41
1
10
-1.79503997793932
20
-20.9736891434438
30
0
41
1
10
-1.79503997793932
20
-24.0704814038749
30
0
41
1
10
-1.79503997793932
20
-27.5098246554576
30
0
41
1
10
-1.79503997793932
20
-30.9168534441962
30
0
41
1
10
-1.79503997793932
20
-33.1085357632194
30
0
41
1
10
-1.79503997793932
20
-34.4274385674537
30
0
41
1
10
-1.79503997793932
20
-35.1812842131483
30
0
41
1
10
-1.79503997793932
20
-35.6773872351978
30
0
41
1
10
-1.79503997793932
20
-35.8237359331202
30
0
41
1
10
-1.79503997793932
20
-35.8303460774487
30
0
41
1
10
-1.79503997793932
20
-35.8301999919687
30
0
0
SPLINE
5
12A
100
AcDbEntity
8
1
62
256
6
ByLayer
370
18
48
1
60
0
100
AcDbSpline
70
4
71
3
72
32
73
28
40
0
40
0
40
0
40
0
40
0.124999999999999
40
0.124999999999999
40
0.187499999999999
40
0.187499999999999
40
0.25
40
0.25
40
0.3125
40
0.3125
40
0.375
40
0.375
40
0.437500000000001
40
0.437500000000001
40
0.500000000000001
40
0.500000000000001
40
0.562500000000002
40
0.562500000000002
40
0.625000000000002
40
0.625000000000002
40
0.750000000000001
40
0.750000000000001
40
0.875000000000001
40
0.875000000000001
40
0.9375
40
0.9375
40
1
40
1
40
1
40
1
41
1
10
121.725578590912
20
18.9999830020307
30
0
41
1
10
121.725578590912
20
18.8008882543181
30
0
41
1
10
121.71106789256
20
18.601074969159
30
0
41
1
10
121.667914817603
20
18.3056977945681
30
0
41
1
10
121.649969532449
20
18.207788582991
30
0
41
1
10
121.606895719403
20
18.0130793322304
30
0
41
1
10
121.581806599068
20
17.9165169457822
30
0
41
1
10
121.52482444427
20
17.7259902589015
30
0
41
1
10
121.492898465559
20
17.6318709813763
30
0
41
1
10
121.422139464946
20
17.4459329619087
30
0
41
1
10
121.383251840835
20
17.3540324734091
30
0
41
1
10
121.299154712183
20
17.1740269977705
30
0
41
1
10
121.253884713484
20
17.0857405496514
30
0
41
1
10
121.156888141804
20
16.9126075347371
30
0
41
1
10
121.105043191333
20
16.8275914515729
30
0
41
1
10
120.995484635794
20
16.6621022109366
30
0
41
1
10
120.937783378744
20
16.5816105577904
30
0
41
1
10
120.81654425375
20
16.4251275204884
30
0
41
1
10
120.752924168823
20
16.3490457863976
30
0
41
1
10
120.55371805373
20
16.1282588396408
30
0
41
1
10
120.410798590678
20
15.9919812064776
30
0
41
1
10
120.104576305612
20
15.7414178975053
30
0
41
1
10
119.942863505296
20
15.6284725271689
30
0
41
1
10
119.688092736657
20
15.4781445730783
30
0
41
1
10
119.601150362119
20
15.4312576095108
30
0
41
1
10
119.424544197245
20
15.344622771944
30
0
41
1
10
119.334707536366
20
15.3047688064685
30
0
41
1
10
119.243329599951
20
15.2683956775187
30
0
0
SPLINE
5
12B
100
AcDbEntity
8
1
62
256
6
ByLayer
370
18
48
1
60
0
100
AcDbSpline
70
4
71
3
72
16
73
12
40
0
40
0
40
0
40
0
40
0.120639339419125
40
0.120639339419125
40
0.560319669709562
40
0.560319669709562
40
0.780159834854781
40
0.890079917427391
40
0.945039958713695
40
0.945039958713695
40
1
40
1
40
1
40
1
41
1
10
116.141083999974
20
23.2999830020303
30
0
41
1
10
116.2187140867
20
23.2999830020303
30
0
41
1
10
116.295835255691
20
23.2999830020303
30
0
41
1
10
116.651947221928
20
23.2999830020303
30
0
41
1
10
116.925427322501
20
23.2999830020303
30
0
41
1
10
117.331006534788
20
23.2999830020302
30
0
41
1
10
117.532500552245
20
23.2999830020303
30
0
41
1
10
117.766443162436
20
23.2999830020303
30
0
41
1
10
117.866582817465
20
23.2999830020303
30
0
41
1
10
117.933329095752
20
23.2999830020302
30
0
41
1
10
117.966852317847
20
23.2999830020303
30
0
41
1
10
118
20
23.2999830020303
30
0
0
SPLINE
5
12C
100
AcDbEntity
8
1
62
256
6
ByLayer
370
18
48
1
60
0
100
AcDbSpline
70
4
71
3
72
138
73
134
40
0
40
0
40
0
40
0
40
0.0067201606844416
40
0.0134200311805213
40
0.0200996215824522
40
0.0267589420767065
40
0.0333980029430924
40
0.040016814555861
40
0.046615387384802
40
0.0531937319963839
40
0.0597518590548852
40
0.0662897793235565
40
0.0728075036657959
40
0.0793050430463405
40
0.0857824085324647
40
0.0922396112952206
40
0.0986766626106688
40
0.10509357386114
40
0.111490356536519
40
0.117867022235529
40
0.12422358266706
40
0.130560049651494
40
0.136876435122058
40
0.1431727511262
40
0.149449009826975
40
0.155705223504464
40
0.161941404557201
40
0.168157565503629
40
0.174353718983573
40
0.180529877759735
40
0.18668605471921
40
0.192822262875033
40
0.198938515367733
40
0.20503482546692
40
0.211111206572895
40
0.217167672218277
40
0.223204236069665
40
0.229220911929315
40
0.235217713736844
40
0.241194655570961
40
0.24715175165122
40
0.253089016339806
40
0.259006464143342
40
0.264904109714719
40
0.270781967854964
40
0.276640053515127
40
0.282478381798201
40
0.288296967961064
40
0.294095827416465
40
0.299874975735013
40
0.305634428647233
40
0.311374202045614
40
0.317094311986719
40
0.322794774693304
40
0.32847560655649
40
0.334136824137944
40
0.339778444172117
40
0.345400483568501
40
0.351002959413918
40
0.356585888974857
40
0.362149289699839
40
0.367693179221812
40
0.373217575360596
40
0.378722496125352
40
0.384207959717098
40
0.38967398453126
40
0.39512058916026
40
0.400547792396148
40
0.40595561323327
40
0.411344070870982
40
0.416713184716401
40
0.422062974387199
40
0.427393459714441
40
0.432704660745472
40
0.437996597746835
40
0.443269291207247
40
0.448522761840619
40
0.453757030589112
40
0.458972118626255
40
0.4641680473601
40
0.469344838436433
40
0.47450251374203
40
0.479641095407966
40
0.484760605812974
40
0.489861067586856
40
0.494942503613949
40
0.500004937036642
40
0.509371454475068
40
0.518803039207555
40
0.528299835331268
40
0.53786198399371
40
0.547489623466512
40
0.557182889217142
40
0.566941913978604
40
0.576766827817176
40
0.586657758198266
40
0.596614830050405
40
0.606638165827469
40
0.616727885569159
40
0.626884106959792
40
0.637106945385464
40
0.647396513989623
40
0.657752923727101
40
0.668176283416654
40
0.678666699792052
40
0.689224277551758
40
0.699849119407248
40
0.710541326130003
40
0.721300996597213
40
0.732128227836239
40
0.743023115067863
40
0.753985751748359
40
0.765016229610434
40
0.776114638703057
40
0.78728106743021
40
0.798515602588615
40
0.80981832940443
40
0.821189331568981
40
0.832628691273532
40
0.844136489243137
40
0.855712804769598
40
0.867357715743542
40
0.879071298685665
40
0.890853628777158
40
0.902704779889321
40
0.91462482461242
40
0.926613834283797
40
0.938671879015233
40
0.950799027719624
40
0.962995348136957
40
0.97526090685963
40
0.987595769357115
40
1
40
1
40
1
40
1
41
1
10
118.207128115095
20
22.7315703493199
30
0
41
1
10
118.227056369785
20
22.7235298434036
30
0
41
1
10
118.266852709764
20
22.7074731082793
30
0
41
1
10
118.325966643987
20
22.6822370554066
30
0
41
1
10
118.384526368225
20
22.6562212375321
30
0
41
1
10
118.442487071766
20
22.6293545243577
30
0
41
1
10
118.499847435641
20
22.60167416625
30
0
41
1
10
118.556594963443
20
22.5731886119909
30
0
41
1
10
118.612720561592
20
22.5439140904182
30
0
41
1
10
118.668214648518
20
22.5138648441114
30
0
41
1
10
118.723068190422
20
22.4830557254621
30
0
41
1
10
118.777272422854
20
22.4515014955279
30
0
41
1
10
118.830818922659
20
22.4192170024543
30
0
41
1
10
118.883699586323
20
22.386217125432
30
0
41
1
10
118.93590663316
20
22.3525167813246
30
0
41
1
10
118.98743260172
20
22.3181309147154
30
0
41
1
10
119.038270347887
20
22.2830744925146
30
0
41
1
10
119.088413042393
20
22.2473624974876
30
0
41
1
10
119.137854168366
20
22.2110099222105
30
0
41
1
10
119.18658751875
20
22.1740317630519
30
0
41
1
10
119.234607193646
20
22.1364430142885
30
0
41
1
10
119.281907597564
20
22.0982586623274
30
0
41
1
10
119.328483436589
20
22.0594936800425
30
0
41
1
10
119.37432971547
20
22.020163021223
30
0
41
1
10
119.419441734634
20
21.9802816151366
30
0
41
1
10
119.463815087119
20
21.9398643612066
30
0
41
1
10
119.507445655448
20
21.8989261238015
30
0
41
1
10
119.550329608419
20
21.8574817271414
30
0
41
1
10
119.59246339785
20
21.8155459503167
30
0
41
1
10
119.633843755243
20
21.7731335224228
30
0
41
1
10
119.674467688407
20
21.7302591178079
30
0
41
1
10
119.714332478012
20
21.6869373514368
30
0
41
1
10
119.753435674094
20
21.6431827743674
30
0
41
1
10
119.791775092518
20
21.5990098693421
30
0
41
1
10
119.82934881138
20
21.5544330464935
30
0
41
1
10
119.866155167378
20
21.5094666391615
30
0
41
1
10
119.902192752131
20
21.4641248998262
30
0
41
1
10
119.937460408464
20
21.4184219961514
30
0
41
1
10
119.971957226659
20
21.3723720071416
30
0
41
1
10
120.005682540668
20
21.3259889194095
30
0
41
1
10
120.038635924295
20
21.2792866235558
30
0
41
1
10
120.070817187352
20
21.2322789106588
30
0
41
1
10
120.102226371789
20
21.1849794688737
30
0
41
1
10
120.132863747798
20
21.1374018801414
30
0
41
1
10
120.162729809897
20
21.0895596170057
30
0
41
1
10
120.191825272997
20
21.0414660395371
30
0
41
1
10
120.220151068445
20
20.9931343923651
30
0
41
1
10
120.247708340066
20
20.9445778018144
30
0
41
1
10
120.274498440179
20
20.8958092731475
30
0
41
1
10
120.30052292561
20
20.8468416879106
30
0
41
1
10
120.325783553699
20
20.7976878013826
30
0
41
1
10
120.350282278297
20
20.7483602401263
30
0
41
1
10
120.374021245758
20
20.6988714996405
30
0
41
1
10
120.397002790937
20
20.649233942112
30
0
41
1
10
120.419229433178
20
20.5994597942663
30
0
41
1
10
120.440703872313
20
20.5495611453167
30
0
41
1
10
120.461428984661
20
20.4995499450084
30
0
41
1
10
120.481407819029
20
20.44943800176
30
0
41
1
10
120.50064359273
20
20.3992369808974
30
0
41
1
10
120.5191396876
20
20.3489584029821
30
0
41
1
10
120.536899646033
20
20.2986136422301
30
0
41
1
10
120.553927167025
20
20.2482139250219
30
0
41
1
10
120.570226102233
20
20.197770328502
30
0
41
1
10
120.585800452049
20
20.1472937792654
30
0
41
1
10
120.600654361692
20
20.0967950521317
30
0
41
1
10
120.614792117322
20
20.0462847690041
30
0
41
1
10
120.628218142161
20
19.9957733978119
30
0
41
1
10
120.640936992655
20
19.945271251537
30
0
41
1
10
120.652953354639
20
19.8947884873199
30
0
41
1
10
120.664272039542
20
19.8443351056476
30
0
41
1
10
120.674897980603
20
19.7939209496182
30
0
41
1
10
120.684836229127
20
19.7435557042837
30
0
41
1
10
120.694091950754
20
19.6932488960693
30
0
41
1
10
120.702670421774
20
19.6430098922649
30
0
41
1
10
120.71057702545
20
19.592847900592
30
0
41
1
10
120.717817248394
20
19.5427719688406
30
0
41
1
10
120.724396676955
20
19.4927909845779
30
0
41
1
10
120.730320993655
20
19.4429136749214
30
0
41
1
10
120.735595973648
20
19.393148606396
30
0
41
1
10
120.740227481217
20
19.3435041847938
30
0
41
1
10
120.744221466313
20
19.2939886553358
30
0
41
1
10
120.747583961095
20
19.244610102014
30
0
41
1
10
120.750321076641
20
19.1953764502742
30
0
41
1
10
120.752438999193
20
19.1462954575857
30
0
41
1
10
120.75394398831
20
19.0973747492545
30
0
41
1
10
120.754842368132
20
19.0486216865999
30
0
41
1
10
120.755225420064
20
18.986216205573
30
0
41
1
10
120.754359410981
20
18.909894435071
30
0
41
1
10
120.75127257906
20
18.8194361881505
30
0
41
1
10
120.746078933734
20
18.7284472806708
30
0
41
1
10
120.738739423714
20
18.6369770649791
30
0
41
1
10
120.729215904973
20
18.5450764111769
30
0
41
1
10
120.71747120382
20
18.4527981622512
30
0
41
1
10
120.703469194313
20
18.3601970113244
30
0
41
1
10
120.687174873571
20
18.267329532088
30
0
41
1
10
120.668554439382
20
18.1742541643769
30
0
41
1
10
120.647575368809
20
18.0810312083645
30
0
41
1
10
120.624206498067
20
17.9877228127704
30
0
41
1
10
120.598418103488
20
17.8943929609012
30
0
41
1
10
120.570181983538
20
17.8011074533643
30
0
41
1
10
120.539471541753
20
17.7079338876363
30
0
41
1
10
120.50626187054
20
17.6149416343105
30
0
41
1
10
120.470529835706
20
17.5222018099464
30
0
41
1
10
120.432254161635
20
17.4297872464169
30
0
41
1
10
120.39141551698
20
17.3377724566608
30
0
41
1
10
120.347996600755
20
17.2462335967484
30
0
41
1
10
120.301982228716
20
17.1552484241701
30
0
41
1
10
120.253359419871
20
17.0648962522592
30
0
41
1
10
120.202117483006
20
16.9752579006705
30
0
41
1
10
120.148248103068
20
16.8864156418273
30
0
41
1
10
120.091745427258
20
16.7984531432683
30
0
41
1
10
120.032606150682
20
16.7114554058175
30
0
41
1
10
119.970829601385
20
16.6255086975127
30
0
41
1
10
119.906417824612
20
16.5407004832296
30
0
41
1
10
119.839375666105
20
16.4571193499453
30
0
41
1
10
119.769710854275
20
16.3748549275906
30
0
41
1
10
119.697434081038
20
16.2939978054467
30
0
41
1
10
119.622559081144
20
16.214639444044
30
0
41
1
10
119.545102709772
20
16.1368720825545
30
0
41
1
10
119.465085018241
20
16.0607886415629
30
0
41
1
10
119.382529327476
20
15.9864826215471
30
0
41
1
10
119.297462299536
20
15.9140479957578
30
0
41
1
10
119.209914005034
20
15.8435791023973
30
0
41
1
10
119.119917993571
20
15.7751705176671
30
0
41
1
10
119.02751133929
20
15.7089169791277
30
0
41
1
10
118.93273476547
20
15.6449130980323
30
0
41
1
10
118.835632455795
20
15.5832538446363
30
0
41
1
10
118.736253028271
20
15.5240321023836
30
0
41
1
10
118.634646114505
20
15.4673472348281
30
0
41
1
10
118.530875462027
20
15.4132721778266
30
0
41
1
10
118.424969822876
20
15.3619766238234
30
0
41
1
10
118.317107986081
20
15.3132626732549
30
0
41
1
10
118.24385653751
20
15.2833792585009
30
0
41
1
10
118.207128115096
20
15.2683956547406
30
0
0
SPLINE
5
12D
100
AcDbEntity
8
1
62
256
6
ByLayer
370
18
48
1
60
0
100
AcDbSpline
70
4
71
3
72
10
73
6
40
0
40
0
40
0
40
0
40
0.5
40
0.5
40
1
40
1
40
1
40
1
41
1
10
118.207282917897
20
15.2683956773286
30
0
41
1
10
117.979267280723
20
15.1799391080814
30
0
41
1
10
117.743085737416
20
15.1126481278905
30
0
41
1
10
117.262402489783
20
15.0226692128403
30
0
41
1
10
117.017910038454
20
14.9999830020303
30
0
41
1
10
116.773412881004
20
14.9999830020303
30
0
0
SPLINE
5
12E
100
AcDbEntity
8
1
62
256
6
ByLayer
370
18
48
1
60
0
100
AcDbSpline
70
4
71
2
72
11
73
8
40
0
40
0
40
0
40
0.25
40
0.25
40
0.5
40
0.75
40
0.75
40
1
40
1
40
1
41
1
10
117.989063524178
20
15.826014110622
30
0
41
1
10
118.979005458489
20
16.2214075112513
30
0
41
1
10
119.569364117472
20
17.0856374173155
30
0
41
1
10
120.163864182555
20
17.9559299548832
30
0
41
1
10
120.164449147163
20
20.0421594789126
30
0
41
1
10
119.569364091377
20
20.9143286249665
30
0
41
1
10
118.979954725461
20
21.7781793608392
30
0
41
1
10
117.989063480852
20
22.1739519107294
30
0
0
SPLINE
5
12F
100
AcDbEntity
8
1
62
256
6
ByLayer
370
18
48
1
60
0
100
AcDbSpline
70
4
71
2
72
6
73
3
40
0
40
0
40
0
40
1
40
1
40
1
41
1
10
116.773412860436
20
15.6000391637602
30
0
41
1
10
117.401063449261
20
15.6005216352008
30
0
41
1
10
117.989060688954
20
15.82602121464
30
0
0
SPLINE
5
130
100
AcDbEntity
8
1
62
256
6
ByLayer
370
18
48
1
60
0
100
AcDbSpline
70
4
71
1
72
4
73
2
40
0
40
0
40
1
40
1
41
1
10
116.773413269688
20
23.0000614236104
30
0
41
1
10
116.773412474056
20
22.4000482734074
30
0
0
SPLINE
5
131
100
AcDbEntity
8
1
62
256
6
ByLayer
370
18
48
1
60
0
100
AcDbSpline
70
4
71
1
72
4
73
2
40
0
40
0
40
1
40
1
41
1
10
116.290788086836
20
15.5999830020303
30
0
41
1
10
116.258019298086
20
14.9964377275405
30
0
0
SPLINE
5
132
100
AcDbEntity
8
1
62
256
6
ByLayer
370
18
48
1
60
0
100
AcDbSpline
70
4
71
3
72
20
73
16
40
0
40
0
40
0
40
0
40
0.0558841017173096
40
0.111668396236884
40
0.16736120392661
40
0.222970888137761
40
0.278505851782665
40
0.333974533827308
40
0.389385405705886
40
0.444746967664625
40
0.500067745042706
40
0.625214513713317
40
0.750236488094247
40
0.87515714152592
40
1
40
1
40
1
40
1
41
1
10
112.650332808961
20
19.0596566571963
30
0
41
1
10
112.651247876979
20
19.0801179563837
30
0
41
1
10
112.653076378732
20
19.1210040115401
30
0
41
1
10
112.656561050052
20
19.1823873566301
30
0
41
1
10
112.660586186885
20
19.2437314227517
30
0
41
1
10
112.665205059013
20
19.3050407902661
30
0
41
1
10
112.670403470034
20
19.366309313233
30
0
41
1
10
112.676185573775
20
19.4275335253861
30
0
41
1
10
112.682549462106
20
19.4887098938616
30
0
41
1
10
112.689499171551
20
19.5498324275896
30
0
41
1
10
112.70018705745
20
19.6366107937449
30
0
41
1
10
112.715918045182
20
19.7488795792915
30
0
41
1
10
112.738653215483
20
19.8862854157586
30
0
41
1
10
112.764440350639
20
20.0231271661112
30
0
41
1
10
112.784410405592
20
20.1137909265443
30
0
41
1
10
112.794392322987
20
20.1591086870374
30
0
0
SPLINE
5
133
100
AcDbEntity
8
1
62
256
6
ByLayer
370
18
48
1
60
0
100
AcDbSpline
70
4
71
2
72
6
73
3
40
0
40
0
40
0
40
1
40
1
40
1
41
1
10
117.989062975053
20
22.1739506012175
30
0
41
1
10
117.402457797409
20
22.4004200327972
30
0
41
1
10
116.773412846092
20
22.4000482736867
30
0
0
SPLINE
5
134
100
AcDbEntity
8
1
62
256
6
ByLayer
370
18
48
1
60
0
100
AcDbSpline
70
4
71
3
72
16
73
12
40
0
40
0
40
0
40
0
40
0.055181447925409
40
0.055181447925409
40
0.110362895850818
40
0.220725791701638
40
0.441451583403275
40
0.441451583403275
40
0.88290316680655
40
0.88290316680655
40
1
40
1
40
1
40
1
41
1
10
118
20
14.6999830020302
30
0
41
1
10
117.966852317848
20
14.6999830020302
30
0
41
1
10
117.933329095752
20
14.6999830020302
30
0
41
1
10
117.866582817465
20
14.6999830020302
30
0
41
1
10
117.766443162436
20
14.6999830020302
30
0
41
1
10
117.532500552245
20
14.6999830020302
30
0
41
1
10
117.331006534788
20
14.6999830020302
30
0
41
1
10
116.925427322501
20
14.6999830020302
30
0
41
1
10
116.651947221927
20
14.6999830020302
30
0
41
1
10
116.298385303052
20
14.6999830020302
30
0
41
1
10
116.223843529355
20
14.6999830020302
30
0
41
1
10
116.148828000001
20
14.6999830020302
30
0
0
SPLINE
5
135
100
AcDbEntity
8
1
62
256
6
ByLayer
370
18
48
1
60
0
100
AcDbSpline
70
4
71
1
72
4
73
2
40
0
40
0
40
1
40
1
41
1
10
116.258019298086
20
23.00352827652
30
0
41
1
10
116.290788086836
20
22.3999830020302
30
0
0
SPLINE
5
136
100
AcDbEntity
8
1
62
256
6
ByLayer
370
18
48
1
60
0
100
AcDbSpline
70
4
71
3
72
32
73
28
40
0
40
0
40
0
40
0
40
0.0625000000000013
40
0.0625000000000013
40
0.125000000000003
40
0.125000000000003
40
0.187500000000004
40
0.187500000000004
40
0.250000000000005
40
0.250000000000005
40
0.375000000000001
40
0.375000000000001
40
0.499999999999997
40
0.499999999999997
40
0.562499999999997
40
0.562499999999997
40
0.624999999999997
40
0.624999999999997
40
0.687499999999998
40
0.687499999999998
40
0.749999999999998
40
0.749999999999998
40
0.874999999999999
40
0.874999999999999
40
0.937499999999999
40
0.937499999999999
40
1
40
1
40
1
40
1
41
1
10
119.243329599949
20
22.7315703265426
30
0
41
1
10
119.33484401128
20
22.6951428735415
30
0
41
1
10
119.424835783047
20
22.6552149400003
30
0
41
1
10
119.60178462554
20
22.5683824303892
30
0
41
1
10
119.688916659905
20
22.5213671069542
30
0
41
1
10
119.858967626527
20
22.4209642104414
30
0
41
1
10
119.941932476554
20
22.3675754218194
30
0
41
1
10
120.103768978749
20
22.2544665798851
30
0
41
1
10
120.182776384764
20
22.1946327335995
30
0
41
1
10
120.412594537117
20
22.0063707856158
30
0
41
1
10
120.555789073531
20
21.8696603359023
30
0
41
1
10
120.82173159074
20
21.5744058291319
30
0
41
1
10
120.94302002996
20
21.4175076024755
30
0
41
1
10
121.107564443957
20
21.1683617137171
30
0
41
1
10
121.159297660687
20
21.0832972134381
30
0
41
1
10
121.256232315798
20
20.9097834960063
30
0
41
1
10
121.301495635517
20
20.8212413532082
30
0
41
1
10
121.385599249551
20
20.6405781359747
30
0
41
1
10
121.424362012907
20
20.5485623225081
30
0
41
1
10
121.494624383398
20
20.363168770279
30
0
41
1
10
121.526251371622
20
20.2695277137223
30
0
41
1
10
121.610805560322
20
19.9858217745572
30
0
41
1
10
121.653462546349
20
19.7929893641588
30
0
41
1
10
121.696585941842
20
19.4981190162925
30
0
41
1
10
121.707484551488
20
19.3985836882371
30
0
41
1
10
121.721967193467
20
19.1993653284792
30
0
41
1
10
121.725578590912
20
19.0997013998962
30
0
41
1
10
121.725578590912
20
18.9999830020307
30
0
0
SPLINE
5
137
100
AcDbEntity
8
1
62
256
6
ByLayer
370
18
48
1
60
0
100
AcDbSpline
70
4
71
3
72
31
73
27
40
0
40
0
40
0
40
0
40
0.0569496687494049
40
0.112240124981694
40
0.16589759058074
40
0.21795096739942
40
0.268432135255659
40
0.317376280534072
40
0.364822256136145
40
0.41081297234608
40
0.455395816448453
40
0.498623096501934
40
0.62900201741321
40
0.746562157930882
40
0.772578101060717
40
0.798228782599344
40
0.823533032937205
40
0.848510449104895
40
0.873181391069578
40
0.884503991714684
40
0.898068643532188
40
0.91389871423012
40
0.932005343572443
40
0.952392354159862
40
0.9750587347056
40
1
40
1
40
1
40
1
41
1
10
112.650332808961
20
18.9403093468554
30
0
41
1
10
112.665004166164
20
18.9282828062857
30
0
41
1
10
112.693919434719
20
18.9045801150095
30
0
41
1
10
112.736355340683
20
18.8684253530784
30
0
41
1
10
112.777283604777
20
18.8324591598338
30
0
41
1
10
112.816688843026
20
18.7965816830097
30
0
41
1
10
112.854579768799
20
18.7607839500779
30
0
41
1
10
112.890959352807
20
18.7250327140097
30
0
41
1
10
112.925832897016
20
18.6893000095456
30
0
41
1
10
112.959204540961
20
18.6535553313667
30
0
41
1
10
112.991083349478
20
18.6177685590893
30
0
41
1
10
113.042174811839
20
18.5574566986359
30
0
41
1
10
113.107814155366
20
18.4714296285532
30
0
41
1
10
113.163235679896
20
18.380375675112
30
0
41
1
10
113.194209703319
20
18.3206060251125
30
0
41
1
10
113.208090326342
20
18.2931599772887
30
0
41
1
10
113.221439117799
20
18.265719417089
30
0
41
1
10
113.234399389428
20
18.2383851814875
30
0
41
1
10
113.244390469612
20
18.2156790658353
30
0
41
1
10
113.252962038169
20
18.1975372709535
30
0
41
1
10
113.260740019898
20
18.1832620289808
30
0
41
1
10
113.270226846348
20
18.1670167992527
30
0
41
1
10
113.281518820876
20
18.1488850864264
30
0
41
1
10
113.294621655071
20
18.128886510899
30
0
41
1
10
113.309544795406
20
18.1070380593707
30
0
41
1
10
113.320280609341
20
18.0920570838078
30
0
41
1
10
113.325905016488
20
18.084208670401
30
0
0
SPLINE
5
138
100
AcDbEntity
8
1
62
256
6
ByLayer
370
18
48
1
60
0
100
AcDbSpline
70
4
71
2
72
7
73
4
40
0
40
0
40
0
40
0.5
40
1
40
1
40
1
41
1
10
116.290476864147
20
22.4029539048153
30
0
41
1
10
115.266947927872
20
22.2955084202858
30
0
41
1
10
113.618329562025
20
20.9178061263776
30
0
41
1
10
113.343939666022
20
19.9399841543496
30
0
0
SPLINE
5
139
100
AcDbEntity
8
1
62
256
6
ByLayer
370
18
48
1
60
0
100
AcDbSpline
70
4
71
3
72
23
73
19
40
0
40
0
40
0
40
0
40
0.0624953709974071
40
0.124987815966591
40
0.187477486597804
40
0.249964534436368
40
0.312449110890526
40
0.374931367239283
40
0.437411454640261
40
0.499889524137554
40
0.548191791760618
40
0.600501144638176
40
0.656849248126252
40
0.717262828350982
40
0.781765036645858
40
0.850376423559354
40
0.923115647598008
40
1
40
1
40
1
40
1
41
1
10
112.794392322987
20
17.8408573170232
30
0
41
1
10
112.789193451829
20
17.8634670272764
30
0
41
1
10
112.778795952925
20
17.9086853891985
30
0
41
1
10
112.764366563219
20
17.9767873695104
30
0
41
1
10
112.750795620041
20
18.0450717014345
30
0
41
1
10
112.738169808025
20
18.1135462538847
30
0
41
1
10
112.726467946985
20
18.1821919447557
30
0
41
1
10
112.715703736398
20
18.2509989498085
30
0
41
1
10
112.705858083388
20
18.3199471394618
30
0
41
1
10
112.697676367997
20
18.3838226671613
30
0
41
1
10
112.690531509154
20
18.4439868362477
30
0
41
1
10
112.683976606383
20
18.5018215561934
30
0
41
1
10
112.67741658512
20
18.564062110177
30
0
41
1
10
112.670987745933
20
18.6307205655058
30
0
41
1
10
112.664853415857
20
18.7018161959724
30
0
41
1
10
112.659210892963
20
18.7773610810491
30
0
41
1
10
112.654150192964
20
18.8573742385645
30
0
41
1
10
112.651628556525
20
18.9121584025381
30
0
41
1
10
112.650332808961
20
18.9403093468558
30
0
0
SPLINE
5
13A
100
AcDbEntity
8
1
62
256
6
ByLayer
370
18
48
1
60
0
100
AcDbSpline
70
4
71
2
72
7
73
4
40
0
40
0
40
0
40
0.5
40
1
40
1
40
1
41
1
10
113.343939666022
20
18.0599818497119
30
0
41
1
10
113.618135297455
20
17.0828521632457
30
0
41
1
10
115.266222952763
20
15.7045336884146
30
0
41
1
10
116.290476864147
20
15.5970120992453
30
0
0
SPLINE
5
13B
100
AcDbEntity
8
1
62
256
6
ByLayer
370
18
48
1
60
0
100
AcDbSpline
70
4
71
3
72
8
73
4
40
0
40
0
40
0
40
0
40
1
40
1
40
1
40
1
41
1
10
118.207279946793
20
22.7317707315751
30
0
41
1
10
118.134683643743
20
22.5457729882986
30
0
41
1
10
118.061944799099
20
22.3598333244415
30
0
41
1
10
117.989063480852
20
22.1739519107294
30
0
0
SPLINE
5
13C
100
AcDbEntity
8
1
62
256
6
ByLayer
370
18
48
1
60
0
100
AcDbSpline
70
4
71
3
72
33
73
29
40
0
40
0
40
0
40
0
40
0.0254344910870371
40
0.0505941141529384
40
0.0754933615949584
40
0.100147126702093
40
0.124570693267902
40
0.1563449963036
40
0.187781495589589
40
0.21890027464035
40
0.249722004270482
40
0.265322746006826
40
0.281746146373611
40
0.299036656876198
40
0.31723287047613
40
0.33636839640714
40
0.356472629062053
40
0.377571409975375
40
0.399687590280154
40
0.422841504727793
40
0.447051369351098
40
0.472333614389832
40
0.498703162956555
40
0.586488169453356
40
0.680141009824706
40
0.780067464258735
40
0.886597557168991
40
1
40
1
40
1
40
1
41
1
10
113.343939666022
20
19.9399841543494
30
0
41
1
10
113.337893207386
20
19.9319576821937
30
0
41
1
10
113.325865633593
20
19.9159914791701
30
0
41
1
10
113.308585599382
20
19.8913566563374
30
0
41
1
10
113.292002873242
20
19.8663995698051
30
0
41
1
10
113.276161112723
20
19.8410790574993
30
0
41
1
10
113.259519133542
20
19.8127465464283
30
0
41
1
10
113.242242443545
20
19.781349360742
30
0
41
1
10
113.224539297277
20
19.7468235088757
30
0
41
1
10
113.207851921645
20
19.7120031958149
30
0
41
1
10
113.195053513392
20
19.6823385045511
30
0
41
1
10
113.184570995657
20
19.658416079648
30
0
41
1
10
113.175596947775
20
19.6402801008888
30
0
41
1
10
113.165678878073
20
19.6216726587222
30
0
41
1
10
113.154760547516
20
19.6026226630667
30
0
41
1
10
113.142864335327
20
19.5831008190266
30
0
41
1
10
113.129990135199
20
19.5630940727633
30
0
41
1
10
113.116144608381
20
19.5425841191687
30
0
41
1
10
113.101332929492
20
19.5215533430444
30
0
41
1
10
113.085560592815
20
19.4999840368516
30
0
41
1
10
113.068835355035
20
19.4778547809597
30
0
41
1
10
113.051156988533
20
19.4551567249662
30
0
41
1
10
113.018381705325
20
19.4140449206792
30
0
41
1
10
112.968241278696
20
19.3553863047283
30
0
41
1
10
112.898090672121
20
19.2812623751412
30
0
41
1
10
112.821462470203
20
19.2071115642976
30
0
41
1
10
112.738361765146
20
19.1324274191155
30
0
41
1
10
112.68028075716
20
19.0844136815076
30
0
41
1
10
112.650332808961
20
19.0596566571963
30
0
0
SPLINE
5
13D
100
AcDbEntity
8
1
62
256
6
ByLayer
370
18
48
1
60
0
100
AcDbSpline
70
4
71
1
72
4
73
2
40
0
40
0
40
1
40
1
41
1
10
116.773412895086
20
14.9999830020303
30
0
41
1
10
116.773412895086
20
15.5999830020303
30
0
0
SPLINE
5
13E
100
AcDbEntity
8
1
62
256
6
ByLayer
370
18
48
1
60
0
100
AcDbSpline
70
4
71
3
72
103
73
99
40
0
40
0
40
0
40
0
40
0.0130245330198231
40
0.0259939031439093
40
0.0389081161441037
40
0.0517671778667393
40
0.0645710942339023
40
0.0773198712447361
40
0.090013514976773
40
0.102652031587292
40
0.115235427314706
40
0.127763708479988
40
0.140236881488096
40
0.152654952829479
40
0.165017929081578
40
0.177325816910374
40
0.189578623071964
40
0.201776354414188
40
0.213919017878272
40
0.226006620500515
40
0.238039169414031
40
0.250016671850492
40
0.261939135141952
40
0.273806566722697
40
0.285618974131117
40
0.297376365011657
40
0.309078747116788
40
0.320726128309032
40
0.332318516563034
40
0.343855919967685
40
0.355338346728286
40
0.366765805168777
40
0.378138303734008
40
0.389455850992073
40
0.400718455636679
40
0.411926126489605
40
0.423078872503205
40
0.434176702762953
40
0.445219626490086
40
0.45620765304428
40
0.467140791926411
40
0.478019052781386
40
0.488842445401029
40
0.499610979727045
40
0.510324665854074
40
0.520983514032793
40
0.531587534673126
40
0.542136738347525
40
0.55263113579432
40
0.563070737921172
40
0.573455555808626
40
0.583785600713725
40
0.594060884073744
40
0.60428141751001
40
0.614447212831832
40
0.62455828204052
40
0.63461463733353
40
0.644616291108714
40
0.654563255968658
40
0.664455544725194
40
0.67429317040398
40
0.684076146249224
40
0.693804485728551
40
0.703478202537995
40
0.713097310607117
40
0.722661824104283
40
0.732171757442089
40
0.741627125282922
40
0.751027942544699
40
0.760374224406762
40
0.769665986315931
40
0.778903243992758
40
0.788086013437922
40
0.797214310938854
40
0.806288153076527
40
0.815307556732447
40
0.824272539095864
40
0.833183117671194
40
0.842039310285657
40
0.850841135097133
40
0.859588610602295
40
0.868281755644945
40
0.876920589424626
40
0.885505131505504
40
0.894035401825509
40
0.90251142070577
40
0.910933208860339
40
0.919300787406234
40
0.927614177873775
40
0.935873402217273
40
0.944078482826051
40
0.952229442535811
40
0.960326304640386
40
0.968369092903856
40
0.976357831573077
40
0.984292545390611
40
0.992173259608083
40
1
40
1
40
1
40
1
41
1
10
116.259169858498
20
14.9999790200239
30
0
41
1
10
116.238689132256
20
15.0022217982757
30
0
41
1
10
116.197814421934
20
15.0066978559249
30
0
41
1
10
116.136769592889
20
15.0145623557824
30
0
41
1
10
116.076101139152
20
15.0232362607604
30
0
41
1
10
116.01582971286
20
15.0327897592546
30
0
41
1
10
115.955964427177
20
15.0431872197216
30
0
41
1
10
115.896517015881
20
15.0544210594868
30
0
41
1
10
115.83749806605
20
15.0664761145506
30
0
41
1
10
115.778918023691
20
15.0793391356389
30
0
41
1
10
115.720786928863
20
15.0929962702447
30
0
41
1
10
115.663114489207
20
15.1074337428511
30
0
41
1
10
115.605910063555
20
15.1226376835706
30
0
41
1
10
115.549182669644
20
15.1385941832925
30
0
41
1
10
115.492940985565
20
15.1552892883453
30
0
41
1
10
115.437193353029
20
15.1727090110686
30
0
41
1
10
115.381947780297
20
15.1908393359597
30
0
41
1
10
115.327211945327
20
15.209666226806
30
0
41
1
10
115.27299319901
20
15.2291756333627
30
0
41
1
10
115.219298568492
20
15.2493534979599
30
0
41
1
10
115.166134760603
20
15.2701857619351
30
0
41
1
10
115.113508165371
20
15.2916583719192
30
0
41
1
10
115.061424859615
20
15.3137572859705
30
0
41
1
10
115.009890610623
20
15.3364684795547
30
0
41
1
10
114.958910879912
20
15.3597779513756
30
0
41
1
10
114.908490827044
20
15.3836717290532
30
0
41
1
10
114.858635313528
20
15.4081358746516
30
0
41
1
10
114.809348906766
20
15.4331564900569
30
0
41
1
10
114.760635884079
20
15.4587197222052
30
0
41
1
10
114.712500236768
20
15.4848117681624
30
0
41
1
10
114.664945674245
20
15.5114188800558
30
0
41
1
10
114.617975628197
20
15.5385273698588
30
0
41
1
10
114.571593256802
20
15.5661236140294
30
0
41
1
10
114.525801448984
20
15.594194058004
30
0
41
1
10
114.480602828702
20
15.6227252205472
30
0
41
1
10
114.435999759279
20
15.6517036979584
30
0
41
1
10
114.391994347751
20
15.6811161681382
30
0
41
1
10
114.34858844925
20
15.7109493945129
30
0
41
1
10
114.305783671408
20
15.7411902298213
30
0
41
1
10
114.263581378783
20
15.7718256197643
30
0
41
1
10
114.221982697295
20
15.8028426065172
30
0
41
1
10
114.180988518687
20
15.8342283321088
30
0
41
1
10
114.140599504987
20
15.8659700416667
30
0
41
1
10
114.100816092981
20
15.8980550865319
30
0
41
1
10
114.061638498698
20
15.9304709272432
30
0
41
1
10
114.023066721885
20
15.9632051363933
30
0
41
1
10
113.985100550495
20
15.9962454013597
30
0
41
1
10
113.94773956516
20
16.0295795269093
30
0
41
1
10
113.910983143673
20
16.0631954376817
30
0
41
1
10
113.874830465446
20
16.0970811805499
30
0
41
1
10
113.839280515974
20
16.1312249268635
30
0
41
1
10
113.804332091273
20
16.1656149745729
30
0
41
1
10
113.769983802318
20
16.2002397502384
30
0
41
1
10
113.736234079449
20
16.2350878109269
30
0
41
1
10
113.703081176771
20
16.2701478459944
30
0
41
1
10
113.670523176528
20
16.3054086787613
30
0
41
1
10
113.638557993454
20
16.3408592680777
30
0
41
1
10
113.607183379102
20
16.3764887097842
30
0
41
1
10
113.576396926148
20
16.4122862380677
30
0
41
1
10
113.546196072662
20
16.4482412267162
30
0
41
1
10
113.516578106355
20
16.4843431902726
30
0
41
1
10
113.487540168793
20
16.5205817850909
30
0
41
1
10
113.45907925958
20
16.5569468102967
30
0
41
1
10
113.431192240503
20
16.5934282086529
30
0
41
1
10
113.403875839648
20
16.6300160673337
30
0
41
1
10
113.377126655473
20
16.6667006186088
30
0
41
1
10
113.35094116085
20
16.703472240439
30
0
41
1
10
113.325315707062
20
16.7403214569858
30
0
41
1
10
113.30024652776
20
16.7772389390373
30
0
41
1
10
113.275729742888
20
16.8142155043513
30
0
41
1
10
113.251761362553
20
16.8512421179192
30
0
41
1
10
113.228337290858
20
16.8883098921503
30
0
41
1
10
113.205453329696
20
16.9254100869811
30
0
41
1
10
113.183105182485
20
16.96253410991
30
0
41
1
10
113.161288457876
20
16.9996735159589
30
0
41
1
10
113.139998673397
20
17.0368200075654
30
0
41
1
10
113.119231259061
20
17.073965434406
30
0
41
1
10
113.098981560921
20
17.1111017931521
30
0
41
1
10
113.07924484458
20
17.1482212271624
30
0
41
1
10
113.060016298649
20
17.1853160261115
30
0
41
1
10
113.041291038157
20
17.2223786255579
30
0
41
1
10
113.023064107912
20
17.2594016064523
30
0
41
1
10
113.00533048581
20
17.2963776945891
30
0
41
1
10
112.988085086093
20
17.3332997600024
30
0
41
1
10
112.971322762555
20
17.3701608163058
30
0
41
1
10
112.955038311721
20
17.4069540199898
30
0
41
1
10
112.939226475852
20
17.4436726696312
30
0
41
1
10
112.923881946385
20
17.4803102051993
30
0
41
1
10
112.908999365497
20
17.5168602067666
30
0
41
1
10
112.894573334358
20
17.553316395215
30
0
41
1
10
112.880598396448
20
17.5896726253458
30
0
41
1
10
112.867069112747
20
17.6259229068634
30
0
41
1
10
112.8539797972
20
17.662061322162
30
0
41
1
10
112.841325507226
20
17.6980823252378
30
0
41
1
10
112.829098396888
20
17.7339796322574
30
0
41
1
10
112.817301202537
20
17.7697503150914
30
0
41
1
10
112.805897436165
20
17.8053796735101
30
0
41
1
10
112.798604348018
20
17.8291395825746
30
0
41
1
10
112.794970334168
20
17.8409787153055
30
0
0
SPLINE
5
13F
100
AcDbEntity
8
1
62
256
6
ByLayer
370
18
48
1
60
0
100
AcDbSpline
70
4
71
3
72
10
73
6
40
0
40
0
40
0
40
0
40
0.5
40
0.5
40
1
40
1
40
1
40
1
41
1
10
116.773412831634
20
22.9999830020303
30
0
41
1
10
117.017909997313
20
22.9999830045335
30
0
41
1
10
117.2624024571
20
22.9772967949681
30
0
41
1
10
117.743085721419
20
22.8873178798896
30
0
41
1
10
117.97926727295
20
22.8200268984261
30
0
41
1
10
118.207282917897
20
22.7315703267319
30
0
0
SPLINE
5
140
100
AcDbEntity
8
1
62
256
6
ByLayer
370
18
48
1
60
0
100
AcDbSpline
70
4
71
3
72
8
73
4
40
0
40
0
40
0
40
0
40
1
40
1
40
1
40
1
41
1
10
118.207137061689
20
15.2685881877226
30
0
41
1
10
118.134297243532
20
15.4543402361633
30
0
41
1
10
118.061605104762
20
15.6401513068329
30
0
41
1
10
117.989060688954
20
15.82602121464
30
0
0
SPLINE
5
141
100
AcDbEntity
8
1
62
256
6
ByLayer
370
18
48
1
60
0
100
AcDbSpline
70
4
71
3
72
65
73
61
40
0
40
0
40
0
40
0
40
0.0129839330852601
40
0.026115777909053
40
0.0393956489651842
40
0.0528236569567699
40
0.0663999089588647
40
0.0801245085726064
40
0.0939975560713869
40
0.108019148539526
40
0.122189380003917
40
0.136508341559034
40
0.150976121485723
40
0.165592805364092
40
0.180358476180915
40
0.195273214431774
40
0.210337098218323
40
0.225550203340889
40
0.240912603386704
40
0.256424369813993
40
0.272085572032162
40
0.287896277478279
40
0.303856551690064
40
0.31996645837557
40
0.336226059479737
40
0.35263541524797
40
0.369194584286913
40
0.385903623622549
40
0.402762588755788
40
0.419771533715642
40
0.436930511110134
40
0.454239572175038
40
0.47169876682056
40
0.489308143676094
40
0.50706775013309
40
0.524977632386174
40
0.543037835472589
40
0.561248403310043
40
0.579609378733006
40
0.598120803527599
40
0.616782718465073
40
0.635595163333982
40
0.654558176971095
40
0.673671797291116
40
0.692936061315254
40
0.712351005198712
40
0.731916664257127
40
0.751633072992015
40
0.771500265115258
40
0.791518273572714
40
0.8116871305669
40
0.832006867578917
40
0.852477515389506
40
0.8730991040994
40
0.893871663148921
40
0.914795221336879
40
0.935869806838815
40
0.957095447224586
40
0.978472169475362
40
1
40
1
40
1
40
1
41
1
10
112.794970334168
20
20.158987288755
30
0
41
1
10
112.801034039293
20
20.1786166699319
30
0
41
1
10
112.813230526697
20
20.2180990483406
30
0
41
1
10
112.832807738828
20
20.2772842650728
30
0
41
1
10
112.853482234331
20
20.3368376668587
30
0
41
1
10
112.875365051239
20
20.3967080764445
30
0
41
1
10
112.898457990881
20
20.4568764108336
30
0
41
1
10
112.922792286532
20
20.5173135456599
30
0
41
1
10
112.94839077907
20
20.5779917786364
30
0
41
1
10
112.97527817535
20
20.638881691426
30
0
41
1
10
113.003478207699
20
20.6999529900395
30
0
41
1
10
113.033014359521
20
20.7611742628735
30
0
41
1
10
113.063909618491
20
20.82251303475
30
0
41
1
10
113.096186493144
20
20.8839357417063
30
0
41
1
10
113.129866956435
20
20.9454077287754
30
0
41
1
10
113.164972407857
20
21.0068932430045
30
0
41
1
10
113.201523629214
20
21.0683554293414
30
0
41
1
10
113.239540740837
20
21.1297563273952
30
0
41
1
10
113.279043156433
20
21.1910568696923
30
0
41
1
10
113.320049537074
20
21.2522168813424
30
0
41
1
10
113.362577744239
20
21.3131950812206
30
0
41
1
10
113.406644791943
20
21.3739490847199
30
0
41
1
10
113.45226679801
20
21.4344354081453
30
0
41
1
10
113.499458934494
20
21.494609474814
30
0
41
1
10
113.548235377315
20
21.5544256229308
30
0
41
1
10
113.598609255126
20
21.6138371153064
30
0
41
1
10
113.650592597476
20
21.6727961509845
30
0
41
1
10
113.704196282303
20
21.7312538788476
30
0
41
1
10
113.759429982821
20
21.789160413269
30
0
41
1
10
113.816302113845
20
21.846464851876
30
0
41
1
10
113.874819777622
20
21.9031152954946
30
0
41
1
10
113.934988709231
20
21.9590588703379
30
0
41
1
10
113.99681322161
20
22.0142417525078
30
0
41
1
10
114.0602961503
20
22.0686091948717
30
0
41
1
10
114.125438797956
20
22.1221055563768
30
0
41
1
10
114.192240878731
20
22.1746743338681
30
0
41
1
10
114.260700462599
20
22.2262581964654
30
0
41
1
10
114.33081391971
20
22.2767990225614
30
0
41
1
10
114.402575864873
20
22.3262379394965
30
0
41
1
10
114.475979102259
20
22.3745153659653
30
0
41
1
10
114.551014570427
20
22.4215710572055
30
0
41
1
10
114.62767128778
20
22.4673441530209
30
0
41
1
10
114.705936298559
20
22.5117732286838
30
0
41
1
10
114.785794619488
20
22.5547963487585
30
0
41
1
10
114.867229187194
20
22.5963511238942
30
0
41
1
10
114.950220806516
20
22.6363747705998
30
0
41
1
10
115.034748099841
20
22.6748041741081
30
0
41
1
10
115.120787457601
20
22.7115759540914
30
0
41
1
10
115.208312989991
20
22.7466265342458
30
0
41
1
10
115.297296480415
20
22.7798922120179
30
0
41
1
10
115.387707339336
20
22.8113092426243
30
0
41
1
10
115.479512564301
20
22.840813884016
30
0
41
1
10
115.572676684998
20
22.8683426041613
30
0
41
1
10
115.667161773896
20
22.8938316907198
30
0
41
1
10
115.76292721929
20
22.9172191306506
30
0
41
1
10
115.859930405374
20
22.9384379399401
30
0
41
1
10
115.958123981662
20
22.9574417653777
30
0
41
1
10
116.057466011424
20
22.9741087531925
30
0
41
1
10
116.157881550073
20
22.9886046416195
30
0
41
1
10
116.225327907817
20
22.9961839718558
30
0
41
1
10
116.259169858498
20
22.9999869840366
30
0
0
SPLINE
5
143
100
AcDbEntity
8
4
62
256
6
ByLayer
370
13
48
0.05
60
0
100
AcDbSpline
70
4
71
1
72
5
73
3
40
0
40
0
40
0.734818276488825
40
1
40
1
41
1
10
138.192472002357
20
8.53E-14
30
0
41
1
10
33.1924720023574
20
8.53E-14
30
0
41
1
10
-4.70000000000004
20
8.53E-14
30
0
0
SPLINE
5
145
100
AcDbEntity
8
SK4
62
256
6
ByLayer
370
13
48
0.05
60
0
100
AcDbSpline
70
4
71
2
72
8
73
5
40
0
40
0
40
0
40
0.689884321929609
40
0.965542702436623
40
1
40
1
40
1
41
1
10
138.15
20
1.261154916E-07
30
0
41
1
10
68.075
20
1.206276236E-07
30
0
41
1
10
-30
20
1.129469577E-07
30
0
41
1
10
-61.5
20
1.103883712E-07
30
0
41
1
10
-65
20
1.101040838E-07
30
0
0
LINE
5
70
100
AcDbEntity
8
1
62
256
6
ByLayer
370
18
48
1
60
1
100
AcDbLine
10
0
20
0
30
0
11
0
21
841
31
0
39
0
210
0
220
0
230
1
0
LINE
5
72
100
AcDbEntity
8
1
62
256
6
ByLayer
370
18
48
1
60
1
100
AcDbLine
10
1189
20
841
30
0
11
0
21
841
31
0
39
0
210
0
220
0
230
1
0
LINE
5
73
100
AcDbEntity
8
1
62
256
6
ByLayer
370
18
48
1
60
1
100
AcDbLine
10
1189
20
841
30
0
11
1189
21
0
31
0
39
0
210
0
220
0
230
1
0
LINE
5
74
100
AcDbEntity
8
1
62
256
6
ByLayer
370
18
48
1
60
1
100
AcDbLine
10
0
20
0
30
0
11
1189
21
0
31
0
39
0
210
0
220
0
230
1
0
LINE
5
75
100
AcDbEntity
8
1
62
256
6
ByLayer
370
13
48
1
60
0
100
AcDbLine
10
39.974292
20
32.133018
30
0
11
39.974292
21
-32.133018
31
0
39
0
210
0
220
0
230
1
0
LINE
5
76
100
AcDbEntity
8
1
62
256
6
ByLayer
370
13
48
1
60
0
100
AcDbLine
10
0.3
20
-50
30
0
11
35.51613
21
-50
31
0
39
0
210
0
220
0
230
1
0
LINE
5
77
100
AcDbEntity
8
1
62
256
6
ByLayer
370
13
48
1
60
0
100
AcDbLine
10
30.868814
20
50
30
0
11
0.3
21
50
31
0
39
0
210
0
220
0
230
1
0
LINE
5
78
100
AcDbEntity
8
1
62
256
6
ByLayer
370
13
48
1
60
0
100
AcDbLine
10
0.3
20
50
30
0
11
0
21
49.7
31
0
39
0
210
0
220
0
230
1
0
LINE
5
79
100
AcDbEntity
8
1
62
256
6
ByLayer
370
13
48
1
60
0
100
AcDbLine
10
0
20
-49.7
30
0
11
0.3
21
-50
31
0
39
0
210
0
220
0
230
1
0
LINE
5
7A
100
AcDbEntity
8
1
62
256
6
ByLayer
370
13
48
1
60
0
100
AcDbLine
10
72.38336
20
4.251012
30
0
11
72.38336
21
4.260878
31
0
39
0
210
0
220
0
230
1
0
LINE
5
7B
100
AcDbEntity
8
1
62
256
6
ByLayer
370
18
48
1
60
0
100
AcDbLine
10
64.031858
20
20.885835
30
0
11
64.197041
21
20.930095
31
0
39
0
210
0
220
0
230
1
0
LINE
5
7C
100
AcDbEntity
8
1
62
256
6
ByLayer
370
18
48
1
60
0
100
AcDbLine
10
63.49823
20
23.538095
30
0
11
63.333047
21
23.493834
31
0
39
0
210
0
220
0
230
1
0
LINE
5
7D
100
AcDbEntity
8
1
62
256
6
ByLayer
370
18
48
1
60
0
100
AcDbLine
10
62.740812
20
25.043351
30
0
11
62.410446
21
24.95483
31
0
39
0
210
0
220
0
230
1
0
LINE
5
7E
100
AcDbEntity
8
1
62
256
6
ByLayer
370
18
48
1
60
0
100
AcDbLine
10
63.963361
20
19.159275
30
0
11
64.293727
21
19.247796
31
0
39
0
210
0
220
0
230
1
0
LINE
5
7F
100
AcDbEntity
8
1
62
256
6
ByLayer
370
13
48
1
60
0
100
AcDbLine
10
111.1
20
33.435665
30
0
11
111.1
21
34.229526
31
0
39
0
210
0
220
0
230
1
0
LINE
5
80
100
AcDbEntity
8
1
62
256
6
ByLayer
370
13
48
1
60
0
100
AcDbLine
10
68.085322
20
39.465777
30
0
11
64.991586
21
1.856915
31
0
39
0
210
0
220
0
230
1
0
LINE
5
81
100
AcDbEntity
8
1
62
256
6
ByLayer
370
13
48
1
60
0
100
AcDbLine
10
81.414442
20
10.276276
30
0
11
78.436155
21
5.117732
31
0
39
0
210
0
220
0
230
1
0
LINE
5
82
100
AcDbEntity
8
1
62
256
6
ByLayer
370
13
48
1
60
0
100
AcDbLine
10
13.355662
20
-47.532474
30
0
11
13.355662
21
-15.513346
31
0
39
0
210
0
220
0
230
1
0
LINE
5
83
100
AcDbEntity
8
1
62
256
6
ByLayer
370
13
48
1
60
0
100
AcDbLine
10
82.080451
20
39.346456
30
0
11
70.657796
21
41.360578
31
0
39
0
210
0
220
0
230
1
0
LINE
5
84
100
AcDbEntity
8
1
62
256
6
ByLayer
370
13
48
1
60
0
100
AcDbLine
10
18.211325
20
14.993155
30
0
11
13.788675
21
14.993155
31
0
39
0
210
0
220
0
230
1
0
LINE
5
85
100
AcDbEntity
8
1
62
256
6
ByLayer
370
13
48
1
60
0
100
AcDbLine
10
40.13407
20
-32.765612
30
0
11
36
21
-48.194171
31
0
39
0
210
0
220
0
230
1
0
LINE
5
86
100
AcDbEntity
8
1
62
256
6
ByLayer
370
13
48
1
60
0
100
AcDbLine
10
13.788675
20
14.993155
30
0
11
13.788675
21
47.699112
31
0
39
0
210
0
220
0
230
1
0
LINE
5
87
100
AcDbEntity
8
1
62
256
6
ByLayer
370
13
48
1
60
0
100
AcDbLine
10
82.080451
20
39.346456
30
0
11
83.819035
21
39.039897
31
0
39
0
210
0
220
0
230
1
0
LINE
5
88
100
AcDbEntity
8
1
62
256
6
ByLayer
370
13
48
1
60
0
100
AcDbLine
10
85.08157
20
34.328052
30
0
11
83.819035
21
39.039897
31
0
39
0
210
0
220
0
230
1
0
LINE
5
89
100
AcDbEntity
8
1
62
256
6
ByLayer
370
13
48
1
60
0
100
AcDbLine
10
109.15
20
5.199983
30
0
11
81
21
5.199983
31
0
39
0
210
0
220
0
230
1
0
LINE
5
8A
100
AcDbEntity
8
1
62
256
6
ByLayer
370
13
48
1
60
0
100
AcDbLine
10
81.414442
20
10.276276
30
0
11
82.800082
21
9.476276
31
0
39
0
210
0
220
0
230
1
0
LINE
5
8B
100
AcDbEntity
8
1
62
256
6
ByLayer
370
13
48
1
60
0
100
AcDbLine
10
83.216624
20
10.797378
30
0
11
85.178431
21
33.220933
31
0
39
0
210
0
220
0
230
1
0
LINE
5
8C
100
AcDbEntity
8
SK1
62
256
6
ByLayer
370
13
48
1
60
0
100
AcDbLine
10
-1.315435
20
-4.596404
30
0
11
-1.315435
21
4.596405
31
0
39
0
210
0
220
0
230
1
0
LINE
5
8E
100
AcDbEntity
8
1
62
256
6
ByLayer
370
13
48
1
60
0
100
AcDbLine
10
13.788675
20
-47.699112
30
0
11
13.788675
21
-14.993155
31
0
39
0
210
0
220
0
230
1
0
LINE
5
8F
100
AcDbEntity
8
1
62
256
6
ByLayer
370
13
48
1
60
0
100
AcDbLine
10
18.211325
20
-47.699112
30
0
11
13.788675
21
-47.699112
31
0
39
0
210
0
220
0
230
1
0
LINE
5
90
100
AcDbEntity
8
1
62
256
6
ByLayer
370
13
48
1
60
0
100
AcDbLine
10
109.15
20
5.199983
30
0
11
109.15
21
5.670408
31
0
39
0
210
0
220
0
230
1
0
LINE
5
91
100
AcDbEntity
8
1
62
256
6
ByLayer
370
13
48
1
60
0
100
AcDbLine
10
110.290412
20
34.372279
30
0
11
110.290412
21
33.020028
31
0
39
0
210
0
220
0
230
1
0
LINE
5
92
100
AcDbEntity
8
1
62
256
6
ByLayer
370
13
48
1
60
0
100
AcDbLine
10
110.304751
20
33.027914
30
0
11
110.304751
21
34.36975
31
0
39
0
210
0
220
0
230
1
0
LINE
5
93
100
AcDbEntity
8
1
62
256
6
ByLayer
370
13
48
1
60
0
100
AcDbLine
10
68.085322
20
39.465777
30
0
11
49.826735
21
39.465777
31
0
39
0
210
0
220
0
230
1
0
LINE
5
94
100
AcDbEntity
8
1
62
256
6
ByLayer
370
13
48
1
60
0
100
AcDbLine
10
109.15
20
5.199983
30
0
11
109.903082
21
5.199983
31
0
39
0
210
0
220
0
230
1
0
LINE
5
95
100
AcDbEntity
8
1
62
256
6
ByLayer
370
13
48
1
60
0
100
AcDbLine
10
111.1
20
34.229526
30
0
11
111.085355
21
34.232109
31
0
39
0
210
0
220
0
230
1
0
LINE
5
96
100
AcDbEntity
8
1
62
256
6
ByLayer
370
13
48
1
60
0
100
AcDbLine
10
80.327903
20
5.194336
30
0
11
82.800082
21
9.476276
31
0
39
0
210
0
220
0
230
1
0
LINE
5
97
100
AcDbEntity
8
1
62
256
6
ByLayer
370
13
48
1
60
0
100
AcDbLine
10
111.085355
20
34.232109
30
0
11
111.085355
21
33.428675
31
0
39
0
210
0
220
0
230
1
0
LINE
5
98
100
AcDbEntity
8
1
62
256
6
ByLayer
370
13
48
1
60
0
100
AcDbLine
10
0
20
49.7
30
0
11
0
21
-49.7
31
0
39
0
210
0
220
0
230
1
0
LINE
5
99
100
AcDbEntity
8
1
62
256
6
ByLayer
370
13
48
1
60
0
100
AcDbLine
10
83.584519
20
33.360382
30
0
11
81.622712
21
10.936827
31
0
39
0
210
0
220
0
230
1
0
LINE
5
9A
100
AcDbEntity
8
1
62
256
6
ByLayer
370
13
48
1
60
0
100
AcDbLine
10
13.788675
20
47.699112
30
0
11
18.211325
21
47.699112
31
0
39
0
210
0
220
0
230
1
0
LINE
5
9B
100
AcDbEntity
8
1
62
256
6
ByLayer
370
13
48
1
60
0
100
AcDbLine
10
65.865698
20
24.008237
30
0
11
66.482399
21
21.706675
31
0
39
0
210
0
220
0
230
1
0
LINE
5
9C
100
AcDbEntity
8
1
62
256
6
ByLayer
370
13
48
1
60
0
100
AcDbLine
10
36
20
47.896798
30
0
11
36
21
-48.194171
31
0
39
0
210
0
220
0
230
1
0
LINE
5
9D
100
AcDbEntity
8
1
62
256
6
ByLayer
370
13
48
1
60
0
100
AcDbLine
10
82.080451
20
39.346456
30
0
11
83.536089
21
33.913942
31
0
39
0
210
0
220
0
230
1
0
LINE
5
9E
100
AcDbEntity
8
1
62
256
6
ByLayer
370
13
48
1
60
0
100
AcDbLine
10
18.644338
20
-47.532474
30
0
11
18.644338
21
-15.513346
31
0
39
0
210
0
220
0
230
1
0
LINE
5
9F
100
AcDbEntity
8
1
62
256
6
ByLayer
370
13
48
1
60
0
100
AcDbLine
10
36
20
-48.194171
30
0
11
35.51613
21
-50
31
0
39
0
210
0
220
0
230
1
0
LINE
5
A0
100
AcDbEntity
8
1
62
256
6
ByLayer
370
13
48
1
60
0
100
AcDbLine
10
40.13407
20
-32.765612
30
0
11
42.362967
21
-24.447255
31
0
39
0
210
0
220
0
230
1
0
LINE
5
A1
100
AcDbEntity
8
1
62
256
6
ByLayer
370
13
48
1
60
0
100
AcDbLine
10
83.584519
20
33.360382
30
0
11
85.178431
21
33.220933
31
0
39
0
210
0
220
0
230
1
0
LINE
5
A2
100
AcDbEntity
8
1
62
256
6
ByLayer
370
13
48
1
60
0
100
AcDbLine
10
13.788675
20
-14.993155
30
0
11
18.211325
21
-14.993155
31
0
39
0
210
0
220
0
230
1
0
LINE
5
A3
100
AcDbEntity
8
1
62
256
6
ByLayer
370
13
48
1
60
0
100
AcDbLine
10
83.536089
20
33.913942
30
0
11
85.08157
21
34.328052
31
0
39
0
210
0
220
0
230
1
0
LINE
5
A4
100
AcDbEntity
8
1
62
256
6
ByLayer
370
13
48
1
60
0
100
AcDbLine
10
110.290412
20
34.372279
30
0
11
110.304751
21
34.36975
31
0
39
0
210
0
220
0
230
1
0
LINE
5
A5
100
AcDbEntity
8
1
62
256
6
ByLayer
370
13
48
1
60
0
100
AcDbLine
10
109.15
20
32.329577
30
0
11
109.15
21
34.573364
31
0
39
0
210
0
220
0
230
1
0
LINE
5
A6
100
AcDbEntity
8
1
62
256
6
ByLayer
370
13
48
1
60
0
100
AcDbLine
10
110.304751
20
34.36975
30
0
11
111.085355
21
34.232109
31
0
39
0
210
0
220
0
230
1
0
LINE
5
A7
100
AcDbEntity
8
1
62
256
6
ByLayer
370
13
48
1
60
0
100
AcDbLine
10
109.15
20
34.573364
30
0
11
110.290412
21
34.372279
31
0
39
0
210
0
220
0
230
1
0
LINE
5
A8
100
AcDbEntity
8
1
62
256
6
ByLayer
370
13
48
1
60
0
100
AcDbLine
10
70.657796
20
41.360578
30
0
11
41.611725
21
46.482184
31
0
39
0
210
0
220
0
230
1
0
LINE
5
A9
100
AcDbEntity
8
1
62
256
6
ByLayer
370
13
48
1
60
0
100
AcDbLine
10
18.644338
20
15.513346
30
0
11
18.644338
21
47.532474
31
0
39
0
210
0
220
0
230
1
0
LINE
5
AA
100
AcDbEntity
8
1
62
256
6
ByLayer
370
13
48
1
60
0
100
AcDbLine
10
18.211325
20
-47.699112
30
0
11
18.211325
21
-14.993155
31
0
39
0
210
0
220
0
230
1
0
LINE
5
AB
100
AcDbEntity
8
1
62
256
6
ByLayer
370
13
48
1
60
0
100
AcDbLine
10
0.3
20
50
30
0
11
0.3
21
-50
31
0
39
0
210
0
220
0
230
1
0
LINE
5
AC
100
AcDbEntity
8
1
62
256
6
ByLayer
370
13
48
1
60
0
100
AcDbLine
10
18.211325
20
14.993155
30
0
11
18.211325
21
47.699112
31
0
39
0
210
0
220
0
230
1
0
LINE
5
AD
100
AcDbEntity
8
1
62
256
6
ByLayer
370
13
48
1
60
0
100
AcDbLine
10
49.826735
20
-9.735549
30
0
11
49.826735
21
39.465777
31
0
39
0
210
0
220
0
230
1
0
LINE
5
AE
100
AcDbEntity
8
1
62
256
6
ByLayer
370
13
48
1
60
0
100
AcDbLine
10
109.15
20
34.573364
30
0
11
83.819035
21
39.039897
31
0
39
0
210
0
220
0
230
1
0
LINE
5
AF
100
AcDbEntity
8
1
62
256
6
ByLayer
370
13
48
1
60
0
100
AcDbLine
10
13.355662
20
15.513346
30
0
11
13.355662
21
47.532474
31
0
39
0
210
0
220
0
230
1
0
LINE
5
B0
100
AcDbEntity
8
1
62
256
6
ByLayer
370
13
48
1
60
0
100
AcDbLine
10
81.622712
20
10.936827
30
0
11
83.216624
21
10.797378
31
0
39
0
210
0
220
0
230
1
0
LINE
5
B1
100
AcDbEntity
8
1
62
256
6
ByLayer
370
18
48
1
60
0
100
AcDbLine
10
116.257199
20
22.999983
30
0
11
116.773413
21
22.999983
31
0
39
0
210
0
220
0
230
1
0
LINE
5
B2
100
AcDbEntity
8
1
62
256
6
ByLayer
370
13
48
1
60
0
100
AcDbLine
10
118
20
23.749976
30
0
11
118
21
23.299983
31
0
39
0
210
0
220
0
230
1
0
LINE
5
B3
100
AcDbEntity
8
1
62
256
6
ByLayer
370
18
48
1
60
0
100
AcDbLine
10
118.207199
20
22.73157
30
0
11
119.24333
21
22.73157
31
0
39
0
210
0
220
0
230
1
0
LINE
5
B4
100
AcDbEntity
8
1
62
256
6
ByLayer
370
18
48
1
60
0
100
AcDbLine
10
116.773425
20
14.999983
30
0
11
118.095865
21
14.999983
31
0
39
0
210
0
220
0
230
1
0
LINE
5
B5
100
AcDbEntity
8
1
62
256
6
ByLayer
370
13
48
1
60
0
100
AcDbLine
10
118
20
14.24999
30
0
11
118
21
14.699983
31
0
39
0
210
0
220
0
230
1
0
LINE
5
B6
100
AcDbEntity
8
1
62
256
6
ByLayer
370
18
48
1
60
0
100
AcDbLine
10
116.773413
20
14.999983
30
0
11
116.257199
21
14.999983
31
0
39
0
210
0
220
0
230
1
0
LINE
5
B7
100
AcDbEntity
8
1
62
256
6
ByLayer
370
18
48
1
60
0
100
AcDbLine
10
116.290788
20
15.599983
30
0
11
116.773413
21
15.599983
31
0
39
0
210
0
220
0
230
1
0
LINE
5
B8
100
AcDbEntity
8
1
62
256
6
ByLayer
370
18
48
1
60
0
100
AcDbLine
10
116.773413
20
22.999983
30
0
11
118.095865
21
22.999983
31
0
39
0
210
0
220
0
230
1
0
LINE
5
B9
100
AcDbEntity
8
1
62
256
6
ByLayer
370
18
48
1
60
0
100
AcDbLine
10
116.773413
20
22.399983
30
0
11
116.290788
21
22.399983
31
0
39
0
210
0
220
0
230
1
0
LINE
5
BA
100
AcDbEntity
8
1
62
256
6
ByLayer
370
18
48
1
60
0
100
AcDbLine
10
119.24333
20
15.268396
30
0
11
118.207205
21
15.268396
31
0
39
0
210
0
220
0
230
1
0
LINE
5
BB
100
AcDbEntity
8
81
62
256
6
ByLayer
370
18
48
1
60
0
100
AcDbLine
10
134
20
18.999983
30
0
11
139
21
18.999983
31
0
39
0
210
0
220
0
230
1
0
LINE
5
BC
100
AcDbEntity
8
80
62
256
6
ByLayer
370
18
48
1
60
0
100
AcDbLine
10
0
20
0
30
0
11
-5
21
0
31
0
39
0
210
0
220
0
230
1
0
MTEXT
5
146
100
AcDbEntity
8
SK6
62
256
6
ByLayer
370
18
48
1
60
0
100
AcDbMText
10
-59.553558
20
-90.8775
30
0
210
0
220
0
230
1
1
\W0.7275;\H12.25;C10-PRDCR-35134-32C\H3.50;
40
3.5
41
0
44
1.084337
50
0
71
7
72
5
7
iso_b_vert
0
DIMENSION
5
155
100
AcDbEntity
8
SK2
62
256
6
ByLayer
370
13
48
1
60
0
100
AcDbDimension
2
DimnDraft3D1
10
-84.266089
20
-50
30
0
11
-84.891089
21
0.607895
31
0
70
33
71
5
72
1
41
1
210
0
220
0
230
1
3
Standard
100
AcDbAlignedDimension
13
-1.2875
23
50
33
0
14
-1.2875
24
-50
34
0
1001
ACAD
1000
DSTYLE
1002
{
1070
   279
1070
     0
1070
    74
1070
     0
1070
   173
1070
     1
1070
   340
1005
147
1070
   271
1070
     2
1070
   272
1070
     2
1070
    77
1070
     1
1070
    73
1070
     0
1070
   171
1070
     3
1070
   274
1070
     4
1070
   177
1070
     7
1070
   176
1070
     7
1070
   178
1070
     7
1070
    78
1070
     8
1070
    48
1040
-0.005
1070
    41
1041
3.5
1070
   147
1041
1.75
1070
    42
1041
1.5875
1070
    44
1041
2.0
1070
   140
1041
3.5
1070
   343
1005
0
1070
   344
1005
0
1002
}
0
DIMENSION
5
160
100
AcDbEntity
8
2
62
256
6
ByLayer
370
13
48
1
60
0
100
AcDbDimension
2
DimnDraft3D2
10
134
20
-62.250929
30
0
11
63.923684
21
-62.250929
31
0
70
32
71
5
72
1
41
1
210
0
220
0
230
1
3
Standard
100
AcDbAlignedDimension
13
0
23
-51.2875
33
0
14
134
24
17.412483
34
0
50
0
100
AcDbRotatedDimension
1001
ACAD
1000
DSTYLE
1002
{
1070
   279
1070
     0
1070
   172
1070
     1
1070
   173
1070
     1
1070
   340
1005
147
1070
   271
1070
     2
1070
   272
1070
     2
1070
    77
1070
     1
1070
    73
1070
     0
1070
   171
1070
     3
1070
   274
1070
     4
1070
   177
1070
     7
1070
   176
1070
     7
1070
   178
1070
     7
1070
    78
1070
     8
1070
    48
1040
-0.005
1070
    41
1041
3.5
1070
   147
1041
1.75
1070
    42
1041
1.5875
1070
    44
1041
2.0
1070
   140
1041
3.5
1070
   343
1005
0
1070
   344
1005
0
1002
}
0
DIMENSION
5
16A
100
AcDbEntity
8
2
62
256
6
ByLayer
370
13
48
1
60
0
100
AcDbDimension
2
DimnDraft3D3
10
156.8179
20
34.999983
30
0
11
156.8179
21
15.455255
31
0
70
32
71
5
72
1
41
1
210
0
220
0
230
1
3
Standard
100
AcDbAlignedDimension
13
139.779972
23
0
33
0
14
125.302065
24
34.999983
34
0
50
90
100
AcDbRotatedDimension
1001
ACAD
1000
DSTYLE
1002
{
1070
    74
1070
     0
1070
   279
1070
     0
1070
   172
1070
     1
1070
   173
1070
     1
1070
   340
1005
147
1070
   271
1070
     2
1070
   272
1070
     2
1070
    77
1070
     1
1070
    73
1070
     0
1070
   171
1070
     3
1070
   274
1070
     4
1070
   177
1070
     7
1070
   176
1070
     7
1070
   178
1070
     7
1070
    78
1070
     8
1070
    48
1040
-0.005
1070
    41
1041
3.5
1070
   147
1041
1.75
1070
    42
1041
1.5875
1070
    44
1041
2.0
1070
   140
1041
3.5
1070
   343
1005
0
1070
   344
1005
0
1002
}
0
ENDSEC
0
SECTION
2
OBJECTS
0
DICTIONARY
5
1d5
330
0
100
AcDbDictionary
280
0
281
1
3
ACAD_GROUP
350
1d6
3
ACAD_MLINESTYLE
350
1d7
0
DICTIONARY
5
1d6
330
0
100
AcDbDictionary
280
0
281
1
0
DICTIONARY
5
1d7
330
0
100
AcDbDictionary
280
0
281
1
3
Standard
350
18
0
MLINESTYLE
5
18
330
1d7
100
AcDbMlineStyle
2
Standard
70
0
3

62
256
51
90
52
90
71
2
49
-0.5
62
256
6
ByLayer
49
0.5
62
256
6
ByLayer
0
RASTERVARIABLES
5
1c3
330

100
AcDbRasterVariables
90
0
70
1
71
1
72
1
0
ENDSEC
0
EOF
