0
SECTION
2
HEADER
9
$ACADVER
1
AC1015
9
$DWGCODEPAGE
3
ANSI_1252
9
$HANDSEED
5
227
9
$ANGBASE
50
0
9
$ANGDIR
70
0
9
$ATTMODE
70
1
9
$AUNITS
70
0
9
$AUPREC
70
0
9
$CECOLOR
62
256
9
$CELTSCALE
40
1
9
$CELTYPE
6
ByLayer
9
$CELWEIGHT
370
18
9
$CLAYER
8
0
9
$CMLJUST
70
0
9
$CMLSCALE
40
1
9
$CMLSTYLE
2
Standard
9
$DIMSTYLE
2
Standard
9
$TEXTSIZE
40
0.2
9
$TEXTSTYLE
7
Standard
9
$LUNITS
70
2
9
$LUPREC
70
4
9
$EXTNAMES
290
1
9
$INSUNITS
70
4
9
$LTSCALE
40
1
9
$LWDISPLAY
290
1
9
$PDMODE
70
0
9
$PDSIZE
40
0
9
$PLINEGEN
70
0
0
ENDSEC
0
SECTION
2
CLASSES
0
CLASS
1
RASTERVARIABLES
2
AcDbRasterVariables
3
ISM
90
0
280
0
281
0
0
ENDSEC
0
SECTION
2
TABLES
0
TABLE
2
VPORT
5
21d
100
AcDbSymbolTable
0
VPORT
5
1
100
AcDbSymbolTableRecord
100
AcDbViewportTableRecord
2
*Active
70
0
10
0
20
0
11
1
21
1
12
-1
22
1
13
0
23
0
14
0.5
24
0.5
15
10
25
10
16
0
26
0
36
1
17
0
27
0
37
0
0
ENDTAB
0
TABLE
2
LTYPE
5
21e
100
AcDbSymbolTable
0
LTYPE
5
14
100
AcDbSymbolTableRecord
100
AcDbLinetypeTableRecord
70
0
2
ByBlock
3

72
65
73
0
40
0
0
LTYPE
5
15
100
AcDbSymbolTableRecord
100
AcDbLinetypeTableRecord
70
0
2
ByLayer
3

72
65
73
0
40
0
0
LTYPE
5
16
100
AcDbSymbolTableRecord
100
AcDbLinetypeTableRecord
70
0
2
CONTINUOUS
3
Solid line
72
65
73
0
40
0
0
LTYPE
5
6A
100
AcDbSymbolTableRecord
100
AcDbLinetypeTableRecord
70
0
2
CENTER
3
____ _ ____ _ ____ _ ____
72
65
73
4
40
47.5
49
22
74
0
49
-8.5
74
0
49
8.5
74
0
49
-8.5
74
0
0
LTYPE
5
6B
100
AcDbSymbolTableRecord
100
AcDbLinetypeTableRecord
70
0
2
DASHED
3
__ __ __ __ __ __ __ __ __
72
65
73
2
40
25.72
49
12.86
74
0
49
-12.86
74
0
0
ENDTAB
0
TABLE
2
LAYER
5
21f
100
AcDbSymbolTable
0
LAYER
5
10
100
AcDbSymbolTableRecord
100
AcDbLayerTableRecord
2
0
70
0
62
7
6
CONTINUOUS
290
1
370
-3
390
0
0
LAYER
5
6D
100
AcDbSymbolTableRecord
100
AcDbLayerTableRecord
2
1
70
0
62
4
6
CONTINUOUS
290
1
370
-3
390
0
0
LAYER
5
6F
100
AcDbSymbolTableRecord
100
AcDbLayerTableRecord
2
81
70
0
62
-3
6
CONTINUOUS
290
1
370
-3
390
0
0
LAYER
5
71
100
AcDbSymbolTableRecord
100
AcDbLayerTableRecord
2
80
70
0
62
-6
6
CONTINUOUS
290
1
370
-3
390
0
0
LAYER
5
17E
100
AcDbSymbolTableRecord
100
AcDbLayerTableRecord
2
4
70
0
62
-2
6
CENTER
290
1
370
-3
390
0
0
LAYER
5
186
100
AcDbSymbolTableRecord
100
AcDbLayerTableRecord
2
2
70
0
62
7
6
CONTINUOUS
290
1
370
-3
390
0
0
LAYER
5
209
100
AcDbSymbolTableRecord
100
AcDbLayerTableRecord
2
SK1
70
0
62
4
6
CONTINUOUS
290
1
370
-3
390
0
0
LAYER
5
20a
100
AcDbSymbolTableRecord
100
AcDbLayerTableRecord
2
SK4
70
0
62
2
6
CENTER
290
1
370
-3
390
0
0
LAYER
5
20b
100
AcDbSymbolTableRecord
100
AcDbLayerTableRecord
2
SK6
70
0
62
5
6
CONTINUOUS
290
1
370
-3
390
0
0
LAYER
5
20c
100
AcDbSymbolTableRecord
100
AcDbLayerTableRecord
2
SK2
70
0
62
7
6
CONTINUOUS
290
1
370
-3
390
0
0
ENDTAB
0
TABLE
2
STYLE
5
220
100
AcDbSymbolTable
0
STYLE
5
11
100
AcDbSymbolTableRecord
100
AcDbTextStyleTableRecord
2
Standard
3
txt
70
0
71
0
40
0
41
1
42
0
50
0
0
STYLE
5
181
100
AcDbSymbolTableRecord
100
AcDbTextStyleTableRecord
2
iso_b_vert
3
simplex.shx
70
0
71
0
40
0
41
1
42
0
50
0
0
STYLE
5
182
100
AcDbSymbolTableRecord
100
AcDbTextStyleTableRecord
2
DWGDirectTextStyle
3
simplex
70
0
71
0
40
0
41
1
42
0
50
0
0
ENDTAB
0
TABLE
2
DIMSTYLE
5
221
100
AcDbSymbolTable
100
AcDbDimStyleTable
0
DIMSTYLE
105
27
100
AcDbSymbolTableRecord
100
AcDbDimStyleTableRecord
2
Standard
70
0
3
<>
41
0.18
42
0.0625
44
0.18
140
0.18
147
0.09
73
0
74
0
77
1
271
2
275
0
278
52
280
0
340
11
0
ENDTAB
0
TABLE
2
VIEW
5
222
100
AcDbSymbolTable
0
ENDTAB
0
TABLE
2
UCS
5
223
100
AcDbSymbolTable
0
ENDTAB
0
TABLE
2
APPID
5
224
100
AcDbSymbolTable
0
APPID
5
12
100
AcDbSymbolTableRecord
100
AcDbRegAppTableRecord
2
ACAD
70
0
0
ENDTAB
0
TABLE
2
BLOCK_RECORD
5
225
100
AcDbSymbolTable
0
BLOCK_RECORD
5
1F
100
AcDbSymbolTableRecord
100
AcDbBlockTableRecord
2
*Model_Space
340
0
70
0
0
BLOCK_RECORD
5
1B
100
AcDbSymbolTableRecord
100
AcDbBlockTableRecord
2
*Paper_Space
340
0
70
0
0
BLOCK_RECORD
5
23
100
AcDbSymbolTableRecord
100
AcDbBlockTableRecord
2
*Paper_Space0
340
0
70
0
0
BLOCK_RECORD
5
184
100
AcDbSymbolTableRecord
100
AcDbBlockTableRecord
2
DimnDraft3D1
340
0
70
0
0
BLOCK_RECORD
5
18F
100
AcDbSymbolTableRecord
100
AcDbBlockTableRecord
2
DimnDraft3D2
340
0
70
0
0
BLOCK_RECORD
5
19B
100
AcDbSymbolTableRecord
100
AcDbBlockTableRecord
2
DimnDraft3D3
340
0
70
0
0
BLOCK_RECORD
5
1A6
100
AcDbSymbolTableRecord
100
AcDbBlockTableRecord
2
DimnDraft3D4
340
0
70
0
0
ENDTAB
0
ENDSEC
0
SECTION
2
BLOCKS
0
BLOCK
5
20
100
AcDbEntity
8
0
100
AcDbBlockBegin
2
*Model_Space
70
0
10
0
20
0
30
0
3
*Model_Space
0
ENDBLK
5
21
100
AcDbEntity
8
0
100
AcDbBlockEnd
0
BLOCK
5
1C
100
AcDbEntity
8
0
100
AcDbBlockBegin
2
*Paper_Space
70
0
10
0
20
0
30
0
3
*Paper_Space
0
ENDBLK
5
1D
100
AcDbEntity
8
0
100
AcDbBlockEnd
0
BLOCK
5
24
100
AcDbEntity
8
0
100
AcDbBlockBegin
2
*Paper_Space0
70
0
10
0
20
0
30
0
3
*Paper_Space0
0
ENDBLK
5
25
100
AcDbEntity
8
0
100
AcDbBlockEnd
0
BLOCK
5
18C
100
AcDbEntity
8
0
100
AcDbBlockBegin
2
DimnDraft3D1
70
0
10
0
20
0
30
0
3
DimnDraft3D1
0
MTEXT
5
185
100
AcDbEntity
8
2
62
256
6
ByLayer
370
13
48
1
60
0
100
AcDbMText
10
53.420395
20
-97.801299
30
0
210
0
220
0
230
1
1
\W0.5123;110
40
3.5
41
0
44
1.084337
50
0
71
7
72
5
7
iso_b_vert
0
LINE
5
187
100
AcDbEntity
8
2
62
256
6
ByLayer
370
13
48
1
60
0
100
AcDbLine
10
0
20
-1.5875
30
0
11
0
21
-100.676299
31
0
39
0
210
0
220
0
230
1
0
LINE
5
188
100
AcDbEntity
8
2
62
256
6
ByLayer
370
13
48
1
60
0
100
AcDbLine
10
110
20
-69.5875
30
0
11
110
21
-100.676299
31
0
39
0
210
0
220
0
230
1
0
LINE
5
189
100
AcDbEntity
8
2
62
256
6
ByLayer
370
13
48
1
60
0
100
AcDbLine
10
0
20
-98.676299
30
0
11
110
21
-98.676299
31
0
39
0
210
0
220
0
230
1
0
SOLID
5
18A
100
AcDbEntity
8
2
62
256
6
ByLayer
370
13
48
1
60
0
100
AcDbTrace
10
0
20
-98.676299
30
0
11
3.499998
21
-98.215515
31
0
12
3.500002
22
-99.137083
32
0
13
0
23
-98.676299
33
0
39
0
210
0
220
0
230
1
0
SOLID
5
18B
100
AcDbEntity
8
2
62
256
6
ByLayer
370
13
48
1
60
0
100
AcDbTrace
10
110
20
-98.676299
30
0
11
106.500002
21
-99.137083
31
0
12
106.499998
22
-98.215515
32
0
13
110
23
-98.676299
33
0
39
0
210
0
220
0
230
1
0
ENDBLK
5
18D
100
AcDbEntity
8
0
100
AcDbBlockEnd
0
BLOCK
5
198
100
AcDbEntity
8
0
100
AcDbBlockBegin
2
DimnDraft3D2
70
0
10
0
20
0
30
0
3
DimnDraft3D2
0
MTEXT
5
190
100
AcDbEntity
8
SK2
62
256
6
ByLayer
370
13
48
1
60
0
100
AcDbMText
10
-92.061029
20
1.482895
30
0
210
0
220
0
230
1
1
\W0.6044;100
40
3.5
41
0
44
1.084337
50
90
71
7
72
5
7
iso_b_vert
0
MTEXT
5
192
100
AcDbEntity
8
SK2
62
256
6
ByLayer
370
13
48
1
60
0
100
AcDbMText
10
-92.061029
20
-3.739762
30
0
210
0
220
0
230
1
1
%%c
40
3.5
41
0
44
1.084337
50
90
71
7
72
5
7
iso_b_vert
0
LINE
5
193
100
AcDbEntity
8
SK2
62
256
6
ByLayer
370
13
48
1
60
0
100
AcDbLine
10
-1.2875
20
-50
30
0
11
-92.311029
21
-50
31
0
39
0
210
0
220
0
230
1
0
LINE
5
194
100
AcDbEntity
8
SK2
62
256
6
ByLayer
370
13
48
1
60
0
100
AcDbLine
10
-1.2875
20
50
30
0
11
-92.311029
21
50
31
0
39
0
210
0
220
0
230
1
0
LINE
5
195
100
AcDbEntity
8
SK2
62
256
6
ByLayer
370
13
48
1
60
0
100
AcDbLine
10
-90.311029
20
-50
30
0
11
-90.311029
21
50
31
0
39
0
210
0
220
0
230
1
0
SOLID
5
196
100
AcDbEntity
8
SK2
62
256
6
ByLayer
370
13
48
1
60
0
100
AcDbTrace
10
-90.311029
20
-50
30
0
11
-90.771813
21
-46.500002
31
0
12
-89.850246
22
-46.499998
32
0
13
-90.311029
23
-50
33
0
39
0
210
0
220
0
230
1
0
SOLID
5
197
100
AcDbEntity
8
SK2
62
256
6
ByLayer
370
13
48
1
60
0
100
AcDbTrace
10
-90.311029
20
50
30
0
11
-89.850246
21
46.500002
31
0
12
-90.771813
22
46.499998
32
0
13
-90.311029
23
50
33
0
39
0
210
0
220
0
230
1
0
ENDBLK
5
199
100
AcDbEntity
8
0
100
AcDbBlockEnd
0
BLOCK
5
1A3
100
AcDbEntity
8
0
100
AcDbBlockBegin
2
DimnDraft3D3
70
0
10
0
20
0
30
0
3
DimnDraft3D3
0
MTEXT
5
19C
100
AcDbEntity
8
SK2
62
256
6
ByLayer
370
13
48
1
60
0
100
AcDbMText
10
119.003854
20
-82.547467
30
0
210
0
220
0
230
1
1
\W0.8385;93%%d
40
3.5
41
0
44
1.084337
50
39.5118022107789
71
7
72
5
7
iso_b_vert
0
LINE
5
19D
100
AcDbEntity
8
SK2
62
256
6
ByLayer
370
13
48
1
60
0
100
AcDbLine
10
95.742235
20
-67.295715
30
0
11
90.233386
21
-67.007009
31
0
39
0
210
0
220
0
230
1
0
LINE
5
19E
100
AcDbEntity
8
SK2
62
256
6
ByLayer
370
13
48
1
60
0
100
AcDbLine
10
110
20
-69.5875
30
0
11
110
21
-87.836674
31
0
39
0
210
0
220
0
230
1
0
ARC
5
19F
100
AcDbEntity
8
SK2
62
256
6
ByLayer
370
13
48
1
60
0
100
AcDbCircle
39
0
10
110
20
-68.042933
30
0
40
17.7937407711629
210
0
220
0
230
1
100
AcDbArc
50
270
51
319.572348
0
ARC
5
1A0
100
AcDbEntity
8
SK2
62
256
6
ByLayer
370
13
48
1
60
0
100
AcDbCircle
39
0
10
110
20
-68.042933
30
0
40
17.7937407711629
210
0
220
0
230
1
100
AcDbArc
50
177
51
270
0
SOLID
5
1A1
100
AcDbEntity
8
SK2
62
256
6
ByLayer
370
13
48
1
60
0
100
AcDbTrace
10
92.230645
20
-67.11168
30
0
11
92.679726
21
-70.6132
31
0
12
91.758164
22
-70.610122
32
0
13
92.230645
23
-67.11168
33
0
39
0
210
0
220
0
230
1
0
SOLID
5
1A2
100
AcDbEntity
8
SK2
62
256
6
ByLayer
370
13
48
1
60
0
100
AcDbTrace
10
110
20
-85.836674
30
0
11
106.481628
21
-86.125413
31
0
12
106.526779
22
-85.204953
32
0
13
110
23
-85.836674
33
0
39
0
210
0
220
0
230
1
0
ENDBLK
5
1A4
100
AcDbEntity
8
0
100
AcDbBlockEnd
0
BLOCK
5
1AD
100
AcDbEntity
8
0
100
AcDbBlockBegin
2
DimnDraft3D4
70
0
10
0
20
0
30
0
3
DimnDraft3D4
0
MTEXT
5
1A7
100
AcDbEntity
8
2
62
256
6
ByLayer
370
13
48
1
60
0
100
AcDbMText
10
125.462229
20
-35.169737
30
0
210
0
220
0
230
1
1
\W0.6563;68
40
3.5
41
0
44
1.084337
50
90
71
7
72
5
7
iso_b_vert
0
LINE
5
1A8
100
AcDbEntity
8
2
62
256
6
ByLayer
370
13
48
1
60
0
100
AcDbLine
10
109.773638
20
0
30
0
11
128.337229
21
0
31
0
39
0
210
0
220
0
230
1
0
LINE
5
1A9
100
AcDbEntity
8
2
62
256
6
ByLayer
370
13
48
1
60
0
100
AcDbLine
10
111.5875
20
-68
30
0
11
128.337229
21
-68
31
0
39
0
210
0
220
0
230
1
0
LINE
5
1AA
100
AcDbEntity
8
2
62
256
6
ByLayer
370
13
48
1
60
0
100
AcDbLine
10
126.337229
20
0
30
0
11
126.337229
21
-68
31
0
39
0
210
0
220
0
230
1
0
SOLID
5
1AB
100
AcDbEntity
8
2
62
256
6
ByLayer
370
13
48
1
60
0
100
AcDbTrace
10
126.337229
20
0
30
0
11
126.798013
21
-3.499998
31
0
12
125.876445
22
-3.500002
32
0
13
126.337229
23
0
33
0
39
0
210
0
220
0
230
1
0
SOLID
5
1AC
100
AcDbEntity
8
2
62
256
6
ByLayer
370
13
48
1
60
0
100
AcDbTrace
10
126.337229
20
-68
30
0
11
125.876445
21
-64.500002
31
0
12
126.798013
22
-64.499998
32
0
13
126.337229
23
-68
33
0
39
0
210
0
220
0
230
1
0
ENDBLK
5
1AE
100
AcDbEntity
8
0
100
AcDbBlockEnd
0
ENDSEC
0
SECTION
2
ENTITIES
0
ARC
5
F5
100
AcDbEntity
8
SK1
62
256
6
ByLayer
370
18
48
1
60
0
100
AcDbCircle
39
0
10
0.6
20
-38.9
30
0
40
1
210
0
220
0
230
-1
100
AcDbArc
50
113.578178
51
126.870857
0
ARC
5
F6
100
AcDbEntity
8
SK1
62
256
6
ByLayer
370
18
48
1
60
0
100
AcDbCircle
39
0
10
0.6
20
38.9
30
0
40
1
210
0
220
0
230
-1
100
AcDbArc
50
233.129143
51
246.421822
0
ARC
5
F7
100
AcDbEntity
8
1
62
256
6
ByLayer
370
18
48
1
60
0
100
AcDbCircle
39
0
10
-36.186138
20
50.8
30
0
40
0.8
210
0
220
0
230
-1
100
AcDbArc
50
234.340912
51
270
0
ARC
5
F8
100
AcDbEntity
8
1
62
256
6
ByLayer
370
18
48
1
60
0
100
AcDbCircle
39
0
10
-36.186138
20
-50.8
30
0
40
0.8
210
0
220
0
230
-1
100
AcDbArc
50
90
51
165
0
ELLIPSE
5
F9
100
AcDbEntity
8
1
62
256
6
ByLayer
370
18
48
1
60
0
100
AcDbEllipse
10
91.910554
20
-41.587584
30
0
11
0.412780493676791
21
1.4420860806623
31
0
210
0
220
0
230
1
40
0.428454
41
-2.39870727837957
42
0
0
ELLIPSE
5
FA
100
AcDbEntity
8
1
62
256
6
ByLayer
370
18
48
1
60
0
100
AcDbEllipse
10
91.910554
20
-41.587584
30
0
11
0.412780493676791
21
1.4420860806623
31
0
210
0
220
0
230
1
40
0.428454
41
0
42
0.22275575094936
0
ELLIPSE
5
FB
100
AcDbEntity
8
1
62
256
6
ByLayer
370
18
48
1
60
0
100
AcDbEllipse
10
91.476215
20
-41.463259
30
0
11
-0.550373991569059
21
-1.92278144088306
31
0
210
0
220
0
230
1
40
0.428454
41
2.64757351924148
42
-2.89488352186133
0
ELLIPSE
5
FC
100
AcDbEntity
8
1
62
256
6
ByLayer
370
18
48
1
60
0
100
AcDbEllipse
10
109.211311
20
-67.211053
30
0
11
0.553909113601403
21
0.568527709412046
31
0
210
0
220
0
230
1
40
0.987534
41
-2.42779114026946
42
-0.246129575276539
0
ELLIPSE
5
FD
100
AcDbEntity
8
1
62
256
6
ByLayer
370
18
48
1
60
0
100
AcDbEllipse
10
97.404823
20
-66.187691
30
0
11
0.837405904027318
21
0.859506458323723
31
0
210
0
220
0
230
1
40
0.987534
41
-2.90775668456788
42
-2.42779114026944
0
ELLIPSE
5
FE
100
AcDbEntity
8
1
62
256
6
ByLayer
370
18
48
1
60
0
100
AcDbEllipse
10
102.70882
20
-57.366326
30
0
11
0.837405904027318
21
0.859506458323723
31
0
210
0
220
0
230
1
40
0.987534
41
-0.246129575276533
42
0.233835969021897
0
ELLIPSE
5
FF
100
AcDbEntity
8
1
62
256
6
ByLayer
370
18
48
1
60
0
100
AcDbEllipse
10
98.270015
20
-60.443824
30
0
11
-1.79902701715202
21
-1.84650637463214
31
0
210
0
220
0
230
1
40
0.987534
41
0.197685749738918
42
0.778645704010432
0
ELLIPSE
5
100
100
AcDbEntity
8
1
62
256
6
ByLayer
370
18
48
1
60
0
100
AcDbEllipse
10
98.270015
20
-60.443824
30
0
11
-1.79902701715202
21
-1.84650637463214
31
0
210
0
220
0
230
1
40
0.987534
41
2.5402342199512
42
2.94392883590487
0
ELLIPSE
5
101
100
AcDbEntity
8
1
62
256
6
ByLayer
370
18
48
1
60
0
100
AcDbEllipse
10
98.270015
20
-60.443824
30
0
11
-1.79902701715202
21
-1.84650637463214
31
0
210
0
220
0
230
1
40
0.987534
41
0.778646094366406
42
0.939101724495123
0
ELLIPSE
5
102
100
AcDbEntity
8
1
62
256
6
ByLayer
370
18
48
1
60
0
100
AcDbEllipse
10
101.992896
20
-56.66881
30
0
11
-0.837405904027316
21
-0.859506458323725
31
0
210
0
220
0
230
1
40
0.987534
41
3.14158803899793
42
-2.9077566845679
0
ELLIPSE
5
103
100
AcDbEntity
8
1
62
256
6
ByLayer
370
18
48
1
60
0
100
AcDbEllipse
10
98.98594
20
-61.141341
30
0
11
-1.79902701715202
21
-1.84650637463214
31
0
210
0
220
0
230
1
40
0.987534
41
0
42
6.28318530717959
0
ELLIPSE
5
104
100
AcDbEntity
8
1
62
256
6
ByLayer
370
18
48
1
60
0
100
AcDbEllipse
10
88.044645
20
-54.374112
30
0
11
-0.553909113601402
21
-0.568527709412047
31
0
210
0
220
0
230
1
40
0.987534
41
-2.42779114026944
42
-1.15189423843708
0
ELLIPSE
5
105
100
AcDbEntity
8
1
62
256
6
ByLayer
370
18
48
1
60
0
100
AcDbEllipse
10
88.76057
20
-55.071628
30
0
11
0.553909113601403
21
0.568527709412046
31
0
210
0
220
0
230
1
40
0.987534
41
0.713801513320353
42
2.78375570572605
0
ELLIPSE
5
106
100
AcDbEntity
8
1
62
256
6
ByLayer
370
18
48
1
60
0
100
AcDbEllipse
10
100.567058
20
-56.09499
30
0
11
0.837405904027318
21
0.859506458323723
31
0
210
0
220
0
230
1
40
0.987534
41
0.23383596902194
42
0.577716646210899
0
ELLIPSE
5
107
100
AcDbEntity
8
1
62
256
6
ByLayer
370
18
48
1
60
0
100
AcDbEllipse
10
95.26306
20
-64.916355
30
0
11
0.837405904027318
21
0.859506458323723
31
0
210
0
220
0
230
1
40
0.987534
41
2.89546307831326
42
-2.90775668456788
0
ELLIPSE
5
108
100
AcDbEntity
8
1
62
256
6
ByLayer
370
18
48
1
60
0
100
AcDbEllipse
10
82.962812
20
-46.052457
30
0
11
-0.234132644879989
21
-1.98624819813675
31
0
210
0
220
0
230
1
40
0.630857
41
-3.14157939472035
42
0
0
ELLIPSE
5
109
100
AcDbEntity
8
1
62
256
6
ByLayer
370
18
48
1
60
0
100
AcDbEllipse
10
82.962812
20
-46.052457
30
0
11
-0.234132644879989
21
-1.98624819813675
31
0
210
0
220
0
230
1
40
0.630857
41
2.19225606090623
42
2.82911594168844
0
ELLIPSE
5
10A
100
AcDbEntity
8
1
62
256
6
ByLayer
370
18
48
1
60
0
100
AcDbEllipse
10
82.962812
20
-46.052457
30
0
11
-0.234132644879989
21
-1.98624819813675
31
0
210
0
220
0
230
1
40
0.630857
41
0.312503538831949
42
0.949363038149641
0
ELLIPSE
5
10B
100
AcDbEntity
8
1
62
256
6
ByLayer
370
18
48
1
60
0
100
AcDbEllipse
10
83.348094
20
-46.097873
30
0
11
0.175599483659985
21
1.48968614860257
31
0
210
0
220
0
230
1
40
0.630857
41
0
42
6.28318530717959
0
ELLIPSE
5
10C
100
AcDbEntity
8
1
62
256
6
ByLayer
370
18
48
1
60
0
100
AcDbEllipse
10
96.726556
20
-42.966109
30
0
11
5.04868943694977
21
-1.44512907110776
31
-6.3404229024374E-15
210
-1.3497586769372E-15
220
-3.28060296983251E-16
230
-1
40
0.428454
41
2.23889305115196
42
-2.66847805559556
0
ELLIPSE
5
10D
100
AcDbEntity
8
1
62
256
6
ByLayer
370
18
48
1
60
0
100
AcDbEllipse
10
-7.094011
20
0
30
0
11
-23.4185446994542
21
-49.3543728818742
31
0
210
0
220
0
230
1
40
0.341999
41
2.04714540389044
42
2.98699413089088
0
ELLIPSE
5
10E
100
AcDbEntity
8
1
62
256
6
ByLayer
370
18
48
1
60
0
100
AcDbEllipse
10
87.049448
20
-46.534177
30
0
11
-2.10807705953177
21
-1.82362990596152
31
0
210
0
220
0
230
1
40
0.483886
41
1.00343025121073
42
1.7563232279544
0
ELLIPSE
5
10F
100
AcDbEntity
8
1
62
256
6
ByLayer
370
18
48
1
60
0
100
AcDbEllipse
10
92.344892
20
-41.711908
30
0
11
-0.619170740515192
21
-2.16312912099344
31
0
210
0
220
0
230
1
40
0.428454
41
0.823103972948286
42
1.58543337093924
0
ELLIPSE
5
110
100
AcDbEntity
8
1
62
256
6
ByLayer
370
18
48
1
60
0
100
AcDbEllipse
10
92.27329
20
-57.639992
30
0
11
1.8109284233536
21
1.858721879018
31
0
210
0
220
0
230
1
40
0.987534
41
2.55662966552154
42
2.89546307831326
0
ELLIPSE
5
111
100
AcDbEntity
8
1
62
256
6
ByLayer
370
18
48
1
60
0
100
AcDbEllipse
10
93.468
20
-53.784732
30
0
11
-0.0958602922482441
21
0.155667897638852
31
0
210
0
220
0
230
1
40
0.022144
41
-0.13052812703612
42
1.45190372815707
0
ELLIPSE
5
112
100
AcDbEntity
8
1
62
256
6
ByLayer
370
18
48
1
60
0
100
AcDbEllipse
10
89.566347
20
-53.284899
30
0
11
-1.68186799044757
21
-1.72625532359571
31
0
210
0
220
0
230
1
40
0.987534
41
-1.69013060296915
42
-0.246129575276553
0
ELLIPSE
5
113
100
AcDbEntity
8
1
62
256
6
ByLayer
370
18
48
1
60
0
100
AcDbEllipse
10
92.344892
20
-41.711908
30
0
11
0.550373991569054
21
1.92278144088306
31
0
210
0
220
0
230
1
40
0.428454
41
-2.39626086824568
42
-1.50429108623519
0
ELLIPSE
5
114
100
AcDbEntity
8
1
62
256
6
ByLayer
370
18
48
1
60
0
100
AcDbEllipse
10
39.649773
20
0
30
0
11
3.06151588455604E-15
21
50.0000000000015
31
0
210
0
220
0
230
1
40
0.087489
41
0.913734974610062
42
2.22785767897981
0
ELLIPSE
5
115
100
AcDbEntity
8
1
62
256
6
ByLayer
370
18
48
1
60
0
100
AcDbEllipse
10
84.917639
20
-46.282886
30
0
11
3.5420547163949
21
-0.417526188236231
31
-4.50415554929709E-15
210
-1.31117617553485E-15
220
-3.35553101166153E-16
230
-1
40
0.630857
41
-2.15960340860335
42
0.230723653886431
0
ELLIPSE
5
116
100
AcDbEntity
8
1
62
256
6
ByLayer
370
18
48
1
60
0
100
AcDbEllipse
10
85.310028
20
-60.255364
30
0
11
-5.38515918889396
21
-4.49027013885637
31
0
210
0
220
0
230
1
40
0.830524
41
-1.66114647660325
42
-0.518252395964632
0
ELLIPSE
5
117
100
AcDbEntity
8
1
62
256
6
ByLayer
370
18
48
1
60
0
100
AcDbEllipse
10
95.494236
20
-42.613371
30
0
11
-2.26592257100796
21
-1.514789522105
31
0
210
0
220
0
230
1
40
0.487236
41
-0.276709846262646
42
0.950793941625525
0
ELLIPSE
5
118
100
AcDbEntity
8
1
62
256
6
ByLayer
370
18
48
1
60
0
100
AcDbEllipse
10
39.094011
20
0
30
0
11
-23.4185446994546
21
49.3543728818748
31
0
210
0
220
0
230
1
40
0.341999
41
0.154598522698909
42
1.09444724969934
0
ELLIPSE
5
119
100
AcDbEntity
8
1
62
256
6
ByLayer
370
18
48
1
60
0
100
AcDbEllipse
10
84.917639
20
-46.282886
30
0
11
3.5420547163949
21
-0.417526188236231
31
-4.50415554929709E-15
210
-1.31117617553485E-15
220
-3.35553101166153E-16
230
-1
40
0.630857
41
0.983616630629632
42
2.15960340860335
0
ELLIPSE
5
11A
100
AcDbEntity
8
1
62
256
6
ByLayer
370
18
48
1
60
0
100
AcDbEllipse
10
39.094011
20
0
30
0
11
-23.418544699454
21
-49.3543728818739
31
0
210
0
220
0
230
1
40
0.341999
41
-1.09444724969936
42
-0.154598522698914
0
ELLIPSE
5
11B
100
AcDbEntity
8
1
62
256
6
ByLayer
370
18
48
1
60
0
100
AcDbEllipse
10
41.588591
20
0
30
0
11
3.92801344226718E-15
21
64.1514463812249
31
0
210
0
220
0
230
1
40
0.092562
41
2.24743839392244
42
2.40064663234077
0
ELLIPSE
5
11C
100
AcDbEntity
8
1
62
256
6
ByLayer
370
18
48
1
60
0
100
AcDbEllipse
10
-7.094011
20
0
30
0
11
-23.4185446994498
21
49.3543728818689
31
0
210
0
220
0
230
1
40
0.341999
41
-2.98699413089087
42
-2.04714540389036
0
ELLIPSE
5
11D
100
AcDbEntity
8
1
62
256
6
ByLayer
370
18
48
1
60
0
100
AcDbEllipse
10
90.15398
20
-52.780811
30
0
11
1.75165181578319
21
1.79788086178936
31
0
210
0
220
0
230
1
40
0.987534
41
-0.246129575276559
42
1.76491347273744
0
ELLIPSE
5
11E
100
AcDbEntity
8
1
62
256
6
ByLayer
370
18
48
1
60
0
100
AcDbEllipse
10
39.649773
20
0
30
0
11
3.07070043213028E-15
21
50.1499999987044
31
0
210
0
220
0
230
1
40
0.087489
41
0.491118749025526
42
0.75203828809622
0
ELLIPSE
5
11F
100
AcDbEntity
8
1
62
256
6
ByLayer
370
18
48
1
60
0
100
AcDbEllipse
10
83.733377
20
-46.143289
30
0
11
-0.263399225489987
21
-2.23452922290385
31
0
210
0
220
0
230
1
40
0.630857
41
0.241560106246212
42
2.90003191360989
0
ELLIPSE
5
120
100
AcDbEntity
8
1
62
256
6
ByLayer
370
18
48
1
60
0
100
AcDbEllipse
10
84.917639
20
-46.282886
30
0
11
3.14849308123991
21
-0.371134389543315
31
-4.00369382159742E-15
210
-1.31117617553485E-15
220
-3.35553101166153E-16
230
-1
40
0.630857
41
2.24565958537485
42
-2.24565958537485
0
ELLIPSE
5
121
100
AcDbEntity
8
1
62
256
6
ByLayer
370
18
48
1
60
0
100
AcDbEllipse
10
83.733377
20
-46.143289
30
0
11
0.234132644879979
21
1.98624819813675
31
0
210
0
220
0
230
1
40
0.630857
41
2.46672939500986
42
0.674863258579957
0
ELLIPSE
5
122
100
AcDbEntity
8
1
62
256
6
ByLayer
370
18
48
1
60
0
100
AcDbEllipse
10
93.894709
20
-60.288688
30
0
11
1.8109284233536
21
1.85872187901799
31
0
210
0
220
0
230
1
40
0.987534
41
2.89546307831325
42
-3.04699315801295
0
ELLIPSE
5
123
100
AcDbEntity
8
1
62
256
6
ByLayer
370
18
48
1
60
0
100
AcDbEllipse
10
83.358494
20
-58.908354
30
0
11
1.08513848396873
21
1.11377711891116
31
0
210
0
220
0
230
1
40
0.987534
41
-2.9208590317964
42
-2.71913301295432
0
ELLIPSE
5
124
100
AcDbEntity
8
1
62
256
6
ByLayer
370
18
48
1
60
0
100
AcDbEllipse
10
83.785231
20
-59.324117
30
0
11
1.08513848396873
21
1.11377711891116
31
0
210
0
220
0
230
1
40
0.987534
41
0.422459640635456
42
0.865517045845669
0
ELLIPSE
5
125
100
AcDbEntity
8
1
62
256
6
ByLayer
370
18
48
1
60
0
100
AcDbEllipse
10
83.809471
20
-59.347734
30
0
11
-1.34500711567848
21
-1.3805041221435
31
0
210
0
220
0
230
1
40
0.987534
41
0
42
6.28318530717959
0
ELLIPSE
5
126
100
AcDbEntity
8
1
62
256
6
ByLayer
370
18
48
1
60
0
100
AcDbEllipse
10
83.24575
20
-58.798509
30
0
11
-1.08513848396873
21
-1.11377711891116
31
0
210
0
220
0
230
1
40
0.987534
41
0.296864485000726
42
0.778646139552299
0
ELLIPSE
5
127
100
AcDbEntity
8
1
62
256
6
ByLayer
370
18
48
1
60
0
100
AcDbEllipse
10
83.24575
20
-58.798509
30
0
11
-1.08513848396873
21
-1.11377711891116
31
0
210
0
220
0
230
1
40
0.987534
41
0.778646139552299
42
2.96378221161994
0
ELLIPSE
5
128
100
AcDbEntity
8
1
62
256
6
ByLayer
370
18
48
1
60
0
100
AcDbEllipse
10
83.358494
20
-58.908354
30
0
11
1.08513848396873
21
1.11377711891116
31
0
210
0
220
0
230
1
40
0.987534
41
-2.27607560774414
42
-1.67193546175773
0
ELLIPSE
5
129
100
AcDbEntity
8
1
62
256
6
ByLayer
370
18
48
1
60
0
100
AcDbEllipse
10
83.785231
20
-59.324117
30
0
11
1.08513848396873
21
1.11377711891116
31
0
210
0
220
0
230
1
40
0.987534
41
1.46965719183208
42
1.91271459704226
0
ELLIPSE
5
12A
100
AcDbEntity
8
1
62
256
6
ByLayer
370
18
48
1
60
0
100
AcDbEllipse
10
83.358494
20
-58.908354
30
0
11
1.08513848396873
21
1.11377711891116
31
0
210
0
220
0
230
1
40
0.987534
41
-1.22887805654754
42
-0.624737910561119
0
ELLIPSE
5
12B
100
AcDbEntity
8
1
62
256
6
ByLayer
370
18
48
1
60
0
100
AcDbEllipse
10
83.785231
20
-59.324117
30
0
11
1.08513848396873
21
1.11377711891116
31
0
210
0
220
0
230
1
40
0.987534
41
-2.71913301295431
42
-2.27607560774413
0
ELLIPSE
5
12C
100
AcDbEntity
8
1
62
256
6
ByLayer
370
18
48
1
60
0
100
AcDbEllipse
10
83.785231
20
-59.324117
30
0
11
1.08513848396873
21
1.11377711891116
31
0
210
0
220
0
230
1
40
0.987534
41
-1.67193546175771
42
-1.22887805654753
0
ELLIPSE
5
12D
100
AcDbEntity
8
1
62
256
6
ByLayer
370
18
48
1
60
0
100
AcDbEllipse
10
83.785231
20
-59.324117
30
0
11
1.08513848396873
21
1.11377711891116
31
0
210
0
220
0
230
1
40
0.987534
41
2.51685474302868
42
2.95991214823886
0
ELLIPSE
5
12E
100
AcDbEntity
8
1
62
256
6
ByLayer
370
18
48
1
60
0
100
AcDbEllipse
10
83.358494
20
-58.908354
30
0
11
1.08513848396873
21
1.11377711891116
31
0
210
0
220
0
230
1
40
0.987534
41
-0.181680505350923
42
-0.0737472794630475
0
ELLIPSE
5
12F
100
AcDbEntity
8
1
62
256
6
ByLayer
370
18
48
1
60
0
100
AcDbEllipse
10
83.785231
20
-59.324117
30
0
11
1.08513848396873
21
1.11377711891116
31
0
210
0
220
0
230
1
40
0.987534
41
-0.624737910561119
42
-0.181680505350932
0
ELLIPSE
5
130
100
AcDbEntity
8
1
62
256
6
ByLayer
370
18
48
1
60
0
100
AcDbEllipse
10
83.809471
20
-59.347734
30
0
11
-2.25750674960697
21
-2.31708616056438
31
0
210
0
220
0
230
1
40
0.987534
41
0
42
6.28318530717959
0
ELLIPSE
5
131
100
AcDbEntity
8
1
62
256
6
ByLayer
370
18
48
1
60
0
100
AcDbEllipse
10
83.723222
20
-59.263703
30
0
11
-2.79135301342439
21
-2.86502152774575
31
0
210
0
220
0
230
1
40
0.987534
41
0
42
6.28318530717959
0
ELLIPSE
5
132
100
AcDbEntity
8
1
62
256
6
ByLayer
370
18
48
1
60
0
100
AcDbEllipse
10
97.621737
20
-59.812215
30
0
11
1.93650115306317
21
1.98760868487361
31
0
210
0
220
0
230
1
40
0.987534
41
-2.67925806056251
42
-2.43413000283923
0
ELLIPSE
5
133
100
AcDbEntity
8
1
62
256
6
ByLayer
370
18
48
1
60
0
100
AcDbEllipse
10
97.621737
20
-59.812215
30
0
11
1.93650115306317
21
1.98760868487361
31
0
210
0
220
0
230
1
40
0.987534
41
-0.679910181059992
42
-0.462364054233976
0
ELLIPSE
5
134
100
AcDbEntity
8
1
62
256
6
ByLayer
370
18
48
1
60
0
100
AcDbEllipse
10
98.69557
20
-61.47227
30
0
11
-1.81437945872585
21
-1.86226399303474
31
0
210
0
220
0
230
1
40
0.987534
41
2.78339497029965
42
-1.65282417772456
0
ELLIPSE
5
135
100
AcDbEntity
8
1
62
256
6
ByLayer
370
18
48
1
60
0
100
AcDbEllipse
10
98.876128
20
-60.420022
30
0
11
1.60502798271903
21
1.6473873784538
31
0
210
0
220
0
230
1
40
0.987534
41
2.79643917133015
42
-1.508462484849
0
ELLIPSE
5
136
100
AcDbEntity
8
1
62
256
6
ByLayer
370
18
48
1
60
0
100
AcDbEllipse
10
98.842305
20
-60.387069
30
0
11
-1.81437945872585
21
-1.86226399303474
31
0
210
0
220
0
230
1
40
0.987534
41
-0.358197683290137
42
1.64617436977129
0
ELLIPSE
5
137
100
AcDbEntity
8
1
62
256
6
ByLayer
370
18
48
1
60
0
100
AcDbEllipse
10
98.768938
20
-60.92967
30
0
11
-1.63991989538683
21
-1.68320014755063
31
0
210
0
220
0
230
1
40
0.987534
41
1.84469167988709
42
2.58487766018386
0
ELLIPSE
5
138
100
AcDbEntity
8
1
62
256
6
ByLayer
370
18
48
1
60
0
100
AcDbEllipse
10
98.802761
20
-60.962623
30
0
11
1.43056841938
21
1.46832353296969
31
0
210
0
220
0
230
1
40
0.987534
41
1.8592247696727
42
2.57034457039822
0
ELLIPSE
5
139
100
AcDbEntity
8
1
62
256
6
ByLayer
370
18
48
1
60
0
100
AcDbEllipse
10
98.802761
20
-60.962623
30
0
11
1.43056841938
21
1.46832353296969
31
0
210
0
220
0
230
1
40
0.987534
41
-1.28236788391709
42
-0.571248083191535
0
ELLIPSE
5
13A
100
AcDbEntity
8
1
62
256
6
ByLayer
370
18
48
1
60
0
100
AcDbEllipse
10
98.729394
20
-61.505224
30
0
11
1.60502798271903
21
1.6473873784538
31
0
210
0
220
0
230
1
40
0.987534
41
-0.345153482259639
42
1.63313016874078
0
ELLIPSE
5
13B
100
AcDbEntity
8
1
62
256
6
ByLayer
370
13
48
1
60
0
100
AcDbEllipse
10
98.109301
20
-60.901076
30
0
11
1.81437945872586
21
1.86226399303474
31
0
210
0
220
0
230
1
40
0.987534
41
7.05116821399667E-06
42
0.297857775020103
0
ELLIPSE
5
13C
100
AcDbEntity
8
1
62
256
6
ByLayer
370
18
48
1
60
0
100
AcDbEllipse
10
98.768938
20
-60.92967
30
0
11
-1.63991989538683
21
-1.68320014755063
31
0
210
0
220
0
230
1
40
0.987534
41
-0.795020022006795
42
-0.556714993405936
0
ELLIPSE
5
13D
100
AcDbEntity
8
1
62
256
6
ByLayer
370
13
48
1
60
0
100
AcDbEllipse
10
97.416009
20
-59.611529
30
0
11
-1.98883902206488
21
-2.04132783851885
31
0
210
0
220
0
230
1
40
0.987534
41
2.47720644449259
42
2.61081281391042
0
ELLIPSE
5
13E
100
AcDbEntity
8
1
62
256
6
ByLayer
370
13
48
1
60
0
100
AcDbEllipse
10
97.416009
20
-59.611529
30
0
11
-1.98883902206488
21
-2.04132783851885
31
0
210
0
220
0
230
1
40
0.987534
41
0.530600807443769
42
0.719725487818459
0
POINT
5
6C
100
AcDbEntity
8
1
62
256
6
ByLayer
370
18
48
1
60
1
100
AcDbPoint
10
134.148105
20
72.122059
30
0
39
0
210
0
220
0
230
1
50
360
0
POINT
5
6E
100
AcDbEntity
8
81
62
256
6
ByLayer
370
18
48
1
60
0
100
AcDbPoint
10
110
20
-68
30
0
39
0
210
0
220
0
230
1
50
360
0
POINT
5
70
100
AcDbEntity
8
80
62
256
6
ByLayer
370
18
48
1
60
0
100
AcDbPoint
10
0
20
0
30
0
39
0
210
0
220
0
230
1
50
360
0
SPLINE
5
13F
100
AcDbEntity
8
1
62
256
6
ByLayer
370
18
48
1
60
0
100
AcDbSpline
70
4
71
3
72
16
73
12
40
0
40
0
40
0
40
0
40
0.25
40
0.25
40
0.5
40
0.5
40
0.75
40
0.75
40
0.875
40
0.875
40
1
40
1
40
1
40
1
41
1
10
18.6443375672974
20
-15.5133461831291
30
0
41
1
10
18.628663043577
20
-15.4563493271806
30
0
41
1
10
18.609922401016
20
-15.400478236028
30
0
41
1
10
18.5642089472352
20
-15.2917910897776
30
0
41
1
10
18.5371631998437
20
-15.2385985420776
30
0
41
1
10
18.4704947598566
20
-15.1387566028336
30
0
41
1
10
18.4307979975499
20
-15.0918966685263
30
0
41
1
10
18.3582709830991
20
-15.0372961905783
30
0
41
1
10
18.3313299686496
20
-15.021491213259
30
0
41
1
10
18.273779935704
20
-14.9994509315928
30
0
41
1
10
18.2427481222218
20
-14.9931545155675
30
0
41
1
10
18.2113248654052
20
-14.9931545155675
30
0
0
SPLINE
5
140
100
AcDbEntity
8
SK1
62
256
6
ByLayer
370
18
48
1
60
0
100
AcDbSpline
70
4
71
3
72
13
73
9
40
0
40
0
40
0
40
0
40
0.239456135431713
40
0.368359721496778
40
0.49999898354945
40
0.631638414854584
40
0.760542467458086
40
1
40
1
40
1
40
1
41
1
10
-2.19999999999999
20
-36.0200987271898
30
0
41
1
10
-2.19909198641736
20
-35.9940412511454
30
0
41
1
10
-2.19103284106402
20
-35.9566686669139
30
0
41
1
10
-2.1656359220267
20
-35.910449493221
30
0
41
1
10
-2.13886378678384
20
-35.8791679394552
30
0
41
1
10
-2.10627712748928
20
-35.8540005693299
30
0
41
1
10
-2.05884064232757
20
-35.8309567669303
30
0
41
1
10
-2.02111030872334
20
-35.8247845119233
30
0
41
1
10
-1.99503997793928
20
-35.8251861518663
30
0
0
SPLINE
5
141
100
AcDbEntity
8
SK1
62
256
6
ByLayer
370
18
48
1
60
0
100
AcDbSpline
70
4
71
3
72
13
73
9
40
0
40
0
40
0
40
0
40
0.239457083710358
40
0.368360982147241
40
0.500000353901832
40
0.631639666585078
40
0.760543402302736
40
1
40
1
40
1
40
1
41
1
10
-1.99503997793928
20
35.8251853523287
30
0
41
1
10
-2.02111031829241
20
35.8247837166445
30
0
41
1
10
-2.05884066056871
20
35.8309559959591
30
0
41
1
10
-2.10627714095568
20
35.8539998944633
30
0
41
1
10
-2.13886379933877
20
35.8791673697464
30
0
41
1
10
-2.16563593150627
20
35.91044905139
30
0
41
1
10
-2.19103284825076
20
35.9566684187018
30
0
41
1
10
-2.19909199362428
20
35.994041143702
30
0
41
1
10
-2.19999999999999
20
36.020098714425
30
0
0
SPLINE
5
142
100
AcDbEntity
8
SK1
62
256
6
ByLayer
370
18
48
1
60
0
100
AcDbSpline
70
4
71
2
72
6
73
3
40
0
40
0
40
0
40
1
40
1
40
1
41
1
10
-58
20
-34.5974227787245
30
0
41
1
10
-30.1000000000001
20
-35.2979624159373
30
0
41
1
10
-2.19999999999999
20
-35.9985021134432
30
0
0
SPLINE
5
143
100
AcDbEntity
8
SK1
62
256
6
ByLayer
370
18
48
1
60
0
100
AcDbSpline
70
4
71
2
72
6
73
3
40
0
40
0
40
0
40
1
40
1
40
1
41
1
10
-2.19999999999999
20
35.9985019194102
30
0
41
1
10
-30.1000000000006
20
35.2979600359713
30
0
41
1
10
-58
20
34.5974182144316
30
0
0
SPLINE
5
144
100
AcDbEntity
8
SK1
62
256
6
ByLayer
370
18
48
1
60
0
100
AcDbSpline
70
4
71
2
72
6
73
3
40
0
40
0
40
0
40
1
40
1
40
1
41
1
10
-1.99503997793928
20
-35.8251737766339
30
0
41
1
10
-1.19500843340728
20
-35.845273220757
30
0
41
1
10
-0.394976888875277
20
-35.8653726648781
30
0
0
SPLINE
5
145
100
AcDbEntity
8
SK1
62
256
6
ByLayer
370
18
48
1
60
0
100
AcDbSpline
70
4
71
2
72
6
73
3
40
0
40
0
40
0
40
1
40
1
40
1
41
1
10
-0.394976888875277
20
35.8653720513261
30
0
41
1
10
-1.19500843340728
20
35.8452725233881
30
0
41
1
10
-1.99503997793928
20
35.8251729954496
30
0
0
SPLINE
5
146
100
AcDbEntity
8
SK1
62
256
6
ByLayer
370
18
48
1
60
0
100
AcDbSpline
70
4
71
3
72
18
73
14
40
0
40
0
40
0
40
0
40
0.0238680836231853
40
0.16703174546849
40
0.303127045673582
40
0.431137366879567
40
0.550050200381907
40
0.658845501822092
40
0.756507385507379
40
0.842024318110148
40
0.914372113524861
40
0.972537179066192
40
1
40
1
40
1
40
1
41
1
10
-0.316274276857399
20
-31.835874962115
30
0
41
1
10
-0.315573046331622
20
-31.7764142764334
30
0
41
1
10
-0.310661201273632
20
-31.3535407575479
30
0
41
1
10
-0.301652430458375
20
-30.4567632773511
30
0
41
1
10
-0.289515938333835
20
-29.1730158558353
30
0
41
1
10
-0.278044519899169
20
-27.8485641291089
30
0
41
1
10
-0.267342968562445
20
-26.531379082703
30
0
41
1
10
-0.257486044699988
20
-25.2518822385774
30
0
41
1
10
-0.248513687350283
20
-24.0446672603966
30
0
41
1
10
-0.240499082338999
20
-22.9430945688711
30
0
41
1
10
-0.233335016784309
20
-21.979215141918
30
0
41
1
10
-0.227896495626538
20
-21.2563198995731
30
0
41
1
10
-0.224266372633281
20
-20.8570001386195
30
0
41
1
10
-0.223057362643431
20
-20.7282035762363
30
0
0
SPLINE
5
147
100
AcDbEntity
8
SK1
62
256
6
ByLayer
370
18
48
1
60
0
100
AcDbSpline
70
4
71
3
72
18
73
14
40
0
40
0
40
0
40
0
40
0.0332702333776987
40
0.0868220390829336
40
0.149382557452941
40
0.220421019401621
40
0.320325642939495
40
0.431608091783224
40
0.553225121477515
40
0.684139427054784
40
0.823317874181877
40
0.969718168778724
40
1
40
1
40
1
40
1
41
1
10
-0.22607120224032
20
20.5317121676827
30
0
41
1
10
-0.22731508724587
20
20.6887672729245
30
0
41
1
10
-0.230476214451698
20
21.09577893609
30
0
41
1
10
-0.235378669690789
20
21.7825950487005
30
0
41
1
10
-0.241303328159688
20
22.6236597580638
30
0
41
1
10
-0.248447678525906
20
23.6432287571014
30
0
41
1
10
-0.25691372125857
20
24.8292978202269
30
0
41
1
10
-0.266776783525216
20
26.1594015757392
30
0
41
1
10
-0.277495235942979
20
27.5285782927545
30
0
41
1
10
-0.288996119604548
20
28.904971369175
30
0
41
1
10
-0.301174642993317
20
30.2401319088027
30
0
41
1
10
-0.310389087089902
20
31.1875253281617
30
0
41
1
10
-0.315493453763992
20
31.6421584856919
30
0
41
1
10
-0.316367398670252
20
31.7185688341613
30
0
0
SPLINE
5
148
100
AcDbEntity
8
SK1
62
256
6
ByLayer
370
18
48
1
60
0
100
AcDbSpline
70
4
71
2
72
6
73
3
40
0
40
0
40
0
40
1
40
1
40
1
41
1
10
-58
20
34.6180228183431
30
0
41
1
10
-59.0000000015329
20
34.0406784545941
30
0
41
1
10
-60
20
33.4633340188487
30
0
0
SPLINE
5
149
100
AcDbEntity
8
SK1
62
256
6
ByLayer
370
18
48
1
60
0
100
AcDbSpline
70
4
71
2
72
6
73
3
40
0
40
0
40
0
40
1
40
1
40
1
41
1
10
-60
20
-33.4633429309406
30
0
41
1
10
-58.9999999990911
20
-34.0406853811666
30
0
41
1
10
-58
20
-34.6180277609944
30
0
0
SPLINE
5
14A
100
AcDbEntity
8
1
62
256
6
ByLayer
370
18
48
1
60
0
100
AcDbSpline
70
4
71
3
72
16
73
12
40
0
40
0
40
0
40
0
40
0.125000000000002
40
0.125000000000002
40
0.250000000000003
40
0.250000000000003
40
0.500000000000002
40
0.500000000000002
40
0.750000000000001
40
0.750000000000001
40
1
40
1
40
1
40
1
41
1
10
18.2113248654052
20
-47.6991123363141
30
0
41
1
10
18.2427942539064
20
-47.6991123363141
30
0
41
1
10
18.2734136750629
20
-47.6971731220929
30
0
41
1
10
18.3314372006436
20
-47.6901896918971
30
0
41
1
10
18.357828126527
20
-47.685321932856
30
0
41
1
10
18.4315232223568
20
-47.6678096320571
30
0
41
1
10
18.4705132203231
20
-47.6531212535631
30
0
41
1
10
18.5371475309552
20
-47.6213036484293
30
0
41
1
10
18.5639668420205
20
-47.6044110998707
30
0
41
1
10
18.6097706080257
20
-47.5693355727223
30
0
41
1
10
18.6286574316483
20
-47.5510829903643
30
0
41
1
10
18.6443375672975
20
-47.5324740593459
30
0
0
SPLINE
5
14B
100
AcDbEntity
8
SK1
62
256
6
ByLayer
370
18
48
1
60
0
100
AcDbSpline
70
4
71
3
72
316
73
312
40
0
40
0
40
0
40
0
40
0.0029467455977143
40
0.006447121224327
40
0.0099474968509397
40
0.0134478724775524
40
0.0169482481041652
40
0.0204486237307779
40
0.0239489993573906
40
0.0274493749840034
40
0.0309497506106161
40
0.0344501262372288
40
0.0379505018638415
40
0.044951253117067
40
0.0484516287436798
40
0.0519520043702925
40
0.0554523799969051
40
0.0589527556235179
40
0.0624531312501306
40
0.0659535068767434
40
0.0694538825033561
40
0.0729542581299688
40
0.0764546337565815
40
0.0799550093831943
40
0.0869557606364198
40
0.0904561362630325
40
0.0922063240763389
40
0.0939565118896453
40
0.097456887516258
40
0.100957263142871
40
0.107958014396096
40
0.111458390022709
40
0.114958765649322
40
0.121959516902547
40
0.128960268155772
40
0.132460643782385
40
0.135961019408998
40
0.139461395035611
40
0.142961770662223
40
0.149962521915449
40
0.156963273168674
40
0.160463648795287
40
0.1639640244219
40
0.170964775675125
40
0.177965526928351
40
0.184966278181576
40
0.188466653808189
40
0.191967029434802
40
0.195467405061414
40
0.198967780688027
40
0.205968531941253
40
0.212969283194478
40
0.216469658821091
40
0.219970034447703
40
0.223470410074316
40
0.226970785700929
40
0.233971536954154
40
0.24097228820738
40
0.247973039460605
40
0.251473415087218
40
0.254973790713831
40
0.261974541967056
40
0.268975293220282
40
0.272475668846894
40
0.275976044473507
40
0.27947642010012
40
0.282976795726733
40
0.289977546979958
40
0.293477922606571
40
0.296978298233184
40
0.300478673859796
40
0.303979049486409
40
0.310979800739634
40
0.314480176366247
40
0.31798055199286
40
0.321480927619473
40
0.324981303246085
40
0.331982054499311
40
0.335482430125923
40
0.338982805752536
40
0.342483181379149
40
0.345983557005762
40
0.347733744819068
40
0.349483932632374
40
0.352984308258987
40
0.3564846838856
40
0.359985059512212
40
0.363485435138825
40
0.366985810765438
40
0.370486186392051
40
0.373986562018663
40
0.37573674983197
40
0.377486937645276
40
0.380987313271889
40
0.384487688898502
40
0.387988064525114
40
0.391488440151727
40
0.39498881577834
40
0.398489191404953
40
0.401989567031565
40
0.405489942658178
40
0.408990318284791
40
0.412490693911404
40
0.415991069538016
40
0.419491445164629
40
0.422991820791242
40
0.426492196417855
40
0.429992572044467
40
0.431742759857774
40
0.43349294767108
40
0.436993323297693
40
0.440493698924305
40
0.442243886737612
40
0.443994074550918
40
0.447494450177531
40
0.450994825804144
40
0.45274501361745
40
0.454495201430756
40
0.456245389244063
40
0.457995577057369
40
0.459745764870675
40
0.461495952683982
40
0.462371046590635
40
0.463246140497288
40
0.464996328310595
40
0.465871422217248
40
0.466746516123901
40
0.468496703937207
40
0.470246891750514
40
0.471121985657167
40
0.47199707956382
40
0.472872173470473
40
0.473747267377126
40
0.475497455190433
40
0.476372549097086
40
0.477247643003739
40
0.478122736910392
40
0.478997830817045
40
0.479872924723699
40
0.480748018630352
40
0.482498206443658
40
0.483373300350311
40
0.484248394256965
40
0.485998582070271
40
0.486873675976924
40
0.487748769883577
40
0.48862386379023
40
0.489498957696884
40
0.49124914551019
40
0.492999333323496
40
0.49387442723015
40
0.494749521136803
40
0.495624615043456
40
0.496499708950109
40
0.498249896763415
40
0.499124990670069
40
0.500000084576722
40
0.500875178483375
40
0.501750272390028
40
0.503500460203335
40
0.504375554109988
40
0.505250648016641
40
0.506125741923294
40
0.507000835829947
40
0.508751023643254
40
0.51050121145656
40
0.511376305363213
40
0.512251399269866
40
0.51312649317652
40
0.514001587083173
40
0.515751774896479
40
0.517501962709785
40
0.519252150523092
40
0.521002338336398
40
0.522752526149704
40
0.523627620056358
40
0.524502713963011
40
0.525377807869664
40
0.526252901776317
40
0.527127995682971
40
0.528003089589624
40
0.528878183496277
40
0.52975327740293
40
0.531503465216236
40
0.533253653029543
40
0.534128746936196
40
0.535003840842849
40
0.536754028656155
40
0.537629122562809
40
0.538504216469462
40
0.540254404282768
40
0.542004592096074
40
0.543754779909381
40
0.545504967722687
40
0.547255155535994
40
0.5490053433493
40
0.552505718975913
40
0.556006094602526
40
0.557756282415832
40
0.559506470229138
40
0.563006845855751
40
0.566507221482364
40
0.56825740929567
40
0.570007597108977
40
0.573507972735589
40
0.575258160548896
40
0.577008348362202
40
0.580508723988815
40
0.584009099615428
40
0.58750947524204
40
0.591009850868653
40
0.594510226495266
40
0.596260414308572
40
0.598010602121878
40
0.601510977748491
40
0.605011353375104
40
0.608511729001716
40
0.612012104628329
40
0.615512480254942
40
0.619012855881555
40
0.622513231508167
40
0.62601360713478
40
0.629513982761393
40
0.633014358388006
40
0.636514734014618
40
0.640015109641231
40
0.647015860894457
40
0.650516236521069
40
0.652266424334376
40
0.654016612147682
40
0.657516987774295
40
0.661017363400907
40
0.66451773902752
40
0.668018114654133
40
0.675018865907358
40
0.678519241533971
40
0.682019617160584
40
0.685519992787197
40
0.689020368413809
40
0.696021119667035
40
0.699521495293647
40
0.70302187092026
40
0.706522246546873
40
0.710022622173486
40
0.717023373426711
40
0.720523749053324
40
0.724024124679936
40
0.727524500306549
40
0.731024875933162
40
0.738025627186387
40
0.745026378439613
40
0.748526754066226
40
0.752027129692838
40
0.759027880946064
40
0.766028632199289
40
0.773029383452515
40
0.776529759079128
40
0.78003013470574
40
0.783530510332353
40
0.787030885958966
40
0.794031637212191
40
0.801032388465417
40
0.804532764092029
40
0.808033139718642
40
0.811533515345255
40
0.815033890971868
40
0.822034642225093
40
0.829035393478319
40
0.836036144731544
40
0.839536520358157
40
0.843036895984769
40
0.850037647237995
40
0.85703839849122
40
0.860538774117833
40
0.864039149744446
40
0.867539525371058
40
0.871039900997671
40
0.878040652250897
40
0.885041403504122
40
0.888541779130735
40
0.892042154757347
40
0.899042906010573
40
0.902543281637186
40
0.906043657263798
40
0.907793845077105
40
0.909544032890411
40
0.913044408517024
40
0.920045159770249
40
0.923545535396862
40
0.927045911023475
40
0.930546286650088
40
0.9340466622767
40
0.937547037903313
40
0.941047413529926
40
0.944547789156539
40
0.948048164783151
40
0.951548540409764
40
0.955048916036377
40
0.95854929166299
40
0.962049667289602
40
0.965550042916215
40
0.969050418542828
40
0.97255079416944
40
0.976051169796053
40
0.979551545422666
40
0.983051921049278
40
0.986552296675891
40
0.990052672302504
40
0.993553047929117
40
0.997053423555729
40
1
40
1
40
1
40
1
41
1
10
-58
20
-34.6073168851464
30
0
41
1
10
-58
20
-34.6043670251166
30
0
41
1
10
-58
20
-34.5966211280956
30
0
41
1
10
-58
20
-34.580379744722
30
0
41
1
10
-58
20
-34.5584075309985
30
0
41
1
10
-58
20
-34.5316962075247
30
0
41
1
10
-58
20
-34.5003280118181
30
0
41
1
10
-58
20
-34.4643818052429
30
0
41
1
10
-58
20
-34.4239333421725
30
0
41
1
10
-58
20
-34.3790530583999
30
0
41
1
10
-58
20
-34.3298111043331
30
0
41
1
10
-58
20
-34.2762712843075
30
0
41
1
10
-58
20
-34.1990832647149
30
0
41
1
10
-58
20
-34.1140343541299
30
0
41
1
10
-58
20
-34.020357330257
30
0
41
1
10
-58
20
-33.9462206251882
30
0
41
1
10
-58
20
-33.8681273926076
30
0
41
1
10
-58
20
-33.7861247188261
30
0
41
1
10
-58
20
-33.7002599502328
30
0
41
1
10
-58
20
-33.6105785465519
30
0
41
1
10
-58
20
-33.5171241473591
30
0
41
1
10
-58
20
-33.4199387593896
30
0
41
1
10
-58
20
-33.3190628604087
30
0
41
1
10
-57.9999999999999
20
-33.1794476388674
30
0
41
1
10
-58
20
-33.0333547758038
30
0
41
1
10
-58
20
-32.8987588752027
30
0
41
1
10
-58
20
-32.8200332868943
30
0
41
1
10
-58
20
-32.7401409674119
30
0
41
1
10
-58
20
-32.6384072676334
30
0
41
1
10
-58
20
-32.4705455117827
30
0
41
1
10
-58
20
-32.2967149943326
30
0
41
1
10
-58
20
-32.115311722464
30
0
41
1
10
-58
20
-31.9294644717604
30
0
41
1
10
-58
20
-31.6895938369171
30
0
41
1
10
-58
20
-31.438923757912
30
0
41
1
10
-58
20
-31.2314087120365
30
0
41
1
10
-58
20
-31.0728429072979
30
0
41
1
10
-58
20
-30.9111259319957
30
0
41
1
10
-58
20
-30.6909862066612
30
0
41
1
10
-58
20
-30.4088224417549
30
0
41
1
10
-58
20
-30.1164546526888
30
0
41
1
10
-58
20
-29.8758448277822
30
0
41
1
10
-58
20
-29.631215171604
30
0
41
1
10
-58
20
-29.3188018386774
30
0
41
1
10
-58
20
-28.9316246696634
30
0
41
1
10
-58
20
-28.5996384834264
30
0
41
1
10
-58
20
-28.3275282615774
30
0
41
1
10
-58
20
-28.1208773935264
30
0
41
1
10
-58
20
-27.9113636298593
30
0
41
1
10
-58
20
-27.6277846867341
30
0
41
1
10
-58
20
-27.267199029797
30
0
41
1
10
-58
20
-26.8972638515592
30
0
41
1
10
-58
20
-26.5949314963246
30
0
41
1
10
-58
20
-26.3657553019254
30
0
41
1
10
-58
20
-26.1338196224207
30
0
41
1
10
-58
20
-25.820433050224
30
0
41
1
10
-58
20
-25.422941673079
30
0
41
1
10
-58
20
-24.934505910954
30
0
41
1
10
-58
20
-24.5190021187452
30
0
41
1
10
-58
20
-24.1803157154495
30
0
41
1
10
-58
20
-23.8380720492418
30
0
41
1
10
-58
20
-23.4048307950686
30
0
41
1
10
-58
20
-22.9627941997736
30
0
41
1
10
-58
20
-22.6029074150481
30
0
41
1
10
-58
20
-22.3308053593404
30
0
41
1
10
-58
20
-22.056095857614
30
0
41
1
10
-58
20
-21.685762561249
30
0
41
1
10
-58
20
-21.3120431735846
30
0
41
1
10
-58
20
-20.9313332310817
30
0
41
1
10
-58
20
-20.6436975341919
30
0
41
1
10
-58
20
-20.3534974164195
30
0
41
1
10
-57.9999999999999
20
-19.9625129981162
30
0
41
1
10
-58
20
-19.5683935682398
30
0
41
1
10
-58
20
-19.1671855328673
30
0
41
1
10
-58
20
-18.8642617520243
30
0
41
1
10
-58
20
-18.5588120799026
30
0
41
1
10
-58
20
-18.1474824557211
30
0
41
1
10
-58
20
-17.7332927565035
30
0
41
1
10
-58
20
-17.3118754472546
30
0
41
1
10
-58
20
-16.9938869670337
30
0
41
1
10
-58
20
-16.6734094787226
30
0
41
1
10
-58
20
-16.4046647522578
30
0
41
1
10
-58
20
-16.1877136527783
30
0
41
1
10
-58
20
-15.9699409152237
30
0
41
1
10
-58
20
-15.6971014285855
30
0
41
1
10
-58
20
-15.3667286289814
30
0
41
1
10
-58
20
-15.0338987189648
30
0
41
1
10
-58
20
-14.6986181938836
30
0
41
1
10
-58
20
-14.3608942162371
30
0
41
1
10
-58
20
-14.0207356013197
30
0
41
1
10
-58
20
-13.7357042566718
30
0
41
1
10
-58
20
-13.5056252380648
30
0
41
1
10
-58
20
-13.2747453101745
30
0
41
1
10
-58
20
-12.9857331103651
30
0
41
1
10
-58
20
-12.6359214941672
30
0
41
1
10
-58
20
-12.2837204653535
30
0
41
1
10
-58
20
-11.9291438609311
30
0
41
1
10
-58
20
-11.5722027534516
30
0
41
1
10
-58
20
-11.2129126489514
30
0
41
1
10
-58
20
-10.851288265045
30
0
41
1
10
-58
20
-10.4873474239449
30
0
41
1
10
-58
20
-10.1211093378308
30
0
41
1
10
-58
20
-9.75259557230211
30
0
41
1
10
-58
20
-9.38183075865135
30
0
41
1
10
-58
20
-9.00884209524722
30
0
41
1
10
-58
20
-8.63366100346425
30
0
41
1
10
-58
20
-8.25632291017834
30
0
41
1
10
-58
20
-7.94080702479252
30
0
41
1
10
-58
20
-7.68603127322149
30
0
41
1
10
-58
20
-7.43059597795099
30
0
41
1
10
-58
20
-7.1118012915515
30
0
41
1
10
-58
20
-6.79132960033485
30
0
41
1
10
-58
20
-6.5325162463362
30
0
41
1
10
-58
20
-6.273115888148
30
0
41
1
10
-58
20
-5.94973662395358
30
0
41
1
10
-57.9999999999999
20
-5.62487008150853
30
0
41
1
10
-58
20
-5.36246930605512
30
0
41
1
10
-58
20
-5.1660332078601
30
0
41
1
10
-58
20
-4.96923221655041
30
0
41
1
10
-57.9999999999999
20
-4.77207761728613
30
0
41
1
10
-58
20
-4.57459570619071
30
0
41
1
10
-58
20
-4.41029804681102
30
0
41
1
10
-58
20
-4.27771653655563
30
0
41
1
10
-58
20
-4.14506100143927
30
0
41
1
10
-58
20
-4.0139942089489
30
0
41
1
10
-58
20
-3.88103633021697
30
0
41
1
10
-58
20
-3.74801883117274
30
0
41
1
10
-58
20
-3.58299633989344
30
0
41
1
10
-58
20
-3.41778425796449
30
0
41
1
10
-58
20
-3.28439014192511
30
0
41
1
10
-58
20
-3.18480948837242
30
0
41
1
10
-58
20
-3.08519574611896
30
0
41
1
10
-57.9999999999999
20
-2.95167230604005
30
0
41
1
10
-58
20
-2.82015553447042
30
0
41
1
10
-58
20
-2.68650643512569
30
0
41
1
10
-58
20
-2.58679151495221
30
0
41
1
10
-58
20
-2.4870743352985
30
0
41
1
10
-58
20
-2.38736175207308
30
0
41
1
10
-58
20
-2.28764244667343
30
0
41
1
10
-58
20
-2.15394245955966
30
0
41
1
10
-58
20
-2.02257380819526
30
0
41
1
10
-58
20
-1.88886587056905
30
0
41
1
10
-58
20
-1.75519681152264
30
0
41
1
10
-58
20
-1.62400929858032
30
0
41
1
10
-58
20
-1.49038261723348
30
0
41
1
10
-58
20
-1.39082936054339
30
0
41
1
10
-58
20
-1.29130628126836
30
0
41
1
10
-58
20
-1.15779757822995
30
0
41
1
10
-58
20
-0.9929588226058
30
0
41
1
10
-58
20
-0.82819256637066
30
0
41
1
10
-58
20
-0.694823557694633
30
0
41
1
10
-58
20
-0.595510286532402
30
0
41
1
10
-58
20
-0.496219744531999
30
0
41
1
10
-58
20
-0.362942864386582
30
0
41
1
10
-58
20
-0.232469995259635
30
0
41
1
10
-58
20
-0.0992273398984196
30
0
41
1
10
-58
20
-1.63799996E-08
30
0
41
1
10
-58
20
0.0992273272949546
30
0
41
1
10
-58
20
0.23246997553062
30
0
41
1
10
-58
20
0.362942837222562
30
0
41
1
10
-58
20
0.496219754320634
30
0
41
1
10
-58
20
0.595510259634295
30
0
41
1
10
-58
20
0.694823517971344
30
0
41
1
10
-58
20
0.82819254820626
30
0
41
1
10
-58
20
0.992958818913337
30
0
41
1
10
-58
20
1.15779757169764
30
0
41
1
10
-58
20
1.29130620551007
30
0
41
1
10
-58
20
1.39082935616079
30
0
41
1
10
-58
20
1.49038258437861
30
0
41
1
10
-58
20
1.62400964435554
30
0
41
1
10
-58
20
1.78925716601179
30
0
41
1
10
-58
20
1.98859069176865
30
0
41
1
10
-58
20
2.18798792525021
30
0
41
1
10
-58
20
2.38741878390209
30
0
41
1
10
-58
20
2.55285553128314
30
0
41
1
10
-58
20
2.68650877066611
30
0
41
1
10
-58
20
2.78620371303606
30
0
41
1
10
-58
20
2.88588197147467
30
0
41
1
10
-58
20
2.98554870608604
30
0
41
1
10
-58
20
3.08519524226034
30
0
41
1
10
-58
20
3.18480940383554
30
0
41
1
10
-58
20
3.28439024486022
30
0
41
1
10
-58
20
3.41778425791253
30
0
41
1
10
-58
20
3.58299612267842
30
0
41
1
10
-58
20
3.74801862180837
30
0
41
1
10
-58
20
3.88103632788403
30
0
41
1
10
-58
20
4.01399439838318
30
0
41
1
10
-58
20
4.14506122516991
30
0
41
1
10
-58
20
4.27771663526576
30
0
41
1
10
-58
20
4.41029793772168
30
0
41
1
10
-58
20
4.57459544495509
30
0
41
1
10
-58
20
4.77207750487511
30
0
41
1
10
-58
20
4.96923237547446
30
0
41
1
10
-58
20
5.16603341989489
30
0
41
1
10
-58
20
5.36246929286636
30
0
41
1
10
-58
20
5.62486984380908
30
0
41
1
10
-58
20
5.94973663199025
30
0
41
1
10
-58
20
6.27311609603564
30
0
41
1
10
-58
20
6.53251618838755
30
0
41
1
10
-58
20
6.79132938935567
30
0
41
1
10
-58
20
7.11180135563231
30
0
41
1
10
-58
20
7.43059630648506
30
0
41
1
10
-58
20
7.68603135773841
30
0
41
1
10
-58
20
7.94080704287336
30
0
41
1
10
-58
20
8.1923204484753
30
0
41
1
10
-58
20
8.44493041618216
30
0
41
1
10
-58
20
8.6968434093225
30
0
41
1
10
-58
20
9.00884035151955
30
0
41
1
10
-58
20
9.38183010290786
30
0
41
1
10
-58
20
9.75259725338503
30
0
41
1
10
-58
20
10.1211100592584
30
0
41
1
10
-58
20
10.4256875570292
30
0
41
1
10
-58
20
10.6692766858405
30
0
41
1
10
-58
20
10.912108295924
30
0
41
1
10
-58
20
11.21291277944
30
0
41
1
10
-58
20
11.572202781332
30
0
41
1
10
-58
20
11.9291438218093
30
0
41
1
10
-58
20
12.2837205272056
30
0
41
1
10
-58
20
12.6359214323733
30
0
41
1
10
-58
20
12.9857332798767
30
0
41
1
10
-58
20
13.3331465322306
30
0
41
1
10
-58
20
13.6781505656527
30
0
41
1
10
-58
20
14.0207356586279
30
0
41
1
10
-58
20
14.3608949939723
30
0
41
1
10
-58
20
14.6986174932262
30
0
41
1
10
-58
20
15.1465482288459
30
0
41
1
10
-58
20
15.586990793997
30
0
41
1
10
-58
20
15.9699408852648
30
0
41
1
10
-57.9999999999999
20
16.1877136709007
30
0
41
1
10
-58
20
16.4046647430283
30
0
41
1
10
-58
20
16.6734094643824
30
0
41
1
10
-58
20
16.9938869687374
30
0
41
1
10
-58
20
17.31187542895
30
0
41
1
10
-58
20
17.7332927415188
30
0
41
1
10
-58
20
18.1474824585398
30
0
41
1
10
-58
20
18.5588120809721
30
0
41
1
10
-58
20
18.8642617622701
30
0
41
1
10
-58
20
19.167185502819
30
0
41
1
10
-58
20
19.5683935649799
30
0
41
1
10
-58
20
19.962512989893
30
0
41
1
10
-58
20
20.3534974230034
30
0
41
1
10
-58
20
20.6436975380219
30
0
41
1
10
-58
20
20.9313332073366
30
0
41
1
10
-58
20
21.3120431731188
30
0
41
1
10
-58
20
21.6857625528635
30
0
41
1
10
-58
20
22.0560958606497
30
0
41
1
10
-58
20
22.3308053662237
30
0
41
1
10
-58
20
22.6029073961028
30
0
41
1
10
-58
20
22.9627941936476
30
0
41
1
10
-58
20
23.4048307980022
30
0
41
1
10
-57.9999999999999
20
23.8380720499499
30
0
41
1
10
-58
20
24.1803157072482
30
0
41
1
10
-58
20
24.5190021121539
30
0
41
1
10
-58
20
24.9345059187337
30
0
41
1
10
-58
20
25.4229416666196
30
0
41
1
10
-58
20
25.8204330482275
30
0
41
1
10
-58
20
26.1338196230743
30
0
41
1
10
-58
20
26.365755304915
30
0
41
1
10
-58
20
26.5949314925857
30
0
41
1
10
-58
20
26.8972638502991
30
0
41
1
10
-58
20
27.2671990323819
30
0
41
1
10
-58
20
27.6277846850599
30
0
41
1
10
-58
20
27.911363633098
30
0
41
1
10
-58
20
28.1208773937063
30
0
41
1
10
-58
20
28.3275282602039
30
0
41
1
10
-57.9999999999999
20
28.5996384848297
30
0
41
1
10
-57.9999999999999
20
28.9316246713931
30
0
41
1
10
-58
20
29.3188018441321
30
0
41
1
10
-58
20
29.6312151678218
30
0
41
1
10
-58
20
29.8758448368358
30
0
41
1
10
-58
20
30.1164546579335
30
0
41
1
10
-58
20
30.4088224430552
30
0
41
1
10
-58
20
30.6909862057692
30
0
41
1
10
-58
20
30.9111259407838
30
0
41
1
10
-58
20
31.0728429182949
30
0
41
1
10
-58
20
31.2314087063947
30
0
41
1
10
-57.9999999999999
20
31.4389237596358
30
0
41
1
10
-58
20
31.6895938415452
30
0
41
1
10
-58
20
31.9294644880725
30
0
41
1
10
-58
20
32.1153117201282
30
0
41
1
10
-58
20
32.2967149944415
30
0
41
1
10
-58
20
32.4705455180244
30
0
41
1
10
-58
20
32.6384072799631
30
0
41
1
10
-58
20
32.7401409831787
30
0
41
1
10
-58
20
32.8200332917252
30
0
41
1
10
-58
20
32.8987588718319
30
0
41
1
10
-58
20
33.0333547777464
30
0
41
1
10
-58
20
33.1794476462955
30
0
41
1
10
-58
20
33.3190628682572
30
0
41
1
10
-58
20
33.4199387810475
30
0
41
1
10
-58
20
33.517124136941
30
0
41
1
10
-58
20
33.6105785639527
30
0
41
1
10
-58
20
33.7002599705932
30
0
41
1
10
-58
20
33.7861246522719
30
0
41
1
10
-58
20
33.8681273799935
30
0
41
1
10
-58
20
33.9462211181053
30
0
41
1
10
-58
20
34.0203569492649
30
0
41
1
10
-58
20
34.090484024979
30
0
41
1
10
-58
20
34.1565492736136
30
0
41
1
10
-58
20
34.2184971795059
30
0
41
1
10
-58
20
34.2762712987306
30
0
41
1
10
-58
20
34.3298111110901
30
0
41
1
10
-58
20
34.3790529937039
30
0
41
1
10
-58
20
34.4239333693917
30
0
41
1
10
-58
20
34.4643817495677
30
0
41
1
10
-58
20
34.5003280083155
30
0
41
1
10
-58
20
34.5316961895766
30
0
41
1
10
-58
20
34.558407488607
30
0
41
1
10
-58
20
34.5803797589321
30
0
41
1
10
-58
20
34.5966207913087
30
0
41
1
10
-58
20
34.6043539388524
30
0
41
1
10
-58
20
34.6073031145062
30
0
0
SPLINE
5
14C
100
AcDbEntity
8
1
62
256
6
ByLayer
370
18
48
1
60
0
100
AcDbSpline
70
4
71
3
72
22
73
18
40
0
40
0
40
0
40
0
40
0.0312499999999997
40
0.0312499999999997
40
0.0624999999999995
40
0.0624999999999995
40
0.124999999999999
40
0.124999999999999
40
0.249999999999999
40
0.249999999999999
40
0.374999999999999
40
0.374999999999999
40
0.499999999999999
40
0.499999999999999
40
0.75
40
0.75
40
1
40
1
40
1
40
1
41
1
10
36.958879070648
20
-40.1702530625502
30
0
41
1
10
36.9511563985194
20
-40.066367673775
30
0
41
1
10
36.9431474768248
20
-39.9655438015516
30
0
41
1
10
36.9269067944998
20
-39.7662793798124
30
0
41
1
10
36.9186640854944
20
-39.6679559261287
30
0
41
1
10
36.8937524834869
20
-39.3749478797484
30
0
41
1
10
36.8769044991971
20
-39.1821708498356
30
0
41
1
10
36.8261996893135
20
-38.6058183621968
30
0
41
1
10
36.7921728011178
20
-38.2241339860606
30
0
41
1
10
36.7244916606004
20
-37.4565161097941
30
0
41
1
10
36.6908104710226
20
-37.0708897720949
30
0
41
1
10
36.6240471024565
20
-36.2928066478674
30
0
41
1
10
36.5909599347323
20
-35.9004067473219
30
0
41
1
10
36.4927866964947
20
-34.7107976858477
30
0
41
1
10
36.4288843043502
20
-33.9021403484188
30
0
41
1
10
36.3047122653678
20
-32.2483911612343
30
0
41
1
10
36.2443874193884
20
-31.40271930392
30
0
41
1
10
36.1861384096168
20
-30.5396349520022
30
0
0
SPLINE
5
14D
100
AcDbEntity
8
SK1
62
256
6
ByLayer
370
13
48
1
60
0
100
AcDbSpline
70
4
71
3
72
322
73
318
40
0
40
0
40
0
40
0
40
0.0033907401057238
40
0.0068393865390243
40
0.0102880329723248
40
0.0137366794056254
40
0.0171853258389259
40
0.0206339722722264
40
0.0240826187055269
40
0.0275312651388274
40
0.0309799115721279
40
0.0344285580054285
40
0.037877204438729
40
0.0413258508720295
40
0.04477449730533
40
0.051671790171931
40
0.0551204366052316
40
0.0585690830385321
40
0.0620177294718326
40
0.0654663759051331
40
0.0689150223384336
40
0.0723636687717341
40
0.0758123152050347
40
0.0792609616383352
40
0.0827096080716357
40
0.0861582545049362
40
0.0930555473715372
40
0.0965041938048377
40
0.098228517021488
40
0.0999528402381383
40
0.103401486671439
40
0.106850133104739
40
0.11374742597134
40
0.117196072404641
40
0.120644718837941
40
0.127542011704542
40
0.134439304571143
40
0.137887951004444
40
0.141336597437744
40
0.144785243871045
40
0.148233890304346
40
0.155131183170947
40
0.162028476037548
40
0.165477122470848
40
0.168925768904149
40
0.17582306177075
40
0.182720354637351
40
0.189617647503952
40
0.193066293937252
40
0.196514940370553
40
0.199963586803853
40
0.203412233237154
40
0.210309526103755
40
0.217206818970356
40
0.220655465403656
40
0.224104111836957
40
0.227552758270257
40
0.231001404703558
40
0.237898697570159
40
0.24479599043676
40
0.251693283303361
40
0.255141929736662
40
0.258590576169962
40
0.265487869036563
40
0.272385161903164
40
0.275833808336465
40
0.279282454769765
40
0.282731101203066
40
0.286179747636366
40
0.293077040502967
40
0.296525686936268
40
0.299974333369568
40
0.303422979802869
40
0.306871626236169
40
0.31376891910277
40
0.317217565536071
40
0.320666211969371
40
0.324114858402672
40
0.327563504835972
40
0.334460797702573
40
0.337909444135874
40
0.341358090569174
40
0.344806737002475
40
0.348255383435776
40
0.349979706652426
40
0.351704029869076
40
0.355152676302377
40
0.358601322735677
40
0.362049969168978
40
0.365498615602278
40
0.368947262035579
40
0.372395908468879
40
0.37584455490218
40
0.37756887811883
40
0.37929320133548
40
0.382741847768781
40
0.386190494202081
40
0.389639140635382
40
0.393087787068682
40
0.396536433501983
40
0.399985079935283
40
0.403433726368584
40
0.406882372801884
40
0.410331019235185
40
0.413779665668485
40
0.417228312101786
40
0.420676958535086
40
0.424125604968387
40
0.427574251401687
40
0.431022897834988
40
0.432747221051638
40
0.434471544268288
40
0.437920190701589
40
0.441368837134889
40
0.44309316035154
40
0.44481748356819
40
0.44826613000149
40
0.451714776434791
40
0.453439099651441
40
0.455163422868092
40
0.456887746084742
40
0.458612069301392
40
0.460336392518042
40
0.462060715734692
40
0.462922877343018
40
0.463785038951343
40
0.465509362167993
40
0.466371523776318
40
0.467233685384643
40
0.468958008601294
40
0.470682331817944
40
0.471544493426269
40
0.472406655034594
40
0.473268816642919
40
0.474130978251244
40
0.475855301467895
40
0.47671746307622
40
0.477579624684545
40
0.47844178629287
40
0.479303947901195
40
0.48016610950952
40
0.481028271117845
40
0.482752594334496
40
0.483614755942821
40
0.484476917551146
40
0.486201240767796
40
0.487063402376121
40
0.487925563984446
40
0.488787725592772
40
0.489649887201097
40
0.491374210417747
40
0.493098533634397
40
0.493960695242722
40
0.494822856851047
40
0.495685018459373
40
0.496547180067698
40
0.498271503284348
40
0.499133664892673
40
0.499995826500998
40
0.500857988109323
40
0.501720149717648
40
0.503444472934299
40
0.504306634542624
40
0.505168796150949
40
0.506030957759274
40
0.506893119367599
40
0.508617442584249
40
0.5103417658009
40
0.511203927409225
40
0.51206608901755
40
0.512928250625875
40
0.5137904122342
40
0.51551473545085
40
0.517239058667501
40
0.518963381884151
40
0.520687705100801
40
0.522412028317452
40
0.523274189925777
40
0.524136351534102
40
0.524998513142427
40
0.525860674750752
40
0.526722836359077
40
0.527584997967402
40
0.528447159575728
40
0.529309321184053
40
0.531033644400703
40
0.532757967617353
40
0.533620129225678
40
0.534482290834003
40
0.536206614050654
40
0.537068775658979
40
0.537930937267304
40
0.539655260483954
40
0.541379583700604
40
0.543103906917255
40
0.544828230133905
40
0.546552553350555
40
0.548276876567205
40
0.551725523000506
40
0.555174169433806
40
0.556898492650457
40
0.558622815867107
40
0.562071462300408
40
0.565520108733708
40
0.567244431950358
40
0.568968755167009
40
0.572417401600309
40
0.574141724816959
40
0.57586604803361
40
0.57931469446691
40
0.582763340900211
40
0.586211987333511
40
0.589660633766812
40
0.593109280200112
40
0.594833603416762
40
0.596557926633413
40
0.600006573066713
40
0.603455219500014
40
0.606903865933314
40
0.610352512366615
40
0.613801158799915
40
0.617249805233216
40
0.620698451666516
40
0.624147098099817
40
0.627595744533117
40
0.631044390966418
40
0.634493037399718
40
0.637941683833019
40
0.64483897669962
40
0.64828762313292
40
0.650011946349571
40
0.651736269566221
40
0.655184915999521
40
0.658633562432822
40
0.662082208866122
40
0.665530855299423
40
0.672428148166024
40
0.675876794599325
40
0.679325441032625
40
0.682774087465926
40
0.686222733899226
40
0.693120026765827
40
0.696568673199128
40
0.700017319632428
40
0.703465966065729
40
0.706914612499029
40
0.71381190536563
40
0.717260551798931
40
0.720709198232231
40
0.724157844665532
40
0.727606491098832
40
0.734503783965433
40
0.741401076832034
40
0.744849723265335
40
0.748298369698635
40
0.755195662565236
40
0.762092955431838
40
0.768990248298438
40
0.772438894731739
40
0.77588754116504
40
0.77933618759834
40
0.782784834031641
40
0.789682126898242
40
0.796579419764843
40
0.800028066198143
40
0.803476712631444
40
0.806925359064744
40
0.810374005498045
40
0.817271298364646
40
0.824168591231247
40
0.831065884097848
40
0.834514530531148
40
0.837963176964449
40
0.84486046983105
40
0.851757762697651
40
0.855206409130951
40
0.858655055564252
40
0.862103701997552
40
0.865552348430853
40
0.872449641297454
40
0.879346934164055
40
0.882795580597356
40
0.886244227030656
40
0.893141519897257
40
0.896590166330558
40
0.900038812763858
40
0.901763135980508
40
0.903487459197159
40
0.906936105630459
40
0.91383339849706
40
0.917282044930361
40
0.920730691363661
40
0.924179337796962
40
0.927627984230262
40
0.931076630663563
40
0.934525277096863
40
0.937973923530164
40
0.941422569963464
40
0.944871216396765
40
0.948319862830065
40
0.951768509263366
40
0.955217155696666
40
0.958665802129967
40
0.962114448563267
40
0.965563094996568
40
0.969011741429868
40
0.972460387863169
40
0.975909034296469
40
0.97935768072977
40
0.982806327163071
40
0.986254973596371
40
0.989703620029671
40
0.993152266462972
40
0.994876589679622
40
0.996600912896273
40
0.998325236112923
40
1
40
1
40
1
40
1
41
1
10
-1.99503997793928
20
-35.8251679568346
30
0
41
1
10
-1.99503997793928
20
-35.8253132626037
30
0
41
1
10
-1.99503997793928
20
-35.823849804262
30
0
41
1
10
-1.99503997793928
20
-35.8164351684488
30
0
41
1
10
-1.99503997793928
20
-35.8038036057849
30
0
41
1
10
-1.99503997793926
20
-35.7861037017736
30
0
41
1
10
-1.99503997793931
20
-35.7634347985348
30
0
41
1
10
-1.99503997793926
20
-35.7358925782285
30
0
41
1
10
-1.99503997793928
20
-35.7035662864511
30
0
41
1
10
-1.99503997793928
20
-35.6665413308515
30
0
41
1
10
-1.99503997793928
20
-35.6248991716382
30
0
41
1
10
-1.99503997793928
20
-35.5787156824351
30
0
41
1
10
-1.99503997793928
20
-35.5280658263188
30
0
41
1
10
-1.99503997793928
20
-35.473017757568
30
0
41
1
10
-1.99503997793928
20
-35.393827084185
30
0
41
1
10
-1.99503997793928
20
-35.3061643717785
30
0
41
1
10
-1.99503997793931
20
-35.2101447225724
30
0
41
1
10
-1.99503997793926
20
-35.1340530052701
30
0
41
1
10
-1.99503997793928
20
-35.0539245925551
30
0
41
1
10
-1.99503997793928
20
-34.9698083299964
30
0
41
1
10
-1.99503997793928
20
-34.8817544739768
30
0
41
1
10
-1.99503997793928
20
-34.7898102716018
30
0
41
1
10
-1.99503997793928
20
-34.6940212865371
30
0
41
1
10
-1.99503997793931
20
-34.594431251443
30
0
41
1
10
-1.99503997793926
20
-34.4910822889059
30
0
41
1
10
-1.99503997793928
20
-34.348294891195
30
0
41
1
10
-1.99503997793928
20
-34.1982444851696
30
0
41
1
10
-1.99503997793928
20
-34.0605701909876
30
0
41
1
10
-1.99503997793928
20
-33.9801066971493
30
0
41
1
10
-1.99503997793928
20
-33.8984584538254
30
0
41
1
10
-1.99503997793926
20
-33.7942266163982
30
0
41
1
10
-1.99503997793928
20
-33.622721506097
30
0
41
1
10
-1.99503997793928
20
-33.4443819491762
30
0
41
1
10
-1.99503997793928
20
-33.2591101848391
30
0
41
1
10
-1.99503997793931
20
-33.0693268459332
30
0
41
1
10
-1.99503997793928
20
-32.8237966601455
30
0
41
1
10
-1.99503997793928
20
-32.5672623983938
30
0
41
1
10
-1.99503997793926
20
-32.3554556997831
30
0
41
1
10
-1.99503997793928
20
-32.1934025642942
30
0
41
1
10
-1.99503997793928
20
-32.0281430662551
30
0
41
1
10
-1.99503997793928
20
-31.8035081361274
30
0
41
1
10
-1.99503997793928
20
-31.5149070177094
30
0
41
1
10
-1.99503997793926
20
-31.2159040534273
30
0
41
1
10
-1.99503997793928
20
-30.9704527129577
30
0
41
1
10
-1.99503997793926
20
-30.720914832824
30
0
41
1
10
-1.99503997793928
20
-30.4014843078869
30
0
41
1
10
-1.99503997793928
20
-30.0060620316198
30
0
41
1
10
-1.99503997793928
20
-29.6666623719011
30
0
41
1
10
-1.99503997793928
20
-29.3891503898005
30
0
41
1
10
-1.99503997793926
20
-29.1781205760015
30
0
41
1
10
-1.99503997793928
20
-28.9641695771706
30
0
41
1
10
-1.99503997793928
20
-28.6749709053451
30
0
41
1
10
-1.99503997793928
20
-28.306360528673
30
0
41
1
10
-1.99503997793928
20
-27.9281887547298
30
0
41
1
10
-1.99503997793926
20
-27.6198572656327
30
0
41
1
10
-1.99503997793928
20
-27.3858182074443
30
0
41
1
10
-1.99503997793928
20
-27.148955821717
30
0
41
1
10
-1.99503997793928
20
-26.8293292074652
30
0
41
1
10
-1.99503997793928
20
-26.4229269838674
30
0
41
1
10
-1.99503997793928
20
-25.9240385032945
30
0
41
1
10
-1.99503997793928
20
-25.4991460823892
30
0
41
1
10
-1.99503997793931
20
-25.1536176941803
30
0
41
1
10
-1.99503997793928
20
-24.8044353773023
30
0
41
1
10
-1.99503997793928
20
-24.3612782608926
30
0
41
1
10
-1.99503997793931
20
-23.9090605798748
30
0
41
1
10
-1.99503997793928
20
-23.5417479211437
30
0
41
1
10
-1.99503997793928
20
-23.263618507319
30
0
41
1
10
-1.99503997793931
20
-22.9827956431365
30
0
41
1
10
-1.99503997793928
20
-22.6047071794768
30
0
41
1
10
-1.99503997793928
20
-22.2214812963055
30
0
41
1
10
-1.99503997793926
20
-21.8326778142531
30
0
41
1
10
-1.99503997793926
20
-21.5384660281962
30
0
41
1
10
-1.99503997793928
20
-21.2415899372621
30
0
41
1
10
-1.99503997793928
20
-20.8421270630884
30
0
41
1
10
-1.99503997793928
20
-20.4375997139134
30
0
41
1
10
-1.99503997793926
20
-20.0275173509219
30
0
41
1
10
-1.99503997793931
20
-19.7173732218512
30
0
41
1
10
-1.99503997793926
20
-19.4045841348166
30
0
41
1
10
-1.99503997793928
20
-18.9839194922239
30
0
41
1
10
-1.99503997793928
20
-18.5582479712653
30
0
41
1
10
-1.99503997793926
20
-18.127020373351
30
0
41
1
10
-1.99503997793928
20
-17.8010357340039
30
0
41
1
10
-1.99503997793928
20
-17.4724160483816
30
0
41
1
10
-1.99503997793928
20
-17.1964202003686
30
0
41
1
10
-1.99503997793928
20
-16.9742159134664
30
0
41
1
10
-1.99503997793928
20
-16.7511340559088
30
0
41
1
10
-1.99503997793928
20
-16.4707522036702
30
0
41
1
10
-1.99503997793928
20
-16.1315968939283
30
0
41
1
10
-1.99503997793928
20
-15.7898077032214
30
0
41
1
10
-1.99503997793931
20
-15.4453840138398
30
0
41
1
10
-1.99503997793926
20
-15.0983253104253
30
0
41
1
10
-1.99503997793928
20
-14.7486309197531
30
0
41
1
10
-1.99503997793928
20
-14.455079118457
30
0
41
1
10
-1.99503997793928
20
-14.2188112194045
30
0
41
1
10
-1.99503997793928
20
-13.9816645441138
30
0
41
1
10
-1.99503997793928
20
-13.6837198698813
30
0
41
1
10
-1.99503997793926
20
-13.3234688579878
30
0
41
1
10
-1.99503997793926
20
-12.9605748020561
30
0
41
1
10
-1.99503997793928
20
-12.5950360925706
30
0
41
1
10
-1.99503997793931
20
-12.2268503778688
30
0
41
1
10
-1.99503997793928
20
-11.85601645061
30
0
41
1
10
-1.99503997793928
20
-11.4825318141737
30
0
41
1
10
-1.99503997793928
20
-11.1063953922263
30
0
41
1
10
-1.99503997793928
20
-10.7276051607687
30
0
41
1
10
-1.99503997793926
20
-10.3461602965628
30
0
41
1
10
-1.99503997793928
20
-9.96205972428265
30
0
41
1
10
-1.99503997793926
20
-9.5753033579058
30
0
41
1
10
-1.99503997793928
20
-9.18589158918712
30
0
41
1
10
-1.99503997793928
20
-8.79382593589906
30
0
41
1
10
-1.99503997793928
20
-8.46498321367616
30
0
41
1
10
-1.99503997793931
20
-8.20041752296066
30
0
41
1
10
-1.99503997793928
20
-7.93497336561651
30
0
41
1
10
-1.99503997793928
20
-7.60174008666428
30
0
41
1
10
-1.99503997793928
20
-7.26630764015113
30
0
41
1
10
-1.99503997793928
20
-6.9964623166295
30
0
41
1
10
-1.99503997793928
20
-6.72574990920413
30
0
41
1
10
-1.99503997793926
20
-6.38598402190885
30
0
41
1
10
-1.99503997793928
20
-6.04405722561484
30
0
41
1
10
-1.99503997793928
20
-5.76902086592725
30
0
41
1
10
-1.99503997793928
20
-5.56220357677799
30
0
41
1
10
-1.99503997793928
20
-5.35475597096189
30
0
41
1
10
-1.99503997793928
20
-5.14668274769545
30
0
41
1
10
-1.99503997793928
20
-4.93799069007389
30
0
41
1
10
-1.99503997793928
20
-4.76363712095309
30
0
41
1
10
-1.99503997793928
20
-4.62372538326238
30
0
41
1
10
-1.99503997793928
20
-4.48361575507573
30
0
41
1
10
-1.99503997793928
20
-4.34342548405564
30
0
41
1
10
-1.99503997793928
20
-4.2027176625908
30
0
41
1
10
-1.99503997793928
20
-4.06181816740789
30
0
41
1
10
-1.99503997793928
20
-3.88550853751426
30
0
41
1
10
-1.99503997793928
20
-3.70872432201034
30
0
41
1
10
-1.99503997793928
20
-3.56687680853707
30
0
41
1
10
-1.99503997793928
20
-3.46041868097618
30
0
41
1
10
-1.99503997793928
20
-3.35382641814786
30
0
41
1
10
-1.99503997793928
20
-3.21144324089968
30
0
41
1
10
-1.99503997793928
20
-3.06906085087894
30
0
41
1
10
-1.99503997793928
20
-2.92616259642284
30
0
41
1
10
-1.99503997793928
20
-2.81893418131358
30
0
41
1
10
-1.99503997793928
20
-2.71158686216663
30
0
41
1
10
-1.99503997793926
20
-2.6041237552831
30
0
41
1
10
-1.99503997793926
20
-2.49654581237675
30
0
41
1
10
-1.99503997793928
20
-2.35286670982623
30
0
41
1
10
-1.99503997793928
20
-2.20926559475359
30
0
41
1
10
-1.99503997793928
20
-2.06516367446017
30
0
41
1
10
-1.99503997793928
20
-1.9209349148361
30
0
41
1
10
-1.99503997793928
20
-1.77682919806014
30
0
41
1
10
-1.99503997793928
20
-1.63223933880317
30
0
41
1
10
-1.99503997793928
20
-1.52379770019971
30
0
41
1
10
-1.99503997793928
20
-1.41528065788856
30
0
41
1
10
-1.99503997793928
20
-1.27038905366356
30
0
41
1
10
-1.99503997793928
20
-1.08935868161839
30
0
41
1
10
-1.99503997793926
20
-0.908138069364867
30
0
41
1
10
-1.99503997793928
20
-0.762866921466411
30
0
41
1
10
-1.99503997793928
20
-0.653960658723435
30
0
41
1
10
-1.99503997793928
20
-0.54501997386086
30
0
41
1
10
-1.99503997793928
20
-0.399611451538931
30
0
41
1
10
-1.99503997793928
20
-0.254507260377636
30
0
41
1
10
-1.99503997793928
20
-0.109027235983319
30
0
41
1
10
-1.99503997793928
20
-9.1374375E-09
30
0
41
1
10
-1.99503997793928
20
0.109027220250056
30
0
41
1
10
-1.99503997793928
20
0.25450724377248
30
0
41
1
10
-1.99503997793928
20
0.399611433921876
30
0
41
1
10
-1.99503997793928
20
0.545019960941062
30
0
41
1
10
-1.99503997793928
20
0.653960641303371
30
0
41
1
10
-1.99503997793928
20
0.762866902191831
30
0
41
1
10
-1.99503997793928
20
0.908138052921203
30
0
41
1
10
-1.99503997793926
20
1.08935866678004
30
0
41
1
10
-1.99503997793928
20
1.27038903897375
30
0
41
1
10
-1.99503997793928
20
1.41528063419045
30
0
41
1
10
-1.99503997793928
20
1.52379768483644
30
0
41
1
10
-1.99503997793926
20
1.63223932075871
30
0
41
1
10
-1.99503997793928
20
1.77682922491974
30
0
41
1
10
-1.99503997793928
20
1.95712119571596
30
0
41
1
10
-1.99503997793928
20
2.17322083473797
30
0
41
1
10
-1.99503997793931
20
2.38891915598524
30
0
41
1
10
-1.99503997793928
20
2.60418785734109
30
0
41
1
10
-1.99503997793928
20
2.7831030572149
30
0
41
1
10
-1.99503997793928
20
2.92616291868401
30
0
41
1
10
-1.99503997793928
20
3.03326805859811
30
0
41
1
10
-1.99503997793928
20
3.14024803839371
30
0
41
1
10
-1.99503997793928
20
3.24710174058404
30
0
41
1
10
-1.99503997793928
20
3.35382635526128
30
0
41
1
10
-1.99503997793928
20
3.46041866707628
30
0
41
1
10
-1.99503997793928
20
3.56687681977309
30
0
41
1
10
-1.99503997793928
20
3.70872432304063
30
0
41
1
10
-1.99503997793928
20
3.88550850742183
30
0
41
1
10
-1.99503997793928
20
4.06181812904796
30
0
41
1
10
-1.99503997793928
20
4.20271764804275
30
0
41
1
10
-1.99503997793928
20
4.34342549686545
30
0
41
1
10
-1.99503997793928
20
4.48361577983209
30
0
41
1
10
-1.99503997793926
20
4.62372539696358
30
0
41
1
10
-1.99503997793928
20
4.76363710905449
30
0
41
1
10
-1.99503997793926
20
4.93799065000766
30
0
41
1
10
-1.99503997793928
20
5.14668271481386
30
0
41
1
10
-1.99503997793928
20
5.35475597589536
30
0
41
1
10
-1.99503997793928
20
5.56220360150752
30
0
41
1
10
-1.99503997793928
20
5.76902086988608
30
0
41
1
10
-1.99503997793928
20
6.04405718826723
30
0
41
1
10
-1.99503997793928
20
6.38598399194692
30
0
41
1
10
-1.99503997793928
20
6.72574993640336
30
0
41
1
10
-1.99503997793928
20
6.99646231552362
30
0
41
1
10
-1.99503997793928
20
7.26630760435381
30
0
41
1
10
-1.99503997793928
20
7.6017400636556
30
0
41
1
10
-1.99503997793928
20
7.93497342164287
30
0
41
1
10
-1.99503997793928
20
8.20041755954975
30
0
41
1
10
-1.99503997793928
20
8.4649832423369
30
0
41
1
10
-1.99503997793926
20
8.72794364001865
30
0
41
1
10
-1.99503997793928
20
8.98985104945217
30
0
41
1
10
-1.99503997793931
20
9.2508763048483
30
0
41
1
10
-1.99503997793928
20
9.5753031998288
30
0
41
1
10
-1.99503997793928
20
9.96205939515548
30
0
41
1
10
-1.99503997793928
20
10.3461604572556
30
0
41
1
10
-1.99503997793928
20
10.7276055574808
30
0
41
1
10
-1.99503997793928
20
11.0431853255423
30
0
41
1
10
-1.99503997793928
20
11.2944582734028
30
0
41
1
10
-1.99503997793928
20
11.5448487178991
30
0
41
1
10
-1.99503997793928
20
11.8560164651631
30
0
41
1
10
-1.99503997793928
20
12.2268504032846
30
0
41
1
10
-1.99503997793928
20
12.595036086484
30
0
41
1
10
-1.99503997793928
20
12.960574817857
30
0
41
1
10
-1.99503997793928
20
13.3234688690064
30
0
41
1
10
-1.99503997793928
20
13.683719865638
30
0
41
1
10
-1.99503997793928
20
14.0413293344855
30
0
41
1
10
-1.99503997793928
20
14.3962994527457
30
0
41
1
10
-1.99503997793928
20
14.7486306960068
30
0
41
1
10
-1.99503997793926
20
15.0983254904573
30
0
41
1
10
-1.99503997793928
20
15.4453839893882
30
0
41
1
10
-1.99503997793928
20
15.9047277931739
30
0
41
1
10
-1.99503997793928
20
16.3584761888621
30
0
41
1
10
-1.99503997793928
20
16.7511340488146
30
0
41
1
10
-1.99503997793928
20
16.9742159130046
30
0
41
1
10
-1.99503997793928
20
17.1964201976603
30
0
41
1
10
-1.99503997793928
20
17.4724160404973
30
0
41
1
10
-1.99503997793928
20
17.8010357300387
30
0
41
1
10
-1.99503997793928
20
18.1270203682571
30
0
41
1
10
-1.99503997793928
20
18.5582479543883
30
0
41
1
10
-1.99503997793928
20
18.9839194912414
30
0
41
1
10
-1.99503997793928
20
19.404584123
30
0
41
1
10
-1.99503997793928
20
19.7173732272647
30
0
41
1
10
-1.99503997793928
20
20.0275173382951
30
0
41
1
10
-1.99503997793928
20
20.4375997068478
30
0
41
1
10
-1.99503997793928
20
20.8421270565358
30
0
41
1
10
-1.99503997793926
20
21.2415899298926
30
0
41
1
10
-1.99503997793931
20
21.538466032195
30
0
41
1
10
-1.99503997793928
20
21.8326778029793
30
0
41
1
10
-1.99503997793928
20
22.2214812917415
30
0
41
1
10
-1.99503997793928
20
22.6047071741368
30
0
41
1
10
-1.99503997793928
20
22.9827956359496
30
0
41
1
10
-1.99503997793931
20
23.2636185109001
30
0
41
1
10
-1.99503997793928
20
23.5417479137996
30
0
41
1
10
-1.99503997793928
20
23.9090605721076
30
0
41
1
10
-1.99503997793928
20
24.3612782589387
30
0
41
1
10
-1.99503997793928
20
24.8044353771775
30
0
41
1
10
-1.99503997793926
20
25.1536176922537
30
0
41
1
10
-1.99503997793928
20
25.4991460740629
30
0
41
1
10
-1.99503997793926
20
25.9240385075183
30
0
41
1
10
-1.99503997793928
20
26.4229269800761
30
0
41
1
10
-1.99503997793931
20
26.8293292051835
30
0
41
1
10
-1.99503997793928
20
27.1489558193584
30
0
41
1
10
-1.99503997793926
20
27.3858182086698
30
0
41
1
10
-1.99503997793926
20
27.6198572645245
30
0
41
1
10
-1.99503997793926
20
27.9281887523049
30
0
41
1
10
-1.99503997793928
20
28.3063605307707
30
0
41
1
10
-1.99503997793928
20
28.6749709038125
30
0
41
1
10
-1.99503997793928
20
28.964169578493
30
0
41
1
10
-1.99503997793926
20
29.1781205774538
30
0
41
1
10
-1.99503997793928
20
29.3891503890766
30
0
41
1
10
-1.99503997793928
20
29.6666623731205
30
0
41
1
10
-1.99503997793928
20
30.0060620312649
30
0
41
1
10
-1.99503997793928
20
30.4014843150581
30
0
41
1
10
-1.99503997793928
20
30.7209148294369
30
0
41
1
10
-1.99503997793928
20
30.9704527178571
30
0
41
1
10
-1.99503997793928
20
31.2159040588431
30
0
41
1
10
-1.99503997793926
20
31.5149070210429
30
0
41
1
10
-1.99503997793928
20
31.8035081358321
30
0
41
1
10
-1.99503997793928
20
32.0281430685794
30
0
41
1
10
-1.99503997793928
20
32.1934025758849
30
0
41
1
10
-1.99503997793931
20
32.3554556995001
30
0
41
1
10
-1.99503997793928
20
32.567262400264
30
0
41
1
10
-1.99503997793928
20
32.8237966604288
30
0
41
1
10
-1.99503997793931
20
33.0693268620525
30
0
41
1
10
-1.99503997793926
20
33.2591101879707
30
0
41
1
10
-1.99503997793928
20
33.4443819493481
30
0
41
1
10
-1.99503997793931
20
33.6227215100013
30
0
41
1
10
-1.99503997793928
20
33.7942266244679
30
0
41
1
10
-1.99503997793928
20
33.8984584677328
30
0
41
1
10
-1.99503997793928
20
33.9801067081201
30
0
41
1
10
-1.99503997793928
20
34.0605701934049
30
0
41
1
10
-1.99503997793931
20
34.1982444859641
30
0
41
1
10
-1.99503997793928
20
34.348294898698
30
0
41
1
10
-1.99503997793928
20
34.4910822904625
30
0
41
1
10
-1.99503997793928
20
34.5944312751917
30
0
41
1
10
-1.99503997793928
20
34.6940212809506
30
0
41
1
10
-1.99503997793928
20
34.7898102805557
30
0
41
1
10
-1.99503997793928
20
34.8817544969816
30
0
41
1
10
-1.99503997793928
20
34.9698083210839
30
0
41
1
10
-1.99503997793928
20
35.0539244294382
30
0
41
1
10
-1.99503997793928
20
35.1340535550079
30
0
41
1
10
-1.99503997793928
20
35.2101443481799
30
0
41
1
10
-1.99503997793928
20
35.2821433047987
30
0
41
1
10
-1.99503997793928
20
35.3499946094464
30
0
41
1
10
-1.99503997793928
20
35.4136393963591
30
0
41
1
10
-1.99503997793928
20
35.4730177383402
30
0
41
1
10
-1.99503997793928
20
35.5280658411496
30
0
41
1
10
-1.99503997793928
20
35.5787156149852
30
0
41
1
10
-1.99503997793926
20
35.6248991978807
30
0
41
1
10
-1.99503997793928
20
35.6665412784639
30
0
41
1
10
-1.99503997793928
20
35.7035662791796
30
0
41
1
10
-1.99503997793926
20
35.7358925640298
30
0
41
1
10
-1.99503997793926
20
35.763434753032
30
0
41
1
10
-1.99503997793928
20
35.786103718398
30
0
41
1
10
-1.99503997793928
20
35.8038035395423
30
0
41
1
10
-1.99503997793928
20
35.8143275520899
30
0
41
1
10
-1.99503997793928
20
35.8201626633944
30
0
41
1
10
-1.99503997793926
20
35.8232300538525
30
0
41
1
10
-1.99503997793928
20
35.8249588472319
30
0
41
1
10
-1.99503997793926
20
35.8252399643781
30
0
41
1
10
-1.99503997793926
20
35.8251660522569
30
0
0
SPLINE
5
14E
100
AcDbEntity
8
1
62
256
6
ByLayer
370
18
48
1
60
0
100
AcDbSpline
70
4
71
3
72
12
73
8
40
0
40
0
40
0
40
0
40
0.25
40
0.25
40
0.500000000000001
40
0.500000000000001
40
1
40
1
40
1
40
1
41
1
10
36.1861384096165
20
30.5396349519989
30
0
41
1
10
36.2221504251025
20
31.0732304099955
30
0
41
1
10
36.2589463815894
20
31.6000997194567
30
0
41
1
10
36.3340563080893
20
32.6408139086825
30
0
41
1
10
36.3723667357052
20
33.1545796393423
30
0
41
1
10
36.4892588329872
20
34.6747671271101
30
0
41
1
10
36.5699388343099
20
35.6605169810279
30
0
41
1
10
36.6525073622718
20
36.6244433823693
30
0
0
SPLINE
5
14F
100
AcDbEntity
8
SK1
62
256
6
ByLayer
370
18
48
1
60
0
100
AcDbSpline
70
4
71
3
72
24
73
20
40
0
40
0
40
0
40
0
40
0.054908814339402
40
0.054908814339402
40
0.109817628678804
40
0.109817628678804
40
0.164726443018206
40
0.164726443018206
40
0.219635257357608
40
0.219635257357608
40
0.329452886036412
40
0.329452886036412
40
0.439270514715216
40
0.439270514715216
40
0.658905772072795
40
0.658905772072795
40
0.878541029430374
40
0.878541029430374
40
1
40
1
40
1
40
1
41
1
10
-0.394976888875249
20
35.4775231381726
30
0
41
1
10
-0.388671475101006
20
35.4766997478129
30
0
41
1
10
-0.381811534709072
20
35.4762709949138
30
0
41
1
10
-0.366640616938582
20
35.4768792325637
30
0
41
1
10
-0.358277609119426
20
35.4779823276479
30
0
41
1
10
-0.341585771346644
20
35.4821737215533
30
0
41
1
10
-0.333329482090676
20
35.4852675491439
30
0
41
1
10
-0.318937365839986
20
35.4921874163471
30
0
41
1
10
-0.312691079617139
20
35.4959734507352
30
0
41
1
10
-0.296014776342304
20
35.5075158416867
30
0
41
1
10
-0.287611873902932
20
35.5153652851928
30
0
41
1
10
-0.273149668288966
20
35.5307592099813
30
0
41
1
10
-0.267232007765017
20
35.5382733023982
30
0
41
1
10
-0.251522836037736
20
35.5604731484623
30
0
41
1
10
-0.243762874650884
20
35.5748469170972
30
0
41
1
10
-0.230811617005912
20
35.6028852486128
30
0
41
1
10
-0.225742287920866
20
35.6164587953366
30
0
41
1
10
-0.219180401880777
20
35.6370515903929
30
0
41
1
10
-0.217099434624515
20
35.644289140804
30
0
41
1
10
-0.215241858500122
20
35.6514398403078
30
0
0
SPLINE
5
150
100
AcDbEntity
8
SK1
62
256
6
ByLayer
370
18
48
1
60
0
100
AcDbSpline
70
4
71
3
72
22
73
18
40
0
40
0
40
0
40
0
40
0.187596610626365
40
0.187596610626365
40
0.390697457969774
40
0.390697457969774
40
0.593798305313183
40
0.593798305313183
40
0.695348728984896
40
0.695348728984896
40
0.79689915265661
40
0.79689915265661
40
0.847674364492458
40
0.847674364492458
40
0.898449576328305
40
0.898449576328305
40
1
40
1
40
1
40
1
41
1
10
-0.211835148551188
20
-35.665535895708
30
0
41
1
10
-0.214474572349786
20
-35.6537446120548
30
0
41
1
10
-0.217682081823796
20
-35.641720596586
30
0
41
1
10
-0.225863648826731
20
-35.6161145448391
30
0
41
1
10
-0.230960514215298
20
-35.6025224313216
30
0
41
1
10
-0.243909555635128
20
-35.5745706733976
30
0
41
1
10
-0.251695294089956
20
-35.5601957054633
30
0
41
1
10
-0.267365014533738
20
-35.5381024431321
30
0
41
1
10
-0.273258751589651
20
-35.5306388063929
30
0
41
1
10
-0.287574896861145
20
-35.5154087724191
30
0
41
1
10
-0.2960252175981
20
-35.5075032524917
30
0
41
1
10
-0.312744846045689
20
-35.4959387739217
30
0
41
1
10
-0.318964047572081
20
-35.4921743471967
30
0
41
1
10
-0.33330635617898
20
-35.4852786897172
30
0
41
1
10
-0.341563767889937
20
-35.4821798260203
30
0
41
1
10
-0.366640249432464
20
-35.4758809411679
30
0
41
1
10
-0.382359760725478
20
-35.4758754263808
30
0
41
1
10
-0.394976888875504
20
-35.4775230333216
30
0
0
SPLINE
5
151
100
AcDbEntity
8
SK1
62
256
6
ByLayer
370
18
48
1
60
0
100
AcDbSpline
70
4
71
3
72
24
73
20
40
0
40
0
40
0
40
0
40
0.249999999999999
40
0.249999999999999
40
0.312499999999999
40
0.312499999999999
40
0.375
40
0.375
40
0.5
40
0.5
40
0.625
40
0.625
40
0.75
40
0.75
40
0.8125
40
0.8125
40
0.875
40
0.875
40
1
40
1
40
1
40
1
41
1
10
-1.30710678118655
20
-4.60538005832731
30
0
41
1
10
-1.43445095565693
20
-3.85978933676719
30
0
41
1
10
-1.54387892248153
20
-3.10383348780141
30
0
41
1
10
-1.64182277486114
20
-2.14038734740555
30
0
41
1
10
-1.65943153712078
20
-1.94675919611089
30
0
41
1
10
-1.69016128102561
20
-1.55744142286923
30
0
41
1
10
-1.70329012775193
20
-1.36146410626915
30
0
41
1
10
-1.73493134584365
20
-0.775190730927363
30
0
41
1
10
-1.74573673637372
20
-0.385182075791477
30
0
41
1
10
-1.74559091779457
20
0.393092212237605
30
0
41
1
10
-1.73464574767843
20
0.781358231864175
30
0
41
1
10
-1.69272967974092
20
1.55625432464248
30
0
41
1
10
-1.66183533058268
20
1.94288898079077
30
0
41
1
10
-1.60308307844798
20
2.52176892060311
30
0
41
1
10
-1.58142702957946
20
2.71455586541936
30
0
41
1
10
-1.53472161640747
20
3.09756881527216
30
0
41
1
10
-1.5096411313821
20
3.28809225111149
30
0
41
1
10
-1.42989928264944
20
3.85698267981994
30
0
41
1
10
-1.37076249597752
20
4.23268030289691
30
0
41
1
10
-1.30710678119235
20
4.60538003003174
30
0
0
SPLINE
5
152
100
AcDbEntity
8
1
62
256
6
ByLayer
370
18
48
1
60
0
100
AcDbSpline
70
4
71
3
72
16
73
12
40
0
40
0
40
0
40
0
40
0.125
40
0.125
40
0.25
40
0.25
40
0.5
40
0.5
40
0.75
40
0.75
40
1
40
1
40
1
40
1
41
1
10
18.2113248654052
20
14.9931545155676
30
0
41
1
10
18.2427942539064
20
14.9931545155676
30
0
41
1
10
18.2734136750629
20
14.9993270329222
30
0
41
1
10
18.3314372006436
20
15.0215159830932
30
0
41
1
10
18.357828126527
20
15.0369693753061
30
0
41
1
10
18.4315232223568
20
15.0924295001841
30
0
41
1
10
18.4705132203231
20
15.1387838835225
30
0
41
1
10
18.5371475309551
20
15.2385754420444
30
0
41
1
10
18.5639668420204
20
15.2912821270175
30
0
41
1
10
18.6097706080257
20
15.4000512474235
30
0
41
1
10
18.6286574316483
20
15.4563289206726
30
0
41
1
10
18.6443375672975
20
15.5133461831291
30
0
0
SPLINE
5
153
100
AcDbEntity
8
1
62
256
6
ByLayer
370
18
48
1
60
0
100
AcDbSpline
70
4
71
3
72
16
73
12
40
0
40
0
40
0
40
0
40
0.249999999999999
40
0.249999999999999
40
0.499999999999998
40
0.499999999999998
40
0.749999999999997
40
0.749999999999997
40
0.874999999999998
40
0.874999999999998
40
1
40
1
40
1
40
1
41
1
10
18.6443375672974
20
47.532474059346
30
0
41
1
10
18.628663043577
20
47.5510763302182
30
0
41
1
10
18.609922401016
20
47.5691972862268
30
0
41
1
10
18.5642089472352
20
47.6042475586049
30
0
41
1
10
18.5371631998437
20
47.621296285613
30
0
41
1
10
18.4704947598566
20
47.6531299493423
30
0
41
1
10
18.4307979975499
20
47.6679778471913
30
0
41
1
10
18.3582709830991
20
47.6852187533021
30
0
41
1
10
18.3313299686496
20
47.6901974749825
30
0
41
1
10
18.273779935704
20
47.6971341405705
30
0
41
1
10
18.2427481222218
20
47.6991123363142
30
0
41
1
10
18.2113248654052
20
47.6991123363142
30
0
0
SPLINE
5
154
100
AcDbEntity
8
1
62
256
6
ByLayer
370
18
48
1
60
0
100
AcDbSpline
70
4
71
3
72
16
73
12
40
0
40
0
40
0
40
0
40
0.125
40
0.125
40
0.25
40
0.25
40
0.5
40
0.5
40
0.75
40
0.75
40
1
40
1
40
1
40
1
41
1
10
13.7886751345948
20
47.6991123363141
30
0
41
1
10
13.7572057460937
20
47.6991123363141
30
0
41
1
10
13.7265863249372
20
47.6971731220929
30
0
41
1
10
13.6685627993565
20
47.6901896918971
30
0
41
1
10
13.642171873473
20
47.6853219328561
30
0
41
1
10
13.5684767776432
20
47.6678096320571
30
0
41
1
10
13.529486779677
20
47.6531212535631
30
0
41
1
10
13.4628524690449
20
47.6213036484294
30
0
41
1
10
13.4360331579796
20
47.6044110998707
30
0
41
1
10
13.3902293919744
20
47.5693355727224
30
0
41
1
10
13.3713425683518
20
47.5510829903643
30
0
41
1
10
13.3556624327026
20
47.5324740593459
30
0
0
SPLINE
5
155
100
AcDbEntity
8
1
62
256
6
ByLayer
370
18
48
1
60
0
100
AcDbSpline
70
4
71
3
72
16
73
12
40
0
40
0
40
0
40
0
40
0.249999999999999
40
0.249999999999999
40
0.499999999999998
40
0.499999999999998
40
0.749999999999997
40
0.749999999999997
40
0.874999999999998
40
0.874999999999998
40
1
40
1
40
1
40
1
41
1
10
13.3556624327026
20
-47.5324740593459
30
0
41
1
10
13.3713369564231
20
-47.5510763302182
30
0
41
1
10
13.390077598984
20
-47.5691972862268
30
0
41
1
10
13.4357910527648
20
-47.6042475586048
30
0
41
1
10
13.4628368001564
20
-47.6212962856129
30
0
41
1
10
13.5295052401434
20
-47.6531299493423
30
0
41
1
10
13.5692020024501
20
-47.6679778471913
30
0
41
1
10
13.641729016901
20
-47.685218753302
30
0
41
1
10
13.6686700313504
20
-47.6901974749824
30
0
41
1
10
13.7262200642961
20
-47.6971341405705
30
0
41
1
10
13.7572518777783
20
-47.6991123363141
30
0
41
1
10
13.7886751345948
20
-47.6991123363141
30
0
0
SPLINE
5
156
100
AcDbEntity
8
1
62
256
6
ByLayer
370
18
48
1
60
0
100
AcDbSpline
70
4
71
3
72
12
73
8
40
0
40
0
40
0
40
0
40
0.200931165487438
40
0.40140198087273
40
0.601407219995609
40
0.80094164367855
40
1
40
1
40
1
40
1
41
1
10
78.78466924705
20
-61.9404878140593
30
0
41
1
10
78.6770961290538
20
-62.1129741493193
30
0
41
1
10
78.46219635207
20
-62.4575516392218
30
0
41
1
10
78.1423912871817
20
-62.9739834566092
30
0
41
1
10
77.8249742139805
20
-63.489331017991
30
0
41
1
10
77.5099526241061
20
-64.0035774318857
30
0
41
1
10
77.3016683232662
20
-64.3460954687537
30
0
41
1
10
77.1976505571333
20
-64.5171499405097
30
0
0
SPLINE
5
157
100
AcDbEntity
8
SK1
62
256
6
ByLayer
370
18
48
1
60
0
100
AcDbSpline
70
4
71
3
72
18
73
14
40
0
40
0
40
0
40
0
40
0.140319572403703
40
0.140319572403703
40
0.503185221058035
40
0.503185221058035
40
0.684618045385199
40
0.684618045385199
40
0.866050869712364
40
0.866050869712364
40
0.956767281875941
40
0.956767281875941
40
1
40
1
40
1
40
1
41
1
10
-0.201682998215432
20
29.0174984733834
30
0
41
1
10
-0.202416260233861
20
29.034209131295
30
0
41
1
10
-0.203405110369999
20
29.0508046335264
30
0
41
1
10
-0.207978089311837
20
29.1098671795148
30
0
41
1
10
-0.213104238159218
20
29.15166329712
30
0
41
1
10
-0.225863680075975
20
29.212430708525
30
0
41
1
10
-0.230960581829919
20
29.2323021122835
30
0
41
1
10
-0.243909693549114
20
29.2709230268983
30
0
41
1
10
-0.251695468058244
20
29.2897316982483
30
0
41
1
10
-0.267365194374236
20
29.3158651092749
30
0
41
1
10
-0.273258925337018
20
29.3242443982196
30
0
41
1
10
-0.28382829180245
20
29.3357434772866
30
0
41
1
10
-0.287533098480736
20
29.339364459461
30
0
41
1
10
-0.291683350033026
20
29.3427296900855
30
0
0
SPLINE
5
158
100
AcDbEntity
8
SK1
62
256
6
ByLayer
370
18
48
1
60
0
100
AcDbSpline
70
4
71
3
72
47
73
43
40
0
40
0
40
0
40
0
40
0.0196202265254945
40
0.0427532852784313
40
0.0658863440313681
40
0.0890194027843049
40
0.112152461537242
40
0.135285520290179
40
0.158418579043115
40
0.181551637796052
40
0.204684696548989
40
0.227817755301926
40
0.250950814054863
40
0.2740838728078
40
0.297216931560736
40
0.34348304906661
40
0.366616107819547
40
0.389749166572483
40
0.41288222532542
40
0.436015284078357
40
0.459148342831294
40
0.482281401584231
40
0.505414460337168
40
0.528547519090104
40
0.551680577843041
40
0.574813636595978
40
0.621079754101852
40
0.644212812854788
40
0.655779342231257
40
0.667345871607725
40
0.690478930360662
40
0.713611989113599
40
0.759878106619473
40
0.78301116537241
40
0.806144224125346
40
0.85241034163122
40
0.898676459137094
40
0.92180951789003
40
0.944942576642967
40
0.968075635395904
40
0.991208694148841
40
1
40
1
40
1
40
1
41
1
10
-0.394976888875277
20
-35.8653774838126
30
0
41
1
10
-0.394976888875277
20
-35.8652966713915
30
0
41
1
10
-0.394976888875277
20
-35.8637111746098
30
0
41
1
10
-0.394976888875306
20
-35.8566245309614
30
0
41
1
10
-0.394976888875277
20
-35.8439795171219
30
0
41
1
10
-0.394976888875249
20
-35.826261141687
30
0
41
1
10
-0.394976888875277
20
-35.8035690347396
30
0
41
1
10
-0.394976888875277
20
-35.7759991408607
30
0
41
1
10
-0.394976888875277
20
-35.7436409390551
30
0
41
1
10
-0.394976888875249
20
-35.7065800550004
30
0
41
1
10
-0.394976888875249
20
-35.6648981389415
30
0
41
1
10
-0.394976888875306
20
-35.6186712456131
30
0
41
1
10
-0.394976888875277
20
-35.5679744983808
30
0
41
1
10
-0.394976888875277
20
-35.5128761964009
30
0
41
1
10
-0.394976888875277
20
-35.4336188232989
30
0
41
1
10
-0.394976888875277
20
-35.3458690564808
30
0
41
1
10
-0.394976888875277
20
-35.2497713845769
30
0
41
1
10
-0.394976888875277
20
-35.1736145542893
30
0
41
1
10
-0.394976888875249
20
-35.0934183585436
30
0
41
1
10
-0.394976888875277
20
-35.0092317015021
30
0
41
1
10
-0.394976888875277
20
-34.9211049364669
30
0
41
1
10
-0.394976888875277
20
-34.8290853700734
30
0
41
1
10
-0.394976888875277
20
-34.7332186300704
30
0
41
1
10
-0.394976888875249
20
-34.6335485066013
30
0
41
1
10
-0.394976888875249
20
-34.5301171770343
30
0
41
1
10
-0.394976888875277
20
-34.3872241278821
30
0
41
1
10
-0.394976888875249
20
-34.2370419132509
30
0
41
1
10
-0.394976888875249
20
-34.0992650911192
30
0
41
1
10
-0.394976888875249
20
-34.0187437151791
30
0
41
1
10
-0.394976888875249
20
-33.9370369896414
30
0
41
1
10
-0.394976888875277
20
-33.832721950075
30
0
41
1
10
-0.394976888875277
20
-33.6610954954258
30
0
41
1
10
-0.394976888875249
20
-33.4826057619405
30
0
41
1
10
-0.394976888875306
20
-33.2972051548837
30
0
41
1
10
-0.394976888875277
20
-33.1072907219371
30
0
41
1
10
-0.394976888875277
20
-32.8615720410335
30
0
41
1
10
-0.394976888875277
20
-32.6048424687674
30
0
41
1
10
-0.394976888875277
20
-32.3928928338023
30
0
41
1
10
-0.394976888875249
20
-32.2307235504388
30
0
41
1
10
-0.394976888875249
20
-32.0653460663191
30
0
41
1
10
-0.394976888875277
20
-31.9315973957833
30
0
41
1
10
-0.394976888875277
20
-31.8530501454371
30
0
41
1
10
-0.394976888875306
20
-31.8313444838224
30
0
0
SPLINE
5
159
100
AcDbEntity
8
SK1
62
256
6
ByLayer
370
13
48
1
60
0
100
AcDbSpline
70
4
71
3
72
84
73
80
40
0
40
0
40
0
40
0
40
0.0185663809722989
40
0.0414882937449713
40
0.0529492501313075
40
0.0644102065176437
40
0.0873321192903163
40
0.110254032062989
40
0.133175944835661
40
0.144636901221997
40
0.156097857608334
40
0.16755881399467
40
0.179019770381006
40
0.201941683153679
40
0.224863595926351
40
0.236324552312687
40
0.247785508699023
40
0.25924646508536
40
0.270707421471696
40
0.293629334244368
40
0.316551247017041
40
0.339473159789713
40
0.35093411617605
40
0.362395072562386
40
0.385316985335058
40
0.408238898107731
40
0.419699854494067
40
0.431160810880403
40
0.44262176726674
40
0.454082723653076
40
0.477004636425748
40
0.488465592812085
40
0.499926549198421
40
0.511387505584757
40
0.522848461971093
40
0.545770374743766
40
0.557231331130102
40
0.568692287516438
40
0.580153243902775
40
0.591614200289111
40
0.614536113061783
40
0.625997069448119
40
0.637458025834456
40
0.648918982220792
40
0.660379938607128
40
0.666110416800296
40
0.671840894993464
40
0.683301851379801
40
0.694762807766137
40
0.706223764152473
40
0.717684720538809
40
0.729145676925146
40
0.740606633311482
40
0.752067589697818
40
0.757798067890986
40
0.763528546084154
40
0.77498950247049
40
0.786450458856827
40
0.797911415243163
40
0.809372371629499
40
0.820833328015835
40
0.832294284402172
40
0.843755240788508
40
0.855216197174844
40
0.86667715356118
40
0.878138109947517
40
0.889599066333853
40
0.901060022720189
40
0.912520979106525
40
0.923981935492861
40
0.935442891879198
40
0.941173370072366
40
0.946903848265534
40
0.95836480465187
40
0.969825761038207
40
0.975556239231375
40
0.981286717424543
40
0.992747673810879
40
1
40
1
40
1
40
1
41
1
10
-0.394976888875249
20
-31.8313444837583
30
0
41
1
10
-0.394976888875277
20
-31.7388194829862
30
0
41
1
10
-0.394976888875306
20
-31.5290029576812
30
0
41
1
10
-0.394976888875277
20
-31.2525219484188
30
0
41
1
10
-0.394976888875249
20
-31.0069093580469
30
0
41
1
10
-0.394976888875306
20
-30.7572080062434
30
0
41
1
10
-0.394976888875277
20
-30.4375437690499
30
0
41
1
10
-0.394976888875277
20
-30.041846883991
30
0
41
1
10
-0.394976888875249
20
-29.7022003135975
30
0
41
1
10
-0.394976888875277
20
-29.4245084222719
30
0
41
1
10
-0.394976888875249
20
-29.2133327647665
30
0
41
1
10
-0.394976888875249
20
-28.9992339808614
30
0
41
1
10
-0.394976888875249
20
-28.7098481402264
30
0
41
1
10
-0.394976888875277
20
-28.3409704949156
30
0
41
1
10
-0.394976888875249
20
-27.9625243956634
30
0
41
1
10
-0.394976888875306
20
-27.6539931014151
30
0
41
1
10
-0.394976888875277
20
-27.4197920823074
30
0
41
1
10
-0.394976888875277
20
-27.1827656093462
30
0
41
1
10
-0.394976888875277
20
-26.8629311663352
30
0
41
1
10
-0.394976888875277
20
-26.4562321610578
30
0
41
1
10
-0.394976888875277
20
-25.956995545731
30
0
41
1
10
-0.394976888875277
20
-25.5317904302902
30
0
41
1
10
-0.394976888875277
20
-25.1860341652141
30
0
41
1
10
-0.394976888875277
20
-24.8366207519515
30
0
41
1
10
-0.394976888875249
20
-24.3931333811418
30
0
41
1
10
-0.394976888875277
20
-23.9405766122791
30
0
41
1
10
-0.394976888875249
20
-23.5730166298655
30
0
41
1
10
-0.394976888875277
20
-23.2946864708619
30
0
41
1
10
-0.394976888875249
20
-23.0136599970686
30
0
41
1
10
-0.394976888875249
20
-22.635313242394
30
0
41
1
10
-0.394976888875277
20
-22.2517707390545
30
0
41
1
10
-0.394976888875249
20
-21.8626976962736
30
0
41
1
10
-0.394976888875277
20
-21.5682668891845
30
0
41
1
10
-0.394976888875277
20
-21.2711684505153
30
0
41
1
10
-0.394976888875277
20
-20.8714231957185
30
0
41
1
10
-0.394976888875249
20
-20.4665492038551
30
0
41
1
10
-0.394976888875277
20
-20.0561712754683
30
0
41
1
10
-0.394976888875249
20
-19.7457866678881
30
0
41
1
10
-0.394976888875249
20
-19.4327531367487
30
0
41
1
10
-0.394976888875277
20
-19.0117775851467
30
0
41
1
10
-0.394976888875277
20
-18.5857236544632
30
0
41
1
10
-0.394976888875277
20
-18.1541693183471
30
0
41
1
10
-0.394976888875277
20
-17.8279183615914
30
0
41
1
10
-0.394976888875277
20
-17.4990274946616
30
0
41
1
10
-0.394976888875277
20
-17.222790143213
30
0
41
1
10
-0.394976888875277
20
-17.0004108954029
30
0
41
1
10
-0.394976888875249
20
-16.7771522140654
30
0
41
1
10
-0.394976888875249
20
-16.4965191583141
30
0
41
1
10
-0.394976888875277
20
-16.1570713412192
30
0
41
1
10
-0.394976888875249
20
-15.8149837556982
30
0
41
1
10
-0.394976888875277
20
-15.4702555471364
30
0
41
1
10
-0.394976888875249
20
-15.1228859444593
30
0
41
1
10
-0.394976888875249
20
-14.7728739584207
30
0
41
1
10
-0.394976888875277
20
-14.4790383776377
30
0
41
1
10
-0.394976888875277
20
-14.2425643537975
30
0
41
1
10
-0.394976888875277
20
-14.0052089603083
30
0
41
1
10
-0.394976888875277
20
-13.7069667840624
30
0
41
1
10
-0.394976888875277
20
-13.3463680811382
30
0
41
1
10
-0.394976888875249
20
-12.9831178868122
30
0
41
1
10
-0.394976888875277
20
-12.6172140771122
30
0
41
1
10
-0.394976888875249
20
-12.2486538532732
30
0
41
1
10
-0.394976888875249
20
-11.8774354513043
30
0
41
1
10
-0.394976888875249
20
-11.5035558012535
30
0
41
1
10
-0.394976888875249
20
-11.1270131973585
30
0
41
1
10
-0.394976888875277
20
-10.7478049083352
30
0
41
1
10
-0.394976888875277
20
-10.3659293652703
30
0
41
1
10
-0.394976888875249
20
-9.98138463666172
30
0
41
1
10
-0.394976888875277
20
-9.59416972776225
30
0
41
1
10
-0.394976888875249
20
-9.20428399686458
30
0
41
1
10
-0.394976888875249
20
-8.81172783237582
30
0
41
1
10
-0.394976888875277
20
-8.48244125097071
30
0
41
1
10
-0.394976888875277
20
-8.21754949980775
30
0
41
1
10
-0.394976888875249
20
-7.9517719906421
30
0
41
1
10
-0.394976888875277
20
-7.61805782474266
30
0
41
1
10
-0.394976888875277
20
-7.28212710030417
30
0
41
1
10
-0.394976888875249
20
-7.01191434968564
30
0
41
1
10
-0.394976888875277
20
-6.74082518692174
30
0
41
1
10
-0.394976888875277
20
-6.45050049171107
30
0
41
1
10
-0.394976888875277
20
-6.22707397316498
30
0
41
1
10
-0.394976888875277
20
-6.14029748393352
30
0
0
SPLINE
5
15A
100
AcDbEntity
8
1
62
256
6
ByLayer
370
18
48
1
60
0
100
AcDbSpline
70
4
71
3
72
20
73
16
40
0
40
0
40
0
40
0
40
0.250000000000002
40
0.250000000000002
40
0.375000000000004
40
0.375000000000004
40
0.500000000000006
40
0.500000000000006
40
0.750000000000008
40
0.750000000000008
40
0.812500000000006
40
0.812500000000006
40
0.875000000000005
40
0.875000000000005
40
1
40
1
40
1
40
1
41
1
10
37.5805459037026
20
44.2225605842951
30
0
41
1
10
37.6075806968378
20
44.3878266978306
30
0
41
1
10
37.669848534431
20
44.5457648466278
30
0
41
1
10
37.8172634690928
20
44.7722623773258
30
0
41
1
10
37.8754845259612
20
44.8460170495336
30
0
41
1
10
38.0114202357149
20
44.9900117649288
30
0
41
1
10
38.0883076387394
20
45.0592873806237
30
0
41
1
10
38.3434430642135
20
45.2572157345317
30
0
41
1
10
38.5466296649379
20
45.3770256968166
30
0
41
1
10
38.8466771159954
20
45.5115862748629
30
0
41
1
10
38.9091468252817
20
45.5377626013469
30
0
41
1
10
39.0368801332243
20
45.5877510802972
30
0
41
1
10
39.1023668902497
20
45.61167067922
30
0
41
1
10
39.3036613942122
20
45.6802870146723
30
0
41
1
10
39.4442840976496
20
45.7218541603794
30
0
41
1
10
39.5914882352701
20
45.7593069995467
30
0
0
SPLINE
5
15B
100
AcDbEntity
8
SK1
62
256
6
ByLayer
370
18
48
1
60
0
100
AcDbSpline
70
4
71
3
72
26
73
22
40
0
40
0
40
0
40
0
40
0.0312499999999996
40
0.0312499999999996
40
0.0624999999999992
40
0.0624999999999992
40
0.093749999999999
40
0.093749999999999
40
0.124999999999999
40
0.124999999999999
40
0.187499999999999
40
0.187499999999999
40
0.249999999999999
40
0.249999999999999
40
0.374999999999998
40
0.374999999999998
40
0.499999999999998
40
0.499999999999998
40
0.749999999999999
40
0.749999999999999
40
1
40
1
40
1
40
1
41
1
10
-0.394976888875277
20
6.14029722153333
30
0
41
1
10
-0.411386827853335
20
6.15471389261225
30
0
41
1
10
-0.428762929070331
20
6.1679268285034
30
0
41
1
10
-0.466312490804512
20
6.19087886287889
30
0
41
1
10
-0.486486340955366
20
6.20053205424261
30
0
41
1
10
-0.528636087579201
20
6.21387385760761
30
0
41
1
10
-0.551333806654242
20
6.21763094422394
30
0
41
1
10
-0.595996896779297
20
6.21759710275114
30
0
41
1
10
-0.618501718611924
20
6.21388050874936
30
0
41
1
10
-0.682666367362884
20
6.1935480120039
30
0
41
1
10
-0.72049749251434
20
6.16857769971651
30
0
41
1
10
-0.786209064871883
20
6.11129360410717
30
0
41
1
10
-0.815074852177247
20
6.07817489743732
30
0
41
1
10
-0.892438429618153
20
5.97534441057223
30
0
41
1
10
-0.933322586559768
20
5.90108526750922
30
0
41
1
10
-1.00643010561566
20
5.74774420897123
30
0
41
1
10
-1.03799495343554
20
5.66875170759863
30
0
41
1
10
-1.12311078163748
20
5.43037042400053
30
0
41
1
10
-1.16788167463838
20
5.26810674825342
30
0
41
1
10
-1.24572901926436
20
4.93961739422363
30
0
41
1
10
-1.27842602392926
20
4.77330384397379
30
0
41
1
10
-1.30710678118652
20
4.60538003006582
30
0
0
SPLINE
5
15C
100
AcDbEntity
8
1
62
256
6
ByLayer
370
18
48
1
60
0
100
AcDbSpline
70
4
71
3
72
30
73
26
40
0
40
0
40
0
40
0
40
0.25
40
0.25
40
0.375
40
0.375
40
0.500000000000001
40
0.500000000000001
40
0.625000000000001
40
0.625000000000001
40
0.687500000000001
40
0.687500000000001
40
0.750000000000002
40
0.750000000000002
40
0.812500000000002
40
0.812500000000002
40
0.875000000000002
40
0.875000000000002
40
0.906250000000002
40
0.906250000000002
40
0.937500000000001
40
0.937500000000001
40
0.968750000000001
40
0.968750000000001
40
1
40
1
40
1
40
1
41
1
10
41.0198783770941
20
-62.6211532411459
30
0
41
1
10
40.6872029555426
20
-61.3029288287733
30
0
41
1
10
40.3594512687041
20
-59.9861673312143
30
0
41
1
10
39.8772988197112
20
-58.0131245329142
30
0
41
1
10
39.7180807389731
20
-57.3553877697733
30
0
41
1
10
39.4043945123948
20
-56.0444780228536
30
0
41
1
10
39.2498339078391
20
-55.3909604997772
30
0
41
1
10
38.9463874777479
20
-54.0885248098525
30
0
41
1
10
38.7974796253941
20
-53.4395869097268
30
0
41
1
10
38.5798060507077
20
-52.4706883420558
30
0
41
1
10
38.5082039072914
20
-52.1484801509552
30
0
41
1
10
38.3673218726283
20
-51.5059086894756
30
0
41
1
10
38.2980042871973
20
-51.1853694936369
30
0
41
1
10
38.1630463901639
20
-50.550145563666
30
0
41
1
10
38.0973121862684
20
-50.2350719061996
30
0
41
1
10
37.9705073067535
20
-49.6118279733931
30
0
41
1
10
37.9094003731426
20
-49.3035975304538
30
0
41
1
10
37.8229135908857
20
-48.8491065183171
30
0
41
1
10
37.7949568705632
20
-48.6989349515889
30
0
41
1
10
37.7413421516025
20
-48.402144228524
30
0
41
1
10
37.7157674988
20
-48.2559835508089
30
0
41
1
10
37.6684261113674
20
-47.9724123677958
30
0
41
1
10
37.6465763593579
20
-47.8346308387473
30
0
41
1
10
37.6083752550705
20
-47.5713694985669
30
0
41
1
10
37.5918741818144
20
-47.444845443376
30
0
41
1
10
37.5805459037026
20
-47.3328833481285
30
0
0
SPLINE
5
15D
100
AcDbEntity
8
SK1
62
256
6
ByLayer
370
18
48
1
60
0
100
AcDbSpline
70
4
71
3
72
26
73
22
40
0
40
0
40
0
40
0
40
0.0312499999999985
40
0.0312499999999985
40
0.0624999999999971
40
0.0624999999999971
40
0.0937499999999956
40
0.0937499999999956
40
0.124999999999994
40
0.124999999999994
40
0.187499999999994
40
0.187499999999994
40
0.249999999999993
40
0.249999999999993
40
0.374999999999993
40
0.374999999999993
40
0.499999999999993
40
0.499999999999993
40
0.749999999999997
40
0.749999999999997
40
1
40
1
40
1
40
1
41
1
10
-0.394976888875277
20
-6.14029748393352
30
0
41
1
10
-0.388671542343786
20
-6.13475802495361
30
0
41
1
10
-0.38181168823624
20
-6.12988869329266
30
0
41
1
10
-0.366640931323502
20
-6.12297362066229
30
0
41
1
10
-0.358278007449968
20
-6.12106156290508
30
0
41
1
10
-0.341586244187852
20
-6.12220054473732
30
0
41
1
10
-0.333329946063941
20
-6.1253091550017
30
0
41
1
10
-0.318937761824714
20
-6.13458695676911
30
0
41
1
10
-0.312691447115242
20
-6.14059423910967
30
0
41
1
10
-0.296015040763564
20
-6.16032344698252
30
0
41
1
10
-0.28761208065626
20
-6.17550182303998
30
0
41
1
10
-0.273149761403374
20
-6.20664379931853
30
0
41
1
10
-0.267232047922079
20
-6.22260462544975
30
0
41
1
10
-0.251522730309716
20
-6.27109030505434
30
0
41
1
10
-0.243762688270124
20
-6.30429135194925
30
0
41
1
10
-0.230811347956632
20
-6.3711040042067
30
0
41
1
10
-0.225742010447931
20
-6.40454205690904
30
0
41
1
10
-0.213066187746563
20
-6.50489212673546
30
0
41
1
10
-0.207959301007548
20
-6.57183900384274
30
0
41
1
10
-0.201382597553788
20
-6.70573141098549
30
0
41
1
10
-0.200000000000017
20
-6.77268016381558
30
0
41
1
10
-0.200000000000017
20
-6.83961987074568
30
0
0
SPLINE
5
15E
100
AcDbEntity
8
SK1
62
256
6
ByLayer
370
18
48
1
60
0
100
AcDbSpline
70
4
71
3
72
18
73
14
40
0
40
0
40
0
40
0
40
0.0354449452773772
40
0.0354449452773772
40
0.125183046627968
40
0.125183046627968
40
0.30465924932915
40
0.30465924932915
40
0.484135452030332
40
0.484135452030332
40
0.843087857432671
40
0.843087857432671
40
1
40
1
40
1
40
1
41
1
10
-0.289592891745514
20
-29.34098648373
30
0
41
1
10
-0.286276040416595
20
-29.3381281137156
30
0
41
1
10
-0.283237075099464
20
-29.3351029997222
30
0
41
1
10
-0.273149842595188
20
-29.3241187006639
30
0
41
1
10
-0.267232186715035
20
-29.3156718515401
30
0
41
1
10
-0.251523005226773
20
-29.2893856902038
30
0
41
1
10
-0.243762997944032
20
-29.2705582101087
30
0
41
1
10
-0.230811685423532
20
-29.2317835550302
30
0
41
1
10
-0.225742324946253
20
-29.2119188835138
30
0
41
1
10
-0.213066387151372
20
-29.1513482593076
30
0
41
1
10
-0.207959408398551
20
-29.109674994757
30
0
41
1
10
-0.203233530197025
20
-29.0485667332103
30
0
41
1
10
-0.202160219818751
20
-29.0298129602059
30
0
41
1
10
-0.201407384082955
20
-29.0109078351424
30
0
0
SPLINE
5
15F
100
AcDbEntity
8
SK1
62
256
6
ByLayer
370
18
48
1
60
0
100
AcDbSpline
70
4
71
3
72
26
73
22
40
0
40
0
40
0
40
0
40
0.25
40
0.25
40
0.5
40
0.5
40
0.625
40
0.625
40
0.6875
40
0.6875
40
0.75
40
0.75
40
0.8125
40
0.8125
40
0.875
40
0.875
40
0.90625
40
0.90625
40
0.9375
40
0.9375
40
1
40
1
40
1
40
1
41
1
10
-1.30710678118652
20
-4.60538005832728
30
0
41
1
10
-1.27841932930971
20
-4.77334296698425
30
0
41
1
10
-1.2456857383676
20
-4.93989365706815
30
0
41
1
10
-1.16755021864046
20
-5.26941198485815
30
0
41
1
10
-1.12236330163589
20
-5.43277058328292
30
0
41
1
10
-1.0373634846508
20
-5.6703642790095
30
0
41
1
10
-1.00612384847767
20
-5.74840054491563
30
0
41
1
10
-0.951664768597595
20
-5.86260604873684
30
0
41
1
10
-0.932227264069724
20
-5.9001935669759
30
0
41
1
10
-0.889529369037234
20
-5.97397527026536
30
0
41
1
10
-0.866205195590851
20
-6.01027560258413
30
0
41
1
10
-0.814627264862736
20
-6.07870671929965
30
0
41
1
10
-0.786411999023954
20
-6.11112172686987
30
0
41
1
10
-0.720237073541171
20
-6.16880021462489
30
0
41
1
10
-0.682055653726991
20
-6.19377677065563
30
0
41
1
10
-0.618548195707575
20
-6.21384852858478
30
0
41
1
10
-0.595883870694593
20
-6.21761323445148
30
0
41
1
10
-0.551151188429884
20
-6.21761557504368
30
0
41
1
10
-0.528825837373546
20
-6.21393440359401
30
0
41
1
10
-0.465027161701187
20
-6.19373948168715
30
0
41
1
10
-0.427781370963942
20
-6.16911732468
30
0
41
1
10
-0.394976888875277
20
-6.14029748393355
30
0
0
SPLINE
5
160
100
AcDbEntity
8
1
62
256
6
ByLayer
370
18
48
1
60
0
100
AcDbSpline
70
4
71
3
72
22
73
18
40
0
40
0
40
0
40
0
40
0.249986711232534
40
0.249986711232534
40
0.312487818629823
40
0.312487818629823
40
0.374988926027112
40
0.374988926027112
40
0.49999114082169
40
0.49999114082169
40
0.624993355616267
40
0.624993355616267
40
0.749995570410845
40
0.749995570410845
40
0.874997785205422
40
0.874997785205422
40
1
40
1
40
1
40
1
41
1
10
38.0576822480672
20
50.1499994422268
30
0
41
1
10
38.0577096260509
20
50.1497414376193
30
0
41
1
10
38.0660186206281
20
50.0602062537369
30
0
41
1
10
38.0964329554657
20
49.8332198899894
30
0
41
1
10
38.103608796426
20
49.781960620283
30
0
41
1
10
38.1205984962115
20
49.6683136306145
30
0
41
1
10
38.1304100244394
20
49.6059343795943
30
0
41
1
10
38.1647235571801
20
49.4023369408305
30
0
41
1
10
38.1940407867575
20
49.2446655325311
30
0
41
1
10
38.271966689556
20
48.8863677801961
30
0
41
1
10
38.3205586692916
20
48.685738652028
30
0
41
1
10
38.4456556659934
20
48.2422704734421
30
0
41
1
10
38.5221247645734
20
47.9994278048554
30
0
41
1
10
38.7145708087274
20
47.4721958738259
30
0
41
1
10
38.830471813996
20
47.1878005641063
30
0
41
1
10
39.1179249390007
20
46.5781822989087
30
0
41
1
10
39.2893028994998
20
46.252946761733
30
0
41
1
10
39.5005785497258
20
45.9078139925751
30
0
0
SPLINE
5
161
100
AcDbEntity
8
1
62
256
6
ByLayer
370
18
48
1
60
0
100
AcDbSpline
70
4
71
3
72
16
73
12
40
0
40
0
40
0
40
0
40
0.125
40
0.125
40
0.249999999999999
40
0.249999999999999
40
0.499999999999999
40
0.499999999999999
40
0.75
40
0.75
40
1
40
1
40
1
40
1
41
1
10
13.7886751345948
20
-14.9931545155676
30
0
41
1
10
13.7572057460937
20
-14.9931545155676
30
0
41
1
10
13.7265863249372
20
-14.9993270329222
30
0
41
1
10
13.6685627993565
20
-15.0215159830932
30
0
41
1
10
13.6421718734731
20
-15.0369693753061
30
0
41
1
10
13.5684767776432
20
-15.092429500184
30
0
41
1
10
13.529486779677
20
-15.1387838835225
30
0
41
1
10
13.4628524690449
20
-15.2385754420443
30
0
41
1
10
13.4360331579796
20
-15.2912821270175
30
0
41
1
10
13.3902293919744
20
-15.4000512474235
30
0
41
1
10
13.3713425683518
20
-15.4563289206726
30
0
41
1
10
13.3556624327026
20
-15.5133461831291
30
0
0
SPLINE
5
162
100
AcDbEntity
8
SK1
62
256
6
ByLayer
370
18
48
1
60
0
100
AcDbSpline
70
4
71
3
72
316
73
312
40
0
40
0
40
0
40
0
40
0.0001408019214112
40
0.0036609372403987
40
0.0071810725593863
40
0.0107012078783739
40
0.0142213431973615
40
0.0177414785163491
40
0.0212616138353367
40
0.0247817491543243
40
0.0283018844733119
40
0.0318220197922995
40
0.0353421551112871
40
0.0423824257492622
40
0.0459025610682498
40
0.0494226963872374
40
0.052942831706225
40
0.0564629670252126
40
0.0599831023442002
40
0.0635032376631878
40
0.0670233729821754
40
0.070543508301163
40
0.0740636436201505
40
0.0775837789391381
40
0.0846240495771133
40
0.0881441848961009
40
0.0899042525555947
40
0.0916643202150885
40
0.0951844555340761
40
0.0987045908530637
40
0.105744861491039
40
0.109264996810026
40
0.112785132129014
40
0.119825402766989
40
0.126865673404964
40
0.130385808723952
40
0.13390594404294
40
0.137426079361927
40
0.140946214680915
40
0.14798648531889
40
0.155026755956865
40
0.158546891275853
40
0.16206702659484
40
0.169107297232816
40
0.176147567870791
40
0.183187838508766
40
0.186707973827753
40
0.190228109146741
40
0.193748244465729
40
0.197268379784716
40
0.204308650422691
40
0.211348921060667
40
0.214869056379654
40
0.218389191698642
40
0.221909327017629
40
0.225429462336617
40
0.232469732974592
40
0.239510003612567
40
0.246550274250542
40
0.25007040956953
40
0.253590544888518
40
0.260630815526493
40
0.267671086164468
40
0.271191221483456
40
0.274711356802443
40
0.278231492121431
40
0.281751627440418
40
0.288791898078394
40
0.292312033397381
40
0.295832168716369
40
0.299352304035356
40
0.302872439354344
40
0.309912709992319
40
0.313432845311307
40
0.316952980630294
40
0.320473115949282
40
0.323993251268269
40
0.331033521906245
40
0.334553657225232
40
0.33807379254422
40
0.341593927863207
40
0.345114063182195
40
0.346874130841689
40
0.348634198501182
40
0.35215433382017
40
0.355674469139158
40
0.359194604458145
40
0.362714739777133
40
0.366234875096121
40
0.369755010415108
40
0.373275145734096
40
0.375035213393589
40
0.376795281053083
40
0.380315416372071
40
0.383835551691058
40
0.387355687010046
40
0.390875822329034
40
0.394395957648021
40
0.397916092967009
40
0.401436228285997
40
0.404956363604984
40
0.408476498923972
40
0.411996634242959
40
0.415516769561947
40
0.419036904880934
40
0.422557040199922
40
0.42607717551891
40
0.429597310837897
40
0.431357378497391
40
0.433117446156885
40
0.436637581475872
40
0.44015771679486
40
0.441917784454354
40
0.443677852113848
40
0.447197987432835
40
0.450718122751823
40
0.452478190411316
40
0.45423825807081
40
0.455998325730304
40
0.457758393389798
40
0.459518461049292
40
0.461278528708786
40
0.462158562538532
40
0.463038596368279
40
0.464798664027773
40
0.46567869785752
40
0.466558731687267
40
0.468318799346761
40
0.470078867006255
40
0.470958900836001
40
0.471838934665748
40
0.472718968495495
40
0.473599002325242
40
0.475359069984736
40
0.476239103814483
40
0.47711913764423
40
0.477999171473977
40
0.478879205303723
40
0.47975923913347
40
0.480639272963217
40
0.482399340622711
40
0.483279374452458
40
0.484159408282205
40
0.485919475941699
40
0.486799509771445
40
0.487679543601192
40
0.488559577430939
40
0.489439611260686
40
0.49119967892018
40
0.492959746579674
40
0.493839780409421
40
0.494719814239168
40
0.495599848068914
40
0.496479881898661
40
0.498239949558155
40
0.499119983387902
40
0.500000017217649
40
0.500880051047396
40
0.501760084877143
40
0.503520152536637
40
0.504400186366383
40
0.50528022019613
40
0.506160254025877
40
0.507040287855624
40
0.508800355515118
40
0.510560423174612
40
0.511440457004359
40
0.512320490834106
40
0.513200524663852
40
0.514080558493599
40
0.515840626153093
40
0.517600693812587
40
0.519360761472081
40
0.521120829131575
40
0.522880896791068
40
0.523760930620815
40
0.524640964450562
40
0.525520998280309
40
0.526401032110056
40
0.527281065939803
40
0.52816109976955
40
0.529041133599297
40
0.529921167429043
40
0.531681235088537
40
0.533441302748031
40
0.534321336577778
40
0.535201370407525
40
0.536961438067019
40
0.537841471896766
40
0.538721505726512
40
0.540481573386006
40
0.5422416410455
40
0.544001708704994
40
0.545761776364488
40
0.547521844023981
40
0.549281911683475
40
0.552802047002463
40
0.55632218232145
40
0.558082249980944
40
0.559842317640438
40
0.563362452959426
40
0.566882588278413
40
0.568642655937907
40
0.570402723597401
40
0.573922858916388
40
0.575682926575882
40
0.577442994235376
40
0.580963129554364
40
0.584483264873351
40
0.588003400192339
40
0.591523535511326
40
0.595043670830314
40
0.596803738489808
40
0.598563806149301
40
0.602083941468289
40
0.605604076787277
40
0.609124212106264
40
0.612644347425252
40
0.616164482744239
40
0.619684618063227
40
0.623204753382215
40
0.626724888701202
40
0.63024502402019
40
0.633765159339177
40
0.637285294658165
40
0.640805429977153
40
0.647845700615128
40
0.651365835934115
40
0.653125903593609
40
0.654885971253103
40
0.65840610657209
40
0.661926241891078
40
0.665446377210066
40
0.668966512529053
40
0.676006783167028
40
0.679526918486016
40
0.683047053805004
40
0.686567189123991
40
0.690087324442979
40
0.697127595080954
40
0.700647730399942
40
0.704167865718929
40
0.707688001037917
40
0.711208136356904
40
0.71824840699488
40
0.721768542313867
40
0.725288677632855
40
0.728808812951842
40
0.73232894827083
40
0.739369218908805
40
0.74640948954678
40
0.749929624865768
40
0.753449760184755
40
0.760490030822731
40
0.767530301460706
40
0.774570572098681
40
0.778090707417669
40
0.781610842736656
40
0.785130978055644
40
0.788651113374631
40
0.795691384012607
40
0.802731654650582
40
0.806251789969569
40
0.809771925288557
40
0.813292060607544
40
0.816812195926532
40
0.823852466564507
40
0.830892737202482
40
0.837933007840458
40
0.841453143159445
40
0.844973278478433
40
0.852013549116408
40
0.859053819754383
40
0.862573955073371
40
0.866094090392358
40
0.869614225711346
40
0.873134361030333
40
0.880174631668309
40
0.887214902306284
40
0.890735037625271
40
0.894255172944259
40
0.901295443582234
40
0.904815578901222
40
0.908335714220209
40
0.910095781879703
40
0.911855849539197
40
0.915375984858185
40
0.92241625549616
40
0.925936390815147
40
0.929456526134135
40
0.932976661453123
40
0.93649679677211
40
0.940016932091098
40
0.943537067410085
40
0.947057202729073
40
0.95057733804806
40
0.954097473367048
40
0.957617608686036
40
0.961137744005023
40
0.964657879324011
40
0.968178014642998
40
0.971698149961986
40
0.975218285280974
40
0.978738420599961
40
0.982258555918949
40
0.985778691237936
40
0.989298826556924
40
0.992818961875911
40
0.996339097194899
40
0.999859232513887
40
1
40
1
40
1
40
1
41
1
10
-2.19999999999999
20
-35.9983615623496
30
0
41
1
10
-2.19999999999999
20
-35.9981610428422
30
0
41
1
10
-2.19999999999999
20
-35.9929120729239
30
0
41
1
10
-2.19999999999999
20
-35.9808152416011
30
0
41
1
10
-2.19999999999996
20
-35.9580338304474
30
0
41
1
10
-2.19999999999999
20
-35.9303574291782
30
0
41
1
10
-2.19999999999999
20
-35.8978764151194
30
0
41
1
10
-2.19999999999996
20
-35.8606772530753
30
0
41
1
10
-2.19999999999999
20
-35.8188423246857
30
0
41
1
10
-2.19999999999999
20
-35.7724483817261
30
0
41
1
10
-2.19999999999996
20
-35.7215711644676
30
0
41
1
10
-2.19999999999999
20
-35.6662795296584
30
0
41
1
10
-2.19999999999996
20
-35.5867654490801
30
0
41
1
10
-2.19999999999999
20
-35.4986806355994
30
0
41
1
10
-2.19999999999999
20
-35.4022826774254
30
0
41
1
10
-2.19999999999999
20
-35.3258752465303
30
0
41
1
10
-2.19999999999999
20
-35.2454181739629
30
0
41
1
10
-2.19999999999999
20
-35.1609605893935
30
0
41
1
10
-2.19999999999999
20
-35.0725532191378
30
0
41
1
10
-2.19999999999999
20
-34.9802435989443
30
0
41
1
10
-2.20000000000002
20
-34.8840776031987
30
0
41
1
10
-2.19999999999999
20
-34.7840992432798
30
0
41
1
10
-2.19999999999999
20
-34.680350907395
30
0
41
1
10
-2.19999999999999
20
-34.5370512371171
30
0
41
1
10
-2.19999999999999
20
-34.3863617301769
30
0
41
1
10
-2.19999999999999
20
-34.2481903083141
30
0
41
1
10
-2.19999999999999
20
-34.1674461612967
30
0
41
1
10
-2.19999999999999
20
-34.0855143550287
30
0
41
1
10
-2.19999999999999
20
-33.9808790950557
30
0
41
1
10
-2.19999999999996
20
-33.8087856219281
30
0
41
1
10
-2.19999999999999
20
-33.6297179032971
30
0
41
1
10
-2.19999999999996
20
-33.4438214187486
30
0
41
1
10
-2.19999999999996
20
-33.2534024436424
30
0
41
1
10
-2.19999999999996
20
-33.0069583008311
30
0
41
1
10
-2.19999999999999
20
-32.7494770362054
30
0
41
1
10
-2.19999999999996
20
-32.5369772815204
30
0
41
1
10
-2.19999999999999
20
-32.3743609793661
30
0
41
1
10
-2.19999999999999
20
-32.2085294017453
30
0
41
1
10
-2.19999999999999
20
-31.9831685440601
30
0
41
1
10
-2.19999999999996
20
-31.6935278618122
30
0
41
1
10
-2.19999999999999
20
-31.393453387608
30
0
41
1
10
-2.19999999999999
20
-31.1472201940908
30
0
41
1
10
-2.19999999999999
20
-30.8968896882167
30
0
41
1
10
-2.19999999999996
20
-30.5763259617257
30
0
41
1
10
-2.19999999999996
20
-30.1795721887093
30
0
41
1
10
-2.19999999999996
20
-29.8389753322122
30
0
41
1
10
-2.20000000000002
20
-29.5605910235312
30
0
41
1
10
-2.19999999999996
20
-29.3488540567687
30
0
41
1
10
-2.19999999999999
20
-29.1341864918563
30
0
41
1
10
-2.19999999999996
20
-28.8440802938742
30
0
41
1
10
-2.19999999999999
20
-28.4741740106829
30
0
41
1
10
-2.19999999999999
20
-28.0946721145145
30
0
41
1
10
-2.19999999999999
20
-27.7853718293799
30
0
41
1
10
-2.19999999999999
20
-27.5505474706333
30
0
41
1
10
-2.19999999999999
20
-27.312889474477
30
0
41
1
10
-2.19999999999999
20
-26.9922551600878
30
0
41
1
10
-2.19999999999996
20
-26.5844139299711
30
0
41
1
10
-2.19999999999999
20
-26.0838374470222
30
0
41
1
10
-2.19999999999996
20
-25.6574288628694
30
0
41
1
10
-2.19999999999999
20
-25.3107955671813
30
0
41
1
10
-2.19999999999999
20
-24.9604927323371
30
0
41
1
10
-2.19999999999999
20
-24.5157343100948
30
0
41
1
10
-2.19999999999999
20
-24.0618724924845
30
0
41
1
10
-2.19999999999999
20
-23.6933606344229
30
0
41
1
10
-2.19999999999996
20
-23.414257866645
30
0
41
1
10
-2.19999999999999
20
-23.1324477597271
30
0
41
1
10
-2.19999999999999
20
-22.7531069193881
30
0
41
1
10
-2.19999999999999
20
-22.3683458387384
30
0
41
1
10
-2.19999999999996
20
-21.9782353365019
30
0
41
1
10
-2.19999999999999
20
-21.6829615822886
30
0
41
1
10
-2.19999999999996
20
-21.385007393
30
0
41
1
10
-2.19999999999996
20
-20.9841753387678
30
0
41
1
10
-2.19999999999996
20
-20.5779672218008
30
0
41
1
10
-2.19999999999996
20
-20.1664517496922
30
0
41
1
10
-2.19999999999999
20
-19.8551416115087
30
0
41
1
10
-2.19999999999999
20
-19.5411672873635
30
0
41
1
10
-2.19999999999996
20
-19.1189951390116
30
0
41
1
10
-2.19999999999999
20
-18.6914694264877
30
0
41
1
10
-2.19999999999999
20
-18.258657571745
30
0
41
1
10
-2.19999999999999
20
-17.9313816381119
30
0
41
1
10
-2.19999999999999
20
-17.6014470745968
30
0
41
1
10
-2.19999999999999
20
-17.3242802479083
30
0
41
1
10
-2.19999999999999
20
-17.1012276273506
30
0
41
1
10
-2.19999999999999
20
-16.8772884036231
30
0
41
1
10
-2.19999999999996
20
-16.5956885399058
30
0
41
1
10
-2.19999999999996
20
-16.2551149485891
30
0
41
1
10
-2.19999999999999
20
-15.9118789297515
30
0
41
1
10
-2.19999999999999
20
-15.5659787170004
30
0
41
1
10
-2.19999999999999
20
-15.2174125550855
30
0
41
1
10
-2.19999999999999
20
-14.8661782384876
30
0
41
1
10
-2.19999999999996
20
-14.5712504744561
30
0
41
1
10
-2.19999999999999
20
-14.3339831373198
30
0
41
1
10
-2.20000000000002
20
-14.0958244492637
30
0
41
1
10
-2.19999999999999
20
-13.7964372758264
30
0
41
1
10
-2.19999999999999
20
-13.434500413039
30
0
41
1
10
-2.19999999999996
20
-13.0698795474479
30
0
41
1
10
-2.19999999999996
20
-12.7025705750891
30
0
41
1
10
-2.19999999999996
20
-12.332568976433
30
0
41
1
10
-2.19999999999996
20
-11.9598708451067
30
0
41
1
10
-2.19999999999999
20
-11.5844709045751
30
0
41
1
10
-2.19999999999999
20
-11.2063650265909
30
0
41
1
10
-2.19999999999999
20
-10.8255477577391
30
0
41
1
10
-2.19999999999996
20
-10.4420146592236
30
0
41
1
10
-2.19999999999996
20
-10.055760504374
30
0
41
1
10
-2.19999999999999
20
-9.66678080103014
30
0
41
1
10
-2.19999999999999
20
-9.27507092999485
30
0
41
1
10
-2.19999999999999
20
-8.88062693308248
30
0
41
1
10
-2.19999999999996
20
-8.54963206906424
30
0
41
1
10
-2.19999999999999
20
-8.28348540775056
30
0
41
1
10
-2.19999999999999
20
-8.01642492609366
30
0
41
1
10
-2.19999999999999
20
-7.6808599686735
30
0
41
1
10
-2.19999999999999
20
-7.34301151998696
30
0
41
1
10
-2.19999999999999
20
-7.0713846512281
30
0
41
1
10
-2.19999999999999
20
-6.79884546868331
30
0
41
1
10
-2.19999999999999
20
-6.456433316795
30
0
41
1
10
-2.19999999999999
20
-6.11175147173762
30
0
41
1
10
-2.19999999999996
20
-5.83467460016632
30
0
41
1
10
-2.19999999999999
20
-5.62618085956723
30
0
41
1
10
-2.19999999999999
20
-5.41701393923273
30
0
41
1
10
-2.19999999999996
20
-5.20717747481993
30
0
41
1
10
-2.19999999999999
20
-4.99667509827833
30
0
41
1
10
-2.19999999999996
20
-4.82069760714899
30
0
41
1
10
-2.19999999999999
20
-4.6796021160271
30
0
41
1
10
-2.19999999999999
20
-4.53828873143232
30
0
41
1
10
-2.19999999999999
20
-4.39662511608438
30
0
41
1
10
-2.19999999999999
20
-4.25466576165107
30
0
41
1
10
-2.19999999999999
20
-4.11249340828525
30
0
41
1
10
-2.19999999999999
20
-3.93436102607174
30
0
41
1
10
-2.19999999999999
20
-3.75570803460605
30
0
41
1
10
-2.19999999999999
20
-3.61249538774427
30
0
41
1
10
-2.19999999999999
20
-3.50492662159445
30
0
41
1
10
-2.19999999999996
20
-3.39720740223606
30
0
41
1
10
-2.19999999999999
20
-3.25339347207253
30
0
41
1
10
-2.19999999999999
20
-3.10925640073569
30
0
41
1
10
-2.19999999999999
20
-2.96486450652623
30
0
41
1
10
-2.19999999999999
20
-2.85642274224207
30
0
41
1
10
-2.19999999999996
20
-2.74784323707016
30
0
41
1
10
-2.19999999999996
20
-2.63912850340498
30
0
41
1
10
-2.19999999999999
20
-2.53028147448526
30
0
41
1
10
-2.19999999999999
20
-2.38499085138605
30
0
41
1
10
-2.19999999999999
20
-2.23941432408861
30
0
41
1
10
-2.19999999999999
20
-2.09363388662032
30
0
41
1
10
-2.19999999999999
20
-1.947699848149
30
0
41
1
10
-2.19999999999999
20
-1.80150797944287
30
0
41
1
10
-2.19999999999999
20
-1.65514768405933
30
0
41
1
10
-2.19999999999999
20
-1.54527066672023
30
0
41
1
10
-2.19999999999999
20
-1.43530119544997
30
0
41
1
10
-2.19999999999999
20
-1.28857137427264
30
0
41
1
10
-2.19999999999996
20
-1.1049262291302
30
0
41
1
10
-2.19999999999999
20
-0.921048414140927
30
0
41
1
10
-2.19999999999996
20
-0.773855197893653
30
0
41
1
10
-2.19999999999999
20
-0.663399769480293
30
0
41
1
10
-2.19999999999999
20
-0.552900689625858
30
0
41
1
10
-2.19999999999999
20
-0.405533036679515
30
0
41
1
10
-2.19999999999999
20
-0.25806604329776
30
0
41
1
10
-2.19999999999999
20
-0.110609814521013
30
0
41
1
10
-2.19999999999999
20
-7.9678273E-09
30
0
41
1
10
-2.19999999999999
20
0.110609798282326
30
0
41
1
10
-2.19999999999999
20
0.25806602719706
30
0
41
1
10
-2.19999999999999
20
0.405533020604224
30
0
41
1
10
-2.19999999999999
20
0.552900673038891
30
0
41
1
10
-2.19999999999999
20
0.663399753590824
30
0
41
1
10
-2.19999999999999
20
0.773855181921334
30
0
41
1
10
-2.19999999999999
20
0.921048397975142
30
0
41
1
10
-2.19999999999999
20
1.1049262124919
30
0
41
1
10
-2.19999999999999
20
1.28857135826542
30
0
41
1
10
-2.19999999999999
20
1.43530118015906
30
0
41
1
10
-2.19999999999999
20
1.54527064958373
30
0
41
1
10
-2.19999999999996
20
1.65514766840656
30
0
41
1
10
-2.19999999999999
20
1.801507954801
30
0
41
1
10
-2.19999999999996
20
1.98422944343236
30
0
41
1
10
-2.19999999999999
20
2.20303663065533
30
0
41
1
10
-2.19999999999999
20
2.42136740345271
30
0
41
1
10
-2.19999999999999
20
2.63919374722943
30
0
41
1
10
-2.19999999999999
20
2.82028557320743
30
0
41
1
10
-2.19999999999999
20
2.9648645036643
30
0
41
1
10
-2.19999999999999
20
3.07316631132795
30
0
41
1
10
-2.19999999999996
20
3.18132544112757
30
0
41
1
10
-2.19999999999999
20
3.28933976181253
30
0
41
1
10
-2.19999999999999
20
3.39720741056178
30
0
41
1
10
-2.19999999999999
20
3.5049266191017
30
0
41
1
10
-2.19999999999999
20
3.61249538417184
30
0
41
1
10
-2.19999999999999
20
3.7557080358111
30
0
41
1
10
-2.19999999999999
20
3.93436102619762
30
0
41
1
10
-2.19999999999996
20
4.11249339754073
30
0
41
1
10
-2.19999999999996
20
4.25466574513038
30
0
41
1
10
-2.19999999999999
20
4.39662510037121
30
0
41
1
10
-2.19999999999999
20
4.53828872405646
30
0
41
1
10
-2.19999999999999
20
4.6796021160003
30
0
41
1
10
-2.19999999999999
20
4.82069761094567
30
0
41
1
10
-2.19999999999999
20
4.99667509392859
30
0
41
1
10
-2.19999999999996
20
5.20717745478149
30
0
41
1
10
-2.19999999999996
20
5.4170139192984
30
0
41
1
10
-2.19999999999999
20
5.62618085404893
30
0
41
1
10
-2.19999999999996
20
5.83467460689431
30
0
41
1
10
-2.19999999999999
20
6.11175146674472
30
0
41
1
10
-2.19999999999999
20
6.45643328069664
30
0
41
1
10
-2.19999999999999
20
6.79884546670326
30
0
41
1
10
-2.19999999999999
20
7.07138465930166
30
0
41
1
10
-2.19999999999996
20
7.34301151247962
30
0
41
1
10
-2.19999999999996
20
7.68085993160079
30
0
41
1
10
-2.19999999999999
20
8.01642493811289
30
0
41
1
10
-2.19999999999999
20
8.28348543659982
30
0
41
1
10
-2.20000000000002
20
8.54963209943355
30
0
41
1
10
-2.19999999999996
20
8.81444106406232
30
0
41
1
10
-2.19999999999999
20
9.07784991102179
30
0
41
1
10
-2.19999999999999
20
9.34034669943739
30
0
41
1
10
-2.19999999999999
20
9.66678089901876
30
0
41
1
10
-2.19999999999999
20
10.0557602279919
30
0
41
1
10
-2.19999999999996
20
10.4420145743896
30
0
41
1
10
-2.19999999999999
20
10.8255481020131
30
0
41
1
10
-2.19999999999996
20
11.1429046192032
30
0
41
1
10
-2.19999999999999
20
11.3954184217635
30
0
41
1
10
-2.19999999999999
20
11.647029537276
30
0
41
1
10
-2.19999999999999
20
11.9598708409375
30
0
41
1
10
-2.19999999999999
20
12.3325690014507
30
0
41
1
10
-2.19999999999999
20
12.7025705743373
30
0
41
1
10
-2.19999999999999
20
13.069879555812
30
0
41
1
10
-2.19999999999999
20
13.434500435816
30
0
41
1
10
-2.19999999999996
20
13.7964372435234
30
0
41
1
10
-2.19999999999996
20
14.1556932924213
30
0
41
1
10
-2.19999999999999
20
14.5122728269276
30
0
41
1
10
-2.19999999999999
20
14.866177969354
30
0
41
1
10
-2.19999999999999
20
15.2174126385948
30
0
41
1
10
-2.20000000000002
20
15.5659788017488
30
0
41
1
10
-2.19999999999999
20
16.0271656941318
30
0
41
1
10
-2.19999999999999
20
16.4830628393223
30
0
41
1
10
-2.19999999999999
20
16.8772884002214
30
0
41
1
10
-2.19999999999999
20
17.1012276238877
30
0
41
1
10
-2.19999999999999
20
17.3242802462531
30
0
41
1
10
-2.19999999999996
20
17.601447067755
30
0
41
1
10
-2.19999999999999
20
17.9313816332313
30
0
41
1
10
-2.19999999999999
20
18.2586575687845
30
0
41
1
10
-2.19999999999999
20
18.6914694093052
30
0
41
1
10
-2.19999999999996
20
19.1189951374153
30
0
41
1
10
-2.19999999999999
20
19.5411672734658
30
0
41
1
10
-2.19999999999999
20
19.8551416161418
30
0
41
1
10
-2.19999999999999
20
20.1664517398788
30
0
41
1
10
-2.19999999999999
20
20.5779672141207
30
0
41
1
10
-2.19999999999999
20
20.984175332485
30
0
41
1
10
-2.19999999999996
20
21.3850073833771
30
0
41
1
10
-2.19999999999999
20
21.6829615863147
30
0
41
1
10
-2.19999999999996
20
21.9782353272421
30
0
41
1
10
-2.19999999999999
20
22.3683458335126
30
0
41
1
10
-2.19999999999999
20
22.7531069145399
30
0
41
1
10
-2.19999999999999
20
23.1324477508894
30
0
41
1
10
-2.19999999999999
20
23.4142578696928
30
0
41
1
10
-2.19999999999999
20
23.6933606289522
30
0
41
1
10
-2.19999999999999
20
24.0618724844523
30
0
41
1
10
-2.19999999999999
20
24.5157343073517
30
0
41
1
10
-2.19999999999999
20
24.9604927320777
30
0
41
1
10
-2.19999999999996
20
25.310795566268
30
0
41
1
10
-2.19999999999996
20
25.657428854263
30
0
41
1
10
-2.19999999999996
20
26.0838374506717
30
0
41
1
10
-2.19999999999999
20
26.5844139266108
30
0
41
1
10
-2.19999999999999
20
26.99225515776
30
0
41
1
10
-2.19999999999999
20
27.3128894716318
30
0
41
1
10
-2.19999999999999
20
27.5505474715739
30
0
41
1
10
-2.20000000000002
20
27.7853718286965
30
0
41
1
10
-2.19999999999996
20
28.0946721119014
30
0
41
1
10
-2.19999999999996
20
28.4741740127019
30
0
41
1
10
-2.20000000000002
20
28.8440802923644
30
0
41
1
10
-2.19999999999999
20
29.1341864928692
30
0
41
1
10
-2.19999999999996
20
29.3488540584265
30
0
41
1
10
-2.19999999999996
20
29.5605910229122
30
0
41
1
10
-2.19999999999999
20
29.8389753334019
30
0
41
1
10
-2.19999999999999
20
30.1795721880178
30
0
41
1
10
-2.19999999999999
20
30.5763259691741
30
0
41
1
10
-2.19999999999999
20
30.8968896848934
30
0
41
1
10
-2.19999999999999
20
31.1472201983194
30
0
41
1
10
-2.19999999999999
20
31.3934533930513
30
0
41
1
10
-2.19999999999999
20
31.6935278654741
30
0
41
1
10
-2.19999999999999
20
31.9831685438612
30
0
41
1
10
-2.19999999999996
20
32.2085294030258
30
0
41
1
10
-2.19999999999999
20
32.3743609910526
30
0
41
1
10
-2.19999999999999
20
32.5369772821028
30
0
41
1
10
-2.19999999999996
20
32.7494770380994
30
0
41
1
10
-2.19999999999999
20
33.0069583004128
30
0
41
1
10
-2.19999999999996
20
33.2534024597305
30
0
41
1
10
-2.19999999999999
20
33.4438214227632
30
0
41
1
10
-2.19999999999999
20
33.6297179034793
30
0
41
1
10
-2.19999999999999
20
33.8087856254549
30
0
41
1
10
-2.19999999999999
20
33.9808791024373
30
0
41
1
10
-2.19999999999999
20
34.0855143686358
30
0
41
1
10
-2.19999999999999
20
34.1674461732589
30
0
41
1
10
-2.19999999999999
20
34.2481903116661
30
0
41
1
10
-2.19999999999996
20
34.3863617307859
30
0
41
1
10
-2.19999999999999
20
34.5370512446321
30
0
41
1
10
-2.19999999999999
20
34.6803509079355
30
0
41
1
10
-2.19999999999999
20
34.7840992673662
30
0
41
1
10
-2.19999999999999
20
34.8840775983924
30
0
41
1
10
-2.19999999999999
20
34.9802436065342
30
0
41
1
10
-2.19999999999999
20
35.0725532425695
30
0
41
1
10
-2.19999999999999
20
35.1609605897894
30
0
41
1
10
-2.19999999999996
20
35.2454179865413
30
0
41
1
10
-2.19999999999999
20
35.3258758054439
30
0
41
1
10
-2.19999999999996
20
35.4022823040986
30
0
41
1
10
-2.19999999999996
20
35.4745835494886
30
0
41
1
10
-2.19999999999999
20
35.5427232831041
30
0
41
1
10
-2.19999999999999
20
35.606642098176
30
0
41
1
10
-2.19999999999999
20
35.6662795049964
30
0
41
1
10
-2.19999999999999
20
35.7215711806023
30
0
41
1
10
-2.19999999999999
20
35.7724483138314
30
0
41
1
10
-2.19999999999999
20
35.8188423507704
30
0
41
1
10
-2.19999999999999
20
35.8606772012186
30
0
41
1
10
-2.19999999999999
20
35.8978764072393
30
0
41
1
10
-2.19999999999999
20
35.9303574155849
30
0
41
1
10
-2.19999999999999
20
35.9580337844422
30
0
41
1
10
-2.19999999999999
20
35.9808152586154
30
0
41
1
10
-2.19999999999999
20
35.9929119751547
30
0
41
1
10
-2.19999999999999
20
35.9981609647295
30
0
41
1
10
-2.19999999999999
20
35.9983614383
30
0
0
SPLINE
5
163
100
AcDbEntity
8
SK1
62
256
6
ByLayer
370
18
48
1
60
0
100
AcDbSpline
70
4
71
3
72
24
73
20
40
0
40
0
40
0
40
0
40
0.25
40
0.25
40
0.499999999999999
40
0.499999999999999
40
0.624999999999998
40
0.624999999999998
40
0.749999999999996
40
0.749999999999996
40
0.812499999999994
40
0.812499999999994
40
0.874999999999993
40
0.874999999999993
40
0.906249999999993
40
0.906249999999993
40
0.937499999999993
40
0.937499999999993
40
1
40
1
40
1
40
1
41
1
10
-0.19999999999996
20
6.83961978441502
30
0
41
1
10
-0.19999999999996
20
6.77266365744987
30
0
41
1
10
-0.201382572616922
20
6.705656598747
30
0
41
1
10
-0.207977972208141
20
6.57153390296779
30
0
41
1
10
-0.213104017709412
20
6.50438623378955
30
0
41
1
10
-0.225863327175603
20
6.40368599150975
30
0
41
1
10
-0.230960199961117
20
6.37022262623046
30
0
41
1
10
-0.243909322930961
20
6.30365027444694
30
0
41
1
10
-0.251695140322795
20
6.27046679752883
30
0
41
1
10
-0.267365003958787
20
6.22224043421215
30
0
41
1
10
-0.273258792574552
20
6.20639762175682
30
0
41
1
10
-0.287575041851994
20
6.17559244970448
30
0
41
1
10
-0.296025423984332
20
6.16029740280644
30
0
41
1
10
-0.312745147160371
20
6.14053723214866
30
0
41
1
10
-0.318964396069788
20
6.13456921276233
30
0
41
1
10
-0.333306743992125
20
6.12532418760179
30
0
41
1
10
-0.341564173961842
20
6.12220353729691
30
0
41
1
10
-0.366640590815507
20
6.12048722824946
30
0
41
1
10
-0.382359877230158
20
6.12921276185219
30
0
41
1
10
-0.394976888875504
20
6.14029722152827
30
0
0
SPLINE
5
164
100
AcDbEntity
8
SK1
62
256
6
ByLayer
370
18
48
1
60
0
100
AcDbSpline
70
4
71
3
72
321
73
317
40
0
40
0
40
0
40
0
40
0.0022721676008223
40
0.0057229986797078
40
0.0091738297585933
40
0.0126246608374788
40
0.0160754919163643
40
0.0195263229952498
40
0.0229771540741354
40
0.0264279851530209
40
0.0298788162319064
40
0.0333296473107919
40
0.0367804783896774
40
0.0402313094685629
40
0.0436821405474485
40
0.047132971626334
40
0.0505838027052195
40
0.0574854648629905
40
0.060936295941876
40
0.0643871270207615
40
0.067837958099647
40
0.0712887891785326
40
0.0747396202574181
40
0.0781904513363036
40
0.0816412824151892
40
0.0850921134940747
40
0.0885429445729602
40
0.0919937756518457
40
0.0988954378096167
40
0.102346268888502
40
0.104071684427945
40
0.105797099967388
40
0.109247931046273
40
0.112698762125159
40
0.11960042428293
40
0.123051255361815
40
0.126502086440701
40
0.133403748598472
40
0.140305410756243
40
0.143756241835128
40
0.147207072914014
40
0.150657903992899
40
0.154108735071785
40
0.161010397229556
40
0.167912059387327
40
0.171362890466212
40
0.174813721545098
40
0.181715383702869
40
0.18861704586064
40
0.195518708018411
40
0.198969539097297
40
0.202420370176182
40
0.205871201255068
40
0.209322032333953
40
0.216223694491724
40
0.223125356649495
40
0.226576187728381
40
0.230027018807266
40
0.233477849886152
40
0.236928680965037
40
0.243830343122808
40
0.250732005280579
40
0.25763366743835
40
0.261084498517236
40
0.264535329596121
40
0.271436991753893
40
0.278338653911664
40
0.281789484990549
40
0.285240316069435
40
0.28869114714832
40
0.292141978227206
40
0.299043640384977
40
0.302494471463862
40
0.305945302542748
40
0.309396133621633
40
0.312846964700519
40
0.31974862685829
40
0.323199457937175
40
0.326650289016061
40
0.330101120094946
40
0.333551951173832
40
0.340453613331603
40
0.343904444410488
40
0.347355275489374
40
0.350806106568259
40
0.354256937647145
40
0.355982353186588
40
0.35770776872603
40
0.361158599804916
40
0.364609430883801
40
0.368060261962687
40
0.371511093041572
40
0.374961924120458
40
0.378412755199343
40
0.381863586278229
40
0.383589001817672
40
0.385314417357115
40
0.388765248436
40
0.392216079514886
40
0.395666910593771
40
0.399117741672657
40
0.402568572751542
40
0.406019403830428
40
0.409470234909313
40
0.412921065988199
40
0.416371897067084
40
0.41982272814597
40
0.423273559224855
40
0.426724390303741
40
0.430175221382626
40
0.433626052461512
40
0.437076883540397
40
0.43880229907984
40
0.440527714619283
40
0.443978545698168
40
0.447429376777054
40
0.449154792316497
40
0.450880207855939
40
0.454331038934825
40
0.45778187001371
40
0.459507285553153
40
0.461232701092596
40
0.462958116632039
40
0.464683532171482
40
0.466408947710924
40
0.468134363250367
40
0.468997071020088
40
0.46985977878981
40
0.471585194329252
40
0.472447902098974
40
0.473310609868695
40
0.475036025408138
40
0.476761440947581
40
0.477624148717302
40
0.478486856487023
40
0.479349564256745
40
0.480212272026466
40
0.481937687565909
40
0.48280039533563
40
0.483663103105352
40
0.484525810875073
40
0.485388518644794
40
0.486251226414516
40
0.487113934184237
40
0.48883934972368
40
0.489702057493401
40
0.490564765263123
40
0.492290180802565
40
0.493152888572287
40
0.494015596342008
40
0.49487830411173
40
0.495741011881451
40
0.497466427420894
40
0.499191842960336
40
0.500054550730058
40
0.500917258499779
40
0.501779966269501
40
0.502642674039222
40
0.504368089578665
40
0.505230797348386
40
0.506093505118108
40
0.506956212887829
40
0.50781892065755
40
0.509544336196993
40
0.510407043966714
40
0.511269751736436
40
0.512132459506157
40
0.512995167275879
40
0.514720582815321
40
0.516445998354764
40
0.517308706124485
40
0.518171413894207
40
0.519034121663928
40
0.519896829433649
40
0.521622244973092
40
0.523347660512535
40
0.525073076051978
40
0.526798491591421
40
0.528523907130863
40
0.529386614900585
40
0.530249322670306
40
0.531112030440028
40
0.531974738209749
40
0.53283744597947
40
0.533700153749192
40
0.534562861518913
40
0.535425569288634
40
0.537150984828077
40
0.53887640036752
40
0.539739108137241
40
0.540601815906963
40
0.542327231446406
40
0.543189939216127
40
0.544052646985848
40
0.545778062525291
40
0.547503478064734
40
0.549228893604177
40
0.550954309143619
40
0.552679724683062
40
0.554405140222505
40
0.55785597130139
40
0.561306802380276
40
0.563032217919719
40
0.564757633459161
40
0.568208464538047
40
0.571659295616932
40
0.573384711156375
40
0.575110126695818
40
0.578560957774703
40
0.580286373314146
40
0.582011788853589
40
0.585462619932475
40
0.58891345101136
40
0.592364282090245
40
0.595815113169131
40
0.599265944248017
40
0.600991359787459
40
0.602716775326902
40
0.606167606405787
40
0.609618437484673
40
0.613069268563559
40
0.616520099642444
40
0.619970930721329
40
0.623421761800215
40
0.626872592879101
40
0.630323423957986
40
0.633774255036872
40
0.637225086115757
40
0.640675917194643
40
0.644126748273528
40
0.651028410431299
40
0.654479241510185
40
0.656204657049627
40
0.65793007258907
40
0.661380903667956
40
0.664831734746841
40
0.668282565825727
40
0.671733396904612
40
0.678635059062383
40
0.682085890141269
40
0.685536721220154
40
0.68898755229904
40
0.692438383377925
40
0.699340045535697
40
0.702790876614582
40
0.706241707693468
40
0.709692538772353
40
0.713143369851239
40
0.72004503200901
40
0.723495863087895
40
0.72694669416678
40
0.730397525245666
40
0.733848356324552
40
0.740750018482323
40
0.747651680640094
40
0.751102511718979
40
0.754553342797865
40
0.761455004955636
40
0.768356667113407
40
0.775258329271178
40
0.778709160350063
40
0.782159991428949
40
0.785610822507834
40
0.78906165358672
40
0.795963315744491
40
0.802864977902262
40
0.806315808981147
40
0.809766640060033
40
0.813217471138918
40
0.816668302217804
40
0.823569964375575
40
0.830471626533346
40
0.837373288691117
40
0.840824119770003
40
0.844274950848888
40
0.851176613006659
40
0.85807827516443
40
0.861529106243316
40
0.864979937322201
40
0.868430768401087
40
0.871881599479972
40
0.878783261637743
40
0.885684923795515
40
0.8891357548744
40
0.892586585953285
40
0.899488248111057
40
0.902939079189942
40
0.906389910268827
40
0.90811532580827
40
0.909840741347713
40
0.913291572426599
40
0.92019323458437
40
0.923644065663255
40
0.927094896742141
40
0.930545727821026
40
0.933996558899912
40
0.937447389978797
40
0.940898221057683
40
0.944349052136568
40
0.947799883215454
40
0.951250714294339
40
0.954701545373225
40
0.95815237645211
40
0.961603207530995
40
0.965054038609881
40
0.968504869688767
40
0.971955700767652
40
0.975406531846538
40
0.978857362925423
40
0.982308194004309
40
0.985759025083194
40
0.98920985616208
40
0.992660687240965
40
0.996111518319851
40
0.999562349398736
40
1
40
1
40
1
40
1
41
1
10
-60
20
-33.4556558840478
30
0
41
1
10
-60
20
-33.4576332341764
30
0
41
1
10
-60
20
-33.4616638238618
30
0
41
1
10
-60
20
-33.4643410509434
30
0
41
1
10
-60
20
-33.4623133815696
30
0
41
1
10
-60
20
-33.4553334593644
30
0
41
1
10
-60
20
-33.4434921454555
30
0
41
1
10
-60
20
-33.4268774268509
30
0
41
1
10
-60
20
-33.4055717280174
30
0
41
1
10
-60
20
-33.3796553140389
30
0
41
1
10
-60
20
-33.3492037178841
30
0
41
1
10
-60
20
-33.314289538161
30
0
41
1
10
-60
20
-33.2749830705361
30
0
41
1
10
-60
20
-33.2313495484921
30
0
41
1
10
-60
20
-33.1834545182115
30
0
41
1
10
-60
20
-33.1313576224893
30
0
41
1
10
-60
20
-33.0560855188702
30
0
41
1
10
-60
20
-32.9735372025895
30
0
41
1
10
-60
20
-32.8821013415762
30
0
41
1
10
-60
20
-32.8098349743485
30
0
41
1
10
-60
20
-32.733688775323
30
0
41
1
10
-59.9999999999999
20
-32.6537081477481
30
0
41
1
10
-60
20
-32.5699376540553
30
0
41
1
10
-60
20
-32.4824210440016
30
0
41
1
10
-60
20
-32.391200116408
30
0
41
1
10
-60
20
-32.2963152268367
30
0
41
1
10
-60
20
-32.1978052794717
30
0
41
1
10
-60
20
-32.0612248425864
30
0
41
1
10
-59.9999999999999
20
-31.9189181156055
30
0
41
1
10
-60
20
-31.7872672789305
30
0
41
1
10
-59.9999999999999
20
-31.7102043249634
30
0
41
1
10
-60
20
-31.6319918777347
30
0
41
1
10
-60
20
-31.5326481176695
30
0
41
1
10
-60
20
-31.3682719173465
30
0
41
1
10
-60
20
-31.1987551463808
30
0
41
1
10
-60
20
-31.0210528170066
30
0
41
1
10
-60
20
-30.8389711768624
30
0
41
1
10
-60
20
-30.6045149696702
30
0
41
1
10
-60
20
-30.3594550872205
30
0
41
1
10
-60
20
-30.1560458164262
30
0
41
1
10
-60
20
-30.000816301126
30
0
41
1
10
-60
20
-29.8424884168046
30
0
41
1
10
-60
20
-29.6266492024766
30
0
41
1
10
-60
20
-29.3506439800405
30
0
41
1
10
-60
20
-29.0646239872063
30
0
41
1
10
-60
20
-28.8286459848585
30
0
41
1
10
-60
20
-28.588711970395
30
0
41
1
10
-60
20
-28.2830119047978
30
0
41
1
10
-60
20
-27.9037227355801
30
0
41
1
10
-60
20
-27.5788289346229
30
0
41
1
10
-59.9999999999999
20
-27.3118865150178
30
0
41
1
10
-60
20
-27.1094249342747
30
0
41
1
10
-60
20
-26.9041562227329
30
0
41
1
10
-60
20
-26.6259536097733
30
0
41
1
10
-60
20
-26.2730451104147
30
0
41
1
10
-60
20
-25.9109897890729
30
0
41
1
10
-60
20
-25.6143967365825
30
0
41
1
10
-60
20
-25.3898727883459
30
0
41
1
10
-60
20
-25.1626504323296
30
0
41
1
10
-60
20
-24.8552336369894
30
0
41
1
10
-60
20
-24.4662671647181
30
0
41
1
10
-60
20
-23.9878313987672
30
0
41
1
10
-60
20
-23.581309600239
30
0
41
1
10
-60
20
-23.249168845647
30
0
41
1
10
-59.9999999999999
20
-22.9135633071667
30
0
41
1
10
-60
20
-22.4898084449714
30
0
41
1
10
-60
20
-22.0575119779296
30
0
41
1
10
-60
20
-21.7047294419233
30
0
41
1
10
-60
20
-21.4383936907812
30
0
41
1
10
-60
20
-21.1695327729883
30
0
41
1
10
-60
20
-20.8066187564656
30
0
41
1
10
-60
20
-20.4419941243111
30
0
41
1
10
-60
20
-20.0690271785162
30
0
41
1
10
-60
20
-19.787682750911
30
0
41
1
10
-60
20
-19.5038694602985
30
0
41
1
10
-60
20
-19.1209962837445
30
0
41
1
10
-60
20
-18.7368339912086
30
0
41
1
10
-60
20
-18.3441159235589
30
0
41
1
10
-60
20
-18.0480997672742
30
0
41
1
10
-60
20
-17.7496716294468
30
0
41
1
10
-60
20
-17.3472727105995
30
0
41
1
10
-60
20
-16.9440675389051
30
0
41
1
10
-60
20
-16.532035620606
30
0
41
1
10
-60
20
-16.2216969743561
30
0
41
1
10
-60
20
-15.9090090330768
30
0
41
1
10
-60
20
-15.6472013716544
30
0
41
1
10
-60
20
-15.4352759364927
30
0
41
1
10
-60
20
-15.2225823733161
30
0
41
1
10
-60
20
-14.9569585815732
30
0
41
1
10
-60
20
-14.634987908958
30
0
41
1
10
-60
20
-14.3107292402958
30
0
41
1
10
-60
20
-13.9841958759155
30
0
41
1
10
-60
20
-13.6554023236347
30
0
41
1
10
-60
20
-13.3243664763056
30
0
41
1
10
-60
20
-13.0474865550707
30
0
41
1
10
-60
20
-12.8233283675936
30
0
41
1
10
-60
20
-12.5984437652582
30
0
41
1
10
-60
20
-12.3179771615538
30
0
41
1
10
-60
20
-11.9781527958056
30
0
41
1
10
-60
20
-11.6361816637219
30
0
41
1
10
-60
20
-11.292092379822
30
0
41
1
10
-59.9999999999999
20
-10.9459088594489
30
0
41
1
10
-60
20
-10.5976625981364
30
0
41
1
10
-60
20
-10.2473847821601
30
0
41
1
10
-60
20
-9.8951113137559
30
0
41
1
10
-60
20
-9.54088172151236
30
0
41
1
10
-60
20
-9.184738990174
30
0
41
1
10
-60
20
-8.82673234426116
30
0
41
1
10
-60
20
-8.46691508480723
30
0
41
1
10
-60
20
-8.10534831886901
30
0
41
1
10
-60
20
-7.74209991377393
30
0
41
1
10
-60
20
-7.4393336607493
30
0
41
1
10
-60
20
-7.19392383197422
30
0
41
1
10
-60
20
-6.94806390056183
30
0
41
1
10
-60
20
-6.64308245049978
30
0
41
1
10
-60
20
-6.33692354274456
30
0
41
1
10
-60
20
-6.08866434779776
30
0
41
1
10
-60
20
-5.84008609772039
30
0
41
1
10
-60
20
-5.5323837284059
30
0
41
1
10
-60
20
-5.22383853567212
30
0
41
1
10
-60
20
-4.9735260791216
30
0
41
1
10
-60
20
-4.78702154756593
30
0
41
1
10
-60
20
-4.60040605057168
30
0
41
1
10
-60
20
-4.41369717399607
30
0
41
1
10
-60
20
-4.22693988185338
30
0
41
1
10
-60
20
-4.07226259629707
30
0
41
1
10
-60
20
-3.94669383078127
30
0
41
1
10
-60
20
-3.82116954124058
30
0
41
1
10
-60
20
-3.69883107629948
30
0
41
1
10
-60
20
-3.5732874791313
30
0
41
1
10
-60
20
-3.44781059563363
30
0
41
1
10
-60
20
-3.29358638075718
30
0
41
1
10
-60
20
-3.13944522664994
30
0
41
1
10
-60
20
-3.01413837924019
30
0
41
1
10
-60
20
-2.92113732640232
30
0
41
1
10
-60
20
-2.82819985495794
30
0
41
1
10
-60
20
-2.70315242408557
30
0
41
1
10
-59.9999999999999
20
-2.58203066540023
30
0
41
1
10
-60
20
-2.45723012695288
30
0
41
1
10
-60
20
-2.36470328144026
30
0
41
1
10
-60
20
-2.27228576896132
30
0
41
1
10
-60
20
-2.17998802306414
30
0
41
1
10
-60
20
-2.08778698627509
30
0
41
1
10
-60
20
-1.96363390475219
30
0
41
1
10
-60
20
-1.8439679114947
30
0
41
1
10
-60
20
-1.72020377819319
30
0
41
1
10
-60
20
-1.5966370639008
30
0
41
1
10
-60
20
-1.47780824879945
30
0
41
1
10
-60
20
-1.35466991435541
30
0
41
1
10
-59.9999999999999
20
-1.26362007097092
30
0
41
1
10
-60
20
-1.17270141325392
30
0
41
1
10
-60
20
-1.05008260157572
30
0
41
1
10
-59.9999999999999
20
-0.900734180171554
30
0
41
1
10
-60
20
-0.751709618123726
30
0
41
1
10
-60
20
-0.62972724989757
30
0
41
1
10
-60
20
-0.539591484049936
30
0
41
1
10
-59.9999999999999
20
-0.449533123341212
30
0
41
1
10
-60
20
-0.327862446496596
30
0
41
1
10
-60
20
-0.211387195797499
30
0
41
1
10
-60
20
-0.089851891411513
30
0
41
1
10
-60
20
-2.33088713E-08
30
0
41
1
10
-60
20
0.0898518818022751
30
0
41
1
10
-60
20
0.211387173079942
30
0
41
1
10
-60
20
0.327862410199089
30
0
41
1
10
-60
20
0.449533154854748
30
0
41
1
10
-60
20
0.539591448084309
30
0
41
1
10
-60
20
0.629727190611277
30
0
41
1
10
-60
20
0.751709598313141
30
0
41
1
10
-60
20
0.900734187142206
30
0
41
1
10
-60
20
1.05008260284762
30
0
41
1
10
-60
20
1.17270128769022
30
0
41
1
10
-60
20
1.26362007709338
30
0
41
1
10
-60
20
1.35466986733164
30
0
41
1
10
-60
20
1.47780889967766
30
0
41
1
10
-60
20
1.62866356892971
30
0
41
1
10
-60
20
1.81195714590726
30
0
41
1
10
-60
20
1.99575931518564
30
0
41
1
10
-60
20
2.18003829088605
30
0
41
1
10
-59.9999999999999
20
2.33258035694232
30
0
41
1
10
-60
20
2.45723438857445
30
0
41
1
10
-60
20
2.54984007971649
30
0
41
1
10
-60
20
2.64253286485467
30
0
41
1
10
-60
20
2.73532390979236
30
0
41
1
10
-59.9999999999999
20
2.82819892922646
30
0
41
1
10
-60
20
2.92113717428771
30
0
41
1
10
-60
20
3.0141385699028
30
0
41
1
10
-60
20
3.13944522556261
30
0
41
1
10
-60
20
3.29358598452413
30
0
41
1
10
-60
20
3.44781022267125
30
0
41
1
10
-60
20
3.57328748848448
30
0
41
1
10
-60
20
3.69883143470833
30
0
41
1
10
-60
20
3.82116995532769
30
0
41
1
10
-59.9999999999999
20
3.94669401081845
30
0
41
1
10
-60
20
4.07226239422656
30
0
41
1
10
-60
20
4.22693940902755
30
0
41
1
10
-60
20
4.41369698550014
30
0
41
1
10
-60
20
4.60040635681676
30
0
41
1
10
-59.9999999999999
20
4.78702193879343
30
0
41
1
10
-60
20
4.97352604952795
30
0
41
1
10
-60
20
5.22383810629836
30
0
41
1
10
-60
20
5.53238377279547
30
0
41
1
10
-60
20
5.84008647847062
30
0
41
1
10
-60
20
6.0886642354684
30
0
41
1
10
-60
20
6.33692316417091
30
0
41
1
10
-59.9999999999999
20
6.64308259789809
30
0
41
1
10
-59.9999999999999
20
6.94806448980091
30
0
41
1
10
-60
20
7.19392396234312
30
0
41
1
10
-59.9999999999999
20
7.43933366870848
30
0
41
1
10
-60
20
7.67989586792569
30
0
41
1
10
-60
20
7.9236110794827
30
0
41
1
10
-60
20
8.16680647555484
30
0
41
1
10
-60
20
8.46691182410569
30
0
41
1
10
-60
20
8.82673137604749
30
0
41
1
10
-60
20
9.18474212579679
30
0
41
1
10
-60
20
9.54088275359169
30
0
41
1
10
-60
20
9.83493450522633
30
0
41
1
10
-60
20
10.0711726122456
30
0
41
1
10
-60
20
10.3067727719092
30
0
41
1
10
-60
20
10.5976628395392
30
0
41
1
10
-60
20
10.9459088896872
30
0
41
1
10
-59.9999999999999
20
11.2920923090958
30
0
41
1
10
-60
20
11.6361817696308
30
0
41
1
10
-59.9999999999999
20
11.9781526643528
30
0
41
1
10
-60
20
12.3179774972949
30
0
41
1
10
-59.9999999999999
20
12.6556361459602
30
0
41
1
10
-60
20
12.991105740016
30
0
41
1
10
-60
20
13.3243668024954
30
0
41
1
10
-60
20
13.6554036731857
30
0
41
1
10
-60
20
13.9841945283398
30
0
41
1
10
-60
20
14.421206512195
30
0
41
1
10
-60
20
14.8489195414719
30
0
41
1
10
-60
20
15.2225823214827
30
0
41
1
10
-60
20
15.4352759723946
30
0
41
1
10
-60
20
15.647201356186
30
0
41
1
10
-60
20
15.9090090125605
30
0
41
1
10
-60
20
16.2216969814831
30
0
41
1
10
-60
20
16.5320355896629
30
0
41
1
10
-60
20
16.9440675257307
30
0
41
1
10
-60
20
17.3472727170548
30
0
41
1
10
-60
20
17.7496716428444
30
0
41
1
10
-60
20
18.0480997821432
30
0
41
1
10
-60
20
18.3441158768435
30
0
41
1
10
-60
20
18.7368339915895
30
0
41
1
10
-60
20
19.120996273923
30
0
41
1
10
-60
20
19.5038694802314
30
0
41
1
10
-59.9999999999999
20
19.7876827545797
30
0
41
1
10
-59.9999999999999
20
20.0690271428399
30
0
41
1
10
-60
20
20.4419941277661
30
0
41
1
10
-60
20
20.8066187451666
30
0
41
1
10
-60
20
21.1695327858038
30
0
41
1
10
-60
20
21.4383937008238
30
0
41
1
10
-60
20
21.7047294118794
30
0
41
1
10
-60
20
22.0575119733737
30
0
41
1
10
-60
20
22.4898084525807
30
0
41
1
10
-60
20
22.9135633086718
30
0
41
1
10
-60
20
23.2491688314427
30
0
41
1
10
-60
20
23.5813095953078
30
0
41
1
10
-60
20
23.9878314099489
30
0
41
1
10
-60
20
24.4662671557058
30
0
41
1
10
-60
20
24.8552336352659
30
0
41
1
10
-60
20
25.1626504358649
30
0
41
1
10
-60
20
25.3898727930233
30
0
41
1
10
-60
20
25.6143967303269
30
0
41
1
10
-60
20
25.9109897889273
30
0
41
1
10
-60
20
26.2730451134659
30
0
41
1
10
-60
20
26.6259536079636
30
0
41
1
10
-60
20
26.904156227805
30
0
41
1
10
-60
20
27.1094249332374
30
0
41
1
10
-60
20
27.3118865130228
30
0
41
1
10
-59.9999999999999
20
27.5788289362021
30
0
41
1
10
-60
20
27.903722739304
30
0
41
1
10
-59.9999999999999
20
28.2830119086102
30
0
41
1
10
-60
20
28.5887119662347
30
0
41
1
10
-60
20
28.8286459978862
30
0
41
1
10
-60
20
29.0646239922872
30
0
41
1
10
-60
20
29.3506439793957
30
0
41
1
10
-60
20
29.626649201014
30
0
41
1
10
-59.9999999999999
20
29.8424884317765
30
0
41
1
10
-59.9999999999999
20
30.000816311555
30
0
41
1
10
-60
20
30.1560458056576
30
0
41
1
10
-60
20
30.3594550888042
30
0
41
1
10
-59.9999999999999
20
30.6045149784549
30
0
41
1
10
-60
20
30.8389711933591
30
0
41
1
10
-60
20
31.0210528094401
30
0
41
1
10
-60
20
31.1987551464293
30
0
41
1
10
-60
20
31.3682719258243
30
0
41
1
10
-60
20
31.5326481340748
30
0
41
1
10
-60
20
31.6319918952805
30
0
41
1
10
-60
20
31.7102043239204
30
0
41
1
10
-60
20
31.7872672700223
30
0
41
1
10
-60
20
31.9189181186465
30
0
41
1
10
-60
20
32.061224849943
30
0
41
1
10
-60
20
32.1978052933397
30
0
41
1
10
-60
20
32.2963152464945
30
0
41
1
10
-60
20
32.3912001013677
30
0
41
1
10
-60
20
32.4824210694835
30
0
41
1
10
-60
20
32.5699376718859
30
0
41
1
10
-60
20
32.6537080260487
30
0
41
1
10
-60
20
32.7336889066932
30
0
41
1
10
-60
20
32.8098354129061
30
0
41
1
10
-59.9999999999999
20
32.8821009542705
30
0
41
1
10
-60
20
32.950437222935
30
0
41
1
10
-60
20
33.0147937722119
30
0
41
1
10
-60
20
33.0751182914419
30
0
41
1
10
-60
20
33.1313576691056
30
0
41
1
10
-59.9999999999999
20
33.1834545172445
30
0
41
1
10
-60
20
33.2313494864308
30
0
41
1
10
-60
20
33.2749830986899
30
0
41
1
10
-60
20
33.3142894793407
30
0
41
1
10
-60
20
33.3492037179871
30
0
41
1
10
-60
20
33.3796552925038
30
0
41
1
10
-60
20
33.4055716886024
30
0
41
1
10
-60
20
33.4268774387512
30
0
41
1
10
-60
20
33.4434920820871
30
0
41
1
10
-60
20
33.4518577921816
30
0
41
1
10
-60
20
33.455283205179
30
0
41
1
10
-60
20
33.4556558298316
30
0
0
SPLINE
5
165
100
AcDbEntity
8
SK1
62
256
6
ByLayer
370
13
48
1
60
0
100
AcDbSpline
70
4
71
3
72
84
73
80
40
0
40
0
40
0
40
0
40
0.007308243780047
40
0.0188575571191126
40
0.0246322137886454
40
0.0304068704581782
40
0.0419561837972438
40
0.0535054971363093
40
0.0592801538058421
40
0.0650548104753749
40
0.0766041238144405
40
0.0823787804839733
40
0.0881534371535061
40
0.0997027504925716
40
0.111252063831637
40
0.122801377170703
40
0.134350690509768
40
0.145900003848834
40
0.151674660518367
40
0.1574493171879
40
0.168998630526965
40
0.180547943866031
40
0.192097257205096
40
0.203646570544162
40
0.215195883883227
40
0.226745197222293
40
0.238294510561359
40
0.249843823900424
40
0.26139313723949
40
0.272942450578555
40
0.284491763917621
40
0.296041077256686
40
0.319139703934818
40
0.330689017273883
40
0.336463673943416
40
0.342238330612949
40
0.353787643952014
40
0.36533695729108
40
0.376886270630145
40
0.388435583969211
40
0.411534210647342
40
0.423083523986408
40
0.434632837325473
40
0.446182150664539
40
0.457731464003604
40
0.480830090681735
40
0.492379404020801
40
0.503928717359867
40
0.515478030698932
40
0.527027344037998
40
0.550125970716129
40
0.561675284055194
40
0.57322459739426
40
0.584773910733326
40
0.596323224072391
40
0.619421850750522
40
0.642520477428653
40
0.654069790767719
40
0.665619104106785
40
0.688717730784916
40
0.711816357463047
40
0.734914984141178
40
0.746464297480244
40
0.758013610819309
40
0.769562924158375
40
0.78111223749744
40
0.804210864175572
40
0.827309490853703
40
0.838858804192768
40
0.850408117531834
40
0.861957430870899
40
0.873506744209965
40
0.896605370888096
40
0.919703997566227
40
0.942802624244358
40
0.954351937583424
40
0.965901250922489
40
0.988999877600621
40
1
40
1
40
1
40
1
41
1
10
-0.394976888875277
20
6.14029722152793
30
0
41
1
10
-0.394976888875277
20
6.22707378727884
30
0
41
1
10
-0.394976888875277
20
6.45050039040564
30
0
41
1
10
-0.394976888875277
20
6.74082520810302
30
0
41
1
10
-0.394976888875249
20
7.01191435047289
30
0
41
1
10
-0.394976888875277
20
7.28212707034138
30
0
41
1
10
-0.394976888875249
20
7.61805779883338
30
0
41
1
10
-0.394976888875277
20
7.95177203759238
30
0
41
1
10
-0.394976888875249
20
8.21754953480055
30
0
41
1
10
-0.394976888875249
20
8.48244127998382
30
0
41
1
10
-0.394976888875277
20
8.74578292736533
30
0
41
1
10
-0.394976888875277
20
9.00799999429162
30
0
41
1
10
-0.394976888875249
20
9.26932873965481
30
0
41
1
10
-0.394976888875277
20
9.59416962249637
30
0
41
1
10
-0.394976888875277
20
9.98138431841269
30
0
41
1
10
-0.394976888875277
20
10.3659294753254
30
0
41
1
10
-0.394976888875249
20
10.7478052942324
30
0
41
1
10
-0.394976888875249
20
11.0637515002382
30
0
41
1
10
-0.394976888875277
20
11.3152803628128
30
0
41
1
10
-0.394976888875277
20
11.5659225593266
30
0
41
1
10
-0.394976888875277
20
11.877435461996
30
0
41
1
10
-0.394976888875277
20
12.2486538786068
30
0
41
1
10
-0.394976888875277
20
12.6172140721259
30
0
41
1
10
-0.394976888875277
20
12.9831179010793
30
0
41
1
10
-0.394976888875277
20
13.3463680945819
30
0
41
1
10
-0.394976888875277
20
13.706966774032
30
0
41
1
10
-0.394976888875277
20
14.0649158346649
30
0
41
1
10
-0.394976888875277
20
14.4202178800222
30
0
41
1
10
-0.394976888875277
20
14.7728737253137
30
0
41
1
10
-0.394976888875277
20
15.1228861045844
30
0
41
1
10
-0.394976888875277
20
15.4702555452063
30
0
41
1
10
-0.394976888875249
20
15.9299794688331
30
0
41
1
10
-0.394976888875249
20
16.3841710240748
30
0
41
1
10
-0.394976888875277
20
16.7771522077328
30
0
41
1
10
-0.394976888875277
20
17.0004108943221
30
0
41
1
10
-0.394976888875277
20
17.2227901407219
30
0
41
1
10
-0.394976888875277
20
17.4990274869923
30
0
41
1
10
-0.394976888875277
20
17.8279183574374
30
0
41
1
10
-0.394976888875277
20
18.1541693136932
30
0
41
1
10
-0.394976888875249
20
18.5857236375232
30
0
41
1
10
-0.394976888875249
20
19.0117775840375
30
0
41
1
10
-0.394976888875277
20
19.4327531245028
30
0
41
1
10
-0.394976888875277
20
19.7457866731406
30
0
41
1
10
-0.394976888875277
20
20.0561712634218
30
0
41
1
10
-0.394976888875277
20
20.4665491966629
30
0
41
1
10
-0.394976888875277
20
20.8714231892216
30
0
41
1
10
-0.394976888875277
20
21.271168442681
30
0
41
1
10
-0.394976888875277
20
21.5682668931889
30
0
41
1
10
-0.394976888875277
20
21.8626976854152
30
0
41
1
10
-0.394976888875277
20
22.2517707343539
30
0
41
1
10
-0.394976888875277
20
22.6353132371553
30
0
41
1
10
-0.394976888875277
20
23.0136599895412
30
0
41
1
10
-0.394976888875277
20
23.294686474333
30
0
41
1
10
-0.394976888875277
20
23.5730166229077
30
0
41
1
10
-0.394976888875277
20
23.9405766044572
30
0
41
1
10
-0.394976888875249
20
24.3931333790251
30
0
41
1
10
-0.394976888875277
20
24.8366207517989
30
0
41
1
10
-0.394976888875277
20
25.1860341634964
30
0
41
1
10
-0.394976888875249
20
25.5317904219061
30
0
41
1
10
-0.394976888875249
20
25.9569955498363
30
0
41
1
10
-0.394976888875249
20
26.4562321573554
30
0
41
1
10
-0.394976888875277
20
26.8629311640439
30
0
41
1
10
-0.394976888875277
20
27.1827656068871
30
0
41
1
10
-0.394976888875249
20
27.4197920834741
30
0
41
1
10
-0.394976888875249
20
27.6539931003944
30
0
41
1
10
-0.394976888875249
20
27.9625243931996
30
0
41
1
10
-0.394976888875277
20
28.3409704969971
30
0
41
1
10
-0.394976888875277
20
28.7098481386985
30
0
41
1
10
-0.394976888875277
20
28.9992339821199
30
0
41
1
10
-0.394976888875277
20
29.2133327662611
30
0
41
1
10
-0.394976888875277
20
29.4245084215695
30
0
41
1
10
-0.394976888875277
20
29.7022003148107
30
0
41
1
10
-0.394976888875277
20
30.0418468835666
30
0
41
1
10
-0.394976888875277
20
30.4375437762783
30
0
41
1
10
-0.394976888875277
20
30.7572080028694
30
0
41
1
10
-0.394976888875277
20
31.0069093628079
30
0
41
1
10
-0.394976888875249
20
31.2525219538402
30
0
41
1
10
-0.394976888875249
20
31.4890553857362
30
0
41
1
10
-0.394976888875277
20
31.661207536424
30
0
41
1
10
-0.394976888875277
20
31.7162702215996
30
0
0
SPLINE
5
166
100
AcDbEntity
8
SK1
62
256
6
ByLayer
370
18
48
1
60
0
100
AcDbSpline
70
4
71
3
72
50
73
46
40
0
40
0
40
0
40
0
40
0.0238077906133262
40
0.0465348012788456
40
0.069261811944365
40
0.0919888226098844
40
0.114715833275403
40
0.160169854606442
40
0.205623875937481
40
0.228350886603
40
0.251077897268519
40
0.296531918599558
40
0.319258929265077
40
0.341985939930597
40
0.353349445263357
40
0.364712950596116
40
0.387439961261635
40
0.432893982592674
40
0.455620993258193
40
0.478348003923713
40
0.501075014589232
40
0.523802025254751
40
0.54652903592027
40
0.56925604658579
40
0.591983057251309
40
0.614710067916829
40
0.637437078582348
40
0.660164089247868
40
0.682891099913387
40
0.705618110578906
40
0.728345121244425
40
0.751072131909944
40
0.773799142575464
40
0.796526153240984
40
0.819253163906502
40
0.841980174572022
40
0.864707185237541
40
0.88743419590306
40
0.91016120656858
40
0.932888217234099
40
0.955615227899618
40
0.966978733232379
40
0.978342238565138
40
0.989705743897898
40
1
40
1
40
1
40
1
41
1
10
-0.394976888875277
20
31.7162696943693
30
0
41
1
10
-0.394976888875277
20
31.7768306661233
30
0
41
1
10
-0.394976888875277
20
31.8940851812406
30
0
41
1
10
-0.394976888875277
20
32.0653460684281
30
0
41
1
10
-0.394976888875277
20
32.2307235620492
30
0
41
1
10
-0.394976888875249
20
32.3928928336978
30
0
41
1
10
-0.394976888875277
20
32.6048424706425
30
0
41
1
10
-0.394976888875249
20
32.8615720411722
30
0
41
1
10
-0.394976888875277
20
33.1072907380499
30
0
41
1
10
-0.394976888875277
20
33.2972051581974
30
0
41
1
10
-0.394976888875249
20
33.4826057621145
30
0
41
1
10
-0.394976888875277
20
33.6610954992522
30
0
41
1
10
-0.394976888875277
20
33.8327219580027
30
0
41
1
10
-0.394976888875277
20
33.9370370034868
30
0
41
1
10
-0.394976888875277
20
34.0187437263543
30
0
41
1
10
-0.394976888875249
20
34.0992650937292
30
0
41
1
10
-0.394976888875277
20
34.2370419140072
30
0
41
1
10
-0.394976888875277
20
34.3872241353875
30
0
41
1
10
-0.394976888875249
20
34.5301171783813
30
0
41
1
10
-0.394976888875277
20
34.6335485304196
30
0
41
1
10
-0.394976888875277
20
34.7332186246447
30
0
41
1
10
-0.394976888875277
20
34.829085378746
30
0
41
1
10
-0.394976888875277
20
34.9211049595596
30
0
41
1
10
-0.394976888875277
20
35.0092316945093
30
0
41
1
10
-0.394976888875277
20
35.093418190414
30
0
41
1
10
-0.394976888875277
20
35.1736151059194
30
0
41
1
10
-0.394976888875277
20
35.2497710104041
30
0
41
1
10
-0.394976888875277
20
35.3218323112639
30
0
41
1
10
-0.394976888875277
20
35.3897431016973
30
0
41
1
10
-0.394976888875277
20
35.4534444043634
30
0
41
1
10
-0.394976888875249
20
35.5128761760524
30
0
41
1
10
-0.394976888875277
20
35.5679745134804
30
0
41
1
10
-0.394976888875249
20
35.6186711780713
30
0
41
1
10
-0.394976888875277
20
35.6648981651514
30
0
41
1
10
-0.394976888875277
20
35.7065800027222
30
0
41
1
10
-0.394976888875277
20
35.7436409316581
30
0
41
1
10
-0.394976888875306
20
35.7759991267868
30
0
41
1
10
-0.394976888875277
20
35.8035689891332
30
0
41
1
10
-0.394976888875277
20
35.8262611583919
30
0
41
1
10
-0.394976888875249
20
35.8439794508304
30
0
41
1
10
-0.394976888875277
20
35.854515215742
30
0
41
1
10
-0.394976888875277
20
35.8603562366916
30
0
41
1
10
-0.394976888875277
20
35.8634269812556
30
0
41
1
10
-0.394976888875249
20
35.8651196189661
30
0
41
1
10
-0.394976888875277
20
35.8654194871013
30
0
41
1
10
-0.394976888875277
20
35.8653771380787
30
0
0
SPLINE
5
167
100
AcDbEntity
8
1
62
256
6
ByLayer
370
18
48
1
60
0
100
AcDbSpline
70
4
71
3
72
16
73
12
40
0
40
0
40
0
40
0
40
0.250000000000002
40
0.250000000000002
40
0.500000000000005
40
0.500000000000005
40
0.750000000000007
40
0.750000000000007
40
0.875000000000003
40
0.875000000000003
40
1
40
1
40
1
40
1
41
1
10
13.3556624327026
20
15.5133461831292
30
0
41
1
10
13.3713369564231
20
15.4563493271807
30
0
41
1
10
13.390077598984
20
15.4004782360281
30
0
41
1
10
13.4357910527648
20
15.2917910897777
30
0
41
1
10
13.4628368001564
20
15.2385985420777
30
0
41
1
10
13.5295052401434
20
15.1387566028337
30
0
41
1
10
13.5692020024501
20
15.0918966685263
30
0
41
1
10
13.641729016901
20
15.0372961905784
30
0
41
1
10
13.6686700313504
20
15.0214912132591
30
0
41
1
10
13.7262200642961
20
14.9994509315929
30
0
41
1
10
13.7572518777783
20
14.9931545155676
30
0
41
1
10
13.7886751345948
20
14.9931545155676
30
0
0
SPLINE
5
168
100
AcDbEntity
8
1
62
256
6
ByLayer
370
18
48
1
60
0
100
AcDbSpline
70
4
71
3
72
10
73
6
40
0
40
0
40
0
40
0
40
0.534420714721662
40
0.534420714721662
40
1
40
1
40
1
40
1
41
1
10
41.0198783770941
20
-62.6211532411459
30
0
41
1
10
40.7242117842306
20
-62.6056580116058
30
0
41
1
10
40.5006173352076
20
-62.5939399230725
30
0
41
1
10
40.2332238361631
20
-62.5799264235928
30
0
41
1
10
40.1700939910614
20
-62.5766179286046
30
0
41
1
10
40.1699148211771
20
-62.5766085387088
30
0
0
SPLINE
5
169
100
AcDbEntity
8
1
62
256
6
ByLayer
370
18
48
1
60
0
100
AcDbSpline
70
4
71
3
72
8
73
4
40
0
40
0
40
0
40
0
40
1
40
1
40
1
40
1
41
1
10
82.5192205931146
20
-60.2259417650344
30
0
41
1
10
82.5905609964161
20
-60.3953753976706
30
0
41
1
10
82.6619218258635
20
-60.5620820183681
30
0
41
1
10
82.7332950211993
20
-60.7271377194461
30
0
0
SPLINE
5
16A
100
AcDbEntity
8
1
62
256
6
ByLayer
370
18
48
1
60
0
100
AcDbSpline
70
4
71
3
72
10
73
6
40
0
40
0
40
0
40
0
40
0.5
40
0.5
40
1
40
1
40
1
40
1
41
1
10
84.8627715333801
20
-57.9460435463952
30
0
41
1
10
84.7739817331239
20
-57.9327067140751
30
0
41
1
10
84.6845883068655
20
-57.919540294161
30
0
41
1
10
84.5042057039243
20
-57.8936579579027
30
0
41
1
10
84.4137862243581
20
-57.8810283480263
30
0
41
1
10
84.3240058915128
20
-57.8688939890799
30
0
0
SPLINE
5
16B
100
AcDbEntity
8
1
62
256
6
ByLayer
370
18
48
1
60
0
100
AcDbSpline
70
4
71
3
72
10
73
6
40
0
40
0
40
0
40
0
40
0.5
40
0.5
40
1
40
1
40
1
40
1
41
1
10
84.4580508843195
20
-60.9392262205806
30
0
41
1
10
84.3692610840634
20
-60.9258893882605
30
0
41
1
10
84.279867657805
20
-60.9127229683464
30
0
41
1
10
84.0994850548637
20
-60.8868406320881
30
0
41
1
10
84.0090655752975
20
-60.8742110222117
30
0
41
1
10
83.9192852424522
20
-60.8620766632653
30
0
0
SPLINE
5
16C
100
AcDbEntity
8
1
62
256
6
ByLayer
370
18
48
1
60
0
100
AcDbSpline
70
4
71
3
72
8
73
4
40
0
40
0
40
0
40
0
40
1
40
1
40
1
40
1
41
1
10
82.3851661244166
20
-58.6879824228919
30
0
41
1
10
82.2768976318617
20
-58.8353300418915
30
0
41
1
10
82.1735868393888
20
-58.9805577719958
30
0
41
1
10
82.0732774141695
20
-59.1245021317862
30
0
0
SPLINE
5
16D
100
AcDbEntity
8
1
62
256
6
ByLayer
370
18
48
1
60
0
100
AcDbSpline
70
4
71
3
72
10
73
6
40
0
40
0
40
0
40
0
40
0.5
40
0.5
40
1
40
1
40
1
40
1
41
1
10
83.2464556559956
20
-60.7793406531657
30
0
41
1
10
83.1586977357258
20
-60.7696505019061
30
0
41
1
10
83.0712062839487
20
-60.7604189164408
30
0
41
1
10
82.9001770056944
20
-60.7430795701773
30
0
41
1
10
82.8161654449685
20
-60.7349163828342
30
0
41
1
10
82.7332950211993
20
-60.7271377194461
30
0
0
SPLINE
5
16E
100
AcDbEntity
8
1
62
256
6
ByLayer
370
18
48
1
60
0
100
AcDbSpline
70
4
71
3
72
10
73
6
40
0
40
0
40
0
40
0
40
0.5
40
0.5
40
1
40
1
40
1
40
1
41
1
10
83.1380156702598
20
-57.7339550452607
30
0
41
1
10
83.081867371907
20
-57.8007775551195
30
0
41
1
10
83.0252137608454
20
-57.8689017261405
30
0
41
1
10
82.9124830800508
20
-58.0062520534179
30
0
41
1
10
82.856359290112
20
-58.0755316788003
30
0
41
1
10
82.8005219529417
20
-58.1455281305592
30
0
0
SPLINE
5
16F
100
AcDbEntity
8
1
62
256
6
ByLayer
370
18
48
1
60
0
100
AcDbSpline
70
4
71
3
72
10
73
6
40
0
40
0
40
0
40
0
40
0.5
40
0.5
40
1
40
1
40
1
40
1
41
1
10
84.4580508843195
20
-60.9392262205806
30
0
41
1
10
84.5084919062198
20
-60.8668431858985
30
0
41
1
10
84.5600010854012
20
-60.7937068621617
30
0
41
1
10
84.6640698454572
20
-60.6479173387661
30
0
41
1
10
84.7166695268278
20
-60.5752042204845
30
0
41
1
10
84.7699395945667
20
-60.5027065116863
30
0
0
SPLINE
5
170
100
AcDbEntity
8
1
62
256
6
ByLayer
370
18
48
1
60
0
100
AcDbSpline
70
4
71
3
72
10
73
6
40
0
40
0
40
0
40
0
40
0.5
40
0.5
40
1
40
1
40
1
40
1
41
1
10
85.5227891404099
20
-59.5486791340552
30
0
41
1
10
85.4868988250069
20
-59.4656801714488
30
0
41
1
10
85.4508022449437
20
-59.3817712076149
30
0
41
1
10
85.379275686343
20
-59.2143892091702
30
0
41
1
10
85.3438154884302
20
-59.130847608895
30
0
41
1
10
85.3087147123253
20
-59.0474831796435
30
0
0
SPLINE
5
171
100
AcDbEntity
8
1
62
256
6
ByLayer
370
18
48
1
60
0
100
AcDbSpline
70
4
71
3
72
8
73
4
40
0
40
0
40
0
40
0
40
1
40
1
40
1
40
1
41
1
10
85.0512409543937
20
-58.4222928772111
30
0
41
1
10
84.9851183854807
20
-58.2579429123949
30
0
41
1
10
84.922794966182
20
-58.1000413222383
30
0
41
1
10
84.8627715333801
20
-57.9460435463952
30
0
0
SPLINE
5
172
100
AcDbEntity
8
1
62
256
6
ByLayer
370
18
48
1
60
0
100
AcDbSpline
70
4
71
3
72
10
73
6
40
0
40
0
40
0
40
0
40
0.5
40
0.5
40
1
40
1
40
1
40
1
41
1
10
82.0732774141695
20
-59.1245021317862
30
0
41
1
10
82.1034604531199
20
-59.2019405695692
30
0
41
1
10
82.1344126013028
20
-59.2808373806873
30
0
41
1
10
82.197277239165
20
-59.4397801830137
30
0
41
1
10
82.2292133285096
20
-59.5198882903898
30
0
41
1
10
82.2617468351831
20
-59.6007514626021
30
0
0
SPLINE
5
173
100
AcDbEntity
8
1
62
256
6
ByLayer
370
18
48
1
60
0
100
AcDbSpline
70
4
71
3
72
8
73
4
40
0
40
0
40
0
40
0
40
1
40
1
40
1
40
1
41
1
10
85.1852954230918
20
-59.9602522193537
30
0
41
1
10
85.2987817500352
20
-59.817988268174
30
0
41
1
10
85.4111299526568
20
-59.6815655686105
30
0
41
1
10
85.5227891404099
20
-59.5486791340552
30
0
0
SPLINE
5
174
100
AcDbEntity
8
1
62
256
6
ByLayer
370
18
48
1
60
0
100
AcDbSpline
70
4
71
3
72
10
73
6
40
0
40
0
40
0
40
0
40
0.5
40
0.5
40
1
40
1
40
1
40
1
41
1
10
83.6511763050561
20
-57.7861579789803
30
0
41
1
10
83.5634183847864
20
-57.7764678277206
30
0
41
1
10
83.4759269330092
20
-57.7672362422553
30
0
41
1
10
83.304897654755
20
-57.7498968959919
30
0
41
1
10
83.220886094029
20
-57.7417337086488
30
0
41
1
10
83.1380156702598
20
-57.7339550452607
30
0
0
SPLINE
5
175
100
AcDbEntity
8
1
62
256
6
ByLayer
370
18
48
1
60
0
100
AcDbSpline
70
4
71
3
72
8
73
4
40
0
40
0
40
0
40
0
40
1
40
1
40
1
40
1
41
1
10
96.8153285606748
20
-61.4339755948931
30
0
41
1
10
96.70961957874
20
-61.4569531955297
30
0
41
1
10
96.6039613784111
20
-61.4799529411458
30
0
41
1
10
96.498337426213
20
-61.5029675864585
30
0
0
SPLINE
5
176
100
AcDbEntity
8
1
62
256
6
ByLayer
370
18
48
1
60
0
100
AcDbSpline
70
4
71
3
72
8
73
4
40
0
40
0
40
0
40
0
40
1
40
1
40
1
40
1
41
1
10
101.039537738625
20
-60.3563716747128
30
0
41
1
10
100.956470387521
20
-60.4013629215366
30
0
41
1
10
100.87336209184
20
-60.4463327444047
30
0
41
1
10
100.790193052551
20
-60.4912707164437
30
0
0
SPLINE
5
177
100
AcDbEntity
8
1
62
256
6
ByLayer
370
18
48
1
60
0
100
AcDbSpline
70
4
71
3
72
8
73
4
40
0
40
0
40
0
40
0
40
1
40
1
40
1
40
1
41
1
10
100.599801904045
20
-61.89934190913
30
0
41
1
10
100.670848890776
20
-61.9440547067661
30
0
41
1
10
100.741829776302
20
-61.9887752766227
30
0
41
1
10
100.812766115882
20
-62.0335010570843
30
0
0
SPLINE
5
178
100
AcDbEntity
8
1
62
256
6
ByLayer
370
18
48
1
60
0
100
AcDbSpline
70
4
71
3
72
10
73
6
40
0
40
0
40
0
40
0
40
0.272961244367421
40
0.272961244367421
40
1
40
1
40
1
40
1
41
1
10
96.7685393621673
20
-62.3316524645609
30
0
41
1
10
96.8196400401516
20
-62.3423967627214
30
0
41
1
10
96.8702452790585
20
-62.3531297927917
30
0
41
1
10
97.0538936371561
20
-62.3924108125441
30
0
41
1
10
97.1843507212242
20
-62.4208999863626
30
0
41
1
10
97.3100489748022
20
-62.4492809270321
30
0
0
SPLINE
5
179
100
AcDbEntity
8
1
62
256
6
ByLayer
370
18
48
1
60
0
100
AcDbSpline
70
4
71
3
72
8
73
4
40
0
40
0
40
0
40
0
40
1
40
1
40
1
40
1
41
1
10
96.809552644005
20
-59.8860733015312
30
0
41
1
10
96.8749184022826
20
-59.9326908999836
30
0
41
1
10
96.940305342111
20
-59.9793019206183
30
0
41
1
10
97.0057197091811
20
-60.0259044022068
30
0
0
SPLINE
5
17A
100
AcDbEntity
8
1
62
256
6
ByLayer
370
18
48
1
60
0
100
AcDbSpline
70
4
71
3
72
12
73
8
40
0
40
0
40
0
40
0
40
0.292942839524435
40
0.292942839524435
40
0.882791090255147
40
0.882791090255147
40
1
40
1
40
1
40
1
41
1
10
96.506927902728
20
-61.7209441742369
30
0
41
1
10
96.5229239487112
20
-61.740760571552
30
0
41
1
10
96.5390973886612
20
-61.760076485318
30
0
41
1
10
96.588239693898
20
-61.8167157946137
30
0
41
1
10
96.6215843314427
20
-61.8523800605746
30
0
41
1
10
96.6608673289239
20
-61.8916505481218
30
0
41
1
10
96.6673754973152
20
-61.8980591329101
30
0
41
1
10
96.673865145842
20
-61.9043590487537
30
0
0
SPLINE
5
17B
100
AcDbEntity
8
1
62
256
6
ByLayer
370
18
48
1
60
0
100
AcDbSpline
70
4
71
3
72
14
73
10
40
0
40
0
40
0
40
0
40
0.227942145827755
40
0.227942145827755
40
0.691827418495021
40
0.691827418495021
40
0.923770054828664
40
0.923770054828664
40
1
40
1
40
1
40
1
41
1
10
100.299173461629
20
-59.3985441651102
30
0
41
1
10
100.276081189524
20
-59.3469150244321
30
0
41
1
10
100.250958861838
20
-59.2948127788255
30
0
41
1
10
100.169457600536
20
-59.1390415635967
30
0
41
1
10
100.10793151354
20
-59.0381543792729
30
0
41
1
10
100.00474407988
20
-58.8932948438061
30
0
41
1
10
99.9685318751559
20
-58.8460781818889
30
0
41
1
10
99.9179162448439
20
-58.7848629611971
30
0
41
1
10
99.9051784077395
20
-58.7698317234457
30
0
41
1
10
99.8922484859847
20
-58.7549420585162
30
0
0
SPLINE
5
17C
100
AcDbEntity
8
SK4
62
256
6
ByLayer
370
13
48
0.05
60
0
100
AcDbSpline
70
4
71
1
72
5
73
3
40
0
40
0
40
0.5997468140872
40
1
40
1
41
1
10
108.186138409617
20
0
30
0
41
1
10
0.30000000000004
20
0
30
0
41
1
10
-71.7
20
0
30
0
0
SPLINE
5
17F
100
AcDbEntity
8
4
62
256
6
ByLayer
370
13
48
0.05
60
0
100
AcDbSpline
70
4
71
2
72
7
73
4
40
0
40
0
40
0
40
0.950435246047255
40
1
40
1
40
1
41
1
10
104.8
20
4.0946471812E-06
30
0
41
1
10
51.3
20
1.9988153425E-06
30
0
41
1
10
-4.98999999999999
20
-2.063131472E-07
30
0
41
1
10
-7.77999999999998
20
-3.156017676E-07
30
0
0
LINE
5
72
100
AcDbEntity
8
1
62
256
6
ByLayer
370
18
48
1
60
1
100
AcDbLine
10
0
20
0
30
0
11
0
21
297
31
0
39
0
210
0
220
0
230
1
0
LINE
5
73
100
AcDbEntity
8
1
62
256
6
ByLayer
370
18
48
1
60
1
100
AcDbLine
10
420
20
297
30
0
11
0
21
297
31
0
39
0
210
0
220
0
230
1
0
LINE
5
74
100
AcDbEntity
8
1
62
256
6
ByLayer
370
18
48
1
60
1
100
AcDbLine
10
420
20
297
30
0
11
420
21
0
31
0
39
0
210
0
220
0
230
1
0
LINE
5
75
100
AcDbEntity
8
1
62
256
6
ByLayer
370
18
48
1
60
1
100
AcDbLine
10
0
20
0
30
0
11
420
21
0
31
0
39
0
210
0
220
0
230
1
0
LINE
5
76
100
AcDbEntity
8
1
62
256
6
ByLayer
370
18
48
1
60
0
100
AcDbLine
10
92.566958
20
-40.401795
30
0
11
92.35142
21
-39.882207
31
0
39
0
210
0
220
0
230
1
0
LINE
5
77
100
AcDbEntity
8
1
62
256
6
ByLayer
370
18
48
1
60
0
100
AcDbLine
10
36.186138
20
50
30
0
11
0.3
21
50
31
0
39
0
210
0
220
0
230
1
0
LINE
5
78
100
AcDbEntity
8
1
62
256
6
ByLayer
370
18
48
1
60
0
100
AcDbLine
10
0.3
20
50
30
0
11
0
21
49.7
31
0
39
0
210
0
220
0
230
1
0
LINE
5
79
100
AcDbEntity
8
1
62
256
6
ByLayer
370
18
48
1
60
0
100
AcDbLine
10
0
20
-49.7
30
0
11
0.3
21
-50
31
0
39
0
210
0
220
0
230
1
0
LINE
5
7A
100
AcDbEntity
8
1
62
256
6
ByLayer
370
18
48
1
60
0
100
AcDbLine
10
38.058106
20
50.15
30
0
11
36.652507
21
50.15
31
0
39
0
210
0
220
0
230
1
0
LINE
5
7B
100
AcDbEntity
8
1
62
256
6
ByLayer
370
18
48
1
60
0
100
AcDbLine
10
36.958879
20
-50.592945
30
0
11
40.170788
21
-62.579953
31
0
39
0
210
0
220
0
230
1
0
LINE
5
7C
100
AcDbEntity
8
1
62
256
6
ByLayer
370
18
48
1
60
0
100
AcDbLine
10
100.50995
20
-59.610006
30
0
11
99.923681
21
-59.038812
31
0
39
0
210
0
220
0
230
1
0
LINE
5
7D
100
AcDbEntity
8
1
62
256
6
ByLayer
370
18
48
1
60
0
100
AcDbLine
10
96.671375
20
-61.901951
30
0
11
97.027925
21
-62.249333
31
0
39
0
210
0
220
0
230
1
0
LINE
5
7E
100
AcDbEntity
8
1
62
256
6
ByLayer
370
18
48
1
60
0
100
AcDbLine
10
83.845308
20
-47.328889
30
0
11
84.009967
21
-47.055197
31
0
39
0
210
0
220
0
230
1
0
LINE
5
7F
100
AcDbEntity
8
1
62
256
6
ByLayer
370
18
48
1
60
0
100
AcDbLine
10
84.214425
20
-45.320688
30
0
11
84.11792
21
-45.016211
31
0
39
0
210
0
220
0
230
1
0
LINE
5
80
100
AcDbEntity
8
1
62
256
6
ByLayer
370
18
48
1
60
0
100
AcDbLine
10
0.3
20
-50
30
0
11
36.186138
21
-50
31
0
39
0
210
0
220
0
230
1
0
LINE
5
81
100
AcDbEntity
8
1
62
256
6
ByLayer
370
18
48
1
60
0
100
AcDbLine
10
92.026589
20
-39.540478
30
0
11
91.762022
21
-39.464749
31
0
39
0
210
0
220
0
230
1
0
LINE
5
82
100
AcDbEntity
8
1
62
256
6
ByLayer
370
18
48
1
60
0
100
AcDbLine
10
94.039681
20
-65.399813
30
0
11
94.425654
21
-65.775861
31
0
39
0
210
0
220
0
230
1
0
LINE
5
83
100
AcDbEntity
8
1
62
256
6
ByLayer
370
18
48
1
60
0
100
AcDbLine
10
103.546226
20
-56.50682
30
0
11
102.830301
21
-55.809304
31
0
39
0
210
0
220
0
230
1
0
LINE
5
84
100
AcDbEntity
8
1
62
256
6
ByLayer
370
18
48
1
60
0
100
AcDbLine
10
92.407254
20
-41.645728
30
0
11
91.913209
21
-42.58394
31
0
39
0
210
0
220
0
230
1
0
LINE
5
85
100
AcDbEntity
8
1
62
256
6
ByLayer
370
18
48
1
60
0
100
AcDbLine
10
91.70336
20
-41.444246
30
0
11
92.407254
21
-41.645728
31
0
39
0
210
0
220
0
230
1
0
LINE
5
86
100
AcDbEntity
8
1
62
256
6
ByLayer
370
18
48
1
60
0
100
AcDbLine
10
91.913209
20
-42.58394
30
0
11
91.896228
21
-42.581952
31
0
39
0
210
0
220
0
230
1
0
LINE
5
87
100
AcDbEntity
8
1
62
256
6
ByLayer
370
18
48
1
60
0
100
AcDbLine
10
91.894071
20
-42.578461
30
0
11
91.913209
21
-42.58394
31
0
39
0
210
0
220
0
230
1
0
LINE
5
88
100
AcDbEntity
8
1
62
256
6
ByLayer
370
18
48
1
60
0
100
AcDbLine
10
92.404855
20
-40.746081
30
0
11
92.407254
21
-41.645728
31
0
39
0
210
0
220
0
230
1
0
LINE
5
89
100
AcDbEntity
8
1
62
256
6
ByLayer
370
13
48
1
60
0
100
AcDbLine
10
94.094431
20
-65.402664
30
0
11
94.244082
21
-65.548466
31
0
39
0
210
0
220
0
230
1
0
LINE
5
8A
100
AcDbEntity
8
1
62
256
6
ByLayer
370
18
48
1
60
0
100
AcDbLine
10
94.645119
20
-65.944087
30
0
11
96.786881
21
-67.215423
31
0
39
0
210
0
220
0
230
1
0
LINE
5
8B
100
AcDbEntity
8
1
62
256
6
ByLayer
370
18
48
1
60
0
100
AcDbLine
10
102.610837
20
-55.641078
30
0
11
101.124387
21
-54.758731
31
0
39
0
210
0
220
0
230
1
0
LINE
5
8C
100
AcDbEntity
8
1
62
256
6
ByLayer
370
18
48
1
60
0
100
AcDbLine
10
97.32756
20
-67.378798
30
0
11
109.160205
21
-67.998921
31
0
39
0
210
0
220
0
230
1
0
LINE
5
8D
100
AcDbEntity
8
1
62
256
6
ByLayer
370
13
48
1
60
0
100
AcDbLine
10
101.05167
20
-54.937357
30
0
11
101.184999
21
-55.067258
31
0
39
0
210
0
220
0
230
1
0
LINE
5
8E
100
AcDbEntity
8
1
62
256
6
ByLayer
370
18
48
1
60
0
100
AcDbLine
10
93.587023
20
-53.874029
30
0
11
88.095751
21
-53.586244
31
0
39
0
210
0
220
0
230
1
0
LINE
5
8F
100
AcDbEntity
8
1
62
256
6
ByLayer
370
18
48
1
60
0
100
AcDbLine
10
89.751495
20
-58.209528
30
0
11
94.244082
21
-65.548466
31
0
39
0
210
0
220
0
230
1
0
LINE
5
90
100
AcDbEntity
8
1
62
256
6
ByLayer
370
13
48
1
60
0
100
AcDbLine
10
88.095751
20
-53.586244
30
0
11
88.811676
21
-54.28376
31
0
39
0
210
0
220
0
230
1
0
LINE
5
91
100
AcDbEntity
8
1
62
256
6
ByLayer
370
18
48
1
60
0
100
AcDbLine
10
109.885323
20
-66.792938
30
0
11
103.727799
21
-56.734215
31
0
39
0
210
0
220
0
230
1
0
LINE
5
92
100
AcDbEntity
8
1
62
256
6
ByLayer
370
18
48
1
60
0
100
AcDbLine
10
103.326762
20
-56.338594
30
0
11
101.184999
21
-55.067258
31
0
39
0
210
0
220
0
230
1
0
LINE
5
93
100
AcDbEntity
8
1
62
256
6
ByLayer
370
18
48
1
60
0
100
AcDbLine
10
98.284633
20
-54.780217
30
0
11
88.811676
21
-54.28376
31
0
39
0
210
0
220
0
230
1
0
LINE
5
94
100
AcDbEntity
8
1
62
256
6
ByLayer
370
13
48
1
60
0
100
AcDbLine
10
103.326762
20
-56.338594
30
0
11
102.610837
21
-55.641078
31
0
39
0
210
0
220
0
230
1
0
LINE
5
95
100
AcDbEntity
8
1
62
256
6
ByLayer
370
18
48
1
60
0
100
AcDbLine
10
83.803151
20
-45.121218
30
0
11
84.076545
21
-46.135243
31
0
39
0
210
0
220
0
230
1
0
LINE
5
96
100
AcDbEntity
8
1
62
256
6
ByLayer
370
18
48
1
60
0
100
AcDbLine
10
83.074701
20
-45.083848
30
0
11
83.803151
21
-45.121218
31
0
39
0
210
0
220
0
230
1
0
LINE
5
97
100
AcDbEntity
8
1
62
256
6
ByLayer
370
18
48
1
60
0
100
AcDbLine
10
82.893037
20
-47.074528
30
0
11
82.619644
21
-46.060503
31
0
39
0
210
0
220
0
230
1
0
LINE
5
98
100
AcDbEntity
8
1
62
256
6
ByLayer
370
18
48
1
60
0
100
AcDbLine
10
82.82085
20
-45.628655
30
0
11
82.920699
21
-45.998996
31
0
39
0
210
0
220
0
230
1
0
LINE
5
99
100
AcDbEntity
8
1
62
256
6
ByLayer
370
18
48
1
60
0
100
AcDbLine
10
82.879543
20
-47.02444
30
0
11
83.621488
21
-47.111898
31
0
39
0
210
0
220
0
230
1
0
LINE
5
9A
100
AcDbEntity
8
1
62
256
6
ByLayer
370
18
48
1
60
0
100
AcDbLine
10
83.621488
20
-47.111898
30
0
11
82.893037
21
-47.074528
31
0
39
0
210
0
220
0
230
1
0
LINE
5
9B
100
AcDbEntity
8
1
62
256
6
ByLayer
370
18
48
1
60
0
100
AcDbLine
10
82.920699
20
-45.998996
30
0
11
82.719485
21
-46.430845
31
0
39
0
210
0
220
0
230
1
0
LINE
5
9C
100
AcDbEntity
8
1
62
256
6
ByLayer
370
18
48
1
60
0
100
AcDbLine
10
84.076545
20
-46.135243
30
0
11
83.621488
21
-47.111898
31
0
39
0
210
0
220
0
230
1
0
LINE
5
9D
100
AcDbEntity
8
1
62
256
6
ByLayer
370
18
48
1
60
0
100
AcDbLine
10
82.619644
20
-46.060503
30
0
11
83.074701
21
-45.083848
31
0
39
0
210
0
220
0
230
1
0
LINE
5
9E
100
AcDbEntity
8
1
62
256
6
ByLayer
370
18
48
1
60
0
100
AcDbLine
10
82.920699
20
-45.998996
30
0
11
84.076545
21
-46.135243
31
0
39
0
210
0
220
0
230
1
0
LINE
5
9F
100
AcDbEntity
8
1
62
256
6
ByLayer
370
13
48
1
60
0
100
AcDbLine
10
93.496643
20
-53.770842
30
0
11
93.453207
21
-53.768376
31
0
39
0
210
0
220
0
230
1
0
LINE
5
A0
100
AcDbEntity
8
1
62
256
6
ByLayer
370
13
48
1
60
0
100
AcDbLine
10
36.186138
20
30.539635
30
0
11
36.186138
21
50
31
0
39
0
210
0
220
0
230
1
0
LINE
5
A1
100
AcDbEntity
8
1
62
256
6
ByLayer
370
13
48
1
60
0
100
AcDbLine
10
36.186138
20
-50
30
0
11
36.186138
21
-30.539635
31
0
39
0
210
0
220
0
230
1
0
LINE
5
A2
100
AcDbEntity
8
1
62
256
6
ByLayer
370
18
48
1
60
0
100
AcDbLine
10
95.170386
20
-45.032504
30
0
11
94.728044
21
-46.369139
31
0
39
0
210
0
220
0
230
1
0
LINE
5
A3
100
AcDbEntity
8
1
62
256
6
ByLayer
370
18
48
1
60
0
100
AcDbLine
10
83.133299
20
-44.500157
30
0
11
83.169534
21
-44.192762
31
0
39
0
210
0
220
0
230
1
0
LINE
5
A4
100
AcDbEntity
8
1
62
256
6
ByLayer
370
18
48
1
60
0
100
AcDbLine
10
94.778341
20
-44.392073
30
0
11
95.170386
21
-45.032504
31
0
39
0
210
0
220
0
230
1
0
LINE
5
A5
100
AcDbEntity
8
1
62
256
6
ByLayer
370
18
48
1
60
0
100
AcDbLine
10
0.3
20
0
30
0
11
0.3
21
-50
31
0
39
0
210
0
220
0
230
1
0
LINE
5
A6
100
AcDbEntity
8
1
62
256
6
ByLayer
370
18
48
1
60
0
100
AcDbLine
10
0.3
20
50
30
0
11
0.3
21
2.127405
31
0
39
0
210
0
220
0
230
1
0
LINE
5
A7
100
AcDbEntity
8
1
62
256
6
ByLayer
370
18
48
1
60
0
100
AcDbLine
10
0.3
20
50
30
0
11
0.3
21
0
31
0
39
0
210
0
220
0
230
1
0
LINE
5
A8
100
AcDbEntity
8
1
62
256
6
ByLayer
370
18
48
1
60
0
100
AcDbLine
10
18.211325
20
-14.993155
30
0
11
13.788675
21
-14.993155
31
0
39
0
210
0
220
0
230
1
0
LINE
5
A9
100
AcDbEntity
8
1
62
256
6
ByLayer
370
18
48
1
60
0
100
AcDbLine
10
64.945077
20
-63.87502
30
0
11
41.565325
21
-62.649739
31
0
39
0
210
0
220
0
230
1
0
LINE
5
AA
100
AcDbEntity
8
1
62
256
6
ByLayer
370
18
48
1
60
0
100
AcDbLine
10
41.565325
20
42.534914
30
0
11
39.591488
21
45.759307
31
0
39
0
210
0
220
0
230
1
0
LINE
5
AB
100
AcDbEntity
8
1
62
256
6
ByLayer
370
13
48
1
60
0
100
AcDbLine
10
13.355662
20
47.532474
30
0
11
13.355662
21
15.513346
31
0
39
0
210
0
220
0
230
1
0
LINE
5
AC
100
AcDbEntity
8
1
62
256
6
ByLayer
370
13
48
1
60
0
100
AcDbLine
10
41.565325
20
42.534914
30
0
11
41.565325
21
-62.649739
31
0
39
0
210
0
220
0
230
1
0
LINE
5
AD
100
AcDbEntity
8
1
62
256
6
ByLayer
370
13
48
1
60
0
100
AcDbLine
10
18.211325
20
-14.993155
30
0
11
18.211325
21
-47.699112
31
0
39
0
210
0
220
0
230
1
0
LINE
5
AE
100
AcDbEntity
8
1
62
256
6
ByLayer
370
18
48
1
60
0
100
AcDbLine
10
88.305599
20
-47.200345
30
0
11
93.112878
21
-43.768922
31
0
39
0
210
0
220
0
230
1
0
LINE
5
AF
100
AcDbEntity
8
1
62
256
6
ByLayer
370
18
48
1
60
0
100
AcDbLine
10
89.752896
20
-58.202352
30
0
11
89.749927
21
-58.202197
31
0
39
0
210
0
220
0
230
1
0
LINE
5
B0
100
AcDbEntity
8
1
62
256
6
ByLayer
370
13
48
1
60
0
100
AcDbLine
10
93.272613
20
-53.857515
30
0
11
91.226534
21
-50.51511
31
0
39
0
210
0
220
0
230
1
0
LINE
5
B1
100
AcDbEntity
8
1
62
256
6
ByLayer
370
18
48
1
60
0
100
AcDbLine
10
13.788675
20
-47.699112
30
0
11
18.211325
21
-47.699112
31
0
39
0
210
0
220
0
230
1
0
LINE
5
B2
100
AcDbEntity
8
1
62
256
6
ByLayer
370
18
48
1
60
0
100
AcDbLine
10
64.945077
20
-63.87502
30
0
11
86.66071
21
-48.374462
31
0
39
0
210
0
220
0
230
1
0
LINE
5
B3
100
AcDbEntity
8
1
62
256
6
ByLayer
370
18
48
1
60
0
100
AcDbLine
10
92.265261
20
-62.308024
30
0
11
92.266246
21
-62.308076
31
0
39
0
210
0
220
0
230
1
0
LINE
5
B4
100
AcDbEntity
8
1
62
256
6
ByLayer
370
18
48
1
60
0
100
AcDbLine
10
87.519803
20
-54.554447
30
0
11
89.752896
21
-58.202352
31
0
39
0
210
0
220
0
230
1
0
LINE
5
B5
100
AcDbEntity
8
1
62
256
6
ByLayer
370
18
48
1
60
0
100
AcDbLine
10
41.019878
20
-62.621153
30
0
11
41.565325
21
-62.649739
31
0
39
0
210
0
220
0
230
1
0
LINE
5
B6
100
AcDbEntity
8
1
62
256
6
ByLayer
370
18
48
1
60
0
100
AcDbLine
10
93.20347
20
-41.819416
30
0
11
93.280656
21
-41.945505
31
0
39
0
210
0
220
0
230
1
0
LINE
5
B7
100
AcDbEntity
8
1
62
256
6
ByLayer
370
13
48
1
60
0
100
AcDbLine
10
13.788675
20
47.699112
30
0
11
13.788675
21
14.993155
31
0
39
0
210
0
220
0
230
1
0
LINE
5
B8
100
AcDbEntity
8
1
62
256
6
ByLayer
370
18
48
1
60
0
100
AcDbLine
10
94.175958
20
-54.546877
30
0
11
93.373404
21
-53.630112
31
0
39
0
210
0
220
0
230
1
0
LINE
5
B9
100
AcDbEntity
8
1
62
256
6
ByLayer
370
13
48
1
60
0
100
AcDbLine
10
18.644338
20
-15.513346
30
0
11
18.644338
21
-47.532474
31
0
39
0
210
0
220
0
230
1
0
LINE
5
BA
100
AcDbEntity
8
1
62
256
6
ByLayer
370
18
48
1
60
0
100
AcDbLine
10
39.591488
20
45.759307
30
0
11
39.500579
21
45.907814
31
0
39
0
210
0
220
0
230
1
0
LINE
5
BB
100
AcDbEntity
8
1
62
256
6
ByLayer
370
18
48
1
60
0
100
AcDbLine
10
0
20
0
30
0
11
0
21
-49.7
31
0
39
0
210
0
220
0
230
1
0
LINE
5
BC
100
AcDbEntity
8
1
62
256
6
ByLayer
370
18
48
1
60
0
100
AcDbLine
10
0
20
49.7
30
0
11
0
21
2.11464
31
0
39
0
210
0
220
0
230
1
0
LINE
5
BD
100
AcDbEntity
8
1
62
256
6
ByLayer
370
18
48
1
60
0
100
AcDbLine
10
0
20
49.7
30
0
11
0
21
0
31
0
39
0
210
0
220
0
230
1
0
LINE
5
BE
100
AcDbEntity
8
1
62
256
6
ByLayer
370
18
48
1
60
0
100
AcDbLine
10
91.50023
20
-50.663865
30
0
11
93.461297
21
-53.867398
31
0
39
0
210
0
220
0
230
1
0
LINE
5
BF
100
AcDbEntity
8
1
62
256
6
ByLayer
370
18
48
1
60
0
100
AcDbLine
10
18.211325
20
47.699112
30
0
11
13.788675
21
47.699112
31
0
39
0
210
0
220
0
230
1
0
LINE
5
C0
100
AcDbEntity
8
1
62
256
6
ByLayer
370
13
48
1
60
0
100
AcDbLine
10
87.171779
20
-53.342962
30
0
11
87.474027
21
-53.836705
31
0
39
0
210
0
220
0
230
1
0
LINE
5
C1
100
AcDbEntity
8
1
62
256
6
ByLayer
370
18
48
1
60
0
100
AcDbLine
10
93.280656
20
-41.945505
30
0
11
94.778341
21
-44.392073
31
0
39
0
210
0
220
0
230
1
0
LINE
5
C2
100
AcDbEntity
8
SK1
62
256
6
ByLayer
370
13
48
1
60
0
100
AcDbLine
10
-1.307107
20
4.60538
30
0
11
-1.307107
21
-4.60538
31
0
39
0
210
0
220
0
230
1
0
LINE
5
C4
100
AcDbEntity
8
1
62
256
6
ByLayer
370
13
48
1
60
0
100
AcDbLine
10
13.788675
20
-14.993155
30
0
11
13.788675
21
-47.699112
31
0
39
0
210
0
220
0
230
1
0
LINE
5
C5
100
AcDbEntity
8
1
62
256
6
ByLayer
370
13
48
1
60
0
100
AcDbLine
10
37.580546
20
-47.332883
30
0
11
37.580546
21
44.222561
31
0
39
0
210
0
220
0
230
1
0
LINE
5
C6
100
AcDbEntity
8
SK1
62
256
6
ByLayer
370
18
48
1
60
0
100
AcDbLine
10
-0.2
20
-6.83962
30
0
11
-0.2
21
-37.983485
31
0
39
0
210
0
220
0
230
1
0
LINE
5
C7
100
AcDbEntity
8
1
62
256
6
ByLayer
370
13
48
1
60
0
100
AcDbLine
10
18.211325
20
47.699112
30
0
11
18.211325
21
14.993155
31
0
39
0
210
0
220
0
230
1
0
LINE
5
C8
100
AcDbEntity
8
1
62
256
6
ByLayer
370
13
48
1
60
0
100
AcDbLine
10
18.644338
20
47.532474
30
0
11
18.644338
21
15.513346
31
0
39
0
210
0
220
0
230
1
0
LINE
5
C9
100
AcDbEntity
8
1
62
256
6
ByLayer
370
18
48
1
60
0
100
AcDbLine
10
82.731446
20
-47.909248
30
0
11
82.767681
21
-47.601852
31
0
39
0
210
0
220
0
230
1
0
LINE
5
CA
100
AcDbEntity
8
1
62
256
6
ByLayer
370
18
48
1
60
0
100
AcDbLine
10
95.170455
20
-45.032616
30
0
11
101.240277
21
-54.948073
31
0
39
0
210
0
220
0
230
1
0
LINE
5
CB
100
AcDbEntity
8
1
62
256
6
ByLayer
370
13
48
1
60
0
100
AcDbLine
10
13.355662
20
-15.513346
30
0
11
13.355662
21
-47.532474
31
0
39
0
210
0
220
0
230
1
0
LINE
5
CC
100
AcDbEntity
8
1
62
256
6
ByLayer
370
18
48
1
60
0
100
AcDbLine
10
101.240277
20
-54.948073
30
0
11
94.175958
21
-54.546877
31
0
39
0
210
0
220
0
230
1
0
LINE
5
CD
100
AcDbEntity
8
1
62
256
6
ByLayer
370
18
48
1
60
0
100
AcDbLine
10
90.069702
20
-59.006961
30
0
11
91.691122
21
-61.655657
31
0
39
0
210
0
220
0
230
1
0
LINE
5
CE
100
AcDbEntity
8
1
62
256
6
ByLayer
370
18
48
1
60
0
100
AcDbLine
10
94.175958
20
-54.546877
30
0
11
92.285438
21
-51.458587
31
0
39
0
210
0
220
0
230
1
0
LINE
5
CF
100
AcDbEntity
8
SK1
62
256
6
ByLayer
370
18
48
1
60
0
100
AcDbLine
10
-0.2
20
37.983485
30
0
11
-0.2
21
6.83962
31
0
39
0
210
0
220
0
230
1
0
LINE
5
D0
100
AcDbEntity
8
1
62
256
6
ByLayer
370
18
48
1
60
0
100
AcDbLine
10
92.266246
20
-62.308076
30
0
11
92.215459
21
-62.266166
31
0
39
0
210
0
220
0
230
1
0
LINE
5
D1
100
AcDbEntity
8
1
62
256
6
ByLayer
370
18
48
1
60
0
100
AcDbLine
10
82.08185
20
-55.395957
30
0
11
94.728044
21
-46.369139
31
0
39
0
210
0
220
0
230
1
0
LINE
5
D2
100
AcDbEntity
8
1
62
256
6
ByLayer
370
18
48
1
60
0
100
AcDbLine
10
93.515594
20
-53.87029
30
0
11
93.453207
21
-53.768376
31
0
39
0
210
0
220
0
230
1
0
LINE
5
D3
100
AcDbEntity
8
1
62
256
6
ByLayer
370
13
48
1
60
0
100
AcDbLine
10
91.715345
20
-50.815829
30
0
11
92.285438
21
-51.458587
31
0
39
0
210
0
220
0
230
1
0
LINE
5
D4
100
AcDbEntity
8
1
62
256
6
ByLayer
370
18
48
1
60
0
100
AcDbLine
10
94.162821
20
-65.406257
30
0
11
77.197824
21
-64.517159
31
0
39
0
210
0
220
0
230
1
0
LINE
5
D5
100
AcDbEntity
8
1
62
256
6
ByLayer
370
13
48
1
60
0
100
AcDbLine
10
36.958879
20
-50.592945
30
0
11
36.958879
21
-40.170253
31
0
39
0
210
0
220
0
230
1
0
LINE
5
D6
100
AcDbEntity
8
1
62
256
6
ByLayer
370
18
48
1
60
0
100
AcDbLine
10
13.788675
20
14.993155
30
0
11
18.211325
21
14.993155
31
0
39
0
210
0
220
0
230
1
0
LINE
5
D7
100
AcDbEntity
8
1
62
256
6
ByLayer
370
18
48
1
60
0
100
AcDbLine
10
77.197651
20
-64.51715
30
0
11
64.945077
21
-63.87502
31
0
39
0
210
0
220
0
230
1
0
LINE
5
D8
100
AcDbEntity
8
1
62
256
6
ByLayer
370
18
48
1
60
0
100
AcDbLine
10
41.565325
20
42.534914
30
0
11
92.51458
21
-40.694069
31
0
39
0
210
0
220
0
230
1
0
LINE
5
D9
100
AcDbEntity
8
1
62
256
6
ByLayer
370
18
48
1
60
0
100
AcDbLine
10
92.653557
20
-40.921098
30
0
11
93.20347
21
-41.819416
31
0
39
0
210
0
220
0
230
1
0
LINE
5
DA
100
AcDbEntity
8
1
62
256
6
ByLayer
370
18
48
1
60
0
100
AcDbLine
10
87.432135
20
-53.884836
30
0
11
87.176446
21
-53.467151
31
0
39
0
210
0
220
0
230
1
0
LINE
5
DB
100
AcDbEntity
8
1
62
256
6
ByLayer
370
18
48
1
60
0
100
AcDbLine
10
36.652507
20
36.624443
30
0
11
36.652507
21
50.15
31
0
39
0
210
0
220
0
230
1
0
LINE
5
DC
100
AcDbEntity
8
1
62
256
6
ByLayer
370
18
48
1
60
0
100
AcDbLine
10
92.266246
20
-62.308076
30
0
11
94.162821
21
-65.406257
31
0
39
0
210
0
220
0
230
1
0
LINE
5
DD
100
AcDbEntity
8
1
62
256
6
ByLayer
370
18
48
1
60
0
100
AcDbLine
10
85.08325
20
-59.120442
30
0
11
84.758559
21
-59.544489
31
0
39
0
210
0
220
0
230
1
0
LINE
5
DE
100
AcDbEntity
8
1
62
256
6
ByLayer
370
18
48
1
60
0
100
AcDbLine
10
83.246456
20
-60.779341
30
0
11
82.819719
21
-60.363577
31
0
39
0
210
0
220
0
230
1
0
LINE
5
DF
100
AcDbEntity
8
1
62
256
6
ByLayer
370
18
48
1
60
0
100
AcDbLine
10
84.458051
20
-60.939226
30
0
11
84.018512
21
-60.510989
31
0
39
0
210
0
220
0
230
1
0
LINE
5
E0
100
AcDbEntity
8
1
62
256
6
ByLayer
370
18
48
1
60
0
100
AcDbLine
10
85.522789
20
-59.548679
30
0
11
85.08325
21
-59.120442
31
0
39
0
210
0
220
0
230
1
0
LINE
5
E1
100
AcDbEntity
8
1
62
256
6
ByLayer
370
18
48
1
60
0
100
AcDbLine
10
83.492549
20
-60.446313
30
0
11
84.018512
21
-60.510989
31
0
39
0
210
0
220
0
230
1
0
LINE
5
E2
100
AcDbEntity
8
1
62
256
6
ByLayer
370
18
48
1
60
0
100
AcDbLine
10
84.343203
20
-60.086943
30
0
11
84.018512
21
-60.510989
31
0
39
0
210
0
220
0
230
1
0
LINE
5
E3
100
AcDbEntity
8
1
62
256
6
ByLayer
370
18
48
1
60
0
100
AcDbLine
10
84.881978
20
-58.63172
30
0
11
85.308715
21
-59.047483
31
0
39
0
210
0
220
0
230
1
0
LINE
5
E4
100
AcDbEntity
8
1
62
256
6
ByLayer
370
18
48
1
60
0
100
AcDbLine
10
85.185295
20
-59.960252
30
0
11
84.758559
21
-59.544489
31
0
39
0
210
0
220
0
230
1
0
LINE
5
E5
100
AcDbEntity
8
1
62
256
6
ByLayer
370
18
48
1
60
0
100
AcDbLine
10
84.881978
20
-58.63172
30
0
11
85.08325
21
-59.120442
31
0
39
0
210
0
220
0
230
1
0
LINE
5
E6
100
AcDbEntity
8
1
62
256
6
ByLayer
370
18
48
1
60
0
100
AcDbLine
10
83.492549
20
-60.446313
30
0
11
83.919285
21
-60.862077
31
0
39
0
210
0
220
0
230
1
0
LINE
5
E7
100
AcDbEntity
8
1
62
256
6
ByLayer
370
18
48
1
60
0
100
AcDbLine
10
84.582697
20
-57.905012
30
0
11
84.624505
21
-58.006529
31
0
39
0
210
0
220
0
230
1
0
LINE
5
E8
100
AcDbEntity
8
1
62
256
6
ByLayer
370
18
48
1
60
0
100
AcDbLine
10
84.343203
20
-60.086943
30
0
11
84.76994
21
-60.502707
31
0
39
0
210
0
220
0
230
1
0
LINE
5
E9
100
AcDbEntity
8
1
62
256
6
ByLayer
370
18
48
1
60
0
100
AcDbLine
10
85.051241
20
-58.422293
30
0
11
84.624505
21
-58.006529
31
0
39
0
210
0
220
0
230
1
0
LINE
5
EA
100
AcDbEntity
8
1
62
256
6
ByLayer
370
18
48
1
60
0
100
AcDbLine
10
82.564603
20
-60.332206
30
0
11
82.819719
21
-60.363577
31
0
39
0
210
0
220
0
230
1
0
LINE
5
EB
100
AcDbEntity
8
1
62
256
6
ByLayer
370
18
48
1
60
0
100
AcDbLine
10
96.438819
20
-61.44498
30
0
11
96.498337
21
-61.502968
31
0
39
0
210
0
220
0
230
1
0
LINE
5
EC
100
AcDbEntity
8
1
62
256
6
ByLayer
370
18
48
1
60
1
100
AcDbLine
10
133.349265
20
51.244118
30
0
11
136.849263
21
51.704901
31
0
39
0
210
0
220
0
230
1
0
LINE
5
ED
100
AcDbEntity
8
1
62
256
6
ByLayer
370
18
48
1
60
1
100
AcDbLine
10
136.849263
20
51.704901
30
0
11
136.849266
21
50.783334
31
0
39
0
210
0
220
0
230
1
0
LINE
5
EE
100
AcDbEntity
8
1
62
256
6
ByLayer
370
18
48
1
60
1
100
AcDbLine
10
136.849266
20
50.783334
30
0
11
133.349265
21
51.244118
31
0
39
0
210
0
220
0
230
1
0
LINE
5
EF
100
AcDbEntity
8
1
62
256
6
ByLayer
370
18
48
1
60
1
100
AcDbLine
10
201.349265
20
51.244118
30
0
11
197.849266
21
50.783334
31
0
39
0
210
0
220
0
230
1
0
LINE
5
F0
100
AcDbEntity
8
1
62
256
6
ByLayer
370
18
48
1
60
1
100
AcDbLine
10
197.849266
20
50.783334
30
0
11
197.849263
21
51.704901
31
0
39
0
210
0
220
0
230
1
0
LINE
5
F1
100
AcDbEntity
8
1
62
256
6
ByLayer
370
18
48
1
60
1
100
AcDbLine
10
197.849263
20
51.704901
30
0
11
201.349265
21
51.244118
31
0
39
0
210
0
220
0
230
1
0
LINE
5
F2
100
AcDbEntity
8
1
62
256
6
ByLayer
370
18
48
1
60
1
100
AcDbLine
10
134.556327
20
72.236736
30
0
11
134.557327
21
72.237736
31
0
39
0
210
0
220
0
230
1
0
LINE
5
F3
100
AcDbEntity
8
81
62
256
6
ByLayer
370
18
48
1
60
0
100
AcDbLine
10
110
20
-68
30
0
11
120
21
-68
31
0
39
0
210
0
220
0
230
1
0
LINE
5
F4
100
AcDbEntity
8
80
62
256
6
ByLayer
370
18
48
1
60
0
100
AcDbLine
10
0
20
0
30
0
11
-10
21
0
31
0
39
0
210
0
220
0
230
1
0
MTEXT
5
180
100
AcDbEntity
8
SK6
62
256
6
ByLayer
370
13
48
1
60
0
100
AcDbMText
10
-30.163635
20
-130.81188
30
0
210
0
220
0
230
1
1
\W0.6957;C10-PDJNL-68110-15HP
40
5.5
41
0
44
1.084337
50
0
71
7
72
5
7
iso_b_vert
0
DIMENSION
5
18E
100
AcDbEntity
8
2
62
256
6
ByLayer
370
13
48
1
60
0
100
AcDbDimension
2
DimnDraft3D1
10
98.676299
20
110
30
0
11
98.676299
21
52.545395
31
0
70
32
71
5
72
1
41
1
210
0
220
0
230
1
3
Standard
100
AcDbAlignedDimension
13
1.5875
23
0
33
0
14
69.5875
24
110
34
0
50
90
100
AcDbRotatedDimension
1001
ACAD
1000
DSTYLE
1002
{
1070
    74
1070
     0
1070
   279
1070
     0
1070
   172
1070
     1
1070
   173
1070
     1
1070
   340
1005
181
1070
   271
1070
     1
1070
   272
1070
     2
1070
    77
1070
     1
1070
    73
1070
     0
1070
   171
1070
     3
1070
   274
1070
     4
1070
   177
1070
     7
1070
   176
1070
     7
1070
   178
1070
     7
1070
    78
1070
     8
1070
    48
1040
-0.005
1070
    41
1041
3.5
1070
   147
1041
1.75
1070
    42
1041
1.5875
1070
    44
1041
2.0
1070
   140
1041
3.5
1070
   343
1005
0
1070
   344
1005
0
1002
}
0
DIMENSION
5
19A
100
AcDbEntity
8
SK2
62
256
6
ByLayer
370
13
48
1
60
0
100
AcDbDimension
2
DimnDraft3D2
10
-92.311029
20
50
30
0
11
-92.936029
21
0.607895
31
0
70
33
71
5
72
1
41
1
210
0
220
0
230
1
3
Standard
100
AcDbAlignedDimension
13
-1.2875
23
-50
33
0
14
-1.2875
24
50
34
0
1001
ACAD
1000
DSTYLE
1002
{
1070
   279
1070
     0
1070
    74
1070
     0
1070
   173
1070
     1
1070
   340
1005
181
1070
   271
1070
     1
1070
   272
1070
     2
1070
    77
1070
     1
1070
    73
1070
     0
1070
   171
1070
     3
1070
   274
1070
     4
1070
   177
1070
     7
1070
   176
1070
     7
1070
   178
1070
     7
1070
    78
1070
     8
1070
    48
1040
-0.005
1070
    41
1041
3.5
1070
   147
1041
1.75
1070
    42
1041
1.5875
1070
    44
1041
2.0
1070
   140
1041
3.5
1070
   343
1005
0
1070
   344
1005
0
1002
}
0
DIMENSION
5
1A5
100
AcDbEntity
8
SK2
62
256
6
ByLayer
370
13
48
1
60
0
100
AcDbDimension
2
DimnDraft3D3
10
109
20
-68
30
0
11
-79.070462
21
-119.094209
31
0
70
34
71
5
72
1
41
1
210
0
220
0
230
1
3
Standard
100
AcDb2LineAngularDimension
13
97.32756
23
-67.378798
33
0
14
109.160205
24
-67.998921
34
0
15
110
25
-68
35
0
16
-80.291336
26
-97.092876
36
0
40
0
0
DIMENSION
5
1AF
100
AcDbEntity
8
2
62
256
6
ByLayer
370
13
48
1
60
0
100
AcDbDimension
2
DimnDraft3D4
10
126.337229
20
-68
30
0
11
126.337229
21
-36.044737
31
0
70
32
71
5
72
1
41
1
210
0
220
0
230
1
3
Standard
100
AcDbAlignedDimension
13
109.773638
23
0
33
0
14
111.5875
24
-68
34
0
50
90
100
AcDbRotatedDimension
1001
ACAD
1000
DSTYLE
1002
{
1070
    74
1070
     0
1070
   279
1070
     0
1070
   172
1070
     1
1070
   173
1070
     1
1070
   340
1005
181
1070
   271
1070
     1
1070
   272
1070
     2
1070
    77
1070
     1
1070
    73
1070
     0
1070
   171
1070
     3
1070
   274
1070
     4
1070
   177
1070
     7
1070
   176
1070
     7
1070
   178
1070
     7
1070
    78
1070
     8
1070
    48
1040
-0.005
1070
    41
1041
3.5
1070
   147
1041
1.75
1070
    42
1041
1.5875
1070
    44
1041
2.0
1070
   140
1041
3.5
1070
   343
1005
0
1070
   344
1005
0
1002
}
0
ENDSEC
0
SECTION
2
OBJECTS
0
DICTIONARY
5
21a
330
0
100
AcDbDictionary
280
0
281
1
3
ACAD_GROUP
350
21b
3
ACAD_MLINESTYLE
350
21c
0
DICTIONARY
5
21b
330
0
100
AcDbDictionary
280
0
281
1
0
DICTIONARY
5
21c
330
0
100
AcDbDictionary
280
0
281
1
3
Standard
350
18
0
MLINESTYLE
5
18
330
21c
100
AcDbMlineStyle
2
Standard
70
0
3

62
256
51
90
52
90
71
2
49
-0.5
62
256
6
ByLayer
49
0.5
62
256
6
ByLayer
0
RASTERVARIABLES
5
208
330

100
AcDbRasterVariables
90
0
70
1
71
1
72
1
0
ENDSEC
0
EOF
