0
SECTION
2
HEADER
9
$ACADVER
1
AC1015
9
$DWGCODEPAGE
3
ANSI_1252
9
$HANDSEED
5
18e
9
$ANGBASE
50
0
9
$ANGDIR
70
0
9
$ATTMODE
70
1
9
$AUNITS
70
0
9
$AUPREC
70
0
9
$CECOLOR
62
256
9
$CELTSCALE
40
1
9
$CELTYPE
6
ByLayer
9
$CELWEIGHT
370
18
9
$CLAYER
8
0
9
$CMLJUST
70
0
9
$CMLSCALE
40
1
9
$CMLSTYLE
2
Standard
9
$DIMSTYLE
2
Standard
9
$TEXTSIZE
40
0.2
9
$TEXTSTYLE
7
Standard
9
$LUNITS
70
2
9
$LUPREC
70
4
9
$EXTNAMES
290
1
9
$INSUNITS
70
4
9
$LTSCALE
40
1
9
$LWDISPLAY
290
1
9
$PDMODE
70
0
9
$PDSIZE
40
0
9
$PLINEGEN
70
0
0
ENDSEC
0
SECTION
2
CLASSES
0
CLASS
1
RASTERVARIABLES
2
AcDbRasterVariables
3
ISM
90
0
280
0
281
0
0
ENDSEC
0
SECTION
2
TABLES
0
TABLE
2
VPORT
5
184
100
AcDbSymbolTable
0
VPORT
5
1
100
AcDbSymbolTableRecord
100
AcDbViewportTableRecord
2
*Active
70
0
10
0
20
0
11
1
21
1
12
-1
22
1
13
0
23
0
14
0.5
24
0.5
15
10
25
10
16
0
26
0
36
1
17
0
27
0
37
0
0
ENDTAB
0
TABLE
2
LTYPE
5
185
100
AcDbSymbolTable
0
LTYPE
5
14
100
AcDbSymbolTableRecord
100
AcDbLinetypeTableRecord
70
0
2
ByBlock
3

72
65
73
0
40
0
0
LTYPE
5
15
100
AcDbSymbolTableRecord
100
AcDbLinetypeTableRecord
70
0
2
ByLayer
3

72
65
73
0
40
0
0
LTYPE
5
16
100
AcDbSymbolTableRecord
100
AcDbLinetypeTableRecord
70
0
2
CONTINUOUS
3
Solid line
72
65
73
0
40
0
0
LTYPE
5
6A
100
AcDbSymbolTableRecord
100
AcDbLinetypeTableRecord
70
0
2
CENTER
3
____ _ ____ _ ____ _ ____
72
65
73
4
40
47.5
49
22
74
0
49
-8.5
74
0
49
8.5
74
0
49
-8.5
74
0
0
LTYPE
5
6B
100
AcDbSymbolTableRecord
100
AcDbLinetypeTableRecord
70
0
2
DASHED
3
__ __ __ __ __ __ __ __ __
72
65
73
2
40
25.72
49
12.86
74
0
49
-12.86
74
0
0
ENDTAB
0
TABLE
2
LAYER
5
186
100
AcDbSymbolTable
0
LAYER
5
10
100
AcDbSymbolTableRecord
100
AcDbLayerTableRecord
2
0
70
0
62
7
6
CONTINUOUS
290
1
370
-3
390
0
0
LAYER
5
6D
100
AcDbSymbolTableRecord
100
AcDbLayerTableRecord
2
81
70
0
62
-3
6
CONTINUOUS
290
1
370
-3
390
0
0
LAYER
5
6F
100
AcDbSymbolTableRecord
100
AcDbLayerTableRecord
2
80
70
0
62
-6
6
CONTINUOUS
290
1
370
-3
390
0
0
LAYER
5
71
100
AcDbSymbolTableRecord
100
AcDbLayerTableRecord
2
1
70
0
62
4
6
CONTINUOUS
290
1
370
-3
390
0
0
LAYER
5
76
100
AcDbSymbolTableRecord
100
AcDbLayerTableRecord
2
4
70
0
62
-2
6
CENTER
290
1
370
-3
390
0
0
LAYER
5
EE
100
AcDbSymbolTableRecord
100
AcDbLayerTableRecord
2
2
70
0
62
7
6
CONTINUOUS
290
1
370
-3
390
0
0
LAYER
5
170
100
AcDbSymbolTableRecord
100
AcDbLayerTableRecord
2
SK1
70
0
62
4
6
CONTINUOUS
290
1
370
-3
390
0
0
LAYER
5
171
100
AcDbSymbolTableRecord
100
AcDbLayerTableRecord
2
SK4
70
0
62
2
6
CENTER
290
1
370
-3
390
0
0
LAYER
5
172
100
AcDbSymbolTableRecord
100
AcDbLayerTableRecord
2
SK6
70
0
62
5
6
CONTINUOUS
290
1
370
-3
390
0
0
LAYER
5
173
100
AcDbSymbolTableRecord
100
AcDbLayerTableRecord
2
SK2
70
0
62
7
6
CONTINUOUS
290
1
370
-3
390
0
0
ENDTAB
0
TABLE
2
STYLE
5
187
100
AcDbSymbolTable
0
STYLE
5
11
100
AcDbSymbolTableRecord
100
AcDbTextStyleTableRecord
2
Standard
3
txt
70
0
71
0
40
0
41
1
42
0
50
0
0
STYLE
5
D4
100
AcDbSymbolTableRecord
100
AcDbTextStyleTableRecord
2
iso_b_vert
3
simplex.shx
70
0
71
0
40
0
41
1
42
0
50
0
0
STYLE
5
D5
100
AcDbSymbolTableRecord
100
AcDbTextStyleTableRecord
2
DWGDirectTextStyle
3
simplex
70
0
71
0
40
0
41
1
42
0
50
0
0
ENDTAB
0
TABLE
2
DIMSTYLE
5
188
100
AcDbSymbolTable
100
AcDbDimStyleTable
0
DIMSTYLE
105
27
100
AcDbSymbolTableRecord
100
AcDbDimStyleTableRecord
2
Standard
70
0
3
<>
41
0.18
42
0.0625
44
0.18
140
0.18
147
0.09
73
0
74
0
77
1
271
2
275
0
278
52
280
0
340
11
0
ENDTAB
0
TABLE
2
VIEW
5
189
100
AcDbSymbolTable
0
ENDTAB
0
TABLE
2
UCS
5
18a
100
AcDbSymbolTable
0
ENDTAB
0
TABLE
2
APPID
5
18b
100
AcDbSymbolTable
0
APPID
5
12
100
AcDbSymbolTableRecord
100
AcDbRegAppTableRecord
2
ACAD
70
0
0
ENDTAB
0
TABLE
2
BLOCK_RECORD
5
18c
100
AcDbSymbolTable
0
BLOCK_RECORD
5
1F
100
AcDbSymbolTableRecord
100
AcDbBlockTableRecord
2
*Model_Space
340
0
70
0
0
BLOCK_RECORD
5
1B
100
AcDbSymbolTableRecord
100
AcDbBlockTableRecord
2
*Paper_Space
340
0
70
0
0
BLOCK_RECORD
5
23
100
AcDbSymbolTableRecord
100
AcDbBlockTableRecord
2
*Paper_Space0
340
0
70
0
0
BLOCK_RECORD
5
D7
100
AcDbSymbolTableRecord
100
AcDbBlockTableRecord
2
DimnDraft3D1
340
0
70
0
0
BLOCK_RECORD
5
E2
100
AcDbSymbolTableRecord
100
AcDbBlockTableRecord
2
DimnDraft3D2
340
0
70
0
0
BLOCK_RECORD
5
EC
100
AcDbSymbolTableRecord
100
AcDbBlockTableRecord
2
DimnDraft3D3
340
0
70
0
0
BLOCK_RECORD
5
F7
100
AcDbSymbolTableRecord
100
AcDbBlockTableRecord
2
DimnDraft3D4
340
0
70
0
0
BLOCK_RECORD
5
101
100
AcDbSymbolTableRecord
100
AcDbBlockTableRecord
2
DimnDraft3D5
340
0
70
0
0
BLOCK_RECORD
5
10C
100
AcDbSymbolTableRecord
100
AcDbBlockTableRecord
2
DimnDraft3D6
340
0
70
0
0
ENDTAB
0
ENDSEC
0
SECTION
2
BLOCKS
0
BLOCK
5
20
100
AcDbEntity
8
0
100
AcDbBlockBegin
2
*Model_Space
70
0
10
0
20
0
30
0
3
*Model_Space
0
ENDBLK
5
21
100
AcDbEntity
8
0
100
AcDbBlockEnd
0
BLOCK
5
1C
100
AcDbEntity
8
0
100
AcDbBlockBegin
2
*Paper_Space
70
0
10
0
20
0
30
0
3
*Paper_Space
0
ENDBLK
5
1D
100
AcDbEntity
8
0
100
AcDbBlockEnd
0
BLOCK
5
24
100
AcDbEntity
8
0
100
AcDbBlockBegin
2
*Paper_Space0
70
0
10
0
20
0
30
0
3
*Paper_Space0
0
ENDBLK
5
25
100
AcDbEntity
8
0
100
AcDbBlockEnd
0
BLOCK
5
DF
100
AcDbEntity
8
0
100
AcDbBlockBegin
2
DimnDraft3D1
70
0
10
0
20
0
30
0
3
DimnDraft3D1
0
MTEXT
5
D8
100
AcDbEntity
8
SK2
62
256
6
ByLayer
370
18
48
1
60
0
100
AcDbMText
10
16.830263
20
57.475
30
0
210
0
220
0
230
1
1
\W0.6740;36
40
3.5
41
0
44
1.084337
50
0
71
7
72
5
7
iso_b_vert
0
LINE
5
DA
100
AcDbEntity
8
SK2
62
256
6
ByLayer
370
13
48
1
60
0
100
AcDbLine
10
0
20
51.5875
30
0
11
0
21
58.6
31
0
39
0
210
0
220
0
230
1
0
LINE
5
DB
100
AcDbEntity
8
SK2
62
256
6
ByLayer
370
13
48
1
60
0
100
AcDbLine
10
36
20
51.5875
30
0
11
36
21
58.6
31
0
39
0
210
0
220
0
230
1
0
LINE
5
DC
100
AcDbEntity
8
SK2
62
256
6
ByLayer
370
13
48
1
60
0
100
AcDbLine
10
0
20
56.6
30
0
11
36
21
56.6
31
0
39
0
210
0
220
0
230
1
0
SOLID
5
DD
100
AcDbEntity
8
SK2
62
256
6
ByLayer
370
13
48
1
60
0
100
AcDbTrace
10
0
20
56.6
30
0
11
3.499998
21
57.060784
31
0
12
3.500002
22
56.139216
32
0
13
0
23
56.6
33
0
39
0
210
0
220
0
230
1
0
SOLID
5
DE
100
AcDbEntity
8
SK2
62
256
6
ByLayer
370
13
48
1
60
0
100
AcDbTrace
10
36
20
56.6
30
0
11
32.500002
21
56.139216
31
0
12
32.499998
22
57.060784
32
0
13
36
23
56.6
33
0
39
0
210
0
220
0
230
1
0
ENDBLK
5
E0
100
AcDbEntity
8
0
100
AcDbBlockEnd
0
BLOCK
5
E9
100
AcDbEntity
8
0
100
AcDbBlockBegin
2
DimnDraft3D2
70
0
10
0
20
0
30
0
3
DimnDraft3D2
0
MTEXT
5
E3
100
AcDbEntity
8
SK2
62
256
6
ByLayer
370
18
48
1
60
0
100
AcDbMText
10
65.417105
20
67.475
30
0
210
0
220
0
230
1
1
\W0.7493;42,7
40
3.5
41
0
44
1.084337
50
0
71
7
72
5
7
iso_b_vert
0
LINE
5
E4
100
AcDbEntity
8
SK2
62
256
6
ByLayer
370
13
48
1
60
0
100
AcDbLine
10
90
20
21.5875
30
0
11
90
21
68.6
31
0
39
0
210
0
220
0
230
1
0
LINE
5
E5
100
AcDbEntity
8
SK2
62
256
6
ByLayer
370
13
48
1
60
0
100
AcDbLine
10
47.3
20
21.5875
30
0
11
47.3
21
68.6
31
0
39
0
210
0
220
0
230
1
0
LINE
5
E6
100
AcDbEntity
8
SK2
62
256
6
ByLayer
370
13
48
1
60
0
100
AcDbLine
10
90
20
66.6
30
0
11
47.3
21
66.6
31
0
39
0
210
0
220
0
230
1
0
SOLID
5
E7
100
AcDbEntity
8
SK2
62
256
6
ByLayer
370
13
48
1
60
0
100
AcDbTrace
10
90
20
66.6
30
0
11
86.500002
21
66.139216
31
0
12
86.499998
22
67.060784
32
0
13
90
23
66.6
33
0
39
0
210
0
220
0
230
1
0
SOLID
5
E8
100
AcDbEntity
8
SK2
62
256
6
ByLayer
370
13
48
1
60
0
100
AcDbTrace
10
47.3
20
66.6
30
0
11
50.799998
21
67.060784
31
0
12
50.800002
22
66.139216
32
0
13
47.3
23
66.6
33
0
39
0
210
0
220
0
230
1
0
ENDBLK
5
EA
100
AcDbEntity
8
0
100
AcDbBlockEnd
0
BLOCK
5
F4
100
AcDbEntity
8
0
100
AcDbBlockBegin
2
DimnDraft3D3
70
0
10
0
20
0
30
0
3
DimnDraft3D3
0
MTEXT
5
ED
100
AcDbEntity
8
2
62
256
6
ByLayer
370
18
48
1
60
0
100
AcDbMText
10
43.830263
20
77.475
30
0
210
0
220
0
230
1
1
\W0.6740;90
40
3.5
41
0
44
1.084337
50
0
71
7
72
5
7
iso_b_vert
0
LINE
5
EF
100
AcDbEntity
8
2
62
256
6
ByLayer
370
13
48
1
60
0
100
AcDbLine
10
90
20
21.5875
30
0
11
90
21
78.6
31
0
39
0
210
0
220
0
230
1
0
LINE
5
F0
100
AcDbEntity
8
2
62
256
6
ByLayer
370
13
48
1
60
0
100
AcDbLine
10
0
20
51.5875
30
0
11
0
21
78.6
31
0
39
0
210
0
220
0
230
1
0
LINE
5
F1
100
AcDbEntity
8
2
62
256
6
ByLayer
370
13
48
1
60
0
100
AcDbLine
10
90
20
76.6
30
0
11
0
21
76.6
31
0
39
0
210
0
220
0
230
1
0
SOLID
5
F2
100
AcDbEntity
8
2
62
256
6
ByLayer
370
13
48
1
60
0
100
AcDbTrace
10
90
20
76.6
30
0
11
86.500002
21
76.139216
31
0
12
86.499998
22
77.060784
32
0
13
90
23
76.6
33
0
39
0
210
0
220
0
230
1
0
SOLID
5
F3
100
AcDbEntity
8
2
62
256
6
ByLayer
370
13
48
1
60
0
100
AcDbTrace
10
0
20
76.6
30
0
11
3.499998
21
77.060784
31
0
12
3.500002
22
76.139216
32
0
13
0
23
76.6
33
0
39
0
210
0
220
0
230
1
0
ENDBLK
5
F5
100
AcDbEntity
8
0
100
AcDbBlockEnd
0
BLOCK
5
FE
100
AcDbEntity
8
0
100
AcDbBlockBegin
2
DimnDraft3D4
70
0
10
0
20
0
30
0
3
DimnDraft3D4
0
MTEXT
5
F8
100
AcDbEntity
8
SK2
62
256
6
ByLayer
370
18
48
1
60
0
100
AcDbMText
10
-31.215789
20
77.475
30
0
210
0
220
0
230
1
1
\W0.6740;60
40
3.5
41
0
44
1.084337
50
0
71
7
72
5
7
iso_b_vert
0
LINE
5
F9
100
AcDbEntity
8
SK2
62
256
6
ByLayer
370
13
48
1
60
0
100
AcDbLine
10
-60
20
37.5875
30
0
11
-60
21
78.6
31
0
39
0
210
0
220
0
230
1
0
LINE
5
FA
100
AcDbEntity
8
SK2
62
256
6
ByLayer
370
13
48
1
60
0
100
AcDbLine
10
0
20
51.5875
30
0
11
0
21
78.6
31
0
39
0
210
0
220
0
230
1
0
LINE
5
FB
100
AcDbEntity
8
SK2
62
256
6
ByLayer
370
13
48
1
60
0
100
AcDbLine
10
-60
20
76.6
30
0
11
0
21
76.6
31
0
39
0
210
0
220
0
230
1
0
SOLID
5
FC
100
AcDbEntity
8
SK2
62
256
6
ByLayer
370
13
48
1
60
0
100
AcDbTrace
10
-60
20
76.6
30
0
11
-56.500002
21
77.060784
31
0
12
-56.499998
22
76.139216
32
0
13
-60
23
76.6
33
0
39
0
210
0
220
0
230
1
0
SOLID
5
FD
100
AcDbEntity
8
SK2
62
256
6
ByLayer
370
13
48
1
60
0
100
AcDbTrace
10
0
20
76.6
30
0
11
-3.499998
21
76.139216
31
0
12
-3.500002
22
77.060784
32
0
13
0
23
76.6
33
0
39
0
210
0
220
0
230
1
0
ENDBLK
5
FF
100
AcDbEntity
8
0
100
AcDbBlockEnd
0
BLOCK
5
109
100
AcDbEntity
8
0
100
AcDbBlockBegin
2
DimnDraft3D5
70
0
10
0
20
0
30
0
3
DimnDraft3D5
0
MTEXT
5
102
100
AcDbEntity
8
SK2
62
256
6
ByLayer
370
18
48
1
60
0
100
AcDbMText
10
-83.35
20
1.482895
30
0
210
0
220
0
230
1
1
\W0.6217;100
40
3.5
41
0
44
1.084337
50
90
71
7
72
5
7
iso_b_vert
0
MTEXT
5
103
100
AcDbEntity
8
SK2
62
256
6
ByLayer
370
18
48
1
60
0
100
AcDbMText
10
-83.35
20
-3.739762
30
0
210
0
220
0
230
1
1
%%c
40
3.5
41
0
44
1.084337
50
90
71
7
72
5
7
iso_b_vert
0
LINE
5
104
100
AcDbEntity
8
SK2
62
256
6
ByLayer
370
13
48
1
60
0
100
AcDbLine
10
-1.5875
20
50
30
0
11
-83.6
21
50
31
0
39
0
210
0
220
0
230
1
0
LINE
5
105
100
AcDbEntity
8
SK2
62
256
6
ByLayer
370
13
48
1
60
0
100
AcDbLine
10
-1.5875
20
-50
30
0
11
-83.6
21
-50
31
0
39
0
210
0
220
0
230
1
0
LINE
5
106
100
AcDbEntity
8
SK2
62
256
6
ByLayer
370
13
48
1
60
0
100
AcDbLine
10
-81.6
20
50
30
0
11
-81.6
21
-50
31
0
39
0
210
0
220
0
230
1
0
SOLID
5
107
100
AcDbEntity
8
SK2
62
256
6
ByLayer
370
13
48
1
60
0
100
AcDbTrace
10
-81.6
20
50
30
0
11
-81.139216
21
46.500002
31
0
12
-82.060784
22
46.499998
32
0
13
-81.6
23
50
33
0
39
0
210
0
220
0
230
1
0
SOLID
5
108
100
AcDbEntity
8
SK2
62
256
6
ByLayer
370
13
48
1
60
0
100
AcDbTrace
10
-81.6
20
-50
30
0
11
-82.060784
21
-46.500002
31
0
12
-81.139216
22
-46.499998
32
0
13
-81.6
23
-50
33
0
39
0
210
0
220
0
230
1
0
ENDBLK
5
10A
100
AcDbEntity
8
0
100
AcDbBlockEnd
0
BLOCK
5
114
100
AcDbEntity
8
0
100
AcDbBlockBegin
2
DimnDraft3D6
70
0
10
0
20
0
30
0
3
DimnDraft3D6
0
MTEXT
5
10D
100
AcDbEntity
8
SK2
62
256
6
ByLayer
370
18
48
1
60
0
100
AcDbMText
10
113.35
20
2.146053
30
0
210
0
220
0
230
1
1
\W0.7361;40
40
3.5
41
0
44
1.084337
50
90
71
7
72
5
7
iso_b_vert
0
MTEXT
5
10E
100
AcDbEntity
8
SK2
62
256
6
ByLayer
370
18
48
1
60
0
100
AcDbMText
10
113.35
20
-3.076604
30
0
210
0
220
0
230
1
1
%%c
40
3.5
41
0
44
1.084337
50
90
71
7
72
5
7
iso_b_vert
0
LINE
5
10F
100
AcDbEntity
8
SK2
62
256
6
ByLayer
370
13
48
1
60
0
100
AcDbLine
10
91.5875
20
20
30
0
11
117.1
21
20
31
0
39
0
210
0
220
0
230
1
0
LINE
5
110
100
AcDbEntity
8
SK2
62
256
6
ByLayer
370
13
48
1
60
0
100
AcDbLine
10
91.5875
20
-20
30
0
11
117.1
21
-20
31
0
39
0
210
0
220
0
230
1
0
LINE
5
111
100
AcDbEntity
8
SK2
62
256
6
ByLayer
370
13
48
1
60
0
100
AcDbLine
10
115.1
20
20
30
0
11
115.1
21
-20
31
0
39
0
210
0
220
0
230
1
0
SOLID
5
112
100
AcDbEntity
8
SK2
62
256
6
ByLayer
370
13
48
1
60
0
100
AcDbTrace
10
115.1
20
20
30
0
11
115.560784
21
16.500002
31
0
12
114.639216
22
16.499998
32
0
13
115.1
23
20
33
0
39
0
210
0
220
0
230
1
0
SOLID
5
113
100
AcDbEntity
8
SK2
62
256
6
ByLayer
370
13
48
1
60
0
100
AcDbTrace
10
115.1
20
-20
30
0
11
114.639216
21
-16.500002
31
0
12
115.560784
22
-16.499998
32
0
13
115.1
23
-20
33
0
39
0
210
0
220
0
230
1
0
ENDBLK
5
115
100
AcDbEntity
8
0
100
AcDbBlockEnd
0
ENDSEC
0
SECTION
2
ENTITIES
0
ARC
5
A7
100
AcDbEntity
8
1
62
256
6
ByLayer
370
18
48
1
60
0
100
AcDbCircle
39
0
10
36.187777
20
-49.2
30
0
40
0.8
210
0
220
0
230
1
100
AcDbArc
50
270
51
344.852119
0
ARC
5
A8
100
AcDbEntity
8
1
62
256
6
ByLayer
370
18
48
1
60
0
100
AcDbCircle
39
0
10
-47.3
20
-23.107988
30
0
40
3.10798830912271
210
6.12303176911189E-17
220
0
230
-1
100
AcDbArc
50
15.147881
51
90
0
ARC
5
A9
100
AcDbEntity
8
SK1
62
256
6
ByLayer
370
18
48
1
60
0
100
AcDbCircle
39
0
10
0.6
20
-38.9
30
0
40
1
210
6.12303176911189E-17
220
0
230
-1
100
AcDbArc
50
113.578178
51
126.869898
0
ARC
5
AA
100
AcDbEntity
8
SK1
62
256
6
ByLayer
370
18
48
1
60
0
100
AcDbCircle
39
0
10
0.6
20
38.9
30
0
40
1
210
6.12303176911189E-17
220
0
230
-1
100
AcDbArc
50
233.130102
51
246.421822
0
ARC
5
AB
100
AcDbEntity
8
1
62
256
6
ByLayer
370
18
48
1
60
0
100
AcDbCircle
39
0
10
36.187777
20
49.2
30
0
40
0.8
210
0
220
0
230
1
100
AcDbArc
50
15.147881
51
90
0
ARC
5
AC
100
AcDbEntity
8
1
62
256
6
ByLayer
370
18
48
1
60
0
100
AcDbCircle
39
0
10
-47.3
20
23.107988
30
0
40
3.10798830912271
210
6.12303176911189E-17
220
0
230
-1
100
AcDbArc
50
270
51
344.852119
0
ELLIPSE
5
AD
100
AcDbEntity
8
1
62
256
6
ByLayer
370
18
48
1
60
0
100
AcDbEllipse
10
39.094011
20
0
30
0
11
23.4185446994525
21
-49.3543728818721
31
0
210
0
220
0
230
-1
40
0.341999
41
2.04714540389041
42
2.98699413089088
0
ELLIPSE
5
AE
100
AcDbEntity
8
1
62
256
6
ByLayer
370
18
48
1
60
0
100
AcDbEllipse
10
-7.094011
20
0
30
0
11
23.4185446994521
21
49.3543728818717
31
0
210
0
220
0
230
-1
40
0.341999
41
0.154598522698916
42
1.09444724969939
0
ELLIPSE
5
AF
100
AcDbEntity
8
1
62
256
6
ByLayer
370
18
48
1
60
0
100
AcDbEllipse
10
39.094011
20
0
30
0
11
23.4185446994526
21
49.3543728818725
31
0
210
0
220
0
230
-1
40
0.341999
41
-2.98699413089088
42
-2.04714540389041
0
ELLIPSE
5
B0
100
AcDbEntity
8
1
62
256
6
ByLayer
370
18
48
1
60
0
100
AcDbEllipse
10
-7.094011
20
0
30
0
11
23.4185446994518
21
-49.3543728818715
31
0
210
0
220
0
230
-1
40
0.341999
41
-1.0944472496994
42
-0.154598522698914
0
POINT
5
6C
100
AcDbEntity
8
81
62
256
6
ByLayer
370
18
48
1
60
0
100
AcDbPoint
10
90
20
0
30
0
39
0
210
0
220
0
230
1
50
360
0
POINT
5
6E
100
AcDbEntity
8
80
62
256
6
ByLayer
370
18
48
1
60
0
100
AcDbPoint
10
0
20
0
30
0
39
0
210
0
220
0
230
1
50
360
0
POINT
5
70
100
AcDbEntity
8
1
62
256
6
ByLayer
370
18
48
1
60
0
100
AcDbPoint
10
0
20
0
30
0
39
0
210
0
220
0
230
1
50
360
0
SPLINE
5
B1
100
AcDbEntity
8
SK1
62
256
6
ByLayer
370
18
48
1
60
0
100
AcDbSpline
70
4
71
3
72
13
73
9
40
0
40
0
40
0
40
0
40
0.239456597696627
40
0.368360333414396
40
0.499999646097735
40
0.631639017852403
40
0.760542916289389
40
1
40
1
40
1
40
1
41
1
10
-2.19999999999999
20
-36.020098714425
30
-1E-16
41
1
10
-2.19909199362428
20
-35.994041143702
30
-1E-16
41
1
10
-2.19103284825079
20
-35.956668418702
30
-1E-16
41
1
10
-2.16563593150639
20
-35.9104490513902
30
-1E-16
41
1
10
-2.13886379933891
20
-35.8791673697464
30
-1E-16
41
1
10
-2.1062771409558
20
-35.8539998944634
30
-1E-16
41
1
10
-2.05884066056879
20
-35.8309559959591
30
-1E-16
41
1
10
-2.02111031829247
20
-35.8247837166445
30
-1E-16
41
1
10
-1.99503997793928
20
-35.8251853523287
30
-1E-16
0
SPLINE
5
B2
100
AcDbEntity
8
SK1
62
256
6
ByLayer
370
18
48
1
60
0
100
AcDbSpline
70
4
71
2
72
6
73
3
40
0
40
0
40
0
40
1
40
1
40
1
41
1
10
-58
20
34.6180277609945
30
0
41
1
10
-58.9999999990911
20
34.0406853811666
30
-1E-16
41
1
10
-60
20
33.4633429309407
30
-1E-16
0
SPLINE
5
B3
100
AcDbEntity
8
SK1
62
256
6
ByLayer
370
18
48
1
60
0
100
AcDbSpline
70
4
71
2
72
6
73
3
40
0
40
0
40
0
40
1
40
1
40
1
41
1
10
-60
20
-33.4633340188486
30
-1E-16
41
1
10
-59.0000000015328
20
-34.0406784545941
30
-1E-16
41
1
10
-58
20
-34.6180228183431
30
0
0
SPLINE
5
B4
100
AcDbEntity
8
SK1
62
256
6
ByLayer
370
18
48
1
60
0
100
AcDbSpline
70
4
71
2
72
6
73
3
40
0
40
0
40
0
40
1
40
1
40
1
41
1
10
-0.394976888875277
20
35.8653726648781
30
0
41
1
10
-1.19500843340728
20
35.845273220757
30
-1E-16
41
1
10
-1.99503997793928
20
35.8251737766339
30
-1E-16
0
SPLINE
5
B5
100
AcDbEntity
8
SK1
62
256
6
ByLayer
370
18
48
1
60
0
100
AcDbSpline
70
4
71
2
72
6
73
3
40
0
40
0
40
0
40
1
40
1
40
1
41
1
10
-1.99503997793928
20
-35.8251729954496
30
-1E-16
41
1
10
-1.19500843340728
20
-35.8452725233881
30
-1E-16
41
1
10
-0.394976888875277
20
-35.8653720513261
30
0
0
SPLINE
5
B6
100
AcDbEntity
8
SK1
62
256
6
ByLayer
370
18
48
1
60
0
100
AcDbSpline
70
4
71
3
72
23
73
19
40
0
40
0
40
0
40
0
40
0.0049638621136956
40
0.0174460750262838
40
0.044161797947365
40
0.078808864022964
40
0.12097020844082
40
0.170224107792578
40
0.226152687932375
40
0.288335787572257
40
0.356357117074739
40
0.429792577864742
40
0.508231151956732
40
0.591247511566959
40
0.700822676500568
40
0.81608359833173
40
0.936213813667719
40
1
40
1
40
1
40
1
41
1
10
-0.217097767984683
20
19.5793139901052
30
0
41
1
10
-0.217516666923331
20
19.609460168318
30
0
41
1
10
-0.218920998389677
20
19.7153917308038
30
0
41
1
10
-0.221535093180791
20
19.9838198461494
30
0
41
1
10
-0.225401435833504
20
20.429539574146
30
0
41
1
10
-0.230078561894715
20
21.0460411947137
30
0
41
1
10
-0.235394187578322
20
21.7827240154045
30
0
41
1
10
-0.241298235479434
20
22.6236204701387
30
0
41
1
10
-0.247809219901825
20
23.5518904048841
30
0
41
1
10
-0.254916060760706
20
24.5501868435314
30
0
41
1
10
-0.262605989459558
20
25.6007484822542
30
0
41
1
10
-0.270857652245894
20
26.685639363679
30
0
41
1
10
-0.279637069490946
20
27.7868949801546
30
0
41
1
10
-0.289739923988264
20
28.9852464101305
30
0
41
1
10
-0.30118038194496
20
30.2480825576527
30
0
41
1
10
-0.313933941290628
20
31.5225500140152
30
0
41
1
10
-0.324933041734482
20
32.519450235905
30
0
41
1
10
-0.331613173014745
20
33.0346279363752
30
0
41
1
10
-0.333922653375396
20
33.2037227079103
30
0
0
SPLINE
5
B7
100
AcDbEntity
8
SK1
62
256
6
ByLayer
370
18
48
1
60
0
100
AcDbSpline
70
4
71
2
72
6
73
3
40
0
40
0
40
0
40
1
40
1
40
1
41
1
10
-2.19999999999999
20
35.9985021134432
30
-1E-16
41
1
10
-30.1
20
35.2979624159373
30
-1E-16
41
1
10
-58
20
34.5974227787246
30
0
0
SPLINE
5
B8
100
AcDbEntity
8
SK1
62
256
6
ByLayer
370
18
48
1
60
0
100
AcDbSpline
70
4
71
3
72
13
73
9
40
0
40
0
40
0
40
0
40
0.239457532542188
40
0.368361585145814
40
0.500001016451015
40
0.631640278503792
40
0.760543864568942
40
1
40
1
40
1
40
1
41
1
10
-1.99503997793928
20
35.8251861518663
30
-1E-16
41
1
10
-2.02111030872339
20
35.8247845119233
30
-1E-16
41
1
10
-2.05884064232765
20
35.8309567669304
30
-1E-16
41
1
10
-2.10627712748939
20
35.85400056933
30
-1E-16
41
1
10
-2.13886378678399
20
35.8791679394554
30
-1E-16
41
1
10
-2.16563592202684
20
35.9104494932211
30
-1E-16
41
1
10
-2.19103284106407
20
35.9566686669141
30
-1E-16
41
1
10
-2.19909198641739
20
35.9940412511455
30
-1E-16
41
1
10
-2.19999999999999
20
36.0200987271899
30
-1E-16
0
SPLINE
5
B9
100
AcDbEntity
8
SK1
62
256
6
ByLayer
370
18
48
1
60
0
100
AcDbSpline
70
4
71
2
72
6
73
3
40
0
40
0
40
0
40
1
40
1
40
1
41
1
10
-58
20
-34.5974182144316
30
0
41
1
10
-30.1000000000006
20
-35.2979600359712
30
-1E-16
41
1
10
-2.19999999999999
20
-35.9985019194103
30
-1E-16
0
SPLINE
5
BA
100
AcDbEntity
8
SK1
62
256
6
ByLayer
370
18
48
1
60
0
100
AcDbSpline
70
4
71
3
72
33
73
29
40
0
40
0
40
0
40
0
40
0.0682003001589906
40
0.186223298160034
40
0.29946599164996
40
0.407125630292627
40
0.488693178599036
40
0.565763578660751
40
0.637924322735162
40
0.704763987028042
40
0.765874504131461
40
0.820840767110457
40
0.869254919676661
40
0.91070201324626
40
0.944772831376221
40
0.971053699397372
40
0.983340235571756
40
0.992322056181703
40
0.997899228221245
40
0.999380453735428
40
0.999789535642199
40
0.999911110178544
40
0.999978369634382
40
0.99998742801715
40
0.999991034017623
40
0.999994186350598
40
0.999997089177811
40
1
40
1
40
1
40
1
41
1
10
-0.334282611243992
20
-33.1647040701802
30
0
41
1
10
-0.331759641778206
20
-32.9753478074504
30
0
41
1
10
-0.324848159141823
20
-32.4270762234548
30
0
41
1
10
-0.313603452166717
20
-31.380730435159
30
0
41
1
10
-0.300809341265619
20
-30.0648841676008
30
0
41
1
10
-0.289339167612837
20
-28.7618539694348
30
0
41
1
10
-0.279216165874942
20
-27.5252193503099
30
0
41
1
10
-0.270423761009368
20
-26.3887753592412
30
0
41
1
10
-0.262166534294693
20
-25.2691603435344
30
0
41
1
10
-0.254475814719825
20
-24.1848678618791
30
0
41
1
10
-0.247374944712988
20
-23.1544108954953
30
0
41
1
10
-0.240875551044042
20
-22.1960657822305
30
0
41
1
10
-0.2349845023368
20
-21.3277670434648
30
0
41
1
10
-0.229697736289893
20
-20.566855636493
30
0
41
1
10
-0.225017068761275
20
-19.9298683515895
30
0
41
1
10
-0.221236363624939
20
-19.4690663517756
30
0
41
1
10
-0.218292996760169
20
-19.1653241057075
30
0
41
1
10
-0.216181575596238
20
-18.9938581844896
30
0
41
1
10
-0.214607668048132
20
-18.8915263193292
30
0
41
1
10
-0.213242113290278
20
-18.8451858003259
30
0
41
1
10
-0.212645423917138
20
-18.8330874116334
30
0
41
1
10
-0.21230017383337
20
-18.8299086153345
30
0
41
1
10
-0.212149592029561
20
-18.8288979906488
30
0
41
1
10
-0.212000743647565
20
-18.8287549096938
30
0
41
1
10
-0.21196210590989
20
-18.828764023116
30
0
41
1
10
-0.211934990820282
20
-18.8287882845169
30
0
41
1
10
-0.211907196640908
20
-18.8288323550526
30
0
41
1
10
-0.211889739943956
20
-18.8288718385606
30
0
41
1
10
-0.211880957484993
20
-18.8288945513672
30
0
0
SPLINE
5
BB
100
AcDbEntity
8
SK1
62
256
6
ByLayer
370
18
48
1
60
0
100
AcDbSpline
70
4
71
3
72
26
73
22
40
0
40
0
40
0
40
0
40
0.0312499999999989
40
0.0312499999999989
40
0.0624999999999979
40
0.0624999999999979
40
0.0937499999999968
40
0.0937499999999968
40
0.124999999999996
40
0.124999999999996
40
0.187499999999996
40
0.187499999999996
40
0.249999999999996
40
0.249999999999996
40
0.374999999999995
40
0.374999999999995
40
0.499999999999995
40
0.499999999999995
40
0.749999999999997
40
0.749999999999997
40
1
40
1
40
1
40
1
41
1
10
-0.394976888875277
20
6.14029748393358
30
0
41
1
10
-0.388671542343815
20
6.13475802495364
30
0
41
1
10
-0.381811688236269
20
6.12988869329271
30
0
41
1
10
-0.366640931323502
20
6.12297362066235
30
0
41
1
10
-0.358278007449996
20
6.1210615629052
30
0
41
1
10
-0.34158624418788
20
6.12220054473741
30
0
41
1
10
-0.333329946063969
20
6.12530915500176
30
0
41
1
10
-0.318937761824742
20
6.13458695676917
30
0
41
1
10
-0.31269144711527
20
6.14059423910973
30
0
41
1
10
-0.296015040763592
20
6.16032344698257
30
0
41
1
10
-0.287612080656316
20
6.17550182304004
30
0
41
1
10
-0.273149761403403
20
6.20664379931858
30
0
41
1
10
-0.267232047922107
20
6.22260462544978
30
0
41
1
10
-0.251522730309745
20
6.2710903050544
30
0
41
1
10
-0.243762688270152
20
6.3042913519493
30
0
41
1
10
-0.23081134795666
20
6.37110400420673
30
0
41
1
10
-0.225742010447959
20
6.40454205690907
30
0
41
1
10
-0.213066187746591
20
6.50489212673548
30
0
41
1
10
-0.207959301007548
20
6.5718390038428
30
0
41
1
10
-0.201382597553817
20
6.70573141098552
30
0
41
1
10
-0.200000000000046
20
6.77268016381564
30
0
41
1
10
-0.200000000000046
20
6.83961987074574
30
0
0
SPLINE
5
BC
100
AcDbEntity
8
SK1
62
256
6
ByLayer
370
18
48
1
60
0
100
AcDbSpline
70
4
71
3
72
18
73
14
40
0
40
0
40
0
40
0
40
0.206493092740931
40
0.206493092740931
40
0.538701063789958
40
0.538701063789958
40
0.704805049314472
40
0.704805049314472
40
0.870909034838986
40
0.870909034838986
40
0.953961027601242
40
0.953961027601242
40
1
40
1
40
1
40
1
41
1
10
-0.200622837580681
20
-28.9869232648551
30
0
41
1
10
-0.201320667024504
20
-29.0140028466817
30
0
41
1
10
-0.202630537935988
20
-29.0408006032016
30
0
41
1
10
-0.207978089311865
20
-29.1098671795148
30
0
41
1
10
-0.213104238159218
20
-29.15166329712
30
0
41
1
10
-0.225863680076003
20
-29.212430708525
30
0
41
1
10
-0.230960581829919
20
-29.2323021122834
30
0
41
1
10
-0.243909693549142
20
-29.2709230268983
30
0
41
1
10
-0.251695468058273
20
-29.2897316982483
30
0
41
1
10
-0.267365194374293
20
-29.3158651092749
30
0
41
1
10
-0.273258925337046
20
-29.3242443982196
30
0
41
1
10
-0.284384967822945
20
-29.3363491201692
30
0
41
1
10
-0.288750053688432
20
-29.3405438339541
30
0
41
1
10
-0.293751375742602
20
-29.3443560080474
30
0
0
SPLINE
5
BD
100
AcDbEntity
8
SK1
62
256
6
ByLayer
370
18
48
1
60
0
100
AcDbSpline
70
4
71
3
72
316
73
312
40
0
40
0
40
0
40
0
40
0.0001407950709273
40
0.0036609303917155
40
0.0071810657125038
40
0.010701201033292
40
0.0142213363540803
40
0.0177414716748685
40
0.0212616069956568
40
0.024781742316445
40
0.0283018776372333
40
0.0318220129580215
40
0.0353421482788098
40
0.038862283599598
40
0.0423824189203863
40
0.0459025542411745
40
0.0494226895619628
40
0.052942824882751
40
0.0564629602035392
40
0.0599830955243275
40
0.0635032308451157
40
0.067023366165904
40
0.0705435014866923
40
0.0740636368074805
40
0.0775837721282687
40
0.0846240427698452
40
0.0881441780906335
40
0.0899042457510276
40
0.0916643134114217
40
0.09518444873221
40
0.0987045840529982
40
0.105744854694575
40
0.109264990015363
40
0.112785125336151
40
0.119825395977728
40
0.126865666619304
40
0.130385801940092
40
0.133905937260881
40
0.137426072581669
40
0.140946207902457
40
0.147986478544034
40
0.15502674918561
40
0.158546884506398
40
0.162067019827187
40
0.169107290468763
40
0.17614756111034
40
0.183187831751916
40
0.186707967072704
40
0.190228102393493
40
0.193748237714281
40
0.197268373035069
40
0.204308643676646
40
0.211348914318222
40
0.21486904963901
40
0.218389184959799
40
0.221909320280587
40
0.225429455601375
40
0.232469726242952
40
0.239509996884528
40
0.246550267526105
40
0.250070402846893
40
0.253590538167681
40
0.260630808809258
40
0.267671079450834
40
0.271191214771622
40
0.274711350092411
40
0.278231485413199
40
0.281751620733987
40
0.288791891375564
40
0.292312026696352
40
0.29583216201714
40
0.299352297337928
40
0.302872432658717
40
0.309912703300293
40
0.313432838621081
40
0.31695297394187
40
0.320473109262658
40
0.323993244583446
40
0.331033515225023
40
0.334553650545811
40
0.338073785866599
40
0.341593921187387
40
0.345114056508176
40
0.34687412416857
40
0.348634191828964
40
0.352154327149752
40
0.359194597791329
40
0.362714733112117
40
0.366234868432905
40
0.369755003753693
40
0.373275139074482
40
0.37679527439527
40
0.380315409716058
40
0.383835545036846
40
0.387355680357635
40
0.390875815678423
40
0.394395950999211
40
0.397916086319999
40
0.401436221640788
40
0.403196289301182
40
0.404956356961576
40
0.408476492282364
40
0.411996627603152
40
0.415516762923941
40
0.419036898244729
40
0.422557033565517
40
0.424317101225911
40
0.426077168886305
40
0.429597304207094
40
0.431357371867488
40
0.433117439527882
40
0.43663757484867
40
0.440157710169458
40
0.441917777829852
40
0.443677845490247
40
0.447197980811035
40
0.450718116131823
40
0.452478183792217
40
0.454238251452611
40
0.455998319113005
40
0.4577583867734
40
0.459518454433794
40
0.461278522094188
40
0.462158555924385
40
0.463038589754582
40
0.464798657414976
40
0.465678691245173
40
0.46655872507537
40
0.468318792735764
40
0.470078860396158
40
0.470958894226356
40
0.471838928056553
40
0.47271896188675
40
0.473598995716947
40
0.474479029547144
40
0.475359063377341
40
0.476239097207538
40
0.477119131037735
40
0.478879198698129
40
0.480639266358523
40
0.482399334018917
40
0.484159401679311
40
0.485919469339706
40
0.486799503169903
40
0.4876795370001
40
0.488559570830297
40
0.489439604660494
40
0.491199672320888
40
0.492959739981282
40
0.493839773811479
40
0.494719807641676
40
0.495599841471873
40
0.49647987530207
40
0.498239942962464
40
0.499119976792662
40
0.500000010622859
40
0.500880044453056
40
0.501760078283253
40
0.503520145943647
40
0.504400179773844
40
0.505280213604041
40
0.506160247434238
40
0.507040281264435
40
0.508800348924829
40
0.510560416585223
40
0.51144045041542
40
0.512320484245617
40
0.513200518075814
40
0.514080551906012
40
0.515840619566406
40
0.516720653396603
40
0.5176006872268
40
0.519360754887194
40
0.520240788717391
40
0.521120822547588
40
0.522000856377785
40
0.522880890207982
40
0.523760924038179
40
0.524640957868376
40
0.52640102552877
40
0.527281059358968
40
0.528161093189164
40
0.529041127019362
40
0.529921160849559
40
0.531681228509953
40
0.533441296170347
40
0.534321330000544
40
0.535201363830741
40
0.536961431491135
40
0.537841465321332
40
0.538721499151529
40
0.540481566811923
40
0.542241634472318
40
0.544001702132712
40
0.545761769793106
40
0.5475218374535
40
0.549281905113894
40
0.552802040434682
40
0.55632217575547
40
0.558082243415865
40
0.559842311076259
40
0.563362446397047
40
0.566882581717835
40
0.568642649378229
40
0.570402717038624
40
0.573922852359412
40
0.5774429876802
40
0.580963123000988
40
0.584483258321777
40
0.588003393642565
40
0.591523528963353
40
0.595043664284141
40
0.598563799604929
40
0.602083934925718
40
0.605604070246506
40
0.609124205567294
40
0.612644340888083
40
0.616164476208871
40
0.619684611529659
40
0.623204746850447
40
0.624964814510841
40
0.626724882171235
40
0.630245017492024
40
0.633765152812812
40
0.6372852881336
40
0.640805423454389
40
0.644325558775177
40
0.647845694095965
40
0.651365829416753
40
0.653125897077147
40
0.654885964737542
40
0.65840610005833
40
0.661926235379118
40
0.665446370699906
40
0.668966506020694
40
0.676006776662271
40
0.679526911983059
40
0.683047047303847
40
0.686567182624636
40
0.690087317945424
40
0.697127588587001
40
0.700647723907789
40
0.704167859228577
40
0.707687994549365
40
0.711208129870153
40
0.71824840051173
40
0.721768535832518
40
0.725288671153307
40
0.728808806474095
40
0.732328941794883
40
0.739369212436459
40
0.746409483078036
40
0.749929618398824
40
0.753449753719613
40
0.760490024361189
40
0.767530295002765
40
0.774570565644342
40
0.77809070096513
40
0.781610836285918
40
0.785130971606707
40
0.788651106927495
40
0.795691377569071
40
0.802731648210648
40
0.806251783531436
40
0.809771918852224
40
0.813292054173013
40
0.816812189493801
40
0.823852460135378
40
0.830892730776954
40
0.83793300141853
40
0.841453136739319
40
0.844973272060107
40
0.852013542701683
40
0.85905381334326
40
0.862573948664048
40
0.866094083984836
40
0.869614219305625
40
0.873134354626413
40
0.880174625267989
40
0.887214895909566
40
0.890735031230354
40
0.894255166551142
40
0.901295437192719
40
0.904815572513507
40
0.908335707834295
40
0.91009577549469
40
0.911855843155084
40
0.915375978475872
40
0.922416249117448
40
0.925936384438237
40
0.929456519759025
40
0.932976655079813
40
0.936496790400601
40
0.94001692572139
40
0.943537061042178
40
0.947057196362966
40
0.950577331683754
40
0.954097467004543
40
0.957617602325331
40
0.964657872966907
40
0.968178008287696
40
0.971698143608484
40
0.975218278929272
40
0.97873841425006
40
0.982258549570849
40
0.985778684891637
40
0.989298820212425
40
0.992818955533213
40
0.996339090854002
40
0.99985922617479
40
1
40
1
40
1
40
1
41
1
10
-2.19999999999999
20
-35.998361556154
30
-1E-16
41
1
10
-2.19999999999999
20
-35.9981610438313
30
-1E-16
41
1
10
-2.19999999999996
20
-35.9929120216222
30
-1E-16
41
1
10
-2.19999999999999
20
-35.9808152586154
30
-1E-16
41
1
10
-2.19999999999999
20
-35.9580337844422
30
-1E-16
41
1
10
-2.19999999999999
20
-35.9303574155849
30
-1E-16
41
1
10
-2.19999999999999
20
-35.8978764072393
30
-1E-16
41
1
10
-2.19999999999999
20
-35.8606772012186
30
-1E-16
41
1
10
-2.19999999999999
20
-35.8188423507704
30
-1E-16
41
1
10
-2.19999999999999
20
-35.7724483138314
30
-1E-16
41
1
10
-2.19999999999999
20
-35.7215711806023
30
-1E-16
41
1
10
-2.19999999999999
20
-35.6662795049963
30
-1E-16
41
1
10
-2.19999999999999
20
-35.606642098176
30
-1E-16
41
1
10
-2.19999999999999
20
-35.5427232831041
30
-1E-16
41
1
10
-2.19999999999999
20
-35.4745835494885
30
1E-16
41
1
10
-2.19999999999999
20
-35.4022823040986
30
1E-16
41
1
10
-2.19999999999999
20
-35.3258758054439
30
0
41
1
10
-2.19999999999999
20
-35.2454179865413
30
0
41
1
10
-2.19999999999999
20
-35.1609605897894
30
0
41
1
10
-2.19999999999999
20
-35.0725532425695
30
0
41
1
10
-2.19999999999999
20
-34.9802436065342
30
0
41
1
10
-2.19999999999999
20
-34.8840775983924
30
1E-16
41
1
10
-2.19999999999999
20
-34.7840992673662
30
1E-16
41
1
10
-2.19999999999999
20
-34.6803509079355
30
-1E-16
41
1
10
-2.19999999999999
20
-34.5370512446321
30
-1E-16
41
1
10
-2.19999999999999
20
-34.3863617307859
30
-1E-16
41
1
10
-2.19999999999999
20
-34.2481903116661
30
-1E-16
41
1
10
-2.19999999999999
20
-34.1674461732589
30
-1E-16
41
1
10
-2.19999999999999
20
-34.0855143686357
30
-1E-16
41
1
10
-2.19999999999999
20
-33.9808791024373
30
-1E-16
41
1
10
-2.19999999999999
20
-33.8087856254549
30
-1E-16
41
1
10
-2.19999999999999
20
-33.6297179034793
30
-1E-16
41
1
10
-2.19999999999999
20
-33.4438214227632
30
-1E-16
41
1
10
-2.19999999999999
20
-33.2534024597305
30
-1E-16
41
1
10
-2.19999999999999
20
-33.0069583004128
30
-1E-16
41
1
10
-2.19999999999999
20
-32.7494770380993
30
-1E-16
41
1
10
-2.19999999999999
20
-32.5369772821028
30
-1E-16
41
1
10
-2.19999999999999
20
-32.3743609910527
30
-1E-16
41
1
10
-2.19999999999999
20
-32.2085294030258
30
-1E-16
41
1
10
-2.19999999999999
20
-31.9831685438612
30
-1E-16
41
1
10
-2.19999999999999
20
-31.6935278654741
30
-1E-16
41
1
10
-2.19999999999999
20
-31.3934533930513
30
-1E-16
41
1
10
-2.19999999999999
20
-31.1472201983193
30
-1E-16
41
1
10
-2.19999999999999
20
-30.8968896848933
30
-1E-16
41
1
10
-2.19999999999999
20
-30.5763259691741
30
-1E-16
41
1
10
-2.19999999999999
20
-30.1795721880178
30
-1E-16
41
1
10
-2.19999999999999
20
-29.8389753334018
30
-1E-16
41
1
10
-2.19999999999999
20
-29.5605910229122
30
-1E-16
41
1
10
-2.19999999999999
20
-29.3488540584265
30
-1E-16
41
1
10
-2.19999999999999
20
-29.1341864928692
30
-1E-16
41
1
10
-2.19999999999999
20
-28.8440802923644
30
-1E-16
41
1
10
-2.19999999999999
20
-28.4741740127019
30
-1E-16
41
1
10
-2.19999999999999
20
-28.0946721119014
30
-1E-16
41
1
10
-2.19999999999999
20
-27.7853718286964
30
-1E-16
41
1
10
-2.19999999999999
20
-27.5505474715739
30
-1E-16
41
1
10
-2.19999999999999
20
-27.3128894716318
30
-1E-16
41
1
10
-2.19999999999999
20
-26.9922551577599
30
-1E-16
41
1
10
-2.19999999999999
20
-26.5844139266108
30
-1E-16
41
1
10
-2.19999999999999
20
-26.0838374506717
30
-1E-16
41
1
10
-2.19999999999999
20
-25.6574288542629
30
-1E-16
41
1
10
-2.19999999999999
20
-25.310795566268
30
-1E-16
41
1
10
-2.19999999999999
20
-24.9604927320777
30
-1E-16
41
1
10
-2.19999999999999
20
-24.5157343073517
30
-1E-16
41
1
10
-2.19999999999999
20
-24.0618724844523
30
-1E-16
41
1
10
-2.19999999999999
20
-23.6933606289522
30
-1E-16
41
1
10
-2.19999999999999
20
-23.4142578696928
30
-1E-16
41
1
10
-2.19999999999999
20
-23.1324477508894
30
-1E-16
41
1
10
-2.19999999999999
20
-22.7531069145398
30
-1E-16
41
1
10
-2.19999999999999
20
-22.3683458335126
30
-1E-16
41
1
10
-2.19999999999999
20
-21.9782353272421
30
-1E-16
41
1
10
-2.19999999999999
20
-21.6829615863146
30
-1E-16
41
1
10
-2.19999999999999
20
-21.3850073833771
30
-1E-16
41
1
10
-2.19999999999999
20
-20.984175332485
30
-1E-16
41
1
10
-2.19999999999999
20
-20.5779672141207
30
-1E-16
41
1
10
-2.19999999999999
20
-20.1664517398788
30
-1E-16
41
1
10
-2.19999999999999
20
-19.8551416161418
30
-1E-16
41
1
10
-2.19999999999999
20
-19.5411672734658
30
-1E-16
41
1
10
-2.19999999999999
20
-19.1189951374152
30
-1E-16
41
1
10
-2.19999999999999
20
-18.6914694093052
30
-1E-16
41
1
10
-2.19999999999999
20
-18.2586575687844
30
-1E-16
41
1
10
-2.19999999999999
20
-17.9313816332312
30
-1E-16
41
1
10
-2.19999999999999
20
-17.601447067755
30
-1E-16
41
1
10
-2.19999999999999
20
-17.3242802462531
30
-1E-16
41
1
10
-2.19999999999999
20
-17.1012276238876
30
-1E-16
41
1
10
-2.19999999999999
20
-16.8772884002214
30
-1E-16
41
1
10
-2.19999999999999
20
-16.4830628393222
30
-1E-16
41
1
10
-2.19999999999999
20
-16.0271656941318
30
-1E-16
41
1
10
-2.19999999999999
20
-15.5659788017487
30
-1E-16
41
1
10
-2.19999999999999
20
-15.2174126385948
30
-1E-16
41
1
10
-2.19999999999999
20
-14.8661779693539
30
-1E-16
41
1
10
-2.19999999999999
20
-14.5122728269276
30
-1E-16
41
1
10
-2.19999999999999
20
-14.1556932924212
30
-1E-16
41
1
10
-2.19999999999999
20
-13.7964372435234
30
-1E-16
41
1
10
-2.19999999999999
20
-13.434500435816
30
-1E-16
41
1
10
-2.19999999999999
20
-13.0698795558119
30
-1E-16
41
1
10
-2.19999999999999
20
-12.7025705743373
30
-1E-16
41
1
10
-2.19999999999999
20
-12.3325690014507
30
-1E-16
41
1
10
-2.19999999999999
20
-11.9598708409374
30
-1E-16
41
1
10
-2.19999999999999
20
-11.6470295372759
30
-1E-16
41
1
10
-2.19999999999999
20
-11.3954184217635
30
-1E-16
41
1
10
-2.19999999999999
20
-11.1429046192031
30
-1E-16
41
1
10
-2.19999999999999
20
-10.8255481020131
30
-1E-16
41
1
10
-2.19999999999999
20
-10.4420145743896
30
-1E-16
41
1
10
-2.19999999999999
20
-10.0557602279918
30
-1E-16
41
1
10
-2.19999999999999
20
-9.66678089901876
30
-1E-16
41
1
10
-2.19999999999999
20
-9.34034669943736
30
-1E-16
41
1
10
-2.19999999999999
20
-9.07784991102176
30
-1E-16
41
1
10
-2.19999999999999
20
-8.81444106406229
30
-1E-16
41
1
10
-2.19999999999999
20
-8.5496320994335
30
-1E-16
41
1
10
-2.19999999999999
20
-8.28348543659976
30
-1E-16
41
1
10
-2.19999999999999
20
-8.01642493811286
30
-1E-16
41
1
10
-2.19999999999999
20
-7.68085993160076
30
-1E-16
41
1
10
-2.19999999999999
20
-7.34301151247959
30
-1E-16
41
1
10
-2.19999999999999
20
-7.07138465930166
30
-1E-16
41
1
10
-2.19999999999999
20
-6.79884546670323
30
-1E-16
41
1
10
-2.19999999999999
20
-6.45643328069661
30
-1E-16
41
1
10
-2.19999999999999
20
-6.11175146674466
30
-1E-16
41
1
10
-2.19999999999999
20
-5.83467460689425
30
-1E-16
41
1
10
-2.19999999999999
20
-5.6261808540489
30
-1E-16
41
1
10
-2.19999999999999
20
-5.41701391929837
30
-1E-16
41
1
10
-2.19999999999999
20
-5.20717745478146
30
-1E-16
41
1
10
-2.19999999999999
20
-4.99667509392856
30
-1E-16
41
1
10
-2.19999999999999
20
-4.82069761094564
30
-1E-16
41
1
10
-2.19999999999999
20
-4.67960211600024
30
-1E-16
41
1
10
-2.19999999999999
20
-4.53828872405643
30
-1E-16
41
1
10
-2.19999999999999
20
-4.39662510037118
30
-1E-16
41
1
10
-2.19999999999999
20
-4.25466574513038
30
-1E-16
41
1
10
-2.19999999999999
20
-4.11249339754067
30
-1E-16
41
1
10
-2.19999999999999
20
-3.93436102619759
30
-1E-16
41
1
10
-2.19999999999999
20
-3.75570803581107
30
-1E-16
41
1
10
-2.19999999999999
20
-3.61249538417181
30
-1E-16
41
1
10
-2.19999999999999
20
-3.50492661910167
30
-1E-16
41
1
10
-2.19999999999999
20
-3.39720741056175
30
-1E-16
41
1
10
-2.19999999999999
20
-3.2893397618125
30
-1E-16
41
1
10
-2.19999999999999
20
-3.18132544112754
30
-1E-16
41
1
10
-2.19999999999999
20
-3.0731663113279
30
-1E-16
41
1
10
-2.19999999999999
20
-2.96486450366427
30
-1E-16
41
1
10
-2.19999999999999
20
-2.8202855732074
30
-1E-16
41
1
10
-2.19999999999999
20
-2.6391937472294
30
-1E-16
41
1
10
-2.19999999999999
20
-2.42136740345265
30
-1E-16
41
1
10
-2.19999999999999
20
-2.2030366306553
30
-1E-16
41
1
10
-2.19999999999999
20
-1.98422944343233
30
-1E-16
41
1
10
-2.19999999999999
20
-1.80150795480097
30
-1E-16
41
1
10
-2.19999999999999
20
-1.65514766840653
30
-1E-16
41
1
10
-2.19999999999999
20
-1.54527064958367
30
-1E-16
41
1
10
-2.19999999999999
20
-1.435301180159
30
-1E-16
41
1
10
-2.19999999999999
20
-1.28857135826542
30
-1E-16
41
1
10
-2.19999999999999
20
-1.10492621249185
30
-1E-16
41
1
10
-2.19999999999999
20
-0.921048397975113
30
-1E-16
41
1
10
-2.19999999999999
20
-0.773855181921306
30
-1E-16
41
1
10
-2.19999999999999
20
-0.663399753590795
30
-1E-16
41
1
10
-2.19999999999999
20
-0.552900673038835
30
-1E-16
41
1
10
-2.19999999999999
20
-0.405533020604196
30
-1E-16
41
1
10
-2.19999999999999
20
-0.258066027197003
30
-1E-16
41
1
10
-2.19999999999999
20
-0.110609798282297
30
-1E-16
41
1
10
-2.19999999999999
20
7.9678557E-09
30
-1E-16
41
1
10
-2.19999999999999
20
0.110609814521041
30
-1E-16
41
1
10
-2.19999999999999
20
0.258066043297788
30
-1E-16
41
1
10
-2.19999999999999
20
0.405533036679572
30
-1E-16
41
1
10
-2.19999999999999
20
0.552900689625886
30
-1E-16
41
1
10
-2.19999999999999
20
0.663399769480321
30
-1E-16
41
1
10
-2.19999999999999
20
0.77385519789371
30
-1E-16
41
1
10
-2.19999999999999
20
0.921048414140955
30
-1E-16
41
1
10
-2.19999999999999
20
1.10492622913023
30
-1E-16
41
1
10
-2.19999999999999
20
1.28857137427266
30
-1E-16
41
1
10
-2.19999999999999
20
1.43530119545
30
-1E-16
41
1
10
-2.19999999999999
20
1.54527066672026
30
-1E-16
41
1
10
-2.19999999999999
20
1.65514768405933
30
-1E-16
41
1
10
-2.19999999999999
20
1.8015079794429
30
-1E-16
41
1
10
-2.19999999999999
20
1.94769984814903
30
-1E-16
41
1
10
-2.19999999999999
20
2.09363388662035
30
-1E-16
41
1
10
-2.19999999999999
20
2.23941432408864
30
-1E-16
41
1
10
-2.19999999999999
20
2.38499085138608
30
-1E-16
41
1
10
-2.19999999999999
20
2.53028147448529
30
-1E-16
41
1
10
-2.19999999999999
20
2.639128503405
30
-1E-16
41
1
10
-2.19999999999999
20
2.74784323707018
30
-1E-16
41
1
10
-2.19999999999999
20
2.8564227422421
30
-1E-16
41
1
10
-2.19999999999999
20
2.96486450652625
30
-1E-16
41
1
10
-2.19999999999999
20
3.10925640073572
30
-1E-16
41
1
10
-2.19999999999999
20
3.25339347207256
30
-1E-16
41
1
10
-2.19999999999999
20
3.39720740223609
30
-1E-16
41
1
10
-2.19999999999999
20
3.50492662159448
30
-1E-16
41
1
10
-2.19999999999999
20
3.6124953877443
30
-1E-16
41
1
10
-2.19999999999999
20
3.75570803460607
30
-1E-16
41
1
10
-2.19999999999999
20
3.93436102607177
30
-1E-16
41
1
10
-2.19999999999999
20
4.11249340828527
30
-1E-16
41
1
10
-2.19999999999999
20
4.2546657616511
30
-1E-16
41
1
10
-2.19999999999999
20
4.39662511608441
30
-1E-16
41
1
10
-2.19999999999999
20
4.53828873143234
30
-1E-16
41
1
10
-2.19999999999999
20
4.67960211602713
30
-1E-16
41
1
10
-2.19999999999999
20
4.82069760714901
30
-1E-16
41
1
10
-2.19999999999999
20
4.99667509827836
30
-1E-16
41
1
10
-2.19999999999999
20
5.20717747481996
30
-1E-16
41
1
10
-2.19999999999999
20
5.41701393923276
30
-1E-16
41
1
10
-2.19999999999999
20
5.62618085956726
30
-1E-16
41
1
10
-2.19999999999999
20
5.83467460016638
30
-1E-16
41
1
10
-2.19999999999999
20
6.11175147173768
30
-1E-16
41
1
10
-2.19999999999999
20
6.45643331679503
30
-1E-16
41
1
10
-2.19999999999999
20
6.79884546868334
30
-1E-16
41
1
10
-2.19999999999999
20
7.07138465122813
30
-1E-16
41
1
10
-2.19999999999999
20
7.34301151998699
30
-1E-16
41
1
10
-2.19999999999999
20
7.68085996867353
30
-1E-16
41
1
10
-2.19999999999999
20
8.01642492609369
30
-1E-16
41
1
10
-2.19999999999999
20
8.28348540775059
30
-1E-16
41
1
10
-2.19999999999999
20
8.54963206906427
30
-1E-16
41
1
10
-2.19999999999999
20
8.88062693308251
30
-1E-16
41
1
10
-2.19999999999999
20
9.27507092999488
30
-1E-16
41
1
10
-2.19999999999999
20
9.6667808010302
30
-1E-16
41
1
10
-2.19999999999999
20
10.055760504374
30
-1E-16
41
1
10
-2.19999999999999
20
10.4420146592237
30
-1E-16
41
1
10
-2.19999999999999
20
10.8255477577392
30
-1E-16
41
1
10
-2.19999999999999
20
11.2063650265909
30
-1E-16
41
1
10
-2.19999999999999
20
11.5844709045752
30
-1E-16
41
1
10
-2.19999999999999
20
11.9598708451068
30
-1E-16
41
1
10
-2.19999999999999
20
12.332568976433
30
-1E-16
41
1
10
-2.19999999999999
20
12.7025705750891
30
-1E-16
41
1
10
-2.19999999999999
20
13.0698795474479
30
-1E-16
41
1
10
-2.19999999999999
20
13.434500413039
30
-1E-16
41
1
10
-2.19999999999999
20
13.7964372758264
30
-1E-16
41
1
10
-2.19999999999999
20
14.0958244492637
30
-1E-16
41
1
10
-2.19999999999999
20
14.3339831373198
30
-1E-16
41
1
10
-2.19999999999999
20
14.5712504744562
30
-1E-16
41
1
10
-2.19999999999999
20
14.8661782384876
30
-1E-16
41
1
10
-2.19999999999999
20
15.2174125550855
30
-1E-16
41
1
10
-2.19999999999999
20
15.5659787170004
30
-1E-16
41
1
10
-2.19999999999999
20
15.9118789297515
30
-1E-16
41
1
10
-2.19999999999999
20
16.2551149485891
30
-1E-16
41
1
10
-2.19999999999999
20
16.5956885399058
30
-1E-16
41
1
10
-2.19999999999999
20
16.8772884036232
30
-1E-16
41
1
10
-2.19999999999999
20
17.1012276273506
30
-1E-16
41
1
10
-2.19999999999999
20
17.3242802479083
30
-1E-16
41
1
10
-2.19999999999999
20
17.6014470745968
30
-1E-16
41
1
10
-2.19999999999999
20
17.9313816381119
30
-1E-16
41
1
10
-2.19999999999999
20
18.2586575717451
30
-1E-16
41
1
10
-2.19999999999999
20
18.6914694264878
30
-1E-16
41
1
10
-2.19999999999999
20
19.1189951390116
30
-1E-16
41
1
10
-2.19999999999999
20
19.5411672873635
30
-1E-16
41
1
10
-2.19999999999999
20
19.8551416115088
30
-1E-16
41
1
10
-2.19999999999999
20
20.1664517496922
30
-1E-16
41
1
10
-2.19999999999999
20
20.5779672218009
30
-1E-16
41
1
10
-2.19999999999999
20
20.9841753387679
30
-1E-16
41
1
10
-2.19999999999999
20
21.385007393
30
-1E-16
41
1
10
-2.19999999999999
20
21.6829615822886
30
-1E-16
41
1
10
-2.19999999999999
20
21.9782353365019
30
-1E-16
41
1
10
-2.19999999999999
20
22.3683458387384
30
-1E-16
41
1
10
-2.19999999999999
20
22.7531069193882
30
-1E-16
41
1
10
-2.19999999999999
20
23.1324477597271
30
-1E-16
41
1
10
-2.19999999999999
20
23.4142578666451
30
-1E-16
41
1
10
-2.19999999999999
20
23.6933606344229
30
-1E-16
41
1
10
-2.19999999999999
20
24.0618724924846
30
-1E-16
41
1
10
-2.19999999999999
20
24.5157343100948
30
-1E-16
41
1
10
-2.19999999999999
20
24.9604927323371
30
-1E-16
41
1
10
-2.19999999999999
20
25.3107955671813
30
-1E-16
41
1
10
-2.19999999999999
20
25.6574288628695
30
-1E-16
41
1
10
-2.19999999999999
20
26.0838374470223
30
-1E-16
41
1
10
-2.19999999999999
20
26.5844139299712
30
-1E-16
41
1
10
-2.19999999999999
20
26.9922551600878
30
-1E-16
41
1
10
-2.19999999999999
20
27.312889474477
30
-1E-16
41
1
10
-2.19999999999999
20
27.5505474706334
30
-1E-16
41
1
10
-2.19999999999999
20
27.7853718293799
30
-1E-16
41
1
10
-2.19999999999999
20
28.0946721145145
30
-1E-16
41
1
10
-2.19999999999999
20
28.4741740106829
30
-1E-16
41
1
10
-2.19999999999999
20
28.8440802938742
30
-1E-16
41
1
10
-2.19999999999999
20
29.1341864918563
30
-1E-16
41
1
10
-2.19999999999999
20
29.3488540567688
30
-1E-16
41
1
10
-2.19999999999999
20
29.5605910235312
30
-1E-16
41
1
10
-2.19999999999999
20
29.8389753322122
30
-1E-16
41
1
10
-2.19999999999999
20
30.1795721887094
30
-1E-16
41
1
10
-2.19999999999999
20
30.5763259617257
30
-1E-16
41
1
10
-2.19999999999999
20
30.8968896882167
30
-1E-16
41
1
10
-2.19999999999999
20
31.1472201940908
30
-1E-16
41
1
10
-2.19999999999999
20
31.393453387608
30
-1E-16
41
1
10
-2.19999999999999
20
31.6935278618122
30
-1E-16
41
1
10
-2.19999999999999
20
31.9831685440602
30
-1E-16
41
1
10
-2.19999999999999
20
32.2085294017453
30
-1E-16
41
1
10
-2.19999999999999
20
32.3743609793662
30
-1E-16
41
1
10
-2.19999999999999
20
32.5369772815204
30
-1E-16
41
1
10
-2.19999999999999
20
32.7494770362055
30
-1E-16
41
1
10
-2.19999999999999
20
33.0069583008311
30
-1E-16
41
1
10
-2.19999999999999
20
33.2534024436425
30
-1E-16
41
1
10
-2.19999999999999
20
33.4438214187487
30
-1E-16
41
1
10
-2.19999999999999
20
33.6297179032972
30
-1E-16
41
1
10
-2.19999999999999
20
33.8087856219281
30
-1E-16
41
1
10
-2.19999999999999
20
33.9808790950557
30
-1E-16
41
1
10
-2.19999999999999
20
34.0855143550287
30
-1E-16
41
1
10
-2.19999999999999
20
34.1674461612967
30
-1E-16
41
1
10
-2.19999999999999
20
34.2481903083142
30
-1E-16
41
1
10
-2.19999999999999
20
34.3863617301769
30
-1E-16
41
1
10
-2.19999999999999
20
34.5370512371172
30
-1E-16
41
1
10
-2.19999999999999
20
34.680350907395
30
-1E-16
41
1
10
-2.19999999999999
20
34.7840992432799
30
1E-16
41
1
10
-2.19999999999999
20
34.8840776031987
30
1E-16
41
1
10
-2.19999999999999
20
34.9802435989443
30
0
41
1
10
-2.19999999999999
20
35.0725532191378
30
0
41
1
10
-2.19999999999999
20
35.1609605893935
30
0
41
1
10
-2.19999999999999
20
35.2454181739629
30
0
41
1
10
-2.19999999999999
20
35.3258752465304
30
0
41
1
10
-2.19999999999999
20
35.4022826774254
30
1E-16
41
1
10
-2.19999999999999
20
35.4986806355994
30
1E-16
41
1
10
-2.19999999999999
20
35.5867654490801
30
-1E-16
41
1
10
-2.19999999999999
20
35.6662795296584
30
-1E-16
41
1
10
-2.19999999999999
20
35.7215711644677
30
-1E-16
41
1
10
-2.19999999999999
20
35.7724483817261
30
-1E-16
41
1
10
-2.19999999999999
20
35.8188423246858
30
-1E-16
41
1
10
-2.19999999999999
20
35.8606772530753
30
-1E-16
41
1
10
-2.19999999999999
20
35.8978764151194
30
-1E-16
41
1
10
-2.19999999999999
20
35.9303574291782
30
-1E-16
41
1
10
-2.19999999999999
20
35.9580338304474
30
-1E-16
41
1
10
-2.19999999999999
20
35.9808152416011
30
-1E-16
41
1
10
-2.19999999999999
20
35.9929120255945
30
-1E-16
41
1
10
-2.19999999999999
20
35.9981609622745
30
-1E-16
41
1
10
-2.19999999999999
20
35.9983614423116
30
-1E-16
0
SPLINE
5
BE
100
AcDbEntity
8
SK1
62
256
6
ByLayer
370
18
48
1
60
0
100
AcDbSpline
70
4
71
3
72
316
73
312
40
0
40
0
40
0
40
0
40
0.0029467188563237
40
0.0064470944819552
40
0.0099474701075866
40
0.0134478457332181
40
0.0169482213588495
40
0.0204485969844809
40
0.0239489726101124
40
0.0274493482357438
40
0.0309497238613753
40
0.0344500994870067
40
0.0379504751126381
40
0.0414508507382696
40
0.044951226363901
40
0.0484516019895324
40
0.0519519776151638
40
0.0554523532407953
40
0.0589527288664267
40
0.0624531044920581
40
0.0659534801176896
40
0.069453855743321
40
0.0729542313689525
40
0.0764546069945839
40
0.0799549826202153
40
0.0869557338714782
40
0.0904561094971096
40
0.0922062973099254
40
0.0939564851227411
40
0.0974568607483725
40
0.100957236374004
40
0.107957987625267
40
0.111458363250898
40
0.11495873887653
40
0.121959490127793
40
0.128960241379056
40
0.132460617004687
40
0.135960992630318
40
0.13946136825595
40
0.142961743881581
40
0.149962495132844
40
0.156963246384107
40
0.160463622009738
40
0.16396399763537
40
0.170964748886633
40
0.177965500137895
40
0.184966251389158
40
0.18846662701479
40
0.191967002640421
40
0.195467378266053
40
0.198967753891684
40
0.205968505142947
40
0.21296925639421
40
0.216469632019841
40
0.219970007645473
40
0.223470383271104
40
0.226970758896736
40
0.233971510147998
40
0.240972261399261
40
0.247973012650524
40
0.251473388276156
40
0.254973763901787
40
0.26197451515305
40
0.268975266404313
40
0.272475642029944
40
0.275976017655576
40
0.279476393281207
40
0.282976768906838
40
0.289977520158102
40
0.293477895783733
40
0.296978271409364
40
0.300478647034996
40
0.303979022660627
40
0.31097977391189
40
0.314480149537522
40
0.317980525163153
40
0.321480900788784
40
0.324981276414416
40
0.331982027665679
40
0.33548240329131
40
0.338982778916942
40
0.342483154542573
40
0.345983530168204
40
0.34773371798102
40
0.349483905793836
40
0.352984281419467
40
0.35998503267073
40
0.363485408296362
40
0.366985783921993
40
0.370486159547624
40
0.373986535173256
40
0.377486910798887
40
0.380987286424519
40
0.38448766205015
40
0.387988037675782
40
0.391488413301413
40
0.394988788927044
40
0.398489164552676
40
0.401989540178307
40
0.403739727991123
40
0.405489915803939
40
0.40899029142957
40
0.412490667055202
40
0.415991042680833
40
0.419491418306465
40
0.422991793932096
40
0.424741981744912
40
0.426492169557727
40
0.429992545183359
40
0.431742732996174
40
0.43349292080899
40
0.436993296434622
40
0.440493672060253
40
0.442243859873069
40
0.443994047685885
40
0.447494423311516
40
0.450994798937147
40
0.452744986749963
40
0.454495174562779
40
0.456245362375595
40
0.45799555018841
40
0.459745738001226
40
0.461495925814042
40
0.46237101972045
40
0.463246113626857
40
0.464996301439673
40
0.465871395346081
40
0.466746489252489
40
0.468496677065305
40
0.47024686487812
40
0.471121958784528
40
0.471997052690936
40
0.472872146597344
40
0.473747240503752
40
0.47462233441016
40
0.475497428316568
40
0.476372522222975
40
0.477247616129383
40
0.478997803942199
40
0.480747991755015
40
0.48249817956783
40
0.484248367380646
40
0.485998555193462
40
0.48687364909987
40
0.487748743006278
40
0.488623836912685
40
0.489498930819093
40
0.491249118631909
40
0.492999306444725
40
0.493874400351133
40
0.49474949425754
40
0.495624588163948
40
0.496499682070356
40
0.498249869883172
40
0.49912496378958
40
0.500000057695988
40
0.500875151602395
40
0.501750245508803
40
0.503500433321619
40
0.504375527228027
40
0.505250621134435
40
0.506125715040843
40
0.507000808947251
40
0.508750996760066
40
0.510501184572882
40
0.51137627847929
40
0.512251372385698
40
0.513126466292105
40
0.514001560198513
40
0.515751748011329
40
0.516626841917737
40
0.517501935824145
40
0.51925212363696
40
0.520127217543368
40
0.521002311449776
40
0.521877405356184
40
0.522752499262592
40
0.523627593169
40
0.524502687075408
40
0.526252874888223
40
0.527127968794631
40
0.528003062701039
40
0.528878156607447
40
0.529753250513855
40
0.53150343832667
40
0.533253626139486
40
0.534128720045894
40
0.535003813952302
40
0.536754001765118
40
0.537629095671526
40
0.538504189577933
40
0.540254377390749
40
0.542004565203565
40
0.543754753016381
40
0.545504940829196
40
0.547255128642012
40
0.549005316454828
40
0.552505692080459
40
0.556006067706091
40
0.557756255518906
40
0.559506443331722
40
0.563006818957353
40
0.566507194582985
40
0.5682573823958
40
0.570007570208616
40
0.573507945834248
40
0.577008321459879
40
0.580508697085511
40
0.584009072711142
40
0.587509448336773
40
0.591009823962405
40
0.594510199588036
40
0.598010575213668
40
0.601510950839299
40
0.605011326464931
40
0.608511702090562
40
0.612012077716193
40
0.615512453341825
40
0.619012828967456
40
0.622513204593088
40
0.624263392405904
40
0.626013580218719
40
0.629513955844351
40
0.633014331469982
40
0.636514707095614
40
0.640015082721245
40
0.643515458346876
40
0.647015833972508
40
0.650516209598139
40
0.652266397410955
40
0.654016585223771
40
0.657516960849402
40
0.661017336475034
40
0.664517712100665
40
0.668018087726296
40
0.675018838977559
40
0.678519214603191
40
0.682019590228822
40
0.685519965854454
40
0.689020341480085
40
0.696021092731348
40
0.69952146835698
40
0.703021843982611
40
0.706522219608242
40
0.710022595233874
40
0.717023346485137
40
0.720523722110768
40
0.7240240977364
40
0.727524473362031
40
0.731024848987662
40
0.738025600238925
40
0.745026351490188
40
0.748526727115819
40
0.752027102741451
40
0.759027853992714
40
0.766028605243977
40
0.77302935649524
40
0.776529732120871
40
0.780030107746502
40
0.783530483372134
40
0.787030858997765
40
0.794031610249028
40
0.801032361500291
40
0.804532737125923
40
0.808033112751554
40
0.811533488377185
40
0.815033864002817
40
0.82203461525408
40
0.829035366505343
40
0.836036117756605
40
0.839536493382237
40
0.843036869007868
40
0.850037620259131
40
0.857038371510394
40
0.860538747136025
40
0.864039122761657
40
0.867539498387288
40
0.87103987401292
40
0.878040625264183
40
0.885041376515445
40
0.888541752141077
40
0.892042127766708
40
0.899042879017971
40
0.902543254643603
40
0.906043630269234
40
0.90779381808205
40
0.909544005894866
40
0.913044381520497
40
0.92004513277176
40
0.923545508397391
40
0.927045884023023
40
0.930546259648654
40
0.934046635274286
40
0.937547010899917
40
0.941047386525549
40
0.94454776215118
40
0.948048137776811
40
0.951548513402443
40
0.955048889028074
40
0.962049640279337
40
0.965550015904969
40
0.9690503915306
40
0.972550767156231
40
0.976051142781863
40
0.979551518407494
40
0.983051894033126
40
0.986552269658757
40
0.990052645284389
40
0.99355302091002
40
0.997053396535651
40
1
40
1
40
1
40
1
41
1
10
-58
20
-34.6073035421176
30
0
41
1
10
-58
20
-34.6043542805008
30
0
41
1
10
-58
20
-34.5966210238266
30
0
41
1
10
-58
20
-34.5803797589321
30
0
41
1
10
-58
20
-34.5584074886069
30
0
41
1
10
-58
20
-34.5316961895766
30
0
41
1
10
-58
20
-34.5003280083155
30
0
41
1
10
-58
20
-34.4643817495677
30
0
41
1
10
-58
20
-34.4239333693917
30
0
41
1
10
-58
20
-34.3790529937039
30
0
41
1
10
-58
20
-34.3298111110901
30
0
41
1
10
-58
20
-34.2762712987306
30
0
41
1
10
-58
20
-34.2184971795059
30
0
41
1
10
-58
20
-34.1565492736136
30
0
41
1
10
-58
20
-34.090484024979
30
0
41
1
10
-58
20
-34.0203569492649
30
0
41
1
10
-58
20
-33.9462211181053
30
0
41
1
10
-58
20
-33.8681273799935
30
0
41
1
10
-58
20
-33.7861246522719
30
0
41
1
10
-58
20
-33.7002599705932
30
0
41
1
10
-58
20
-33.6105785639527
30
0
41
1
10
-58
20
-33.517124136941
30
0
41
1
10
-58
20
-33.4199387810475
30
0
41
1
10
-58
20
-33.3190628682572
30
0
41
1
10
-58
20
-33.1794476462955
30
0
41
1
10
-58
20
-33.0333547777464
30
0
41
1
10
-58
20
-32.8987588718319
30
0
41
1
10
-58
20
-32.8200332917252
30
0
41
1
10
-58
20
-32.7401409831787
30
0
41
1
10
-58
20
-32.6384072799631
30
0
41
1
10
-58
20
-32.4705455180243
30
0
41
1
10
-58
20
-32.2967149944414
30
0
41
1
10
-58
20
-32.1153117201281
30
0
41
1
10
-58
20
-31.9294644880725
30
0
41
1
10
-58
20
-31.6895938415452
30
0
41
1
10
-58
20
-31.4389237596357
30
0
41
1
10
-58
20
-31.2314087063946
30
0
41
1
10
-58
20
-31.0728429182949
30
0
41
1
10
-58
20
-30.9111259407838
30
0
41
1
10
-58
20
-30.6909862057692
30
0
41
1
10
-58
20
-30.4088224430552
30
0
41
1
10
-58
20
-30.1164546579335
30
0
41
1
10
-58
20
-29.8758448368358
30
0
41
1
10
-58
20
-29.6312151678218
30
0
41
1
10
-58
20
-29.3188018441321
30
0
41
1
10
-58
20
-28.9316246713931
30
0
41
1
10
-58
20
-28.5996384848297
30
0
41
1
10
-58
20
-28.3275282602038
30
0
41
1
10
-58
20
-28.1208773937063
30
0
41
1
10
-58
20
-27.911363633098
30
0
41
1
10
-58
20
-27.6277846850599
30
0
41
1
10
-58
20
-27.2671990323819
30
0
41
1
10
-58
20
-26.8972638502991
30
0
41
1
10
-58
20
-26.5949314925857
30
0
41
1
10
-58
20
-26.365755304915
30
0
41
1
10
-58
20
-26.1338196230742
30
0
41
1
10
-58
20
-25.8204330482275
30
0
41
1
10
-58
20
-25.4229416666195
30
0
41
1
10
-58
20
-24.9345059187337
30
0
41
1
10
-58
20
-24.5190021121539
30
0
41
1
10
-58
20
-24.1803157072481
30
0
41
1
10
-58
20
-23.8380720499499
30
0
41
1
10
-58
20
-23.4048307980022
30
0
41
1
10
-58
20
-22.9627941936476
30
0
41
1
10
-58
20
-22.6029073961028
30
0
41
1
10
-58
20
-22.3308053662237
30
0
41
1
10
-58
20
-22.0560958606497
30
0
41
1
10
-58
20
-21.6857625528635
30
0
41
1
10
-58
20
-21.3120431731187
30
0
41
1
10
-58
20
-20.9313332073365
30
0
41
1
10
-58
20
-20.6436975380219
30
0
41
1
10
-58
20
-20.3534974230034
30
0
41
1
10
-58
20
-19.962512989893
30
0
41
1
10
-58
20
-19.5683935649799
30
0
41
1
10
-58
20
-19.1671855028189
30
0
41
1
10
-58
20
-18.8642617622701
30
0
41
1
10
-58
20
-18.558812080972
30
0
41
1
10
-58
20
-18.1474824585398
30
0
41
1
10
-58
20
-17.7332927415188
30
0
41
1
10
-58
20
-17.31187542895
30
0
41
1
10
-58
20
-16.9938869687374
30
0
41
1
10
-58
20
-16.6734094643824
30
0
41
1
10
-58
20
-16.4046647430283
30
0
41
1
10
-58
20
-16.1877136709007
30
0
41
1
10
-58
20
-15.9699408852648
30
0
41
1
10
-58
20
-15.586990793997
30
0
41
1
10
-58
20
-15.1465482288459
30
0
41
1
10
-58
20
-14.6986174932262
30
0
41
1
10
-58
20
-14.3608949939723
30
0
41
1
10
-58
20
-14.0207356586278
30
0
41
1
10
-58
20
-13.6781505656526
30
0
41
1
10
-58
20
-13.3331465322306
30
-3.6E-15
41
1
10
-58
20
-12.9857332798767
30
-3.6E-15
41
1
10
-58
20
-12.6359214323733
30
-3.6E-15
41
1
10
-58
20
-12.2837205272056
30
-3.6E-15
41
1
10
-58
20
-11.9291438218093
30
-3.6E-15
41
1
10
-58
20
-11.5722027813319
30
-3.6E-15
41
1
10
-58
20
-11.21291277944
30
-3.6E-15
41
1
10
-58
20
-10.912108295924
30
-3.6E-15
41
1
10
-58
20
-10.6692766858404
30
-3.6E-15
41
1
10
-58
20
-10.4256875570292
30
-3.6E-15
41
1
10
-58
20
-10.1211100592584
30
-3.6E-15
41
1
10
-58
20
-9.75259725338498
30
-3.6E-15
41
1
10
-58
20
-9.38183010290783
30
-3.6E-15
41
1
10
-58
20
-9.00884035151952
30
-3.6E-15
41
1
10
-58
20
-8.69684340932247
30
-3.6E-15
41
1
10
-58
20
-8.44493041618213
30
-3.6E-15
41
1
10
-58
20
-8.19232044847527
30
-3.6E-15
41
1
10
-58
20
-7.94080704287336
30
-3.6E-15
41
1
10
-58
20
-7.68603135773836
30
-3.6E-15
41
1
10
-58
20
-7.43059630648503
30
-3.6E-15
41
1
10
-58
20
-7.11180135563231
30
-3.6E-15
41
1
10
-58
20
-6.79132938935564
30
-3.6E-15
41
1
10
-58
20
-6.53251618838755
30
-3.6E-15
41
1
10
-58
20
-6.27311609603564
30
-3.6E-15
41
1
10
-58
20
-5.94973663199025
30
-3.6E-15
41
1
10
-58
20
-5.62486984380905
30
-3.6E-15
41
1
10
-58
20
-5.36246929286631
30
-3.6E-15
41
1
10
-58
20
-5.16603341989486
30
-3.6E-15
41
1
10
-58
20
-4.96923237547443
30
-3.6E-15
41
1
10
-58
20
-4.77207750487506
30
-3.6E-15
41
1
10
-58
20
-4.57459544495507
30
-3.6E-15
41
1
10
-58
20
-4.41029793772165
30
-3.6E-15
41
1
10
-58
20
-4.2777166352657
30
-3.6E-15
41
1
10
-58
20
-4.14506122516991
30
-3.6E-15
41
1
10
-58
20
-4.01399439838315
30
-3.6E-15
41
1
10
-58
20
-3.881036327884
30
-3.6E-15
41
1
10
-58
20
-3.74801862180834
30
-3.6E-15
41
1
10
-58
20
-3.5829961226784
30
-3.6E-15
41
1
10
-58
20
-3.4177842579125
30
-3.6E-15
41
1
10
-58
20
-3.28439024486019
30
-3.6E-15
41
1
10
-58
20
-3.18480940383549
30
-3.6E-15
41
1
10
-58
20
-3.08519524226031
30
-3.6E-15
41
1
10
-58
20
-2.98554870608601
30
-3.6E-15
41
1
10
-58
20
-2.88588197147465
30
-3.6E-15
41
1
10
-58
20
-2.78620371303603
30
-3.6E-15
41
1
10
-58
20
-2.68650877066605
30
-3.6E-15
41
1
10
-58
20
-2.55285553128309
30
-3.6E-15
41
1
10
-58
20
-2.38741878390206
30
-3.6E-15
41
1
10
-58
20
-2.18798792525015
30
-3.6E-15
41
1
10
-58
20
-1.98859069176859
30
-3.6E-15
41
1
10
-58
20
-1.78925716601174
30
-3.6E-15
41
1
10
-58
20
-1.62400964435551
30
-3.6E-15
41
1
10
-58
20
-1.49038258437855
30
-3.6E-15
41
1
10
-58
20
-1.39082935616076
30
-3.6E-15
41
1
10
-58
20
-1.29130620551007
30
-3.6E-15
41
1
10
-58
20
-1.15779757169759
30
-3.6E-15
41
1
10
-58
20
-0.99295881891328
30
-3.6E-15
41
1
10
-58
20
-0.828192548206204
30
-3.6E-15
41
1
10
-58
20
-0.694823517971315
30
-3.6E-15
41
1
10
-58
20
-0.595510259634267
30
-3.6E-15
41
1
10
-58
20
-0.496219754320578
30
-3.6E-15
41
1
10
-58
20
-0.362942837222505
30
-3.6E-15
41
1
10
-58
20
-0.232469975530563
30
-3.6E-15
41
1
10
-58
20
-0.0992273272949262
30
-3.6E-15
41
1
10
-58
20
1.6380028E-08
30
-3.6E-15
41
1
10
-58
20
0.0992273398984764
30
-3.6E-15
41
1
10
-58
20
0.232469995259635
30
-3.6E-15
41
1
10
-58
20
0.362942864386611
30
-3.6E-15
41
1
10
-58
20
0.496219744532027
30
-3.6E-15
41
1
10
-58
20
0.595510286532459
30
-3.6E-15
41
1
10
-58
20
0.694823557694662
30
-3.6E-15
41
1
10
-58
20
0.82819256637066
30
-3.6E-15
41
1
10
-58
20
0.992958822605829
30
-3.6E-15
41
1
10
-58
20
1.15779757822997
30
-3.6E-15
41
1
10
-58
20
1.29130628126842
30
-3.6E-15
41
1
10
-58
20
1.39082936054342
30
-3.6E-15
41
1
10
-58
20
1.49038261723351
30
-3.6E-15
41
1
10
-58
20
1.62400929858035
30
-3.6E-15
41
1
10
-58
20
1.75519681152264
30
-3.6E-15
41
1
10
-58
20
1.88886587056908
30
-3.6E-15
41
1
10
-58
20
2.02257380819529
30
-3.6E-15
41
1
10
-58
20
2.15394245955969
30
-3.6E-15
41
1
10
-58
20
2.28764244667346
30
-3.6E-15
41
1
10
-58
20
2.38736175207308
30
-3.6E-15
41
1
10
-58
20
2.48707433529853
30
-3.6E-15
41
1
10
-58
20
2.58679151495224
30
-3.6E-15
41
1
10
-58
20
2.68650643512575
30
-3.6E-15
41
1
10
-58
20
2.82015553447045
30
-3.6E-15
41
1
10
-58
20
2.95167230604008
30
-3.6E-15
41
1
10
-58
20
3.08519574611898
30
-3.6E-15
41
1
10
-58
20
3.18480948837248
30
-3.6E-15
41
1
10
-58
20
3.28439014192511
30
-3.6E-15
41
1
10
-58
20
3.41778425796454
30
-3.6E-15
41
1
10
-58
20
3.58299633989347
30
-3.6E-15
41
1
10
-58
20
3.74801883117277
30
-3.6E-15
41
1
10
-58
20
3.88103633021703
30
-3.6E-15
41
1
10
-58
20
4.01399420894896
30
-3.6E-15
41
1
10
-58
20
4.1450610014393
30
-3.6E-15
41
1
10
-58
20
4.27771653655566
30
-3.6E-15
41
1
10
-58
20
4.41029804681102
30
-3.6E-15
41
1
10
-58
20
4.57459570619073
30
-3.6E-15
41
1
10
-58
20
4.77207761728616
30
-3.6E-15
41
1
10
-58
20
4.96923221655044
30
-3.6E-15
41
1
10
-58
20
5.16603320786018
30
-3.6E-15
41
1
10
-58
20
5.36246930605512
30
-3.6E-15
41
1
10
-58
20
5.62487008150856
30
-3.6E-15
41
1
10
-58
20
5.94973662395361
30
-3.6E-15
41
1
10
-58
20
6.27311588814803
30
-3.6E-15
41
1
10
-58
20
6.53251624633623
30
-3.6E-15
41
1
10
-58
20
6.79132960033488
30
-3.6E-15
41
1
10
-58
20
7.11180129155153
30
-3.6E-15
41
1
10
-58
20
7.43059597795101
30
-3.6E-15
41
1
10
-58
20
7.68603127322152
30
-3.6E-15
41
1
10
-58
20
7.94080702479252
30
-3.6E-15
41
1
10
-58
20
8.25632291017837
30
-3.6E-15
41
1
10
-58
20
8.63366100346428
30
-3.6E-15
41
1
10
-58
20
9.00884209524727
30
-3.6E-15
41
1
10
-58
20
9.3818307586514
30
-3.6E-15
41
1
10
-58
20
9.75259557230214
30
-3.6E-15
41
1
10
-58
20
10.1211093378308
30
-3.6E-15
41
1
10
-58
20
10.487347423945
30
-3.6E-15
41
1
10
-58
20
10.851288265045
30
-3.6E-15
41
1
10
-58
20
11.2129126489515
30
-3.6E-15
41
1
10
-58
20
11.5722027534516
30
-3.6E-15
41
1
10
-58
20
11.9291438609312
30
-3.6E-15
41
1
10
-58
20
12.2837204653535
30
-3.6E-15
41
1
10
-58
20
12.6359214941673
30
-3.6E-15
41
1
10
-58
20
12.9857331103651
30
-3.6E-15
41
1
10
-58
20
13.2747453101746
30
-3.6E-15
41
1
10
-58
20
13.5056252380649
30
0
41
1
10
-58
20
13.7357042566719
30
0
41
1
10
-58
20
14.0207356013197
30
0
41
1
10
-58
20
14.3608942162371
30
0
41
1
10
-58
20
14.6986181938836
30
0
41
1
10
-58
20
15.0338987189648
30
0
41
1
10
-58
20
15.3667286289814
30
0
41
1
10
-58
20
15.6971014285855
30
0
41
1
10
-58
20
15.9699409152238
30
0
41
1
10
-58
20
16.1877136527783
30
0
41
1
10
-58
20
16.4046647522578
30
0
41
1
10
-58
20
16.6734094787226
30
0
41
1
10
-58
20
16.9938869670337
30
0
41
1
10
-58
20
17.3118754472546
30
0
41
1
10
-58
20
17.7332927565035
30
0
41
1
10
-58
20
18.1474824557211
30
0
41
1
10
-58
20
18.5588120799026
30
0
41
1
10
-58
20
18.8642617520243
30
0
41
1
10
-58
20
19.1671855328673
30
0
41
1
10
-58
20
19.5683935682399
30
0
41
1
10
-58
20
19.9625129981163
30
0
41
1
10
-58
20
20.3534974164196
30
0
41
1
10
-58
20
20.6436975341919
30
0
41
1
10
-58
20
20.9313332310817
30
0
41
1
10
-58
20
21.3120431735846
30
0
41
1
10
-58
20
21.6857625612491
30
0
41
1
10
-58
20
22.056095857614
30
0
41
1
10
-58
20
22.3308053593404
30
0
41
1
10
-58
20
22.6029074150482
30
0
41
1
10
-58
20
22.9627941997737
30
0
41
1
10
-58
20
23.4048307950687
30
0
41
1
10
-58
20
23.8380720492418
30
0
41
1
10
-58
20
24.1803157154495
30
0
41
1
10
-58
20
24.5190021187452
30
0
41
1
10
-58
20
24.934505910954
30
0
41
1
10
-58
20
25.4229416730791
30
0
41
1
10
-58
20
25.820433050224
30
0
41
1
10
-58
20
26.1338196224207
30
0
41
1
10
-58
20
26.3657553019254
30
0
41
1
10
-58
20
26.5949314963246
30
0
41
1
10
-58
20
26.8972638515592
30
0
41
1
10
-58
20
27.267199029797
30
0
41
1
10
-58
20
27.6277846867342
30
0
41
1
10
-58
20
27.9113636298593
30
0
41
1
10
-58
20
28.1208773935264
30
0
41
1
10
-58
20
28.3275282615774
30
0
41
1
10
-58
20
28.5996384834264
30
0
41
1
10
-58
20
28.9316246696634
30
0
41
1
10
-58
20
29.3188018386775
30
0
41
1
10
-58
20
29.631215171604
30
0
41
1
10
-58
20
29.8758448277823
30
0
41
1
10
-58
20
30.1164546526889
30
0
41
1
10
-58
20
30.4088224417549
30
0
41
1
10
-58
20
30.6909862066612
30
0
41
1
10
-58
20
30.9111259319957
30
0
41
1
10
-58
20
31.0728429072979
30
0
41
1
10
-58
20
31.2314087120365
30
0
41
1
10
-58
20
31.438923757912
30
0
41
1
10
-58
20
31.6895938369171
30
0
41
1
10
-58
20
31.9294644717604
30
0
41
1
10
-58
20
32.115311722464
30
0
41
1
10
-58
20
32.2967149943326
30
0
41
1
10
-58
20
32.4705455117827
30
0
41
1
10
-58
20
32.6384072676334
30
0
41
1
10
-58
20
32.7401409674119
30
0
41
1
10
-58
20
32.8200332868944
30
0
41
1
10
-58
20
32.8987588752027
30
0
41
1
10
-58
20
33.0333547758038
30
0
41
1
10
-58
20
33.1794476388675
30
0
41
1
10
-58
20
33.3190628604087
30
0
41
1
10
-58
20
33.4199387593897
30
0
41
1
10
-58
20
33.5171241473591
30
0
41
1
10
-58
20
33.6105785465519
30
0
41
1
10
-58
20
33.7002599502329
30
0
41
1
10
-58
20
33.7861247188262
30
0
41
1
10
-58
20
33.8681273926076
30
0
41
1
10
-58
20
33.9462206251882
30
0
41
1
10
-58
20
34.020357330257
30
0
41
1
10
-58
20
34.11403435413
30
0
41
1
10
-58
20
34.1990832647149
30
0
41
1
10
-58
20
34.2762712843076
30
0
41
1
10
-58
20
34.3298111043331
30
0
41
1
10
-58
20
34.3790530583999
30
0
41
1
10
-58
20
34.4239333421725
30
0
41
1
10
-58
20
34.4643818052429
30
0
41
1
10
-58
20
34.5003280118182
30
0
41
1
10
-58
20
34.5316962075247
30
0
41
1
10
-58
20
34.5584075309985
30
0
41
1
10
-58
20
34.580379744722
30
0
41
1
10
-58
20
34.5966208960344
30
0
41
1
10
-58
20
34.6043666835848
30
0
41
1
10
-58
20
34.607316458294
30
0
0
SPLINE
5
BF
100
AcDbEntity
8
SK1
62
256
6
ByLayer
370
18
48
1
60
0
100
AcDbSpline
70
4
71
3
72
321
73
317
40
0
40
0
40
0
40
0
40
0.0022721648291153
40
0.0057229959063687
40
0.0091738269836221
40
0.0126246580608755
40
0.0160754891381289
40
0.0195263202153823
40
0.0229771512926358
40
0.0264279823698892
40
0.0298788134471426
40
0.033329644524396
40
0.0367804756016494
40
0.0402313066789028
40
0.0436821377561562
40
0.0471329688334096
40
0.050583799910663
40
0.0574854620651698
40
0.0609362931424233
40
0.0643871242196767
40
0.06783795529693
40
0.0712887863741835
40
0.0747396174514369
40
0.0781904485286903
40
0.0816412796059437
40
0.0850921106831971
40
0.0885429417604505
40
0.0919937728377039
40
0.0988954349922107
40
0.102346266069464
40
0.104071681608091
40
0.105797097146718
40
0.109247928223971
40
0.112698759301224
40
0.119600421455731
40
0.123051252532985
40
0.126502083610238
40
0.133403745764745
40
0.140305407919252
40
0.143756238996505
40
0.147207070073758
40
0.150657901151012
40
0.154108732228265
40
0.161010394382772
40
0.167912056537279
40
0.171362887614532
40
0.174813718691786
40
0.181715380846292
40
0.188617043000799
40
0.195518705155306
40
0.19896953623256
40
0.202420367309813
40
0.205871198387066
40
0.20932202946432
40
0.216223691618827
40
0.223125353773333
40
0.226576184850587
40
0.23002701592784
40
0.233477847005094
40
0.236928678082347
40
0.243830340236854
40
0.250732002391361
40
0.257633664545868
40
0.261084495623121
40
0.264535326700374
40
0.271436988854881
40
0.278338651009388
40
0.281789482086641
40
0.285240313163895
40
0.288691144241148
40
0.292141975318402
40
0.299043637472908
40
0.302494468550162
40
0.305945299627415
40
0.309396130704668
40
0.312846961781922
40
0.319748623936429
40
0.323199455013682
40
0.326650286090936
40
0.330101117168189
40
0.333551948245442
40
0.340453610399949
40
0.343904441477203
40
0.347355272554456
40
0.350806103631709
40
0.354256934708963
40
0.35598235024759
40
0.357707765786216
40
0.36115859686347
40
0.364609427940723
40
0.368060259017977
40
0.37151109009523
40
0.374961921172483
40
0.378412752249737
40
0.38186358332699
40
0.383588998865617
40
0.385314414404244
40
0.388765245481497
40
0.39221607655875
40
0.395666907636004
40
0.399117738713257
40
0.40256856979051
40
0.406019400867764
40
0.409470231945017
40
0.412921063022271
40
0.416371894099524
40
0.419822725176777
40
0.423273556254031
40
0.426724387331284
40
0.430175218408538
40
0.433626049485791
40
0.437076880563045
40
0.438802296101671
40
0.440527711640298
40
0.443978542717551
40
0.447429373794805
40
0.449154789333432
40
0.450880204872058
40
0.454331035949312
40
0.457781867026565
40
0.459507282565192
40
0.461232698103819
40
0.462958113642445
40
0.464683529181072
40
0.466408944719699
40
0.468134360258325
40
0.468997068027639
40
0.469859775796952
40
0.471585191335579
40
0.472447899104892
40
0.473310606874205
40
0.475036022412832
40
0.476761437951459
40
0.477624145720772
40
0.478486853490086
40
0.479349561259399
40
0.480212269028712
40
0.481937684567339
40
0.482800392336652
40
0.483663100105966
40
0.484525807875279
40
0.485388515644592
40
0.486251223413906
40
0.487113931183219
40
0.488839346721846
40
0.489702054491159
40
0.490564762260472
40
0.492290177799099
40
0.493152885568413
40
0.494015593337726
40
0.494878301107039
40
0.495741008876353
40
0.497466424414979
40
0.499191839953606
40
0.500054547722919
40
0.500917255492233
40
0.501779963261546
40
0.502642671030859
40
0.504368086569486
40
0.505230794338799
40
0.506093502108113
40
0.506956209877426
40
0.507818917646739
40
0.509544333185366
40
0.510407040954679
40
0.511269748723993
40
0.512132456493306
40
0.51299516426262
40
0.514720579801246
40
0.516445995339873
40
0.517308703109186
40
0.5181714108785
40
0.519034118647813
40
0.519896826417126
40
0.521622241955753
40
0.52334765749438
40
0.525073073033006
40
0.526798488571633
40
0.52852390411026
40
0.529386611879573
40
0.530249319648887
40
0.5311120274182
40
0.531974735187513
40
0.532837442956827
40
0.53370015072614
40
0.534562858495453
40
0.535425566264767
40
0.537150981803393
40
0.53887639734202
40
0.539739105111333
40
0.540601812880647
40
0.542327228419274
40
0.543189936188587
40
0.5440526439579
40
0.545778059496527
40
0.547503475035154
40
0.54922889057378
40
0.550954306112407
40
0.552679721651034
40
0.55440513718966
40
0.557855968266914
40
0.561306799344167
40
0.563032214882794
40
0.564757630421421
40
0.568208461498674
40
0.571659292575928
40
0.573384708114554
40
0.575110123653181
40
0.578560954730434
40
0.580286370269061
40
0.582011785807688
40
0.585462616884941
40
0.588913447962194
40
0.592364279039448
40
0.595815110116701
40
0.599265941193955
40
0.600991356732581
40
0.602716772271208
40
0.606167603348461
40
0.609618434425715
40
0.613069265502968
40
0.616520096580222
40
0.619970927657475
40
0.623421758734729
40
0.626872589811982
40
0.630323420889236
40
0.633774251966489
40
0.637225083043742
40
0.640675914120996
40
0.644126745198249
40
0.651028407352756
40
0.654479238430009
40
0.656204653968636
40
0.657930069507263
40
0.661380900584516
40
0.66483173166177
40
0.668282562739023
40
0.671733393816276
40
0.678635055970783
40
0.682085887048037
40
0.68553671812529
40
0.688987549202543
40
0.692438380279797
40
0.699340042434304
40
0.702790873511557
40
0.70624170458881
40
0.709692535666064
40
0.713143366743317
40
0.720045028897824
40
0.723495859975077
40
0.726946691052331
40
0.730397522129584
40
0.733848353206838
40
0.740750015361345
40
0.747651677515851
40
0.751102508593105
40
0.754553339670358
40
0.761455001824865
40
0.768356663979372
40
0.775258326133878
40
0.778709157211132
40
0.782159988288385
40
0.785610819365639
40
0.789061650442892
40
0.795963312597399
40
0.802864974751906
40
0.806315805829159
40
0.809766636906413
40
0.813217467983666
40
0.816668299060919
40
0.823569961215426
40
0.830471623369933
40
0.83737328552444
40
0.840824116601693
40
0.844274947678947
40
0.851176609833454
40
0.85807827198796
40
0.861529103065214
40
0.864979934142467
40
0.868430765219721
40
0.871881596296974
40
0.878783258451481
40
0.885684920605988
40
0.889135751683241
40
0.892586582760495
40
0.899488244915001
40
0.902939075992255
40
0.906389907069508
40
0.908115322608135
40
0.909840738146761
40
0.913291569224015
40
0.920193231378522
40
0.923644062455775
40
0.927094893533028
40
0.930545724610282
40
0.933996555687535
40
0.937447386764789
40
0.940898217842042
40
0.944349048919296
40
0.947799879996549
40
0.951250711073802
40
0.954701542151056
40
0.958152373228309
40
0.961603204305563
40
0.965054035382816
40
0.968504866460069
40
0.971955697537323
40
0.975406528614576
40
0.97885735969183
40
0.982308190769083
40
0.985759021846336
40
0.98920985292359
40
0.992660684000843
40
0.996111515078097
40
0.99956234615535
40
1
40
1
40
1
40
1
41
1
10
-60
20
33.4556558912813
30
-1E-16
41
1
10
-60
20
33.457633238079
30
-1E-16
41
1
10
-60
20
33.4616638246704
30
-1E-16
41
1
10
-60
20
33.4643410509434
30
-1E-16
41
1
10
-60
20
33.4623133815696
30
-1E-16
41
1
10
-60
20
33.4553334593645
30
-1E-16
41
1
10
-60
20
33.4434921454555
30
-1E-16
41
1
10
-60
20
33.4268774268509
30
-1E-16
41
1
10
-60
20
33.4055717280174
30
-1E-16
41
1
10
-60
20
33.3796553140389
30
-1E-16
41
1
10
-60
20
33.3492037178841
30
-1E-16
41
1
10
-60
20
33.3142895381611
30
-1E-16
41
1
10
-60
20
33.2749830705361
30
-1E-16
41
1
10
-60
20
33.2313495484921
30
-1E-16
41
1
10
-60
20
33.1834545182116
30
-1E-16
41
1
10
-60
20
33.1313576224893
30
-1E-16
41
1
10
-60
20
33.0560855188702
30
-1E-16
41
1
10
-60
20
32.9735372025895
30
-1E-16
41
1
10
-60
20
32.8821013415762
30
1E-16
41
1
10
-60
20
32.8098349743486
30
1E-16
41
1
10
-60
20
32.733688775323
30
1E-16
41
1
10
-60
20
32.6537081477481
30
0
41
1
10
-60
20
32.5699376540554
30
0
41
1
10
-60
20
32.4824210440017
30
0
41
1
10
-60
20
32.3912001164081
30
0
41
1
10
-60
20
32.2963152268368
30
1E-16
41
1
10
-60
20
32.1978052794717
30
1E-16
41
1
10
-60
20
32.0612248425865
30
1E-16
41
1
10
-60
20
31.9189181156055
30
-1E-16
41
1
10
-60
20
31.7872672789306
30
-1E-16
41
1
10
-60
20
31.7102043249634
30
-1E-16
41
1
10
-60
20
31.6319918777348
30
-1E-16
41
1
10
-60
20
31.5326481176695
30
-1E-16
41
1
10
-60
20
31.3682719173465
30
-1E-16
41
1
10
-60
20
31.1987551463809
30
-1E-16
41
1
10
-60
20
31.0210528170066
30
-1E-16
41
1
10
-60
20
30.8389711768625
30
-1E-16
41
1
10
-60
20
30.6045149696702
30
-1E-16
41
1
10
-60
20
30.3594550872206
30
-1E-16
41
1
10
-60
20
30.1560458164262
30
-1E-16
41
1
10
-60
20
30.0008163011261
30
-1E-16
41
1
10
-60
20
29.8424884168047
30
-1E-16
41
1
10
-60
20
29.6266492024767
30
-1E-16
41
1
10
-60
20
29.3506439800406
30
-1E-16
41
1
10
-60
20
29.0646239872063
30
-1E-16
41
1
10
-60
20
28.8286459848585
30
-1E-16
41
1
10
-60
20
28.588711970395
30
-1E-16
41
1
10
-60
20
28.2830119047979
30
-1E-16
41
1
10
-60
20
27.9037227355801
30
-1E-16
41
1
10
-60
20
27.5788289346229
30
-1E-16
41
1
10
-60
20
27.3118865150179
30
-1E-16
41
1
10
-60
20
27.1094249342747
30
-1E-16
41
1
10
-60
20
26.9041562227329
30
-1E-16
41
1
10
-60
20
26.6259536097734
30
-1E-16
41
1
10
-60
20
26.2730451104148
30
-1E-16
41
1
10
-60
20
25.9109897890729
30
-1E-16
41
1
10
-60
20
25.6143967365825
30
-1E-16
41
1
10
-60
20
25.3898727883459
30
-1E-16
41
1
10
-60
20
25.1626504323296
30
-1E-16
41
1
10
-60
20
24.8552336369894
30
-1E-16
41
1
10
-60
20
24.4662671647181
30
-1E-16
41
1
10
-60
20
23.9878313987672
30
-1E-16
41
1
10
-60
20
23.581309600239
30
-1E-16
41
1
10
-60
20
23.249168845647
30
-1E-16
41
1
10
-60
20
22.9135633071667
30
-1E-16
41
1
10
-60
20
22.4898084449714
30
-1E-16
41
1
10
-60
20
22.0575119779296
30
-1E-16
41
1
10
-60
20
21.7047294419233
30
-1E-16
41
1
10
-60
20
21.4383936907813
30
-1E-16
41
1
10
-60
20
21.1695327729883
30
-1E-16
41
1
10
-60
20
20.8066187564656
30
-1E-16
41
1
10
-60
20
20.4419941243112
30
-1E-16
41
1
10
-60
20
20.0690271785162
30
-1E-16
41
1
10
-60
20
19.787682750911
30
-1E-16
41
1
10
-60
20
19.5038694602985
30
-1E-16
41
1
10
-60
20
19.1209962837445
30
-1E-16
41
1
10
-60
20
18.7368339912086
30
-1E-16
41
1
10
-60
20
18.3441159235589
30
-1E-16
41
1
10
-60
20
18.0480997672743
30
-1E-16
41
1
10
-60
20
17.7496716294468
30
-1E-16
41
1
10
-60
20
17.3472727105996
30
-1E-16
41
1
10
-60
20
16.9440675389051
30
-1E-16
41
1
10
-60
20
16.532035620606
30
-1E-16
41
1
10
-60
20
16.2216969743561
30
-1E-16
41
1
10
-60
20
15.9090090330769
30
-1E-16
41
1
10
-60
20
15.6472013716544
30
-1E-16
41
1
10
-60
20
15.4352759364928
30
-1E-16
41
1
10
-60
20
15.2225823733162
30
-1E-16
41
1
10
-60
20
14.9569585815733
30
-1E-16
41
1
10
-60
20
14.6349879089581
30
-1E-16
41
1
10
-60
20
14.3107292402958
30
-1E-16
41
1
10
-60
20
13.9841958759155
30
-1E-16
41
1
10
-60
20
13.6554023236347
30
-1E-16
41
1
10
-60
20
13.3243664763056
30
-1E-16
41
1
10
-60
20
13.0474865550707
30
-1E-16
41
1
10
-60
20
12.8233283675937
30
-1E-16
41
1
10
-60
20
12.5984437652583
30
-1E-16
41
1
10
-60
20
12.3179771615538
30
-1E-16
41
1
10
-60
20
11.9781527958057
30
-1E-16
41
1
10
-60
20
11.6361816637219
30
-1E-16
41
1
10
-60
20
11.292092379822
30
3.4E-15
41
1
10
-60
20
10.945908859449
30
3.4E-15
41
1
10
-60
20
10.5976625981365
30
3.4E-15
41
1
10
-60
20
10.2473847821601
30
3.4E-15
41
1
10
-60
20
9.89511131375596
30
3.4E-15
41
1
10
-60
20
9.54088172151239
30
3.4E-15
41
1
10
-60
20
9.18473899017405
30
3.4E-15
41
1
10
-60
20
8.82673234426119
30
3.4E-15
41
1
10
-60
20
8.46691508480725
30
3.4E-15
41
1
10
-60
20
8.10534831886906
30
3.4E-15
41
1
10
-60
20
7.74209991377398
30
3.4E-15
41
1
10
-60
20
7.43933366074933
30
3.4E-15
41
1
10
-60
20
7.19392383197427
30
3.4E-15
41
1
10
-60
20
6.94806390056186
30
3.4E-15
41
1
10
-60
20
6.64308245049978
30
3.4E-15
41
1
10
-60
20
6.33692354274459
30
3.4E-15
41
1
10
-60
20
6.08866434779782
30
3.4E-15
41
1
10
-60
20
5.84008609772042
30
3.4E-15
41
1
10
-60
20
5.53238372840596
30
3.4E-15
41
1
10
-60
20
5.22383853567212
30
3.4E-15
41
1
10
-60
20
4.97352607912163
30
3.4E-15
41
1
10
-60
20
4.78702154756596
30
3.4E-15
41
1
10
-60
20
4.60040605057171
30
3.4E-15
41
1
10
-60
20
4.4136971739961
30
3.4E-15
41
1
10
-60
20
4.22693988185341
30
3.4E-15
41
1
10
-60
20
4.07226259629712
30
3.4E-15
41
1
10
-60
20
3.94669383078133
30
3.4E-15
41
1
10
-60
20
3.82116954124064
30
3.4E-15
41
1
10
-60
20
3.69883107629954
30
3.4E-15
41
1
10
-60
20
3.57328747913138
30
3.4E-15
41
1
10
-60
20
3.44781059563368
30
3.4E-15
41
1
10
-60
20
3.2935863807572
30
3.4E-15
41
1
10
-60
20
3.13944522665
30
3.4E-15
41
1
10
-60
20
3.01413837924019
30
3.4E-15
41
1
10
-60
20
2.92113732640235
30
3.4E-15
41
1
10
-60
20
2.828199854958
30
3.4E-15
41
1
10
-60
20
2.70315242408563
30
3.4E-15
41
1
10
-60
20
2.58203066540028
30
3.4E-15
41
1
10
-60
20
2.45723012695294
30
3.4E-15
41
1
10
-60
20
2.36470328144031
30
3.4E-15
41
1
10
-60
20
2.27228576896138
30
3.4E-15
41
1
10
-60
20
2.17998802306417
30
3.4E-15
41
1
10
-60
20
2.08778698627512
30
3.4E-15
41
1
10
-60
20
1.96363390475221
30
3.4E-15
41
1
10
-60
20
1.84396791149473
30
3.4E-15
41
1
10
-60
20
1.72020377819322
30
3.4E-15
41
1
10
-60
20
1.59663706390086
30
3.4E-15
41
1
10
-60
20
1.47780824879951
30
3.4E-15
41
1
10
-60
20
1.35466991435547
30
3.4E-15
41
1
10
-60
20
1.26362007097097
30
3.4E-15
41
1
10
-60
20
1.17270141325398
30
3.4E-15
41
1
10
-60
20
1.05008260157575
30
3.4E-15
41
1
10
-60
20
0.900734180171582
30
3.4E-15
41
1
10
-60
20
0.751709618123783
30
3.4E-15
41
1
10
-60
20
0.629727249897627
30
3.4E-15
41
1
10
-60
20
0.539591484049964
30
3.4E-15
41
1
10
-60
20
0.44953312334124
30
3.4E-15
41
1
10
-60
20
0.327862446496681
30
3.4E-15
41
1
10
-60
20
0.211387195797528
30
3.4E-15
41
1
10
-60
20
0.0898518914115414
30
3.4E-15
41
1
10
-60
20
2.33088997E-08
30
3.4E-15
41
1
10
-60
20
-0.0898518818022183
30
3.4E-15
41
1
10
-60
20
-0.211387173079913
30
3.4E-15
41
1
10
-60
20
-0.32786241019906
30
3.4E-15
41
1
10
-60
20
-0.44953315485472
30
3.4E-15
41
1
10
-60
20
-0.539591448084252
30
3.4E-15
41
1
10
-60
20
-0.62972719061122
30
3.4E-15
41
1
10
-60
20
-0.751709598313113
30
3.4E-15
41
1
10
-60
20
-0.900734187142177
30
3.4E-15
41
1
10
-60
20
-1.0500826028476
30
3.4E-15
41
1
10
-60
20
-1.17270128769019
30
3.4E-15
41
1
10
-60
20
-1.26362007709338
30
3.4E-15
41
1
10
-60
20
-1.35466986733158
30
3.4E-15
41
1
10
-60
20
-1.47780889967763
30
3.4E-15
41
1
10
-60
20
-1.62866356892965
30
3.4E-15
41
1
10
-60
20
-1.81195714590723
30
3.4E-15
41
1
10
-60
20
-1.99575931518561
30
3.4E-15
41
1
10
-60
20
-2.18003829088596
30
3.4E-15
41
1
10
-60
20
-2.33258035694229
30
3.4E-15
41
1
10
-60
20
-2.45723438857442
30
3.4E-15
41
1
10
-60
20
-2.54984007971646
30
3.4E-15
41
1
10
-60
20
-2.64253286485462
30
3.4E-15
41
1
10
-60
20
-2.7353239097923
30
3.4E-15
41
1
10
-60
20
-2.82819892922643
30
3.4E-15
41
1
10
-60
20
-2.92113717428768
30
3.4E-15
41
1
10
-60
20
-3.01413856990277
30
3.4E-15
41
1
10
-60
20
-3.13944522556258
30
3.4E-15
41
1
10
-60
20
-3.2935859845241
30
3.4E-15
41
1
10
-60
20
-3.44781022267125
30
3.4E-15
41
1
10
-60
20
-3.57328748848443
30
3.4E-15
41
1
10
-60
20
-3.6988314347083
30
3.4E-15
41
1
10
-60
20
-3.82116995532766
30
3.4E-15
41
1
10
-60
20
-3.94669401081842
30
3.4E-15
41
1
10
-60
20
-4.0722623942265
30
3.4E-15
41
1
10
-60
20
-4.22693940902752
30
3.4E-15
41
1
10
-60
20
-4.41369698550011
30
3.4E-15
41
1
10
-60
20
-4.60040635681671
30
3.4E-15
41
1
10
-60
20
-4.7870219387934
30
3.4E-15
41
1
10
-60
20
-4.97352604952792
30
3.4E-15
41
1
10
-60
20
-5.22383810629833
30
3.4E-15
41
1
10
-60
20
-5.53238377279544
30
3.4E-15
41
1
10
-60
20
-5.8400864784706
30
3.4E-15
41
1
10
-60
20
-6.08866423546834
30
3.4E-15
41
1
10
-60
20
-6.33692316417088
30
3.4E-15
41
1
10
-60
20
-6.64308259789806
30
3.4E-15
41
1
10
-60
20
-6.94806448980088
30
3.4E-15
41
1
10
-60
20
-7.19392396234312
30
3.4E-15
41
1
10
-60
20
-7.43933366870848
30
3.4E-15
41
1
10
-60
20
-7.67989586792564
30
3.4E-15
41
1
10
-60
20
-7.92361107948267
30
3.4E-15
41
1
10
-60
20
-8.16680647555478
30
3.4E-15
41
1
10
-60
20
-8.46691182410564
30
3.4E-15
41
1
10
-60
20
-8.82673137604746
30
3.4E-15
41
1
10
-60
20
-9.18474212579679
30
3.4E-15
41
1
10
-60
20
-9.54088275359163
30
3.4E-15
41
1
10
-60
20
-9.83493450522627
30
3.4E-15
41
1
10
-60
20
-10.0711726122456
30
3.4E-15
41
1
10
-60
20
-10.3067727719092
30
3.4E-15
41
1
10
-60
20
-10.5976628395392
30
3.4E-15
41
1
10
-60
20
-10.9459088896872
30
3.4E-15
41
1
10
-60
20
-11.2920923090958
30
3.4E-15
41
1
10
-60
20
-11.6361817696307
30
-1E-16
41
1
10
-60
20
-11.9781526643528
30
-1E-16
41
1
10
-60
20
-12.3179774972949
30
-1E-16
41
1
10
-60
20
-12.6556361459602
30
-1E-16
41
1
10
-60
20
-12.991105740016
30
-1E-16
41
1
10
-60
20
-13.3243668024954
30
-1E-16
41
1
10
-60
20
-13.6554036731857
30
-1E-16
41
1
10
-60
20
-13.9841945283397
30
-1E-16
41
1
10
-60
20
-14.421206512195
30
-1E-16
41
1
10
-60
20
-14.8489195414718
30
-1E-16
41
1
10
-60
20
-15.2225823214827
30
-1E-16
41
1
10
-60
20
-15.4352759723945
30
-1E-16
41
1
10
-60
20
-15.647201356186
30
-1E-16
41
1
10
-60
20
-15.9090090125604
30
-1E-16
41
1
10
-60
20
-16.2216969814831
30
-1E-16
41
1
10
-60
20
-16.5320355896629
30
-1E-16
41
1
10
-60
20
-16.9440675257307
30
-1E-16
41
1
10
-60
20
-17.3472727170548
30
-1E-16
41
1
10
-60
20
-17.7496716428444
30
-1E-16
41
1
10
-60
20
-18.0480997821431
30
-1E-16
41
1
10
-60
20
-18.3441158768435
30
-1E-16
41
1
10
-60
20
-18.7368339915895
30
-1E-16
41
1
10
-60
20
-19.120996273923
30
-1E-16
41
1
10
-60
20
-19.5038694802314
30
-1E-16
41
1
10
-60
20
-19.7876827545796
30
-1E-16
41
1
10
-60
20
-20.0690271428399
30
-1E-16
41
1
10
-60
20
-20.441994127766
30
-1E-16
41
1
10
-60
20
-20.8066187451665
30
-1E-16
41
1
10
-60
20
-21.1695327858038
30
-1E-16
41
1
10
-60
20
-21.4383937008238
30
-1E-16
41
1
10
-60
20
-21.7047294118794
30
-1E-16
41
1
10
-60
20
-22.0575119733736
30
-1E-16
41
1
10
-60
20
-22.4898084525806
30
-1E-16
41
1
10
-60
20
-22.9135633086718
30
-1E-16
41
1
10
-60
20
-23.2491688314427
30
-1E-16
41
1
10
-60
20
-23.5813095953077
30
-1E-16
41
1
10
-60
20
-23.9878314099488
30
-1E-16
41
1
10
-60
20
-24.4662671557057
30
-1E-16
41
1
10
-60
20
-24.8552336352659
30
-1E-16
41
1
10
-60
20
-25.1626504358649
30
-1E-16
41
1
10
-60
20
-25.3898727930232
30
-1E-16
41
1
10
-60
20
-25.6143967303269
30
-1E-16
41
1
10
-60
20
-25.9109897889273
30
-1E-16
41
1
10
-60
20
-26.2730451134659
30
-1E-16
41
1
10
-60
20
-26.6259536079636
30
-1E-16
41
1
10
-60
20
-26.9041562278049
30
-1E-16
41
1
10
-60
20
-27.1094249332373
30
-1E-16
41
1
10
-60
20
-27.3118865130227
30
-1E-16
41
1
10
-60
20
-27.5788289362021
30
-1E-16
41
1
10
-60
20
-27.903722739304
30
-1E-16
41
1
10
-60
20
-28.2830119086102
30
-1E-16
41
1
10
-60
20
-28.5887119662347
30
-1E-16
41
1
10
-60
20
-28.8286459978862
30
-1E-16
41
1
10
-60
20
-29.0646239922872
30
-1E-16
41
1
10
-60
20
-29.3506439793956
30
-1E-16
41
1
10
-60
20
-29.626649201014
30
-1E-16
41
1
10
-60
20
-29.8424884317765
30
-1E-16
41
1
10
-60
20
-30.000816311555
30
-1E-16
41
1
10
-60
20
-30.1560458056576
30
-1E-16
41
1
10
-60
20
-30.3594550888042
30
-1E-16
41
1
10
-60
20
-30.6045149784548
30
-1E-16
41
1
10
-60
20
-30.8389711933591
30
-1E-16
41
1
10
-60
20
-31.0210528094401
30
-1E-16
41
1
10
-60
20
-31.1987551464293
30
-1E-16
41
1
10
-60
20
-31.3682719258243
30
-1E-16
41
1
10
-60
20
-31.5326481340748
30
-1E-16
41
1
10
-60
20
-31.6319918952804
30
-1E-16
41
1
10
-60
20
-31.7102043239203
30
-1E-16
41
1
10
-60
20
-31.7872672700223
30
-1E-16
41
1
10
-60
20
-31.9189181186464
30
-1E-16
41
1
10
-60
20
-32.061224849943
30
1E-16
41
1
10
-60
20
-32.1978052933397
30
1E-16
41
1
10
-60
20
-32.2963152464944
30
1E-16
41
1
10
-60
20
-32.3912001013677
30
0
41
1
10
-60
20
-32.4824210694835
30
0
41
1
10
-60
20
-32.5699376718859
30
0
41
1
10
-60
20
-32.6537080260487
30
0
41
1
10
-60
20
-32.7336889066932
30
1E-16
41
1
10
-60
20
-32.8098354129061
30
1E-16
41
1
10
-60
20
-32.8821009542705
30
1E-16
41
1
10
-60
20
-32.9504372229349
30
-1E-16
41
1
10
-60
20
-33.0147937722119
30
-1E-16
41
1
10
-60
20
-33.0751182914419
30
-1E-16
41
1
10
-60
20
-33.1313576691056
30
-1E-16
41
1
10
-60
20
-33.1834545172445
30
-1E-16
41
1
10
-60
20
-33.2313494864308
30
-1E-16
41
1
10
-60
20
-33.2749830986899
30
-1E-16
41
1
10
-60
20
-33.3142894793407
30
-1E-16
41
1
10
-60
20
-33.3492037179871
30
-1E-16
41
1
10
-60
20
-33.3796552925038
30
-1E-16
41
1
10
-60
20
-33.4055716886024
30
-1E-16
41
1
10
-60
20
-33.4268774387512
30
-1E-16
41
1
10
-60
20
-33.443492082087
30
-1E-16
41
1
10
-60
20
-33.4518577958788
30
-1E-16
41
1
10
-60
20
-33.4552832108936
30
-1E-16
41
1
10
-60
20
-33.4556558381166
30
-1E-16
0
SPLINE
5
C0
100
AcDbEntity
8
1
62
256
6
ByLayer
370
18
48
1
60
0
100
AcDbSpline
70
4
71
3
72
16
73
12
40
0
40
0
40
0
40
0
40
0.25
40
0.25
40
0.500000000000001
40
0.500000000000001
40
0.750000000000001
40
0.750000000000001
40
0.875
40
0.875
40
1
40
1
40
1
40
1
41
1
10
13.3556624327026
20
47.5324740593459
30
8E-16
41
1
10
13.3713369564231
20
47.5510763302182
30
8E-16
41
1
10
13.390077598984
20
47.5691972862268
30
8E-16
41
1
10
13.4357910527648
20
47.6042475586049
30
8E-16
41
1
10
13.4628368001564
20
47.6212962856129
30
8E-16
41
1
10
13.5295052401434
20
47.6531299493423
30
8E-16
41
1
10
13.5692020024501
20
47.6679778471913
30
8E-16
41
1
10
13.641729016901
20
47.685218753302
30
8E-16
41
1
10
13.6686700313504
20
47.6901974749824
30
8E-16
41
1
10
13.726220064296
20
47.6971341405705
30
8E-16
41
1
10
13.7572518777782
20
47.6991123363141
30
8E-16
41
1
10
13.7886751345948
20
47.6991123363141
30
8E-16
0
SPLINE
5
C1
100
AcDbEntity
8
1
62
256
6
ByLayer
370
18
48
1
60
0
100
AcDbSpline
70
4
71
3
72
16
73
12
40
0
40
0
40
0
40
0
40
0.124999999999996
40
0.124999999999996
40
0.249999999999993
40
0.249999999999993
40
0.499999999999995
40
0.499999999999995
40
0.749999999999998
40
0.749999999999998
40
1
40
1
40
1
40
1
41
1
10
13.7886751345948
20
14.9931545155677
30
8E-16
41
1
10
13.7572057460937
20
14.9931545155677
30
8E-16
41
1
10
13.7265863249372
20
14.9993270329222
30
8E-16
41
1
10
13.6685627993564
20
15.0215159830932
30
8E-16
41
1
10
13.642171873473
20
15.0369693753061
30
8E-16
41
1
10
13.5684767776432
20
15.092429500184
30
8E-16
41
1
10
13.529486779677
20
15.1387838835225
30
8E-16
41
1
10
13.4628524690449
20
15.2385754420444
30
8E-16
41
1
10
13.4360331579796
20
15.2912821270175
30
8E-16
41
1
10
13.3902293919744
20
15.4000512474235
30
8E-16
41
1
10
13.3713425683518
20
15.4563289206726
30
8E-16
41
1
10
13.3556624327026
20
15.5133461831291
30
8E-16
0
SPLINE
5
C2
100
AcDbEntity
8
1
62
256
6
ByLayer
370
18
48
1
60
0
100
AcDbSpline
70
4
71
3
72
16
73
12
40
0
40
0
40
0
40
0
40
0.250000000000002
40
0.250000000000002
40
0.500000000000003
40
0.500000000000003
40
0.750000000000005
40
0.750000000000005
40
0.875000000000003
40
0.875000000000003
40
1
40
1
40
1
40
1
41
1
10
18.6443375672974
20
15.5133461831291
30
1.1E-15
41
1
10
18.628663043577
20
15.4563493271806
30
1.1E-15
41
1
10
18.609922401016
20
15.400478236028
30
1.1E-15
41
1
10
18.5642089472352
20
15.2917910897776
30
1.1E-15
41
1
10
18.5371631998437
20
15.2385985420777
30
1.1E-15
41
1
10
18.4704947598566
20
15.1387566028337
30
1.1E-15
41
1
10
18.4307979975499
20
15.0918966685263
30
1.1E-15
41
1
10
18.358270983099
20
15.0372961905784
30
1.1E-15
41
1
10
18.3313299686496
20
15.021491213259
30
1.1E-15
41
1
10
18.273779935704
20
14.9994509315928
30
1.1E-15
41
1
10
18.2427481222218
20
14.9931545155676
30
1.1E-15
41
1
10
18.2113248654052
20
14.9931545155676
30
1.1E-15
0
SPLINE
5
C3
100
AcDbEntity
8
1
62
256
6
ByLayer
370
18
48
1
60
0
100
AcDbSpline
70
4
71
3
72
16
73
12
40
0
40
0
40
0
40
0
40
0.124999999999994
40
0.124999999999994
40
0.249999999999989
40
0.249999999999989
40
0.499999999999993
40
0.499999999999993
40
0.749999999999996
40
0.749999999999996
40
1
40
1
40
1
40
1
41
1
10
18.2113248654052
20
47.6991123363141
30
-7E-16
41
1
10
18.2427942539063
20
47.6991123363141
30
-7E-16
41
1
10
18.2734136750628
20
47.6971731220929
30
-7E-16
41
1
10
18.3314372006436
20
47.6901896918971
30
-7E-16
41
1
10
18.357828126527
20
47.6853219328561
30
-7E-16
41
1
10
18.4315232223568
20
47.6678096320571
30
-6E-16
41
1
10
18.470513220323
20
47.6531212535631
30
-6E-16
41
1
10
18.5371475309551
20
47.6213036484293
30
-6E-16
41
1
10
18.5639668420204
20
47.6044110998707
30
-6E-16
41
1
10
18.6097706080257
20
47.5693355727224
30
-6E-16
41
1
10
18.6286574316482
20
47.5510829903643
30
-6E-16
41
1
10
18.6443375672974
20
47.5324740593459
30
-6E-16
0
SPLINE
5
C4
100
AcDbEntity
8
1
62
256
6
ByLayer
370
18
48
1
60
0
100
AcDbSpline
70
4
71
3
72
16
73
12
40
0
40
0
40
0
40
0
40
0.250000000000003
40
0.250000000000003
40
0.500000000000005
40
0.500000000000005
40
0.750000000000008
40
0.750000000000008
40
0.875000000000004
40
0.875000000000004
40
1
40
1
40
1
40
1
41
1
10
13.3556624327026
20
-15.5133461831291
30
8E-16
41
1
10
13.3713369564231
20
-15.4563493271806
30
8E-16
41
1
10
13.390077598984
20
-15.4004782360281
30
8E-16
41
1
10
13.4357910527648
20
-15.2917910897776
30
8E-16
41
1
10
13.4628368001563
20
-15.2385985420777
30
8E-16
41
1
10
13.5295052401434
20
-15.1387566028337
30
8E-16
41
1
10
13.5692020024501
20
-15.0918966685263
30
8E-16
41
1
10
13.641729016901
20
-15.0372961905784
30
8E-16
41
1
10
13.6686700313504
20
-15.021491213259
30
8E-16
41
1
10
13.726220064296
20
-14.9994509315928
30
8E-16
41
1
10
13.7572518777782
20
-14.9931545155676
30
8E-16
41
1
10
13.7886751345948
20
-14.9931545155676
30
8E-16
0
SPLINE
5
C5
100
AcDbEntity
8
1
62
256
6
ByLayer
370
18
48
1
60
0
100
AcDbSpline
70
4
71
3
72
16
73
12
40
0
40
0
40
0
40
0
40
0.125000000000002
40
0.125000000000002
40
0.250000000000004
40
0.250000000000004
40
0.500000000000003
40
0.500000000000003
40
0.750000000000001
40
0.750000000000001
40
1
40
1
40
1
40
1
41
1
10
13.7886751345948
20
-47.6991123363141
30
8E-16
41
1
10
13.7572057460937
20
-47.6991123363141
30
8E-16
41
1
10
13.7265863249372
20
-47.6971731220929
30
8E-16
41
1
10
13.6685627993564
20
-47.6901896918971
30
8E-16
41
1
10
13.642171873473
20
-47.6853219328561
30
8E-16
41
1
10
13.5684767776432
20
-47.6678096320571
30
8E-16
41
1
10
13.529486779677
20
-47.6531212535631
30
8E-16
41
1
10
13.4628524690449
20
-47.6213036484293
30
8E-16
41
1
10
13.4360331579796
20
-47.6044110998707
30
8E-16
41
1
10
13.3902293919744
20
-47.5693355727224
30
8E-16
41
1
10
13.3713425683518
20
-47.5510829903643
30
8E-16
41
1
10
13.3556624327026
20
-47.5324740593459
30
8E-16
0
SPLINE
5
C6
100
AcDbEntity
8
1
62
256
6
ByLayer
370
18
48
1
60
0
100
AcDbSpline
70
4
71
3
72
16
73
12
40
0
40
0
40
0
40
0
40
0.249999999999999
40
0.249999999999999
40
0.499999999999998
40
0.499999999999998
40
0.749999999999997
40
0.749999999999997
40
0.874999999999998
40
0.874999999999998
40
1
40
1
40
1
40
1
41
1
10
18.6443375672974
20
-47.5324740593459
30
-6E-16
41
1
10
18.628663043577
20
-47.5510763302182
30
-6E-16
41
1
10
18.609922401016
20
-47.5691972862268
30
-6E-16
41
1
10
18.5642089472352
20
-47.6042475586049
30
-6E-16
41
1
10
18.5371631998437
20
-47.6212962856129
30
-6E-16
41
1
10
18.4704947598566
20
-47.6531299493423
30
-6E-16
41
1
10
18.4307979975499
20
-47.6679778471913
30
-6E-16
41
1
10
18.358270983099
20
-47.685218753302
30
-7E-16
41
1
10
18.3313299686496
20
-47.6901974749824
30
-7E-16
41
1
10
18.273779935704
20
-47.6971341405705
30
-7E-16
41
1
10
18.2427481222218
20
-47.6991123363142
30
-7E-16
41
1
10
18.2113248654052
20
-47.6991123363141
30
-7E-16
0
SPLINE
5
C7
100
AcDbEntity
8
1
62
256
6
ByLayer
370
18
48
1
60
0
100
AcDbSpline
70
4
71
3
72
16
73
12
40
0
40
0
40
0
40
0
40
0.125000000000004
40
0.125000000000004
40
0.250000000000008
40
0.250000000000008
40
0.500000000000005
40
0.500000000000005
40
0.750000000000003
40
0.750000000000003
40
1
40
1
40
1
40
1
41
1
10
18.2113248654052
20
-14.9931545155676
30
1.1E-15
41
1
10
18.2427942539063
20
-14.9931545155676
30
1.1E-15
41
1
10
18.2734136750628
20
-14.9993270329222
30
1.1E-15
41
1
10
18.3314372006436
20
-15.0215159830932
30
1.1E-15
41
1
10
18.357828126527
20
-15.0369693753061
30
1.1E-15
41
1
10
18.4315232223568
20
-15.092429500184
30
1.1E-15
41
1
10
18.470513220323
20
-15.1387838835225
30
1.1E-15
41
1
10
18.5371475309551
20
-15.2385754420444
30
1.1E-15
41
1
10
18.5639668420204
20
-15.2912821270175
30
1.1E-15
41
1
10
18.6097706080257
20
-15.4000512474235
30
1.1E-15
41
1
10
18.6286574316482
20
-15.4563289206725
30
1.1E-15
41
1
10
18.6443375672974
20
-15.5133461831291
30
1.1E-15
0
SPLINE
5
C8
100
AcDbEntity
8
SK1
62
256
6
ByLayer
370
18
48
1
60
0
100
AcDbSpline
70
4
71
3
72
43
73
39
40
0
40
0
40
0
40
0
40
0.0129757099415295
40
0.0273536792475363
40
0.041731648553543
40
0.0561096178595498
40
0.0848655564715633
40
0.113621495083577
40
0.14237743369559
40
0.171133372307604
40
0.199889310919617
40
0.228645249531631
40
0.257401188143644
40
0.286157126755658
40
0.314913065367671
40
0.343669003979685
40
0.372424942591698
40
0.401180881203712
40
0.429936819815725
40
0.458692758427738
40
0.487448697039752
40
0.516204635651766
40
0.544960574263779
40
0.573716512875792
40
0.602472451487806
40
0.631228390099819
40
0.659984328711833
40
0.688740267323846
40
0.71749620593586
40
0.775008083159887
40
0.8037640217719
40
0.818141991077907
40
0.832519960383914
40
0.861275898995927
40
0.890031837607941
40
0.947543714831967
40
0.976299653443981
40
1
40
1
40
1
40
1
41
1
10
-0.394976888875249
20
-35.8653776116115
30
0
41
1
10
-0.394976888875277
20
-35.8654184041014
30
0
41
1
10
-0.394976888875249
20
-35.8651176191216
30
0
41
1
10
-0.394976888875277
20
-35.8634269812556
30
0
41
1
10
-0.394976888875277
20
-35.8603562366916
30
0
41
1
10
-0.394976888875277
20
-35.854515215742
30
0
41
1
10
-0.394976888875277
20
-35.8439794508304
30
0
41
1
10
-0.394976888875277
20
-35.8262611583918
30
0
41
1
10
-0.394976888875277
20
-35.8035689891332
30
0
41
1
10
-0.394976888875277
20
-35.7759991267868
30
0
41
1
10
-0.394976888875277
20
-35.7436409316581
30
0
41
1
10
-0.394976888875277
20
-35.7065800027222
30
0
41
1
10
-0.394976888875277
20
-35.6648981651514
30
0
41
1
10
-0.394976888875277
20
-35.6186711780713
30
0
41
1
10
-0.394976888875277
20
-35.5679745134804
30
0
41
1
10
-0.394976888875277
20
-35.5128761760524
30
0
41
1
10
-0.394976888875277
20
-35.4534444043633
30
0
41
1
10
-0.394976888875277
20
-35.3897431016973
30
0
41
1
10
-0.394976888875277
20
-35.3218323112639
30
0
41
1
10
-0.394976888875277
20
-35.2497710104041
30
0
41
1
10
-0.394976888875277
20
-35.1736151059194
30
0
41
1
10
-0.394976888875277
20
-35.093418190414
30
0
41
1
10
-0.394976888875277
20
-35.0092316945093
30
0
41
1
10
-0.394976888875277
20
-34.9211049595596
30
0
41
1
10
-0.394976888875277
20
-34.829085378746
30
0
41
1
10
-0.394976888875277
20
-34.7332186246447
30
0
41
1
10
-0.394976888875277
20
-34.6335485304196
30
0
41
1
10
-0.394976888875277
20
-34.5301171783813
30
0
41
1
10
-0.394976888875277
20
-34.3872241353875
30
0
41
1
10
-0.394976888875277
20
-34.2370419140071
30
0
41
1
10
-0.394976888875277
20
-34.0992650937292
30
0
41
1
10
-0.394976888875277
20
-34.0187437263543
30
0
41
1
10
-0.394976888875277
20
-33.9370370034868
30
0
41
1
10
-0.394976888875277
20
-33.8327219580027
30
0
41
1
10
-0.394976888875277
20
-33.6610954992522
30
0
41
1
10
-0.394976888875277
20
-33.4826057621145
30
0
41
1
10
-0.394976888875277
20
-33.305353995147
30
0
41
1
10
-0.394976888875277
20
-33.2189249700083
30
0
41
1
10
-0.394976888875277
20
-33.1794972207815
30
0
0
SPLINE
5
C9
100
AcDbEntity
8
SK1
62
256
6
ByLayer
370
13
48
1
60
0
100
AcDbSpline
70
4
71
3
72
91
73
87
40
0
40
0
40
0
40
0
40
0.0018350165991482
40
0.0227099701618389
40
0.0435849237245295
40
0.0540224005058747
40
0.0644598772872201
40
0.0748973540685654
40
0.0853348308499107
40
0.106209784412601
40
0.127084737975292
40
0.137522214756637
40
0.147959691537983
40
0.168834645100673
40
0.189709598663364
40
0.210584552226054
40
0.2210220290074
40
0.231459505788745
40
0.24189698257009
40
0.252334459351436
40
0.273209412914126
40
0.294084366476817
40
0.304521843258162
40
0.314959320039508
40
0.325396796820853
40
0.335834273602198
40
0.356709227164889
40
0.377584180727579
40
0.39845913429027
40
0.408896611071616
40
0.419334087852961
40
0.440209041415651
40
0.461083994978342
40
0.471521471759687
40
0.481958948541033
40
0.492396425322378
40
0.502833902103723
40
0.523708855666414
40
0.534146332447759
40
0.544583809229105
40
0.55502128601045
40
0.565458762791795
40
0.586333716354486
40
0.596771193135831
40
0.607208669917176
40
0.617646146698522
40
0.628083623479867
40
0.648958577042558
40
0.659396053823903
40
0.669833530605248
40
0.680271007386594
40
0.690708484167939
40
0.695927222558611
40
0.701145960949284
40
0.71158343773063
40
0.73245839129332
40
0.742895868074665
40
0.753333344856011
40
0.763770821637356
40
0.774208298418701
40
0.784645775200047
40
0.795083251981392
40
0.805520728762737
40
0.815958205544083
40
0.826395682325428
40
0.836833159106773
40
0.847270635888119
40
0.857708112669464
40
0.862926851060137
40
0.868145589450809
40
0.878583066232155
40
0.8890205430135
40
0.899458019794845
40
0.90989549657619
40
0.920332973357536
40
0.925551711748209
40
0.930770450138881
40
0.941207926920226
40
0.946426665310899
40
0.951645403701572
40
0.962082880482917
40
0.972520357264262
40
0.977739095654935
40
0.982957834045608
40
0.993395310826953
40
1
40
1
40
1
40
1
41
1
10
-0.394976888875277
20
-33.1794972207704
30
0
41
1
10
-0.394976888875249
20
-33.1710867692515
30
0
41
1
10
-0.394976888875277
20
-33.0667869774152
30
0
41
1
10
-0.394976888875277
20
-32.8615720411721
30
0
41
1
10
-0.394976888875277
20
-32.6048424706425
30
0
41
1
10
-0.394976888875277
20
-32.3928928336977
30
0
41
1
10
-0.394976888875277
20
-32.2307235620492
30
0
41
1
10
-0.394976888875277
20
-32.0653460684281
30
0
41
1
10
-0.394976888875277
20
-31.8405614201245
30
0
41
1
10
-0.394976888875277
20
-31.5517459050345
30
0
41
1
10
-0.394976888875277
20
-31.2525219538402
30
0
41
1
10
-0.394976888875277
20
-31.0069093628079
30
0
41
1
10
-0.394976888875277
20
-30.7572080028694
30
0
41
1
10
-0.394976888875277
20
-30.4375437762782
30
0
41
1
10
-0.394976888875277
20
-30.0418468835666
30
0
41
1
10
-0.394976888875277
20
-29.7022003148107
30
0
41
1
10
-0.394976888875277
20
-29.4245084215695
30
0
41
1
10
-0.394976888875277
20
-29.2133327662611
30
0
41
1
10
-0.394976888875277
20
-28.9992339821199
30
0
41
1
10
-0.394976888875277
20
-28.7098481386985
30
0
41
1
10
-0.394976888875277
20
-28.340970496997
30
0
41
1
10
-0.394976888875277
20
-27.9625243931996
30
0
41
1
10
-0.394976888875277
20
-27.6539931003944
30
0
41
1
10
-0.394976888875277
20
-27.4197920834741
30
0
41
1
10
-0.394976888875277
20
-27.1827656068871
30
0
41
1
10
-0.394976888875277
20
-26.8629311640439
30
0
41
1
10
-0.394976888875277
20
-26.4562321573553
30
0
41
1
10
-0.394976888875277
20
-25.9569955498363
30
0
41
1
10
-0.394976888875277
20
-25.5317904219061
30
0
41
1
10
-0.394976888875277
20
-25.1860341634964
30
0
41
1
10
-0.394976888875277
20
-24.8366207517989
30
0
41
1
10
-0.394976888875277
20
-24.3931333790251
30
0
41
1
10
-0.394976888875277
20
-23.9405766044571
30
0
41
1
10
-0.394976888875277
20
-23.5730166229076
30
0
41
1
10
-0.394976888875277
20
-23.294686474333
30
0
41
1
10
-0.394976888875277
20
-23.0136599895412
30
0
41
1
10
-0.394976888875277
20
-22.6353132371553
30
0
41
1
10
-0.394976888875277
20
-22.2517707343539
30
0
41
1
10
-0.394976888875277
20
-21.8626976854152
30
0
41
1
10
-0.394976888875277
20
-21.5682668931889
30
0
41
1
10
-0.394976888875277
20
-21.271168442681
30
0
41
1
10
-0.394976888875277
20
-20.8714231892215
30
0
41
1
10
-0.394976888875277
20
-20.4665491966628
30
0
41
1
10
-0.394976888875277
20
-20.0561712634217
30
0
41
1
10
-0.394976888875277
20
-19.7457866731406
30
0
41
1
10
-0.394976888875277
20
-19.4327531245027
30
0
41
1
10
-0.394976888875277
20
-19.0117775840375
30
0
41
1
10
-0.394976888875277
20
-18.5857236375232
30
0
41
1
10
-0.394976888875277
20
-18.1541693136931
30
0
41
1
10
-0.394976888875277
20
-17.8279183574374
30
0
41
1
10
-0.394976888875277
20
-17.4990274869922
30
0
41
1
10
-0.394976888875277
20
-17.2227901407219
30
0
41
1
10
-0.394976888875277
20
-17.0004108943221
30
0
41
1
10
-0.394976888875277
20
-16.7771522077328
30
0
41
1
10
-0.394976888875277
20
-16.3841710240747
30
0
41
1
10
-0.394976888875277
20
-15.9299794688331
30
0
41
1
10
-0.394976888875277
20
-15.4702555452062
30
0
41
1
10
-0.394976888875277
20
-15.1228861045844
30
0
41
1
10
-0.394976888875277
20
-14.7728737253136
30
0
41
1
10
-0.394976888875277
20
-14.4202178800222
30
0
41
1
10
-0.394976888875277
20
-14.0649158346649
30
0
41
1
10
-0.394976888875277
20
-13.706966774032
30
0
41
1
10
-0.394976888875277
20
-13.3463680945818
30
0
41
1
10
-0.394976888875277
20
-12.9831179010793
30
0
41
1
10
-0.394976888875277
20
-12.6172140721258
30
0
41
1
10
-0.394976888875277
20
-12.2486538786068
30
0
41
1
10
-0.394976888875277
20
-11.877435461996
30
0
41
1
10
-0.394976888875277
20
-11.5659225593266
30
0
41
1
10
-0.394976888875277
20
-11.3152803628128
30
0
41
1
10
-0.394976888875277
20
-11.0637515002381
30
0
41
1
10
-0.394976888875277
20
-10.7478052942324
30
0
41
1
10
-0.394976888875277
20
-10.3659294753254
30
0
41
1
10
-0.394976888875277
20
-9.98138431841267
30
0
41
1
10
-0.394976888875277
20
-9.59416962249634
30
0
41
1
10
-0.394976888875277
20
-9.26932873965478
30
0
41
1
10
-0.394976888875277
20
-9.00799999429159
30
0
41
1
10
-0.394976888875277
20
-8.7457829273653
30
0
41
1
10
-0.394976888875277
20
-8.48244127998379
30
0
41
1
10
-0.394976888875277
20
-8.21754953480053
30
0
41
1
10
-0.394976888875277
20
-7.95177203759235
30
0
41
1
10
-0.394976888875277
20
-7.61805779883338
30
0
41
1
10
-0.394976888875277
20
-7.28212707034135
30
0
41
1
10
-0.394976888875277
20
-7.01191435047286
30
0
41
1
10
-0.394976888875277
20
-6.74082520810296
30
0
41
1
10
-0.394976888875277
20
-6.45050039040558
30
0
41
1
10
-0.394976888875277
20
-6.22707378727881
30
0
41
1
10
-0.394976888875277
20
-6.14029722152787
30
0
0
SPLINE
5
CA
100
AcDbEntity
8
SK1
62
256
6
ByLayer
370
18
48
1
60
0
100
AcDbSpline
70
4
71
3
72
24
73
20
40
0
40
0
40
0
40
0
40
0.0459384608877483
40
0.0459384608877483
40
0.0918769217754967
40
0.0918769217754967
40
0.137815382663245
40
0.137815382663245
40
0.183753843550993
40
0.183753843550993
40
0.275630765326496
40
0.275630765326496
40
0.367507687101998
40
0.367507687101998
40
0.55126153065301
40
0.55126153065301
40
0.735015374204023
40
0.735015374204023
40
1
40
1
40
1
40
1
41
1
10
-0.394976888875249
20
-35.4775231381726
30
0
41
1
10
-0.388671475101006
20
-35.4766997478129
30
0
41
1
10
-0.381811534709072
20
-35.4762709949138
30
0
41
1
10
-0.366640616938582
20
-35.4768792325637
30
0
41
1
10
-0.358277609119398
20
-35.4779823276479
30
0
41
1
10
-0.341585771346587
20
-35.4821737215532
30
0
41
1
10
-0.333329482090733
20
-35.4852675491439
30
0
41
1
10
-0.318937365840014
20
-35.4921874163471
30
0
41
1
10
-0.312691079617139
20
-35.4959734507353
30
0
41
1
10
-0.296014776342304
20
-35.5075158416867
30
0
41
1
10
-0.287611873902932
20
-35.5153652851929
30
0
41
1
10
-0.273149668288994
20
-35.5307592099813
30
0
41
1
10
-0.267232007765017
20
-35.5382733023983
30
0
41
1
10
-0.251522836037736
20
-35.5604731484623
30
0
41
1
10
-0.243762874650884
20
-35.5748469170972
30
0
41
1
10
-0.230811617005941
20
-35.6028852486128
30
0
41
1
10
-0.225742287920866
20
-35.6164587953366
30
0
41
1
10
-0.215423866976863
20
-35.6488405109753
30
0
41
1
10
-0.211069038298802
20
-35.6673144607443
30
0
41
1
10
-0.207880832939964
20
-35.6852897623594
30
0
0
SPLINE
5
CB
100
AcDbEntity
8
SK1
62
256
6
ByLayer
370
18
48
1
60
0
100
AcDbSpline
70
4
71
3
72
26
73
22
40
0
40
0
40
0
40
0
40
0.25
40
0.25
40
0.499999999999999
40
0.499999999999999
40
0.624999999999998
40
0.624999999999998
40
0.687499999999998
40
0.687499999999998
40
0.749999999999998
40
0.749999999999998
40
0.812499999999999
40
0.812499999999999
40
0.874999999999999
40
0.874999999999999
40
0.906249999999999
40
0.906249999999999
40
0.937499999999999
40
0.937499999999999
40
1
40
1
40
1
40
1
41
1
10
-1.30710678118655
20
4.60538005832731
30
-1E-16
41
1
10
-1.27841932930974
20
4.77334296698427
30
-1E-16
41
1
10
-1.2456857383676
20
4.93989365706821
30
-1E-16
41
1
10
-1.16755021864049
20
5.26941198485824
30
-1E-16
41
1
10
-1.12236330163586
20
5.43277058328295
30
-1E-16
41
1
10
-1.03736348465083
20
5.67036427900959
30
-1E-16
41
1
10
-1.00612384847767
20
5.74840054491565
30
-1E-16
41
1
10
-0.951664768597595
20
5.86260604873686
30
-1E-16
41
1
10
-0.932227264069724
20
5.90019356697596
30
-1E-16
41
1
10
-0.889529369037234
20
5.97397527026541
30
-1E-16
41
1
10
-0.866205195590823
20
6.01027560258413
30
-1E-16
41
1
10
-0.814627264862708
20
6.07870671929965
30
0
41
1
10
-0.786411999023983
20
6.11112172686992
30
0
41
1
10
-0.720237073541199
20
6.16880021462495
30
0
41
1
10
-0.682055653726962
20
6.19377677065563
30
0
41
1
10
-0.618548195707575
20
6.21384852858478
30
0
41
1
10
-0.595883870694593
20
6.21761323445151
30
0
41
1
10
-0.551151188429913
20
6.21761557504371
30
0
41
1
10
-0.528825837373546
20
6.21393440359407
30
0
41
1
10
-0.465027161701187
20
6.19373948168717
30
0
41
1
10
-0.42778137096397
20
6.16911732468003
30
0
41
1
10
-0.394976888875277
20
6.14029748393358
30
0
0
SPLINE
5
CC
100
AcDbEntity
8
SK1
62
256
6
ByLayer
370
13
48
1
60
0
100
AcDbSpline
70
4
71
3
72
91
73
87
40
0
40
0
40
0
40
0
40
0.006586236090998
40
0.016994560623102
40
0.022198722889154
40
0.027402885155206
40
0.03781120968731
40
0.048219534219414
40
0.053423696485466
40
0.058627858751518
40
0.069036183283622
40
0.079444507815726
40
0.08985283234783
40
0.100261156879934
40
0.110669481412038
40
0.121077805944142
40
0.131486130476246
40
0.14189445500835
40
0.152302779540454
40
0.162711104072558
40
0.173119428604662
40
0.183527753136766
40
0.19393607766887
40
0.204344402200974
40
0.214752726733078
40
0.21995688899913
40
0.225161051265182
40
0.235569375797286
40
0.24597770032939
40
0.256386024861494
40
0.266794349393598
40
0.277202673925702
40
0.287610998457806
40
0.29801932298991
40
0.303223485255962
40
0.308427647522014
40
0.318835972054118
40
0.329244296586222
40
0.339652621118326
40
0.35006094565043
40
0.370877594714638
40
0.381285919246742
40
0.391694243778846
40
0.40210256831095
40
0.412510892843054
40
0.433327541907262
40
0.443735866439366
40
0.45414419097147
40
0.464552515503574
40
0.474960840035678
40
0.495777489099886
40
0.50618581363199
40
0.516594138164094
40
0.527002462696198
40
0.537410787228302
40
0.55822743629251
40
0.579044085356718
40
0.589452409888822
40
0.599860734420926
40
0.620677383485134
40
0.641494032549342
40
0.66231068161355
40
0.672719006145654
40
0.683127330677758
40
0.693535655209862
40
0.703943979741966
40
0.724760628806174
40
0.745577277870382
40
0.755985602402486
40
0.76639392693459
40
0.776802251466694
40
0.787210575998798
40
0.808027225063006
40
0.828843874127214
40
0.849660523191422
40
0.860068847723526
40
0.87047717225563
40
0.891293821319838
40
0.912110470384046
40
0.92251879491615
40
0.932927119448254
40
0.943335443980358
40
0.953743768512462
40
0.97456041757667
40
0.995377066640878
40
1
40
1
40
1
40
1
41
1
10
-0.394976888875277
20
6.14029748393358
30
0
41
1
10
-0.394976888875277
20
6.22707397316501
30
0
41
1
10
-0.394976888875277
20
6.4505004917111
30
0
41
1
10
-0.394976888875277
20
6.74082518692177
30
0
41
1
10
-0.394976888875277
20
7.01191434968567
30
0
41
1
10
-0.394976888875277
20
7.28212710030419
30
0
41
1
10
-0.394976888875277
20
7.61805782474269
30
0
41
1
10
-0.394976888875277
20
7.95177199064213
30
0
41
1
10
-0.394976888875277
20
8.21754949980777
30
0
41
1
10
-0.394976888875277
20
8.48244125097074
30
0
41
1
10
-0.394976888875277
20
8.81172783237585
30
0
41
1
10
-0.394976888875277
20
9.2042839968646
30
0
41
1
10
-0.394976888875277
20
9.59416972776228
30
0
41
1
10
-0.394976888875277
20
9.98138463666177
30
0
41
1
10
-0.394976888875277
20
10.3659293652704
30
0
41
1
10
-0.394976888875277
20
10.7478049083352
30
0
41
1
10
-0.394976888875277
20
11.1270131973585
30
0
41
1
10
-0.394976888875277
20
11.5035558012536
30
0
41
1
10
-0.394976888875277
20
11.8774354513043
30
0
41
1
10
-0.394976888875277
20
12.2486538532732
30
0
41
1
10
-0.394976888875277
20
12.6172140771122
30
0
41
1
10
-0.394976888875277
20
12.9831178868123
30
0
41
1
10
-0.394976888875277
20
13.3463680811382
30
0
41
1
10
-0.394976888875277
20
13.7069667840625
30
0
41
1
10
-0.394976888875277
20
14.0052089603083
30
0
41
1
10
-0.394976888875277
20
14.2425643537976
30
0
41
1
10
-0.394976888875277
20
14.4790383776377
30
0
41
1
10
-0.394976888875277
20
14.7728739584207
30
0
41
1
10
-0.394976888875277
20
15.1228859444593
30
0
41
1
10
-0.394976888875277
20
15.4702555471364
30
0
41
1
10
-0.394976888875277
20
15.8149837556983
30
0
41
1
10
-0.394976888875277
20
16.1570713412192
30
0
41
1
10
-0.394976888875277
20
16.4965191583142
30
0
41
1
10
-0.394976888875277
20
16.7771522140655
30
0
41
1
10
-0.394976888875277
20
17.0004108954029
30
0
41
1
10
-0.394976888875277
20
17.2227901432131
30
0
41
1
10
-0.394976888875277
20
17.4990274946616
30
0
41
1
10
-0.394976888875277
20
17.8279183615915
30
0
41
1
10
-0.394976888875277
20
18.1541693183472
30
0
41
1
10
-0.394976888875277
20
18.5857236544633
30
0
41
1
10
-0.394976888875277
20
19.0117775851467
30
0
41
1
10
-0.394976888875277
20
19.4327531367487
30
0
41
1
10
-0.394976888875277
20
19.7457866678881
30
0
41
1
10
-0.394976888875277
20
20.0561712754683
30
0
41
1
10
-0.394976888875277
20
20.4665492038552
30
0
41
1
10
-0.394976888875277
20
20.8714231957186
30
0
41
1
10
-0.394976888875277
20
21.2711684505154
30
0
41
1
10
-0.394976888875277
20
21.5682668891846
30
0
41
1
10
-0.394976888875277
20
21.8626976962737
30
0
41
1
10
-0.394976888875277
20
22.2517707390545
30
0
41
1
10
-0.394976888875277
20
22.635313242394
30
0
41
1
10
-0.394976888875277
20
23.0136599970687
30
0
41
1
10
-0.394976888875277
20
23.294686470862
30
0
41
1
10
-0.394976888875277
20
23.5730166298655
30
0
41
1
10
-0.394976888875277
20
23.9405766122791
30
0
41
1
10
-0.394976888875277
20
24.3931333811418
30
0
41
1
10
-0.394976888875277
20
24.8366207519515
30
0
41
1
10
-0.394976888875277
20
25.1860341652141
30
0
41
1
10
-0.394976888875277
20
25.5317904302903
30
0
41
1
10
-0.394976888875277
20
25.9569955457311
30
0
41
1
10
-0.394976888875277
20
26.4562321610578
30
0
41
1
10
-0.394976888875277
20
26.8629311663352
30
0
41
1
10
-0.394976888875277
20
27.1827656093462
30
0
41
1
10
-0.394976888875277
20
27.4197920823074
30
0
41
1
10
-0.394976888875277
20
27.6539931014151
30
0
41
1
10
-0.394976888875277
20
27.9625243956634
30
0
41
1
10
-0.394976888875277
20
28.3409704949157
30
0
41
1
10
-0.394976888875277
20
28.7098481402265
30
0
41
1
10
-0.394976888875277
20
28.9992339808614
30
0
41
1
10
-0.394976888875277
20
29.2133327647666
30
0
41
1
10
-0.394976888875277
20
29.4245084222719
30
0
41
1
10
-0.394976888875277
20
29.7022003135975
30
0
41
1
10
-0.394976888875277
20
30.041846883991
30
0
41
1
10
-0.394976888875277
20
30.4375437690499
30
0
41
1
10
-0.394976888875277
20
30.7572080062434
30
0
41
1
10
-0.394976888875277
20
31.0069093580469
30
0
41
1
10
-0.394976888875277
20
31.2525219484188
30
0
41
1
10
-0.394976888875277
20
31.5517459016333
30
0
41
1
10
-0.394976888875277
20
31.8405614204
30
0
41
1
10
-0.394976888875277
20
32.0653460663191
30
0
41
1
10
-0.394976888875277
20
32.2307235504388
30
0
41
1
10
-0.394976888875277
20
32.3928928338024
30
0
41
1
10
-0.394976888875277
20
32.6048424687674
30
0
41
1
10
-0.394976888875277
20
32.8615720410336
30
0
41
1
10
-0.394976888875277
20
33.0799745351071
30
0
41
1
10
-0.39497688887522
20
33.1967737848106
30
0
41
1
10
-0.39497688887522
20
33.2178884839495
30
0
0
SPLINE
5
CD
100
AcDbEntity
8
SK1
62
256
6
ByLayer
370
18
48
1
60
0
100
AcDbSpline
70
4
71
3
72
40
73
36
40
0
40
0
40
0
40
0
40
0.0161554375958559
40
0.045220052685809
40
0.103349282865716
40
0.13241389795567
40
0.161478513045623
40
0.1760108205906
40
0.190543128135576
40
0.219607743225529
40
0.277736973405437
40
0.30680158849539
40
0.335866203585343
40
0.364930818675297
40
0.39399543376525
40
0.423060048855203
40
0.452124663945157
40
0.481189279035111
40
0.510253894125064
40
0.539318509215017
40
0.56838312430497
40
0.626512354484877
40
0.655576969574831
40
0.684641584664784
40
0.713706199754738
40
0.742770814844691
40
0.771835429934644
40
0.800900045024597
40
0.829964660114551
40
0.859029275204505
40
0.888093890294458
40
0.917158505384411
40
0.946223120474365
40
0.975287735564318
40
1
40
1
40
1
40
1
41
1
10
-0.394976888875277
20
33.2178880738612
30
0
41
1
10
-0.394976888875277
20
33.244312299505
30
0
41
1
10
-0.394976888875277
20
33.3177917800343
30
0
41
1
10
-0.394976888875277
20
33.4826057619405
30
0
41
1
10
-0.394976888875277
20
33.6610954954258
30
0
41
1
10
-0.394976888875277
20
33.8327219500751
30
0
41
1
10
-0.394976888875277
20
33.9370369896415
30
0
41
1
10
-0.394976888875277
20
34.0187437151791
30
0
41
1
10
-0.394976888875277
20
34.0992650911192
30
0
41
1
10
-0.394976888875277
20
34.237041913251
30
0
41
1
10
-0.394976888875277
20
34.3872241278821
30
0
41
1
10
-0.394976888875277
20
34.5301171770343
30
0
41
1
10
-0.394976888875277
20
34.6335485066014
30
0
41
1
10
-0.394976888875277
20
34.7332186300704
30
0
41
1
10
-0.394976888875277
20
34.8290853700734
30
0
41
1
10
-0.394976888875277
20
34.9211049364669
30
0
41
1
10
-0.394976888875277
20
35.0092317015021
30
0
41
1
10
-0.394976888875277
20
35.0934183585436
30
0
41
1
10
-0.394976888875277
20
35.1736145542893
30
0
41
1
10
-0.394976888875277
20
35.2497713845769
30
0
41
1
10
-0.394976888875277
20
35.3458690564808
30
0
41
1
10
-0.394976888875277
20
35.4336188232989
30
0
41
1
10
-0.394976888875277
20
35.512876196401
30
0
41
1
10
-0.394976888875277
20
35.5679744983808
30
0
41
1
10
-0.394976888875277
20
35.6186712456131
30
0
41
1
10
-0.394976888875277
20
35.6648981389415
30
0
41
1
10
-0.394976888875277
20
35.7065800550004
30
0
41
1
10
-0.394976888875277
20
35.7436409390551
30
0
41
1
10
-0.394976888875277
20
35.7759991408607
30
0
41
1
10
-0.394976888875277
20
35.8035690347397
30
0
41
1
10
-0.394976888875277
20
35.826261141687
30
0
41
1
10
-0.394976888875277
20
35.8439795171219
30
0
41
1
10
-0.394976888875277
20
35.8566245309614
30
0
41
1
10
-0.394976888875277
20
35.8637164145143
30
0
41
1
10
-0.394976888875277
20
35.8653002807796
30
0
41
1
10
-0.394976888875277
20
35.8653780738176
30
0
0
SPLINE
5
CE
100
AcDbEntity
8
SK1
62
256
6
ByLayer
370
18
48
1
60
0
100
AcDbSpline
70
4
71
3
72
22
73
18
40
0
40
0
40
0
40
0
40
0.245257267779889
40
0.245257267779889
40
0.433942950834908
40
0.433942950834908
40
0.622628633889927
40
0.622628633889927
40
0.716971475417436
40
0.716971475417436
40
0.811314316944946
40
0.811314316944946
40
0.858485737708709
40
0.858485737708709
40
0.905657158472472
40
0.905657158472472
40
1
40
1
40
1
40
1
41
1
10
-0.208882797434398
20
35.6798285024346
30
0
41
1
10
-0.211981654900086
20
35.6634931148942
30
0
41
1
10
-0.216082241813439
20
35.6467276552678
30
0
41
1
10
-0.225863648826788
20
35.616114544839
30
0
41
1
10
-0.230960514215354
20
35.6025224313216
30
0
41
1
10
-0.243909555635184
20
35.5745706733976
30
0
41
1
10
-0.251695294090013
20
35.5601957054633
30
0
41
1
10
-0.267365014533795
20
35.5381024431321
30
0
41
1
10
-0.273258751589708
20
35.5306388063929
30
0
41
1
10
-0.287574896861258
20
35.5154087724191
30
0
41
1
10
-0.296025217598185
20
35.5075032524917
30
0
41
1
10
-0.312744846045803
20
35.4959387739217
30
0
41
1
10
-0.318964047572138
20
35.4921743471967
30
0
41
1
10
-0.333306356179065
20
35.4852786897172
30
0
41
1
10
-0.341563767889966
20
35.4821798260204
30
0
41
1
10
-0.366640249432493
20
35.4758809411679
30
0
41
1
10
-0.382359760725478
20
35.4758754263808
30
0
41
1
10
-0.394976888875504
20
35.4775230333216
30
0
0
SPLINE
5
CF
100
AcDbEntity
8
SK1
62
256
6
ByLayer
370
18
48
1
60
0
100
AcDbSpline
70
4
71
3
72
26
73
22
40
0
40
0
40
0
40
0
40
0.0312499999999999
40
0.0312499999999999
40
0.0624999999999998
40
0.0624999999999998
40
0.0937499999999997
40
0.0937499999999997
40
0.125
40
0.125
40
0.1875
40
0.1875
40
0.25
40
0.25
40
0.375
40
0.375
40
0.5
40
0.5
40
0.75
40
0.75
40
1
40
1
40
1
40
1
41
1
10
-0.394976888875306
20
-6.1402972215333
30
0
41
1
10
-0.411386827853335
20
-6.15471389261222
30
0
41
1
10
-0.428762929070359
20
-6.16792682850337
30
0
41
1
10
-0.466312490804512
20
-6.19087886287886
30
0
41
1
10
-0.486486340955395
20
-6.2005320542425
30
0
41
1
10
-0.52863608757923
20
-6.2138738576075
30
0
41
1
10
-0.551333806654242
20
-6.21763094422386
30
0
41
1
10
-0.595996896779297
20
-6.21759710275106
30
0
41
1
10
-0.618501718611867
20
-6.21388050874924
30
0
41
1
10
-0.682666367362856
20
-6.19354801200382
30
0
41
1
10
-0.720497492514312
20
-6.16857769971645
30
0
41
1
10
-0.786209064871855
20
-6.11129360410715
30
0
41
1
10
-0.81507485217719
20
-6.07817489743729
30
0
41
1
10
-0.892438429618153
20
-5.97534441057221
30
-1E-16
41
1
10
-0.933322586559768
20
-5.90108526750919
30
-1E-16
41
1
10
-1.00643010561569
20
-5.7477442089712
30
-1E-16
41
1
10
-1.03799495343557
20
-5.6687517075986
30
-1E-16
41
1
10
-1.12311078163748
20
-5.4303704240005
30
-1E-16
41
1
10
-1.16788167463841
20
-5.26810674825339
30
-1E-16
41
1
10
-1.24572901926439
20
-4.9396173942236
30
-1E-16
41
1
10
-1.27842602392929
20
-4.77330384397376
30
-1E-16
41
1
10
-1.30710678118655
20
-4.60538003006579
30
-1E-16
0
SPLINE
5
D0
100
AcDbEntity
8
SK1
62
256
6
ByLayer
370
13
48
1
60
0
100
AcDbSpline
70
4
71
3
72
322
73
318
40
0
40
0
40
0
40
0
40
0.0016671134589993
40
0.0033914366231078
40
0.0051157597872163
40
0.0068400829513248
40
0.0102887292795418
40
0.0137373756077588
40
0.0171860219359758
40
0.0206346682641928
40
0.0240833145924098
40
0.0275319609206268
40
0.0309806072488438
40
0.0344292535770608
40
0.0378778999052778
40
0.0413265462334948
40
0.0447751925617118
40
0.0482238388899288
40
0.0516724852181458
40
0.0551211315463628
40
0.0585697778745798
40
0.0620184242027968
40
0.0654670705310138
40
0.0689157168592308
40
0.0723643631874478
40
0.0758130095156648
40
0.0792616558438818
40
0.0827103021720988
40
0.0861589485003158
40
0.0930562411567499
40
0.0965048874849669
40
0.0982292106490754
40
0.0999535338131839
40
0.103402180141401
40
0.106850826469618
40
0.113748119126052
40
0.117196765454269
40
0.120645411782486
40
0.12754270443892
40
0.134439997095354
40
0.137888643423571
40
0.141337289751788
40
0.144785936080005
40
0.148234582408222
40
0.155131875064656
40
0.16202916772109
40
0.165477814049307
40
0.168926460377524
40
0.175823753033958
40
0.182721045690392
40
0.189618338346826
40
0.193066984675043
40
0.19651563100326
40
0.199964277331477
40
0.203412923659694
40
0.210310216316128
40
0.217207508972562
40
0.220656155300779
40
0.224104801628996
40
0.227553447957213
40
0.23100209428543
40
0.237899386941864
40
0.244796679598298
40
0.251693972254732
40
0.255142618582949
40
0.258591264911166
40
0.2654885575676
40
0.272385850224034
40
0.275834496552251
40
0.279283142880468
40
0.282731789208685
40
0.286180435536902
40
0.293077728193336
40
0.296526374521553
40
0.29997502084977
40
0.303423667177987
40
0.306872313506204
40
0.313769606162638
40
0.317218252490855
40
0.320666898819072
40
0.324115545147289
40
0.327564191475506
40
0.33446148413194
40
0.337910130460157
40
0.341358776788374
40
0.344807423116591
40
0.348256069444808
40
0.349980392608917
40
0.351704715773025
40
0.355153362101242
40
0.362050654757676
40
0.365499301085893
40
0.36894794741411
40
0.372396593742327
40
0.375845240070544
40
0.379293886398761
40
0.382742532726978
40
0.386191179055195
40
0.389639825383412
40
0.393088471711629
40
0.396537118039846
40
0.399985764368063
40
0.40343441069628
40
0.405158733860389
40
0.406883057024497
40
0.410331703352714
40
0.413780349680931
40
0.417228996009148
40
0.420677642337365
40
0.424126288665582
40
0.425850611829691
40
0.427574934993799
40
0.431023581322016
40
0.432747904486125
40
0.434472227650233
40
0.43792087397845
40
0.441369520306667
40
0.443093843470776
40
0.444818166634884
40
0.448266812963101
40
0.451715459291318
40
0.453439782455427
40
0.455164105619535
40
0.456888428783644
40
0.458612751947752
40
0.460337075111861
40
0.462061398275969
40
0.462923559858024
40
0.463785721440078
40
0.465510044604186
40
0.46637220618624
40
0.467234367768295
40
0.468958690932403
40
0.470683014096512
40
0.471545175678566
40
0.47240733726062
40
0.473269498842675
40
0.474131660424729
40
0.474993822006783
40
0.475855983588837
40
0.476718145170892
40
0.477580306752946
40
0.479304629917054
40
0.481028953081163
40
0.482753276245271
40
0.48447759940938
40
0.486201922573488
40
0.487064084155543
40
0.487926245737597
40
0.488788407319651
40
0.489650568901705
40
0.491374892065814
40
0.493099215229922
40
0.493961376811977
40
0.494823538394031
40
0.495685699976085
40
0.496547861558139
40
0.498272184722248
40
0.499134346304302
40
0.499996507886356
40
0.500858669468411
40
0.501720831050465
40
0.503445154214573
40
0.504307315796628
40
0.505169477378682
40
0.506031638960736
40
0.50689380054279
40
0.508618123706899
40
0.510342446871007
40
0.511204608453062
40
0.512066770035116
40
0.51292893161717
40
0.513791093199224
40
0.515515416363333
40
0.516377577945387
40
0.517239739527441
40
0.51896406269155
40
0.519826224273604
40
0.520688385855658
40
0.521550547437713
40
0.522412709019767
40
0.523274870601821
40
0.524137032183875
40
0.525861355347984
40
0.526723516930038
40
0.527585678512092
40
0.528447840094147
40
0.529310001676201
40
0.531034324840309
40
0.532758648004418
40
0.533620809586472
40
0.534482971168526
40
0.536207294332635
40
0.537069455914689
40
0.537931617496743
40
0.539655940660852
40
0.54138026382496
40
0.543104586989069
40
0.544828910153177
40
0.546553233317286
40
0.548277556481394
40
0.551726202809611
40
0.555174849137828
40
0.556899172301937
40
0.558623495466045
40
0.562072141794262
40
0.565520788122479
40
0.567245111286588
40
0.568969434450696
40
0.572418080778913
40
0.57586672710713
40
0.579315373435347
40
0.582764019763564
40
0.586212666091781
40
0.589661312419999
40
0.593109958748215
40
0.596558605076432
40
0.60000725140465
40
0.603455897732866
40
0.606904544061084
40
0.6103531903893
40
0.613801836717517
40
0.617250483045734
40
0.620699129373952
40
0.62242345253806
40
0.624147775702169
40
0.627596422030385
40
0.631045068358603
40
0.634493714686819
40
0.637942361015037
40
0.641391007343253
40
0.64483965367147
40
0.648288299999688
40
0.650012623163796
40
0.651736946327905
40
0.655185592656122
40
0.658634238984339
40
0.662082885312556
40
0.665531531640773
40
0.672428824297207
40
0.675877470625424
40
0.679326116953641
40
0.682774763281858
40
0.686223409610075
40
0.693120702266509
40
0.696569348594726
40
0.700017994922943
40
0.70346664125116
40
0.706915287579376
40
0.713812580235811
40
0.717261226564028
40
0.720709872892245
40
0.724158519220462
40
0.727607165548679
40
0.734504458205113
40
0.741401750861547
40
0.744850397189764
40
0.748299043517981
40
0.755196336174415
40
0.762093628830849
40
0.768990921487283
40
0.7724395678155
40
0.775888214143717
40
0.779336860471934
40
0.782785506800151
40
0.789682799456585
40
0.796580092113019
40
0.800028738441236
40
0.803477384769453
40
0.80692603109767
40
0.810374677425887
40
0.817271970082321
40
0.824169262738755
40
0.831066555395189
40
0.834515201723406
40
0.837963848051623
40
0.844861140708057
40
0.851758433364491
40
0.855207079692708
40
0.858655726020925
40
0.862104372349142
40
0.865553018677359
40
0.872450311333793
40
0.879347603990227
40
0.882796250318444
40
0.886244896646661
40
0.893142189303095
40
0.896590835631312
40
0.900039481959529
40
0.901763805123637
40
0.903488128287746
40
0.906936774615963
40
0.913834067272397
40
0.917282713600614
40
0.920731359928831
40
0.924180006257048
40
0.927628652585265
40
0.931077298913482
40
0.934525945241699
40
0.937974591569916
40
0.941423237898133
40
0.94487188422635
40
0.948320530554567
40
0.955217823211001
40
0.958666469539218
40
0.962115115867435
40
0.965563762195652
40
0.969012408523869
40
0.972461054852086
40
0.975909701180303
40
0.97935834750852
40
0.982806993836737
40
0.986255640164954
40
0.989704286493171
40
0.993152932821388
40
0.996601579149605
40
1
40
1
40
1
40
1
41
1
10
-1.99503997793928
20
-35.8251670518585
30
-1E-16
41
1
10
-1.99503997793928
20
-35.8252386945626
30
-1E-16
41
1
10
-1.99503997793931
20
-35.8249562657636
30
-1E-16
41
1
10
-1.99503997793928
20
-35.8232300538525
30
-1E-16
41
1
10
-1.99503997793928
20
-35.8201626633944
30
-1E-16
41
1
10
-1.99503997793928
20
-35.8143275520899
30
-1E-16
41
1
10
-1.99503997793928
20
-35.8038035395423
30
-1E-16
41
1
10
-1.99503997793928
20
-35.786103718398
30
-1E-16
41
1
10
-1.99503997793928
20
-35.763434753032
30
-1E-16
41
1
10
-1.99503997793928
20
-35.7358925640298
30
-1E-16
41
1
10
-1.99503997793928
20
-35.7035662791796
30
-1E-16
41
1
10
-1.99503997793928
20
-35.6665412784639
30
-1E-16
41
1
10
-1.99503997793928
20
-35.6248991978807
30
-1E-16
41
1
10
-1.99503997793928
20
-35.5787156149852
30
-1E-16
41
1
10
-1.99503997793928
20
-35.5280658411496
30
-1E-16
41
1
10
-1.99503997793928
20
-35.4730177383402
30
-1E-16
41
1
10
-1.99503997793928
20
-35.4136393963591
30
-1E-16
41
1
10
-1.99503997793928
20
-35.3499946094464
30
-1E-16
41
1
10
-1.99503997793928
20
-35.2821433047987
30
1E-16
41
1
10
-1.99503997793931
20
-35.2101443481799
30
1E-16
41
1
10
-1.99503997793931
20
-35.1340535550079
30
1E-16
41
1
10
-1.99503997793931
20
-35.0539244294382
30
0
41
1
10
-1.99503997793931
20
-34.9698083210839
30
0
41
1
10
-1.99503997793931
20
-34.8817544969816
30
0
41
1
10
-1.99503997793931
20
-34.7898102805557
30
0
41
1
10
-1.99503997793931
20
-34.6940212809506
30
1E-16
41
1
10
-1.99503997793931
20
-34.5944312751917
30
1E-16
41
1
10
-1.99503997793931
20
-34.4910822904624
30
-1E-16
41
1
10
-1.99503997793931
20
-34.3482948986979
30
-1E-16
41
1
10
-1.99503997793931
20
-34.1982444859641
30
-1E-16
41
1
10
-1.99503997793931
20
-34.0605701934049
30
-1E-16
41
1
10
-1.99503997793931
20
-33.98010670812
30
-1E-16
41
1
10
-1.99503997793931
20
-33.8984584677328
30
-1E-16
41
1
10
-1.99503997793931
20
-33.7942266244678
30
-1E-16
41
1
10
-1.99503997793931
20
-33.6227215100013
30
-1E-16
41
1
10
-1.99503997793931
20
-33.4443819493482
30
-1E-16
41
1
10
-1.99503997793931
20
-33.2591101879707
30
-1E-16
41
1
10
-1.99503997793931
20
-33.0693268620525
30
-1E-16
41
1
10
-1.99503997793931
20
-32.8237966604288
30
-1E-16
41
1
10
-1.99503997793931
20
-32.567262400264
30
-1E-16
41
1
10
-1.99503997793931
20
-32.3554556995001
30
-1E-16
41
1
10
-1.99503997793931
20
-32.1934025758849
30
-1E-16
41
1
10
-1.99503997793931
20
-32.0281430685794
30
-1E-16
41
1
10
-1.99503997793931
20
-31.803508135832
30
-1E-16
41
1
10
-1.99503997793931
20
-31.5149070210429
30
-1E-16
41
1
10
-1.99503997793931
20
-31.2159040588431
30
-1E-16
41
1
10
-1.99503997793931
20
-30.9704527178571
30
-1E-16
41
1
10
-1.99503997793931
20
-30.7209148294369
30
-1E-16
41
1
10
-1.99503997793931
20
-30.4014843150581
30
-1E-16
41
1
10
-1.99503997793931
20
-30.0060620312649
30
-1E-16
41
1
10
-1.99503997793931
20
-29.6666623731204
30
-1E-16
41
1
10
-1.99503997793931
20
-29.3891503890766
30
-1E-16
41
1
10
-1.99503997793931
20
-29.1781205774538
30
-1E-16
41
1
10
-1.99503997793931
20
-28.964169578493
30
-1E-16
41
1
10
-1.99503997793931
20
-28.6749709038125
30
-1E-16
41
1
10
-1.99503997793931
20
-28.3063605307707
30
-1E-16
41
1
10
-1.99503997793931
20
-27.9281887523049
30
-1E-16
41
1
10
-1.99503997793931
20
-27.6198572645245
30
-1E-16
41
1
10
-1.99503997793931
20
-27.3858182086698
30
-1E-16
41
1
10
-1.99503997793931
20
-27.1489558193583
30
-1E-16
41
1
10
-1.99503997793931
20
-26.8293292051835
30
-1E-16
41
1
10
-1.99503997793931
20
-26.4229269800761
30
-1E-16
41
1
10
-1.99503997793931
20
-25.9240385075183
30
-1E-16
41
1
10
-1.99503997793931
20
-25.4991460740629
30
-1E-16
41
1
10
-1.99503997793931
20
-25.1536176922536
30
-1E-16
41
1
10
-1.99503997793931
20
-24.8044353771775
30
-1E-16
41
1
10
-1.99503997793931
20
-24.3612782589387
30
-1E-16
41
1
10
-1.99503997793931
20
-23.9090605721076
30
-1E-16
41
1
10
-1.99503997793931
20
-23.5417479137996
30
-1E-16
41
1
10
-1.99503997793931
20
-23.2636185109001
30
-1E-16
41
1
10
-1.99503997793931
20
-22.9827956359495
30
-1E-16
41
1
10
-1.99503997793931
20
-22.6047071741367
30
-1E-16
41
1
10
-1.99503997793931
20
-22.2214812917415
30
-1E-16
41
1
10
-1.99503997793931
20
-21.8326778029793
30
-1E-16
41
1
10
-1.99503997793931
20
-21.538466032195
30
-1E-16
41
1
10
-1.99503997793931
20
-21.2415899298926
30
-1E-16
41
1
10
-1.99503997793931
20
-20.8421270565358
30
-1E-16
41
1
10
-1.99503997793931
20
-20.4375997068478
30
-1E-16
41
1
10
-1.99503997793931
20
-20.0275173382951
30
-1E-16
41
1
10
-1.99503997793931
20
-19.7173732272647
30
-1E-16
41
1
10
-1.99503997793931
20
-19.4045841229999
30
-1E-16
41
1
10
-1.99503997793931
20
-18.9839194912414
30
-1E-16
41
1
10
-1.99503997793931
20
-18.5582479543883
30
-1E-16
41
1
10
-1.99503997793931
20
-18.1270203682571
30
-1E-16
41
1
10
-1.99503997793931
20
-17.8010357300387
30
-1E-16
41
1
10
-1.99503997793931
20
-17.4724160404973
30
-1E-16
41
1
10
-1.99503997793931
20
-17.1964201976603
30
-1E-16
41
1
10
-1.99503997793931
20
-16.9742159130046
30
-1E-16
41
1
10
-1.99503997793931
20
-16.7511340488146
30
-1E-16
41
1
10
-1.99503997793931
20
-16.3584761888621
30
-1E-16
41
1
10
-1.99503997793931
20
-15.9047277931739
30
-1E-16
41
1
10
-1.99503997793931
20
-15.4453839893882
30
-1E-16
41
1
10
-1.99503997793931
20
-15.0983254904573
30
-1E-16
41
1
10
-1.99503997793931
20
-14.7486306960068
30
-1E-16
41
1
10
-1.99503997793931
20
-14.3962994527456
30
-1E-16
41
1
10
-1.99503997793931
20
-14.0413293344855
30
-1E-16
41
1
10
-1.99503997793931
20
-13.683719865638
30
-1E-16
41
1
10
-1.99503997793931
20
-13.3234688690064
30
-1E-16
41
1
10
-1.99503997793931
20
-12.960574817857
30
-1E-16
41
1
10
-1.99503997793931
20
-12.595036086484
30
-1E-16
41
1
10
-1.99503997793931
20
-12.2268504032845
30
-1E-16
41
1
10
-1.99503997793931
20
-11.8560164651631
30
-1E-16
41
1
10
-1.99503997793931
20
-11.5448487178991
30
-1E-16
41
1
10
-1.99503997793931
20
-11.2944582734028
30
-1E-16
41
1
10
-1.99503997793931
20
-11.0431853255423
30
-1E-16
41
1
10
-1.99503997793931
20
-10.7276055574807
30
-1E-16
41
1
10
-1.99503997793931
20
-10.3461604572555
30
-1E-16
41
1
10
-1.99503997793931
20
-9.96205939515545
30
-1E-16
41
1
10
-1.99503997793931
20
-9.57530319982877
30
-1E-16
41
1
10
-1.99503997793931
20
-9.25087630484828
30
-1E-16
41
1
10
-1.99503997793931
20
-8.98985104945214
30
-1E-16
41
1
10
-1.99503997793931
20
-8.72794364001862
30
-1E-16
41
1
10
-1.99503997793931
20
-8.46498324233687
30
-1E-16
41
1
10
-1.99503997793931
20
-8.20041755954972
30
-1E-16
41
1
10
-1.99503997793931
20
-7.93497342164284
30
-1E-16
41
1
10
-1.99503997793931
20
-7.60174006365557
30
-1E-16
41
1
10
-1.99503997793931
20
-7.26630760435378
30
-1E-16
41
1
10
-1.99503997793931
20
-6.99646231552359
30
-1E-16
41
1
10
-1.99503997793931
20
-6.7257499364033
30
-1E-16
41
1
10
-1.99503997793931
20
-6.38598399194689
30
-1E-16
41
1
10
-1.99503997793931
20
-6.0440571882672
30
-1E-16
41
1
10
-1.99503997793931
20
-5.76902086988602
30
-1E-16
41
1
10
-1.99503997793931
20
-5.56220360150749
30
-1E-16
41
1
10
-1.99503997793931
20
-5.35475597589533
30
-1E-16
41
1
10
-1.99503997793931
20
-5.14668271481384
30
-1E-16
41
1
10
-1.99503997793931
20
-4.93799065000763
30
-1E-16
41
1
10
-1.99503997793931
20
-4.76363710905446
30
-1E-16
41
1
10
-1.99503997793931
20
-4.62372539696355
30
-1E-16
41
1
10
-1.99503997793931
20
-4.48361577983206
30
-1E-16
41
1
10
-1.99503997793931
20
-4.34342549686542
30
-1E-16
41
1
10
-1.99503997793931
20
-4.20271764804272
30
-1E-16
41
1
10
-1.99503997793931
20
-4.06181812904794
30
-1E-16
41
1
10
-1.99503997793931
20
-3.8855085074218
30
-1E-16
41
1
10
-1.99503997793931
20
-3.7087243230406
30
-1E-16
41
1
10
-1.99503997793931
20
-3.56687681977306
30
-1E-16
41
1
10
-1.99503997793931
20
-3.46041866707625
30
-1E-16
41
1
10
-1.99503997793931
20
-3.35382635526125
30
-1E-16
41
1
10
-1.99503997793931
20
-3.24710174058401
30
-1E-16
41
1
10
-1.99503997793931
20
-3.14024803839368
30
-1E-16
41
1
10
-1.99503997793931
20
-3.03326805859808
30
-1E-16
41
1
10
-1.99503997793931
20
-2.92616291868399
30
-1E-16
41
1
10
-1.99503997793931
20
-2.78310305721487
30
-1E-16
41
1
10
-1.99503997793931
20
-2.60418785734106
30
-1E-16
41
1
10
-1.99503997793931
20
-2.38891915598521
30
-1E-16
41
1
10
-1.99503997793931
20
-2.17322083473795
30
-1E-16
41
1
10
-1.99503997793931
20
-1.95712119571593
30
-1E-16
41
1
10
-1.99503997793931
20
-1.77682922491971
30
-1E-16
41
1
10
-1.99503997793931
20
-1.63223932075869
30
-1E-16
41
1
10
-1.99503997793931
20
-1.52379768483641
30
-1E-16
41
1
10
-1.99503997793931
20
-1.41528063419042
30
-1E-16
41
1
10
-1.99503997793931
20
-1.27038903897372
30
-1E-16
41
1
10
-1.99503997793931
20
-1.08935866678002
30
-1E-16
41
1
10
-1.99503997793931
20
-0.908138052921174
30
-1E-16
41
1
10
-1.99503997793931
20
-0.762866902191803
30
-1E-16
41
1
10
-1.99503997793931
20
-0.653960641303343
30
-1E-16
41
1
10
-1.99503997793931
20
-0.545019960941005
30
-1E-16
41
1
10
-1.99503997793931
20
-0.399611433921848
30
-1E-16
41
1
10
-1.99503997793931
20
-0.254507243772451
30
-1E-16
41
1
10
-1.99503997793931
20
-0.109027220249999
30
-1E-16
41
1
10
-1.99503997793931
20
9.1374659E-09
30
-1E-16
41
1
10
-1.99503997793931
20
0.109027235983348
30
-1E-16
41
1
10
-1.99503997793931
20
0.254507260377665
30
-1E-16
41
1
10
-1.99503997793931
20
0.399611451538959
30
-1E-16
41
1
10
-1.99503997793931
20
0.545019973860889
30
-1E-16
41
1
10
-1.99503997793931
20
0.653960658723463
30
-1E-16
41
1
10
-1.99503997793931
20
0.76286692146644
30
-1E-16
41
1
10
-1.99503997793931
20
0.908138069364895
30
-1E-16
41
1
10
-1.99503997793931
20
1.08935868161845
30
-1E-16
41
1
10
-1.99503997793931
20
1.27038905366359
30
-1E-16
41
1
10
-1.99503997793931
20
1.41528065788859
30
-1E-16
41
1
10
-1.99503997793931
20
1.52379770019974
30
-1E-16
41
1
10
-1.99503997793931
20
1.63223933880323
30
-1E-16
41
1
10
-1.99503997793931
20
1.77682919806017
30
-1E-16
41
1
10
-1.99503997793931
20
1.92093491483612
30
-1E-16
41
1
10
-1.99503997793931
20
2.06516367446019
30
-1E-16
41
1
10
-1.99503997793931
20
2.20926559475362
30
-1E-16
41
1
10
-1.99503997793931
20
2.35286670982623
30
-1E-16
41
1
10
-1.99503997793931
20
2.49654581237678
30
-1E-16
41
1
10
-1.99503997793931
20
2.60412375528313
30
-1E-16
41
1
10
-1.99503997793931
20
2.71158686216666
30
-1E-16
41
1
10
-1.99503997793931
20
2.81893418131361
30
-1E-16
41
1
10
-1.99503997793931
20
2.92616259642287
30
-1E-16
41
1
10
-1.99503997793931
20
3.06906085087897
30
-1E-16
41
1
10
-1.99503997793931
20
3.21144324089971
30
-1E-16
41
1
10
-1.99503997793931
20
3.35382641814789
30
-1E-16
41
1
10
-1.99503997793931
20
3.4604186809762
30
-1E-16
41
1
10
-1.99503997793931
20
3.56687680853713
30
-1E-16
41
1
10
-1.99503997793931
20
3.70872432201037
30
-1E-16
41
1
10
-1.99503997793931
20
3.88550853751431
30
-1E-16
41
1
10
-1.99503997793931
20
4.06181816740792
30
-1E-16
41
1
10
-1.99503997793931
20
4.20271766259083
30
-1E-16
41
1
10
-1.99503997793931
20
4.34342548405567
30
-1E-16
41
1
10
-1.99503997793931
20
4.48361575507573
30
-1E-16
41
1
10
-1.99503997793931
20
4.62372538326241
30
-1E-16
41
1
10
-1.99503997793931
20
4.76363712095312
30
-1E-16
41
1
10
-1.99503997793931
20
4.93799069007395
30
-1E-16
41
1
10
-1.99503997793931
20
5.14668274769548
30
-1E-16
41
1
10
-1.99503997793931
20
5.35475597096192
30
-1E-16
41
1
10
-1.99503997793931
20
5.56220357677805
30
-1E-16
41
1
10
-1.99503997793931
20
5.76902086592727
30
-1E-16
41
1
10
-1.99503997793931
20
6.04405722561486
30
-1E-16
41
1
10
-1.99503997793931
20
6.38598402190891
30
-1E-16
41
1
10
-1.99503997793931
20
6.72574990920415
30
-1E-16
41
1
10
-1.99503997793931
20
6.99646231662956
30
-1E-16
41
1
10
-1.99503997793931
20
7.26630764015115
30
-1E-16
41
1
10
-1.99503997793931
20
7.60174008666431
30
-1E-16
41
1
10
-1.99503997793931
20
7.93497336561654
30
-1E-16
41
1
10
-1.99503997793931
20
8.20041752296069
30
-1E-16
41
1
10
-1.99503997793931
20
8.46498321367619
30
-1E-16
41
1
10
-1.99503997793931
20
8.79382593589912
30
-1E-16
41
1
10
-1.99503997793931
20
9.18589158918718
30
-1E-16
41
1
10
-1.99503997793931
20
9.57530335790582
30
-1E-16
41
1
10
-1.99503997793931
20
9.96205972428268
30
-1E-16
41
1
10
-1.99503997793931
20
10.3461602965628
30
-1E-16
41
1
10
-1.99503997793931
20
10.7276051607687
30
-1E-16
41
1
10
-1.99503997793931
20
11.1063953922263
30
-1E-16
41
1
10
-1.99503997793931
20
11.4825318141738
30
-1E-16
41
1
10
-1.99503997793931
20
11.85601645061
30
-1E-16
41
1
10
-1.99503997793931
20
12.2268503778689
30
-1E-16
41
1
10
-1.99503997793931
20
12.5950360925706
30
-1E-16
41
1
10
-1.99503997793931
20
12.9605748020561
30
-1E-16
41
1
10
-1.99503997793931
20
13.3234688579879
30
-1E-16
41
1
10
-1.99503997793931
20
13.6837198698814
30
-1E-16
41
1
10
-1.99503997793931
20
13.9816645441138
30
-1E-16
41
1
10
-1.99503997793931
20
14.2188112194045
30
-1E-16
41
1
10
-1.99503997793931
20
14.455079118457
30
-1E-16
41
1
10
-1.99503997793931
20
14.7486309197531
30
-1E-16
41
1
10
-1.99503997793931
20
15.0983253104253
30
-1E-16
41
1
10
-1.99503997793931
20
15.4453840138399
30
-1E-16
41
1
10
-1.99503997793931
20
15.7898077032214
30
-1E-16
41
1
10
-1.99503997793931
20
16.1315968939283
30
-1E-16
41
1
10
-1.99503997793931
20
16.4707522036702
30
-1E-16
41
1
10
-1.99503997793931
20
16.7511340559088
30
-1E-16
41
1
10
-1.99503997793931
20
16.9742159134664
30
-1E-16
41
1
10
-1.99503997793931
20
17.1964202003686
30
-1E-16
41
1
10
-1.99503997793931
20
17.4724160483816
30
-1E-16
41
1
10
-1.99503997793931
20
17.8010357340039
30
-1E-16
41
1
10
-1.99503997793931
20
18.1270203733511
30
-1E-16
41
1
10
-1.99503997793931
20
18.5582479712653
30
-1E-16
41
1
10
-1.99503997793931
20
18.983919492224
30
-1E-16
41
1
10
-1.99503997793931
20
19.4045841348166
30
-1E-16
41
1
10
-1.99503997793931
20
19.7173732218513
30
-1E-16
41
1
10
-1.99503997793931
20
20.0275173509219
30
-1E-16
41
1
10
-1.99503997793931
20
20.4375997139134
30
-1E-16
41
1
10
-1.99503997793931
20
20.8421270630884
30
-1E-16
41
1
10
-1.99503997793931
20
21.2415899372622
30
-1E-16
41
1
10
-1.99503997793931
20
21.5384660281962
30
-1E-16
41
1
10
-1.99503997793931
20
21.8326778142531
30
-1E-16
41
1
10
-1.99503997793931
20
22.2214812963055
30
-1E-16
41
1
10
-1.99503997793931
20
22.6047071794768
30
-1E-16
41
1
10
-1.99503997793931
20
22.9827956431365
30
-1E-16
41
1
10
-1.99503997793931
20
23.2636185073191
30
-1E-16
41
1
10
-1.99503997793931
20
23.5417479211438
30
-1E-16
41
1
10
-1.99503997793931
20
23.9090605798748
30
-1E-16
41
1
10
-1.99503997793931
20
24.3612782608926
30
-1E-16
41
1
10
-1.99503997793931
20
24.8044353773024
30
-1E-16
41
1
10
-1.99503997793931
20
25.1536176941803
30
-1E-16
41
1
10
-1.99503997793931
20
25.4991460823892
30
-1E-16
41
1
10
-1.99503997793931
20
25.9240385032945
30
-1E-16
41
1
10
-1.99503997793931
20
26.4229269838674
30
-1E-16
41
1
10
-1.99503997793931
20
26.8293292074653
30
-1E-16
41
1
10
-1.99503997793931
20
27.1489558217171
30
-1E-16
41
1
10
-1.99503997793931
20
27.3858182074443
30
-1E-16
41
1
10
-1.99503997793931
20
27.6198572656328
30
-1E-16
41
1
10
-1.99503997793931
20
27.9281887547298
30
-1E-16
41
1
10
-1.99503997793931
20
28.306360528673
30
-1E-16
41
1
10
-1.99503997793931
20
28.6749709053452
30
-1E-16
41
1
10
-1.99503997793931
20
28.9641695771706
30
-1E-16
41
1
10
-1.99503997793931
20
29.1781205760016
30
-1E-16
41
1
10
-1.99503997793931
20
29.3891503898005
30
-1E-16
41
1
10
-1.99503997793931
20
29.6666623719011
30
-1E-16
41
1
10
-1.99503997793931
20
30.0060620316198
30
-1E-16
41
1
10
-1.99503997793931
20
30.4014843078869
30
-1E-16
41
1
10
-1.99503997793931
20
30.720914832824
30
-1E-16
41
1
10
-1.99503997793931
20
30.9704527129577
30
-1E-16
41
1
10
-1.99503997793931
20
31.2159040534273
30
-1E-16
41
1
10
-1.99503997793931
20
31.5149070177094
30
-1E-16
41
1
10
-1.99503997793931
20
31.8035081361274
30
-1E-16
41
1
10
-1.99503997793931
20
32.0281430662551
30
-1E-16
41
1
10
-1.99503997793931
20
32.1934025642943
30
-1E-16
41
1
10
-1.99503997793931
20
32.3554556997831
30
-1E-16
41
1
10
-1.99503997793931
20
32.5672623983938
30
-1E-16
41
1
10
-1.99503997793931
20
32.8237966601455
30
-1E-16
41
1
10
-1.99503997793931
20
33.0693268459332
30
-1E-16
41
1
10
-1.99503997793931
20
33.2591101848391
30
-1E-16
41
1
10
-1.99503997793931
20
33.4443819491762
30
-1E-16
41
1
10
-1.99503997793931
20
33.622721506097
30
-1E-16
41
1
10
-1.99503997793931
20
33.7942266163982
30
-1E-16
41
1
10
-1.99503997793931
20
33.8984584538254
30
-1E-16
41
1
10
-1.99503997793931
20
33.9801066971493
30
-1E-16
41
1
10
-1.99503997793931
20
34.0605701909876
30
-1E-16
41
1
10
-1.99503997793931
20
34.1982444851696
30
-1E-16
41
1
10
-1.99503997793931
20
34.348294891195
30
-1E-16
41
1
10
-1.99503997793931
20
34.4910822889059
30
-1E-16
41
1
10
-1.99503997793931
20
34.5944312514431
30
1E-16
41
1
10
-1.99503997793931
20
34.6940212865371
30
1E-16
41
1
10
-1.99503997793931
20
34.7898102716018
30
0
41
1
10
-1.99503997793931
20
34.8817544739769
30
0
41
1
10
-1.99503997793931
20
34.9698083299964
30
0
41
1
10
-1.99503997793931
20
35.0539245925552
30
0
41
1
10
-1.99503997793931
20
35.1340530052702
30
1E-16
41
1
10
-1.99503997793931
20
35.2101447225725
30
1E-16
41
1
10
-1.99503997793928
20
35.3061643717786
30
-1E-16
41
1
10
-1.99503997793928
20
35.393827084185
30
-1E-16
41
1
10
-1.99503997793928
20
35.473017757568
30
-1E-16
41
1
10
-1.99503997793928
20
35.5280658263188
30
-1E-16
41
1
10
-1.99503997793928
20
35.5787156824351
30
-1E-16
41
1
10
-1.99503997793928
20
35.6248991716382
30
-1E-16
41
1
10
-1.99503997793928
20
35.6665413308515
30
-1E-16
41
1
10
-1.99503997793928
20
35.7035662864511
30
-1E-16
41
1
10
-1.99503997793928
20
35.7358925782286
30
-1E-16
41
1
10
-1.99503997793928
20
35.7634347985348
30
-1E-16
41
1
10
-1.99503997793928
20
35.7861037017736
30
-1E-16
41
1
10
-1.99503997793928
20
35.8038036057849
30
-1E-16
41
1
10
-1.99503997793928
20
35.8164351684488
30
-1E-16
41
1
10
-1.99503997793928
20
35.823855339887
30
-1E-16
41
1
10
-1.99503997793931
20
35.8253165452531
30
-1E-16
41
1
10
-1.99503997793934
20
35.8251669559704
30
-1E-16
0
SPLINE
5
D1
100
AcDbEntity
8
SK1
62
256
6
ByLayer
370
18
48
1
60
0
100
AcDbSpline
70
4
71
3
72
24
73
20
40
0
40
0
40
0
40
0
40
0.249999999999999
40
0.249999999999999
40
0.312499999999999
40
0.312499999999999
40
0.374999999999999
40
0.374999999999999
40
0.499999999999999
40
0.499999999999999
40
0.624999999999999
40
0.624999999999999
40
0.749999999999999
40
0.749999999999999
40
0.812499999999999
40
0.812499999999999
40
0.874999999999999
40
0.874999999999999
40
1
40
1
40
1
40
1
41
1
10
-1.30710678118655
20
4.60538005832737
30
-1E-16
41
1
10
-1.4344509556569
20
3.85978933676722
30
-1E-16
41
1
10
-1.54387892248147
20
3.10383348780141
30
-1E-16
41
1
10
-1.64182277486117
20
2.14038734740561
30
-1E-16
41
1
10
-1.65943153712075
20
1.94675919611092
30
-1E-16
41
1
10
-1.69016128102569
20
1.55744142286929
30
-1E-16
41
1
10
-1.70329012775193
20
1.36146410626921
30
-1E-16
41
1
10
-1.73493134584368
20
0.775190730927392
30
-1E-16
41
1
10
-1.74573673637374
20
0.385182075791505
30
-1E-16
41
1
10
-1.7455909177946
20
-0.393092212237576
30
-1E-16
41
1
10
-1.73464574767848
20
-0.781358231864118
30
-1E-16
41
1
10
-1.69272967974095
20
-1.55625432464242
30
-1E-16
41
1
10
-1.66183533058273
20
-1.94288898079074
30
-1E-16
41
1
10
-1.60308307844801
20
-2.52176892060308
30
-1E-16
41
1
10
-1.58142702957949
20
-2.7145558654193
30
-1E-16
41
1
10
-1.5347216164075
20
-3.09756881527213
30
-1E-16
41
1
10
-1.50964113138207
20
-3.28809225111144
30
-1E-16
41
1
10
-1.42989928264956
20
-3.85698267981991
30
-1E-16
41
1
10
-1.37076249597754
20
-4.23268030289688
30
-1E-16
41
1
10
-1.30710678119237
20
-4.60538003003171
30
-1E-16
0
SPLINE
5
D2
100
AcDbEntity
8
SK1
62
256
6
ByLayer
370
18
48
1
60
0
100
AcDbSpline
70
4
71
3
72
24
73
20
40
0
40
0
40
0
40
0
40
0.25
40
0.25
40
0.5
40
0.5
40
0.625
40
0.625
40
0.75
40
0.75
40
0.812499999999999
40
0.812499999999999
40
0.874999999999999
40
0.874999999999999
40
0.906249999999998
40
0.906249999999998
40
0.937499999999996
40
0.937499999999996
40
1
40
1
40
1
40
1
41
1
10
-0.199999999999989
20
-6.83961978441499
30
0
41
1
10
-0.199999999999989
20
-6.77266365744984
30
0
41
1
10
-0.20138257261695
20
-6.70565659874694
30
0
41
1
10
-0.20797797220817
20
-6.57153390296776
30
0
41
1
10
-0.213104017709441
20
-6.50438623378952
30
0
41
1
10
-0.225863327175603
20
-6.40368599150972
30
0
41
1
10
-0.230960199961146
20
-6.37022262623043
30
0
41
1
10
-0.243909322930989
20
-6.30365027444694
30
0
41
1
10
-0.251695140322795
20
-6.2704667975288
30
0
41
1
10
-0.267365003958787
20
-6.22224043421213
30
0
41
1
10
-0.273258792574552
20
-6.20639762175682
30
0
41
1
10
-0.287575041851994
20
-6.17559244970448
30
0
41
1
10
-0.296025423984332
20
-6.16029740280644
30
0
41
1
10
-0.312745147160371
20
-6.14053723214866
30
0
41
1
10
-0.318964396069816
20
-6.13456921276233
30
0
41
1
10
-0.333306743992125
20
-6.12532418760179
30
0
41
1
10
-0.341564173961871
20
-6.12220353729688
30
0
41
1
10
-0.366640590815507
20
-6.12048722824943
30
0
41
1
10
-0.382359877230186
20
-6.12921276185213
30
0
41
1
10
-0.394976888875504
20
-6.14029722152824
30
0
0
LINE
5
72
100
AcDbEntity
8
81
62
256
6
ByLayer
370
18
48
1
60
0
100
AcDbLine
10
90
20
0
30
0
11
92.367097
21
0
31
0
39
0
210
0
220
0
230
1
0
LINE
5
73
100
AcDbEntity
8
1
62
256
6
ByLayer
370
18
48
1
60
0
100
AcDbLine
10
0.3
20
50
30
0
11
0
21
49.7
31
0
39
0
210
0
220
0
230
1
0
LINE
5
74
100
AcDbEntity
8
80
62
256
6
ByLayer
370
18
48
1
60
0
100
AcDbLine
10
0
20
0
30
0
11
-6.08897
21
0
31
0
39
0
210
0
220
0
230
1
0
LINE
5
75
100
AcDbEntity
8
4
62
256
6
ByLayer
370
18
48
0.05
60
0
100
AcDbLine
10
0
20
0
30
0
11
90
21
0
31
0
39
0
210
0
220
0
230
1
0
LINE
5
77
100
AcDbEntity
8
1
62
256
6
ByLayer
370
18
48
1
60
0
100
AcDbLine
10
0
20
-49.7
30
0
11
0.3
21
-50
31
0
39
0
210
0
220
0
230
1
0
LINE
5
78
100
AcDbEntity
8
1
62
256
6
ByLayer
370
18
48
1
60
0
100
AcDbLine
10
36.959981
20
-49.409049
30
0
11
44.3
21
-22.295836
31
0
39
0
210
0
220
0
230
1
0
LINE
5
79
100
AcDbEntity
8
1
62
256
6
ByLayer
370
18
48
1
60
0
100
AcDbLine
10
44.3
20
22.295836
30
0
11
36.959981
21
49.409049
31
0
39
0
210
0
220
0
230
1
0
LINE
5
7A
100
AcDbEntity
8
1
62
256
6
ByLayer
370
18
48
1
60
0
100
AcDbLine
10
47.3
20
-20
30
0
11
89.7
21
-20
31
0
39
0
210
0
220
0
230
1
0
LINE
5
7B
100
AcDbEntity
8
1
62
256
6
ByLayer
370
18
48
1
60
0
100
AcDbLine
10
89.7
20
20
30
0
11
47.3
21
20
31
0
39
0
210
0
220
0
230
1
0
LINE
5
7C
100
AcDbEntity
8
1
62
256
6
ByLayer
370
18
48
1
60
0
100
AcDbLine
10
89.7
20
-20
30
0
11
90
21
-19.7
31
0
39
0
210
0
220
0
230
1
0
LINE
5
7D
100
AcDbEntity
8
1
62
256
6
ByLayer
370
18
48
1
60
0
100
AcDbLine
10
90
20
19.7
30
0
11
89.7
21
20
31
0
39
0
210
0
220
0
230
1
0
LINE
5
7E
100
AcDbEntity
8
SK1
62
256
6
ByLayer
370
18
48
1
60
0
100
AcDbLine
10
92.9
20
-7
30
0
11
94.1
21
-5.8
31
0
39
0
210
0
220
0
230
1
0
LINE
5
80
100
AcDbEntity
8
SK1
62
256
6
ByLayer
370
18
48
1
60
0
100
AcDbLine
10
94.1
20
5.8
30
0
11
92.9
21
7
31
0
39
0
210
0
220
0
230
1
0
LINE
5
81
100
AcDbEntity
8
SK1
62
256
6
ByLayer
370
18
48
1
60
0
100
AcDbLine
10
92.9
20
7
30
0
11
90
21
7
31
0
39
0
210
0
220
0
230
1
0
LINE
5
82
100
AcDbEntity
8
SK1
62
256
6
ByLayer
370
18
48
1
60
0
100
AcDbLine
10
90
20
-7
30
0
11
92.9
21
-7
31
0
39
0
210
0
220
0
230
1
0
LINE
5
83
100
AcDbEntity
8
1
62
256
6
ByLayer
370
18
48
1
60
0
100
AcDbLine
10
0.3
20
-50
30
0
11
36.187777
21
-50
31
0
39
0
210
0
220
0
230
1
0
LINE
5
84
100
AcDbEntity
8
1
62
256
6
ByLayer
370
18
48
1
60
0
100
AcDbLine
10
36.187777
20
50
30
0
11
0.3
21
50
31
0
39
0
210
0
220
0
230
1
0
LINE
5
85
100
AcDbEntity
8
SK4
62
256
6
ByLayer
370
18
48
0.05
60
0
100
AcDbLine
10
-65
20
0
30
0
11
95
21
0
31
0
39
0
210
0
220
0
230
1
0
LINE
5
87
100
AcDbEntity
8
1
62
256
6
ByLayer
370
18
48
1
60
0
100
AcDbLine
10
0
20
0
30
0
11
0
21
49.7
31
0
39
0
210
0
220
0
230
1
0
LINE
5
88
100
AcDbEntity
8
1
62
256
6
ByLayer
370
18
48
1
60
0
100
AcDbLine
10
0
20
-49.7
30
0
11
0
21
0
31
0
39
0
210
0
220
0
230
1
0
LINE
5
89
100
AcDbEntity
8
SK1
62
256
6
ByLayer
370
18
48
1
60
0
100
AcDbLine
10
-0.2
20
6.83962
30
0
11
-0.2
21
37.983485
31
0
39
0
210
0
220
0
230
1
0
LINE
5
8A
100
AcDbEntity
8
1
62
256
6
ByLayer
370
13
48
1
60
0
100
AcDbLine
10
36.187777
20
0
30
0
11
36.187777
21
50
31
0
39
0
210
0
220
0
230
1
0
LINE
5
8B
100
AcDbEntity
8
1
62
256
6
ByLayer
370
13
48
1
60
0
100
AcDbLine
10
36.187777
20
-50
30
0
11
36.187777
21
0
31
0
39
0
210
0
220
0
230
1
0
LINE
5
8C
100
AcDbEntity
8
1
62
256
6
ByLayer
370
18
48
1
60
0
100
AcDbLine
10
89.7
20
0
30
0
11
89.7
21
20
31
0
39
0
210
0
220
0
230
1
0
LINE
5
8D
100
AcDbEntity
8
1
62
256
6
ByLayer
370
18
48
1
60
0
100
AcDbLine
10
89.7
20
-20
30
0
11
89.7
21
0
31
0
39
0
210
0
220
0
230
1
0
LINE
5
8E
100
AcDbEntity
8
SK1
62
256
6
ByLayer
370
18
48
1
60
0
100
AcDbLine
10
92.9
20
-7
30
0
11
92.9
21
7
31
0
39
0
210
0
220
0
230
1
0
LINE
5
8F
100
AcDbEntity
8
1
62
256
6
ByLayer
370
18
48
1
60
0
100
AcDbLine
10
18.211325
20
14.993155
30
0
11
13.788675
21
14.993155
31
0
39
0
210
0
220
0
230
1
0
LINE
5
90
100
AcDbEntity
8
1
62
256
6
ByLayer
370
18
48
1
60
0
100
AcDbLine
10
13.788675
20
47.699112
30
0
11
18.211325
21
47.699112
31
0
39
0
210
0
220
0
230
1
0
LINE
5
91
100
AcDbEntity
8
1
62
256
6
ByLayer
370
18
48
1
60
0
100
AcDbLine
10
18.211325
20
-47.699112
30
0
11
13.788675
21
-47.699112
31
0
39
0
210
0
220
0
230
1
0
LINE
5
92
100
AcDbEntity
8
1
62
256
6
ByLayer
370
18
48
1
60
0
100
AcDbLine
10
13.788675
20
-14.993155
30
0
11
18.211325
21
-14.993155
31
0
39
0
210
0
220
0
230
1
0
LINE
5
93
100
AcDbEntity
8
1
62
256
6
ByLayer
370
13
48
1
60
0
100
AcDbLine
10
36.959981
20
49.409049
30
0
11
36.959981
21
-49.409049
31
0
39
0
210
0
220
0
230
1
0
LINE
5
94
100
AcDbEntity
8
1
62
256
6
ByLayer
370
13
48
1
60
0
100
AcDbLine
10
44.3
20
0
30
0
11
44.3
21
22.295836
31
0
39
0
210
0
220
0
230
1
0
LINE
5
95
100
AcDbEntity
8
1
62
256
6
ByLayer
370
13
48
1
60
0
100
AcDbLine
10
44.3
20
-22.295836
30
0
11
44.3
21
0
31
0
39
0
210
0
220
0
230
1
0
LINE
5
96
100
AcDbEntity
8
1
62
256
6
ByLayer
370
13
48
1
60
0
100
AcDbLine
10
13.788675
20
-14.993155
30
0
11
13.788675
21
-47.699112
31
0
39
0
210
0
220
0
230
1
0
LINE
5
97
100
AcDbEntity
8
1
62
256
6
ByLayer
370
13
48
1
60
0
100
AcDbLine
10
13.355662
20
-15.513346
30
0
11
13.355662
21
-47.532474
31
0
39
0
210
0
220
0
230
1
0
LINE
5
98
100
AcDbEntity
8
1
62
256
6
ByLayer
370
13
48
1
60
0
100
AcDbLine
10
18.644338
20
47.532474
30
0
11
18.644338
21
15.513346
31
0
39
0
210
0
220
0
230
1
0
LINE
5
99
100
AcDbEntity
8
1
62
256
6
ByLayer
370
13
48
1
60
0
100
AcDbLine
10
18.211325
20
47.699112
30
0
11
18.211325
21
14.993155
31
0
39
0
210
0
220
0
230
1
0
LINE
5
9A
100
AcDbEntity
8
1
62
256
6
ByLayer
370
13
48
1
60
0
100
AcDbLine
10
13.788675
20
47.699112
30
0
11
13.788675
21
14.993155
31
0
39
0
210
0
220
0
230
1
0
LINE
5
9B
100
AcDbEntity
8
1
62
256
6
ByLayer
370
13
48
1
60
0
100
AcDbLine
10
13.355662
20
47.532474
30
0
11
13.355662
21
15.513346
31
0
39
0
210
0
220
0
230
1
0
LINE
5
9C
100
AcDbEntity
8
1
62
256
6
ByLayer
370
13
48
1
60
0
100
AcDbLine
10
18.644338
20
-15.513346
30
0
11
18.644338
21
-47.532474
31
0
39
0
210
0
220
0
230
1
0
LINE
5
9D
100
AcDbEntity
8
1
62
256
6
ByLayer
370
13
48
1
60
0
100
AcDbLine
10
18.211325
20
-14.993155
30
0
11
18.211325
21
-47.699112
31
0
39
0
210
0
220
0
230
1
0
LINE
5
9E
100
AcDbEntity
8
SK1
62
256
6
ByLayer
370
13
48
1
60
0
100
AcDbLine
10
-1.307107
20
-4.60538
30
0
11
-1.307107
21
4.60538
31
0
39
0
210
0
220
0
230
1
0
LINE
5
9F
100
AcDbEntity
8
1
62
256
6
ByLayer
370
18
48
1
60
0
100
AcDbLine
10
90
20
0
30
0
11
90
21
19.7
31
0
39
0
210
0
220
0
230
1
0
LINE
5
A0
100
AcDbEntity
8
1
62
256
6
ByLayer
370
18
48
1
60
0
100
AcDbLine
10
90
20
-19.7
30
0
11
90
21
0
31
0
39
0
210
0
220
0
230
1
0
LINE
5
A1
100
AcDbEntity
8
1
62
256
6
ByLayer
370
13
48
1
60
0
100
AcDbLine
10
47.3
20
0
30
0
11
47.3
21
20
31
0
39
0
210
0
220
0
230
1
0
LINE
5
A2
100
AcDbEntity
8
1
62
256
6
ByLayer
370
13
48
1
60
0
100
AcDbLine
10
47.3
20
-20
30
0
11
47.3
21
0
31
0
39
0
210
0
220
0
230
1
0
LINE
5
A3
100
AcDbEntity
8
SK1
62
256
6
ByLayer
370
18
48
1
60
0
100
AcDbLine
10
-0.2
20
-37.983485
30
0
11
-0.2
21
-6.83962
31
0
39
0
210
0
220
0
230
1
0
LINE
5
A4
100
AcDbEntity
8
SK1
62
256
6
ByLayer
370
18
48
1
60
0
100
AcDbLine
10
94.1
20
-5.8
30
0
11
94.1
21
5.8
31
0
39
0
210
0
220
0
230
1
0
LINE
5
A5
100
AcDbEntity
8
1
62
256
6
ByLayer
370
18
48
1
60
0
100
AcDbLine
10
0.3
20
0
30
0
11
0.3
21
50
31
0
39
0
210
0
220
0
230
1
0
LINE
5
A6
100
AcDbEntity
8
1
62
256
6
ByLayer
370
18
48
1
60
0
100
AcDbLine
10
0.3
20
-50
30
0
11
0.3
21
0
31
0
39
0
210
0
220
0
230
1
0
MTEXT
5
D3
100
AcDbEntity
8
SK6
62
256
6
ByLayer
370
18
48
1
60
0
100
AcDbMText
10
0.875
20
-65.875
30
0
210
0
220
0
230
1
1
\W0.7157;C10-391.02-40090
40
3.5
41
0
44
1.084337
50
0
71
7
72
5
7
iso_b_vert
0
DIMENSION
5
E1
100
AcDbEntity
8
SK2
62
256
6
ByLayer
370
13
48
1
60
0
100
AcDbDimension
2
DimnDraft3D1
10
36
20
56.6
30
0
11
15.955263
21
56.6
31
0
70
32
71
5
72
1
41
1
210
0
220
0
230
1
3
Standard
100
AcDbAlignedDimension
13
0
23
51.5875
33
0
14
36
24
51.5875
34
0
50
0
100
AcDbRotatedDimension
1001
ACAD
1000
DSTYLE
1002
{
1070
   279
1070
     0
1070
   172
1070
     1
1070
   173
1070
     1
1070
   340
1005
D4
1070
   271
1070
     1
1070
   272
1070
     2
1070
    77
1070
     1
1070
    73
1070
     0
1070
   171
1070
     3
1070
   274
1070
     4
1070
   177
1070
     2
1070
   176
1070
     2
1070
   178
1070
     2
1070
    78
1070
     8
1070
    48
1040
-0.005
1070
    41
1041
3.5
1070
   147
1041
1.75
1070
    42
1041
1.5875
1070
    44
1041
2.0
1070
   140
1041
3.5
1070
   343
1005
0
1070
   344
1005
0
1002
}
0
DIMENSION
5
EB
100
AcDbEntity
8
SK2
62
256
6
ByLayer
370
13
48
1
60
0
100
AcDbDimension
2
DimnDraft3D2
10
47.3
20
66.6
30
0
11
64.542105
21
66.6
31
0
70
32
71
5
72
1
41
1
210
0
220
0
230
1
3
Standard
100
AcDbAlignedDimension
13
90
23
21.5875
33
0
14
47.3
24
21.5875
34
0
50
0
100
AcDbRotatedDimension
1001
ACAD
1000
DSTYLE
1002
{
1070
   279
1070
     0
1070
   172
1070
     1
1070
   173
1070
     1
1070
   340
1005
D4
1070
   271
1070
     1
1070
   272
1070
     2
1070
    77
1070
     1
1070
    73
1070
     0
1070
   171
1070
     3
1070
   274
1070
     4
1070
   177
1070
     2
1070
   176
1070
     2
1070
   178
1070
     2
1070
    78
1070
     8
1070
    48
1040
-0.005
1070
    41
1041
3.5
1070
   147
1041
1.75
1070
    42
1041
1.5875
1070
    44
1041
2.0
1070
   140
1041
3.5
1070
   343
1005
0
1070
   344
1005
0
1002
}
0
DIMENSION
5
F6
100
AcDbEntity
8
2
62
256
6
ByLayer
370
13
48
1
60
0
100
AcDbDimension
2
DimnDraft3D3
10
0
20
76.6
30
0
11
42.955263
21
76.6
31
0
70
32
71
5
72
1
41
1
210
0
220
0
230
1
3
Standard
100
AcDbAlignedDimension
13
90
23
21.5875
33
0
14
0
24
51.5875
34
0
50
0
100
AcDbRotatedDimension
1001
ACAD
1000
DSTYLE
1002
{
1070
   279
1070
     0
1070
   172
1070
     1
1070
   173
1070
     1
1070
   340
1005
D4
1070
   271
1070
     1
1070
   272
1070
     2
1070
    77
1070
     1
1070
    73
1070
     0
1070
   171
1070
     3
1070
   274
1070
     4
1070
   177
1070
     2
1070
   176
1070
     2
1070
   178
1070
     2
1070
    78
1070
     8
1070
    48
1040
-0.005
1070
    41
1041
3.5
1070
   147
1041
1.75
1070
    42
1041
1.5875
1070
    44
1041
2.0
1070
   140
1041
3.5
1070
   343
1005
0
1070
   344
1005
0
1002
}
0
DIMENSION
5
100
100
AcDbEntity
8
SK2
62
256
6
ByLayer
370
13
48
1
60
0
100
AcDbDimension
2
DimnDraft3D4
10
0
20
76.6
30
0
11
-32.090789
21
76.6
31
0
70
32
71
5
72
1
41
1
210
0
220
0
230
1
3
Standard
100
AcDbAlignedDimension
13
-60
23
37.5875
33
0
14
0
24
51.5875
34
0
50
0
100
AcDbRotatedDimension
1001
ACAD
1000
DSTYLE
1002
{
1070
   279
1070
     0
1070
   172
1070
     1
1070
   173
1070
     1
1070
   340
1005
D4
1070
   271
1070
     1
1070
   272
1070
     2
1070
    77
1070
     1
1070
    73
1070
     0
1070
   171
1070
     3
1070
   274
1070
     4
1070
   177
1070
     2
1070
   176
1070
     2
1070
   178
1070
     2
1070
    78
1070
     8
1070
    48
1040
-0.005
1070
    41
1041
3.5
1070
   147
1041
1.75
1070
    42
1041
1.5875
1070
    44
1041
2.0
1070
   140
1041
3.5
1070
   343
1005
0
1070
   344
1005
0
1002
}
0
DIMENSION
5
10B
100
AcDbEntity
8
SK2
62
256
6
ByLayer
370
13
48
1
60
0
100
AcDbDimension
2
DimnDraft3D5
10
-83.6
20
-50
30
0
11
-84.225
21
0.607895
31
0
70
33
71
5
72
1
41
1
210
0
220
0
230
1
3
Standard
100
AcDbAlignedDimension
13
-1.5875
23
50
33
0
14
-1.5875
24
-50
34
0
1001
ACAD
1000
DSTYLE
1002
{
1070
   279
1070
     0
1070
    74
1070
     0
1070
   173
1070
     1
1070
   340
1005
D4
1070
   271
1070
     1
1070
   272
1070
     2
1070
    77
1070
     1
1070
    73
1070
     0
1070
   171
1070
     3
1070
   274
1070
     4
1070
   177
1070
     2
1070
   176
1070
     2
1070
   178
1070
     2
1070
    78
1070
     8
1070
    48
1040
-0.005
1070
    41
1041
3.5
1070
   147
1041
1.75
1070
    42
1041
1.5875
1070
    44
1041
2.0
1070
   140
1041
3.5
1070
   343
1005
0
1070
   344
1005
0
1002
}
0
DIMENSION
5
116
100
AcDbEntity
8
SK2
62
256
6
ByLayer
370
13
48
1
60
0
100
AcDbDimension
2
DimnDraft3D6
10
117.1
20
-20
30
0
11
112.475
21
1.271053
31
0
70
33
71
5
72
1
41
1
210
0
220
0
230
1
3
Standard
100
AcDbAlignedDimension
13
91.5875
23
20
33
0
14
91.5875
24
-20
34
0
1001
ACAD
1000
DSTYLE
1002
{
1070
   279
1070
     0
1070
    74
1070
     0
1070
   173
1070
     1
1070
   340
1005
D4
1070
   271
1070
     1
1070
   272
1070
     2
1070
    77
1070
     1
1070
    73
1070
     0
1070
   171
1070
     3
1070
   274
1070
     4
1070
   177
1070
     2
1070
   176
1070
     2
1070
   178
1070
     2
1070
    78
1070
     8
1070
    48
1040
-0.005
1070
    41
1041
3.5
1070
   147
1041
1.75
1070
    42
1041
1.5875
1070
    44
1041
2.0
1070
   140
1041
3.5
1070
   343
1005
0
1070
   344
1005
0
1002
}
0
ENDSEC
0
SECTION
2
OBJECTS
0
DICTIONARY
5
181
330
0
100
AcDbDictionary
280
0
281
1
3
ACAD_GROUP
350
182
3
ACAD_MLINESTYLE
350
183
0
DICTIONARY
5
182
330
0
100
AcDbDictionary
280
0
281
1
0
DICTIONARY
5
183
330
0
100
AcDbDictionary
280
0
281
1
3
Standard
350
18
0
MLINESTYLE
5
18
330
183
100
AcDbMlineStyle
2
Standard
70
0
3

62
256
51
90
52
90
71
2
49
-0.5
62
256
6
ByLayer
49
0.5
62
256
6
ByLayer
0
RASTERVARIABLES
5
16f
330

100
AcDbRasterVariables
90
0
70
1
71
1
72
1
0
ENDSEC
0
EOF
