0
SECTION
2
HEADER
9
$ACADVER
1
AC1015
9
$DWGCODEPAGE
3
ANSI_1252
9
$HANDSEED
5
159
9
$ANGBASE
50
0
9
$ANGDIR
70
0
9
$ATTMODE
70
1
9
$AUNITS
70
0
9
$AUPREC
70
0
9
$CECOLOR
62
256
9
$CELTSCALE
40
1
9
$CELTYPE
6
ByLayer
9
$CELWEIGHT
370
-1
9
$CLAYER
8
0
9
$CMLJUST
70
0
9
$CMLSCALE
40
1
9
$CMLSTYLE
2
Standard
9
$DIMSTYLE
2
Standard
9
$TEXTSIZE
40
0.2
9
$TEXTSTYLE
7
Standard
9
$LUNITS
70
2
9
$LUPREC
70
4
9
$EXTNAMES
290
1
9
$INSUNITS
70
4
9
$LTSCALE
40
1
9
$LWDISPLAY
290
0
9
$PDMODE
70
0
9
$PDSIZE
40
0
9
$PLINEGEN
70
0
0
ENDSEC
0
SECTION
2
CLASSES
0
CLASS
1
RASTERVARIABLES
2
AcDbRasterVariables
3
ISM
90
0
280
0
281
0
0
ENDSEC
0
SECTION
2
TABLES
0
TABLE
2
VPORT
5
14f
100
AcDbSymbolTable
0
VPORT
5
1
100
AcDbSymbolTableRecord
100
AcDbViewportTableRecord
2
*Active
70
0
10
0
20
0
11
1
21
1
12
-1
22
1
13
0
23
0
14
0.5
24
0.5
15
10
25
10
16
0
26
0
36
1
17
0
27
0
37
0
0
ENDTAB
0
TABLE
2
LTYPE
5
150
100
AcDbSymbolTable
0
LTYPE
5
14
100
AcDbSymbolTableRecord
100
AcDbLinetypeTableRecord
70
0
2
ByBlock
3

72
65
73
0
40
0
0
LTYPE
5
15
100
AcDbSymbolTableRecord
100
AcDbLinetypeTableRecord
70
0
2
ByLayer
3

72
65
73
0
40
0
0
LTYPE
5
16
100
AcDbSymbolTableRecord
100
AcDbLinetypeTableRecord
70
0
2
CONTINUOUS
3
Solid line
72
65
73
0
40
0
0
LTYPE
5
3C
100
AcDbSymbolTableRecord
100
AcDbLinetypeTableRecord
70
0
2
DASHED
3
__ __ __ __ __ __ __ __ __
72
65
73
2
40
25.72
49
12.86
74
0
49
-12.86
74
0
0
LTYPE
5
3D
100
AcDbSymbolTableRecord
100
AcDbLinetypeTableRecord
70
0
2
HIDDEN
3
_ _ _ _ _ _ _ _ _ _ _ _ _ _ _
72
65
73
2
40
0.5
49
0.25
74
0
49
-0.25
74
0
0
LTYPE
5
3E
100
AcDbSymbolTableRecord
100
AcDbLinetypeTableRecord
70
0
2
PHANTOM
3
____ _ _ ____ _ _ _____ _ _ ____
72
65
73
6
40
50.5
49
18
74
0
49
-6.5
74
0
49
6.5
74
0
49
-6.5
74
0
49
6.5
74
0
49
-6.5
74
0
0
LTYPE
5
3F
100
AcDbSymbolTableRecord
100
AcDbLinetypeTableRecord
70
0
2
CENTER
3
____ _ ____ _ ____ _ ____
72
65
73
4
40
47.5
49
22
74
0
49
-8.5
74
0
49
8.5
74
0
49
-8.5
74
0
0
LTYPE
5
40
100
AcDbSymbolTableRecord
100
AcDbLinetypeTableRecord
70
0
2
DOT
3
.........................
72
65
73
2
40
10
49
0
74
0
49
-10
74
0
0
LTYPE
5
41
100
AcDbSymbolTableRecord
100
AcDbLinetypeTableRecord
70
0
2
DASHDOT
3
_._._._._._._._._._._._._._._._.
72
65
73
4
40
70
49
31
74
0
49
-13
74
0
49
13
74
0
49
-13
74
0
0
ENDTAB
0
TABLE
2
LAYER
5
151
100
AcDbSymbolTable
0
LAYER
5
10
100
AcDbSymbolTableRecord
100
AcDbLayerTableRecord
2
0
70
0
62
7
6
CONTINUOUS
290
1
370
-3
390
0
0
LAYER
5
43
100
AcDbSymbolTableRecord
100
AcDbLayerTableRecord
2
80
70
0
62
-6
6
CONTINUOUS
290
1
370
-3
390
0
0
LAYER
5
45
100
AcDbSymbolTableRecord
100
AcDbLayerTableRecord
2
81
70
0
62
-3
6
CONTINUOUS
290
1
370
-3
390
0
0
LAYER
5
47
100
AcDbSymbolTableRecord
100
AcDbLayerTableRecord
2
1
70
0
62
4
6
CONTINUOUS
290
1
370
-3
390
0
0
LAYER
5
13c
100
AcDbSymbolTableRecord
100
AcDbLayerTableRecord
2
SK6
70
0
62
5
6
CONTINUOUS
290
1
370
-3
390
0
0
LAYER
5
13d
100
AcDbSymbolTableRecord
100
AcDbLayerTableRecord
2
SK2
70
0
62
7
6
CONTINUOUS
290
1
370
-3
390
0
0
LAYER
5
13e
100
AcDbSymbolTableRecord
100
AcDbLayerTableRecord
2
2L
70
0
62
7
6
CONTINUOUS
290
1
370
-3
390
0
0
ENDTAB
0
TABLE
2
STYLE
5
152
100
AcDbSymbolTable
0
STYLE
5
11
100
AcDbSymbolTableRecord
100
AcDbTextStyleTableRecord
2
Standard
3
txt
70
0
71
0
40
0
41
1
42
0
50
0
0
STYLE
5
BE
100
AcDbSymbolTableRecord
100
AcDbTextStyleTableRecord
2
DEFAULT
3
simplex.shx
70
0
71
0
40
0
41
1
42
0
50
0
0
STYLE
5
BF
100
AcDbSymbolTableRecord
100
AcDbTextStyleTableRecord
2
DWGDirectTextStyle
3
SIMPLEX
70
0
71
0
40
0
41
1
42
0
50
0
0
ENDTAB
0
TABLE
2
DIMSTYLE
5
153
100
AcDbSymbolTable
100
AcDbDimStyleTable
0
DIMSTYLE
105
27
100
AcDbSymbolTableRecord
100
AcDbDimStyleTableRecord
2
Standard
70
0
3
<>
41
0.18
42
0.0625
44
0.18
140
0.18
147
0.09
73
0
74
0
77
1
271
2
275
0
278
52
280
0
340
11
0
ENDTAB
0
TABLE
2
VIEW
5
154
100
AcDbSymbolTable
0
ENDTAB
0
TABLE
2
UCS
5
155
100
AcDbSymbolTable
0
ENDTAB
0
TABLE
2
APPID
5
156
100
AcDbSymbolTable
0
APPID
5
12
100
AcDbSymbolTableRecord
100
AcDbRegAppTableRecord
2
ACAD
70
0
0
ENDTAB
0
TABLE
2
BLOCK_RECORD
5
157
100
AcDbSymbolTable
0
BLOCK_RECORD
5
1F
100
AcDbSymbolTableRecord
100
AcDbBlockTableRecord
2
*Model_Space
340
0
70
0
0
BLOCK_RECORD
5
1B
100
AcDbSymbolTableRecord
100
AcDbBlockTableRecord
2
*Paper_Space
340
0
70
0
0
BLOCK_RECORD
5
23
100
AcDbSymbolTableRecord
100
AcDbBlockTableRecord
2
*Paper_Space0
340
0
70
0
0
BLOCK_RECORD
5
C1
100
AcDbSymbolTableRecord
100
AcDbBlockTableRecord
2
DimnDraft3D11
340
0
70
0
0
BLOCK_RECORD
5
CC
100
AcDbSymbolTableRecord
100
AcDbBlockTableRecord
2
DimnDraft3D22
340
0
70
0
0
BLOCK_RECORD
5
D7
100
AcDbSymbolTableRecord
100
AcDbBlockTableRecord
2
DimnDraft3D33
340
0
70
0
0
BLOCK_RECORD
5
E1
100
AcDbSymbolTableRecord
100
AcDbBlockTableRecord
2
DimnDraft3D4
340
0
70
0
0
BLOCK_RECORD
5
EB
100
AcDbSymbolTableRecord
100
AcDbBlockTableRecord
2
DimnDraft3D5
340
0
70
0
0
BLOCK_RECORD
5
F5
100
AcDbSymbolTableRecord
100
AcDbBlockTableRecord
2
DimnDraft3D6
340
0
70
0
0
ENDTAB
0
ENDSEC
0
SECTION
2
BLOCKS
0
BLOCK
5
20
100
AcDbEntity
8
0
100
AcDbBlockBegin
2
*Model_Space
70
0
10
0
20
0
30
0
3
*Model_Space
0
ENDBLK
5
21
100
AcDbEntity
8
0
100
AcDbBlockEnd
0
BLOCK
5
1C
100
AcDbEntity
8
0
100
AcDbBlockBegin
2
*Paper_Space
70
0
10
0
20
0
30
0
3
*Paper_Space
0
ENDBLK
5
1D
100
AcDbEntity
8
0
100
AcDbBlockEnd
0
BLOCK
5
24
100
AcDbEntity
8
0
100
AcDbBlockBegin
2
*Paper_Space0
70
0
10
0
20
0
30
0
3
*Paper_Space0
0
ENDBLK
5
25
100
AcDbEntity
8
0
100
AcDbBlockEnd
0
BLOCK
5
C2
100
AcDbEntity
8
0
100
AcDbBlockBegin
2
DimnDraft3D11
70
0
10
0
20
0
30
0
3
DimnDraft3D11
0
LINE
5
C4
100
AcDbEntity
8
SK2
62
256
6
ByLayer
370
-1
48
1
60
0
100
AcDbLine
10
0
20
1.5875
30
0
11
0
21
74.636236
31
0
39
0
210
0
220
0
230
1
0
LINE
5
C6
100
AcDbEntity
8
SK2
62
256
6
ByLayer
370
-1
48
1
60
0
100
AcDbLine
10
-24.6
20
59.0875
30
0
11
-24.6
21
74.636236
31
0
39
0
210
0
220
0
230
1
0
LINE
5
C7
100
AcDbEntity
8
SK2
62
256
6
ByLayer
370
-1
48
1
60
0
100
AcDbLine
10
0
20
72.636236
30
0
11
-24.6
21
72.636236
31
0
39
0
210
0
220
0
230
1
0
SOLID
5
C8
100
AcDbEntity
8
SK2
62
256
6
ByLayer
370
-1
48
1
60
0
100
AcDbTrace
10
0
20
72.636236
30
0
11
-3.499998
21
72.175452
31
0
12
-3.500002
22
73.09702
32
0
13
0
23
72.636236
33
0
39
0
210
0
220
0
230
1
0
SOLID
5
C9
100
AcDbEntity
8
SK2
62
256
6
ByLayer
370
-1
48
1
60
0
100
AcDbTrace
10
-24.6
20
72.636236
30
0
11
-21.100002
21
73.09702
31
0
12
-21.099998
22
72.175452
32
0
13
-24.6
23
72.636236
33
0
39
0
210
0
220
0
230
1
0
MTEXT
5
CA
100
AcDbEntity
8
SK2
62
256
6
ByLayer
370
-1
48
1
60
0
100
AcDbMText
10
-16.684814
20
73.511236
30
0
210
0
220
0
230
1
1
\W00.735;\fsimplex.shx,bigfont.shx;24,6 
40
3.5
41
0
44
1.084337
50
0
71
7
72
5
7
DEFAULT
0
ENDBLK
5
C3
100
AcDbEntity
8
0
100
AcDbBlockEnd
0
BLOCK
5
CD
100
AcDbEntity
8
0
100
AcDbBlockBegin
2
DimnDraft3D22
70
0
10
0
20
0
30
0
3
DimnDraft3D22
0
LINE
5
CF
100
AcDbEntity
8
2L
62
256
6
ByLayer
370
-1
48
1
60
0
100
AcDbLine
10
0
20
1.5875
30
0
11
0
21
74.89723
31
0
39
0
210
0
220
0
230
1
0
LINE
5
D1
100
AcDbEntity
8
2L
62
256
6
ByLayer
370
-1
48
1
60
0
100
AcDbLine
10
20.9
20
59.0875
30
0
11
20.9
21
74.89723
31
0
39
0
210
0
220
0
230
1
0
LINE
5
D2
100
AcDbEntity
8
2L
62
256
6
ByLayer
370
-1
48
1
60
0
100
AcDbLine
10
0
20
72.89723
30
0
11
20.9
21
72.89723
31
0
39
0
210
0
220
0
230
1
0
SOLID
5
D3
100
AcDbEntity
8
2L
62
256
6
ByLayer
370
-1
48
1
60
0
100
AcDbTrace
10
0
20
72.89723
30
0
11
3.499998
21
73.358013
31
0
12
3.500002
22
72.436446
32
0
13
0
23
72.89723
33
0
39
0
210
0
220
0
230
1
0
SOLID
5
D4
100
AcDbEntity
8
2L
62
256
6
ByLayer
370
-1
48
1
60
0
100
AcDbTrace
10
20.9
20
72.89723
30
0
11
17.400002
21
72.436446
31
0
12
17.399998
22
73.358013
32
0
13
20.9
23
72.89723
33
0
39
0
210
0
220
0
230
1
0
MTEXT
5
D5
100
AcDbEntity
8
2L
62
256
6
ByLayer
370
-1
48
1
60
0
100
AcDbMText
10
8.411391
20
73.77223
30
0
210
0
220
0
230
1
1
\W00.711;\fsimplex.shx,bigfont.shx;20,9 
40
3.5
41
0
44
1.084337
50
0
71
7
72
5
7
DEFAULT
0
ENDBLK
5
CE
100
AcDbEntity
8
0
100
AcDbBlockEnd
0
BLOCK
5
D8
100
AcDbEntity
8
0
100
AcDbBlockBegin
2
DimnDraft3D33
70
0
10
0
20
0
30
0
3
DimnDraft3D33
0
LINE
5
DA
100
AcDbEntity
8
SK2
62
256
6
ByLayer
370
-1
48
1
60
0
100
AcDbLine
10
-26.1875
20
-52.5
30
0
11
-36.893386
21
-52.5
31
0
39
0
210
0
220
0
230
1
0
LINE
5
DB
100
AcDbEntity
8
SK2
62
256
6
ByLayer
370
-1
48
1
60
0
100
AcDbLine
10
-26.1875
20
57.5
30
0
11
-36.893386
21
57.5
31
0
39
0
210
0
220
0
230
1
0
LINE
5
DC
100
AcDbEntity
8
SK2
62
256
6
ByLayer
370
-1
48
1
60
0
100
AcDbLine
10
-34.893386
20
-52.5
30
0
11
-34.893386
21
57.5
31
0
39
0
210
0
220
0
230
1
0
SOLID
5
DD
100
AcDbEntity
8
SK2
62
256
6
ByLayer
370
-1
48
1
60
0
100
AcDbTrace
10
-34.893386
20
-52.5
30
0
11
-35.35417
21
-49.000002
31
0
12
-34.432602
22
-48.999998
32
0
13
-34.893386
23
-52.5
33
0
39
0
210
0
220
0
230
1
0
SOLID
5
DE
100
AcDbEntity
8
SK2
62
256
6
ByLayer
370
-1
48
1
60
0
100
AcDbTrace
10
-34.893386
20
57.5
30
0
11
-34.432602
21
54.000002
31
0
12
-35.35417
22
53.999998
32
0
13
-34.893386
23
57.5
33
0
39
0
210
0
220
0
230
1
0
MTEXT
5
DF
100
AcDbEntity
8
SK2
62
256
6
ByLayer
370
-1
48
1
60
0
100
AcDbMText
10
-35.768386
20
0.920395
30
0
210
0
220
0
230
1
1
\W00.512;\fsimplex.shx,bigfont.shx;110 
40
3.5
41
0
44
1.084337
50
90
71
7
72
5
7
DEFAULT
0
ENDBLK
5
D9
100
AcDbEntity
8
0
100
AcDbBlockEnd
0
BLOCK
5
E8
100
AcDbEntity
8
0
100
AcDbBlockBegin
2
DimnDraft3D4
70
0
10
0
20
0
30
0
3
DimnDraft3D4
0
MTEXT
5
E2
100
AcDbEntity
8
2L
62
256
6
ByLayer
370
-1
48
1
60
0
100
AcDbMText
10
-50.14642
20
-1.579605
30
0
210
0
220
0
230
1
1
\W01.000;\fsimplex.shx,bigfont.shx;115 
40
3.5
41
0
44
1.084337
50
90
71
7
72
5
7
DEFAULT
0
LINE
5
E3
100
AcDbEntity
8
2L
62
256
6
ByLayer
370
-1
48
1
60
0
100
AcDbLine
10
-0.454437
20
57.5
30
0
11
-51.27142
21
57.5
31
0
39
0
210
0
220
0
230
1
0
LINE
5
E4
100
AcDbEntity
8
2L
62
256
6
ByLayer
370
-1
48
1
60
0
100
AcDbLine
10
-1.6875
20
-57.5
30
0
11
-51.27142
21
-57.5
31
0
39
0
210
0
220
0
230
1
0
LINE
5
E5
100
AcDbEntity
8
2L
62
256
6
ByLayer
370
-1
48
1
60
0
100
AcDbLine
10
-49.27142
20
57.5
30
0
11
-49.27142
21
-57.5
31
0
39
0
210
0
220
0
230
1
0
SOLID
5
E6
100
AcDbEntity
8
2L
62
256
6
ByLayer
370
-1
48
1
60
0
100
AcDbTrace
10
-49.27142
20
57.5
30
0
11
-48.810636
21
54.000002
31
0
12
-49.732204
22
53.999998
32
0
13
-49.27142
23
57.5
33
0
39
0
210
0
220
0
230
1
0
SOLID
5
E7
100
AcDbEntity
8
2L
62
256
6
ByLayer
370
-1
48
1
60
0
100
AcDbTrace
10
-49.27142
20
-57.5
30
0
11
-49.732204
21
-54.000002
31
0
12
-48.810636
22
-53.999998
32
0
13
-49.27142
23
-57.5
33
0
39
0
210
0
220
0
230
1
0
ENDBLK
5
E9
100
AcDbEntity
8
0
100
AcDbBlockEnd
0
BLOCK
5
F2
100
AcDbEntity
8
0
100
AcDbBlockBegin
2
DimnDraft3D5
70
0
10
0
20
0
30
0
3
DimnDraft3D5
0
MTEXT
5
EC
100
AcDbEntity
8
SK2
62
256
6
ByLayer
370
-1
48
1
60
0
100
AcDbMText
10
6.522054
20
-65.26361
30
0
210
0
220
0
230
1
1
\W01.000;\fsimplex.shx,bigfont.shx;15,4 
40
3.5
41
0
44
1.084337
50
0
71
7
72
5
7
DEFAULT
0
LINE
5
ED
100
AcDbEntity
8
SK2
62
256
6
ByLayer
370
-1
48
1
60
0
100
AcDbLine
10
15.4
20
-59.0875
30
0
11
15.4
21
-68.13861
31
0
39
0
210
0
220
0
230
1
0
LINE
5
EE
100
AcDbEntity
8
SK2
62
256
6
ByLayer
370
-1
48
1
60
0
100
AcDbLine
10
0
20
-1.5875
30
0
11
0
21
-68.13861
31
0
39
0
210
0
220
0
230
1
0
LINE
5
EF
100
AcDbEntity
8
SK2
62
256
6
ByLayer
370
-1
48
1
60
0
100
AcDbLine
10
15.4
20
-66.13861
30
0
11
0
21
-66.13861
31
0
39
0
210
0
220
0
230
1
0
SOLID
5
F0
100
AcDbEntity
8
SK2
62
256
6
ByLayer
370
-1
48
1
60
0
100
AcDbTrace
10
15.4
20
-66.13861
30
0
11
11.900002
21
-66.599394
31
0
12
11.899998
22
-65.677826
32
0
13
15.4
23
-66.13861
33
0
39
0
210
0
220
0
230
1
0
SOLID
5
F1
100
AcDbEntity
8
SK2
62
256
6
ByLayer
370
-1
48
1
60
0
100
AcDbTrace
10
0
20
-66.13861
30
0
11
3.499998
21
-65.677826
31
0
12
3.500002
22
-66.599394
32
0
13
0
23
-66.13861
33
0
39
0
210
0
220
0
230
1
0
ENDBLK
5
F3
100
AcDbEntity
8
0
100
AcDbBlockEnd
0
BLOCK
5
FC
100
AcDbEntity
8
0
100
AcDbBlockBegin
2
DimnDraft3D6
70
0
10
0
20
0
30
0
3
DimnDraft3D6
0
MTEXT
5
F6
100
AcDbEntity
8
2L
62
256
6
ByLayer
370
-1
48
1
60
0
100
AcDbMText
10
-7.065232
20
-73.943862
30
0
210
0
220
0
230
1
1
\W01.000;\fsimplex.shx,bigfont.shx;45,5 
40
3.5
41
0
44
1.084337
50
0
71
7
72
5
7
DEFAULT
0
LINE
5
F7
100
AcDbEntity
8
2L
62
256
6
ByLayer
370
-1
48
1
60
0
100
AcDbLine
10
20.9
20
-59.0875
30
0
11
20.9
21
-76.818862
31
0
39
0
210
0
220
0
230
1
0
LINE
5
F8
100
AcDbEntity
8
2L
62
256
6
ByLayer
370
-1
48
1
60
0
100
AcDbLine
10
-24.6
20
-54.0875
30
0
11
-24.6
21
-76.818862
31
0
39
0
210
0
220
0
230
1
0
LINE
5
F9
100
AcDbEntity
8
2L
62
256
6
ByLayer
370
-1
48
1
60
0
100
AcDbLine
10
20.9
20
-74.818862
30
0
11
-24.6
21
-74.818862
31
0
39
0
210
0
220
0
230
1
0
SOLID
5
FA
100
AcDbEntity
8
2L
62
256
6
ByLayer
370
-1
48
1
60
0
100
AcDbTrace
10
20.9
20
-74.818862
30
0
11
17.400002
21
-75.279646
31
0
12
17.399998
22
-74.358078
32
0
13
20.9
23
-74.818862
33
0
39
0
210
0
220
0
230
1
0
SOLID
5
FB
100
AcDbEntity
8
2L
62
256
6
ByLayer
370
-1
48
1
60
0
100
AcDbTrace
10
-24.6
20
-74.818862
30
0
11
-21.100002
21
-74.358078
31
0
12
-21.099998
22
-75.279646
32
0
13
-24.6
23
-74.818862
33
0
39
0
210
0
220
0
230
1
0
ENDBLK
5
FD
100
AcDbEntity
8
0
100
AcDbBlockEnd
0
ENDSEC
0
SECTION
2
ENTITIES
0
ELLIPSE
5
7F
100
AcDbEntity
8
1
62
256
6
ByLayer
370
-1
48
1
60
0
100
AcDbEllipse
10
10.430517
20
2.5
30
0
11
2.47295505326591E-15
21
-3.51028963667292
31
0
210
0
220
0
230
1
40
0.996195
41
1.5707963267949
42
2.61799387799149
0
ELLIPSE
5
80
100
AcDbEntity
8
1
62
256
6
ByLayer
370
-1
48
1
60
0
100
AcDbEllipse
10
10.430517
20
2.5
30
0
11
2.47295505326591E-15
21
-3.51028963667292
31
0
210
0
220
0
230
1
40
0.996195
41
-0.523598775598304
42
0.523598775598293
0
ELLIPSE
5
81
100
AcDbEntity
8
1
62
256
6
ByLayer
370
-1
48
1
60
0
100
AcDbEllipse
10
9.733271
20
46.5
30
0
11
-6.7476455873532E-15
21
6.4325
31
0
210
0
220
0
230
1
40
0.996195
41
0
42
-3.14159261250412
0
ELLIPSE
5
82
100
AcDbEntity
8
1
62
256
6
ByLayer
370
-1
48
1
60
0
100
AcDbEllipse
10
9.733271
20
-41.5
30
0
11
-6.7476455873532E-15
21
6.4325
31
0
210
0
220
0
230
1
40
0.996195
41
0
42
-3.14159261250412
0
ELLIPSE
5
83
100
AcDbEntity
8
1
62
256
6
ByLayer
370
-1
48
1
60
0
100
AcDbEllipse
10
9.733271
20
2.5
30
0
11
-6.7476455873532E-15
21
6.4325
31
0
210
0
220
0
230
1
40
0.996195
41
0
42
-3.14159261250412
0
ELLIPSE
5
84
100
AcDbEntity
8
1
62
256
6
ByLayer
370
-1
48
1
60
0
100
AcDbEllipse
10
10.128599
20
2.5
30
0
11
6.82858166354189
21
8.36232449276838E-16
31
0
210
0
220
0
230
-1
40
0.995814
41
0
42
6.28318530717959
0
ELLIPSE
5
85
100
AcDbEntity
8
1
62
256
6
ByLayer
370
-1
48
1
60
0
100
AcDbEllipse
10
9.733271
20
2.5
30
0
11
-7.13315040715146E-15
21
6.8
31
0
210
0
220
0
230
1
40
0.996195
41
-3.11253292636887
42
-2.4805819035104
0
ELLIPSE
5
86
100
AcDbEntity
8
1
62
256
6
ByLayer
370
-1
48
1
60
0
100
AcDbEllipse
10
9.733271
20
2.5
30
0
11
-7.13315040715146E-15
21
6.8
31
0
210
0
220
0
230
1
40
0.996195
41
-0.661108863990339
42
-0.0291578346300876
0
ELLIPSE
5
87
100
AcDbEntity
8
1
62
256
6
ByLayer
370
-1
48
1
60
0
100
AcDbEllipse
10
9.733271
20
46.5
30
0
11
-7.13315040715146E-15
21
6.8
31
0
210
0
220
0
230
1
40
0.996195
41
-3.11253292636887
42
-2.4805819035104
0
ELLIPSE
5
88
100
AcDbEntity
8
1
62
256
6
ByLayer
370
-1
48
1
60
0
100
AcDbEllipse
10
9.733271
20
46.5
30
0
11
-7.13315040715146E-15
21
6.8
31
0
210
0
220
0
230
1
40
0.996195
41
-0.661108863990337
42
-0.0291578346300877
0
ELLIPSE
5
89
100
AcDbEntity
8
1
62
256
6
ByLayer
370
-1
48
1
60
0
100
AcDbEllipse
10
20.637245
20
-19.5
30
0
11
2.11346239988031E-15
21
-3
31
0
210
0
220
0
230
1
40
0.004363
41
1.82347658193825
42
1.31811607165324
0
ELLIPSE
5
8A
100
AcDbEntity
8
1
62
256
6
ByLayer
370
-1
48
1
60
0
100
AcDbEllipse
10
10.128599
20
46.5
30
0
11
6.82858166354189
21
8.36232449276838E-16
31
0
210
0
220
0
230
-1
40
0.995814
41
0
42
6.28318530717959
0
ELLIPSE
5
8B
100
AcDbEntity
8
1
62
256
6
ByLayer
370
-1
48
1
60
0
100
AcDbEllipse
10
10.128599
20
-41.5
30
0
11
6.82858166354189
21
8.36232449276838E-16
31
0
210
0
220
0
230
-1
40
0.995814
41
0
42
6.28318530717959
0
ELLIPSE
5
8C
100
AcDbEntity
8
1
62
256
6
ByLayer
370
-1
48
1
60
0
100
AcDbEllipse
10
10.430517
20
46.5
30
0
11
2.47295505326591E-15
21
-3.51028963667292
31
0
210
0
220
0
230
1
40
0.996195
41
1.5707963267949
42
2.6179938779915
0
ELLIPSE
5
8D
100
AcDbEntity
8
1
62
256
6
ByLayer
370
-1
48
1
60
0
100
AcDbEllipse
10
10.430517
20
46.5
30
0
11
2.47295505326591E-15
21
-3.51028963667292
31
0
210
0
220
0
230
1
40
0.996195
41
-0.523598775598304
42
0.523598775598292
0
ELLIPSE
5
8E
100
AcDbEntity
8
1
62
256
6
ByLayer
370
-1
48
1
60
0
100
AcDbEllipse
10
10.430517
20
46.5
30
0
11
2.47295505326591E-15
21
-3.51028963667292
31
0
210
0
220
0
230
1
40
0.996195
41
-1.57079632679489
42
-0.523598775598304
0
ELLIPSE
5
8F
100
AcDbEntity
8
1
62
256
6
ByLayer
370
-1
48
1
60
0
100
AcDbEllipse
10
10.430517
20
-41.5
30
0
11
2.47295505326591E-15
21
-3.51028963667292
31
0
210
0
220
0
230
1
40
0.996195
41
-1.57079632679489
42
-0.523598775598304
0
ELLIPSE
5
90
100
AcDbEntity
8
1
62
256
6
ByLayer
370
-1
48
1
60
0
100
AcDbEllipse
10
10.430517
20
2.5
30
0
11
2.47295505326591E-15
21
-3.51028963667292
31
0
210
0
220
0
230
1
40
0.996195
41
-1.57079632679489
42
-0.523598775598304
0
ELLIPSE
5
91
100
AcDbEntity
8
1
62
256
6
ByLayer
370
-1
48
1
60
0
100
AcDbEllipse
10
10.430517
20
-41.5
30
0
11
2.47295505326591E-15
21
-3.51028963667292
31
0
210
0
220
0
230
1
40
0.996195
41
1.5707963267949
42
2.61799387799149
0
ELLIPSE
5
92
100
AcDbEntity
8
1
62
256
6
ByLayer
370
-1
48
1
60
0
100
AcDbEllipse
10
10.430517
20
-41.5
30
0
11
2.47295505326591E-15
21
-3.51028963667292
31
0
210
0
220
0
230
1
40
0.996195
41
-0.523598775598304
42
0.523598775598292
0
ELLIPSE
5
93
100
AcDbEntity
8
1
62
256
6
ByLayer
370
-1
48
1
60
0
100
AcDbEllipse
10
10.430517
20
46.5
30
0
11
2.47295505326591E-15
21
-3.51028963667292
31
0
210
0
220
0
230
1
40
0.996195
41
2.6179938779915
42
-2.61799387799149
0
ELLIPSE
5
94
100
AcDbEntity
8
1
62
256
6
ByLayer
370
-1
48
1
60
0
100
AcDbEllipse
10
10.430517
20
-41.5
30
0
11
2.47295505326591E-15
21
-3.51028963667292
31
0
210
0
220
0
230
1
40
0.996195
41
2.61799387799149
42
-2.61799387799149
0
ELLIPSE
5
95
100
AcDbEntity
8
1
62
256
6
ByLayer
370
-1
48
1
60
0
100
AcDbEllipse
10
10.430517
20
2.5
30
0
11
2.47295505326591E-15
21
-3.51028963667292
31
0
210
0
220
0
230
1
40
0.996195
41
2.61799387799149
42
-2.61799387799149
0
ELLIPSE
5
96
100
AcDbEntity
8
1
62
256
6
ByLayer
370
-1
48
1
60
0
100
AcDbEllipse
10
10.430517
20
46.5
30
0
11
2.47295505326591E-15
21
-3.51028963667292
31
0
210
0
220
0
230
1
40
0.996195
41
0.523598775598292
42
1.5707963267949
0
ELLIPSE
5
97
100
AcDbEntity
8
1
62
256
6
ByLayer
370
-1
48
1
60
0
100
AcDbEllipse
10
10.430517
20
46.5
30
0
11
2.47295505326591E-15
21
-3.51028963667292
31
0
210
0
220
0
230
1
40
0.996195
41
-2.61799387799149
42
-1.57079632679489
0
ELLIPSE
5
98
100
AcDbEntity
8
1
62
256
6
ByLayer
370
-1
48
1
60
0
100
AcDbEllipse
10
10.430517
20
-41.5
30
0
11
2.47295505326591E-15
21
-3.51028963667292
31
0
210
0
220
0
230
1
40
0.996195
41
0.523598775598292
42
1.5707963267949
0
ELLIPSE
5
99
100
AcDbEntity
8
1
62
256
6
ByLayer
370
-1
48
1
60
0
100
AcDbEllipse
10
10.430517
20
-41.5
30
0
11
2.47295505326591E-15
21
-3.51028963667292
31
0
210
0
220
0
230
1
40
0.996195
41
-2.61799387799149
42
-1.57079632679489
0
ELLIPSE
5
9A
100
AcDbEntity
8
1
62
256
6
ByLayer
370
-1
48
1
60
0
100
AcDbEllipse
10
10.430517
20
2.5
30
0
11
2.47295505326591E-15
21
-3.51028963667292
31
0
210
0
220
0
230
1
40
0.996195
41
0.523598775598293
42
1.5707963267949
0
ELLIPSE
5
9B
100
AcDbEntity
8
1
62
256
6
ByLayer
370
-1
48
1
60
0
100
AcDbEllipse
10
10.430517
20
2.5
30
0
11
2.47295505326591E-15
21
-3.51028963667292
31
0
210
0
220
0
230
1
40
0.996195
41
-2.61799387799149
42
-1.57079632679489
0
ELLIPSE
5
9C
100
AcDbEntity
8
1
62
256
6
ByLayer
370
-1
48
1
60
0
100
AcDbEllipse
10
10.360792
20
46.5
30
0
11
4.53161562907669E-15
21
-6.4325
31
0
210
0
220
0
230
1
40
0.996195
41
0
42
6.28318530717959
0
ELLIPSE
5
9D
100
AcDbEntity
8
1
62
256
6
ByLayer
370
-1
48
1
60
0
100
AcDbEllipse
10
10.430517
20
46.5
30
0
11
-5.90845142180597E-15
21
5.6325
31
0
210
0
220
0
230
1
40
0.996195
41
0
42
6.28318530717959
0
ELLIPSE
5
9E
100
AcDbEntity
8
1
62
256
6
ByLayer
370
-1
48
1
60
0
100
AcDbEllipse
10
10.360792
20
-41.5
30
0
11
4.53161562907669E-15
21
-6.4325
31
0
210
0
220
0
230
1
40
0.996195
41
0
42
6.28318530717959
0
ELLIPSE
5
9F
100
AcDbEntity
8
1
62
256
6
ByLayer
370
-1
48
1
60
0
100
AcDbEllipse
10
10.430517
20
-41.5
30
0
11
-5.90845142180597E-15
21
5.6325
31
0
210
0
220
0
230
1
40
0.996195
41
0
42
6.28318530717959
0
ELLIPSE
5
A0
100
AcDbEntity
8
1
62
256
6
ByLayer
370
-1
48
1
60
0
100
AcDbEllipse
10
10.360792
20
2.5
30
0
11
4.53161562907669E-15
21
-6.4325
31
0
210
0
220
0
230
1
40
0.996195
41
0
42
6.28318530717959
0
ELLIPSE
5
A1
100
AcDbEntity
8
1
62
256
6
ByLayer
370
-1
48
1
60
0
100
AcDbEllipse
10
10.430517
20
2.5
30
0
11
-5.90845142180597E-15
21
5.6325
31
0
210
0
220
0
230
1
40
0.996195
41
0
42
6.28318530717959
0
ELLIPSE
5
A2
100
AcDbEntity
8
1
62
256
6
ByLayer
370
-1
48
1
60
0
100
AcDbEllipse
10
20.637245
20
24.5
30
0
11
-3.14697812080211E-15
21
3
31
0
210
0
220
0
230
1
40
0.004363
41
-1.31811607165322
42
-1.82347658193827
0
ELLIPSE
5
A3
100
AcDbEntity
8
1
62
256
6
ByLayer
370
-1
48
1
60
0
100
AcDbEllipse
10
9.733271
20
-41.5
30
0
11
4.79051477306203E-15
21
-6.8
31
0
210
0
220
0
230
1
40
0.996195
41
2.48058187582587
42
3.11253289864453
0
ELLIPSE
5
A4
100
AcDbEntity
8
1
62
256
6
ByLayer
370
-1
48
1
60
0
100
AcDbEllipse
10
9.733271
20
-41.5
30
0
11
4.79051477306203E-15
21
-6.8
31
0
210
0
220
0
230
1
40
0.996195
41
0.0291579545258414
42
0.661108983713869
0
POINT
5
42
100
AcDbEntity
8
80
62
256
6
ByLayer
370
-1
48
1
60
0
100
AcDbPoint
10
0
20
0
30
0
39
0
210
0
220
0
230
1
50
360
0
POINT
5
44
100
AcDbEntity
8
81
62
256
6
ByLayer
370
-1
48
1
60
0
100
AcDbPoint
10
15.4
20
-57.5
30
0
39
0
210
0
220
0
230
1
50
360
0
SPLINE
5
A5
100
AcDbEntity
8
1
62
256
6
ByLayer
370
-1
48
1
60
0
100
AcDbSpline
70
4
71
3
72
18
73
14
40
0
40
0
40
0
40
0
40
0.250000000000007
40
0.250000000000007
40
0.500000000000014
40
0.500000000000014
40
0.562500000000017
40
0.562500000000017
40
0.625000000000019
40
0.625000000000019
40
0.750000000000016
40
0.750000000000016
40
1
40
1
40
1
40
1
41
1
10
8.68205056334187
20
43.4599999999999
30
9E-16
41
1
10
8.53209482601574
20
43.708186774081
30
9E-16
41
1
10
8.38236589506985
20
43.9581833071267
30
9E-16
41
1
10
8.08356155796679
20
44.4633910516764
30
9E-16
41
1
10
7.93449101028367
20
44.7186410304626
30
8E-16
41
1
10
7.74865515134167
20
45.0417117173341
30
8E-16
41
1
10
7.71143894976981
20
45.1066532385352
30
8E-16
41
1
10
7.63762003014801
20
45.2359463482172
30
8E-16
41
1
10
7.60097621655353
20
45.3003682957985
30
8E-16
41
1
10
7.49180722427764
20
45.4929894786177
30
8E-16
41
1
10
7.42004627663599
20
45.6205425467769
30
8E-16
41
1
10
7.20744928113902
20
46.0009308330427
30
8E-16
41
1
10
7.06928861522192
20
46.2515039816427
30
8E-16
41
1
10
6.93358460093179
20
46.5000000000001
30
7E-16
0
SPLINE
5
A6
100
AcDbEntity
8
1
62
256
6
ByLayer
370
-1
48
1
60
0
100
AcDbSpline
70
4
71
3
72
22
73
18
40
0
40
0
40
0
40
0
40
0.250000000000013
40
0.250000000000013
40
0.312500000000013
40
0.312500000000013
40
0.375000000000012
40
0.375000000000012
40
0.500000000000011
40
0.500000000000011
40
0.750000000000003
40
0.750000000000003
40
0.812500000000002
40
0.812500000000002
40
0.875000000000001
40
0.875000000000001
40
1
40
1
40
1
40
1
41
1
10
12.1789824881618
20
49.54
30
6E-16
41
1
10
11.8892383264772
20
49.54
30
6E-16
41
1
10
11.5968434637877
20
49.54
30
6E-16
41
1
10
11.226337663892
20
49.54
30
6E-16
41
1
10
11.1519848033821
20
49.54
30
6E-16
41
1
10
11.0027317850674
20
49.54
30
6E-16
41
1
10
10.9276743317256
20
49.54
30
6E-16
41
1
10
10.703447625918
20
49.54
30
6E-16
41
1
10
10.5548863058474
20
49.54
30
6E-16
41
1
10
10.1120172350629
20
49.54
30
6E-16
41
1
10
9.82057026800379
20
49.54
30
6E-16
41
1
10
9.4603405433657
20
49.54
30
6E-16
41
1
10
9.3884951722199
20
49.54
30
6E-16
41
1
10
9.24517820848138
20
49.54
30
6E-16
41
1
10
9.17360440412284
20
49.54
30
6E-16
41
1
10
8.9605575563628
20
49.54
30
6E-16
41
1
10
8.82051591804193
20
49.54
30
6E-16
41
1
10
8.68205056334187
20
49.54
30
6E-16
0
SPLINE
5
A7
100
AcDbEntity
8
1
62
256
6
ByLayer
370
-1
48
1
60
0
100
AcDbSpline
70
4
71
3
72
18
73
14
40
0
40
0
40
0
40
0
40
0.250000000000008
40
0.250000000000008
40
0.500000000000016
40
0.500000000000016
40
0.562500000000018
40
0.562500000000018
40
0.625000000000021
40
0.625000000000021
40
0.750000000000017
40
0.750000000000017
40
1
40
1
40
1
40
1
41
1
10
13.9274484505718
20
46.5000000000002
30
7E-16
41
1
10
13.7774927132457
20
46.2518132259191
30
8E-16
41
1
10
13.6277637822998
20
46.0018166928733
30
8E-16
41
1
10
13.3289594451967
20
45.4966089483236
30
8E-16
41
1
10
13.1798888975136
20
45.2413589695375
30
8E-16
41
1
10
12.9940530385716
20
44.918288282666
30
8E-16
41
1
10
12.9568368369997
20
44.8533467614648
30
8E-16
41
1
10
12.8830179173779
20
44.7240536517827
30
8E-16
41
1
10
12.8463741037835
20
44.6596317042015
30
9E-16
41
1
10
12.7372051115076
20
44.4670105213823
30
9E-16
41
1
10
12.6654441638659
20
44.3394574532232
30
9E-16
41
1
10
12.452847168369
20
43.9590691669574
30
9E-16
41
1
10
12.3146865024519
20
43.7084960183574
30
9E-16
41
1
10
12.1789824881618
20
43.4599999999999
30
9E-16
0
SPLINE
5
A8
100
AcDbEntity
8
1
62
256
6
ByLayer
370
-1
48
1
60
0
100
AcDbSpline
70
4
71
3
72
18
73
14
40
0
40
0
40
0
40
0
40
0.250000000000004
40
0.250000000000004
40
0.500000000000008
40
0.500000000000008
40
0.562500000000008
40
0.562500000000008
40
0.625000000000009
40
0.625000000000009
40
0.750000000000006
40
0.750000000000006
40
1
40
1
40
1
40
1
41
1
10
8.68205056334185
20
-44.5400000000002
30
-8E-16
41
1
10
8.53209482601574
20
-44.2918132259192
30
-8E-16
41
1
10
8.38236589506985
20
-44.0418166928734
30
-8E-16
41
1
10
8.08356155796679
20
-43.5366089483237
30
-9E-16
41
1
10
7.93449101028367
20
-43.2813589695376
30
-9E-16
41
1
10
7.74865515134167
20
-42.9582882826661
30
-9E-16
41
1
10
7.71143894976981
20
-42.8933467614649
30
-9E-16
41
1
10
7.63762003014799
20
-42.7640536517829
30
-9E-16
41
1
10
7.60097621655356
20
-42.6996317042016
30
-9E-16
41
1
10
7.49180722427761
20
-42.5070105213824
30
-9E-16
41
1
10
7.42004627663596
20
-42.3794574532233
30
-9E-16
41
1
10
7.20744928113902
20
-41.9990691669574
30
-9E-16
41
1
10
7.06928861522189
20
-41.7484960183575
30
-1E-15
41
1
10
6.93358460093179
20
-41.5
30
-1E-15
0
SPLINE
5
A9
100
AcDbEntity
8
1
62
256
6
ByLayer
370
-1
48
1
60
0
100
AcDbSpline
70
4
71
3
72
22
73
18
40
0
40
0
40
0
40
0
40
0.249999999999998
40
0.249999999999998
40
0.312499999999998
40
0.312499999999998
40
0.374999999999999
40
0.374999999999999
40
0.5
40
0.5
40
0.749999999999997
40
0.749999999999997
40
0.812499999999998
40
0.812499999999998
40
0.874999999999999
40
0.874999999999999
40
1
40
1
40
1
40
1
41
1
10
12.1789824881618
20
-38.4600000000001
30
-1.2E-15
41
1
10
11.8892383264772
20
-38.4600000000001
30
-1.2E-15
41
1
10
11.5968434637877
20
-38.4600000000001
30
-1.2E-15
41
1
10
11.226337663892
20
-38.4600000000001
30
-1.2E-15
41
1
10
11.1519848033821
20
-38.4600000000001
30
-1.2E-15
41
1
10
11.0027317850674
20
-38.4600000000001
30
-1.2E-15
41
1
10
10.9276743317256
20
-38.4600000000001
30
-1.2E-15
41
1
10
10.703447625918
20
-38.4600000000001
30
-1.2E-15
41
1
10
10.5548863058474
20
-38.4600000000001
30
-1.2E-15
41
1
10
10.1120172350629
20
-38.4600000000001
30
-1.2E-15
41
1
10
9.82057026800379
20
-38.4600000000001
30
-1.2E-15
41
1
10
9.4603405433657
20
-38.4600000000001
30
-1.2E-15
41
1
10
9.3884951722199
20
-38.4600000000001
30
-1.2E-15
41
1
10
9.24517820848138
20
-38.4600000000001
30
-1.2E-15
41
1
10
9.17360440412284
20
-38.4600000000001
30
-1.2E-15
41
1
10
8.9605575563628
20
-38.4600000000001
30
-1.2E-15
41
1
10
8.82051591804193
20
-38.4600000000001
30
-1.2E-15
41
1
10
8.68205056334187
20
-38.4600000000001
30
-1.2E-15
0
SPLINE
5
AA
100
AcDbEntity
8
1
62
256
6
ByLayer
370
-1
48
1
60
0
100
AcDbSpline
70
4
71
3
72
18
73
14
40
0
40
0
40
0
40
0
40
0.249999999999999
40
0.249999999999999
40
0.499999999999999
40
0.499999999999999
40
0.562499999999999
40
0.562499999999999
40
0.624999999999999
40
0.624999999999999
40
0.749999999999999
40
0.749999999999999
40
1
40
1
40
1
40
1
41
1
10
13.9274484505718
20
-41.4999999999999
30
-1E-15
41
1
10
13.7774927132457
20
-41.748186774081
30
-1E-15
41
1
10
13.6277637822998
20
-41.9981833071268
30
-9E-16
41
1
10
13.3289594451967
20
-42.5033910516765
30
-9E-16
41
1
10
13.1798888975136
20
-42.7586410304626
30
-9E-16
41
1
10
12.9940530385716
20
-43.0817117173341
30
-9E-16
41
1
10
12.9568368369997
20
-43.1466532385352
30
-9E-16
41
1
10
12.8830179173779
20
-43.2759463482173
30
-9E-16
41
1
10
12.8463741037835
20
-43.3403682957986
30
-9E-16
41
1
10
12.7372051115075
20
-43.5329894786177
30
-9E-16
41
1
10
12.6654441638659
20
-43.6605425467769
30
-8E-16
41
1
10
12.4528471683689
20
-44.0409308330428
30
-8E-16
41
1
10
12.3146865024519
20
-44.2915039816427
30
-8E-16
41
1
10
12.1789824881617
20
-44.5400000000002
30
-8E-16
0
SPLINE
5
AB
100
AcDbEntity
8
1
62
256
6
ByLayer
370
-1
48
1
60
0
100
AcDbSpline
70
4
71
3
72
18
73
14
40
0
40
0
40
0
40
0
40
0.250000000000013
40
0.250000000000013
40
0.500000000000026
40
0.500000000000026
40
0.562500000000025
40
0.562500000000025
40
0.625000000000025
40
0.625000000000025
40
0.750000000000017
40
0.750000000000017
40
1
40
1
40
1
40
1
41
1
10
8.68205056334185
20
-0.540000000000134
30
-3.5E-15
41
1
10
8.53209482601577
20
-0.291813225919043
30
-3.5E-15
41
1
10
8.38236589506985
20
-0.0418166928733115
30
-3.5E-15
41
1
10
8.08356155796679
20
0.463391051676439
30
-3.5E-15
41
1
10
7.93449101028367
20
0.71864103046255
30
3.5E-15
41
1
10
7.74865515134167
20
1.04171171733401
30
3.5E-15
41
1
10
7.71143894976981
20
1.10665323853519
30
3.5E-15
41
1
10
7.63762003014801
20
1.23594634821723
30
3.5E-15
41
1
10
7.60097621655356
20
1.30036829579853
30
3.5E-15
41
1
10
7.49180722427761
20
1.49298947861763
30
3.5E-15
41
1
10
7.42004627663596
20
1.62054254677685
30
3.5E-15
41
1
10
7.20744928113902
20
2.0009308330427
30
3.5E-15
41
1
10
7.06928861522192
20
2.25150398164263
30
3.4E-15
41
1
10
6.93358460093179
20
2.50000000000008
30
3.4E-15
0
SPLINE
5
AC
100
AcDbEntity
8
1
62
256
6
ByLayer
370
-1
48
1
60
0
100
AcDbSpline
70
4
71
3
72
22
73
18
40
0
40
0
40
0
40
0
40
0.250000000000013
40
0.250000000000013
40
0.312500000000012
40
0.312500000000012
40
0.375000000000012
40
0.375000000000012
40
0.500000000000011
40
0.500000000000011
40
0.750000000000002
40
0.750000000000002
40
0.812500000000002
40
0.812500000000002
40
0.875000000000001
40
0.875000000000001
40
1
40
1
40
1
40
1
41
1
10
12.1789824881618
20
5.54000000000002
30
3.2E-15
41
1
10
11.8892383264772
20
5.54000000000002
30
3.2E-15
41
1
10
11.5968434637877
20
5.54000000000002
30
3.2E-15
41
1
10
11.226337663892
20
5.53999999999999
30
3.2E-15
41
1
10
11.1519848033821
20
5.54000000000002
30
3.2E-15
41
1
10
11.0027317850674
20
5.54000000000002
30
3.2E-15
41
1
10
10.9276743317256
20
5.54000000000002
30
3.2E-15
41
1
10
10.703447625918
20
5.54000000000002
30
3.2E-15
41
1
10
10.5548863058474
20
5.54000000000002
30
3.2E-15
41
1
10
10.1120172350629
20
5.54000000000002
30
3.2E-15
41
1
10
9.82057026800379
20
5.53999999999999
30
3.2E-15
41
1
10
9.4603405433657
20
5.54000000000002
30
3.2E-15
41
1
10
9.3884951722199
20
5.54000000000002
30
3.2E-15
41
1
10
9.24517820848138
20
5.54000000000002
30
3.2E-15
41
1
10
9.17360440412284
20
5.54000000000002
30
3.2E-15
41
1
10
8.9605575563628
20
5.53999999999999
30
3.2E-15
41
1
10
8.82051591804193
20
5.54000000000002
30
3.2E-15
41
1
10
8.68205056334187
20
5.54000000000002
30
3.2E-15
0
SPLINE
5
AD
100
AcDbEntity
8
1
62
256
6
ByLayer
370
-1
48
1
60
0
100
AcDbSpline
70
4
71
3
72
18
73
14
40
0
40
0
40
0
40
0
40
0.249999999999995
40
0.249999999999995
40
0.499999999999989
40
0.499999999999989
40
0.56249999999999
40
0.56249999999999
40
0.624999999999991
40
0.624999999999991
40
0.749999999999994
40
0.749999999999994
40
1
40
1
40
1
40
1
41
1
10
13.9274484505718
20
2.50000000000017
30
3.4E-15
41
1
10
13.7774927132457
20
2.25181322591914
30
3.4E-15
41
1
10
13.6277637822998
20
2.00181669287335
30
3.5E-15
41
1
10
13.3289594451967
20
1.4966089483236
30
3.5E-15
41
1
10
13.1798888975136
20
1.24135896953749
30
3.5E-15
41
1
10
12.9940530385716
20
0.918288282666026
30
3.5E-15
41
1
10
12.9568368369997
20
0.85334676146482
30
3.5E-15
41
1
10
12.8830179173779
20
0.72405365178281
30
3.5E-15
41
1
10
12.8463741037835
20
0.659631704201502
30
3.5E-15
41
1
10
12.7372051115075
20
0.467010521382349
30
-3.5E-15
41
1
10
12.6654441638659
20
0.33945745322319
30
-3.5E-15
41
1
10
12.452847168369
20
-0.040930833042637
30
-3.5E-15
41
1
10
12.3146865024519
20
-0.29150398164262
30
-3.5E-15
41
1
10
12.1789824881618
20
-0.540000000000077
30
-3.5E-15
0
SPLINE
5
AE
100
AcDbEntity
8
1
62
256
6
ByLayer
370
-1
48
1
60
0
100
AcDbSpline
70
4
71
3
72
18
73
14
40
0
40
0
40
0
40
0
40
0.249999999999993
40
0.249999999999993
40
0.499999999999986
40
0.499999999999986
40
0.562499999999987
40
0.562499999999987
40
0.624999999999989
40
0.624999999999989
40
0.749999999999992
40
0.749999999999992
40
1
40
1
40
1
40
1
41
1
10
11.8303595171712
20
49.54
30
6E-16
41
1
10
11.9658938673094
20
49.2918146641705
30
6E-16
41
1
10
12.1037372147291
20
49.0418187776422
30
6E-16
41
1
10
12.3860772653503
20
48.5366099183399
30
6E-16
41
1
10
12.5306234331856
20
48.281358158934
30
6E-16
41
1
10
12.7164203548969
20
47.9582832600831
30
6E-16
41
1
10
12.7539071436823
20
47.8933411784582
30
7E-16
41
1
10
12.8288144737337
20
47.7640488911445
30
7E-16
41
1
10
12.8662754321488
20
47.6996273267744
30
7E-16
41
1
10
12.9786792406718
20
47.5070072147049
30
7E-16
41
1
10
13.0536430729997
20
47.3794547550912
30
7E-16
41
1
10
13.278608311149
20
46.9990680267557
30
7E-16
41
1
10
13.4286831708456
20
46.7484955622414
30
7E-16
41
1
10
13.5788254795812
20
46.5
30
7E-16
0
SPLINE
5
AF
100
AcDbEntity
8
1
62
256
6
ByLayer
370
-1
48
1
60
0
100
AcDbSpline
70
4
71
3
72
22
73
18
40
0
40
0
40
0
40
0
40
0.250000000000015
40
0.250000000000015
40
0.312500000000014
40
0.312500000000014
40
0.375000000000013
40
0.375000000000013
40
0.500000000000012
40
0.500000000000012
40
0.75000000000001
40
0.75000000000001
40
0.812500000000007
40
0.812500000000007
40
0.875000000000005
40
0.875000000000005
40
1
40
1
40
1
40
1
41
1
10
12.1789824881618
20
43.46
30
9E-16
41
1
10
11.8892383264754
20
43.46
30
9E-16
41
1
10
11.5968434637823
20
43.46
30
9E-16
41
1
10
11.2263376638787
20
43.46
30
9E-16
41
1
10
11.151984803367
20
43.46
30
9E-16
41
1
10
11.0027317850485
20
43.46
30
9E-16
41
1
10
10.9276743317056
20
43.46
30
9E-16
41
1
10
10.7034476259029
20
43.46
30
9E-16
41
1
10
10.5548863058351
20
43.46
30
9E-16
41
1
10
10.1120172350578
20
43.46
30
9E-16
41
1
10
9.82057026800194
20
43.46
30
9E-16
41
1
10
9.4603405433663
20
43.46
30
9E-16
41
1
10
9.38849517222087
20
43.46
30
9E-16
41
1
10
9.24517820848297
20
43.46
30
9E-16
41
1
10
9.17360440412455
20
43.4600000000001
30
9E-16
41
1
10
8.96055755636348
20
43.46
30
9E-16
41
1
10
8.82051591804219
20
43.46
30
9E-16
41
1
10
8.68205056334187
20
43.46
30
9E-16
0
SPLINE
5
B0
100
AcDbEntity
8
1
62
256
6
ByLayer
370
-1
48
1
60
0
100
AcDbSpline
70
4
71
3
72
18
73
14
40
0
40
0
40
0
40
0
40
0.250000000000007
40
0.250000000000007
40
0.500000000000013
40
0.500000000000013
40
0.562500000000016
40
0.562500000000016
40
0.625000000000018
40
0.625000000000018
40
0.750000000000013
40
0.750000000000013
40
1
40
1
40
1
40
1
41
1
10
11.830359517171
20
43.4599999999999
30
9E-16
41
1
10
11.9658947632411
20
43.7081869764257
30
9E-16
41
1
10
12.1037385970565
20
43.9581837147689
30
9E-16
41
1
10
12.3860782807819
20
44.4633918797102
30
9E-16
41
1
10
12.5306235836358
20
44.7186420737563
30
8E-16
41
1
10
12.7164182211693
20
45.0417130368929
30
8E-16
41
1
10
12.7539047132868
20
45.1066546174238
30
8E-16
41
1
10
12.8288125492438
20
45.2359477963108
30
8E-16
41
1
10
12.8662737362887
20
45.3003697611159
30
8E-16
41
1
10
12.9786781608089
20
45.4929909468126
30
8E-16
41
1
10
13.0536423104441
20
45.6205439517927
30
8E-16
41
1
10
13.2786082537515
20
46.0009318836619
30
8E-16
41
1
10
13.4286832554233
20
46.2515045777404
30
8E-16
41
1
10
13.5788254795812
20
46.5
30
7E-16
0
SPLINE
5
B1
100
AcDbEntity
8
1
62
256
6
ByLayer
370
-1
48
1
60
0
100
AcDbSpline
70
4
71
3
72
18
73
14
40
0
40
0
40
0
40
0
40
0.249999999999999
40
0.249999999999999
40
0.499999999999998
40
0.499999999999998
40
0.562499999999997
40
0.562499999999997
40
0.624999999999997
40
0.624999999999997
40
0.749999999999996
40
0.749999999999996
40
1
40
1
40
1
40
1
41
1
10
11.8303595171712
20
-38.4600000000001
30
-1.2E-15
41
1
10
11.9658938673094
20
-38.7081853358296
30
-1.2E-15
41
1
10
12.1037372147292
20
-38.9581812223579
30
-1.1E-15
41
1
10
12.3860772653502
20
-39.4633900816602
30
-1.1E-15
41
1
10
12.5306234331856
20
-39.7186418410661
30
-1.1E-15
41
1
10
12.7164203548969
20
-40.041716739917
30
-1.1E-15
41
1
10
12.7539071436823
20
-40.1066588215419
30
-1.1E-15
41
1
10
12.8288144737337
20
-40.2359511088556
30
-1.1E-15
41
1
10
12.8662754321488
20
-40.3003726732257
30
-1.1E-15
41
1
10
12.9786792406718
20
-40.4929927852951
30
-1E-15
41
1
10
13.0536430729997
20
-40.6205452449089
30
-1E-15
41
1
10
13.278608311149
20
-41.0009319732444
30
-1E-15
41
1
10
13.4286831708456
20
-41.2515044377587
30
-1E-15
41
1
10
13.5788254795812
20
-41.5000000000001
30
-1E-15
0
SPLINE
5
B2
100
AcDbEntity
8
1
62
256
6
ByLayer
370
-1
48
1
60
0
100
AcDbSpline
70
4
71
3
72
22
73
18
40
0
40
0
40
0
40
0
40
0.250000000000007
40
0.250000000000007
40
0.312500000000004
40
0.312500000000004
40
0.375000000000002
40
0.375000000000002
40
0.500000000000003
40
0.500000000000003
40
0.750000000000005
40
0.750000000000005
40
0.812500000000004
40
0.812500000000004
40
0.875000000000002
40
0.875000000000002
40
1
40
1
40
1
40
1
41
1
10
12.1789824881618
20
-44.5400000000001
30
-8E-16
41
1
10
11.8892383264754
20
-44.5400000000001
30
-8E-16
41
1
10
11.5968434637823
20
-44.5400000000001
30
-8E-16
41
1
10
11.2263376638787
20
-44.5400000000001
30
-8E-16
41
1
10
11.151984803367
20
-44.5400000000001
30
-8E-16
41
1
10
11.0027317850484
20
-44.5400000000001
30
-8E-16
41
1
10
10.9276743317056
20
-44.5400000000001
30
-8E-16
41
1
10
10.7034476259029
20
-44.5400000000001
30
-8E-16
41
1
10
10.5548863058351
20
-44.5400000000001
30
-8E-16
41
1
10
10.1120172350578
20
-44.5400000000001
30
-8E-16
41
1
10
9.82057026800194
20
-44.5400000000001
30
-8E-16
41
1
10
9.4603405433663
20
-44.5400000000001
30
-8E-16
41
1
10
9.38849517222087
20
-44.5400000000001
30
-8E-16
41
1
10
9.245178208483
20
-44.5400000000001
30
-8E-16
41
1
10
9.17360440412452
20
-44.5400000000001
30
-8E-16
41
1
10
8.96055755636348
20
-44.5400000000001
30
-8E-16
41
1
10
8.82051591804219
20
-44.5400000000001
30
-8E-16
41
1
10
8.68205056334187
20
-44.5400000000001
30
-8E-16
0
SPLINE
5
B3
100
AcDbEntity
8
1
62
256
6
ByLayer
370
-1
48
1
60
0
100
AcDbSpline
70
4
71
3
72
18
73
14
40
0
40
0
40
0
40
0
40
0.25
40
0.25
40
0.5
40
0.5
40
0.5625
40
0.5625
40
0.625000000000001
40
0.625000000000001
40
0.750000000000001
40
0.750000000000001
40
1
40
1
40
1
40
1
41
1
10
11.830359517171
20
-44.5400000000002
30
-8E-16
41
1
10
11.9658947632411
20
-44.2918130235744
30
-8E-16
41
1
10
12.1037385970565
20
-44.0418162852312
30
-8E-16
41
1
10
12.3860782807818
20
-43.5366081202899
30
-9E-16
41
1
10
12.5306235836358
20
-43.2813579262439
30
-9E-16
41
1
10
12.7164182211693
20
-42.9582869631072
30
-9E-16
41
1
10
12.7539047132868
20
-42.8933453825763
30
-9E-16
41
1
10
12.8288125492438
20
-42.7640522036893
30
-9E-16
41
1
10
12.8662737362887
20
-42.6996302388842
30
-9E-16
41
1
10
12.9786781608089
20
-42.5070090531875
30
-9E-16
41
1
10
13.0536423104441
20
-42.3794560482074
30
-9E-16
41
1
10
13.2786082537515
20
-41.9990681163382
30
-9E-16
41
1
10
13.4286832554233
20
-41.7484954222597
30
-1E-15
41
1
10
13.5788254795812
20
-41.5000000000001
30
-1E-15
0
SPLINE
5
B4
100
AcDbEntity
8
1
62
256
6
ByLayer
370
-1
48
1
60
0
100
AcDbSpline
70
4
71
3
72
18
73
14
40
0
40
0
40
0
40
0
40
0.250000000000002
40
0.250000000000002
40
0.500000000000004
40
0.500000000000004
40
0.562500000000004
40
0.562500000000004
40
0.625000000000004
40
0.625000000000004
40
0.750000000000004
40
0.750000000000004
40
1
40
1
40
1
40
1
41
1
10
11.8303595171712
20
5.54000000000002
30
3.2E-15
41
1
10
11.9658938673094
20
5.29181466417043
30
3.3E-15
41
1
10
12.1037372147291
20
5.04181877764222
30
3.3E-15
41
1
10
12.3860772653502
20
4.53660991833993
30
3.3E-15
41
1
10
12.5306234331855
20
4.28135815893404
30
3.3E-15
41
1
10
12.7164203548969
20
3.95828326008311
30
3.3E-15
41
1
10
12.7539071436823
20
3.89334117845823
30
3.3E-15
41
1
10
12.8288144737337
20
3.76404889114446
30
3.4E-15
41
1
10
12.8662754321488
20
3.69962732677433
30
3.4E-15
41
1
10
12.9786792406718
20
3.50700721470497
30
3.4E-15
41
1
10
13.0536430729997
20
3.37945475509113
30
3.4E-15
41
1
10
13.278608311149
20
2.99906802675568
30
3.4E-15
41
1
10
13.4286831708456
20
2.74849556224143
30
3.4E-15
41
1
10
13.5788254795812
20
2.5
30
3.4E-15
0
SPLINE
5
B5
100
AcDbEntity
8
1
62
256
6
ByLayer
370
-1
48
1
60
0
100
AcDbSpline
70
4
71
3
72
22
73
18
40
0
40
0
40
0
40
0
40
0.250000000000015
40
0.250000000000015
40
0.312500000000014
40
0.312500000000014
40
0.375000000000013
40
0.375000000000013
40
0.500000000000012
40
0.500000000000012
40
0.75000000000001
40
0.75000000000001
40
0.812500000000007
40
0.812500000000007
40
0.875000000000005
40
0.875000000000005
40
1
40
1
40
1
40
1
41
1
10
12.1789824881618
20
-0.539999999999992
30
-3.5E-15
41
1
10
11.8892383264754
20
-0.539999999999992
30
-3.5E-15
41
1
10
11.5968434637823
20
-0.539999999999992
30
-3.5E-15
41
1
10
11.2263376638787
20
-0.539999999999964
30
-3.5E-15
41
1
10
11.151984803367
20
-0.539999999999992
30
-3.5E-15
41
1
10
11.0027317850485
20
-0.539999999999964
30
-3.5E-15
41
1
10
10.9276743317056
20
-0.539999999999964
30
-3.5E-15
41
1
10
10.7034476259029
20
-0.539999999999992
30
-3.5E-15
41
1
10
10.5548863058351
20
-0.539999999999992
30
-3.5E-15
41
1
10
10.1120172350578
20
-0.539999999999964
30
-3.5E-15
41
1
10
9.82057026800194
20
-0.539999999999964
30
-3.5E-15
41
1
10
9.4603405433663
20
-0.539999999999964
30
-3.5E-15
41
1
10
9.38849517222087
20
-0.539999999999992
30
-3.5E-15
41
1
10
9.24517820848297
20
-0.539999999999964
30
-3.5E-15
41
1
10
9.17360440412455
20
-0.539999999999964
30
-3.5E-15
41
1
10
8.96055755636348
20
-0.539999999999964
30
-3.5E-15
41
1
10
8.82051591804219
20
-0.539999999999992
30
-3.5E-15
41
1
10
8.68205056334187
20
-0.539999999999992
30
-3.5E-15
0
SPLINE
5
B6
100
AcDbEntity
8
1
62
256
6
ByLayer
370
-1
48
1
60
0
100
AcDbSpline
70
4
71
3
72
18
73
14
40
0
40
0
40
0
40
0
40
0.249999999999995
40
0.249999999999995
40
0.499999999999991
40
0.499999999999991
40
0.56249999999999
40
0.56249999999999
40
0.62499999999999
40
0.62499999999999
40
0.749999999999994
40
0.749999999999994
40
1
40
1
40
1
40
1
41
1
10
11.830359517171
20
-0.540000000000134
30
-3.5E-15
41
1
10
11.9658947632411
20
-0.291813023574321
30
-3.5E-15
41
1
10
12.1037385970565
20
-0.0418162852311355
30
-3.5E-15
41
1
10
12.3860782807818
20
0.46339187971023
30
-3.5E-15
41
1
10
12.5306235836358
20
0.718642073756257
30
3.5E-15
41
1
10
12.7164182211693
20
1.04171303689293
30
3.5E-15
41
1
10
12.7539047132868
20
1.10665461742383
30
3.5E-15
41
1
10
12.8288125492438
20
1.2359477963108
30
3.5E-15
41
1
10
12.8662737362887
20
1.30036976111589
30
3.5E-15
41
1
10
12.9786781608089
20
1.4929909468126
30
3.5E-15
41
1
10
13.053642310444
20
1.62054395179271
30
3.5E-15
41
1
10
13.2786082537515
20
2.00093188366188
30
3.5E-15
41
1
10
13.4286832554233
20
2.25150457774035
30
3.4E-15
41
1
10
13.5788254795812
20
2.5
30
3.4E-15
0
SPLINE
5
B7
100
AcDbEntity
8
1
62
256
6
ByLayer
370
-1
48
1
60
0
100
AcDbSpline
70
4
71
3
72
18
73
14
40
0
40
0
40
0
40
0
40
0.250000000000002
40
0.250000000000002
40
0.500000000000005
40
0.500000000000005
40
0.562499999999998
40
0.562499999999998
40
0.624999999999991
40
0.624999999999991
40
0.749999999999991
40
0.749999999999991
40
1
40
1
40
1
40
1
41
1
10
8.68205056334185
20
49.5400000000002
30
6E-16
41
1
10
8.53209482601574
20
49.2918132259192
30
6E-16
41
1
10
8.38236589506982
20
49.0418166928733
30
6E-16
41
1
10
8.08356155796679
20
48.5366089483236
30
6E-16
41
1
10
7.93449101028364
20
48.2813589695375
30
6E-16
41
1
10
7.74865515134164
20
47.958288282666
30
6E-16
41
1
10
7.71143894976979
20
47.8933467614648
30
7E-16
41
1
10
7.63762003014799
20
47.7640536517828
30
7E-16
41
1
10
7.60097621655353
20
47.6996317042015
30
7E-16
41
1
10
7.49180722427761
20
47.5070105213824
30
7E-16
41
1
10
7.42004627663599
20
47.3794574532232
30
7E-16
41
1
10
7.20744928113902
20
46.9990691669573
30
7E-16
41
1
10
7.06928861522192
20
46.7484960183574
30
7E-16
41
1
10
6.93358460093177
20
46.4999999999999
30
7E-16
0
SPLINE
5
B8
100
AcDbEntity
8
1
62
256
6
ByLayer
370
-1
48
1
60
0
100
AcDbSpline
70
4
71
3
72
18
73
14
40
0
40
0
40
0
40
0
40
0.25
40
0.25
40
0.5
40
0.5
40
0.5625
40
0.5625
40
0.624999999999999
40
0.624999999999999
40
0.75
40
0.75
40
1
40
1
40
1
40
1
41
1
10
8.68205056334185
20
-38.4599999999999
30
-1.2E-15
41
1
10
8.53209482601574
20
-38.708186774081
30
-1.2E-15
41
1
10
8.38236589506982
20
-38.9581833071268
30
-1.1E-15
41
1
10
8.08356155796679
20
-39.4633910516765
30
-1.1E-15
41
1
10
7.93449101028364
20
-39.7186410304626
30
-1.1E-15
41
1
10
7.74865515134167
20
-40.0417117173341
30
-1.1E-15
41
1
10
7.71143894976981
20
-40.1066532385352
30
-1.1E-15
41
1
10
7.63762003014799
20
-40.2359463482173
30
-1.1E-15
41
1
10
7.60097621655353
20
-40.3003682957986
30
-1.1E-15
41
1
10
7.49180722427761
20
-40.4929894786177
30
-1E-15
41
1
10
7.42004627663599
20
-40.6205425467769
30
-1E-15
41
1
10
7.20744928113902
20
-41.0009308330428
30
-1E-15
41
1
10
7.06928861522189
20
-41.2515039816427
30
-1E-15
41
1
10
6.93358460093177
20
-41.5000000000002
30
-1E-15
0
SPLINE
5
B9
100
AcDbEntity
8
1
62
256
6
ByLayer
370
-1
48
1
60
0
100
AcDbSpline
70
4
71
3
72
18
73
14
40
0
40
0
40
0
40
0
40
0.25
40
0.25
40
0.500000000000001
40
0.500000000000001
40
0.562499999999998
40
0.562499999999998
40
0.624999999999995
40
0.624999999999995
40
0.749999999999997
40
0.749999999999997
40
1
40
1
40
1
40
1
41
1
10
8.68205056334185
20
5.54000000000016
30
3.2E-15
41
1
10
8.53209482601574
20
5.29181322591913
30
3.3E-15
41
1
10
8.38236589506982
20
5.04181669287334
30
3.3E-15
41
1
10
8.08356155796679
20
4.53660894832359
30
3.3E-15
41
1
10
7.93449101028364
20
4.28135896953751
30
3.3E-15
41
1
10
7.74865515134167
20
3.95828828266605
30
3.3E-15
41
1
10
7.71143894976979
20
3.89334676146484
30
3.3E-15
41
1
10
7.63762003014799
20
3.7640536517828
30
3.4E-15
41
1
10
7.60097621655353
20
3.69963170420146
30
3.4E-15
41
1
10
7.49180722427761
20
3.50701052138237
30
3.4E-15
41
1
10
7.42004627663596
20
3.37945745322321
30
3.4E-15
41
1
10
7.20744928113899
20
2.99906916695733
30
3.4E-15
41
1
10
7.06928861522189
20
2.74849601835737
30
3.4E-15
41
1
10
6.93358460093177
20
2.49999999999994
30
3.4E-15
0
SPLINE
5
BA
100
AcDbEntity
8
1
62
256
6
ByLayer
370
-1
48
1
60
0
100
AcDbSpline
70
4
71
3
72
18
73
14
40
0
40
0
40
0
40
0
40
0.25000000000001
40
0.25000000000001
40
0.500000000000019
40
0.500000000000019
40
0.562500000000018
40
0.562500000000018
40
0.625000000000017
40
0.625000000000017
40
0.750000000000011
40
0.750000000000011
40
1
40
1
40
1
40
1
41
1
10
13.9274484505718
20
2.49999999999989
30
3.4E-15
41
1
10
13.7774927132457
20
2.74818677408092
30
3.4E-15
41
1
10
13.6277637822998
20
2.99818330712668
30
3.4E-15
41
1
10
13.3289594451967
20
3.50339105167643
30
3.4E-15
41
1
10
13.1798888975136
20
3.75864103046251
30
3.4E-15
41
1
10
12.9940530385716
20
4.081711717334
30
3.3E-15
41
1
10
12.9568368369997
20
4.14665323853518
30
3.3E-15
41
1
10
12.8830179173779
20
4.27594634821725
30
3.3E-15
41
1
10
12.8463741037835
20
4.34036829579856
30
3.3E-15
41
1
10
12.7372051115076
20
4.53298947861768
30
3.3E-15
41
1
10
12.6654441638659
20
4.66054254677681
30
3.3E-15
41
1
10
12.4528471683689
20
5.04093083304267
30
3.3E-15
41
1
10
12.3146865024519
20
5.29150398164265
30
3.3E-15
41
1
10
12.1789824881618
20
5.54000000000011
30
3.2E-15
0
SPLINE
5
BB
100
AcDbEntity
8
1
62
256
6
ByLayer
370
-1
48
1
60
0
100
AcDbSpline
70
4
71
3
72
18
73
14
40
0
40
0
40
0
40
0
40
0.250000000000002
40
0.250000000000002
40
0.500000000000004
40
0.500000000000004
40
0.562500000000004
40
0.562500000000004
40
0.625000000000004
40
0.625000000000004
40
0.750000000000002
40
0.750000000000002
40
1
40
1
40
1
40
1
41
1
10
13.9274484505718
20
-41.5000000000002
30
-1E-15
41
1
10
13.7774927132457
20
-41.2518132259192
30
-1E-15
41
1
10
13.6277637822998
20
-41.0018166928734
30
-1E-15
41
1
10
13.3289594451967
20
-40.4966089483237
30
-1E-15
41
1
10
13.1798888975136
20
-40.2413589695376
30
-1.1E-15
41
1
10
12.9940530385716
20
-39.9182882826661
30
-1.1E-15
41
1
10
12.9568368369998
20
-39.8533467614649
30
-1.1E-15
41
1
10
12.8830179173779
20
-39.7240536517829
30
-1.1E-15
41
1
10
12.8463741037835
20
-39.6596317042015
30
-1.1E-15
41
1
10
12.7372051115076
20
-39.4670105213824
30
-1.1E-15
41
1
10
12.6654441638659
20
-39.3394574532232
30
-1.1E-15
41
1
10
12.452847168369
20
-38.9590691669574
30
-1.1E-15
41
1
10
12.3146865024519
20
-38.7084960183575
30
-1.2E-15
41
1
10
12.1789824881618
20
-38.46
30
-1.2E-15
0
SPLINE
5
BC
100
AcDbEntity
8
1
62
256
6
ByLayer
370
-1
48
1
60
0
100
AcDbSpline
70
4
71
3
72
18
73
14
40
0
40
0
40
0
40
0
40
0.250000000000021
40
0.250000000000021
40
0.500000000000043
40
0.500000000000043
40
0.562500000000041
40
0.562500000000041
40
0.62500000000004
40
0.62500000000004
40
0.750000000000023
40
0.750000000000023
40
1
40
1
40
1
40
1
41
1
10
13.9274484505718
20
46.4999999999999
30
7E-16
41
1
10
13.7774927132457
20
46.7481867740809
30
7E-16
41
1
10
13.6277637822998
20
46.9981833071267
30
7E-16
41
1
10
13.3289594451967
20
47.5033910516765
30
7E-16
41
1
10
13.1798888975136
20
47.7586410304626
30
7E-16
41
1
10
12.9940530385716
20
48.081711717334
30
6E-16
41
1
10
12.9568368369997
20
48.1466532385352
30
6E-16
41
1
10
12.8830179173779
20
48.2759463482173
30
6E-16
41
1
10
12.8463741037835
20
48.3403682957986
30
6E-16
41
1
10
12.7372051115076
20
48.5329894786177
30
6E-16
41
1
10
12.6654441638659
20
48.6605425467768
30
6E-16
41
1
10
12.452847168369
20
49.0409308330427
30
6E-16
41
1
10
12.3146865024519
20
49.2915039816427
30
6E-16
41
1
10
12.1789824881618
20
49.5400000000001
30
6E-16
0
INSERT
5
CB
100
AcDbEntity
8
SK2
62
256
6
ByLayer
370
-1
48
1
60
0
100
AcDbBlockReference
2
DimnDraft3D11
10
0
20
0
30
0
41
1
42
1
43
1
50
0
210
0
220
0
230
1
0
INSERT
5
D6
100
AcDbEntity
8
2L
62
256
6
ByLayer
370
-1
48
1
60
0
100
AcDbBlockReference
2
DimnDraft3D22
10
0
20
0
30
0
41
1
42
1
43
1
50
0
210
0
220
0
230
1
0
INSERT
5
E0
100
AcDbEntity
8
SK2
62
256
6
ByLayer
370
-1
48
1
60
0
100
AcDbBlockReference
2
DimnDraft3D33
10
0
20
0
30
0
41
1
42
1
43
1
50
0
210
0
220
0
230
1
0
LINE
5
46
100
AcDbEntity
8
1
62
256
6
ByLayer
370
-1
48
1
60
0
100
AcDbLine
10
16.037055
20
-57.5
30
0
11
20.4
21
-57.5
31
0
39
0
210
0
220
0
230
1
0
LINE
5
48
100
AcDbEntity
8
1
62
256
6
ByLayer
370
-1
48
1
60
0
100
AcDbLine
10
0.5
20
57.5
30
0
11
0.5
21
-52.5
31
0
39
0
210
0
220
0
230
1
0
LINE
5
49
100
AcDbEntity
8
80
62
256
6
ByLayer
370
-1
48
1
60
0
100
AcDbLine
10
0
20
0
30
0
11
-5
21
0
31
0
39
0
210
0
220
0
230
1
0
LINE
5
4A
100
AcDbEntity
8
1
62
256
6
ByLayer
370
-1
48
1
60
0
100
AcDbLine
10
9.733271
20
-3.9325
30
0
11
10.360792
21
-3.9325
31
0
39
0
210
0
220
0
230
1
0
LINE
5
4B
100
AcDbEntity
8
1
62
256
6
ByLayer
370
-1
48
1
60
0
100
AcDbLine
10
10.360792
20
-35.0675
30
0
11
9.733271
21
-35.0675
31
0
39
0
210
0
220
0
230
1
0
LINE
5
4C
100
AcDbEntity
8
1
62
256
6
ByLayer
370
-1
48
1
60
0
100
AcDbLine
10
9.733271
20
-47.9325
30
0
11
10.360792
21
-47.9325
31
0
39
0
210
0
220
0
230
1
0
LINE
5
4D
100
AcDbEntity
8
1
62
256
6
ByLayer
370
-1
48
1
60
0
100
AcDbLine
10
10.360792
20
52.9325
30
0
11
9.733271
21
52.9325
31
0
39
0
210
0
220
0
230
1
0
LINE
5
4E
100
AcDbEntity
8
1
62
256
6
ByLayer
370
-1
48
1
60
0
100
AcDbLine
10
9.733271
20
40.0675
30
0
11
10.360792
21
40.0675
31
0
39
0
210
0
220
0
230
1
0
LINE
5
4F
100
AcDbEntity
8
1
62
256
6
ByLayer
370
-1
48
1
60
0
100
AcDbLine
10
10.360792
20
8.9325
30
0
11
9.733271
21
8.9325
31
0
39
0
210
0
220
0
230
1
0
LINE
5
50
100
AcDbEntity
8
81
62
256
6
ByLayer
370
-1
48
1
60
0
100
AcDbLine
10
15.4
20
-57.5
30
0
11
15.4
21
-62.5
31
0
39
0
210
0
220
0
230
1
0
LINE
5
51
100
AcDbEntity
8
1
62
256
6
ByLayer
370
-1
48
1
60
0
100
AcDbLine
10
20.666037
20
57.5
30
0
11
20.9
21
57.5
31
0
39
0
210
0
220
0
230
1
0
LINE
5
52
100
AcDbEntity
8
1
62
256
6
ByLayer
370
-1
48
1
60
0
100
AcDbLine
10
20.9
20
-47.5
30
0
11
20.9
21
-57.5
31
0
39
0
210
0
220
0
230
1
0
LINE
5
53
100
AcDbEntity
8
1
62
256
6
ByLayer
370
-1
48
1
60
0
100
AcDbLine
10
15.4
20
-57.5
30
0
11
15.4
21
-52.5
31
0
39
0
210
0
220
0
230
1
0
LINE
5
54
100
AcDbEntity
8
1
62
256
6
ByLayer
370
-1
48
1
60
0
100
AcDbLine
10
-24.6
20
57.5
30
0
11
0.5
21
57.5
31
0
39
0
210
0
220
0
230
1
0
LINE
5
55
100
AcDbEntity
8
1
62
256
6
ByLayer
370
-1
48
1
60
0
100
AcDbLine
10
-24.6
20
57.5
30
0
11
-24.6
21
-52.5
31
0
39
0
210
0
220
0
230
1
0
LINE
5
56
100
AcDbEntity
8
1
62
256
6
ByLayer
370
-1
48
1
60
0
100
AcDbLine
10
20.666084
20
-47.5
30
0
11
20.9
21
-47.5
31
0
39
0
210
0
220
0
230
1
0
LINE
5
57
100
AcDbEntity
8
1
62
256
6
ByLayer
370
-1
48
1
60
0
100
AcDbLine
10
16.037055
20
-52.499297
30
0
11
16.037055
21
-57.5
31
0
39
0
210
0
220
0
230
1
0
LINE
5
58
100
AcDbEntity
8
1
62
256
6
ByLayer
370
-1
48
1
60
0
100
AcDbLine
10
20.9
20
57.5
30
0
11
20.9
21
-9
31
0
39
0
210
0
220
0
230
1
0
LINE
5
59
100
AcDbEntity
8
1
62
256
6
ByLayer
370
-1
48
1
60
0
100
AcDbLine
10
1.133069
20
-52.5
30
0
11
0.5
21
-52.5
31
0
39
0
210
0
220
0
230
1
0
LINE
5
5A
100
AcDbEntity
8
1
62
256
6
ByLayer
370
-1
48
1
60
0
100
AcDbLine
10
0.5
20
-52.5
30
0
11
-24.6
21
-52.5
31
0
39
0
210
0
220
0
230
1
0
LINE
5
5B
100
AcDbEntity
8
1
62
256
6
ByLayer
370
-1
48
1
60
0
100
AcDbLine
10
15.4
20
-57.5
30
0
11
-0.1
21
-57.5
31
0
39
0
210
0
220
0
230
1
0
LINE
5
5C
100
AcDbEntity
8
1
62
256
6
ByLayer
370
-1
48
1
60
0
100
AcDbLine
10
20.61761
20
54
30
0
11
20.61761
21
-49
31
0
39
0
210
0
220
0
230
1
0
LINE
5
5D
100
AcDbEntity
8
1
62
256
6
ByLayer
370
-1
48
1
60
0
100
AcDbLine
10
1.117791
20
-49
30
0
11
20.11761
21
-49
31
0
39
0
210
0
220
0
230
1
0
LINE
5
5E
100
AcDbEntity
8
1
62
256
6
ByLayer
370
-1
48
1
60
0
100
AcDbLine
10
16.037055
20
-57.5
30
0
11
15.399991
21
-57.5
31
0
39
0
210
0
220
0
230
1
0
LINE
5
5F
100
AcDbEntity
8
1
62
256
6
ByLayer
370
-1
48
1
60
0
100
AcDbLine
10
0.5
20
57.5
30
0
11
1.133069
21
57.5
31
0
39
0
210
0
220
0
230
1
0
LINE
5
60
100
AcDbEntity
8
1
62
256
6
ByLayer
370
-1
48
1
60
0
100
AcDbLine
10
20.132882
20
-52.5
30
0
11
1.133063
21
-52.5
31
0
39
0
210
0
220
0
230
1
0
LINE
5
61
100
AcDbEntity
8
1
62
256
6
ByLayer
370
-1
48
1
60
0
100
AcDbLine
10
20.632882
20
57.5
30
0
11
20.666082
21
57.5
31
0
39
0
210
0
220
0
230
1
0
LINE
5
62
100
AcDbEntity
8
1
62
256
6
ByLayer
370
-1
48
1
60
0
100
AcDbLine
10
1.133063
20
57.5
30
0
11
20.132882
21
57.5
31
0
39
0
210
0
220
0
230
1
0
LINE
5
63
100
AcDbEntity
8
1
62
256
6
ByLayer
370
-1
48
1
60
0
100
AcDbLine
10
20.632882
20
-52.5
30
0
11
20.666082
21
-52.5
31
0
39
0
210
0
220
0
230
1
0
LINE
5
64
100
AcDbEntity
8
1
62
256
6
ByLayer
370
-1
48
1
60
0
100
AcDbLine
10
-0.1
20
-52.5
30
0
11
-0.1
21
-57.5
31
0
39
0
210
0
220
0
230
1
0
LINE
5
65
100
AcDbEntity
8
1
62
256
6
ByLayer
370
-1
48
1
60
0
100
AcDbLine
10
20.9
20
-9
30
0
11
20.666084
21
-9
31
0
39
0
210
0
220
0
230
1
0
LINE
5
66
100
AcDbEntity
8
1
62
256
6
ByLayer
370
-1
48
1
60
0
100
AcDbLine
10
20.61761
20
-49
30
0
11
20.632882
21
-52.5
31
0
39
0
210
0
220
0
230
1
0
LINE
5
67
100
AcDbEntity
8
1
62
256
6
ByLayer
370
-1
48
1
60
0
100
AcDbLine
10
1.117791
20
54
30
0
11
1.133063
21
57.5
31
0
39
0
210
0
220
0
230
1
0
LINE
5
68
100
AcDbEntity
8
1
62
256
6
ByLayer
370
-1
48
1
60
0
100
AcDbLine
10
20.624388
20
-18.75
30
0
11
20.649919
21
-18.75
31
0
39
0
210
0
220
0
230
1
0
LINE
5
69
100
AcDbEntity
8
1
62
256
6
ByLayer
370
-1
48
1
60
0
100
AcDbLine
10
20.11761
20
54
30
0
11
1.117791
21
54
31
0
39
0
210
0
220
0
230
1
0
LINE
5
6A
100
AcDbEntity
8
1
62
256
6
ByLayer
370
-1
48
1
60
0
100
AcDbLine
10
1.117791
20
54
30
0
11
1.117791
21
-49
31
0
39
0
210
0
220
0
230
1
0
LINE
5
6B
100
AcDbEntity
8
1
62
256
6
ByLayer
370
-1
48
1
60
0
100
AcDbLine
10
20.624388
20
23.75
30
0
11
20.649919
21
23.75
31
0
39
0
210
0
220
0
230
1
0
LINE
5
6C
100
AcDbEntity
8
1
62
256
6
ByLayer
370
-1
48
1
60
0
100
AcDbLine
10
20.624388
20
-20.25
30
0
11
20.649919
21
-20.25
31
0
39
0
210
0
220
0
230
1
0
LINE
5
6D
100
AcDbEntity
8
1
62
256
6
ByLayer
370
-1
48
1
60
0
100
AcDbLine
10
20.649919
20
-18.75
30
0
11
20.666082
21
-18.75
31
0
39
0
210
0
220
0
230
1
0
LINE
5
6E
100
AcDbEntity
8
1
62
256
6
ByLayer
370
-1
48
1
60
0
100
AcDbLine
10
20.649919
20
23.75
30
0
11
20.666082
21
23.75
31
0
39
0
210
0
220
0
230
1
0
LINE
5
6F
100
AcDbEntity
8
1
62
256
6
ByLayer
370
-1
48
1
60
0
100
AcDbLine
10
20.666082
20
-20.25
30
0
11
20.666082
21
-52.5
31
0
39
0
210
0
220
0
230
1
0
LINE
5
70
100
AcDbEntity
8
1
62
256
6
ByLayer
370
-1
48
1
60
0
100
AcDbLine
10
20.666082
20
23.75
30
0
11
20.666082
21
-18.75
31
0
39
0
210
0
220
0
230
1
0
LINE
5
71
100
AcDbEntity
8
1
62
256
6
ByLayer
370
-1
48
1
60
0
100
AcDbLine
10
1.133063
20
-52.5
30
0
11
1.117791
21
-49
31
0
39
0
210
0
220
0
230
1
0
LINE
5
72
100
AcDbEntity
8
1
62
256
6
ByLayer
370
-1
48
1
60
0
100
AcDbLine
10
20.624388
20
25.25
30
0
11
20.649919
21
25.25
31
0
39
0
210
0
220
0
230
1
0
LINE
5
73
100
AcDbEntity
8
1
62
256
6
ByLayer
370
-1
48
1
60
0
100
AcDbLine
10
20.666082
20
-20.25
30
0
11
20.649919
21
-20.25
31
0
39
0
210
0
220
0
230
1
0
LINE
5
74
100
AcDbEntity
8
1
62
256
6
ByLayer
370
-1
48
1
60
0
100
AcDbLine
10
13.578825
20
46.5
30
0
11
13.927448
21
46.5
31
0
39
0
210
0
220
0
230
1
0
LINE
5
75
100
AcDbEntity
8
1
62
256
6
ByLayer
370
-1
48
1
60
0
100
AcDbLine
10
13.578825
20
-41.5
30
0
11
13.927448
21
-41.5
31
0
39
0
210
0
220
0
230
1
0
LINE
5
76
100
AcDbEntity
8
1
62
256
6
ByLayer
370
-1
48
1
60
0
100
AcDbLine
10
13.578825
20
2.5
30
0
11
13.927448
21
2.5
31
0
39
0
210
0
220
0
230
1
0
LINE
5
77
100
AcDbEntity
8
1
62
256
6
ByLayer
370
-1
48
1
60
0
100
AcDbLine
10
20.632882
20
57.5
30
0
11
20.61761
21
54
31
0
39
0
210
0
220
0
230
1
0
LINE
5
78
100
AcDbEntity
8
1
62
256
6
ByLayer
370
-1
48
1
60
0
100
AcDbLine
10
20.666082
20
57.5
30
0
11
20.666082
21
25.25
31
0
39
0
210
0
220
0
230
1
0
LINE
5
79
100
AcDbEntity
8
1
62
256
6
ByLayer
370
-1
48
1
60
0
100
AcDbLine
10
20.666082
20
25.25
30
0
11
20.649919
21
25.25
31
0
39
0
210
0
220
0
230
1
0
LINE
5
7A
100
AcDbEntity
8
1
62
256
6
ByLayer
370
-1
48
1
60
0
100
AcDbLine
10
20.632882
20
57.5
30
0
11
1.133063
21
57.5
31
0
39
0
210
0
220
0
230
1
0
LINE
5
7B
100
AcDbEntity
8
1
62
256
6
ByLayer
370
-1
48
1
60
0
100
AcDbLine
10
20.61761
20
54
30
0
11
1.117791
21
54
31
0
39
0
210
0
220
0
230
1
0
LINE
5
7C
100
AcDbEntity
8
1
62
256
6
ByLayer
370
-1
48
1
60
0
100
AcDbLine
10
20.9
20
-57.5
30
0
11
16.037055
21
-57.5
31
0
39
0
210
0
220
0
230
1
0
LINE
5
7D
100
AcDbEntity
8
1
62
256
6
ByLayer
370
-1
48
1
60
0
100
AcDbLine
10
20.632882
20
-52.5
30
0
11
1.133063
21
-52.5
31
0
39
0
210
0
220
0
230
1
0
LINE
5
7E
100
AcDbEntity
8
1
62
256
6
ByLayer
370
-1
48
1
60
0
100
AcDbLine
10
20.61761
20
-49
30
0
11
1.117791
21
-49
31
0
39
0
210
0
220
0
230
1
0
MTEXT
5
BD
100
AcDbEntity
8
SK6
62
256
6
ByLayer
370
-1
48
1
60
0
100
AcDbMText
10
-10.229275
20
-14.266749
30
0
210
0
220
0
230
1
1
\W00.767;\fsimplex.shx,bigfont.shx;BA-RGC2525-25M 
40
3.5
41
0
44
1.084337
50
89.9999999999998
71
7
72
5
7
DEFAULT
0
DIMENSION
5
EA
100
AcDbEntity
8
2L
62
256
6
ByLayer
370
-3
48
1
60
0
100
AcDbDimension
2
DimnDraft3D4
10
-49.27142
20
-57.5
30
0
11
-49.27142
21
-2.454605
31
0
70
32
71
5
72
1
41
1
210
0
220
0
230
1
3
Standard
100
AcDbAlignedDimension
13
-0.454437
23
57.5
33
0
14
-1.6875
24
-57.5
34
0
50
90
100
AcDbRotatedDimension
1001
ACAD
1000
DSTYLE
1002
{
1070
    74
1070
     0
1070
   279
1070
     0
1070
   172
1070
     1
1070
   173
1070
     1
1070
   340
1005
BE
1070
   271
1070
     2
1070
   272
1070
     2
1070
    77
1070
     1
1070
    73
1070
     0
1070
   171
1070
     3
1070
   274
1070
     4
1070
   177
1070
     7
1070
   176
1070
     7
1070
   178
1070
     7
1070
    78
1070
     8
1070
    48
1040
-0.005
1070
    41
1041
3.5
1070
   147
1041
1.75
1070
    42
1041
1.5875
1070
    44
1041
2.0
1070
   140
1041
3.5
1070
   343
1005
0
1070
   344
1005
0
1002
}
0
DIMENSION
5
F4
100
AcDbEntity
8
SK2
62
256
6
ByLayer
370
-3
48
1
60
0
100
AcDbDimension
2
DimnDraft3D5
10
0
20
-66.13861
30
0
11
5.647054
21
-66.13861
31
0
70
32
71
5
72
1
41
1
210
0
220
0
230
1
3
Standard
100
AcDbAlignedDimension
13
15.4
23
-59.0875
33
0
14
0
24
-1.5875
34
0
50
0
100
AcDbRotatedDimension
1001
ACAD
1000
DSTYLE
1002
{
1070
   279
1070
     0
1070
   172
1070
     1
1070
   173
1070
     1
1070
   340
1005
BE
1070
   271
1070
     2
1070
   272
1070
     2
1070
    77
1070
     1
1070
    73
1070
     0
1070
   171
1070
     3
1070
   274
1070
     4
1070
   177
1070
     7
1070
   176
1070
     7
1070
   178
1070
     7
1070
    78
1070
     8
1070
    48
1040
-0.005
1070
    41
1041
3.5
1070
   147
1041
1.75
1070
    42
1041
1.5875
1070
    44
1041
2.0
1070
   140
1041
3.5
1070
   343
1005
0
1070
   344
1005
0
1002
}
0
DIMENSION
5
FE
100
AcDbEntity
8
2L
62
256
6
ByLayer
370
-3
48
1
60
0
100
AcDbDimension
2
DimnDraft3D6
10
-24.6
20
-74.818862
30
0
11
-7.940232
21
-74.818862
31
0
70
32
71
5
72
1
41
1
210
0
220
0
230
1
3
Standard
100
AcDbAlignedDimension
13
20.9
23
-59.0875
33
0
14
-24.6
24
-54.0875
34
0
50
0
100
AcDbRotatedDimension
1001
ACAD
1000
DSTYLE
1002
{
1070
   279
1070
     0
1070
   172
1070
     1
1070
   173
1070
     1
1070
   340
1005
BE
1070
   271
1070
     2
1070
   272
1070
     2
1070
    77
1070
     1
1070
    73
1070
     0
1070
   171
1070
     3
1070
   274
1070
     4
1070
   177
1070
     7
1070
   176
1070
     7
1070
   178
1070
     7
1070
    78
1070
     8
1070
    48
1040
-0.005
1070
    41
1041
3.5
1070
   147
1041
1.75
1070
    42
1041
1.5875
1070
    44
1041
2.0
1070
   140
1041
3.5
1070
   343
1005
0
1070
   344
1005
0
1002
}
0
ENDSEC
0
SECTION
2
OBJECTS
0
DICTIONARY
5
14c
330
0
100
AcDbDictionary
280
0
281
1
3
ACAD_GROUP
350
14d
3
ACAD_MLINESTYLE
350
14e
0
DICTIONARY
5
14d
330
0
100
AcDbDictionary
280
0
281
1
0
DICTIONARY
5
14e
330
0
100
AcDbDictionary
280
0
281
1
3
Standard
350
18
0
MLINESTYLE
5
18
330
14e
100
AcDbMlineStyle
2
Standard
70
0
3

62
256
51
90
52
90
71
2
49
-0.5
62
256
6
ByLayer
49
0.5
62
256
6
ByLayer
0
RASTERVARIABLES
5
13b
330

100
AcDbRasterVariables
90
0
70
1
71
1
72
1
0
ENDSEC
0
EOF
