  0
SECTION
  2
HEADER
  9
$ACADVER
  1
AC1015
  9
$ACADMAINTVER
 70
    20
  9
$DWGCODEPAGE
  3
ANSI_1252
  9
$INSBASE
 10
0.0
 20
0.0
 30
0.0
  9
$EXTMIN
 10
-129.852905906607
 20
-64.58909704177137
 30
0.0
  9
$EXTMAX
 10
415.1997550802871
 20
125.5653550661874
 30
0.0
  9
$LIMMIN
 10
0.0
 20
0.0
  9
$LIMMAX
 10
420.0
 20
297.0
  9
$ORTHOMODE
 70
     0
  9
$REGENMODE
 70
     1
  9
$FILLMODE
 70
     1
  9
$QTEXTMODE
 70
     0
  9
$MIRRTEXT
 70
     0
  9
$LTSCALE
 40
15.0
  9
$ATTMODE
 70
     2
  9
$TEXTSIZE
 40
2.5
  9
$TRACEWID
 40
1.0
  9
$TEXTSTYLE
  7
STANDARD
  9
$CLAYER
  8
0
  9
$CELTYPE
  6
ByLayer
  9
$CECOLOR
 62
   256
  9
$CELTSCALE
 40
1.0
  9
$DISPSILH
 70
     0
  9
$DIMSCALE
 40
1.0
  9
$DIMASZ
 40
3.5
  9
$DIMEXO
 40
1.0
  9
$DIMDLI
 40
10.0
  9
$DIMRND
 40
0.0
  9
$DIMDLE
 40
0.0
  9
$DIMEXE
 40
1.0
  9
$DIMTP
 40
0.1
  9
$DIMTM
 40
0.1
  9
$DIMTXT
 40
3.5
  9
$DIMCEN
 40
0.0
  9
$DIMTSZ
 40
0.0
  9
$DIMTOL
 70
     0
  9
$DIMLIM
 70
     0
  9
$DIMTIH
 70
     0
  9
$DIMTOH
 70
     0
  9
$DIMSE1
 70
     0
  9
$DIMSE2
 70
     0
  9
$DIMTAD
 70
     1
  9
$DIMZIN
 70
     8
  9
$DIMBLK
  1

  9
$DIMASO
 70
     1
  9
$DIMSHO
 70
     1
  9
$DIMPOST
  1

  9
$DIMAPOST
  1
"
  9
$DIMALT
 70
     0
  9
$DIMALTD
 70
     2
  9
$DIMALTF
 40
0.0393701
  9
$DIMLFAC
 40
1.0
  9
$DIMTOFL
 70
     1
  9
$DIMTVP
 40
0.0
  9
$DIMTIX
 70
     0
  9
$DIMSOXD
 70
     0
  9
$DIMSAH
 70
     0
  9
$DIMBLK1
  1

  9
$DIMBLK2
  1

  9
$DIMSTYLE
  2
AM_DIN
  9
$DIMCLRD
 70
   256
  9
$DIMCLRE
 70
   256
  9
$DIMCLRT
 70
   140
  9
$DIMTFAC
 40
0.71
  9
$DIMGAP
 40
1.5
  9
$DIMJUST
 70
     0
  9
$DIMSD1
 70
     0
  9
$DIMSD2
 70
     0
  9
$DIMTOLJ
 70
     1
  9
$DIMTZIN
 70
     0
  9
$DIMALTZ
 70
     0
  9
$DIMALTTZ
 70
     0
  9
$DIMUPT
 70
     0
  9
$DIMDEC
 70
     4
  9
$DIMTDEC
 70
     4
  9
$DIMALTU
 70
     2
  9
$DIMALTTD
 70
     2
  9
$DIMTXSTY
  7
STANDARD
  9
$DIMAUNIT
 70
     0
  9
$DIMADEC
 70
     0
  9
$DIMALTRND
 40
0.0
  9
$DIMAZIN
 70
     0
  9
$DIMDSEP
 70
    46
  9
$DIMATFIT
 70
     3
  9
$DIMFRAC
 70
     0
  9
$DIMLDRBLK
  1

  9
$DIMLUNIT
 70
     2
  9
$DIMLWD
 70
    -2
  9
$DIMLWE
 70
    -2
  9
$DIMTMOVE
 70
     0
  9
$LUNITS
 70
     2
  9
$LUPREC
 70
     2
  9
$SKETCHINC
 40
1.0
  9
$FILLETRAD
 40
2.5
  9
$AUNITS
 70
     0
  9
$AUPREC
 70
     0
  9
$MENU
  1
.
  9
$ELEVATION
 40
0.0
  9
$PELEVATION
 40
0.0
  9
$THICKNESS
 40
0.0
  9
$LIMCHECK
 70
     0
  9
$CHAMFERA
 40
2.5
  9
$CHAMFERB
 40
2.5
  9
$CHAMFERC
 40
0.0
  9
$CHAMFERD
 40
0.0
  9
$SKPOLY
 70
     0
  9
$TDCREATE
 40
2455672.497120949
  9
$TDUCREATE
 40
2455672.455454283
  9
$TDUPDATE
 40
2457718.712810324
  9
$TDUUPDATE
 40
2457718.671143658
  9
$TDINDWG
 40
0.1550381713
  9
$TDUSRTIMER
 40
0.1550376273
  9
$USRTIMER
 70
     1
  9
$ANGBASE
 50
0.0
  9
$ANGDIR
 70
     0
  9
$PDMODE
 70
     0
  9
$PDSIZE
 40
0.0
  9
$PLINEWID
 40
0.0
  9
$SPLFRAME
 70
     0
  9
$SPLINETYPE
 70
     6
  9
$SPLINESEGS
 70
     8
  9
$HANDSEED
  5
2504
  9
$SURFTAB1
 70
     6
  9
$SURFTAB2
 70
     6
  9
$SURFTYPE
 70
     6
  9
$SURFU
 70
     6
  9
$SURFV
 70
     6
  9
$UCSBASE
  2

  9
$UCSNAME
  2

  9
$UCSORG
 10
0.0
 20
0.0
 30
0.0
  9
$UCSXDIR
 10
1.0
 20
0.0
 30
0.0
  9
$UCSYDIR
 10
0.0
 20
1.0
 30
0.0
  9
$UCSORTHOREF
  2

  9
$UCSORTHOVIEW
 70
     0
  9
$UCSORGTOP
 10
0.0
 20
0.0
 30
0.0
  9
$UCSORGBOTTOM
 10
0.0
 20
0.0
 30
0.0
  9
$UCSORGLEFT
 10
0.0
 20
0.0
 30
0.0
  9
$UCSORGRIGHT
 10
0.0
 20
0.0
 30
0.0
  9
$UCSORGFRONT
 10
0.0
 20
0.0
 30
0.0
  9
$UCSORGBACK
 10
0.0
 20
0.0
 30
0.0
  9
$PUCSBASE
  2

  9
$PUCSNAME
  2

  9
$PUCSORG
 10
0.0
 20
0.0
 30
0.0
  9
$PUCSXDIR
 10
1.0
 20
0.0
 30
0.0
  9
$PUCSYDIR
 10
0.0
 20
1.0
 30
0.0
  9
$PUCSORTHOREF
  2

  9
$PUCSORTHOVIEW
 70
     0
  9
$PUCSORGTOP
 10
0.0
 20
0.0
 30
0.0
  9
$PUCSORGBOTTOM
 10
0.0
 20
0.0
 30
0.0
  9
$PUCSORGLEFT
 10
0.0
 20
0.0
 30
0.0
  9
$PUCSORGRIGHT
 10
0.0
 20
0.0
 30
0.0
  9
$PUCSORGFRONT
 10
0.0
 20
0.0
 30
0.0
  9
$PUCSORGBACK
 10
0.0
 20
0.0
 30
0.0
  9
$USERI1
 70
     0
  9
$USERI2
 70
     0
  9
$USERI3
 70
     0
  9
$USERI4
 70
     0
  9
$USERI5
 70
     0
  9
$USERR1
 40
0.0
  9
$USERR2
 40
0.0
  9
$USERR3
 40
0.0
  9
$USERR4
 40
0.0
  9
$USERR5
 40
0.0
  9
$WORLDVIEW
 70
     1
  9
$SHADEDGE
 70
     3
  9
$SHADEDIF
 70
    70
  9
$TILEMODE
 70
     1
  9
$MAXACTVP
 70
    64
  9
$PINSBASE
 10
0.0
 20
0.0
 30
0.0
  9
$PLIMCHECK
 70
     0
  9
$PEXTMIN
 10
1.131083300733189
 20
0.7885833800308344
 30
0.0
  9
$PEXTMAX
 10
10.17974970659872
 20
7.097250420277513
 30
0.0
  9
$PLIMMIN
 10
-0.1912502979669045
 20
-0.1912499975970411
  9
$PLIMMAX
 10
11.503750057671
 20
8.072082940049059
  9
$UNITMODE
 70
     0
  9
$VISRETAIN
 70
     1
  9
$PLINEGEN
 70
     0
  9
$PSLTSCALE
 70
     1
  9
$TREEDEPTH
 70
  3020
  9
$CMLSTYLE
  2
Standard
  9
$CMLJUST
 70
     0
  9
$CMLSCALE
 40
1.0
  9
$PROXYGRAPHICS
 70
     1
  9
$MEASUREMENT
 70
     0
  9
$CELWEIGHT
370
    -1
  9
$ENDCAPS
280
     0
  9
$JOINSTYLE
280
     0
  9
$LWDISPLAY
290
     0
  9
$INSUNITS
 70
     0
  9
$HYPERLINKBASE
  1

  9
$STYLESHEET
  1

  9
$XEDIT
290
     1
  9
$CEPSNTYPE
380
     0
  9
$PSTYLEMODE
290
     1
  9
$FINGERPRINTGUID
  2
{6A034635-7E56-4CA0-9903-6D54FEC16D2E}
  9
$VERSIONGUID
  2
{BBC54746-1CFC-4FB1-8A57-FA3AEC9E99D2}
  9
$EXTNAMES
290
     1
  9
$PSVPSCALE
 40
0.0
  9
$OLESTARTUP
290
     0
  0
ENDSEC
  0
SECTION
  2
CLASSES
  0
CLASS
  1
ACDBDICTIONARYWDFLT
  2
AcDbDictionaryWithDefault
  3
ObjectDBX Classes
 90
        0
280
     0
281
     0
  0
CLASS
  1
MATERIAL
  2
AcDbMaterial
  3
ObjectDBX Classes
 90
     1153
280
     0
281
     0
  0
CLASS
  1
VISUALSTYLE
  2
AcDbVisualStyle
  3
ObjectDBX Classes
 90
     4095
280
     0
281
     0
  0
CLASS
  1
SCALE
  2
AcDbScale
  3
ObjectDBX Classes
 90
     1153
280
     0
281
     0
  0
CLASS
  1
TABLESTYLE
  2
AcDbTableStyle
  3
ObjectDBX Classes
 90
     4095
280
     0
281
     0
  0
CLASS
  1
MLEADERSTYLE
  2
AcDbMLeaderStyle
  3
ACDB_MLEADERSTYLE_CLASS
 90
     4095
280
     0
281
     0
  0
CLASS
  1
DICTIONARYVAR
  2
AcDbDictionaryVar
  3
ObjectDBX Classes
 90
        0
280
     0
281
     0
  0
CLASS
  1
CELLSTYLEMAP
  2
AcDbCellStyleMap
  3
ObjectDBX Classes
 90
     1152
280
     0
281
     0
  0
CLASS
  1
ACDBPLACEHOLDER
  2
AcDbPlaceHolder
  3
ObjectDBX Classes
 90
        0
280
     0
281
     0
  0
CLASS
  1
LAYOUT
  2
AcDbLayout
  3
ObjectDBX Classes
 90
        0
280
     0
281
     0
  0
ENDSEC
  0
SECTION
  2
TABLES
  0
TABLE
  2
VPORT
  5
218D
330
0
100
AcDbSymbolTable
 70
     1
  0
VPORT
  5
21FF
330
218D
100
AcDbSymbolTableRecord
100
AcDbViewportTableRecord
  2
*ACTIVE
 70
     0
 10
0.0
 20
0.0
 11
1.0
 21
1.0
 12
48.99728217893162
 22
-14.55696545227579
 13
0.0
 23
0.0
 14
2.5
 24
2.5
 15
10.0
 25
10.0
 16
0.0
 26
0.0
 36
271.8911082557244
 17
-7.077914484763256
 27
5.165508186469383
 37
0.0
 40
102.3309812002094
 41
2.145220588235293
 42
50.0
 43
0.0
 44
0.0
 50
0.0
 51
0.0
 71
     0
 72
   100
 73
     1
 74
     3
 75
     0
 76
     0
 77
     0
 78
     0
281
     0
 65
     1
110
0.0
120
0.0
130
0.0
111
1.0
121
0.0
131
0.0
112
0.0
122
1.0
132
0.0
 79
     0
146
0.0
  0
ENDTAB
  0
TABLE
  2
LTYPE
  5
218A
330
0
100
AcDbSymbolTable
 70
     4
  0
LTYPE
  5
21EA
330
218A
100
AcDbSymbolTableRecord
100
AcDbLinetypeTableRecord
  2
ByBlock
 70
     0
  3

 72
    65
 73
     0
 40
0.0
  0
LTYPE
  5
21EB
330
218A
100
AcDbSymbolTableRecord
100
AcDbLinetypeTableRecord
  2
ByLayer
 70
     0
  3

 72
    65
 73
     0
 40
0.0
  0
LTYPE
  5
21EC
330
218A
100
AcDbSymbolTableRecord
100
AcDbLinetypeTableRecord
  2
CONTINUOUS
 70
     0
  3
Solid line
 72
    65
 73
     0
 40
0.0
  0
LTYPE
  5
2200
330
218A
100
AcDbSymbolTableRecord
100
AcDbLinetypeTableRecord
  2
CENTER
 70
     0
  3
__ . __
 72
    65
 73
     4
 40
7.0
 49
4.0
 74
     0
 49
-1.0
 74
     0
 49
1.0
 74
     0
 49
-1.0
 74
     0
  0
LTYPE
  5
2201
330
218A
100
AcDbSymbolTableRecord
100
AcDbLinetypeTableRecord
  2
DASHED
 70
     0
  3
- - - - - - - - - - - - - - - - - - - -
 72
    65
 73
     2
 40
0.2
 49
0.1
 74
     0
 49
-0.1
 74
     0
  0
LTYPE
  5
2202
330
218A
100
AcDbSymbolTableRecord
100
AcDbLinetypeTableRecord
  2
CENTER2
 70
     0
  3
Center (.5x) ___ _ ___ _ ___ _ ___ _ ___ _ ___
 72
    65
 73
     4
 40
1.125
 49
0.75
 74
     0
 49
-0.125
 74
     0
 49
0.125
 74
     0
 49
-0.125
 74
     0
  0
ENDTAB
  0
TABLE
  2
LAYER
  5
2187
330
0
100
AcDbSymbolTable
 70
    12
  0
LAYER
  5
21E4
102
{ACAD_XDICTIONARY
360
233D
102
}
330
2187
100
AcDbSymbolTableRecord
100
AcDbLayerTableRecord
  2
0
 70
     0
 62
     7
  6
CONTINUOUS
370
    -3
390
2194
  0
LAYER
  5
2203
102
{ACAD_XDICTIONARY
360
233F
102
}
330
2187
100
AcDbSymbolTableRecord
100
AcDbLayerTableRecord
  2
1
 70
     0
 62
     4
  6
CONTINUOUS
370
    -3
390
2194
  0
LAYER
  5
2204
330
2187
100
AcDbSymbolTableRecord
100
AcDbLayerTableRecord
  2
DEFPOINTS
 70
     0
 62
     7
  6
CONTINUOUS
290
     0
370
    -3
390
2194
  0
LAYER
  5
2205
102
{ACAD_XDICTIONARY
360
2341
102
}
330
2187
100
AcDbSymbolTableRecord
100
AcDbLayerTableRecord
  2
80
 70
     0
 62
     6
  6
CONTINUOUS
370
    -3
390
2194
  0
LAYER
  5
2206
102
{ACAD_XDICTIONARY
360
2343
102
}
330
2187
100
AcDbSymbolTableRecord
100
AcDbLayerTableRecord
  2
81
 70
     0
 62
     3
  6
CONTINUOUS
370
    -3
390
2194
  0
LAYER
  5
2207
102
{ACAD_XDICTIONARY
360
2345
102
}
330
2187
100
AcDbSymbolTableRecord
100
AcDbLayerTableRecord
  2
SK4
 70
     0
 62
     2
  6
CENTER
370
    -3
390
2194
  0
LAYER
  5
2208
102
{ACAD_XDICTIONARY
360
2347
102
}
330
2187
100
AcDbSymbolTableRecord
100
AcDbLayerTableRecord
  2
SK3
 70
     0
 62
     1
  6
DASHED
370
    -3
390
2194
  0
LAYER
  5
2209
102
{ACAD_XDICTIONARY
360
2349
102
}
330
2187
100
AcDbSymbolTableRecord
100
AcDbLayerTableRecord
  2
SK2
 70
     0
 62
   255
  6
CONTINUOUS
370
    -3
390
2194
  0
LAYER
  5
220A
102
{ACAD_XDICTIONARY
360
234B
102
}
330
2187
100
AcDbSymbolTableRecord
100
AcDbLayerTableRecord
  2
SK6
 70
     0
 62
     5
  6
CONTINUOUS
370
    -3
390
2194
  0
LAYER
  5
220B
102
{ACAD_XDICTIONARY
360
234D
102
}
330
2187
100
AcDbSymbolTableRecord
100
AcDbLayerTableRecord
  2
2
 70
     0
 62
     7
  6
CONTINUOUS
370
    -3
390
2194
  0
LAYER
  5
220C
102
{ACAD_XDICTIONARY
360
234F
102
}
330
2187
100
AcDbSymbolTableRecord
100
AcDbLayerTableRecord
  2
4
 70
     0
 62
     2
  6
CENTER
370
    -3
390
2194
  0
LAYER
  5
220D
102
{ACAD_XDICTIONARY
360
2351
102
}
330
2187
100
AcDbSymbolTableRecord
100
AcDbLayerTableRecord
  2
6
 70
     0
 62
     5
  6
CONTINUOUS
370
    -3
390
2194
  0
ENDTAB
  0
TABLE
  2
STYLE
  5
2188
330
0
100
AcDbSymbolTable
 70
     5
  0
STYLE
  5
21E5
330
2188
100
AcDbSymbolTableRecord
100
AcDbTextStyleTableRecord
  2
STANDARD
 70
     0
 40
0.0
 41
1.0
 50
0.0
 71
     0
 42
2.5
  3
ISOCP.SHX
  4

  0
STYLE
  5
21E9
330
2188
100
AcDbSymbolTableRecord
100
AcDbTextStyleTableRecord
  2
ANNOTATIVE
 70
     0
 40
0.0
 41
1.0
 50
0.0
 71
     0
 42
0.2
  3
txt
  4

1001
ACADANNOTATIVE
1000
AnnotativeData
1002
{
1070
     1
1070
     1
1002
}
  0
STYLE
  5
220E
330
2188
100
AcDbSymbolTableRecord
100
AcDbTextStyleTableRecord
  2
TEXTSTYLE_2
 70
     0
 40
0.0
 41
0.72
 50
0.0
 71
     0
 42
0.2
  3
SIMPLEX.SHX
  4

  0
STYLE
  5
220F
330
2188
100
AcDbSymbolTableRecord
100
AcDbTextStyleTableRecord
  2
TEXTSTYLE_3
 70
     0
 40
0.0
 41
0.72
 50
0.0
 71
     0
 42
0.2
  3
gdt
  4

  0
STYLE
  5
2210
330
2188
100
AcDbSymbolTableRecord
100
AcDbTextStyleTableRecord
  2
TEXTSTYLE_4
 70
     0
 40
0.0
 41
1.0
 50
0.0
 71
     0
 42
0.2
  3
txt
  4

  0
ENDTAB
  0
TABLE
  2
VIEW
  5
218B
330
0
100
AcDbSymbolTable
 70
     0
  0
ENDTAB
  0
TABLE
  2
UCS
  5
218C
330
0
100
AcDbSymbolTable
 70
     0
  0
ENDTAB
  0
TABLE
  2
APPID
  5
218E
330
0
100
AcDbSymbolTable
 70
    27
  0
APPID
  5
21E6
330
218E
100
AcDbSymbolTableRecord
100
AcDbRegAppTableRecord
  2
ACAD
 70
     0
  0
APPID
  5
21ED
330
218E
100
AcDbSymbolTableRecord
100
AcDbRegAppTableRecord
  2
ACADANNOTATIVE
 70
     0
  0
APPID
  5
2211
330
218E
100
AcDbSymbolTableRecord
100
AcDbRegAppTableRecord
  2
MCAD_NO_VIS
 70
     0
  0
APPID
  5
2212
330
218E
100
AcDbSymbolTableRecord
100
AcDbRegAppTableRecord
  2
ACAD_TEMP_GRAPHIC
 70
     0
  0
APPID
  5
2213
330
218E
100
AcDbSymbolTableRecord
100
AcDbRegAppTableRecord
  2
ACATTRIBSERVICES
 70
     0
  0
APPID
  5
2214
330
218E
100
AcDbSymbolTableRecord
100
AcDbRegAppTableRecord
  2
AD_DRAW
 70
     0
  0
APPID
  5
2215
330
218E
100
AcDbSymbolTableRecord
100
AcDbRegAppTableRecord
  2
DESIGNERASSEMBLIES
 70
     0
  0
APPID
  5
2216
330
218E
100
AcDbSymbolTableRecord
100
AcDbRegAppTableRecord
  2
ACADM_DIM_EDIT
 70
     0
  0
APPID
  5
2217
330
218E
100
AcDbSymbolTableRecord
100
AcDbRegAppTableRecord
  2
AMDT_DM_ADJ
 70
     0
  0
APPID
  5
2218
330
218E
100
AcDbSymbolTableRecord
100
AcDbRegAppTableRecord
  2
ACAD_DSTYLE_DIMARC_LENGTH_
 70
     0
  0
APPID
  5
2219
330
218E
100
AcDbSymbolTableRecord
100
AcDbRegAppTableRecord
  2
ACAD_DSTYLE_DIMJOGGED_JOGA
 70
     0
  0
APPID
  5
221A
330
218E
100
AcDbSymbolTableRecord
100
AcDbRegAppTableRecord
  2
ACAECLAYERSTANDARD
 70
     0
  0
APPID
  5
221B
330
218E
100
AcDbSymbolTableRecord
100
AcDbRegAppTableRecord
  2
ACAD_MLEADERVER
 70
     0
  0
APPID
  5
221C
330
218E
100
AcDbSymbolTableRecord
100
AcDbRegAppTableRecord
  2
ACAD_DSTYLE_DIMJAG
 70
     0
  0
APPID
  5
221D
330
218E
100
AcDbSymbolTableRecord
100
AcDbRegAppTableRecord
  2
ACAD_DSTYLE_DIMBREAK
 70
     0
  0
APPID
  5
221E
330
218E
100
AcDbSymbolTableRecord
100
AcDbRegAppTableRecord
  2
ACAD_EXEMPT_FROM_CAD_STANDARDS
 70
     0
  0
APPID
  5
221F
330
218E
100
AcDbSymbolTableRecord
100
AcDbRegAppTableRecord
  2
GENIUS_GENREC_14
 70
     0
  0
APPID
  5
2220
330
218E
100
AcDbSymbolTableRecord
100
AcDbRegAppTableRecord
  2
GENIUS_GENODEF_13
 70
     0
  0
APPID
  5
2221
330
218E
100
AcDbSymbolTableRecord
100
AcDbRegAppTableRecord
  2
GENIUS_GENOBJ-N-REC_13
 70
     0
  0
APPID
  5
2222
330
218E
100
AcDbSymbolTableRecord
100
AcDbRegAppTableRecord
  2
ACAUTHENVIRON
 70
     0
  0
APPID
  5
2223
330
218E
100
AcDbSymbolTableRecord
100
AcDbRegAppTableRecord
  2
ACDBDYNAMICBLOCKTRUENAME
 70
     0
  0
APPID
  5
2224
330
218E
100
AcDbSymbolTableRecord
100
AcDbRegAppTableRecord
  2
ACDBDYNAMICBLOCKGUID
 70
     0
  0
APPID
  5
2225
330
218E
100
AcDbSymbolTableRecord
100
AcDbRegAppTableRecord
  2
ACDBBLOCKREPETAG
 70
     0
  0
APPID
  5
2226
330
218E
100
AcDbSymbolTableRecord
100
AcDbRegAppTableRecord
  2
ACADANNOPO
 70
     0
  0
APPID
  5
2227
330
218E
100
AcDbSymbolTableRecord
100
AcDbRegAppTableRecord
  2
ACDBBLOCKREPBTAG
 70
     0
  0
APPID
  5
2228
330
218E
100
AcDbSymbolTableRecord
100
AcDbRegAppTableRecord
  2
ACCMTRANSPARENCY
 70
     0
  0
APPID
  5
2229
330
218E
100
AcDbSymbolTableRecord
100
AcDbRegAppTableRecord
  2
ACAD_PSEXT
 70
     0
  0
ENDTAB
  0
TABLE
  2
DIMSTYLE
  5
218F
330
0
100
AcDbSymbolTable
 70
     7
100
AcDbDimStyleTable
 71
     2
340
21E7
340
222A
  0
DIMSTYLE
105
21E7
102
{ACAD_REACTORS
330
1DA5
330
1DA6
330
1DA7
330
1DA8
330
1DA9
330
1DAA
330
1DAB
330
22EC
102
}
330
218F
100
AcDbSymbolTableRecord
100
AcDbDimStyleTableRecord
  2
STANDARD
 70
     0
 41
3.5
 47
0.005
 48
0.005
 71
     1
 73
     0
 74
     0
 77
     1
 78
     8
140
3.5
178
     5
271
     2
272
     2
279
     2
284
     8
285
     8
286
     8
340
21E5
  0
DIMSTYLE
105
21E8
330
218F
100
AcDbSymbolTableRecord
100
AcDbDimStyleTableRecord
  2
ANNOTATIVE
 70
     0
271
     2
272
     2
279
     2
284
     8
285
     8
286
     8
340
21E5
1001
ACADANNOTATIVE
1000
AnnotativeData
1002
{
1070
     1
1070
     1
1002
}
  0
DIMSTYLE
105
222A
330
218F
100
AcDbSymbolTableRecord
100
AcDbDimStyleTableRecord
  2
AM_DIN
 70
     0
  4
"
 41
3.5
 42
1.0
 43
10.0
 44
1.0
 47
0.1
 48
0.1
 73
     0
 74
     0
 77
     1
 78
     8
140
3.5
141
0.0
143
0.0393701
146
0.71
147
1.5
172
     1
176
   256
177
   256
178
   140
271
     2
272
     2
279
     2
284
     8
285
     8
286
     8
340
21E5
  0
DIMSTYLE
105
222B
330
218F
100
AcDbSymbolTableRecord
100
AcDbDimStyleTableRecord
  2
DIMSTYLE_1
 70
     0
 41
3.5
 47
0.5
 48
0.5
 73
     0
 74
     0
 77
     1
 78
     8
140
3.5
271
     2
272
     2
279
     2
284
     8
285
     8
286
     8
340
21E5
  0
DIMSTYLE
105
222C
330
218F
100
AcDbSymbolTableRecord
100
AcDbDimStyleTableRecord
  2
DIMSTYLE_2
 70
     0
 41
3.5
 47
0.3
 48
0.3
 73
     0
 74
     0
 77
     1
 78
     8
140
3.5
271
     2
272
     2
279
     2
284
     8
285
     8
286
     8
340
21E5
  0
DIMSTYLE
105
222D
330
218F
100
AcDbSymbolTableRecord
100
AcDbDimStyleTableRecord
  2
DIMSTYLE_3
 70
     0
 41
3.5
 47
0.2
 48
0.2
 73
     0
 74
     0
 77
     1
 78
     8
140
3.5
271
     2
272
     2
279
     2
284
     8
285
     8
286
     8
340
21E5
  0
DIMSTYLE
105
222E
330
218F
100
AcDbSymbolTableRecord
100
AcDbDimStyleTableRecord
  2
DIMSTYLE_4
 70
     0
 41
3.5
 47
0.2
 48
0.2
 73
     0
 74
     0
 77
     1
 78
     8
140
3.5
271
     2
272
     2
279
     2
284
     8
285
     8
286
     8
340
21E5
  0
ENDTAB
  0
TABLE
  2
BLOCK_RECORD
  5
2186
330
0
100
AcDbSymbolTable
 70
    55
  0
BLOCK_RECORD
  5
21FB
330
2186
100
AcDbSymbolTableRecord
100
AcDbBlockTableRecord
  2
*Model_Space
340
21FE
  0
BLOCK_RECORD
  5
21F7
330
2186
100
AcDbSymbolTableRecord
100
AcDbBlockTableRecord
  2
*Paper_Space
340
21FA
  0
BLOCK_RECORD
  5
2233
330
2186
100
AcDbSymbolTableRecord
100
AcDbBlockTableRecord
  2
$MODEL_SPACE
340
0
  0
BLOCK_RECORD
  5
2235
330
2186
100
AcDbSymbolTableRecord
100
AcDbBlockTableRecord
  2
$PAPER_SPACE
340
0
  0
BLOCK_RECORD
  5
2237
330
2186
100
AcDbSymbolTableRecord
100
AcDbBlockTableRecord
  2
*D2
340
0
  0
BLOCK_RECORD
  5
2239
330
2186
100
AcDbSymbolTableRecord
100
AcDbBlockTableRecord
  2
*U3
340
0
102
{BLKREFS
331
1965
102
}
  0
BLOCK_RECORD
  5
223B
330
2186
100
AcDbSymbolTableRecord
100
AcDbBlockTableRecord
  2
*D4
340
0
  0
BLOCK_RECORD
  5
223D
330
2186
100
AcDbSymbolTableRecord
100
AcDbBlockTableRecord
  2
*U5
340
0
102
{BLKREFS
331
196E
102
}
  0
BLOCK_RECORD
  5
223F
330
2186
100
AcDbSymbolTableRecord
100
AcDbBlockTableRecord
  2
*D6
340
0
  0
BLOCK_RECORD
  5
2241
330
2186
100
AcDbSymbolTableRecord
100
AcDbBlockTableRecord
  2
*U7
340
0
102
{BLKREFS
331
19BD
102
}
  0
BLOCK_RECORD
  5
2243
330
2186
100
AcDbSymbolTableRecord
100
AcDbBlockTableRecord
  2
*D8
340
0
  0
BLOCK_RECORD
  5
2245
330
2186
100
AcDbSymbolTableRecord
100
AcDbBlockTableRecord
  2
*U9
340
0
102
{BLKREFS
331
1980
102
}
  0
BLOCK_RECORD
  5
2247
330
2186
100
AcDbSymbolTableRecord
100
AcDbBlockTableRecord
  2
*D10
340
0
  0
BLOCK_RECORD
  5
2249
330
2186
100
AcDbSymbolTableRecord
100
AcDbBlockTableRecord
  2
*U11
340
0
102
{BLKREFS
331
1989
102
}
  0
BLOCK_RECORD
  5
224B
330
2186
100
AcDbSymbolTableRecord
100
AcDbBlockTableRecord
  2
*D12
340
0
  0
BLOCK_RECORD
  5
224D
330
2186
100
AcDbSymbolTableRecord
100
AcDbBlockTableRecord
  2
*U13
340
0
102
{BLKREFS
331
1992
102
}
  0
BLOCK_RECORD
  5
224F
330
2186
100
AcDbSymbolTableRecord
100
AcDbBlockTableRecord
  2
*D14
340
0
  0
BLOCK_RECORD
  5
2251
330
2186
100
AcDbSymbolTableRecord
100
AcDbBlockTableRecord
  2
*U15
340
0
102
{BLKREFS
331
195C
102
}
  0
BLOCK_RECORD
  5
2253
330
2186
100
AcDbSymbolTableRecord
100
AcDbBlockTableRecord
  2
_FILLED
340
0
102
{BLKREFS
331
1CCB
331
1CCC
331
1CD5
331
1CD6
331
1CDF
331
1CE0
331
1CE9
331
1CEA
331
1CF3
331
1CF4
331
1CFD
331
1CFE
331
1D07
331
1D08
331
1F62
331
1F63
331
1F75
331
1F76
331
1F3E
331
1F3F
331
1F59
331
1F5A
331
1F23
331
1F24
331
1F2C
331
1F2D
331
1F7E
331
1F7F
102
}
  0
BLOCK_RECORD
  5
2255
330
2186
100
AcDbSymbolTableRecord
100
AcDbBlockTableRecord
  2
*D17
340
0
  0
BLOCK_RECORD
  5
2257
330
2186
100
AcDbSymbolTableRecord
100
AcDbBlockTableRecord
  2
*U18
340
0
102
{BLKREFS
331
1CC6
102
}
  0
BLOCK_RECORD
  5
2259
330
2186
100
AcDbSymbolTableRecord
100
AcDbBlockTableRecord
  2
*D19
340
0
  0
BLOCK_RECORD
  5
225B
330
2186
100
AcDbSymbolTableRecord
100
AcDbBlockTableRecord
  2
*U20
340
0
102
{BLKREFS
331
1CD0
102
}
  0
BLOCK_RECORD
  5
225D
330
2186
100
AcDbSymbolTableRecord
100
AcDbBlockTableRecord
  2
*D21
340
0
  0
BLOCK_RECORD
  5
225F
330
2186
100
AcDbSymbolTableRecord
100
AcDbBlockTableRecord
  2
*U22
340
0
102
{BLKREFS
331
1CDA
102
}
  0
BLOCK_RECORD
  5
2261
330
2186
100
AcDbSymbolTableRecord
100
AcDbBlockTableRecord
  2
*D23
340
0
  0
BLOCK_RECORD
  5
2263
330
2186
100
AcDbSymbolTableRecord
100
AcDbBlockTableRecord
  2
*U24
340
0
102
{BLKREFS
331
1CE4
102
}
  0
BLOCK_RECORD
  5
2265
330
2186
100
AcDbSymbolTableRecord
100
AcDbBlockTableRecord
  2
*D25
340
0
  0
BLOCK_RECORD
  5
2267
330
2186
100
AcDbSymbolTableRecord
100
AcDbBlockTableRecord
  2
*U26
340
0
102
{BLKREFS
331
1CEE
102
}
  0
BLOCK_RECORD
  5
2269
330
2186
100
AcDbSymbolTableRecord
100
AcDbBlockTableRecord
  2
*D27
340
0
  0
BLOCK_RECORD
  5
226B
330
2186
100
AcDbSymbolTableRecord
100
AcDbBlockTableRecord
  2
*U28
340
0
102
{BLKREFS
331
1CF8
102
}
  0
BLOCK_RECORD
  5
226D
330
2186
100
AcDbSymbolTableRecord
100
AcDbBlockTableRecord
  2
*D29
340
0
  0
BLOCK_RECORD
  5
226F
330
2186
100
AcDbSymbolTableRecord
100
AcDbBlockTableRecord
  2
*U30
340
0
102
{BLKREFS
331
1D02
102
}
  0
BLOCK_RECORD
  5
2271
330
2186
100
AcDbSymbolTableRecord
100
AcDbBlockTableRecord
  2
*D31
340
0
  0
BLOCK_RECORD
  5
2273
330
2186
100
AcDbSymbolTableRecord
100
AcDbBlockTableRecord
  2
*U32
340
0
102
{BLKREFS
331
1F64
102
}
  0
BLOCK_RECORD
  5
2275
330
2186
100
AcDbSymbolTableRecord
100
AcDbBlockTableRecord
  2
*D33
340
0
  0
BLOCK_RECORD
  5
2277
330
2186
100
AcDbSymbolTableRecord
100
AcDbBlockTableRecord
  2
*U34
340
0
102
{BLKREFS
331
1F77
102
}
  0
BLOCK_RECORD
  5
2279
330
2186
100
AcDbSymbolTableRecord
100
AcDbBlockTableRecord
  2
*D35
340
0
  0
BLOCK_RECORD
  5
227B
330
2186
100
AcDbSymbolTableRecord
100
AcDbBlockTableRecord
  2
*U36
340
0
102
{BLKREFS
331
1F40
102
}
  0
BLOCK_RECORD
  5
227D
330
2186
100
AcDbSymbolTableRecord
100
AcDbBlockTableRecord
  2
*D37
340
0
  0
BLOCK_RECORD
  5
227F
330
2186
100
AcDbSymbolTableRecord
100
AcDbBlockTableRecord
  2
*U38
340
0
102
{BLKREFS
331
1F5B
102
}
  0
BLOCK_RECORD
  5
2281
330
2186
100
AcDbSymbolTableRecord
100
AcDbBlockTableRecord
  2
*D39
340
0
  0
BLOCK_RECORD
  5
2283
330
2186
100
AcDbSymbolTableRecord
100
AcDbBlockTableRecord
  2
*U40
340
0
102
{BLKREFS
331
1F25
102
}
  0
BLOCK_RECORD
  5
2285
330
2186
100
AcDbSymbolTableRecord
100
AcDbBlockTableRecord
  2
*D41
340
0
  0
BLOCK_RECORD
  5
2287
330
2186
100
AcDbSymbolTableRecord
100
AcDbBlockTableRecord
  2
*U42
340
0
102
{BLKREFS
331
1F2E
102
}
  0
BLOCK_RECORD
  5
2289
330
2186
100
AcDbSymbolTableRecord
100
AcDbBlockTableRecord
  2
*D43
340
0
  0
BLOCK_RECORD
  5
228B
330
2186
100
AcDbSymbolTableRecord
100
AcDbBlockTableRecord
  2
*U44
340
0
102
{BLKREFS
331
1F80
102
}
  0
BLOCK_RECORD
  5
228D
330
2186
100
AcDbSymbolTableRecord
100
AcDbBlockTableRecord
  2
*U45
340
0
  0
BLOCK_RECORD
  5
228F
330
2186
100
AcDbSymbolTableRecord
100
AcDbBlockTableRecord
  2
*U46
340
0
  0
BLOCK_RECORD
  5
2294
330
2186
100
AcDbSymbolTableRecord
100
AcDbBlockTableRecord
  2
*D47
340
0
  0
BLOCK_RECORD
  5
22AB
330
2186
100
AcDbSymbolTableRecord
100
AcDbBlockTableRecord
  2
*D48
340
0
  0
BLOCK_RECORD
  5
22B8
330
2186
100
AcDbSymbolTableRecord
100
AcDbBlockTableRecord
  2
*D49
340
0
  0
BLOCK_RECORD
  5
22C5
330
2186
100
AcDbSymbolTableRecord
100
AcDbBlockTableRecord
  2
*D50
340
0
  0
BLOCK_RECORD
  5
22D2
330
2186
100
AcDbSymbolTableRecord
100
AcDbBlockTableRecord
  2
*D51
340
0
  0
BLOCK_RECORD
  5
22DF
330
2186
100
AcDbSymbolTableRecord
100
AcDbBlockTableRecord
  2
*D52
340
0
  0
BLOCK_RECORD
  5
22ED
330
2186
100
AcDbSymbolTableRecord
100
AcDbBlockTableRecord
  2
*D53
340
0
  0
BLOCK_RECORD
  5
231D
330
2186
100
AcDbSymbolTableRecord
100
AcDbBlockTableRecord
  2
*D54
340
0
  0
ENDTAB
  0
ENDSEC
  0
SECTION
  2
BLOCKS
  0
BLOCK
  5
21FC
330
21FB
100
AcDbEntity
  8
0
100
AcDbBlockBegin
  2
*Model_Space
 70
     0
 10
0.0
 20
0.0
 30
0.0
  3
*Model_Space
  1

  0
ENDBLK
  5
21FD
330
21FB
100
AcDbEntity
  8
0
100
AcDbBlockEnd
  0
BLOCK
  5
21F8
330
21F7
100
AcDbEntity
 67
     1
  8
0
100
AcDbBlockBegin
  2
*Paper_Space
 70
     0
 10
0.0
 20
0.0
 30
0.0
  3
*Paper_Space
  1

  0
ENDBLK
  5
21F9
330
21F7
100
AcDbEntity
 67
     1
  8
0
100
AcDbBlockEnd
  0
BLOCK
  5
2234
330
2233
100
AcDbEntity
  8
0
100
AcDbBlockBegin
  2
$MODEL_SPACE
 70
     0
 10
0.0
 20
0.0
 30
0.0
  3
$MODEL_SPACE
  1

  0
ENDBLK
  5
20AD
330
2233
100
AcDbEntity
  8
0
100
AcDbBlockEnd
  0
BLOCK
  5
2236
330
2235
100
AcDbEntity
  8
0
100
AcDbBlockBegin
  2
$PAPER_SPACE
 70
     0
 10
0.0
 20
0.0
 30
0.0
  3
$PAPER_SPACE
  1

  0
ENDBLK
  5
20A9
330
2235
100
AcDbEntity
  8
0
100
AcDbBlockEnd
  0
BLOCK
  5
2238
330
2237
100
AcDbEntity
  8
0
100
AcDbBlockBegin
  2
*D2
 70
     1
 10
0.0
 20
0.0
 30
0.0
  3
*D2
  1

  0
LINE
  5
1962
330
2237
100
AcDbEntity
  8
2
 62
     0
100
AcDbLine
 10
0.0
 20
15.47474753889992
 30
0.0
 11
0.0000000000000018
 21
44.22528291250108
 31
0.0
  0
LINE
  5
1963
330
2237
100
AcDbEntity
  8
2
 62
     0
100
AcDbLine
 10
60.0
 20
11.5625
 30
0.0
 11
60.0
 21
44.22528291250108
 31
0.0
  0
LINE
  5
1964
330
2237
100
AcDbEntity
  8
2
 62
     0
100
AcDbLine
 10
3.5
 20
44.04528291250108
 30
0.0
 11
56.5
 21
44.04528291250108
 31
0.0
  0
INSERT
  5
1965
330
2237
100
AcDbEntity
  8
0
100
AcDbBlockReference
  2
*U3
 10
0.0
 20
0.0
 30
0.0
  0
SOLID
  5
1966
330
2237
100
AcDbEntity
  8
2
 62
     0
100
AcDbTrace
 10
3.5
 20
44.62861624583442
 30
0.0
 11
3.5
 21
43.46194957916774
 31
0.0
 12
0.0000000000000018
 22
44.04528291250108
 32
0.0
 13
0.0000000000000018
 23
44.04528291250108
 33
0.0
  0
SOLID
  5
1967
330
2237
100
AcDbEntity
  8
2
 62
     0
100
AcDbTrace
 10
56.5
 20
44.62861624583442
 30
0.0
 11
56.5
 21
43.46194957916774
 31
0.0
 12
60.0
 22
44.04528291250108
 32
0.0
 13
60.0
 23
44.04528291250108
 33
0.0
  0
POINT
  5
1968
330
2237
100
AcDbEntity
  8
DEFPOINTS
 62
     0
100
AcDbPoint
 10
0.0
 20
15.41224753889992
 30
0.0
  0
POINT
  5
1969
330
2237
100
AcDbEntity
  8
DEFPOINTS
 62
     0
100
AcDbPoint
 10
60.0
 20
11.5
 30
0.0
  0
POINT
  5
196A
330
2237
100
AcDbEntity
  8
DEFPOINTS
 62
     0
100
AcDbPoint
 10
60.0
 20
44.04528291250108
 30
0.0
  0
ENDBLK
  5
1875
330
2237
100
AcDbEntity
  8
0
100
AcDbBlockEnd
  0
BLOCK
  5
223A
330
2239
100
AcDbEntity
  8
0
100
AcDbBlockBegin
  2
*U3
 70
     1
 10
0.0
 20
0.0
 30
0.0
  3
*U3
  1

  0
TEXT
  5
1A69
330
2239
100
AcDbEntity
  8
2
100
AcDbText
 10
26.57647811243656
 20
44.86565621357089
 30
0.0
 40
3.5
  1
60
100
AcDbText
  0
ENDBLK
  5
1A6B
330
2239
100
AcDbEntity
  8
0
100
AcDbBlockEnd
  0
BLOCK
  5
223C
330
223B
100
AcDbEntity
  8
0
100
AcDbBlockBegin
  2
*D4
 70
     1
 10
0.0
 20
0.0
 30
0.0
  3
*D4
  1

  0
LINE
  5
196B
330
223B
100
AcDbEntity
  8
SK2
 62
     0
100
AcDbLine
 10
-48.39999999999964
 20
10.37868783880026
 30
0.0
 11
-48.39999999999964
 21
44.2331845337
 31
0.0
  0
LINE
  5
196C
330
223B
100
AcDbEntity
  8
SK2
 62
     0
100
AcDbLine
 10
0.0
 20
15.47474753889992
 30
0.0
 11
0.0000000000000018
 21
44.2331845337
 31
0.0
  0
LINE
  5
196D
330
223B
100
AcDbEntity
  8
SK2
 62
     0
100
AcDbLine
 10
-44.89999999999962
 20
44.05318453369999
 30
0.0
 11
-3.499999999999996
 21
44.05318453369999
 31
0.0
  0
INSERT
  5
196E
330
223B
100
AcDbEntity
  8
0
100
AcDbBlockReference
  2
*U5
 10
0.0
 20
0.0
 30
0.0
  0
SOLID
  5
196F
330
223B
100
AcDbEntity
  8
SK2
 62
     0
100
AcDbTrace
 10
-44.89999999999962
 20
44.63651786703334
 30
0.0
 11
-44.89999999999962
 21
43.46985120036666
 31
0.0
 12
-48.39999999999964
 22
44.05318453369999
 32
0.0
 13
-48.39999999999964
 23
44.05318453369999
 33
0.0
  0
SOLID
  5
1970
330
223B
100
AcDbEntity
  8
SK2
 62
     0
100
AcDbTrace
 10
-3.499999999999996
 20
44.63651786703334
 30
0.0
 11
-3.499999999999996
 21
43.46985120036666
 31
0.0
 12
0.0000000000000018
 22
44.05318453369999
 32
0.0
 13
0.0000000000000018
 23
44.05318453369999
 33
0.0
  0
POINT
  5
1971
330
223B
100
AcDbEntity
  8
DEFPOINTS
 62
     0
100
AcDbPoint
 10
-48.39999999999964
 20
10.31618783880026
 30
0.0
  0
POINT
  5
1972
330
223B
100
AcDbEntity
  8
DEFPOINTS
 62
     0
100
AcDbPoint
 10
0.0
 20
15.41224753889992
 30
0.0
  0
POINT
  5
1973
330
223B
100
AcDbEntity
  8
DEFPOINTS
 62
     0
100
AcDbPoint
 10
0.0000000000000018
 20
44.05318453369999
 30
0.0
  0
ENDBLK
  5
18D4
330
223B
100
AcDbEntity
  8
0
100
AcDbBlockEnd
  0
BLOCK
  5
223E
330
223D
100
AcDbEntity
  8
0
100
AcDbBlockBegin
  2
*U5
 70
     1
 10
0.0
 20
0.0
 30
0.0
  3
*U5
  1

  0
TEXT
  5
1A6D
330
223D
100
AcDbEntity
  8
SK2
100
AcDbText
 10
-31.73018861516793
 20
44.99203433457181
 30
0.0
 40
3.5
  1
48.4
100
AcDbText
  0
ENDBLK
  5
1A6F
330
223D
100
AcDbEntity
  8
0
100
AcDbBlockEnd
  0
BLOCK
  5
2240
330
223F
100
AcDbEntity
  8
0
100
AcDbBlockBegin
  2
*D6
 70
     1
 10
0.0
 20
0.0
 30
0.0
  3
*D6
  1

  0
LINE
  5
19BA
330
223F
100
AcDbEntity
  8
2
 62
     0
100
AcDbLine
 10
0.0
 20
15.47474753889992
 30
0.0
 11
0.0000000000000013
 21
36.11458243420105
 31
0.0
  0
LINE
  5
19BB
330
223F
100
AcDbEntity
  8
2
 62
     0
100
AcDbLine
 10
22.0
 20
23.962500000001
 30
0.0
 11
22.0
 21
36.11458243420105
 31
0.0
  0
LINE
  5
19BC
330
223F
100
AcDbEntity
  8
2
 62
     0
100
AcDbLine
 10
3.5
 20
35.93458243420105
 30
0.0
 11
18.5
 21
35.93458243420105
 31
0.0
  0
INSERT
  5
19BD
330
223F
100
AcDbEntity
  8
0
100
AcDbBlockReference
  2
*U7
 10
0.0
 20
0.0
 30
0.0
  0
SOLID
  5
19BE
330
223F
100
AcDbEntity
  8
2
 62
     0
100
AcDbTrace
 10
3.5
 20
36.51791576753439
 30
0.0
 11
3.5
 21
35.35124910086771
 31
0.0
 12
0.0000000000000013
 22
35.93458243420105
 32
0.0
 13
0.0000000000000013
 23
35.93458243420105
 33
0.0
  0
SOLID
  5
19BF
330
223F
100
AcDbEntity
  8
2
 62
     0
100
AcDbTrace
 10
18.5
 20
36.51791576753439
 30
0.0
 11
18.5
 21
35.35124910086771
 31
0.0
 12
22.0
 22
35.93458243420105
 32
0.0
 13
22.0
 23
35.93458243420105
 33
0.0
  0
POINT
  5
19C0
330
223F
100
AcDbEntity
  8
DEFPOINTS
 62
     0
100
AcDbPoint
 10
0.0
 20
15.41224753889992
 30
0.0
  0
POINT
  5
19C1
330
223F
100
AcDbEntity
  8
DEFPOINTS
 62
     0
100
AcDbPoint
 10
22.0
 20
23.900000000001
 30
0.0
  0
POINT
  5
19C2
330
223F
100
AcDbEntity
  8
DEFPOINTS
 62
     0
100
AcDbPoint
 10
22.0
 20
35.93458243420105
 30
0.0
  0
ENDBLK
  5
18E0
330
223F
100
AcDbEntity
  8
0
100
AcDbBlockEnd
  0
BLOCK
  5
2242
330
2241
100
AcDbEntity
  8
0
100
AcDbBlockBegin
  2
*U7
 70
     1
 10
0.0
 20
0.0
 30
0.0
  3
*U7
  1

  0
TEXT
  5
1A7F
330
2241
100
AcDbEntity
  8
2
100
AcDbText
 10
7.729649161784447
 20
36.72992496952907
 30
0.0
 40
3.5
  1
22
100
AcDbText
  0
ENDBLK
  5
1A81
330
2241
100
AcDbEntity
  8
0
100
AcDbBlockEnd
  0
BLOCK
  5
2244
330
2243
100
AcDbEntity
  8
0
100
AcDbBlockBegin
  2
*D8
 70
     1
 10
0.0
 20
0.0
 30
0.0
  3
*D8
  1

  0
LINE
  5
197D
330
2243
100
AcDbEntity
  8
SK2
 62
     0
100
AcDbLine
 10
1.037499999999909
 20
-22.99999999999863
 30
0.0
 11
-71.73780759629966
 21
-22.99999999999863
 31
0.0
  0
LINE
  5
197E
330
2243
100
AcDbEntity
  8
SK2
 62
     0
100
AcDbLine
 10
1.037499999999909
 20
23.00000000000137
 30
0.0
 11
-71.73780759629966
 21
23.00000000000137
 31
0.0
  0
LINE
  5
197F
330
2243
100
AcDbEntity
  8
SK2
 62
     0
100
AcDbLine
 10
-71.55780759629966
 20
-19.49999999999862
 30
0.0
 11
-71.55780759629966
 21
19.50000000000137
 31
0.0
  0
INSERT
  5
1980
330
2243
100
AcDbEntity
  8
0
100
AcDbBlockReference
  2
*U9
 10
0.0
 20
0.0
 30
0.0
  0
SOLID
  5
1981
330
2243
100
AcDbEntity
  8
SK2
 62
     0
100
AcDbTrace
 10
-72.14114092963298
 20
-19.49999999999861
 30
0.0
 11
-70.97447426296631
 21
-19.49999999999862
 31
0.0
 12
-71.55780759629966
 22
-22.99999999999863
 32
0.0
 13
-71.55780759629966
 23
-22.99999999999863
 33
0.0
  0
SOLID
  5
1982
330
2243
100
AcDbEntity
  8
SK2
 62
     0
100
AcDbTrace
 10
-72.14114092963298
 20
19.50000000000137
 30
0.0
 11
-70.97447426296631
 21
19.50000000000137
 31
0.0
 12
-71.55780759629966
 22
23.00000000000137
 32
0.0
 13
-71.55780759629966
 23
23.00000000000137
 33
0.0
  0
POINT
  5
1983
330
2243
100
AcDbEntity
  8
DEFPOINTS
 62
     0
100
AcDbPoint
 10
1.099999999999909
 20
-22.99999999999863
 30
0.0
  0
POINT
  5
1984
330
2243
100
AcDbEntity
  8
DEFPOINTS
 62
     0
100
AcDbPoint
 10
1.099999999999909
 20
23.00000000000137
 30
0.0
  0
POINT
  5
1985
330
2243
100
AcDbEntity
  8
DEFPOINTS
 62
     0
100
AcDbPoint
 10
-71.55780759629966
 20
23.00000000000137
 30
0.0
  0
ENDBLK
  5
18EC
330
2243
100
AcDbEntity
  8
0
100
AcDbBlockEnd
  0
BLOCK
  5
2246
330
2245
100
AcDbEntity
  8
0
100
AcDbBlockBegin
  2
*U9
 70
     1
 10
0.0
 20
0.0
 30
0.0
  3
*U9
  1

  0
TEXT
  5
1A71
330
2245
100
AcDbEntity
  8
SK2
100
AcDbText
 10
-72.26342445040393
 20
-5.551610435369664
 30
0.0
 40
3.5
  1
\U+220546
 50
90.0
100
AcDbText
  0
ENDBLK
  5
1A73
330
2245
100
AcDbEntity
  8
0
100
AcDbBlockEnd
  0
BLOCK
  5
2248
330
2247
100
AcDbEntity
  8
0
100
AcDbBlockBegin
  2
*D10
 70
     1
 10
0.0
 20
0.0
 30
0.0
  3
*D10
  1

  0
LINE
  5
1986
330
2247
100
AcDbEntity
  8
SK2
 62
     0
100
AcDbLine
 10
-1.5625
 20
15.87500000000136
 30
0.0
 11
-62.40446057479953
 21
15.87500000000138
 31
0.0
  0
LINE
  5
1987
330
2247
100
AcDbEntity
  8
SK2
 62
     0
100
AcDbLine
 10
-2.462500000000088
 20
-15.875
 30
0.0
 11
-62.40446057479953
 21
-15.87499999999998
 31
0.0
  0
LINE
  5
1988
330
2247
100
AcDbEntity
  8
SK2
 62
     0
100
AcDbLine
 10
-62.22446057479952
 20
12.37500000000138
 30
0.0
 11
-62.22446057479952
 21
-12.37499999999998
 31
0.0
  0
INSERT
  5
1989
330
2247
100
AcDbEntity
  8
0
100
AcDbBlockReference
  2
*U11
 10
0.0
 20
0.0
 30
0.0
  0
SOLID
  5
198A
330
2247
100
AcDbEntity
  8
SK2
 62
     0
100
AcDbTrace
 10
-62.80779390813286
 20
12.37500000000138
 30
0.0
 11
-61.64112724146621
 21
12.37500000000138
 31
0.0
 12
-62.22446057479952
 22
15.87500000000138
 32
0.0
 13
-62.22446057479952
 23
15.87500000000138
 33
0.0
  0
SOLID
  5
198B
330
2247
100
AcDbEntity
  8
SK2
 62
     0
100
AcDbTrace
 10
-62.80779390813286
 20
-12.37499999999998
 30
0.0
 11
-61.64112724146621
 21
-12.37499999999998
 31
0.0
 12
-62.22446057479952
 22
-15.87499999999998
 32
0.0
 13
-62.22446057479952
 23
-15.87499999999998
 33
0.0
  0
POINT
  5
198C
330
2247
100
AcDbEntity
  8
DEFPOINTS
 62
     0
100
AcDbPoint
 10
-1.5
 20
15.87500000000136
 30
0.0
  0
POINT
  5
198D
330
2247
100
AcDbEntity
  8
DEFPOINTS
 62
     0
100
AcDbPoint
 10
-2.400000000000088
 20
-15.875
 30
0.0
  0
POINT
  5
198E
330
2247
100
AcDbEntity
  8
DEFPOINTS
 62
     0
100
AcDbPoint
 10
-62.22446057479952
 20
-15.87499999999998
 30
0.0
  0
ENDBLK
  5
18F8
330
2247
100
AcDbEntity
  8
0
100
AcDbBlockEnd
  0
BLOCK
  5
224A
330
2249
100
AcDbEntity
  8
0
100
AcDbBlockBegin
  2
*U11
 70
     1
 10
0.0
 20
0.0
 30
0.0
  3
*U11
  1

  0
TEXT
  5
1A75
330
2249
100
AcDbEntity
  8
SK2
100
AcDbText
 10
-62.89373359312481
 20
-8.412806503916682
 30
0.0
 40
3.5
  1
\U+220531.75
 50
90.0
100
AcDbText
  0
ENDBLK
  5
1A77
330
2249
100
AcDbEntity
  8
0
100
AcDbBlockEnd
  0
BLOCK
  5
224C
330
224B
100
AcDbEntity
  8
0
100
AcDbBlockBegin
  2
*D12
 70
     1
 10
0.0
 20
0.0
 30
0.0
  3
*D12
  1

  0
LINE
  5
198F
330
224B
100
AcDbEntity
  8
SK2
 62
     0
100
AcDbLine
 10
-42.40949999999964
 20
-5.999999999998633
 30
0.0
 11
-55.42437952949961
 21
-5.999999999998633
 31
0.0
  0
LINE
  5
1990
330
224B
100
AcDbEntity
  8
SK2
 62
     0
100
AcDbLine
 10
-42.40949999999964
 20
6.0
 30
0.0
 11
-55.42437952949961
 21
6.0
 31
0.0
  0
LINE
  5
1991
330
224B
100
AcDbEntity
  8
SK2
 62
     0
100
AcDbLine
 10
-55.24437952949959
 20
-2.49999999999863
 30
0.0
 11
-55.24437952949959
 21
2.500000000000003
 31
0.0
  0
INSERT
  5
1992
330
224B
100
AcDbEntity
  8
0
100
AcDbBlockReference
  2
*U13
 10
0.0
 20
0.0
 30
0.0
  0
SOLID
  5
1993
330
224B
100
AcDbEntity
  8
SK2
 62
     0
100
AcDbTrace
 10
-55.82771286283294
 20
-2.49999999999863
 30
0.0
 11
-54.66104619616626
 21
-2.49999999999863
 31
0.0
 12
-55.24437952949959
 22
-5.999999999998633
 32
0.0
 13
-55.24437952949959
 23
-5.999999999998633
 33
0.0
  0
SOLID
  5
1994
330
224B
100
AcDbEntity
  8
SK2
 62
     0
100
AcDbTrace
 10
-55.82771286283294
 20
2.500000000000003
 30
0.0
 11
-54.66104619616626
 21
2.500000000000003
 31
0.0
 12
-55.24437952949959
 22
6.0
 32
0.0
 13
-55.24437952949959
 23
6.0
 33
0.0
  0
POINT
  5
1995
330
224B
100
AcDbEntity
  8
DEFPOINTS
 62
     0
100
AcDbPoint
 10
-42.34699999999963
 20
-5.999999999998633
 30
0.0
  0
POINT
  5
1996
330
224B
100
AcDbEntity
  8
DEFPOINTS
 62
     0
100
AcDbPoint
 10
-42.34699999999963
 20
6.0
 30
0.0
  0
POINT
  5
1997
330
224B
100
AcDbEntity
  8
DEFPOINTS
 62
     0
100
AcDbPoint
 10
-55.24437952949959
 20
6.0
 30
0.0
  0
ENDBLK
  5
1904
330
224B
100
AcDbEntity
  8
0
100
AcDbBlockEnd
  0
BLOCK
  5
224E
330
224D
100
AcDbEntity
  8
0
100
AcDbBlockBegin
  2
*U13
 70
     1
 10
0.0
 20
0.0
 30
0.0
  3
*U13
  1

  0
TEXT
  5
1A79
330
224D
100
AcDbEntity
  8
SK2
100
AcDbText
 10
-56.22137771621806
 20
-4.122943178965763
 30
0.0
 40
3.5
  1
M12
 50
90.0
100
AcDbText
  0
ENDBLK
  5
1A7B
330
224D
100
AcDbEntity
  8
0
100
AcDbBlockEnd
  0
BLOCK
  5
2250
330
224F
100
AcDbEntity
  8
0
100
AcDbBlockBegin
  2
*D14
 70
     1
 10
0.0
 20
0.0
 30
0.0
  3
*D14
  1

  0
LINE
  5
1959
330
224F
100
AcDbEntity
  8
SK2
 62
     0
100
AcDbLine
 10
57.52149999999982
 20
-17.0
 30
0.0
 11
75.05248683719099
 21
-17.0
 31
0.0
  0
LINE
  5
195A
330
224F
100
AcDbEntity
  8
SK2
 62
     0
100
AcDbLine
 10
57.52149999999982
 20
17.0
 30
0.0
 11
75.05248683719099
 21
17.0
 31
0.0
  0
LINE
  5
195B
330
224F
100
AcDbEntity
  8
SK2
 62
     0
100
AcDbLine
 10
74.87248683719098
 20
-13.5
 30
0.0
 11
74.87248683719098
 21
13.5
 31
0.0
  0
INSERT
  5
195C
330
224F
100
AcDbEntity
  8
0
100
AcDbBlockReference
  2
*U15
 10
0.0
 20
0.0
 30
0.0
  0
SOLID
  5
195D
330
224F
100
AcDbEntity
  8
SK2
 62
     0
100
AcDbTrace
 10
74.28915350385766
 20
-13.5
 30
0.0
 11
75.45582017052431
 21
-13.5
 31
0.0
 12
74.87248683719098
 22
-17.0
 32
0.0
 13
74.87248683719098
 23
-17.0
 33
0.0
  0
SOLID
  5
195E
330
224F
100
AcDbEntity
  8
SK2
 62
     0
100
AcDbTrace
 10
74.28915350385766
 20
13.5
 30
0.0
 11
75.45582017052431
 21
13.5
 31
0.0
 12
74.87248683719098
 22
17.0
 32
0.0
 13
74.87248683719098
 23
17.0
 33
0.0
  0
POINT
  5
195F
330
224F
100
AcDbEntity
  8
DEFPOINTS
 62
     0
100
AcDbPoint
 10
57.45899999999982
 20
-17.0
 30
0.0
  0
POINT
  5
1960
330
224F
100
AcDbEntity
  8
DEFPOINTS
 62
     0
100
AcDbPoint
 10
57.45899999999982
 20
17.0
 30
0.0
  0
POINT
  5
1961
330
224F
100
AcDbEntity
  8
DEFPOINTS
 62
     0
100
AcDbPoint
 10
74.87248683719098
 20
17.0
 30
0.0
  0
ENDBLK
  5
1910
330
224F
100
AcDbEntity
  8
0
100
AcDbBlockEnd
  0
BLOCK
  5
2252
330
2251
100
AcDbEntity
  8
0
100
AcDbBlockBegin
  2
*U15
 70
     1
 10
0.0
 20
0.0
 30
0.0
  3
*U15
  1

  0
TEXT
  5
1A65
330
2251
100
AcDbEntity
  8
SK2
100
AcDbText
 10
74.20886536071794
 20
-5.288761393091768
 30
0.0
 40
3.5
  1
\U+220534
 50
90.0
100
AcDbText
  0
ENDBLK
  5
1A67
330
2251
100
AcDbEntity
  8
0
100
AcDbBlockEnd
  0
BLOCK
  5
2254
330
2253
100
AcDbEntity
  8
0
100
AcDbBlockBegin
  2
_FILLED
 70
     0
 10
0.0
 20
0.0
 30
0.0
  3
_FILLED
  1

  0
SOLID
  5
1CC2
330
2253
100
AcDbEntity
  8
0
  6
ByBlock
 62
     0
100
AcDbTrace
 10
0.0
 20
0.0
 30
0.0
 11
-1.0
 21
0.125
 31
0.0
 12
-1.0
 22
-0.125
 32
0.0
 13
-1.0
 23
-0.125
 33
0.0
  0
ENDBLK
  5
1CC3
330
2253
100
AcDbEntity
  8
0
  6
ByBlock
 62
     0
100
AcDbBlockEnd
  0
BLOCK
  5
2256
330
2255
100
AcDbEntity
  8
1
  6
Continuous
 62
     2
100
AcDbBlockBegin
  2
*D17
 70
     1
 10
0.0
 20
0.0
 30
0.0
  3
*D17
  1

  0
INSERT
  5
1CC6
330
2255
100
AcDbEntity
  8
0
100
AcDbBlockReference
  2
*U18
 10
0.0
 20
0.0
 30
0.0
  0
LINE
  5
1CC7
330
2255
100
AcDbEntity
  8
1
  6
Continuous
 62
     2
100
AcDbLine
 10
125.127546783
 20
91.3761003733
 30
0.0
 11
125.127546783
 21
123.6748001929
 31
0.0
  0
LINE
  5
1CC8
330
2255
100
AcDbEntity
  8
1
  6
Continuous
 62
     2
100
AcDbLine
 10
285.127546783
 20
79.94052249540001
 30
0.0
 11
285.127546783
 21
123.6748001929
 31
0.0
  0
LINE
  5
1CC9
330
2255
100
AcDbEntity
  8
1
  6
Continuous
 62
     2
100
AcDbLine
 10
125.127546783
 20
122.1748001929
 30
0.0
 11
205.127546783
 21
122.1748001929
 31
0.0
  0
LINE
  5
1CCA
330
2255
100
AcDbEntity
  8
1
  6
Continuous
 62
     2
100
AcDbLine
 10
285.127546783
 20
122.1748001929
 30
0.0
 11
205.127546783
 21
122.1748001929
 31
0.0
  0
INSERT
  5
1CCB
330
2255
100
AcDbEntity
  8
1
  6
Continuous
 62
     2
100
AcDbBlockReference
  2
_FILLED
 10
125.127546783
 20
122.1748001929
 30
0.0
 41
3.5
 42
3.5
 43
3.5
 50
180.0
  0
INSERT
  5
1CCC
330
2255
100
AcDbEntity
  8
1
  6
Continuous
 62
     2
100
AcDbBlockReference
  2
_FILLED
 10
285.127546783
 20
122.1748001929
 30
0.0
 41
3.5
 42
3.5
 43
3.5
  0
ENDBLK
  5
1CCD
330
2255
100
AcDbEntity
  8
0
  6
ByBlock
 62
     0
100
AcDbBlockEnd
  0
BLOCK
  5
2258
330
2257
100
AcDbEntity
  8
0
100
AcDbBlockBegin
  2
*U18
 70
     1
 10
0.0
 20
0.0
 30
0.0
  3
*U18
  1

  0
TEXT
  5
1FF1
330
2257
100
AcDbEntity
  8
1
 62
     2
100
AcDbText
 10
207.1051724699
 20
123.0498001929
 30
0.0
 40
3.5
  1
160
 41
0.72
  7
TEXTSTYLE_2
100
AcDbText
  0
ENDBLK
  5
1FF3
330
2257
100
AcDbEntity
  8
0
100
AcDbBlockEnd
  0
BLOCK
  5
225A
330
2259
100
AcDbEntity
  8
1
  6
Continuous
 62
     2
100
AcDbBlockBegin
  2
*D19
 70
     1
 10
0.0
 20
0.0
 30
0.0
  3
*D19
  1

  0
INSERT
  5
1CD0
330
2259
100
AcDbEntity
  8
0
100
AcDbBlockReference
  2
*U20
 10
0.0
 20
0.0
 30
0.0
  0
LINE
  5
1CD1
330
2259
100
AcDbEntity
  8
1
  6
Continuous
 62
     2
100
AcDbLine
 10
240.3849060959
 20
86.9405224954
 30
0.0
 11
296.0209075306
 21
86.9405224954
 31
0.0
  0
LINE
  5
1CD2
330
2259
100
AcDbEntity
  8
1
  6
Continuous
 62
     2
100
AcDbLine
 10
240.3849060959
 20
23.9405224954
 30
0.0
 11
296.0209075306
 21
23.9405224954
 31
0.0
  0
LINE
  5
1CD3
330
2259
100
AcDbEntity
  8
1
  6
Continuous
 62
     2
100
AcDbLine
 10
294.5209075306
 20
86.9405224954
 30
0.0
 11
294.5209075306
 21
55.44052249539999
 31
0.0
  0
LINE
  5
1CD4
330
2259
100
AcDbEntity
  8
1
  6
Continuous
 62
     2
100
AcDbLine
 10
294.5209075306
 20
23.9405224954
 30
0.0
 11
294.5209075306
 21
55.44052249539999
 31
0.0
  0
INSERT
  5
1CD5
330
2259
100
AcDbEntity
  8
1
  6
Continuous
 62
     2
100
AcDbBlockReference
  2
_FILLED
 10
294.5209075306
 20
86.9405224954
 30
0.0
 41
3.5
 42
3.5
 43
3.5
 50
90.0
  0
INSERT
  5
1CD6
330
2259
100
AcDbEntity
  8
1
  6
Continuous
 62
     2
100
AcDbBlockReference
  2
_FILLED
 10
294.5209075306
 20
23.9405224954
 30
0.0
 41
3.5
 42
3.5
 43
3.5
 50
270.0
  0
ENDBLK
  5
1CD7
330
2259
100
AcDbEntity
  8
0
  6
ByBlock
 62
     0
100
AcDbBlockEnd
  0
BLOCK
  5
225C
330
225B
100
AcDbEntity
  8
0
100
AcDbBlockBegin
  2
*U20
 70
     1
 10
0.0
 20
0.0
 30
0.0
  3
*U20
  1

  0
TEXT
  5
1FF5
330
225B
100
AcDbEntity
  8
1
 62
     2
100
AcDbText
 10
294.4792408639333
 20
50.837361134
 30
0.0
 40
3.5
  1
n
 50
90.0
 41
0.72
  7
TEXTSTYLE_3
100
AcDbText
  0
TEXT
  5
1FF6
330
225B
100
AcDbEntity
  8
1
 62
     2
100
AcDbText
 10
294.4792408639333
 20
53.71736113399999
 30
0.0
 40
3.5
  1
63
 50
90.0
 41
0.72
  7
TEXTSTYLE_3
100
AcDbText
  0
ENDBLK
  5
1FF8
330
225B
100
AcDbEntity
  8
0
100
AcDbBlockEnd
  0
BLOCK
  5
225E
330
225D
100
AcDbEntity
  8
1
  6
Continuous
 62
     2
100
AcDbBlockBegin
  2
*D21
 70
     1
 10
0.0
 20
0.0
 30
0.0
  3
*D21
  1

  0
INSERT
  5
1CDA
330
225D
100
AcDbEntity
  8
0
100
AcDbBlockReference
  2
*U22
 10
0.0
 20
0.0
 30
0.0
  0
LINE
  5
1CDB
330
225D
100
AcDbEntity
  8
1
  6
Continuous
 62
     2
100
AcDbLine
 10
23.527546783
 20
75.54875617090001
 30
0.0
 11
23.527546783
 21
123.6748001929
 31
0.0
  0
LINE
  5
1CDC
330
225D
100
AcDbEntity
  8
1
  6
Continuous
 62
     2
100
AcDbLine
 10
125.127546783
 20
91.3761003733
 30
0.0
 11
125.127546783
 21
123.6748001929
 31
0.0
  0
LINE
  5
1CDD
330
225D
100
AcDbEntity
  8
1
  6
Continuous
 62
     2
100
AcDbLine
 10
23.527546783
 20
122.1748001929
 30
0.0
 11
74.327546783
 21
122.1748001929
 31
0.0
  0
LINE
  5
1CDE
330
225D
100
AcDbEntity
  8
1
  6
Continuous
 62
     2
100
AcDbLine
 10
125.127546783
 20
122.1748001929
 30
0.0
 11
74.327546783
 21
122.1748001929
 31
0.0
  0
INSERT
  5
1CDF
330
225D
100
AcDbEntity
  8
1
  6
Continuous
 62
     2
100
AcDbBlockReference
  2
_FILLED
 10
23.527546783
 20
122.1748001929
 30
0.0
 41
3.5
 42
3.5
 43
3.5
 50
180.0
  0
INSERT
  5
1CE0
330
225D
100
AcDbEntity
  8
1
  6
Continuous
 62
     2
100
AcDbBlockReference
  2
_FILLED
 10
125.127546783
 20
122.1748001929
 30
0.0
 41
3.5
 42
3.5
 43
3.5
  0
ENDBLK
  5
1CE1
330
225D
100
AcDbEntity
  8
0
  6
ByBlock
 62
     0
100
AcDbBlockEnd
  0
BLOCK
  5
2260
330
225F
100
AcDbEntity
  8
0
100
AcDbBlockBegin
  2
*U22
 70
     1
 10
0.0
 20
0.0
 30
0.0
  3
*U22
  1

  0
TEXT
  5
1FFA
330
225F
100
AcDbEntity
  8
1
 62
     2
100
AcDbText
 10
72.79438146319998
 20
123.0498001929
 30
0.0
 40
3.5
  1
101.6
 41
0.72
  7
TEXTSTYLE_2
100
AcDbText
  0
ENDBLK
  5
1FFC
330
225F
100
AcDbEntity
  8
0
100
AcDbBlockEnd
  0
BLOCK
  5
2262
330
2261
100
AcDbEntity
  8
1
  6
Continuous
 62
     2
100
AcDbBlockBegin
  2
*D23
 70
     1
 10
0.0
 20
0.0
 30
0.0
  3
*D23
  1

  0
INSERT
  5
1CE4
330
2261
100
AcDbEntity
  8
0
100
AcDbBlockReference
  2
*U24
 10
0.0
 20
0.0
 30
0.0
  0
LINE
  5
1CE5
330
2261
100
AcDbEntity
  8
1
  6
Continuous
 62
     2
100
AcDbLine
 10
144.227546783
 20
103.6530224954
 30
0.0
 11
144.227546783
 21
113.9164281295
 31
0.0
  0
LINE
  5
1CE6
330
2261
100
AcDbEntity
  8
1
  6
Continuous
 62
     2
100
AcDbLine
 10
125.127546783
 20
91.3761003733
 30
0.0
 11
125.127546783
 21
113.9164281295
 31
0.0
  0
LINE
  5
1CE7
330
2261
100
AcDbEntity
  8
1
  6
Continuous
 62
     2
100
AcDbLine
 10
144.227546783
 20
112.4164281295
 30
0.0
 11
134.677546783
 21
112.4164281295
 31
0.0
  0
LINE
  5
1CE8
330
2261
100
AcDbEntity
  8
1
  6
Continuous
 62
     2
100
AcDbLine
 10
125.127546783
 20
112.4164281295
 30
0.0
 11
134.677546783
 21
112.4164281295
 31
0.0
  0
INSERT
  5
1CE9
330
2261
100
AcDbEntity
  8
1
  6
Continuous
 62
     2
100
AcDbBlockReference
  2
_FILLED
 10
144.227546783
 20
112.4164281295
 30
0.0
 41
3.5
 42
3.5
 43
3.5
  0
INSERT
  5
1CEA
330
2261
100
AcDbEntity
  8
1
  6
Continuous
 62
     2
100
AcDbBlockReference
  2
_FILLED
 10
125.127546783
 20
112.4164281295
 30
0.0
 41
3.5
 42
3.5
 43
3.5
 50
180.0
  0
ENDBLK
  5
1CEB
330
2261
100
AcDbEntity
  8
0
  6
ByBlock
 62
     0
100
AcDbBlockEnd
  0
BLOCK
  5
2264
330
2263
100
AcDbEntity
  8
0
100
AcDbBlockBegin
  2
*U24
 70
     1
 10
0.0
 20
0.0
 30
0.0
  3
*U24
  1

  0
TEXT
  5
1FFE
330
2263
100
AcDbEntity
  8
1
 62
     2
100
AcDbText
 10
133.6578981712
 20
113.2914281295
 30
0.0
 40
3.5
  1
19.1
 41
0.72
  7
TEXTSTYLE_2
100
AcDbText
  0
ENDBLK
  5
2000
330
2263
100
AcDbEntity
  8
0
100
AcDbBlockEnd
  0
BLOCK
  5
2266
330
2265
100
AcDbEntity
  8
1
  6
Continuous
 62
     2
100
AcDbBlockBegin
  2
*D25
 70
     1
 10
0.0
 20
0.0
 30
0.0
  3
*D25
  1

  0
INSERT
  5
1CEE
330
2265
100
AcDbEntity
  8
0
100
AcDbBlockReference
  2
*U26
 10
0.0
 20
0.0
 30
0.0
  0
LINE
  5
1CEF
330
2265
100
AcDbEntity
  8
1
  6
Continuous
 62
     2
100
AcDbLine
 10
129.352546783
 20
104.6530224954
 30
0.0
 11
0.0
 21
104.6530224954
 31
0.0
  0
LINE
  5
1CF0
330
2265
100
AcDbEntity
  8
1
  6
Continuous
 62
     2
100
AcDbLine
 10
129.352546783
 20
6.228022495399999
 30
0.0
 11
0.0
 21
6.228022495399999
 31
0.0
  0
LINE
  5
1CF1
330
2265
100
AcDbEntity
  8
1
  6
Continuous
 62
     2
100
AcDbLine
 10
1.5
 20
104.6530224954
 30
0.0
 11
1.5
 21
55.44052249539999
 31
0.0
  0
LINE
  5
1CF2
330
2265
100
AcDbEntity
  8
1
  6
Continuous
 62
     2
100
AcDbLine
 10
1.5
 20
6.228022495399999
 30
0.0
 11
1.5
 21
55.44052249539999
 31
0.0
  0
INSERT
  5
1CF3
330
2265
100
AcDbEntity
  8
1
  6
Continuous
 62
     2
100
AcDbBlockReference
  2
_FILLED
 10
1.5
 20
104.6530224954
 30
0.0
 41
3.5
 42
3.5
 43
3.5
 50
90.0
  0
INSERT
  5
1CF4
330
2265
100
AcDbEntity
  8
1
  6
Continuous
 62
     2
100
AcDbBlockReference
  2
_FILLED
 10
1.5
 20
6.228022495399999
 30
0.0
 41
3.5
 42
3.5
 43
3.5
 50
270.0
  0
ENDBLK
  5
1CF5
330
2265
100
AcDbEntity
  8
0
  6
ByBlock
 62
     0
100
AcDbBlockEnd
  0
BLOCK
  5
2268
330
2267
100
AcDbEntity
  8
0
100
AcDbBlockBegin
  2
*U26
 70
     1
 10
0.0
 20
0.0
 30
0.0
  3
*U26
  1

  0
TEXT
  5
2002
330
2267
100
AcDbEntity
  8
1
 62
     2
100
AcDbText
 10
1.458333333333333
 20
49.59988166199998
 30
0.0
 40
3.5
  1
n
 50
90.0
 41
0.72
  7
TEXTSTYLE_3
100
AcDbText
  0
TEXT
  5
2003
330
2267
100
AcDbEntity
  8
1
 62
     2
100
AcDbText
 10
1.458333333333333
 20
52.47988166199998
 30
0.0
 40
3.5
  1
98.43
 50
90.0
 41
0.72
  7
TEXTSTYLE_3
100
AcDbText
  0
ENDBLK
  5
2005
330
2267
100
AcDbEntity
  8
0
100
AcDbBlockEnd
  0
BLOCK
  5
226A
330
2269
100
AcDbEntity
  8
1
  6
Continuous
 62
     2
100
AcDbBlockBegin
  2
*D27
 70
     1
 10
0.0
 20
0.0
 30
0.0
  3
*D27
  1

  0
INSERT
  5
1CF8
330
2269
100
AcDbEntity
  8
0
100
AcDbBlockReference
  2
*U28
 10
0.0
 20
0.0
 30
0.0
  0
LINE
  5
1CF9
330
2269
100
AcDbEntity
  8
1
  6
Continuous
 62
     2
100
AcDbLine
 10
125.127546783
 20
20.5155224954
 30
0.0
 11
107.5811250523
 21
20.5155224954
 31
0.0
  0
LINE
  5
1CFA
330
2269
100
AcDbEntity
  8
1
  6
Continuous
 62
     2
100
AcDbLine
 10
125.127546783
 20
90.36552249540001
 30
0.0
 11
107.5811250523
 21
90.36552249540001
 31
0.0
  0
LINE
  5
1CFB
330
2269
100
AcDbEntity
  8
1
  6
Continuous
 62
     2
100
AcDbLine
 10
109.0811250523
 20
20.5155224954
 30
0.0
 11
109.0811250523
 21
55.44052249539999
 31
0.0
  0
LINE
  5
1CFC
330
2269
100
AcDbEntity
  8
1
  6
Continuous
 62
     2
100
AcDbLine
 10
109.0811250523
 20
90.36552249540001
 30
0.0
 11
109.0811250523
 21
55.44052249539999
 31
0.0
  0
INSERT
  5
1CFD
330
2269
100
AcDbEntity
  8
1
  6
Continuous
 62
     2
100
AcDbBlockReference
  2
_FILLED
 10
109.0811250523
 20
20.5155224954
 30
0.0
 41
3.5
 42
3.5
 43
3.5
 50
270.0
  0
INSERT
  5
1CFE
330
2269
100
AcDbEntity
  8
1
  6
Continuous
 62
     2
100
AcDbBlockReference
  2
_FILLED
 10
109.0811250523
 20
90.36552249540001
 30
0.0
 41
3.5
 42
3.5
 43
3.5
 50
90.0
  0
ENDBLK
  5
1CFF
330
2269
100
AcDbEntity
  8
0
  6
ByBlock
 62
     0
100
AcDbBlockEnd
  0
BLOCK
  5
226C
330
226B
100
AcDbEntity
  8
0
100
AcDbBlockBegin
  2
*U28
 70
     1
 10
0.0
 20
0.0
 30
0.0
  3
*U28
  1

  0
TEXT
  5
2007
330
226B
100
AcDbEntity
  8
1
 62
     2
100
AcDbText
 10
109.0394583856333
 20
68.3813267893
 30
0.0
 40
3.5
  1
n
 50
90.0
 41
0.72
  7
TEXTSTYLE_3
100
AcDbText
  0
TEXT
  5
2008
330
226B
100
AcDbEntity
  8
1
 62
     2
100
AcDbText
 10
109.0394583856333
 20
71.26132678930002
 30
0.0
 40
3.5
  1
69,85
 50
90.0
 41
0.72
  7
TEXTSTYLE_3
100
AcDbText
  0
ENDBLK
  5
200A
330
226B
100
AcDbEntity
  8
0
100
AcDbBlockEnd
  0
BLOCK
  5
226E
330
226D
100
AcDbEntity
  8
1
  6
Continuous
 62
     2
100
AcDbBlockBegin
  2
*D29
 70
     1
 10
0.0
 20
0.0
 30
0.0
  3
*D29
  1

  0
INSERT
  5
1D02
330
226D
100
AcDbEntity
  8
0
100
AcDbBlockReference
  2
*U30
 10
0.0
 20
0.0
 30
0.0
  0
LINE
  5
1D03
330
226D
100
AcDbEntity
  8
1
  6
Continuous
 62
     2
100
AcDbLine
 10
30.677546783
 20
42.7405224954
 30
0.0
 11
9.5759717633
 21
42.7405224954
 31
0.0
  0
LINE
  5
1D04
330
226D
100
AcDbEntity
  8
1
  6
Continuous
 62
     2
100
AcDbLine
 10
30.677546783
 20
68.14052249540001
 30
0.0
 11
9.5759717633
 21
68.14052249540001
 31
0.0
  0
LINE
  5
1D05
330
226D
100
AcDbEntity
  8
1
  6
Continuous
 62
     2
100
AcDbLine
 10
11.0759717633
 20
42.7405224954
 30
0.0
 11
11.0759717633
 21
55.44052249539999
 31
0.0
  0
LINE
  5
1D06
330
226D
100
AcDbEntity
  8
1
  6
Continuous
 62
     2
100
AcDbLine
 10
11.0759717633
 20
68.14052249540001
 30
0.0
 11
11.0759717633
 21
55.44052249539999
 31
0.0
  0
INSERT
  5
1D07
330
226D
100
AcDbEntity
  8
1
  6
Continuous
 62
     2
100
AcDbBlockReference
  2
_FILLED
 10
11.0759717633
 20
42.7405224954
 30
0.0
 41
3.5
 42
3.5
 43
3.5
 50
270.0
  0
INSERT
  5
1D08
330
226D
100
AcDbEntity
  8
1
  6
Continuous
 62
     2
100
AcDbBlockReference
  2
_FILLED
 10
11.0759717633
 20
68.14052249540001
 30
0.0
 41
3.5
 42
3.5
 43
3.5
 50
90.0
  0
ENDBLK
  5
1D09
330
226D
100
AcDbEntity
  8
0
  6
ByBlock
 62
     0
100
AcDbBlockEnd
  0
BLOCK
  5
2270
330
226F
100
AcDbEntity
  8
0
100
AcDbBlockBegin
  2
*U30
 70
     1
 10
0.0
 20
0.0
 30
0.0
  3
*U30
  1

  0
TEXT
  5
200C
330
226F
100
AcDbEntity
  8
1
 62
     2
100
AcDbText
 10
10.2009717633
 20
39.6905224954
 30
0.0
 40
3.5
  1
1"-8 UNC 2B
 50
90.0
  7
TEXTSTYLE_4
100
AcDbText
  0
ENDBLK
  5
200E
330
226F
100
AcDbEntity
  8
0
100
AcDbBlockEnd
  0
BLOCK
  5
2272
330
2271
100
AcDbEntity
  8
0
100
AcDbBlockBegin
  2
*D31
 70
     1
 10
0.0
 20
0.0
 30
0.0
  3
*D31
  1

  0
LINE
  5
1F5F
330
2271
100
AcDbEntity
  8
2
  6
Continuous
 62
     0
100
AcDbLine
 10
241.8468292666567
 20
90.62777729383148
 30
0.0
 11
241.8468292666567
 21
124.1689771134315
 31
0.0
  0
LINE
  5
1F60
330
2271
100
AcDbEntity
  8
2
  6
Continuous
 62
     0
100
AcDbLine
 10
401.8468292666566
 20
79.19219941593147
 30
0.0
 11
401.8468292666566
 21
124.1689771134315
 31
0.0
  0
LINE
  5
1F61
330
2271
100
AcDbEntity
  8
2
  6
Continuous
 62
     0
100
AcDbLine
 10
245.3468292666567
 20
123.9889771134315
 30
0.0
 11
398.3468292666567
 21
123.9889771134315
 31
0.0
  0
INSERT
  5
1F62
330
2271
100
AcDbEntity
  8
2
  6
Continuous
 62
     0
100
AcDbBlockReference
  2
_FILLED
 10
241.8468292666567
 20
123.9889771134315
 30
0.0
 41
3.5
 42
3.5
 43
3.5
 50
180.0
  0
INSERT
  5
1F63
330
2271
100
AcDbEntity
  8
2
  6
Continuous
 62
     0
100
AcDbBlockReference
  2
_FILLED
 10
401.8468292666566
 20
123.9889771134315
 30
0.0
 41
3.5
 42
3.5
 43
3.5
  0
INSERT
  5
1F64
330
2271
100
AcDbEntity
  8
0
100
AcDbBlockReference
  2
*U32
 10
0.0
 20
0.0
 30
0.0
  0
POINT
  5
1F65
330
2271
100
AcDbEntity
  8
DEFPOINTS
  6
Continuous
 62
     0
100
AcDbPoint
 10
241.8468292666567
 20
90.56527729383144
 30
0.0
  0
POINT
  5
1F66
330
2271
100
AcDbEntity
  8
DEFPOINTS
  6
Continuous
 62
     0
100
AcDbPoint
 10
401.8468292666566
 20
79.12969941593146
 30
0.0
  0
POINT
  5
1F67
330
2271
100
AcDbEntity
  8
DEFPOINTS
  6
Continuous
 62
     0
100
AcDbPoint
 10
401.8468292666566
 20
123.9889771134315
 30
0.0
  0
ENDBLK
  5
1E37
330
2271
100
AcDbEntity
  8
0
100
AcDbBlockEnd
  0
BLOCK
  5
2274
330
2273
100
AcDbEntity
  8
0
100
AcDbBlockBegin
  2
*U32
 70
     1
 10
0.0
 20
0.0
 30
0.0
  3
*U32
  1

  0
TEXT
  5
2028
330
2273
100
AcDbEntity
  8
2
 62
     0
100
AcDbText
 10
320.0444549535567
 20
124.0789771134314
 30
0.0
 40
3.5
  1
160
 41
0.72
  7
TEXTSTYLE_2
100
AcDbText
  0
ENDBLK
  5
202A
330
2273
100
AcDbEntity
  8
0
100
AcDbBlockEnd
  0
BLOCK
  5
2276
330
2275
100
AcDbEntity
  8
0
100
AcDbBlockBegin
  2
*D33
 70
     1
 10
0.0
 20
0.0
 30
0.0
  3
*D33
  1

  0
LINE
  5
1F72
330
2275
100
AcDbEntity
  8
SK2
  6
Continuous
 62
     0
100
AcDbLine
 10
357.1666885795567
 20
86.12969941593147
 30
0.0
 11
413.8047550802867
 21
86.12969941593147
 31
0.0
  0
LINE
  5
1F73
330
2275
100
AcDbEntity
  8
SK2
  6
Continuous
 62
     0
100
AcDbLine
 10
357.1666885795567
 20
23.12969941593147
 30
0.0
 11
413.8047550802867
 21
23.12969941593145
 31
0.0
  0
LINE
  5
1F74
330
2275
100
AcDbEntity
  8
SK2
  6
Continuous
 62
     0
100
AcDbLine
 10
413.6247550802869
 20
82.62969941593146
 30
0.0
 11
413.6247550802869
 21
26.62969941593145
 31
0.0
  0
INSERT
  5
1F75
330
2275
100
AcDbEntity
  8
SK2
  6
Continuous
 62
     0
100
AcDbBlockReference
  2
_FILLED
 10
413.6247550802869
 20
86.12969941593147
 30
0.0
 41
3.5
 42
3.5
 43
3.5
 50
90.0
  0
INSERT
  5
1F76
330
2275
100
AcDbEntity
  8
SK2
  6
Continuous
 62
     0
100
AcDbBlockReference
  2
_FILLED
 10
413.6247550802869
 20
23.12969941593145
 30
0.0
 41
3.5
 42
3.5
 43
3.5
 50
270.0
  0
INSERT
  5
1F77
330
2275
100
AcDbEntity
  8
0
100
AcDbBlockReference
  2
*U34
 10
0.0
 20
0.0
 30
0.0
  0
POINT
  5
1F78
330
2275
100
AcDbEntity
  8
DEFPOINTS
  6
Continuous
 62
     0
100
AcDbPoint
 10
357.1041885795566
 20
86.12969941593147
 30
0.0
  0
POINT
  5
1F79
330
2275
100
AcDbEntity
  8
DEFPOINTS
  6
Continuous
 62
     0
100
AcDbPoint
 10
357.1041885795566
 20
23.12969941593147
 30
0.0
  0
POINT
  5
1F7A
330
2275
100
AcDbEntity
  8
DEFPOINTS
  6
Continuous
 62
     0
100
AcDbPoint
 10
413.6247550802869
 20
23.12969941593145
 30
0.0
  0
ENDBLK
  5
1E43
330
2275
100
AcDbEntity
  8
0
100
AcDbBlockEnd
  0
BLOCK
  5
2278
330
2277
100
AcDbEntity
  8
0
100
AcDbBlockBegin
  2
*U34
 70
     1
 10
0.0
 20
0.0
 30
0.0
  3
*U34
  1

  0
TEXT
  5
202C
330
2277
100
AcDbEntity
  8
SK2
 62
     0
100
AcDbText
 10
413.5347550802866
 20
51.29648753420084
 30
0.0
 40
3.5
  1
\U+220563
 50
90.0
 41
0.72
  7
TEXTSTYLE_2
100
AcDbText
  0
ENDBLK
  5
202E
330
2277
100
AcDbEntity
  8
0
100
AcDbBlockEnd
  0
BLOCK
  5
227A
330
2279
100
AcDbEntity
  8
0
100
AcDbBlockBegin
  2
*D35
 70
     1
 10
0.0
 20
0.0
 30
0.0
  3
*D35
  1

  0
LINE
  5
1F3B
330
2279
100
AcDbEntity
  8
SK2
  6
Continuous
 62
     0
100
AcDbLine
 10
140.2468292666567
 20
74.80043309143147
 30
0.0
 11
140.2468292666567
 21
124.1689771134315
 31
0.0
  0
LINE
  5
1F3C
330
2279
100
AcDbEntity
  8
SK2
  6
Continuous
 62
     0
100
AcDbLine
 10
241.8468292666567
 20
90.62777729383148
 30
0.0
 11
241.8468292666567
 21
124.1689771134315
 31
0.0
  0
LINE
  5
1F3D
330
2279
100
AcDbEntity
  8
SK2
  6
Continuous
 62
     0
100
AcDbLine
 10
143.7468292666566
 20
123.9889771134315
 30
0.0
 11
238.3468292666567
 21
123.9889771134315
 31
0.0
  0
INSERT
  5
1F3E
330
2279
100
AcDbEntity
  8
SK2
  6
Continuous
 62
     0
100
AcDbBlockReference
  2
_FILLED
 10
140.2468292666567
 20
123.9889771134315
 30
0.0
 41
3.5
 42
3.5
 43
3.5
 50
180.0
  0
INSERT
  5
1F3F
330
2279
100
AcDbEntity
  8
SK2
  6
Continuous
 62
     0
100
AcDbBlockReference
  2
_FILLED
 10
241.8468292666567
 20
123.9889771134315
 30
0.0
 41
3.5
 42
3.5
 43
3.5
  0
INSERT
  5
1F40
330
2279
100
AcDbEntity
  8
0
100
AcDbBlockReference
  2
*U36
 10
0.0
 20
0.0
 30
0.0
  0
POINT
  5
1F41
330
2279
100
AcDbEntity
  8
DEFPOINTS
  6
Continuous
 62
     0
100
AcDbPoint
 10
140.2468292666567
 20
74.73793309143147
 30
0.0
  0
POINT
  5
1F42
330
2279
100
AcDbEntity
  8
DEFPOINTS
  6
Continuous
 62
     0
100
AcDbPoint
 10
241.8468292666567
 20
90.56527729383144
 30
0.0
  0
POINT
  5
1F43
330
2279
100
AcDbEntity
  8
DEFPOINTS
  6
Continuous
 62
     0
100
AcDbPoint
 10
241.8468292666567
 20
123.9889771134315
 30
0.0
  0
ENDBLK
  5
1E4F
330
2279
100
AcDbEntity
  8
0
100
AcDbBlockEnd
  0
BLOCK
  5
227C
330
227B
100
AcDbEntity
  8
0
100
AcDbBlockBegin
  2
*U36
 70
     1
 10
0.0
 20
0.0
 30
0.0
  3
*U36
  1

  0
TEXT
  5
2020
330
227B
100
AcDbEntity
  8
SK2
 62
     0
100
AcDbText
 10
183.2136639468567
 20
124.0789771134314
 30
0.0
 40
3.5
  1
101.6
 41
0.72
  7
TEXTSTYLE_2
100
AcDbText
  0
ENDBLK
  5
2022
330
227B
100
AcDbEntity
  8
0
100
AcDbBlockEnd
  0
BLOCK
  5
227E
330
227D
100
AcDbEntity
  8
0
100
AcDbBlockBegin
  2
*D37
 70
     1
 10
0.0
 20
0.0
 30
0.0
  3
*D37
  1

  0
LINE
  5
1F56
330
227D
100
AcDbEntity
  8
2
  6
Continuous
 62
     0
100
AcDbLine
 10
260.9468292666567
 20
102.9046994159314
 30
0.0
 11
260.9468292666567
 21
114.4106050500315
 31
0.0
  0
LINE
  5
1F57
330
227D
100
AcDbEntity
  8
2
  6
Continuous
 62
     0
100
AcDbLine
 10
241.8468292666567
 20
90.62777729383148
 30
0.0
 11
241.8468292666567
 21
114.4106050500315
 31
0.0
  0
LINE
  5
1F58
330
227D
100
AcDbEntity
  8
2
  6
Continuous
 62
     0
100
AcDbLine
 10
257.4468292666566
 20
114.2306050500314
 30
0.0
 11
245.3468292666567
 21
114.2306050500314
 31
0.0
  0
INSERT
  5
1F59
330
227D
100
AcDbEntity
  8
2
  6
Continuous
 62
     0
100
AcDbBlockReference
  2
_FILLED
 10
260.9468292666567
 20
114.2306050500314
 30
0.0
 41
3.5
 42
3.5
 43
3.5
  0
INSERT
  5
1F5A
330
227D
100
AcDbEntity
  8
2
  6
Continuous
 62
     0
100
AcDbBlockReference
  2
_FILLED
 10
241.8468292666567
 20
114.2306050500314
 30
0.0
 41
3.5
 42
3.5
 43
3.5
 50
180.0
  0
INSERT
  5
1F5B
330
227D
100
AcDbEntity
  8
0
100
AcDbBlockReference
  2
*U38
 10
0.0
 20
0.0
 30
0.0
  0
POINT
  5
1F5C
330
227D
100
AcDbEntity
  8
DEFPOINTS
  6
Continuous
 62
     0
100
AcDbPoint
 10
260.9468292666567
 20
102.8421994159314
 30
0.0
  0
POINT
  5
1F5D
330
227D
100
AcDbEntity
  8
DEFPOINTS
  6
Continuous
 62
     0
100
AcDbPoint
 10
241.8468292666567
 20
90.56527729383144
 30
0.0
  0
POINT
  5
1F5E
330
227D
100
AcDbEntity
  8
DEFPOINTS
  6
Continuous
 62
     0
100
AcDbPoint
 10
241.8468292666567
 20
114.2306050500314
 30
0.0
  0
ENDBLK
  5
1E5B
330
227D
100
AcDbEntity
  8
0
100
AcDbBlockEnd
  0
BLOCK
  5
2280
330
227F
100
AcDbEntity
  8
0
100
AcDbBlockBegin
  2
*U38
 70
     1
 10
0.0
 20
0.0
 30
0.0
  3
*U38
  1

  0
TEXT
  5
2024
330
227F
100
AcDbEntity
  8
2
 62
     0
100
AcDbText
 10
245.3371806548567
 20
114.3206050500314
 30
0.0
 40
3.5
  1
19.1
 41
0.72
  7
TEXTSTYLE_2
100
AcDbText
  0
ENDBLK
  5
2026
330
227F
100
AcDbEntity
  8
0
100
AcDbBlockEnd
  0
BLOCK
  5
2282
330
2281
100
AcDbEntity
  8
0
100
AcDbBlockBegin
  2
*D39
 70
     1
 10
0.0
 20
0.0
 30
0.0
  3
*D39
  1

  0
LINE
  5
1F20
330
2281
100
AcDbEntity
  8
SK2
  6
Continuous
 62
     0
100
AcDbLine
 10
246.0093292666567
 20
103.8421994159314
 30
0.0
 11
117.3484669266567
 21
103.8421994159315
 31
0.0
  0
LINE
  5
1F21
330
2281
100
AcDbEntity
  8
SK2
  6
Continuous
 62
     0
100
AcDbLine
 10
246.0093292666567
 20
5.417199415931467
 30
0.0
 11
117.3484669266567
 21
5.417199415931501
 31
0.0
  0
LINE
  5
1F22
330
2281
100
AcDbEntity
  8
SK2
  6
Continuous
 62
     0
100
AcDbLine
 10
117.5284669266567
 20
100.3421994159315
 30
0.0
 11
117.5284669266567
 21
8.917199415931504
 31
0.0
  0
INSERT
  5
1F23
330
2281
100
AcDbEntity
  8
SK2
  6
Continuous
 62
     0
100
AcDbBlockReference
  2
_FILLED
 10
117.5284669266567
 20
103.8421994159315
 30
0.0
 41
3.5
 42
3.5
 43
3.5
 50
90.0
  0
INSERT
  5
1F24
330
2281
100
AcDbEntity
  8
SK2
  6
Continuous
 62
     0
100
AcDbBlockReference
  2
_FILLED
 10
117.5284669266567
 20
5.417199415931501
 30
0.0
 41
3.5
 42
3.5
 43
3.5
 50
270.0
  0
INSERT
  5
1F25
330
2281
100
AcDbEntity
  8
0
100
AcDbBlockReference
  2
*U40
 10
0.0
 20
0.0
 30
0.0
  0
POINT
  5
1F26
330
2281
100
AcDbEntity
  8
DEFPOINTS
  6
Continuous
 62
     0
100
AcDbPoint
 10
246.0718292666566
 20
103.8421994159314
 30
0.0
  0
POINT
  5
1F27
330
2281
100
AcDbEntity
  8
DEFPOINTS
  6
Continuous
 62
     0
100
AcDbPoint
 10
246.0718292666566
 20
5.417199415931467
 30
0.0
  0
POINT
  5
1F28
330
2281
100
AcDbEntity
  8
DEFPOINTS
  6
Continuous
 62
     0
100
AcDbPoint
 10
117.5284669266567
 20
5.417199415931501
 30
0.0
  0
ENDBLK
  5
1E67
330
2281
100
AcDbEntity
  8
0
100
AcDbBlockEnd
  0
BLOCK
  5
2284
330
2283
100
AcDbEntity
  8
0
100
AcDbBlockBegin
  2
*U40
 70
     1
 10
0.0
 20
0.0
 30
0.0
  3
*U40
  1

  0
TEXT
  5
2018
330
2283
100
AcDbEntity
  8
SK2
 62
     0
100
AcDbText
 10
117.4384669266567
 20
45.31997298473146
 30
0.0
 40
3.5
  1
\U+220598.43
 50
90.0
 41
0.72
  7
TEXTSTYLE_2
100
AcDbText
  0
ENDBLK
  5
201A
330
2283
100
AcDbEntity
  8
0
100
AcDbBlockEnd
  0
BLOCK
  5
2286
330
2285
100
AcDbEntity
  8
0
100
AcDbBlockBegin
  2
*D41
 70
     1
 10
0.0
 20
0.0
 30
0.0
  3
*D41
  1

  0
LINE
  5
1F29
330
2285
100
AcDbEntity
  8
SK2
  6
Continuous
 62
     0
100
AcDbLine
 10
241.7843292666567
 20
19.70469941593146
 30
0.0
 11
224.9295919789567
 21
19.70469941593147
 31
0.0
  0
LINE
  5
1F2A
330
2285
100
AcDbEntity
  8
SK2
  6
Continuous
 62
     0
100
AcDbLine
 10
241.7843292666567
 20
89.55469941593149
 30
0.0
 11
224.9295919789567
 21
89.55469941593149
 31
0.0
  0
LINE
  5
1F2B
330
2285
100
AcDbEntity
  8
SK2
  6
Continuous
 62
     0
100
AcDbLine
 10
225.1095919789567
 20
23.20469941593147
 30
0.0
 11
225.1095919789567
 21
86.05469941593145
 31
0.0
  0
INSERT
  5
1F2C
330
2285
100
AcDbEntity
  8
SK2
  6
Continuous
 62
     0
100
AcDbBlockReference
  2
_FILLED
 10
225.1095919789567
 20
19.70469941593147
 30
0.0
 41
3.5
 42
3.5
 43
3.5
 50
270.0
  0
INSERT
  5
1F2D
330
2285
100
AcDbEntity
  8
SK2
  6
Continuous
 62
     0
100
AcDbBlockReference
  2
_FILLED
 10
225.1095919789567
 20
89.55469941593149
 30
0.0
 41
3.5
 42
3.5
 43
3.5
 50
90.0
  0
INSERT
  5
1F2E
330
2285
100
AcDbEntity
  8
0
100
AcDbBlockReference
  2
*U42
 10
0.0
 20
0.0
 30
0.0
  0
POINT
  5
1F2F
330
2285
100
AcDbEntity
  8
DEFPOINTS
  6
Continuous
 62
     0
100
AcDbPoint
 10
241.8468292666567
 20
19.70469941593146
 30
0.0
  0
POINT
  5
1F30
330
2285
100
AcDbEntity
  8
DEFPOINTS
  6
Continuous
 62
     0
100
AcDbPoint
 10
241.8468292666567
 20
89.55469941593149
 30
0.0
  0
POINT
  5
1F31
330
2285
100
AcDbEntity
  8
DEFPOINTS
  6
Continuous
 62
     0
100
AcDbPoint
 10
225.1095919789567
 20
89.55469941593149
 30
0.0
  0
ENDBLK
  5
1E73
330
2285
100
AcDbEntity
  8
0
100
AcDbBlockEnd
  0
BLOCK
  5
2288
330
2287
100
AcDbEntity
  8
0
100
AcDbBlockBegin
  2
*U42
 70
     1
 10
0.0
 20
0.0
 30
0.0
  3
*U42
  1

  0
TEXT
  5
201C
330
2287
100
AcDbEntity
  8
SK2
 62
     0
100
AcDbText
 10
224.35292531229
 20
64.31141811203147
 30
0.0
 40
3.5
  1
\U+220569,85
 50
90.0
 41
0.72
  7
TEXTSTYLE_2
100
AcDbText
  0
ENDBLK
  5
201E
330
2287
100
AcDbEntity
  8
0
100
AcDbBlockEnd
  0
BLOCK
  5
228A
330
2289
100
AcDbEntity
  8
0
100
AcDbBlockBegin
  2
*D43
 70
     1
 10
0.0
 20
0.0
 30
0.0
  3
*D43
  1

  0
LINE
  5
1F7B
330
2289
100
AcDbEntity
  8
SK2
  6
Continuous
 62
     0
100
AcDbLine
 10
147.3343292666567
 20
41.92969941593147
 30
0.0
 11
126.707545034662
 21
41.92969941593147
 31
0.0
  0
LINE
  5
1F7C
330
2289
100
AcDbEntity
  8
SK2
  6
Continuous
 62
     0
100
AcDbLine
 10
147.3343292666567
 20
67.32969941593147
 30
0.0
 11
126.707545034662
 21
67.32969941593147
 31
0.0
  0
LINE
  5
1F7D
330
2289
100
AcDbEntity
  8
SK2
  6
Continuous
 62
     0
100
AcDbLine
 10
126.887545034662
 20
45.42969941593147
 30
0.0
 11
126.887545034662
 21
63.82969941593147
 31
0.0
  0
INSERT
  5
1F7E
330
2289
100
AcDbEntity
  8
SK2
  6
Continuous
 62
     0
100
AcDbBlockReference
  2
_FILLED
 10
126.887545034662
 20
41.92969941593147
 30
0.0
 41
3.5
 42
3.5
 43
3.5
 50
270.0
  0
INSERT
  5
1F7F
330
2289
100
AcDbEntity
  8
SK2
  6
Continuous
 62
     0
100
AcDbBlockReference
  2
_FILLED
 10
126.887545034662
 20
67.32969941593147
 30
0.0
 41
3.5
 42
3.5
 43
3.5
 50
90.0
  0
INSERT
  5
1F80
330
2289
100
AcDbEntity
  8
0
100
AcDbBlockReference
  2
*U44
 10
0.0
 20
0.0
 30
0.0
  0
POINT
  5
1F81
330
2289
100
AcDbEntity
  8
DEFPOINTS
  6
Continuous
 62
     0
100
AcDbPoint
 10
147.3968292666567
 20
41.92969941593147
 30
0.0
  0
POINT
  5
1F82
330
2289
100
AcDbEntity
  8
DEFPOINTS
  6
Continuous
 62
     0
100
AcDbPoint
 10
147.3968292666567
 20
67.32969941593147
 30
0.0
  0
POINT
  5
1F83
330
2289
100
AcDbEntity
  8
DEFPOINTS
  6
Continuous
 62
     0
100
AcDbPoint
 10
126.887545034662
 20
67.32969941593147
 30
0.0
  0
ENDBLK
  5
1E7F
330
2289
100
AcDbEntity
  8
0
100
AcDbBlockEnd
  0
BLOCK
  5
228C
330
228B
100
AcDbEntity
  8
0
100
AcDbBlockBegin
  2
*U44
 70
     1
 10
0.0
 20
0.0
 30
0.0
  3
*U44
  1

  0
TEXT
  5
2030
330
228B
100
AcDbEntity
  8
SK2
 62
     0
100
AcDbText
 10
126.797545034662
 20
37.12969941593149
 30
0.0
 40
3.5
  1
1"-8 UNC 2B
 50
90.0
  7
TEXTSTYLE_4
100
AcDbText
  0
ENDBLK
  5
2032
330
228B
100
AcDbEntity
  8
0
100
AcDbBlockEnd
  0
BLOCK
  5
228E
330
228D
100
AcDbEntity
  8
0
100
AcDbBlockBegin
  2
*U45
 70
     1
 10
0.0
 20
0.0
 30
0.0
  3
*U45
  1

  0
TEXT
  5
2010
330
228D
100
AcDbEntity
  8
1
 62
     3
100
AcDbText
 10
41.41091554853645
 20
-0.0000000373083262
 30
0.0
 40
3.5
  1
AA3B14-50 40 160
 41
0.72
  7
TEXTSTYLE_2
100
AcDbText
  0
ENDBLK
  5
2012
330
228D
100
AcDbEntity
  8
0
100
AcDbBlockEnd
  0
BLOCK
  5
2290
330
228F
100
AcDbEntity
  8
0
100
AcDbBlockBegin
  2
*U46
 70
     1
 10
0.0
 20
0.0
 30
0.0
  3
*U46
  1

  0
TEXT
  5
2014
330
228F
100
AcDbEntity
  8
1
 62
     3
100
AcDbText
 10
60.04662135813646
 20
74.06970705689166
 30
0.0
 40
3.5
  1
ASME B5.50 CAT50
 41
0.72
  7
TEXTSTYLE_2
100
AcDbText
  0
ENDBLK
  5
2016
330
228F
100
AcDbEntity
  8
0
100
AcDbBlockEnd
  0
BLOCK
  5
2295
330
2294
100
AcDbEntity
  8
0
100
AcDbBlockBegin
  2
*D47
 70
     1
 10
0.0
 20
0.0
 30
0.0
  3
*D47
  1

  0
LINE
  5
24A3
330
2294
100
AcDbEntity
  8
2
  6
Continuous
 62
     0
370
    -2
100
AcDbLine
 10
19.09682926665664
 20
48.27469941593141
 30
0.0
 11
19.09682926665664
 21
59.78060505003141
 31
0.0
  0
LINE
  5
24A4
330
2294
100
AcDbEntity
  8
2
  6
Continuous
 62
     0
370
    -2
100
AcDbLine
 10
-0.0031707333433246
 20
35.99777729383144
 30
0.0
 11
-0.0031707333433232
 21
59.78060505003141
 31
0.0
  0
LINE
  5
24A5
330
2294
100
AcDbEntity
  8
2
  6
Continuous
 62
     0
370
    -2
100
AcDbLine
 10
15.59682926665664
 20
59.60060505003141
 30
0.0
 11
3.496829266656676
 21
59.60060505003141
 31
0.0
  0
MTEXT
  5
24A6
330
2294
100
AcDbEntity
  8
2
  6
Continuous
 62
     5
100
AcDbMText
 10
9.094302564546296
 20
62.49475229324708
 30
0.0
 40
3.5
 41
0.0
 71
     5
 72
     1
  1
\A1;19.1
 73
     1
 44
1.0
1001
ACAD
1000
MTEXTBEGIN
1070
    73
1070
     1
1070
    44
1040
1.0
1070
    74
1070
     0
1000
MTEXTEND
  0
SOLID
  5
24A7
330
2294
100
AcDbEntity
  8
2
  6
Continuous
 62
     0
100
AcDbTrace
 10
15.59682926665664
 20
60.18393838336475
 30
0.0
 11
15.59682926665664
 21
59.01727171669808
 31
0.0
 12
19.09682926665664
 22
59.60060505003141
 32
0.0
 13
19.09682926665664
 23
59.60060505003141
 33
0.0
  0
SOLID
  5
24A8
330
2294
100
AcDbEntity
  8
2
  6
Continuous
 62
     0
100
AcDbTrace
 10
3.496829266656676
 20
60.18393838336475
 30
0.0
 11
3.496829266656676
 21
59.01727171669808
 31
0.0
 12
-0.0031707333433232
 22
59.60060505003141
 32
0.0
 13
-0.0031707333433232
 23
59.60060505003141
 33
0.0
  0
POINT
  5
24A9
330
2294
100
AcDbEntity
  8
DEFPOINTS
  6
Continuous
 62
     0
100
AcDbPoint
 10
19.09682926665664
 20
48.21219941593142
 30
0.0
  0
POINT
  5
24AA
330
2294
100
AcDbEntity
  8
DEFPOINTS
  6
Continuous
 62
     0
100
AcDbPoint
 10
-0.0031707333433246
 20
35.93527729383144
 30
0.0
  0
POINT
  5
24AB
330
2294
100
AcDbEntity
  8
DEFPOINTS
  6
Continuous
 62
     0
100
AcDbPoint
 10
-0.0031707333433232
 20
59.60060505003141
 30
0.0
  0
ENDBLK
  5
2296
330
2294
100
AcDbEntity
  8
0
100
AcDbBlockEnd
  0
BLOCK
  5
22AC
330
22AB
100
AcDbEntity
  8
0
100
AcDbBlockBegin
  2
*D48
 70
     1
 10
0.0
 20
0.0
 30
0.0
  3
*D48
  1

  0
LINE
  5
2485
330
22AB
100
AcDbEntity
  8
2
  6
Continuous
 62
     0
370
    -2
100
AcDbLine
 10
-0.0031707333433246
 20
35.99777729383144
 30
0.0
 11
-0.0031707333433226
 21
69.53897711343149
 31
0.0
  0
LINE
  5
2486
330
22AB
100
AcDbEntity
  8
2
  6
Continuous
 62
     0
370
    -2
100
AcDbLine
 10
159.9968292666566
 20
24.56219941593146
 30
0.0
 11
159.9968292666566
 21
69.53897711343149
 31
0.0
  0
LINE
  5
2487
330
22AB
100
AcDbEntity
  8
2
  6
Continuous
 62
     0
370
    -2
100
AcDbLine
 10
3.496829266656677
 20
69.35897711343148
 30
0.0
 11
78.30307700080092
 21
69.35897711343148
 31
0.0
  0
LINE
  5
2488
330
22AB
100
AcDbEntity
  8
2
  6
Continuous
 62
     0
370
    -2
100
AcDbLine
 10
156.4968292666566
 20
69.35897711343148
 30
0.0
 11
84.08583290631273
 21
69.35897711343148
 31
0.0
  0
MTEXT
  5
2489
330
22AB
100
AcDbEntity
  8
2
  6
Continuous
 62
     5
100
AcDbMText
 10
81.19445495355682
 20
69.35897711343148
 30
0.0
 40
3.5
 41
0.0
 71
     5
 72
     1
  1
\A1;160
 73
     1
 44
1.0
1001
ACAD
1000
MTEXTBEGIN
1070
    73
1070
     1
1070
    44
1040
1.0
1070
    74
1070
     0
1000
MTEXTEND
  0
SOLID
  5
248A
330
22AB
100
AcDbEntity
  8
2
  6
Continuous
 62
     0
100
AcDbTrace
 10
3.496829266656677
 20
69.94231044676481
 30
0.0
 11
3.496829266656677
 21
68.77564378009815
 31
0.0
 12
-0.0031707333433226
 22
69.35897711343148
 32
0.0
 13
-0.0031707333433226
 23
69.35897711343148
 33
0.0
  0
SOLID
  5
248B
330
22AB
100
AcDbEntity
  8
2
  6
Continuous
 62
     0
100
AcDbTrace
 10
156.4968292666566
 20
69.94231044676481
 30
0.0
 11
156.4968292666566
 21
68.77564378009815
 31
0.0
 12
159.9968292666566
 22
69.35897711343148
 32
0.0
 13
159.9968292666566
 23
69.35897711343148
 33
0.0
  0
POINT
  5
248C
330
22AB
100
AcDbEntity
  8
DEFPOINTS
  6
Continuous
 62
     0
100
AcDbPoint
 10
-0.0031707333433246
 20
35.93527729383144
 30
0.0
  0
POINT
  5
248D
330
22AB
100
AcDbEntity
  8
DEFPOINTS
  6
Continuous
 62
     0
100
AcDbPoint
 10
159.9968292666566
 20
24.49969941593145
 30
0.0
  0
POINT
  5
248E
330
22AB
100
AcDbEntity
  8
DEFPOINTS
  6
Continuous
 62
     0
100
AcDbPoint
 10
159.9968292666566
 20
69.35897711343148
 30
0.0
  0
ENDBLK
  5
22AD
330
22AB
100
AcDbEntity
  8
0
100
AcDbBlockEnd
  0
BLOCK
  5
22B9
330
22B8
100
AcDbEntity
  8
0
100
AcDbBlockBegin
  2
*D49
 70
     1
 10
0.0
 20
0.0
 30
0.0
  3
*D49
  1

  0
LINE
  5
2499
330
22B8
100
AcDbEntity
  8
SK2
  6
Continuous
 62
     0
370
    -2
100
AcDbLine
 10
-101.6031707333433
 20
20.17043309143147
 30
0.0
 11
-101.6031707333433
 21
69.53897711343149
 31
0.0
  0
LINE
  5
249A
330
22B8
100
AcDbEntity
  8
SK2
  6
Continuous
 62
     0
370
    -2
100
AcDbLine
 10
-0.0031707333433246
 20
35.99777729383144
 30
0.0
 11
-0.0031707333433226
 21
69.53897711343149
 31
0.0
  0
LINE
  5
249B
330
22B8
100
AcDbEntity
  8
SK2
  6
Continuous
 62
     0
370
    -2
100
AcDbLine
 10
-98.10317073334331
 20
69.35897711343148
 30
0.0
 11
-58.51314707676539
 21
69.35897711343148
 31
0.0
  0
LINE
  5
249C
330
22B8
100
AcDbEntity
  8
SK2
  6
Continuous
 62
     0
370
    -2
100
AcDbLine
 10
-3.503170733343322
 20
69.35897711343148
 30
0.0
 11
-49.75952502952129
 21
69.35897711343148
 31
0.0
  0
MTEXT
  5
249D
330
22B8
100
AcDbEntity
  8
SK2
  6
Continuous
 62
     5
100
AcDbMText
 10
-54.13633605314334
 20
69.35897711343148
 30
0.0
 40
3.5
 41
0.0
 71
     5
 72
     1
  1
\A1;101.6
 73
     1
 44
1.0
1001
ACAD
1000
MTEXTBEGIN
1070
    73
1070
     1
1070
    44
1040
1.0
1070
    74
1070
     0
1000
MTEXTEND
  0
SOLID
  5
249E
330
22B8
100
AcDbEntity
  8
SK2
  6
Continuous
 62
     0
100
AcDbTrace
 10
-98.10317073334331
 20
69.94231044676481
 30
0.0
 11
-98.10317073334331
 21
68.77564378009815
 31
0.0
 12
-101.6031707333433
 22
69.35897711343148
 32
0.0
 13
-101.6031707333433
 23
69.35897711343148
 33
0.0
  0
SOLID
  5
249F
330
22B8
100
AcDbEntity
  8
SK2
  6
Continuous
 62
     0
100
AcDbTrace
 10
-3.503170733343322
 20
69.94231044676481
 30
0.0
 11
-3.503170733343322
 21
68.77564378009815
 31
0.0
 12
-0.0031707333433226
 22
69.35897711343148
 32
0.0
 13
-0.0031707333433226
 23
69.35897711343148
 33
0.0
  0
POINT
  5
24A0
330
22B8
100
AcDbEntity
  8
DEFPOINTS
  6
Continuous
 62
     0
100
AcDbPoint
 10
-101.6031707333433
 20
20.10793309143147
 30
0.0
  0
POINT
  5
24A1
330
22B8
100
AcDbEntity
  8
DEFPOINTS
  6
Continuous
 62
     0
100
AcDbPoint
 10
-0.0031707333433246
 20
35.93527729383144
 30
0.0
  0
POINT
  5
24A2
330
22B8
100
AcDbEntity
  8
DEFPOINTS
  6
Continuous
 62
     0
100
AcDbPoint
 10
-0.0031707333433226
 20
69.35897711343148
 30
0.0
  0
ENDBLK
  5
22BA
330
22B8
100
AcDbEntity
  8
0
100
AcDbBlockEnd
  0
BLOCK
  5
22C6
330
22C5
100
AcDbEntity
  8
0
100
AcDbBlockBegin
  2
*D50
 70
     1
 10
0.0
 20
0.0
 30
0.0
  3
*D50
  1

  0
LINE
  5
24BF
330
22C5
100
AcDbEntity
  8
SK2
  6
Continuous
 62
     0
370
    -2
100
AcDbLine
 10
-94.51567073334334
 20
-12.70030058406854
 30
0.0
 11
-115.142454965338
 21
-12.70030058406853
 31
0.0
  0
LINE
  5
24C0
330
22C5
100
AcDbEntity
  8
SK2
  6
Continuous
 62
     0
370
    -2
100
AcDbLine
 10
-94.51567073334334
 20
12.69969941593147
 30
0.0
 11
-115.142454965338
 21
12.69969941593147
 31
0.0
  0
LINE
  5
24C1
330
22C5
100
AcDbEntity
  8
SK2
  6
Continuous
 62
     0
370
    -2
100
AcDbLine
 10
-114.962454965338
 20
-9.20030058406853
 30
0.0
 11
-114.962454965338
 21
9.199699415931474
 31
0.0
  0
MTEXT
  5
24C2
330
22C5
100
AcDbEntity
  8
SK2
  6
Continuous
 62
     5
100
AcDbMText
 10
-118.5572431949802
 20
0.5845287386972089
 30
0.0
 40
3.5
 41
0.0
 71
     5
 72
     1
  1
\A1;1"-8 UNC 2B
 11
0.0000000000000001
 21
1.0
 31
0.0
 73
     1
 44
1.0
1001
ACAD
1000
MTEXTBEGIN
1070
    73
1070
     1
1070
    44
1040
1.0
1070
    74
1070
     0
1000
MTEXTEND
  0
SOLID
  5
24C3
330
22C5
100
AcDbEntity
  8
SK2
  6
Continuous
 62
     0
100
AcDbTrace
 10
-115.5457882986713
 20
-9.20030058406853
 30
0.0
 11
-114.3791216320047
 21
-9.20030058406853
 31
0.0
 12
-114.962454965338
 22
-12.70030058406853
 32
0.0
 13
-114.962454965338
 23
-12.70030058406853
 33
0.0
  0
SOLID
  5
24C4
330
22C5
100
AcDbEntity
  8
SK2
  6
Continuous
 62
     0
100
AcDbTrace
 10
-115.5457882986713
 20
9.199699415931474
 30
0.0
 11
-114.3791216320047
 21
9.199699415931474
 31
0.0
 12
-114.962454965338
 22
12.69969941593147
 32
0.0
 13
-114.962454965338
 23
12.69969941593147
 33
0.0
  0
POINT
  5
24C5
330
22C5
100
AcDbEntity
  8
DEFPOINTS
  6
Continuous
 62
     0
100
AcDbPoint
 10
-94.45317073334335
 20
-12.70030058406854
 30
0.0
  0
POINT
  5
24C6
330
22C5
100
AcDbEntity
  8
DEFPOINTS
  6
Continuous
 62
     0
100
AcDbPoint
 10
-94.45317073334335
 20
12.69969941593147
 30
0.0
  0
POINT
  5
24C7
330
22C5
100
AcDbEntity
  8
DEFPOINTS
  6
Continuous
 62
     0
100
AcDbPoint
 10
-114.962454965338
 20
12.69969941593147
 30
0.0
  0
ENDBLK
  5
22C7
330
22C5
100
AcDbEntity
  8
0
100
AcDbBlockEnd
  0
BLOCK
  5
22D3
330
22D2
100
AcDbEntity
  8
0
100
AcDbBlockBegin
  2
*D51
 70
     1
 10
0.0
 20
0.0
 30
0.0
  3
*D51
  1

  0
LINE
  5
24AC
330
22D2
100
AcDbEntity
  8
SK2
  6
Continuous
 62
     0
370
    -2
100
AcDbLine
 10
4.159329266656584
 20
49.21219941593141
 30
0.0
 11
-124.5015330733433
 21
49.21219941593145
 31
0.0
  0
LINE
  5
24AD
330
22D2
100
AcDbEntity
  8
SK2
  6
Continuous
 62
     0
370
    -2
100
AcDbLine
 10
4.159329266656584
 20
-49.21280058406853
 30
0.0
 11
-124.5015330733433
 21
-49.2128005840685
 31
0.0
  0
LINE
  5
24AE
330
22D2
100
AcDbEntity
  8
SK2
  6
Continuous
 62
     0
370
    -2
100
AcDbLine
 10
-124.3215330733433
 20
45.71219941593144
 30
0.0
 11
-124.3215330733433
 21
-45.71280058406849
 31
0.0
  0
MTEXT
  5
24AF
330
22D2
100
AcDbEntity
  8
SK2
  6
Continuous
 62
     5
100
AcDbMText
 10
-128.2762141500381
 20
0.8456359730349234
 30
0.0
 40
3.5
 41
0.0
 71
     5
 72
     1
  1
\A1;%%c98.43
 11
0.0000000000000001
 21
1.0
 31
0.0
 73
     1
 44
1.0
1001
ACAD
1000
MTEXTBEGIN
1070
    73
1070
     1
1070
    44
1040
1.0
1070
    74
1070
     0
1000
MTEXTEND
  0
SOLID
  5
24B0
330
22D2
100
AcDbEntity
  8
SK2
  6
Continuous
 62
     0
100
AcDbTrace
 10
-124.9048664066766
 20
45.71219941593144
 30
0.0
 11
-123.7381997400099
 21
45.71219941593144
 31
0.0
 12
-124.3215330733433
 22
49.21219941593145
 32
0.0
 13
-124.3215330733433
 23
49.21219941593145
 33
0.0
  0
SOLID
  5
24B1
330
22D2
100
AcDbEntity
  8
SK2
  6
Continuous
 62
     0
100
AcDbTrace
 10
-124.9048664066766
 20
-45.71280058406849
 30
0.0
 11
-123.73819974001
 21
-45.71280058406849
 31
0.0
 12
-124.3215330733433
 22
-49.2128005840685
 32
0.0
 13
-124.3215330733433
 23
-49.2128005840685
 33
0.0
  0
POINT
  5
24B2
330
22D2
100
AcDbEntity
  8
DEFPOINTS
  6
Continuous
 62
     0
100
AcDbPoint
 10
4.221829266656584
 20
49.21219941593141
 30
0.0
  0
POINT
  5
24B3
330
22D2
100
AcDbEntity
  8
DEFPOINTS
  6
Continuous
 62
     0
100
AcDbPoint
 10
4.221829266656584
 20
-49.21280058406853
 30
0.0
  0
POINT
  5
24B4
330
22D2
100
AcDbEntity
  8
DEFPOINTS
  6
Continuous
 62
     0
100
AcDbPoint
 10
-124.3215330733433
 20
-49.2128005840685
 30
0.0
  0
ENDBLK
  5
22D4
330
22D2
100
AcDbEntity
  8
0
100
AcDbBlockEnd
  0
BLOCK
  5
22E0
330
22DF
100
AcDbEntity
  8
0
100
AcDbBlockBegin
  2
*D52
 70
     1
 10
0.0
 20
0.0
 30
0.0
  3
*D52
  1

  0
LINE
  5
24B5
330
22DF
100
AcDbEntity
  8
SK2
  6
Continuous
 62
     0
370
    -2
100
AcDbLine
 10
-0.0656707333433246
 20
-34.92530058406854
 30
0.0
 11
-16.92040802104336
 21
-34.92530058406853
 31
0.0
  0
LINE
  5
24B6
330
22DF
100
AcDbEntity
  8
SK2
  6
Continuous
 62
     0
370
    -2
100
AcDbLine
 10
-0.0656707333433246
 20
34.92469941593149
 30
0.0
 11
-16.92040802104335
 21
34.9246994159315
 31
0.0
  0
LINE
  5
24B7
330
22DF
100
AcDbEntity
  8
SK2
  6
Continuous
 62
     0
370
    -2
100
AcDbLine
 10
-16.74040802104336
 20
-31.42530058406853
 30
0.0
 11
-16.74040802104335
 21
9.130315660251181
 31
0.0
  0
LINE
  5
24B8
330
22DF
100
AcDbEntity
  8
SK2
  6
Continuous
 62
     0
370
    -2
100
AcDbLine
 10
-16.74040802104335
 20
31.4246994159315
 30
0.0
 11
-16.74040802104335
 21
22.59252056381173
 31
0.0
  0
MTEXT
  5
24B9
330
22DF
100
AcDbEntity
  8
SK2
  6
Continuous
 62
     5
100
AcDbMText
 10
-16.74040802104335
 20
15.86141811203145
 30
0.0
 40
3.5
 41
0.0
 71
     5
 72
     1
  1
\A1;%%c69,85
 11
0.0000000000000001
 21
1.0
 31
0.0
 73
     1
 44
1.0
1001
ACAD
1000
MTEXTBEGIN
1070
    73
1070
     1
1070
    44
1040
1.0
1070
    74
1070
     0
1000
MTEXTEND
  0
SOLID
  5
24BA
330
22DF
100
AcDbEntity
  8
SK2
  6
Continuous
 62
     0
100
AcDbTrace
 10
-17.3237413543767
 20
-31.42530058406853
 30
0.0
 11
-16.15707468771003
 21
-31.42530058406853
 31
0.0
 12
-16.74040802104336
 22
-34.92530058406853
 32
0.0
 13
-16.74040802104336
 23
-34.92530058406853
 33
0.0
  0
SOLID
  5
24BB
330
22DF
100
AcDbEntity
  8
SK2
  6
Continuous
 62
     0
100
AcDbTrace
 10
-17.32374135437668
 20
31.4246994159315
 30
0.0
 11
-16.15707468771002
 21
31.4246994159315
 31
0.0
 12
-16.74040802104335
 22
34.9246994159315
 32
0.0
 13
-16.74040802104335
 23
34.9246994159315
 33
0.0
  0
POINT
  5
24BC
330
22DF
100
AcDbEntity
  8
DEFPOINTS
  6
Continuous
 62
     0
100
AcDbPoint
 10
-0.0031707333433246
 20
-34.92530058406854
 30
0.0
  0
POINT
  5
24BD
330
22DF
100
AcDbEntity
  8
DEFPOINTS
  6
Continuous
 62
     0
100
AcDbPoint
 10
-0.0031707333433246
 20
34.92469941593149
 30
0.0
  0
POINT
  5
24BE
330
22DF
100
AcDbEntity
  8
DEFPOINTS
  6
Continuous
 62
     0
100
AcDbPoint
 10
-16.74040802104335
 20
34.9246994159315
 30
0.0
  0
ENDBLK
  5
22E1
330
22DF
100
AcDbEntity
  8
0
100
AcDbBlockEnd
  0
BLOCK
  5
22EE
330
22ED
100
AcDbEntity
  8
0
100
AcDbBlockBegin
  2
*D53
 70
     1
 10
0.0
 20
0.0
 30
0.0
  3
*D53
  1

  0
LINE
  5
24C8
330
22ED
100
AcDbEntity
  8
2
 62
     0
370
    -2
100
AcDbLine
 10
145.3368292666567
 20
-0.0628005840685404
 30
0.0
 11
145.3368292666567
 21
-64.18576370843805
 31
0.0
  0
LINE
  5
24C9
330
22ED
100
AcDbEntity
  8
2
 62
     0
370
    -2
100
AcDbLine
 10
-0.0031707333433246
 20
-35.99837846186853
 30
0.0
 11
-0.0031707333433264
 21
-64.18576370843803
 31
0.0
  0
LINE
  5
24CA
330
22ED
100
AcDbEntity
  8
2
 62
     0
370
    -2
100
AcDbLine
 10
141.8368292666567
 20
-64.00576370843804
 30
0.0
 11
3.496829266656673
 21
-64.00576370843804
 31
0.0
  0
SOLID
  5
24CB
330
22ED
100
AcDbEntity
  8
2
 62
     0
100
AcDbTrace
 10
141.8368292666567
 20
-63.42243037510471
 30
0.0
 11
141.8368292666567
 21
-64.58909704177137
 31
0.0
 12
145.3368292666567
 22
-64.00576370843804
 32
0.0
 13
145.3368292666567
 23
-64.00576370843804
 33
0.0
  0
SOLID
  5
24CC
330
22ED
100
AcDbEntity
  8
2
 62
     0
100
AcDbTrace
 10
3.496829266656673
 20
-63.42243037510471
 30
0.0
 11
3.496829266656673
 21
-64.58909704177137
 31
0.0
 12
-0.0031707333433263
 22
-64.00576370843804
 32
0.0
 13
-0.0031707333433263
 23
-64.00576370843804
 33
0.0
  0
MTEXT
  5
24CD
330
22ED
100
AcDbEntity
  8
2
 62
     5
100
AcDbMText
 10
72.66682926665669
 20
-62.16576370843803
 30
0.0
 40
3.5
 41
0.0
 71
     5
 72
     1
  1
\A1;145.34
 73
     1
 44
1.0
1001
ACAD
1000
MTEXTBEGIN
1070
    73
1070
     1
1070
    44
1040
1.0
1070
    74
1070
     0
1000
MTEXTEND
  0
POINT
  5
24CE
330
22ED
100
AcDbEntity
  8
DEFPOINTS
 62
     0
100
AcDbPoint
 10
145.3368292666567
 20
-0.0003005840685404
 30
0.0
  0
POINT
  5
24CF
330
22ED
100
AcDbEntity
  8
DEFPOINTS
 62
     0
100
AcDbPoint
 10
-0.0031707333433246
 20
-35.93587846186853
 30
0.0
  0
POINT
  5
24D0
330
22ED
100
AcDbEntity
  8
DEFPOINTS
 62
     0
100
AcDbPoint
 10
-0.0031707333433263
 20
-64.00576370843804
 30
0.0
  0
ENDBLK
  5
22EF
330
22ED
100
AcDbEntity
  8
0
100
AcDbBlockEnd
  0
BLOCK
  5
231E
330
231D
100
AcDbEntity
  8
0
100
AcDbBlockBegin
  2
*D54
 70
     1
 10
0.0
 20
0.0
 30
0.0
  3
*D54
  1

  0
LINE
  5
248F
330
231D
100
AcDbEntity
  8
SK2
  6
Continuous
 62
     0
370
    -2
100
AcDbLine
 10
115.3166885795566
 20
31.49969941593147
 30
0.0
 11
171.9547550802869
 21
31.49969941593145
 31
0.0
  0
LINE
  5
2490
330
231D
100
AcDbEntity
  8
SK2
  6
Continuous
 62
     0
370
    -2
100
AcDbLine
 10
115.3166885795566
 20
-31.50030058406854
 30
0.0
 11
171.9547550802869
 21
-31.50030058406855
 31
0.0
  0
LINE
  5
2491
330
231D
100
AcDbEntity
  8
SK2
  6
Continuous
 62
     0
370
    -2
100
AcDbLine
 10
171.7747550802869
 20
27.99969941593145
 30
0.0
 11
171.7747550802869
 21
3.508974907616104
 31
0.0
  0
LINE
  5
2492
330
231D
100
AcDbEntity
  8
SK2
  6
Continuous
 62
     0
370
    -2
100
AcDbLine
 10
171.7747550802869
 20
-28.00030058406855
 30
0.0
 11
171.7747550802869
 21
-3.815999839214479
 31
0.0
  0
MTEXT
  5
2493
330
231D
100
AcDbEntity
  8
SK2
  6
Continuous
 62
     5
100
AcDbMText
 10
171.7747550802869
 20
-0.1535124657991602
 30
0.0
 40
3.5
 41
0.0
 71
     5
 72
     1
  1
\A1;%%c63
 11
0.0000000000000001
 21
1.0
 31
0.0
 73
     1
 44
1.0
1001
ACAD
1000
MTEXTBEGIN
1070
    73
1070
     1
1070
    44
1040
1.0
1070
    74
1070
     0
1000
MTEXTEND
  0
SOLID
  5
2494
330
231D
100
AcDbEntity
  8
SK2
  6
Continuous
 62
     0
100
AcDbTrace
 10
171.1914217469535
 20
27.99969941593145
 30
0.0
 11
172.3580884136202
 21
27.99969941593145
 31
0.0
 12
171.7747550802869
 22
31.49969941593145
 32
0.0
 13
171.7747550802869
 23
31.49969941593145
 33
0.0
  0
SOLID
  5
2495
330
231D
100
AcDbEntity
  8
SK2
  6
Continuous
 62
     0
100
AcDbTrace
 10
171.1914217469535
 20
-28.00030058406855
 30
0.0
 11
172.3580884136202
 21
-28.00030058406855
 31
0.0
 12
171.7747550802869
 22
-31.50030058406855
 32
0.0
 13
171.7747550802869
 23
-31.50030058406855
 33
0.0
  0
POINT
  5
2496
330
231D
100
AcDbEntity
  8
DEFPOINTS
  6
Continuous
 62
     0
100
AcDbPoint
 10
115.2541885795566
 20
31.49969941593147
 30
0.0
  0
POINT
  5
2497
330
231D
100
AcDbEntity
  8
DEFPOINTS
  6
Continuous
 62
     0
100
AcDbPoint
 10
115.2541885795566
 20
-31.50030058406854
 30
0.0
  0
POINT
  5
2498
330
231D
100
AcDbEntity
  8
DEFPOINTS
  6
Continuous
 62
     0
100
AcDbPoint
 10
171.7747550802869
 20
-31.50030058406855
 30
0.0
  0
ENDBLK
  5
231F
330
231D
100
AcDbEntity
  8
0
100
AcDbBlockEnd
  0
ENDSEC
  0
SECTION
  2
ENTITIES
  0
DIMENSION
  5
1DA5
330
21FB
100
AcDbEntity
  8
2
  6
Continuous
 62
     7
100
AcDbDimension
  2
*D48
 10
159.9968292666566
 20
69.35897711343148
 30
0.0
 11
81.19445495355682
 21
69.35897711343148
 31
0.0
 70
   160
  1
160
 71
     5
 42
159.9999999999999
  3
STANDARD
100
AcDbAlignedDimension
 13
-0.0031707333433246
 23
35.93527729383144
 33
0.0
 14
159.9968292666566
 24
24.49969941593145
 34
0.0
100
AcDbRotatedDimension
  0
DIMENSION
  5
1DA6
330
21FB
100
AcDbEntity
  8
SK2
  6
Continuous
 62
     7
100
AcDbDimension
  2
*D54
 10
171.7747550802869
 20
-31.50030058406855
 30
0.0
 11
171.7747550802869
 21
-0.1535124657991602
 31
0.0
 70
   160
  1
%%c63
 71
     5
 42
63.0
  3
STANDARD
100
AcDbAlignedDimension
 13
115.2541885795566
 23
31.49969941593147
 33
0.0
 14
115.2541885795566
 24
-31.50030058406854
 34
0.0
 50
270.0
100
AcDbRotatedDimension
  0
DIMENSION
  5
1DA7
330
21FB
100
AcDbEntity
  8
SK2
  6
Continuous
 62
     7
100
AcDbDimension
  2
*D49
 10
-0.0031707333433226
 20
69.35897711343148
 30
0.0
 11
-54.13633605314334
 21
69.35897711343148
 31
0.0
 70
   160
  1
101.6
 71
     5
 42
101.6
  3
STANDARD
100
AcDbAlignedDimension
 13
-101.6031707333433
 23
20.10793309143147
 33
0.0
 14
-0.0031707333433246
 24
35.93527729383144
 34
0.0
100
AcDbRotatedDimension
  0
DIMENSION
  5
1DA8
330
21FB
100
AcDbEntity
  8
2
  6
Continuous
 62
     7
100
AcDbDimension
  2
*D47
 10
-0.0031707333433232
 20
59.60060505003141
 30
0.0
 11
9.094302564546296
 21
62.49475229324708
 31
0.0
 70
   160
  1
19.1
 71
     5
 42
19.09999999999996
  3
STANDARD
100
AcDbAlignedDimension
 13
19.09682926665664
 23
48.21219941593142
 33
0.0
 14
-0.0031707333433246
 24
35.93527729383144
 34
0.0
 50
180.0
100
AcDbRotatedDimension
  0
DIMENSION
  5
1DA9
330
21FB
100
AcDbEntity
  8
SK2
  6
Continuous
 62
     7
100
AcDbDimension
  2
*D51
 10
-124.3215330733433
 20
-49.2128005840685
 30
0.0
 11
-128.2762141500381
 21
0.8456359730349234
 31
0.0
 70
   160
  1
%%c98.43
 71
     5
 42
98.42499999999995
  3
STANDARD
100
AcDbAlignedDimension
 13
4.221829266656584
 23
49.21219941593141
 33
0.0
 14
4.221829266656584
 24
-49.21280058406853
 34
0.0
 50
270.0
100
AcDbRotatedDimension
  0
DIMENSION
  5
1DAA
330
21FB
100
AcDbEntity
  8
SK2
  6
Continuous
 62
     7
100
AcDbDimension
  2
*D52
 10
-16.74040802104335
 20
34.9246994159315
 30
0.0
 11
-16.74040802104335
 21
15.86141811203145
 31
0.0
 70
   160
  1
%%c69,85
 71
     5
 42
69.85000000000002
  3
STANDARD
100
AcDbAlignedDimension
 13
-0.0031707333433246
 23
-34.92530058406854
 33
0.0
 14
-0.0031707333433246
 24
34.92469941593149
 34
0.0
 50
90.0
100
AcDbRotatedDimension
  0
DIMENSION
  5
1DAB
330
21FB
100
AcDbEntity
  8
SK2
  6
Continuous
 62
     7
100
AcDbDimension
  2
*D50
 10
-114.962454965338
 20
12.69969941593147
 30
0.0
 11
-118.5572431949802
 21
0.5845287386972089
 31
0.0
 70
   160
  1
1"-8 UNC 2B
 71
     5
 42
25.40000000000001
  3
STANDARD
100
AcDbAlignedDimension
 13
-94.45317073334335
 23
-12.70030058406854
 33
0.0
 14
-94.45317073334335
 24
12.69969941593147
 34
0.0
 50
90.0
100
AcDbRotatedDimension
  0
LINE
  5
1DAF
330
21FB
100
AcDbEntity
  8
1
  6
Continuous
100
AcDbLine
 10
-101.6031707333433
 20
-20.10853425956852
 30
0.0
 11
-101.6031707333433
 21
20.10793309143147
 31
0.0
  0
LINE
  5
1DB0
330
21FB
100
AcDbEntity
  8
SK3
  6
DASHED
100
AcDbLine
 10
-100.3031707333433
 20
-12.50030058406855
 30
0.0
 11
-100.3031707333433
 21
12.49969941593146
 31
0.0
  0
LINE
  5
1DB1
330
21FB
100
AcDbEntity
  8
SK3
  6
DASHED
100
AcDbLine
 10
-95.00317073334333
 20
-11.84380058406854
 30
0.0
 11
-95.00317073334333
 21
11.84319941593146
 31
0.0
  0
LINE
  5
1DB2
330
21FB
100
AcDbEntity
  8
SK3
  6
DASHED
100
AcDbLine
 10
-92.87817073334332
 20
-10.87530058406855
 30
0.0
 11
-92.87817073334332
 21
10.87469941593147
 31
0.0
  0
LINE
  5
1DB3
330
21FB
100
AcDbEntity
  8
SK3
  6
DASHED
100
AcDbLine
 10
-54.60317073334334
 20
-12.70030058406854
 30
0.0
 11
-54.60317073334334
 21
12.69969941593147
 31
0.0
  0
LINE
  5
1DB4
330
21FB
100
AcDbEntity
  8
SK3
  6
DASHED
100
AcDbLine
 10
-92.87817073334332
 20
11.12469941593146
 30
0.0
 11
-95.01885615824333
 21
13.26538484093147
 31
0.0
  0
LINE
  5
1DB5
330
21FB
100
AcDbEntity
  8
SK3
  6
DASHED
100
AcDbLine
 10
-38.60317073334335
 20
-11.12530058406854
 30
0.0
 11
-38.60317073334335
 21
11.12469941593146
 31
0.0
  0
LINE
  5
1DB6
330
21FB
100
AcDbEntity
  8
SK3
  6
DASHED
100
AcDbLine
 10
-92.87817073334332
 20
-11.12530058406854
 30
0.0
 11
-95.01885615824333
 21
-13.26598600896853
 31
0.0
  0
LINE
  5
1DB8
330
21FB
100
AcDbEntity
  8
SK3
  6
DASHED
100
AcDbLine
 10
-35.93292573834333
 20
-6.50030058406854
 30
0.0
 11
-35.93292573834333
 21
6.499699415931459
 31
0.0
  0
LINE
  5
1DB9
330
21FB
100
AcDbEntity
  8
1
  6
Continuous
100
AcDbLine
 10
18.09682926665664
 20
-49.21280058406853
 30
0.0
 11
14.73549603575668
 21
-49.21280058406853
 31
0.0
  0
LINE
  5
1DBA
330
21FB
100
AcDbEntity
  8
1
  6
Continuous
100
AcDbLine
 10
7.683162497556651
 20
-49.21280058406853
 30
0.0
 11
4.221829266656584
 21
-49.21280058406853
 31
0.0
  0
LINE
  5
1DBB
330
21FB
100
AcDbEntity
  8
1
  6
Continuous
100
AcDbLine
 10
9.241829266656651
 20
-45.64530058406853
 30
0.0
 11
13.07682926665666
 21
-45.64530058406853
 31
0.0
  0
LINE
  5
1DBC
330
21FB
100
AcDbEntity
  8
SK3
  6
DASHED
100
AcDbLine
 10
-101.4031707333433
 20
14.13478471203145
 30
0.0
 11
-100.3959910563434
 21
13.55328925443147
 31
0.0
  0
LINE
  5
1DBD
330
21FB
100
AcDbEntity
  8
SK3
  6
DASHED
100
AcDbLine
 10
-38.60317073334335
 20
11.12469941593146
 30
0.0
 11
-35.93292573834333
 21
6.499699415931459
 31
0.0
  0
LINE
  5
1DBE
330
21FB
100
AcDbEntity
  8
SK3
  6
DASHED
100
AcDbLine
 10
-35.93292573834333
 20
-6.50030058406854
 30
0.0
 11
-38.60317073334335
 21
-11.12530058406854
 31
0.0
  0
LINE
  5
1DBF
330
21FB
100
AcDbEntity
  8
SK3
  6
DASHED
100
AcDbLine
 10
-101.4031707333433
 20
-14.13538588016853
 30
0.0
 11
-100.3959910563434
 21
-13.55389042256853
 31
0.0
  0
LINE
  5
1DC0
330
21FB
100
AcDbEntity
  8
1
  6
Continuous
100
AcDbLine
 10
0.4968292666566754
 20
-34.57530058406854
 30
0.0
 11
2.221829266656584
 21
-34.57530058406854
 31
0.0
  0
LINE
  5
1DC1
330
21FB
100
AcDbEntity
  8
1
  6
Continuous
100
AcDbLine
 10
-101.6031707333433
 20
-20.10853425956852
 30
0.0
 11
-0.5252442338433241
 21
-34.84916435316853
 31
0.0
  0
LINE
  5
1DC2
330
21FB
100
AcDbEntity
  8
1
  6
Continuous
100
AcDbLine
 10
-0.5252442338433241
 20
-34.84916435316853
 30
0.0
 11
0.4968292666566754
 21
-34.57530058406854
 31
0.0
  0
LINE
  5
1DC3
330
21FB
100
AcDbEntity
  8
1
  6
Continuous
100
AcDbLine
 10
21.59682926665664
 20
-31.50030058406854
 30
0.0
 11
115.2541885795566
 21
-31.50030058406854
 31
0.0
  0
LINE
  5
1DC4
330
21FB
100
AcDbEntity
  8
1
  6
Continuous
100
AcDbLine
 10
136.4968292666566
 20
-31.50030058406854
 30
0.0
 11
155.9558292666566
 21
-31.50030058406854
 31
0.0
  0
LINE
  5
1DC5
330
21FB
100
AcDbEntity
  8
1
  6
Continuous
100
AcDbLine
 10
157.5978292666567
 20
-28.65630058406854
 30
0.0
 11
137.9968292666567
 21
-28.65630058406854
 31
0.0
  0
LINE
  5
1DC6
330
21FB
100
AcDbEntity
  8
1
  6
Continuous
100
AcDbLine
 10
148.9968292666566
 20
-26.05830058406854
 30
0.0
 11
157.6878292666567
 21
-26.05830058406854
 31
0.0
  0
LINE
  5
1DC7
330
21FB
100
AcDbEntity
  8
1
  6
Continuous
100
AcDbLine
 10
137.9968292666567
 20
-25.65630058406854
 30
0.0
 11
157.6878292666567
 21
-25.65630058406854
 31
0.0
  0
LINE
  5
1DC8
330
21FB
100
AcDbEntity
  8
1
  6
Continuous
100
AcDbLine
 10
134.9968292666567
 20
-25.00030058406853
 30
0.0
 11
122.9968292666566
 21
-25.00030058406853
 31
0.0
  0
LINE
  5
1DC9
330
21FB
100
AcDbEntity
  8
1
  6
Continuous
100
AcDbLine
 10
127.9968292666566
 20
-24.08030058406854
 30
0.0
 11
134.9968292666567
 21
-24.08030058406854
 31
0.0
  0
LINE
  5
1DCA
330
21FB
100
AcDbEntity
  8
1
  6
Continuous
100
AcDbLine
 10
13.07682926665666
 20
-46.42650800756853
 30
0.0
 11
14.68549603575656
 21
-49.21280058406853
 31
0.0
  0
LINE
  5
1DCB
330
21FB
100
AcDbEntity
  8
1
  6
Continuous
100
AcDbLine
 10
-0.5252442338433241
 20
34.84856318503148
 30
0.0
 11
-0.5252442338433241
 21
-34.84916435316853
 31
0.0
  0
LINE
  5
1DCC
330
21FB
100
AcDbEntity
  8
SK4
  6
CENTER
100
AcDbLine
 10
-0.0031707333433246
 20
-35.93587846186853
 30
0.0
 11
-0.0031707333433246
 21
35.93527729383144
 31
0.0
  0
LINE
  5
1DCD
330
21FB
100
AcDbEntity
  8
1
  6
Continuous
100
AcDbLine
 10
0.4968292666566754
 20
-33.57530058406854
 30
0.0
 11
0.4968292666566754
 21
33.57469941593147
 31
0.0
  0
LINE
  5
1DCE
330
21FB
100
AcDbEntity
  8
1
  6
Continuous
100
AcDbLine
 10
3.221829266656669
 20
-48.21280058406853
 30
0.0
 11
3.221829266656669
 21
35.38507751893145
 31
0.0
  0
LINE
  5
1DCF
330
21FB
100
AcDbEntity
  8
1
  6
Continuous
100
AcDbLine
 10
3.221829266656669
 20
35.57469941593146
 30
0.0
 11
3.221829266656669
 21
48.21219941593142
 31
0.0
  0
LINE
  5
1DD0
330
21FB
100
AcDbEntity
  8
1
  6
Continuous
100
AcDbLine
 10
14.68549603575656
 20
49.21219941593141
 30
0.0
 11
13.07682926665666
 21
46.42590683943139
 31
0.0
  0
LINE
  5
1DD1
330
21FB
100
AcDbEntity
  8
SK3
  6
DASHED
100
AcDbLine
 10
86.99682926665657
 20
-15.25030058406855
 30
0.0
 11
111.2058292666566
 21
-15.25030058406855
 31
0.0
  0
LINE
  5
1DD2
330
21FB
100
AcDbEntity
  8
SK3
  6
DASHED
100
AcDbLine
 10
-95.58454158324332
 20
-13.50030058406854
 30
0.0
 11
-100.1959910563433
 21
-13.50030058406854
 31
0.0
  0
LINE
  5
1DD3
330
21FB
100
AcDbEntity
  8
1
  6
Continuous
100
AcDbLine
 10
19.09682926665664
 20
-12.95430058406855
 30
0.0
 11
14.73502321035664
 21
-12.95430058406855
 31
0.0
  0
LINE
  5
1DD4
330
21FB
100
AcDbEntity
  8
1
  6
Continuous
100
AcDbLine
 10
14.68502321035663
 20
-12.95430058406855
 30
0.0
 11
4.221829266656584
 21
-12.95430058406855
 31
0.0
  0
LINE
  5
1DD5
330
21FB
100
AcDbEntity
  8
SK3
  6
DASHED
100
AcDbLine
 10
-54.60317073334334
 20
-12.70030058406854
 30
0.0
 11
-94.45317073334335
 21
-12.70030058406854
 31
0.0
  0
LINE
  5
1DD6
330
21FB
100
AcDbEntity
  8
1
  6
Continuous
100
AcDbLine
 10
7.633162497556668
 20
12.95369941593146
 30
0.0
 11
7.633162497556668
 21
49.21219941593141
 31
0.0
  0
LINE
  5
1DD7
330
21FB
100
AcDbEntity
  8
1
  6
Continuous
100
AcDbLine
 10
7.633635322956678
 20
-12.95430058406855
 30
0.0
 11
7.633635322956678
 21
-49.21280058406853
 31
0.0
  0
LINE
  5
1DD8
330
21FB
100
AcDbEntity
  8
1
  6
Continuous
100
AcDbLine
 10
9.241829266656651
 20
-46.42650800756853
 30
0.0
 11
9.241829266656651
 21
-12.95430058406855
 31
0.0
  0
LINE
  5
1DD9
330
21FB
100
AcDbEntity
  8
1
  6
Continuous
100
AcDbLine
 10
9.241829266656651
 20
12.95369941593146
 30
0.0
 11
9.241829266656651
 21
46.42590683943139
 31
0.0
  0
LINE
  5
1DDA
330
21FB
100
AcDbEntity
  8
SK4
  6
CENTER
100
AcDbLine
 10
11.15932926665667
 20
8.249699415931459
 30
0.0
 11
11.15932926665667
 21
-8.25030058406854
 31
0.0
  0
LINE
  5
1DDB
330
21FB
100
AcDbEntity
  8
1
  6
Continuous
100
AcDbLine
 10
13.07682926665666
 20
-12.95430058406855
 30
0.0
 11
13.07682926665666
 21
-46.42650800756853
 31
0.0
  0
LINE
  5
1DDC
330
21FB
100
AcDbEntity
  8
1
  6
Continuous
100
AcDbLine
 10
13.07682926665666
 20
12.95369941593146
 30
0.0
 11
13.07682926665666
 21
46.42590683943139
 31
0.0
  0
LINE
  5
1DDD
330
21FB
100
AcDbEntity
  8
SK3
  6
DASHED
100
AcDbLine
 10
-38.60317073334335
 20
-11.12530058406854
 30
0.0
 11
-92.87817073334332
 21
-11.12530058406854
 31
0.0
  0
LINE
  5
1DDE
330
21FB
100
AcDbEntity
  8
SK3
  6
DASHED
100
AcDbLine
 10
81.9450144112568
 20
-6.50030058406854
 30
0.0
 11
-35.93292573834333
 21
-6.50030058406854
 31
0.0
  0
LINE
  5
1DDF
330
21FB
100
AcDbEntity
  8
1
  6
Continuous
100
AcDbLine
 10
137.9968292666567
 20
-3.00030058406854
 30
0.0
 11
157.6878292666567
 21
-3.00030058406854
 31
0.0
  0
LINE
  5
1DE0
330
21FB
100
AcDbEntity
  8
SK3
  6
DASHED
100
AcDbLine
 10
111.2058292666566
 20
-15.25030058406855
 30
0.0
 11
144.9968292666566
 21
-19.99985744416853
 31
0.0
  0
LINE
  5
1DE1
330
21FB
100
AcDbEntity
  8
1
  6
Continuous
100
AcDbLine
 10
3.221829266656669
 20
13.95369941593146
 30
0.0
 11
4.221829266656584
 21
12.95369941593146
 31
0.0
  0
LINE
  5
1DE2
330
21FB
100
AcDbEntity
  8
1
  6
Continuous
100
AcDbLine
 10
14.68502321035663
 20
-12.95430058406855
 30
0.0
 11
14.68502321035663
 21
-49.21280058406853
 31
0.0
  0
LINE
  5
1DE3
330
21FB
100
AcDbEntity
  8
1
  6
Continuous
100
AcDbLine
 10
14.68549603575656
 20
12.95369941593146
 30
0.0
 11
14.68549603575656
 21
49.21219941593141
 31
0.0
  0
LINE
  5
1DE4
330
21FB
100
AcDbEntity
  8
1
  6
Continuous
100
AcDbLine
 10
19.09682926665664
 20
-48.21280058406853
 30
0.0
 11
19.09682926665664
 21
48.21219941593142
 31
0.0
  0
LINE
  5
1DE5
330
21FB
100
AcDbEntity
  8
SK3
  6
DASHED
100
AcDbLine
 10
111.2058292666566
 20
15.24969941593147
 30
0.0
 11
144.9968292666566
 21
19.99911143713147
 31
0.0
  0
LINE
  5
1DE7
330
21FB
100
AcDbEntity
  8
1
  6
Continuous
100
AcDbLine
 10
157.6878292666567
 20
2.999699415931459
 30
0.0
 11
137.9968292666567
 21
2.999699415931459
 31
0.0
  0
LINE
  5
1DE8
330
21FB
100
AcDbEntity
  8
SK3
  6
DASHED
100
AcDbLine
 10
-35.93292573834333
 20
6.499699415931459
 30
0.0
 11
81.9450144112568
 21
6.499699415931459
 31
0.0
  0
LINE
  5
1DE9
330
21FB
100
AcDbEntity
  8
1
  6
Continuous
100
AcDbLine
 10
4.221829266656584
 20
-12.95430058406855
 30
0.0
 11
3.221829266656669
 21
-13.95430058406853
 31
0.0
  0
LINE
  5
1DEA
330
21FB
100
AcDbEntity
  8
SK3
  6
DASHED
100
AcDbLine
 10
-38.60317073334335
 20
11.12469941593146
 30
0.0
 11
-92.87817073334332
 21
11.12469941593146
 31
0.0
  0
LINE
  5
1DEB
330
21FB
100
AcDbEntity
  8
SK3
  6
DASHED
100
AcDbLine
 10
-54.60317073334334
 20
12.69969941593147
 30
0.0
 11
-94.45317073334335
 21
12.69969941593147
 31
0.0
  0
LINE
  5
1DEC
330
21FB
100
AcDbEntity
  8
1
  6
Continuous
100
AcDbLine
 10
19.09682926665664
 20
12.95369941593146
 30
0.0
 11
4.221829266656584
 21
12.95369941593146
 31
0.0
  0
LINE
  5
1DED
330
21FB
100
AcDbEntity
  8
SK3
  6
DASHED
100
AcDbLine
 10
-95.58454158324332
 20
13.49969941593146
 30
0.0
 11
-100.1959910563433
 21
13.49969941593146
 31
0.0
  0
LINE
  5
1DEE
330
21FB
100
AcDbEntity
  8
SK3
  6
DASHED
100
AcDbLine
 10
86.99682926665657
 20
15.24969941593147
 30
0.0
 11
111.2058292666566
 21
15.24969941593147
 31
0.0
  0
LINE
  5
1DEF
330
21FB
100
AcDbEntity
  8
1
  6
Continuous
100
AcDbLine
 10
9.241829266656651
 20
46.42590683943139
 30
0.0
 11
7.633162497556668
 21
49.21219941593141
 31
0.0
  0
LINE
  5
1DF0
330
21FB
100
AcDbEntity
  8
1
  6
Continuous
100
AcDbLine
 10
7.633162497556668
 20
-49.21280058406853
 30
0.0
 11
9.241829266656651
 21
-46.42650800756853
 31
0.0
  0
LINE
  5
1DF1
330
21FB
100
AcDbEntity
  8
1
  6
Continuous
100
AcDbLine
 10
127.9968292666566
 20
24.07969941593145
 30
0.0
 11
134.9968292666567
 21
24.07969941593145
 31
0.0
  0
LINE
  5
1DF2
330
21FB
100
AcDbEntity
  8
1
  6
Continuous
100
AcDbLine
 10
134.9968292666567
 20
24.99969941593147
 30
0.0
 11
123.4110428290568
 21
24.99969941593147
 31
0.0
  0
LINE
  5
1DF3
330
21FB
100
AcDbEntity
  8
1
  6
Continuous
100
AcDbLine
 10
137.9968292666567
 20
25.65569941593142
 30
0.0
 11
157.6878292666567
 21
25.65569941593142
 31
0.0
  0
LINE
  5
1DF4
330
21FB
100
AcDbEntity
  8
1
  6
Continuous
100
AcDbLine
 10
148.9968292666566
 20
26.05769941593142
 30
0.0
 11
157.6878292666567
 21
26.05769941593142
 31
0.0
  0
LINE
  5
1DF5
330
21FB
100
AcDbEntity
  8
1
  6
Continuous
100
AcDbLine
 10
157.5978292666567
 20
28.65569941593142
 30
0.0
 11
137.9968292666567
 21
28.65569941593142
 31
0.0
  0
LINE
  5
1DF6
330
21FB
100
AcDbEntity
  8
1
  6
Continuous
100
AcDbLine
 10
0.4968292666566754
 20
34.57469941593147
 30
0.0
 11
-0.5252442338433241
 21
34.84856318503148
 31
0.0
  0
LINE
  5
1DF7
330
21FB
100
AcDbEntity
  8
1
  6
Continuous
100
AcDbLine
 10
-101.6031707333433
 20
20.10793309143147
 30
0.0
 11
-0.5252442338433241
 21
34.84856318503148
 31
0.0
  0
LINE
  5
1DF8
330
21FB
100
AcDbEntity
  8
1
  6
Continuous
100
AcDbLine
 10
155.9558292666566
 20
31.49969941593147
 30
0.0
 11
136.4968292666566
 21
31.49969941593147
 31
0.0
  0
LINE
  5
1DF9
330
21FB
100
AcDbEntity
  8
1
  6
Continuous
100
AcDbLine
 10
115.2541885795566
 20
31.49969941593147
 30
0.0
 11
21.59682926665664
 21
31.49969941593147
 31
0.0
  0
LINE
  5
1DFA
330
21FB
100
AcDbEntity
  8
1
  6
Continuous
100
AcDbLine
 10
2.221829266656584
 20
34.57469941593147
 30
0.0
 11
0.4968292666566754
 21
34.57469941593147
 31
0.0
  0
LINE
  5
1DFB
330
21FB
100
AcDbEntity
  8
1
  6
Continuous
100
AcDbLine
 10
-0.7252442338433412
 20
34.84856318503148
 30
0.0
 11
-0.5252442338433241
 21
34.84856318503148
 31
0.0
  0
LINE
  5
1DFC
330
21FB
100
AcDbEntity
  8
1
  6
Continuous
100
AcDbLine
 10
13.07682926665666
 20
45.64469941593149
 30
0.0
 11
9.241829266656651
 21
45.64469941593149
 31
0.0
  0
LINE
  5
1DFD
330
21FB
100
AcDbEntity
  8
1
  6
Continuous
100
AcDbLine
 10
4.221829266656584
 20
49.21219941593141
 30
0.0
 11
7.633162497556668
 21
49.21219941593141
 31
0.0
  0
LINE
  5
1DFE
330
21FB
100
AcDbEntity
  8
1
  6
Continuous
100
AcDbLine
 10
14.68549603575656
 20
49.21219941593141
 30
0.0
 11
18.09682926665664
 21
49.21219941593141
 31
0.0
  0
LINE
  5
1DFF
330
21FB
100
AcDbEntity
  8
SK3
  6
DASHED
100
AcDbLine
 10
81.9450144112568
 20
6.499699415931459
 30
0.0
 11
86.99682926665657
 21
15.24969941593147
 31
0.0
  0
LINE
  5
1E00
330
21FB
100
AcDbEntity
  8
SK3
  6
DASHED
100
AcDbLine
 10
86.99682926665657
 20
-15.25030058406855
 30
0.0
 11
81.9450144112568
 21
-6.50030058406854
 31
0.0
  0
LINE
  5
1E01
330
21FB
100
AcDbEntity
  8
SK3
  6
DASHED
100
AcDbLine
 10
81.9450144112568
 20
-6.50030058406854
 30
0.0
 11
81.9450144112568
 21
6.499699415931459
 31
0.0
  0
LINE
  5
1E03
330
21FB
100
AcDbEntity
  8
SK3
  6
DASHED
100
AcDbLine
 10
86.99682926665657
 20
-15.25030058406855
 30
0.0
 11
86.99682926665657
 21
15.24969941593147
 31
0.0
  0
LINE
  5
1E04
330
21FB
100
AcDbEntity
  8
1
  6
Continuous
100
AcDbLine
 10
117.3755089231566
 20
30.62101975953147
 30
0.0
 11
122.7039360478566
 21
25.29259263473146
 31
0.0
  0
LINE
  5
1E05
330
21FB
100
AcDbEntity
  8
SK3
  6
DASHED
100
AcDbLine
 10
111.2058292666566
 20
15.24969941593147
 30
0.0
 11
111.2058292666566
 21
-15.25030058406855
 31
0.0
  0
LINE
  5
1E06
330
21FB
100
AcDbEntity
  8
1
  6
Continuous
100
AcDbLine
 10
122.9968292666566
 20
-25.00030058406853
 30
0.0
 11
117.3755089231566
 21
-30.62162092756854
 31
0.0
  0
LINE
  5
1E07
330
21FB
100
AcDbEntity
  8
1
  6
Continuous
100
AcDbLine
 10
122.9961877583567
 20
-24.99094209236853
 30
0.0
 11
122.9961877583567
 21
-25.00094209236853
 31
0.0
  0
LINE
  5
1E08
330
21FB
100
AcDbEntity
  8
1
  6
Continuous
100
AcDbLine
 10
127.9968292666566
 20
-25.00030058406853
 30
0.0
 11
127.9968292666566
 21
-24.08030058406854
 31
0.0
  0
LINE
  5
1E09
330
21FB
100
AcDbEntity
  8
1
  6
Continuous
100
AcDbLine
 10
127.9968292666566
 20
24.07969941593145
 30
0.0
 11
127.9968292666566
 21
24.99969941593147
 31
0.0
  0
LINE
  5
1E0A
330
21FB
100
AcDbEntity
  8
1
  6
Continuous
100
AcDbLine
 10
134.9968292666567
 20
29.99969941593147
 30
0.0
 11
134.9968292666567
 21
-30.00030058406853
 31
0.0
  0
LINE
  5
1E0B
330
21FB
100
AcDbEntity
  8
1
  6
Continuous
100
AcDbLine
 10
137.9968292666567
 20
28.65569941593142
 30
0.0
 11
137.9968292666567
 21
25.65569941593142
 31
0.0
  0
LINE
  5
1E0C
330
21FB
100
AcDbEntity
  8
1
  6
Continuous
100
AcDbLine
 10
137.9968292666567
 20
2.999699415931459
 30
0.0
 11
137.9968292666567
 21
-3.00030058406854
 31
0.0
  0
LINE
  5
1E0D
330
21FB
100
AcDbEntity
  8
1
  6
Continuous
100
AcDbLine
 10
137.9968292666567
 20
-28.65630058406854
 30
0.0
 11
137.9968292666567
 21
-25.65630058406854
 31
0.0
  0
LINE
  5
1E0E
330
21FB
100
AcDbEntity
  8
SK3
  6
DASHED
100
AcDbLine
 10
144.9968292666566
 20
-31.50030058406854
 30
0.0
 11
144.9968292666566
 21
31.49969941593147
 31
0.0
  0
LINE
  5
1E0F
330
21FB
100
AcDbEntity
  8
1
  6
Continuous
100
AcDbLine
 10
155.9558292666566
 20
31.49969941593147
 30
0.0
 11
155.9558292666566
 21
28.65569941593142
 31
0.0
  0
LINE
  5
1E10
330
21FB
100
AcDbEntity
  8
1
  6
Continuous
100
AcDbLine
 10
155.9558292666566
 20
25.65569941593142
 30
0.0
 11
155.9558292666566
 21
2.999699415931459
 31
0.0
  0
LINE
  5
1E11
330
21FB
100
AcDbEntity
  8
1
  6
Continuous
100
AcDbLine
 10
155.9558292666566
 20
-3.00030058406854
 30
0.0
 11
155.9558292666566
 21
-25.65630058406854
 31
0.0
  0
LINE
  5
1E12
330
21FB
100
AcDbEntity
  8
1
  6
Continuous
100
AcDbLine
 10
155.9558292666566
 20
-28.65630058406854
 30
0.0
 11
155.9558292666566
 21
-31.50030058406854
 31
0.0
  0
LINE
  5
1E13
330
21FB
100
AcDbEntity
  8
1
  6
Continuous
100
AcDbLine
 10
157.6878292666567
 20
-25.65630058406854
 30
0.0
 11
157.6878292666567
 21
-28.50030058406853
 31
0.0
  0
LINE
  5
1E14
330
21FB
100
AcDbEntity
  8
1
  6
Continuous
100
AcDbLine
 10
157.6878292666567
 20
-3.00030058406854
 30
0.0
 11
157.6878292666567
 21
2.999699415931459
 31
0.0
  0
LINE
  5
1E15
330
21FB
100
AcDbEntity
  8
1
  6
Continuous
100
AcDbLine
 10
157.6878292666567
 20
25.65569941593142
 30
0.0
 11
157.6878292666567
 21
28.49969941593147
 31
0.0
  0
LINE
  5
1E16
330
21FB
100
AcDbEntity
  8
1
  6
Continuous
100
AcDbLine
 10
155.9558292666566
 20
-31.50030058406854
 30
0.0
 11
159.9968292666566
 21
-24.50030058406853
 31
0.0
  0
LINE
  5
1E17
330
21FB
100
AcDbEntity
  8
1
  6
Continuous
100
AcDbLine
 10
159.9968292666566
 20
24.49969941593145
 30
0.0
 11
155.9558292666566
 21
31.49969941593147
 31
0.0
  0
LINE
  5
1E18
330
21FB
100
AcDbEntity
  8
1
  6
Continuous
100
AcDbLine
 10
159.9968292666566
 20
-24.50030058406853
 30
0.0
 11
159.9968292666566
 21
24.49969941593145
 31
0.0
  0
ARC
  5
1E1A
330
21FB
100
AcDbEntity
  8
1
  6
Continuous
100
AcDbCircle
 10
148.7078292666567
 20
49.41969941593141
 30
0.0
 40
23.364
100
AcDbArc
 50
242.7132870000005
 51
270.708740000001
  0
ARC
  5
1E1B
330
21FB
100
AcDbEntity
  8
1
  6
Continuous
100
AcDbCircle
 10
148.7078292666567
 20
-49.42030058406854
 30
0.0
 40
23.364
100
AcDbArc
 50
89.291259999999
 51
117.2867129999994
  0
CIRCLE
  5
1E1C
330
21FB
100
AcDbEntity
  8
1
  6
Continuous
100
AcDbCircle
 10
11.15932926665667
 20
-0.0003005840685404
 30
0.0
 40
5.25
  0
CIRCLE
  5
1E1D
330
21FB
100
AcDbEntity
  8
1
  6
Continuous
100
AcDbCircle
 10
11.15932926665667
 20
-0.0003005840685404
 30
0.0
 40
5.0
  0
CIRCLE
  5
1E1E
330
21FB
100
AcDbEntity
  8
1
  6
Continuous
100
AcDbCircle
 10
11.15932926665667
 20
-0.0003005840685404
 30
0.0
 40
3.0
  0
ARC
  5
1E1F
330
21FB
100
AcDbEntity
  8
1
  6
Continuous
100
AcDbCircle
 10
115.2541885795566
 20
-28.50030058406853
 30
0.0
 40
3.0
100
AcDbArc
 50
270.0
 51
315.0000000000002
  0
ARC
  5
1E20
330
21FB
100
AcDbEntity
  8
1
  6
Continuous
100
AcDbCircle
 10
115.2541885795566
 20
28.49969941593147
 30
0.0
 40
3.0
100
AcDbArc
 50
44.99999999999976
 51
90.0
  0
ARC
  5
1E21
330
21FB
100
AcDbEntity
  8
1
  6
Continuous
100
AcDbCircle
 10
21.59682926665664
 20
-34.00030058406854
 30
0.0
 40
2.5
100
AcDbArc
 50
90.0
 51
180.0
  0
ARC
  5
1E22
330
21FB
100
AcDbEntity
  8
1
  6
Continuous
100
AcDbCircle
 10
21.59682926665664
 20
33.99969941593147
 30
0.0
 40
2.5
100
AcDbArc
 50
180.0
 51
270.0
  0
ARC
  5
1E23
330
21FB
100
AcDbEntity
  8
1
  6
Continuous
100
AcDbCircle
 10
-99.10317073334343
 20
-17.94667535046853
 30
0.0
 40
2.5
100
AcDbArc
 50
180.0
 51
261.7027999999999
  0
ARC
  5
1E24
330
21FB
100
AcDbEntity
  8
1
  6
Continuous
100
AcDbCircle
 10
-99.10317073334343
 20
17.94607418233145
 30
0.0
 40
2.5
100
AcDbArc
 50
98.29720000000007
 51
180.0
  0
ARC
  5
1E25
330
21FB
100
AcDbEntity
  8
1
  6
Continuous
100
AcDbCircle
 10
136.4968292666566
 20
29.99969941593147
 30
0.0
 40
1.5
100
AcDbArc
 50
90.0
 51
180.0
  0
ARC
  5
1E26
330
21FB
100
AcDbEntity
  8
1
  6
Continuous
100
AcDbCircle
 10
136.4968292666566
 20
-30.00030058406853
 30
0.0
 40
1.5
100
AcDbArc
 50
179.9999850000001
 51
269.9999689999988
  0
ARC
  5
1E27
330
21FB
100
AcDbEntity
  8
1
  6
Continuous
100
AcDbCircle
 10
123.4110428290568
 20
25.99969941593147
 30
0.0
 40
1.0
100
AcDbArc
 50
224.9999999999003
 51
269.999999999899
  0
ARC
  5
1E28
330
21FB
100
AcDbEntity
  8
1
  6
Continuous
100
AcDbCircle
 10
123.4110428290568
 20
-26.00030058406853
 30
0.0
 40
1.0
100
AcDbArc
 50
90.0
 51
134.9999999998995
  0
ARC
  5
1E29
330
21FB
100
AcDbEntity
  8
1
  6
Continuous
100
AcDbCircle
 10
2.221829266656584
 20
-35.57530058406856
 30
0.0
 40
1.0
100
AcDbArc
 50
0.0
 51
90.0
  0
ARC
  5
1E2A
330
21FB
100
AcDbEntity
  8
1
  6
Continuous
100
AcDbCircle
 10
2.221829266656584
 20
35.57469941593146
 30
0.0
 40
1.0
100
AcDbArc
 50
270.0
 51
0.0
  0
ARC
  5
1E2B
330
21FB
100
AcDbEntity
  8
1
  6
Continuous
100
AcDbCircle
 10
18.09682926665664
 20
-48.21280058406853
 30
0.0
 40
1.0
100
AcDbArc
 50
270.0
 51
0.0
  0
ARC
  5
1E2C
330
21FB
100
AcDbEntity
  8
1
  6
Continuous
100
AcDbCircle
 10
4.221829266656584
 20
-48.21280058406853
 30
0.0
 40
1.0
100
AcDbArc
 50
180.0
 51
270.0
  0
ARC
  5
1E2D
330
21FB
100
AcDbEntity
  8
1
  6
Continuous
100
AcDbCircle
 10
4.221829266656584
 20
48.21219941593142
 30
0.0
 40
1.0
100
AcDbArc
 50
90.0
 51
180.0
  0
ARC
  5
1E2E
330
21FB
100
AcDbEntity
  8
1
  6
Continuous
100
AcDbCircle
 10
18.09682926665664
 20
48.21219941593142
 30
0.0
 40
1.0
100
AcDbArc
 50
0.0
 51
90.0
  0
ARC
  5
1E2F
330
21FB
100
AcDbEntity
  8
SK3
  6
DASHED
100
AcDbCircle
 10
-95.58454158324332
 20
12.69969941593147
 30
0.0
 40
0.8
100
AcDbArc
 50
45.00000000010021
 51
90.0
  0
ARC
  5
1E30
330
21FB
100
AcDbEntity
  8
SK3
  6
DASHED
100
AcDbCircle
 10
-95.58454158324332
 20
-12.70030058406854
 30
0.0
 40
0.8
100
AcDbArc
 50
269.999999999899
 51
315.0000000000002
  0
ARC
  5
1E31
330
21FB
100
AcDbEntity
  8
SK3
  6
DASHED
100
AcDbCircle
 10
-101.2031707333434
 20
14.48119487353145
 30
0.0
 40
0.4
100
AcDbArc
 50
180.0
 51
239.9999999999003
  0
ARC
  5
1E32
330
21FB
100
AcDbEntity
  8
SK3
  6
DASHED
100
AcDbCircle
 10
-100.1959910563433
 20
13.89969941593146
 30
0.0
 40
0.4
100
AcDbArc
 50
239.9999999998005
 51
269.999999999899
  0
ARC
  5
1E33
330
21FB
100
AcDbEntity
  8
SK3
  6
DASHED
100
AcDbCircle
 10
-100.1959910563433
 20
-13.90030058406854
 30
0.0
 40
0.4
100
AcDbArc
 50
89.99999999990066
 51
119.9999999999003
  0
ARC
  5
1E34
330
21FB
100
AcDbEntity
  8
SK3
  6
DASHED
100
AcDbCircle
 10
-101.2031707333434
 20
-14.48179604166855
 30
0.0
 40
0.4
100
AcDbArc
 50
119.9999999999999
 51
179.9999999998998
  0
TEXT
  5
1ECF
330
21FB
100
AcDbEntity
  8
SK6
100
AcDbText
 10
-90.53733288020263
 20
-54.09979780548326
 30
0.0
 40
3.5
  1
AA3B14-50 40 160
 41
0.72
  7
TEXTSTYLE_2
100
AcDbText
  0
TEXT
  5
1ED5
330
21FB
100
AcDbEntity
  8
SK6
100
AcDbText
 10
-65.60345704965661
 20
18.49083482500918
 30
0.0
 40
3.5
  1
ASME B5.50 CAT50
 41
0.72
  7
TEXTSTYLE_2
100
AcDbText
  0
LINE
  5
1F8A
330
21FB
100
AcDbEntity
  8
SK4
100
AcDbLine
 10
-107.7031707333433
 20
-0.0003005840685404
 30
0.0
 11
163.2968292666566
 21
-0.0003005840685404
 31
0.0
  0
LINE
  5
1F8B
330
21FB
100
AcDbEntity
  8
4
100
AcDbLine
 10
163.2968292666566
 20
-0.0003005840685404
 30
0.0
 11
-107.7031707333433
 21
-0.0003005840685404
 31
0.0
  0
POINT
  5
1F94
330
21FB
100
AcDbEntity
  8
81
  6
CENTER
100
AcDbPoint
 10
159.9968292666566
 20
-0.0003005840685404
 30
0.0
1001
ACDBBLOCKREPETAG
1070
     1
1071
      156
1005
1F94
  0
LINE
  5
1F95
330
21FB
100
AcDbEntity
  8
81
100
AcDbLine
 10
145.3368292666567
 20
-0.0003005840685404
 30
0.0
 11
155.3368292666567
 21
-0.0003005840685404
 31
0.0
1001
ACDBBLOCKREPETAG
1070
     1
1071
      157
1005
1F95
  0
POINT
  5
1F96
330
21FB
100
AcDbEntity
  8
80
  6
CENTER
100
AcDbPoint
 10
-0.0031707333433246
 20
-0.0003005840685404
 30
0.0
1001
ACDBBLOCKREPETAG
1070
     1
1071
      158
1005
1F96
  0
LINE
  5
1F97
330
21FB
100
AcDbEntity
  8
80
100
AcDbLine
 10
-0.0031707333433246
 20
-0.0003005840685404
 30
0.0
 11
-10.00315977590651
 21
-0.0003005840685404
 31
0.0
1001
ACDBBLOCKREPETAG
1070
     1
1071
      159
1005
1F97
  0
DIMENSION
  5
22EC
330
21FB
100
AcDbEntity
  8
2
 62
     7
100
AcDbDimension
  2
*D53
 10
-0.0031707333433263
 20
-64.00576370843804
 30
0.0
 11
72.66682926665669
 21
-62.16576370843803
 31
0.0
 70
    32
 71
     5
 42
145.34
  3
STANDARD
100
AcDbAlignedDimension
 13
145.3368292666567
 23
-0.0003005840685404
 33
0.0
 14
-0.0031707333433246
 24
-35.93587846186853
 34
0.0
100
AcDbRotatedDimension
1001
ACAD
1000
DSTYLE
1002
{
1070
   147
1040
0.09
1070
    72
1070
     0
1070
    71
1070
     0
1002
}
  0
VIEWPORT
  5
19A4
102
{ACAD_XDICTIONARY
360
24D5
102
}
330
21F7
100
AcDbEntity
 67
     1
  8
0
100
AcDbViewport
 10
5.656249879852054
 20
3.940416471226006
 30
0.0
 40
20.37689369710756
 41
8.742606248029574
 68
     1
 69
     1
 12
5.656249879852054
 22
3.940416471226006
 13
0.0
 23
0.0
 14
10.0
 24
10.0
 15
10.0
 25
10.0
 16
0.0
 26
0.0
 36
1.0
 17
0.0
 27
0.0
 37
0.0
 42
50.0
 43
0.0
 44
0.0
 45
8.742606248029574
 50
0.0
 51
0.0
 72
   100
 90
   819232
  1

281
     0
 71
     0
 74
     0
110
0.0
120
0.0
130
0.0
111
1.0
121
0.0
131
0.0
112
0.0
122
1.0
132
0.0
 79
     0
146
0.0
  0
VIEWPORT
  5
19A9
102
{ACAD_XDICTIONARY
360
24D7
102
}
330
21F7
100
AcDbEntity
 67
     1
  8
0
100
AcDbViewport
 10
5.655416503665952
 20
3.942916900154171
 30
0.0
 40
9.048666405865523
 41
6.308667040246676
 68
     2
 69
     2
 12
-0.1538021399398133
 22
7.989341809812112
 13
0.0
 23
0.0
 14
10.0
 24
10.0
 15
10.0
 25
10.0
 16
0.0
 26
0.0
 36
1.0
 17
0.0
 27
0.0
 37
0.0
 42
50.0
 43
0.0
 44
0.0
 45
106.374553117978
 50
0.0
 51
0.0
 72
   100
 90
   819232
  1

281
     0
 71
     0
 74
     0
110
0.0
120
0.0
130
0.0
111
1.0
121
0.0
131
0.0
112
0.0
122
1.0
132
0.0
 79
     0
146
0.0
  0
ENDSEC
  0
SECTION
  2
OBJECTS
  0
DICTIONARY
  5
2191
330
0
100
AcDbDictionary
281
     1
  3
ACAD_COLOR
350
21F2
  3
ACAD_GROUP
350
2192
  3
ACAD_LAYOUT
350
21F1
  3
ACAD_MATERIAL
350
2195
  3
ACAD_MLEADERSTYLE
350
21F5
  3
ACAD_MLINESTYLE
350
21EE
  3
ACAD_PLOTSETTINGS
350
21F0
  3
ACAD_PLOTSTYLENAME
350
2193
  3
ACAD_SCALELIST
350
21C2
  3
ACAD_TABLESTYLE
350
21F3
  3
ACAD_VISUALSTYLE
350
21AE
  3
ACDB_RECOMPOSE_DATA
350
24D3
  3
AcDbVariableDictionary
350
2353
  3
DWGPROPS
350
24D4
  0
DICTIONARY
  5
233D
330
21E4
100
AcDbDictionary
280
     1
281
     1
  3
ADSK_XREC_LAYER_RECONCILED
360
233E
  0
DICTIONARY
  5
233F
330
2203
100
AcDbDictionary
280
     1
281
     1
  3
ADSK_XREC_LAYER_RECONCILED
360
2340
  0
DICTIONARY
  5
2341
330
2205
100
AcDbDictionary
280
     1
281
     1
  3
ADSK_XREC_LAYER_RECONCILED
360
2342
  0
DICTIONARY
  5
2343
330
2206
100
AcDbDictionary
280
     1
281
     1
  3
ADSK_XREC_LAYER_RECONCILED
360
2344
  0
DICTIONARY
  5
2345
330
2207
100
AcDbDictionary
280
     1
281
     1
  3
ADSK_XREC_LAYER_RECONCILED
360
2346
  0
DICTIONARY
  5
2347
330
2208
100
AcDbDictionary
280
     1
281
     1
  3
ADSK_XREC_LAYER_RECONCILED
360
2348
  0
DICTIONARY
  5
2349
330
2209
100
AcDbDictionary
280
     1
281
     1
  3
ADSK_XREC_LAYER_RECONCILED
360
234A
  0
DICTIONARY
  5
234B
330
220A
100
AcDbDictionary
280
     1
281
     1
  3
ADSK_XREC_LAYER_RECONCILED
360
234C
  0
DICTIONARY
  5
234D
330
220B
100
AcDbDictionary
280
     1
281
     1
  3
ADSK_XREC_LAYER_RECONCILED
360
234E
  0
DICTIONARY
  5
234F
330
220C
100
AcDbDictionary
280
     1
281
     1
  3
ADSK_XREC_LAYER_RECONCILED
360
2350
  0
DICTIONARY
  5
2351
330
220D
100
AcDbDictionary
280
     1
281
     1
  3
ADSK_XREC_LAYER_RECONCILED
360
2352
  0
DICTIONARY
  5
24D5
330
19A4
100
AcDbDictionary
280
     1
281
     1
  3
ACAD_XREC_ROUNDTRIP
360
24D6
  0
DICTIONARY
  5
24D7
330
19A9
100
AcDbDictionary
280
     1
281
     1
  3
ACAD_XREC_ROUNDTRIP
360
24D8
  0
DICTIONARY
  5
21F2
102
{ACAD_REACTORS
330
2191
102
}
330
2191
100
AcDbDictionary
281
     1
  0
DICTIONARY
  5
2192
102
{ACAD_REACTORS
330
2191
102
}
330
2191
100
AcDbDictionary
281
     1
  0
DICTIONARY
  5
21F1
102
{ACAD_REACTORS
330
2191
102
}
330
2191
100
AcDbDictionary
281
     1
  3
Layout1
350
21FA
  3
Model
350
21FE
  0
DICTIONARY
  5
2195
102
{ACAD_REACTORS
330
2191
102
}
330
2191
100
AcDbDictionary
281
     1
  3
ByBlock
350
219E
  3
ByLayer
350
2196
  3
Global
350
21A6
  0
DICTIONARY
  5
21F5
102
{ACAD_REACTORS
330
2191
102
}
330
2191
100
AcDbDictionary
281
     1
  3
Standard
350
21F6
  0
DICTIONARY
  5
21EE
102
{ACAD_REACTORS
330
2191
102
}
330
2191
100
AcDbDictionary
281
     1
  3
Standard
350
21EF
  0
DICTIONARY
  5
21F0
102
{ACAD_REACTORS
330
2191
102
}
330
2191
100
AcDbDictionary
281
     1
  0
ACDBDICTIONARYWDFLT
  5
2193
102
{ACAD_REACTORS
330
2191
102
}
330
2191
100
AcDbDictionary
281
     1
  3
Normal
350
2194
100
AcDbDictionaryWithDefault
340
2194
  0
DICTIONARY
  5
21C2
102
{ACAD_REACTORS
330
2191
102
}
330
2191
100
AcDbDictionary
281
     1
  3
A0
350
21C3
  3
A1
350
21C4
  3
A2
350
21C5
  3
A3
350
21C6
  3
A4
350
21C7
  3
A5
350
21C8
  3
A6
350
21C9
  3
A7
350
21CA
  3
A8
350
21CB
  3
A9
350
21CC
  3
B0
350
21CD
  3
B1
350
21CE
  3
B2
350
21CF
  3
B3
350
21D0
  3
B4
350
21D1
  3
B5
350
21D2
  3
B6
350
21D3
  3
B7
350
21D4
  3
B8
350
21D5
  3
B9
350
21D6
  3
C0
350
21D7
  3
C1
350
21D8
  3
C2
350
21D9
  3
C3
350
21DA
  3
C4
350
21DB
  3
C5
350
21DC
  3
C6
350
21DD
  3
C7
350
21DE
  3
C8
350
21DF
  3
C9
350
21E0
  3
D0
350
21E1
  3
D1
350
21E2
  3
D2
350
21E3
  0
DICTIONARY
  5
21F3
102
{ACAD_REACTORS
330
2191
102
}
330
2191
100
AcDbDictionary
281
     1
  3
Standard
350
21F4
  0
DICTIONARY
  5
21AE
102
{ACAD_REACTORS
330
2191
102
}
330
2191
100
AcDbDictionary
281
     1
  3
2dWireframe
350
21B4
  3
3D Hidden
350
21B6
  3
3dWireframe
350
21B5
  3
Basic
350
21B3
  3
Brighten
350
21BA
  3
ColorChange
350
21BE
  3
Conceptual
350
21B7
  3
Dim
350
21B9
  3
EdgeColorOff
350
21C1
  3
Facepattern
350
21BD
  3
Flat
350
21AF
  3
FlatWithEdges
350
21B0
  3
Gouraud
350
21B1
  3
GouraudWithEdges
350
21B2
  3
JitterOff
350
21BF
  3
Linepattern
350
21BC
  3
OverhangOff
350
21C0
  3
Realistic
350
21B8
  3
Thicken
350
21BB
  0
XRECORD
  5
24D3
102
{ACAD_REACTORS
330
2191
102
}
330
2191
100
AcDbXrecord
280
     1
 90
        1
330
21F4
  0
DICTIONARY
  5
2353
102
{ACAD_REACTORS
330
2191
102
}
330
2191
100
AcDbDictionary
281
     1
  3
CANNOSCALE
350
2356
  3
CMLEADERSTYLE
350
2355
  3
CTABLESTYLE
350
2354
  3
DIMASSOC
350
2359
  3
INDEXCTL
350
2358
  3
SORTENTS
350
2357
  3
XCLIPFRAME
350
24D1
  0
XRECORD
  5
24D4
102
{ACAD_REACTORS
330
2191
102
}
330
2191
100
AcDbXrecord
280
     1
  1
DWGPROPS COOKIE
  2

  3

  4

  6

  7

  8
Konstruktion
  9

300
=
301
=
302
=
303
=
304
=
305
=
306
=
307
=
308
=
309
=
 40
0.1550374537037037
 41
2455672.497120949
 42
2457718.712810324
  1

 90
        0
  0
XRECORD
  5
233E
102
{ACAD_REACTORS
330
233D
102
}
330
233D
100
AcDbXrecord
280
     1
290
     1
  0
XRECORD
  5
2340
102
{ACAD_REACTORS
330
233F
102
}
330
233F
100
AcDbXrecord
280
     1
290
     1
  0
XRECORD
  5
2342
102
{ACAD_REACTORS
330
2341
102
}
330
2341
100
AcDbXrecord
280
     1
290
     1
  0
XRECORD
  5
2344
102
{ACAD_REACTORS
330
2343
102
}
330
2343
100
AcDbXrecord
280
     1
290
     1
  0
XRECORD
  5
2346
102
{ACAD_REACTORS
330
2345
102
}
330
2345
100
AcDbXrecord
280
     1
290
     1
  0
XRECORD
  5
2348
102
{ACAD_REACTORS
330
2347
102
}
330
2347
100
AcDbXrecord
280
     1
290
     1
  0
XRECORD
  5
234A
102
{ACAD_REACTORS
330
2349
102
}
330
2349
100
AcDbXrecord
280
     1
290
     1
  0
XRECORD
  5
234C
102
{ACAD_REACTORS
330
234B
102
}
330
234B
100
AcDbXrecord
280
     1
290
     1
  0
XRECORD
  5
234E
102
{ACAD_REACTORS
330
234D
102
}
330
234D
100
AcDbXrecord
280
     1
290
     1
  0
XRECORD
  5
2350
102
{ACAD_REACTORS
330
234F
102
}
330
234F
100
AcDbXrecord
280
     1
290
     1
  0
XRECORD
  5
2352
102
{ACAD_REACTORS
330
2351
102
}
330
2351
100
AcDbXrecord
280
     1
290
     1
  0
XRECORD
  5
24D6
102
{ACAD_REACTORS
330
24D5
102
}
330
24D5
100
AcDbXrecord
280
     1
102
SHADEPLOT
 70
     0
  0
XRECORD
  5
24D8
102
{ACAD_REACTORS
330
24D7
102
}
330
24D7
100
AcDbXrecord
280
     1
102
SHADEPLOT
 70
     0
  0
LAYOUT
  5
21FA
102
{ACAD_XDICTIONARY
360
2500
102
}
102
{ACAD_REACTORS
330
21F1
102
}
330
21F1
100
AcDbPlotSettings
  1

  2
HP Color LaserJet 5550 PCL 6
  4

  6

 40
0.0
 41
0.0
 42
0.0
 43
0.0
 44
0.0
 45
0.0
 46
0.0
 47
0.0
 48
0.0
 49
0.0
140
0.0
141
0.0
142
1.0
143
1.0
 70
   688
 72
     0
 73
     0
 74
     5
  7

 75
    16
147
1.0
148
0.0
149
0.0
100
AcDbLayout
  1
Layout1
 70
     1
 71
     1
 10
-0.1912502979669045
 20
-0.1912499975970411
 11
11.503750057671
 21
8.072082940049059
 12
0.0
 22
0.0
 32
0.0
 14
1.131083300733189
 24
0.7885833800308344
 34
0.0
 15
10.17974970659872
 25
7.097250420277513
 35
0.0
146
0.0
 13
0.0
 23
0.0
 33
0.0
 16
1.0
 26
0.0
 36
0.0
 17
0.0
 27
1.0
 37
0.0
 76
     0
330
21F7
331
19A4
  0
LAYOUT
  5
21FE
102
{ACAD_XDICTIONARY
360
2502
102
}
102
{ACAD_REACTORS
330
21F1
102
}
330
21F1
100
AcDbPlotSettings
  1

  2
HP Color LaserJet 5550 PCL 6
  4

  6

 40
0.0
 41
0.0
 42
0.0
 43
0.0
 44
0.0
 45
0.0
 46
0.0
 47
0.0
 48
0.0
 49
0.0
140
0.0
141
0.0
142
1.0
143
1.0
 70
  1712
 72
     0
 73
     0
 74
     0
  7

 75
     0
147
1.0
148
0.0
149
0.0
100
AcDbLayout
  1
Model
 70
     1
 71
     0
 10
0.0
 20
0.0
 11
12.0
 21
9.0
 12
0.0
 22
0.0
 32
0.0
 14
0.0
 24
0.0
 34
0.0
 15
0.0
 25
0.0
 35
0.0
146
0.0
 13
0.0
 23
0.0
 33
0.0
 16
1.0
 26
0.0
 36
0.0
 17
0.0
 27
1.0
 37
0.0
 76
     0
330
21FB
331
21FF
  0
MATERIAL
  5
219E
102
{ACAD_XDICTIONARY
360
219F
102
}
102
{ACAD_REACTORS
330
2195
102
}
330
2195
100
AcDbMaterial
  1
ByBlock
 72
     0
 43
0.0208333333333333
 43
0.0
 43
0.0
 43
0.0
 43
0.0
 43
0.0208333333333333
 43
0.0
 43
0.0
 43
0.0
 43
0.0
 43
1.0
 43
0.0
 43
0.0
 43
0.0
 43
0.0
 43
1.0
 77
     0
 47
0.0208333333333333
 47
0.0
 47
0.0
 47
0.0
 47
0.0
 47
0.0208333333333333
 47
0.0
 47
0.0
 47
0.0
 47
0.0
 47
1.0
 47
0.0
 47
0.0
 47
0.0
 47
0.0
 47
1.0
171
     0
 49
0.0208333333333333
 49
0.0
 49
0.0
 49
0.0
 49
0.0
 49
0.0208333333333333
 49
0.0
 49
0.0
 49
0.0
 49
0.0
 49
1.0
 49
0.0
 49
0.0
 49
0.0
 49
0.0
 49
1.0
175
     0
142
0.0208333333333333
142
0.0
142
0.0
142
0.0
142
0.0
142
0.0208333333333333
142
0.0
142
0.0
142
0.0
142
0.0
142
1.0
142
0.0
142
0.0
142
0.0
142
0.0
142
1.0
179
     0
144
0.0208333333333333
144
0.0
144
0.0
144
0.0
144
0.0
144
0.0208333333333333
144
0.0
144
0.0
144
0.0
144
0.0
144
1.0
144
0.0
144
0.0
144
0.0
144
0.0
144
1.0
147
0.0208333333333333
147
0.0
147
0.0
147
0.0
147
0.0
147
0.0208333333333333
147
0.0
147
0.0
147
0.0
147
0.0
147
1.0
147
0.0
147
0.0
147
0.0
147
0.0
147
1.0
  0
MATERIAL
  5
2196
102
{ACAD_XDICTIONARY
360
2197
102
}
102
{ACAD_REACTORS
330
2195
102
}
330
2195
100
AcDbMaterial
  1
ByLayer
 72
     0
 43
0.0208333333333333
 43
0.0
 43
0.0
 43
0.0
 43
0.0
 43
0.0208333333333333
 43
0.0
 43
0.0
 43
0.0
 43
0.0
 43
1.0
 43
0.0
 43
0.0
 43
0.0
 43
0.0
 43
1.0
 77
     0
 47
0.0208333333333333
 47
0.0
 47
0.0
 47
0.0
 47
0.0
 47
0.0208333333333333
 47
0.0
 47
0.0
 47
0.0
 47
0.0
 47
1.0
 47
0.0
 47
0.0
 47
0.0
 47
0.0
 47
1.0
171
     0
 49
0.0208333333333333
 49
0.0
 49
0.0
 49
0.0
 49
0.0
 49
0.0208333333333333
 49
0.0
 49
0.0
 49
0.0
 49
0.0
 49
1.0
 49
0.0
 49
0.0
 49
0.0
 49
0.0
 49
1.0
175
     0
142
0.0208333333333333
142
0.0
142
0.0
142
0.0
142
0.0
142
0.0208333333333333
142
0.0
142
0.0
142
0.0
142
0.0
142
1.0
142
0.0
142
0.0
142
0.0
142
0.0
142
1.0
179
     0
144
0.0208333333333333
144
0.0
144
0.0
144
0.0
144
0.0
144
0.0208333333333333
144
0.0
144
0.0
144
0.0
144
0.0
144
1.0
144
0.0
144
0.0
144
0.0
144
0.0
144
1.0
147
0.0208333333333333
147
0.0
147
0.0
147
0.0
147
0.0
147
0.0208333333333333
147
0.0
147
0.0
147
0.0
147
0.0
147
1.0
147
0.0
147
0.0
147
0.0
147
0.0
147
1.0
  0
MATERIAL
  5
21A6
102
{ACAD_XDICTIONARY
360
21A7
102
}
102
{ACAD_REACTORS
330
2195
102
}
330
2195
100
AcDbMaterial
  1
Global
 72
     0
 43
0.0208333333333333
 43
0.0
 43
0.0
 43
0.0
 43
0.0
 43
0.0208333333333333
 43
0.0
 43
0.0
 43
0.0
 43
0.0
 43
1.0
 43
0.0
 43
0.0
 43
0.0
 43
0.0
 43
1.0
 77
     0
 47
0.0208333333333333
 47
0.0
 47
0.0
 47
0.0
 47
0.0
 47
0.0208333333333333
 47
0.0
 47
0.0
 47
0.0
 47
0.0
 47
1.0
 47
0.0
 47
0.0
 47
0.0
 47
0.0
 47
1.0
171
     0
 49
0.0208333333333333
 49
0.0
 49
0.0
 49
0.0
 49
0.0
 49
0.0208333333333333
 49
0.0
 49
0.0
 49
0.0
 49
0.0
 49
1.0
 49
0.0
 49
0.0
 49
0.0
 49
0.0
 49
1.0
175
     0
142
0.0208333333333333
142
0.0
142
0.0
142
0.0
142
0.0
142
0.0208333333333333
142
0.0
142
0.0
142
0.0
142
0.0
142
1.0
142
0.0
142
0.0
142
0.0
142
0.0
142
1.0
179
     0
144
0.0208333333333333
144
0.0
144
0.0
144
0.0
144
0.0
144
0.0208333333333333
144
0.0
144
0.0
144
0.0
144
0.0
144
1.0
144
0.0
144
0.0
144
0.0
144
0.0
144
1.0
147
0.0208333333333333
147
0.0
147
0.0
147
0.0
147
0.0
147
0.0208333333333333
147
0.0
147
0.0
147
0.0
147
0.0
147
1.0
147
0.0
147
0.0
147
0.0
147
0.0
147
1.0
  0
MLEADERSTYLE
  5
21F6
102
{ACAD_REACTORS
330
21F5
102
}
330
21F5
100
AcDbMLeaderStyle
170
     2
171
     1
172
     0
 90
        2
 40
0.0
 41
0.0
173
     1
 91
-1056964608
340
21EA
 92
       -2
290
     1
 42
0.09
291
     1
 43
0.36
  3
Standard
 44
0.18
300

342
21E5
174
     1
178
     6
175
     1
176
     0
 93
-1056964608
 45
0.18
292
     0
297
     0
 46
0.18
 94
-1056964608
 47
1.0
 49
1.0
140
1.0
293
     1
141
0.0
294
     1
177
     0
142
1.0
295
     0
296
     0
143
0.125
1001
ACAD_MLEADERVER
1070
     2
  0
MLINESTYLE
  5
21EF
102
{ACAD_REACTORS
330
21EE
102
}
330
21EE
100
AcDbMlineStyle
  2
STANDARD
 70
     0
  3

 62
   256
 51
90.0
 52
90.0
 71
     2
 49
0.5
 62
   256
  6
BYLAYER
 49
-0.5
 62
   256
  6
BYLAYER
  0
ACDBPLACEHOLDER
  5
2194
102
{ACAD_REACTORS
330
2193
102
}
330
2193
  0
SCALE
  5
21C3
102
{ACAD_REACTORS
330
21C2
102
}
330
21C2
100
AcDbScale
 70
     0
300
1:1
140
1.0
141
1.0
290
     1
  0
SCALE
  5
21C4
102
{ACAD_REACTORS
330
21C2
102
}
330
21C2
100
AcDbScale
 70
     0
300
1:2
140
1.0
141
2.0
290
     0
  0
SCALE
  5
21C5
102
{ACAD_REACTORS
330
21C2
102
}
330
21C2
100
AcDbScale
 70
     0
300
1:4
140
1.0
141
4.0
290
     0
  0
SCALE
  5
21C6
102
{ACAD_REACTORS
330
21C2
102
}
330
21C2
100
AcDbScale
 70
     0
300
1:5
140
1.0
141
5.0
290
     0
  0
SCALE
  5
21C7
102
{ACAD_REACTORS
330
21C2
102
}
330
21C2
100
AcDbScale
 70
     0
300
1:8
140
1.0
141
8.0
290
     0
  0
SCALE
  5
21C8
102
{ACAD_REACTORS
330
21C2
102
}
330
21C2
100
AcDbScale
 70
     0
300
1:10
140
1.0
141
10.0
290
     0
  0
SCALE
  5
21C9
102
{ACAD_REACTORS
330
21C2
102
}
330
21C2
100
AcDbScale
 70
     0
300
1:16
140
1.0
141
16.0
290
     0
  0
SCALE
  5
21CA
102
{ACAD_REACTORS
330
21C2
102
}
330
21C2
100
AcDbScale
 70
     0
300
1:20
140
1.0
141
20.0
290
     0
  0
SCALE
  5
21CB
102
{ACAD_REACTORS
330
21C2
102
}
330
21C2
100
AcDbScale
 70
     0
300
1:30
140
1.0
141
30.0
290
     0
  0
SCALE
  5
21CC
102
{ACAD_REACTORS
330
21C2
102
}
330
21C2
100
AcDbScale
 70
     0
300
1:40
140
1.0
141
40.0
290
     0
  0
SCALE
  5
21CD
102
{ACAD_REACTORS
330
21C2
102
}
330
21C2
100
AcDbScale
 70
     0
300
1:50
140
1.0
141
50.0
290
     0
  0
SCALE
  5
21CE
102
{ACAD_REACTORS
330
21C2
102
}
330
21C2
100
AcDbScale
 70
     0
300
1:100
140
1.0
141
100.0
290
     0
  0
SCALE
  5
21CF
102
{ACAD_REACTORS
330
21C2
102
}
330
21C2
100
AcDbScale
 70
     0
300
2:1
140
2.0
141
1.0
290
     0
  0
SCALE
  5
21D0
102
{ACAD_REACTORS
330
21C2
102
}
330
21C2
100
AcDbScale
 70
     0
300
4:1
140
4.0
141
1.0
290
     0
  0
SCALE
  5
21D1
102
{ACAD_REACTORS
330
21C2
102
}
330
21C2
100
AcDbScale
 70
     0
300
8:1
140
8.0
141
1.0
290
     0
  0
SCALE
  5
21D2
102
{ACAD_REACTORS
330
21C2
102
}
330
21C2
100
AcDbScale
 70
     0
300
10:1
140
10.0
141
1.0
290
     0
  0
SCALE
  5
21D3
102
{ACAD_REACTORS
330
21C2
102
}
330
21C2
100
AcDbScale
 70
     0
300
100:1
140
100.0
141
1.0
290
     0
  0
SCALE
  5
21D4
102
{ACAD_REACTORS
330
21C2
102
}
330
21C2
100
AcDbScale
 70
     0
300
1/128" = 1'-0"
140
0.0078125
141
12.0
290
     0
  0
SCALE
  5
21D5
102
{ACAD_REACTORS
330
21C2
102
}
330
21C2
100
AcDbScale
 70
     0
300
1/64" = 1'-0"
140
0.015625
141
12.0
290
     0
  0
SCALE
  5
21D6
102
{ACAD_REACTORS
330
21C2
102
}
330
21C2
100
AcDbScale
 70
     0
300
1/32" = 1'-0"
140
0.03125
141
12.0
290
     0
  0
SCALE
  5
21D7
102
{ACAD_REACTORS
330
21C2
102
}
330
21C2
100
AcDbScale
 70
     0
300
1/16" = 1'-0"
140
0.0625
141
12.0
290
     0
  0
SCALE
  5
21D8
102
{ACAD_REACTORS
330
21C2
102
}
330
21C2
100
AcDbScale
 70
     0
300
3/32" = 1'-0"
140
0.09375
141
12.0
290
     0
  0
SCALE
  5
21D9
102
{ACAD_REACTORS
330
21C2
102
}
330
21C2
100
AcDbScale
 70
     0
300
1/8" = 1'-0"
140
0.125
141
12.0
290
     0
  0
SCALE
  5
21DA
102
{ACAD_REACTORS
330
21C2
102
}
330
21C2
100
AcDbScale
 70
     0
300
3/16" = 1'-0"
140
0.1875
141
12.0
290
     0
  0
SCALE
  5
21DB
102
{ACAD_REACTORS
330
21C2
102
}
330
21C2
100
AcDbScale
 70
     0
300
1/4" = 1'-0"
140
0.25
141
12.0
290
     0
  0
SCALE
  5
21DC
102
{ACAD_REACTORS
330
21C2
102
}
330
21C2
100
AcDbScale
 70
     0
300
3/8" = 1'-0"
140
0.375
141
12.0
290
     0
  0
SCALE
  5
21DD
102
{ACAD_REACTORS
330
21C2
102
}
330
21C2
100
AcDbScale
 70
     0
300
1/2" = 1'-0"
140
0.5
141
12.0
290
     0
  0
SCALE
  5
21DE
102
{ACAD_REACTORS
330
21C2
102
}
330
21C2
100
AcDbScale
 70
     0
300
3/4" = 1'-0"
140
0.75
141
12.0
290
     0
  0
SCALE
  5
21DF
102
{ACAD_REACTORS
330
21C2
102
}
330
21C2
100
AcDbScale
 70
     0
300
1" = 1'-0"
140
1.0
141
12.0
290
     0
  0
SCALE
  5
21E0
102
{ACAD_REACTORS
330
21C2
102
}
330
21C2
100
AcDbScale
 70
     0
300
1-1/2" = 1'-0"
140
1.5
141
12.0
290
     0
  0
SCALE
  5
21E1
102
{ACAD_REACTORS
330
21C2
102
}
330
21C2
100
AcDbScale
 70
     0
300
3" = 1'-0"
140
3.0
141
12.0
290
     0
  0
SCALE
  5
21E2
102
{ACAD_REACTORS
330
21C2
102
}
330
21C2
100
AcDbScale
 70
     0
300
6" = 1'-0"
140
6.0
141
12.0
290
     0
  0
SCALE
  5
21E3
102
{ACAD_REACTORS
330
21C2
102
}
330
21C2
100
AcDbScale
 70
     0
300
1'-0" = 1'-0"
140
12.0
141
12.0
290
     0
  0
TABLESTYLE
  5
21F4
102
{ACAD_XDICTIONARY
360
239A
102
}
102
{ACAD_REACTORS
330
21F3
102
}
330
21F3
100
AcDbTableStyle
  3
Standard
 70
     0
 71
     0
 40
0.06
 41
0.06
280
     0
281
     0
  7
STANDARD
140
0.18
170
     2
 62
     0
 63
     7
283
     0
274
    -2
284
     1
 64
     0
275
    -2
285
     1
 65
     0
276
    -2
286
     1
 66
     0
277
    -2
287
     1
 67
     0
278
    -2
288
     1
 68
     0
279
    -2
289
     1
 69
     0
  7
STANDARD
140
0.25
170
     5
 62
     0
 63
     7
283
     0
274
    -2
284
     1
 64
     0
275
    -2
285
     1
 65
     0
276
    -2
286
     1
 66
     0
277
    -2
287
     1
 67
     0
278
    -2
288
     1
 68
     0
279
    -2
289
     1
 69
     0
  7
STANDARD
140
0.18
170
     5
 62
     0
 63
     7
283
     0
274
    -2
284
     1
 64
     0
275
    -2
285
     1
 65
     0
276
    -2
286
     1
 66
     0
277
    -2
287
     1
 67
     0
278
    -2
288
     1
 68
     0
279
    -2
289
     1
 69
     0
  0
VISUALSTYLE
  5
21B4
102
{ACAD_XDICTIONARY
360
24E3
102
}
102
{ACAD_REACTORS
330
21AE
102
}
330
21AE
100
AcDbVisualStyle
  2

 70
     4
 71
     0
 72
     2
 73
     0
 90
        0
 40
-0.6
 41
-30.0
 62
     5
 63
     7
 74
     1
 91
        4
 64
     7
 65
   257
 75
     1
175
     1
 42
1.0
 92
        0
 66
   257
 43
1.0
 76
     1
 77
     6
 78
     2
 67
     7
 79
     5
170
     0
171
     0
290
     0
174
     0
 93
        1
 44
0.0
173
     0
291
     0
 45
0.0
1001
ACAD
1000
AcDbSavedByObjectVersion
1070
     0
  0
VISUALSTYLE
  5
21B6
102
{ACAD_XDICTIONARY
360
24E7
102
}
102
{ACAD_REACTORS
330
21AE
102
}
330
21AE
100
AcDbVisualStyle
  2

 70
     6
 71
     1
 72
     2
 73
     2
 90
        0
 40
-0.6
 41
-30.0
 62
     5
 63
     7
 74
     2
 91
        2
 64
     7
 65
   257
 75
     2
175
     1
 42
179.0
 92
        0
 66
   257
 43
1.0
 76
     1
 77
     6
 78
     2
 67
     7
 79
     3
170
     0
171
     0
290
     0
174
     0
 93
        1
 44
0.0
173
     0
291
     0
 45
0.0
1001
ACAD
1000
AcDbSavedByObjectVersion
1070
     0
  0
VISUALSTYLE
  5
21B5
102
{ACAD_XDICTIONARY
360
24E5
102
}
102
{ACAD_REACTORS
330
21AE
102
}
330
21AE
100
AcDbVisualStyle
  2

 70
     5
 71
     0
 72
     2
 73
     0
 90
        0
 40
-0.6
 41
-30.0
 62
     5
 63
     7
 74
     1
 91
        4
 64
     7
 65
   257
 75
     1
175
     1
 42
1.0
 92
        0
 66
   257
 43
1.0
 76
     1
 77
     6
 78
     2
 67
     7
 79
     5
170
     0
171
     0
290
     0
174
     0
 93
        1
 44
0.0
173
     0
291
     0
 45
0.0
1001
ACAD
1000
AcDbSavedByObjectVersion
1070
     0
  0
VISUALSTYLE
  5
21B3
102
{ACAD_XDICTIONARY
360
24E1
102
}
102
{ACAD_REACTORS
330
21AE
102
}
330
21AE
100
AcDbVisualStyle
  2

 70
     7
 71
     1
 72
     0
 73
     1
 90
        0
 40
-0.6
 41
-30.0
 62
     5
 63
     7
 74
     0
 91
        4
 64
     7
 65
   257
 75
     1
175
     1
 42
1.0
 92
        8
 66
     7
 43
1.0
 76
     1
 77
     6
 78
     2
 67
     7
 79
     5
170
     0
171
     0
290
     0
174
     0
 93
        1
 44
0.0
173
     0
291
     1
 45
0.0
1001
ACAD
1000
AcDbSavedByObjectVersion
1070
     0
  0
VISUALSTYLE
  5
21BA
102
{ACAD_XDICTIONARY
360
24EF
102
}
102
{ACAD_REACTORS
330
21AE
102
}
330
21AE
100
AcDbVisualStyle
  2

 70
    12
 71
     2
 72
     2
 73
     0
 90
        0
 40
-0.6
 41
-30.0
 62
     5
 63
     7
 74
     1
 91
        4
 64
     7
 65
   257
 75
     1
175
     1
 42
1.0
 92
        8
 66
     7
 43
1.0
 76
     1
 77
     6
 78
     2
 67
     7
 79
     5
170
     0
171
     0
290
     0
174
     0
 93
        1
 44
50.0
173
     0
291
     1
 45
0.0
1001
ACAD
1000
AcDbSavedByObjectVersion
1070
     0
  0
VISUALSTYLE
  5
21BE
102
{ACAD_XDICTIONARY
360
24F7
102
}
102
{ACAD_REACTORS
330
21AE
102
}
330
21AE
100
AcDbVisualStyle
  2

 70
    16
 71
     2
 72
     2
 73
     3
 90
        0
 40
-0.6
 41
-30.0
 62
     5
 63
     8
 74
     1
 91
        4
 64
     7
 65
   257
 75
     1
175
     1
 42
1.0
 92
        8
 66
     8
 43
1.0
 76
     1
 77
     6
 78
     2
 67
     7
 79
     5
170
     0
171
     0
290
     0
174
     0
 93
        1
 44
0.0
173
     0
291
     1
 45
0.0
1001
ACAD
1000
AcDbSavedByObjectVersion
1070
     0
  0
VISUALSTYLE
  5
21B7
102
{ACAD_XDICTIONARY
360
24E9
102
}
102
{ACAD_REACTORS
330
21AE
102
}
330
21AE
100
AcDbVisualStyle
  2

 70
     9
 71
     3
 72
     2
 73
     0
 90
        0
 40
-0.6
 41
-30.0
 62
     5
 63
     7
 74
     2
 91
        2
 64
     7
 65
   257
 75
     1
175
     1
 42
179.0
 92
        8
 66
     7
 43
1.0
 76
     1
 77
     6
 78
     2
 67
     7
 79
     3
170
     0
171
     0
290
     0
174
     0
 93
        1
 44
0.0
173
     0
291
     0
 45
0.0
1001
ACAD
1000
AcDbSavedByObjectVersion
1070
     0
  0
VISUALSTYLE
  5
21B9
102
{ACAD_XDICTIONARY
360
24ED
102
}
102
{ACAD_REACTORS
330
21AE
102
}
330
21AE
100
AcDbVisualStyle
  2

 70
    11
 71
     2
 72
     2
 73
     0
 90
        0
 40
-0.6
 41
-30.0
 62
     5
 63
     7
 74
     1
 91
        4
 64
     7
 65
   257
 75
     1
175
     1
 42
1.0
 92
        8
 66
     7
 43
1.0
 76
     1
 77
     6
 78
     2
 67
     7
 79
     5
170
     0
171
     0
290
     0
174
     0
 93
        1
 44
-50.0
173
     0
291
     1
 45
0.0
1001
ACAD
1000
AcDbSavedByObjectVersion
1070
     0
  0
VISUALSTYLE
  5
21C1
102
{ACAD_XDICTIONARY
360
24FD
102
}
102
{ACAD_REACTORS
330
21AE
102
}
330
21AE
100
AcDbVisualStyle
  2

 70
    22
 71
     2
 72
     2
 73
     0
 90
        0
 40
-0.6
 41
-30.0
 62
     5
 63
     7
 74
     1
 91
        4
 64
     7
 65
   257
 75
     1
175
     1
 42
1.0
 92
        8
 66
     7
 43
1.0
 76
     1
 77
     6
 78
     2
 67
     7
 79
     5
170
     0
171
     0
290
     0
174
     0
 93
        1
 44
0.0
173
     0
291
     1
 45
0.0
1001
ACAD
1000
AcDbSavedByObjectVersion
1070
     0
  0
VISUALSTYLE
  5
21BD
102
{ACAD_XDICTIONARY
360
24F5
102
}
102
{ACAD_REACTORS
330
21AE
102
}
330
21AE
100
AcDbVisualStyle
  2

 70
    15
 71
     2
 72
     2
 73
     0
 90
        0
 40
-0.6
 41
-30.0
 62
     5
 63
     7
 74
     1
 91
        4
 64
     7
 65
   257
 75
     1
175
     1
 42
1.0
 92
        8
 66
     7
 43
1.0
 76
     1
 77
     6
 78
     2
 67
     7
 79
     5
170
     0
171
     0
290
     0
174
     0
 93
        1
 44
0.0
173
     0
291
     1
 45
0.0
1001
ACAD
1000
AcDbSavedByObjectVersion
1070
     0
  0
VISUALSTYLE
  5
21AF
102
{ACAD_XDICTIONARY
360
24D9
102
}
102
{ACAD_REACTORS
330
21AE
102
}
330
21AE
100
AcDbVisualStyle
  2

 70
     0
 71
     2
 72
     1
 73
     1
 90
        2
 40
-0.6
 41
30.0
 62
     5
 63
     7
 74
     0
 91
        4
 64
     7
 65
   257
 75
     1
175
     1
 42
1.0
 92
        8
 66
     7
 43
1.0
 76
     1
 77
     6
 78
     2
 67
     7
 79
     5
170
     0
171
     0
290
     0
174
     0
 93
       13
 44
0.0
173
     0
291
     1
 45
0.0
1001
ACAD
1000
AcDbSavedByObjectVersion
1070
     0
  0
VISUALSTYLE
  5
21B0
102
{ACAD_XDICTIONARY
360
24DB
102
}
102
{ACAD_REACTORS
330
21AE
102
}
330
21AE
100
AcDbVisualStyle
  2

 70
     1
 71
     2
 72
     1
 73
     1
 90
        2
 40
-0.6
 41
30.0
 62
     5
 63
     7
 74
     1
 91
        4
 64
     7
 65
   257
 75
     1
175
     1
 42
1.0
 92
        0
 66
   257
 43
1.0
 76
     1
 77
     6
 78
     2
 67
     7
 79
     5
170
     0
171
     0
290
     0
174
     0
 93
       13
 44
0.0
173
     0
291
     1
 45
0.0
1001
ACAD
1000
AcDbSavedByObjectVersion
1070
     0
  0
VISUALSTYLE
  5
21B1
102
{ACAD_XDICTIONARY
360
24DD
102
}
102
{ACAD_REACTORS
330
21AE
102
}
330
21AE
100
AcDbVisualStyle
  2

 70
     2
 71
     2
 72
     2
 73
     1
 90
        2
 40
-0.6
 41
30.0
 62
     5
 63
     7
 74
     0
 91
        4
 64
     7
 65
   257
 75
     1
175
     1
 42
1.0
 92
        0
 66
     7
 43
1.0
 76
     1
 77
     6
 78
     2
 67
     7
 79
     5
170
     0
171
     0
290
     0
174
     0
 93
       13
 44
0.0
173
     0
291
     1
 45
0.0
1001
ACAD
1000
AcDbSavedByObjectVersion
1070
     0
  0
VISUALSTYLE
  5
21B2
102
{ACAD_XDICTIONARY
360
24DF
102
}
102
{ACAD_REACTORS
330
21AE
102
}
330
21AE
100
AcDbVisualStyle
  2

 70
     3
 71
     2
 72
     2
 73
     1
 90
        2
 40
-0.6
 41
30.0
 62
     5
 63
     7
 74
     1
 91
        4
 64
     7
 65
   257
 75
     1
175
     1
 42
1.0
 92
        0
 66
   257
 43
1.0
 76
     1
 77
     6
 78
     2
 67
     7
 79
     5
170
     0
171
     0
290
     0
174
     0
 93
       13
 44
0.0
173
     0
291
     1
 45
0.0
1001
ACAD
1000
AcDbSavedByObjectVersion
1070
     0
  0
VISUALSTYLE
  5
21BF
102
{ACAD_XDICTIONARY
360
24F9
102
}
102
{ACAD_REACTORS
330
21AE
102
}
330
21AE
100
AcDbVisualStyle
  2

 70
    20
 71
     2
 72
     2
 73
     0
 90
        0
 40
-0.6
 41
-30.0
 62
     5
 63
     7
 74
     1
 91
        4
 64
     7
 65
   257
 75
     1
175
     1
 42
1.0
 92
       10
 66
     7
 43
1.0
 76
     1
 77
     6
 78
     2
 67
     7
 79
     5
170
     0
171
     0
290
     0
174
     0
 93
        1
 44
0.0
173
     0
291
     1
 45
0.0
1001
ACAD
1000
AcDbSavedByObjectVersion
1070
     0
  0
VISUALSTYLE
  5
21BC
102
{ACAD_XDICTIONARY
360
24F3
102
}
102
{ACAD_REACTORS
330
21AE
102
}
330
21AE
100
AcDbVisualStyle
  2

 70
    14
 71
     2
 72
     2
 73
     0
 90
        0
 40
-0.6
 41
-30.0
 62
     5
 63
     7
 74
     1
 91
        4
 64
     7
 65
   257
 75
     7
175
     7
 42
1.0
 92
        8
 66
     7
 43
1.0
 76
     1
 77
     6
 78
     2
 67
     7
 79
     5
170
     0
171
     0
290
     0
174
     0
 93
        1
 44
0.0
173
     0
291
     1
 45
0.0
1001
ACAD
1000
AcDbSavedByObjectVersion
1070
     0
  0
VISUALSTYLE
  5
21C0
102
{ACAD_XDICTIONARY
360
24FB
102
}
102
{ACAD_REACTORS
330
21AE
102
}
330
21AE
100
AcDbVisualStyle
  2

 70
    21
 71
     2
 72
     2
 73
     0
 90
        0
 40
-0.6
 41
-30.0
 62
     5
 63
     7
 74
     1
 91
        4
 64
     7
 65
   257
 75
     1
175
     1
 42
1.0
 92
        9
 66
     7
 43
1.0
 76
     1
 77
     6
 78
     2
 67
     7
 79
     5
170
     0
171
     0
290
     0
174
     0
 93
        1
 44
0.0
173
     0
291
     1
 45
0.0
1001
ACAD
1000
AcDbSavedByObjectVersion
1070
     0
  0
VISUALSTYLE
  5
21B8
102
{ACAD_XDICTIONARY
360
24EB
102
}
102
{ACAD_REACTORS
330
21AE
102
}
330
21AE
100
AcDbVisualStyle
  2

 70
     8
 71
     2
 72
     2
 73
     0
 90
        0
 40
-0.6
 41
-30.0
 62
     5
 63
     7
 74
     1
 91
        0
 64
     7
 65
   257
 75
     1
175
     1
 42
1.0
 92
        8
 66
     8
 43
1.0
 76
     1
 77
     6
 78
     2
 67
     7
 79
     5
170
     0
171
     0
290
     0
174
     0
 93
       13
 44
0.0
173
     0
291
     0
 45
0.0
1001
ACAD
1000
AcDbSavedByObjectVersion
1070
     0
  0
VISUALSTYLE
  5
21BB
102
{ACAD_XDICTIONARY
360
24F1
102
}
102
{ACAD_REACTORS
330
21AE
102
}
330
21AE
100
AcDbVisualStyle
  2

 70
    13
 71
     2
 72
     2
 73
     0
 90
        0
 40
-0.6
 41
-30.0
 62
     5
 63
     7
 74
     1
 91
        4
 64
     7
 65
   257
 75
     1
175
     1
 42
1.0
 92
       12
 66
     7
 43
1.0
 76
     1
 77
     6
 78
     2
 67
     7
 79
     5
170
     0
171
     0
290
     0
174
     0
 93
        1
 44
0.0
173
     0
291
     1
 45
0.0
1001
ACAD
1000
AcDbSavedByObjectVersion
1070
     0
  0
DICTIONARYVAR
  5
2356
102
{ACAD_REACTORS
330
2353
102
}
330
2353
100
DictionaryVariables
280
     0
  1
1:1
  0
DICTIONARYVAR
  5
2355
102
{ACAD_REACTORS
330
2353
102
}
330
2353
100
DictionaryVariables
280
     0
  1
STANDARD
  0
DICTIONARYVAR
  5
2354
102
{ACAD_REACTORS
330
2353
102
}
330
2353
100
DictionaryVariables
280
     0
  1
STANDARD
  0
DICTIONARYVAR
  5
2359
102
{ACAD_REACTORS
330
2353
102
}
330
2353
100
DictionaryVariables
280
     0
  1
1
  0
DICTIONARYVAR
  5
2358
102
{ACAD_REACTORS
330
2353
102
}
330
2353
100
DictionaryVariables
280
     0
  1
0
  0
DICTIONARYVAR
  5
2357
102
{ACAD_REACTORS
330
2353
102
}
330
2353
100
DictionaryVariables
280
     0
  1
127
  0
DICTIONARYVAR
  5
24D1
102
{ACAD_REACTORS
330
2353
102
}
330
2353
100
DictionaryVariables
280
     0
  1
2
  0
DICTIONARY
  5
2500
330
21FA
100
AcDbDictionary
280
     1
281
     1
  3
ACAD_XREC_ROUNDTRIP
360
2501
  0
DICTIONARY
  5
2502
330
21FE
100
AcDbDictionary
280
     1
281
     1
  3
ACAD_XREC_ROUNDTRIP
360
2503
  0
DICTIONARY
  5
219F
330
219E
100
AcDbDictionary
280
     1
281
     1
  3
ACAD_XREC_ROUNDTRIP
360
23A3
  3
BUMPTILE
360
21A1
  3
DIFFUSETILE
360
21A0
  3
OPACITYTILE
360
21A4
  3
REFLECTIONTILE
360
21A3
  3
REFRACTIONTILE
360
21A5
  3
SPECULARTILE
360
21A2
  0
DICTIONARY
  5
2197
330
2196
100
AcDbDictionary
280
     1
281
     1
  3
ACAD_XREC_ROUNDTRIP
360
23A2
  3
BUMPTILE
360
2199
  3
DIFFUSETILE
360
2198
  3
OPACITYTILE
360
219C
  3
REFLECTIONTILE
360
219B
  3
REFRACTIONTILE
360
219D
  3
SPECULARTILE
360
219A
  0
DICTIONARY
  5
21A7
330
21A6
100
AcDbDictionary
280
     1
281
     1
  3
ACAD_XREC_ROUNDTRIP
360
23A4
  3
BUMPTILE
360
21A9
  3
DIFFUSETILE
360
21A8
  3
OPACITYTILE
360
21AC
  3
REFLECTIONTILE
360
21AB
  3
REFRACTIONTILE
360
21AD
  3
SPECULARTILE
360
21AA
  0
DICTIONARY
  5
239A
330
21F4
100
AcDbDictionary
280
     1
281
     1
  3
ACAD_ROUNDTRIP_2008_TABLESTYLE_CELLSTYLEMAP
360
24D2
  3
ACAD_XREC_ROUNDTRIP
360
24FF
  0
DICTIONARY
  5
24E3
330
21B4
100
AcDbDictionary
280
     1
281
     1
  3
ACAD_XREC_ROUNDTRIP
360
24E4
  0
DICTIONARY
  5
24E7
330
21B6
100
AcDbDictionary
280
     1
281
     1
  3
ACAD_XREC_ROUNDTRIP
360
24E8
  0
DICTIONARY
  5
24E5
330
21B5
100
AcDbDictionary
280
     1
281
     1
  3
ACAD_XREC_ROUNDTRIP
360
24E6
  0
DICTIONARY
  5
24E1
330
21B3
100
AcDbDictionary
280
     1
281
     1
  3
ACAD_XREC_ROUNDTRIP
360
24E2
  0
DICTIONARY
  5
24EF
330
21BA
100
AcDbDictionary
280
     1
281
     1
  3
ACAD_XREC_ROUNDTRIP
360
24F0
  0
DICTIONARY
  5
24F7
330
21BE
100
AcDbDictionary
280
     1
281
     1
  3
ACAD_XREC_ROUNDTRIP
360
24F8
  0
DICTIONARY
  5
24E9
330
21B7
100
AcDbDictionary
280
     1
281
     1
  3
ACAD_XREC_ROUNDTRIP
360
24EA
  0
DICTIONARY
  5
24ED
330
21B9
100
AcDbDictionary
280
     1
281
     1
  3
ACAD_XREC_ROUNDTRIP
360
24EE
  0
DICTIONARY
  5
24FD
330
21C1
100
AcDbDictionary
280
     1
281
     1
  3
ACAD_XREC_ROUNDTRIP
360
24FE
  0
DICTIONARY
  5
24F5
330
21BD
100
AcDbDictionary
280
     1
281
     1
  3
ACAD_XREC_ROUNDTRIP
360
24F6
  0
DICTIONARY
  5
24D9
330
21AF
100
AcDbDictionary
280
     1
281
     1
  3
ACAD_XREC_ROUNDTRIP
360
24DA
  0
DICTIONARY
  5
24DB
330
21B0
100
AcDbDictionary
280
     1
281
     1
  3
ACAD_XREC_ROUNDTRIP
360
24DC
  0
DICTIONARY
  5
24DD
330
21B1
100
AcDbDictionary
280
     1
281
     1
  3
ACAD_XREC_ROUNDTRIP
360
24DE
  0
DICTIONARY
  5
24DF
330
21B2
100
AcDbDictionary
280
     1
281
     1
  3
ACAD_XREC_ROUNDTRIP
360
24E0
  0
DICTIONARY
  5
24F9
330
21BF
100
AcDbDictionary
280
     1
281
     1
  3
ACAD_XREC_ROUNDTRIP
360
24FA
  0
DICTIONARY
  5
24F3
330
21BC
100
AcDbDictionary
280
     1
281
     1
  3
ACAD_XREC_ROUNDTRIP
360
24F4
  0
DICTIONARY
  5
24FB
330
21C0
100
AcDbDictionary
280
     1
281
     1
  3
ACAD_XREC_ROUNDTRIP
360
24FC
  0
DICTIONARY
  5
24EB
330
21B8
100
AcDbDictionary
280
     1
281
     1
  3
ACAD_XREC_ROUNDTRIP
360
24EC
  0
DICTIONARY
  5
24F1
330
21BB
100
AcDbDictionary
280
     1
281
     1
  3
ACAD_XREC_ROUNDTRIP
360
24F2
  0
XRECORD
  5
2501
102
{ACAD_REACTORS
330
2500
102
}
330
2500
100
AcDbXrecord
280
     1
102
SHADEPLOT
 70
     0
102
SHADEPLOTRESLEVEL
 70
     2
102
SHADEPLOTCUSTOMDPI
 70
   300
  0
XRECORD
  5
2503
102
{ACAD_REACTORS
330
2502
102
}
330
2502
100
AcDbXrecord
280
     1
102
SHADEPLOT
 70
     0
102
SHADEPLOTRESLEVEL
 70
     2
102
SHADEPLOTCUSTOMDPI
 70
   300
  0
XRECORD
  5
23A3
102
{ACAD_REACTORS
330
219F
102
}
330
219F
100
AcDbXrecord
280
     1
102
MATERIAL
148
0.0
149
0.0
149
0.0
 93
        0
 94
      127
282
     0
 72
     0
 77
     0
171
     0
175
     0
179
     0
273
     0
  0
XRECORD
  5
21A1
102
{ACAD_REACTORS
330
219F
102
}
330
219F
100
AcDbXrecord
280
     1
270
     1
271
     1
  0
XRECORD
  5
21A0
102
{ACAD_REACTORS
330
219F
102
}
330
219F
100
AcDbXrecord
280
     1
270
     1
271
     1
  0
XRECORD
  5
21A4
102
{ACAD_REACTORS
330
219F
102
}
330
219F
100
AcDbXrecord
280
     1
270
     1
271
     1
  0
XRECORD
  5
21A3
102
{ACAD_REACTORS
330
219F
102
}
330
219F
100
AcDbXrecord
280
     1
270
     1
271
     1
  0
XRECORD
  5
21A5
102
{ACAD_REACTORS
330
219F
102
}
330
219F
100
AcDbXrecord
280
     1
270
     1
271
     1
  0
XRECORD
  5
21A2
102
{ACAD_REACTORS
330
219F
102
}
330
219F
100
AcDbXrecord
280
     1
270
     1
271
     1
  0
XRECORD
  5
23A2
102
{ACAD_REACTORS
330
2197
102
}
330
2197
100
AcDbXrecord
280
     1
102
MATERIAL
148
0.0
149
0.0
149
0.0
 93
        0
 94
      127
282
     0
 72
     0
 77
     0
171
     0
175
     0
179
     0
273
     0
  0
XRECORD
  5
2199
102
{ACAD_REACTORS
330
2197
102
}
330
2197
100
AcDbXrecord
280
     1
270
     1
271
     1
  0
XRECORD
  5
2198
102
{ACAD_REACTORS
330
2197
102
}
330
2197
100
AcDbXrecord
280
     1
270
     1
271
     1
  0
XRECORD
  5
219C
102
{ACAD_REACTORS
330
2197
102
}
330
2197
100
AcDbXrecord
280
     1
270
     1
271
     1
  0
XRECORD
  5
219B
102
{ACAD_REACTORS
330
2197
102
}
330
2197
100
AcDbXrecord
280
     1
270
     1
271
     1
  0
XRECORD
  5
219D
102
{ACAD_REACTORS
330
2197
102
}
330
2197
100
AcDbXrecord
280
     1
270
     1
271
     1
  0
XRECORD
  5
219A
102
{ACAD_REACTORS
330
2197
102
}
330
2197
100
AcDbXrecord
280
     1
270
     1
271
     1
  0
XRECORD
  5
23A4
102
{ACAD_REACTORS
330
21A7
102
}
330
21A7
100
AcDbXrecord
280
     1
102
MATERIAL
148
0.0
149
0.0
149
0.0
 93
        0
 94
      127
282
     0
 72
     0
 77
     0
171
     0
175
     0
179
     0
273
     0
  0
XRECORD
  5
21A9
102
{ACAD_REACTORS
330
21A7
102
}
330
21A7
100
AcDbXrecord
280
     1
270
     1
271
     1
  0
XRECORD
  5
21A8
102
{ACAD_REACTORS
330
21A7
102
}
330
21A7
100
AcDbXrecord
280
     1
270
     1
271
     1
  0
XRECORD
  5
21AC
102
{ACAD_REACTORS
330
21A7
102
}
330
21A7
100
AcDbXrecord
280
     1
270
     1
271
     1
  0
XRECORD
  5
21AB
102
{ACAD_REACTORS
330
21A7
102
}
330
21A7
100
AcDbXrecord
280
     1
270
     1
271
     1
  0
XRECORD
  5
21AD
102
{ACAD_REACTORS
330
21A7
102
}
330
21A7
100
AcDbXrecord
280
     1
270
     1
271
     1
  0
XRECORD
  5
21AA
102
{ACAD_REACTORS
330
21A7
102
}
330
21A7
100
AcDbXrecord
280
     1
270
     1
271
     1
  0
CELLSTYLEMAP
  5
24D2
102
{ACAD_REACTORS
330
239A
102
}
330
239A
100
AcDbCellStyleMap
 90
        3
300
CELLSTYLE
  1
TABLEFORMAT_BEGIN
 90
        5
170
     1
 91
        0
 92
    32768
 62
   257
 93
        1
300
CONTENTFORMAT
  1
CONTENTFORMAT_BEGIN
 90
        0
 91
        0
 92
      512
 93
        0
300

 40
0.0
140
1.0
 94
        5
 62
     0
340
21E5
144
0.25
309
CONTENTFORMAT_END
171
     1
301
MARGIN
  1
CELLMARGIN_BEGIN
 40
0.06
 40
0.06
 40
0.06
 40
0.06
 40
0.18
 40
0.18
309
CELLMARGIN_END
 94
        6
 95
        1
302
GRIDFORMAT
  1
GRIDFORMAT_BEGIN
 90
        0
 91
        1
 62
     0
 92
       -2
340
0
 93
        0
 40
0.045
309
GRIDFORMAT_END
 95
        2
302
GRIDFORMAT
  1
GRIDFORMAT_BEGIN
 90
        0
 91
        1
 62
     0
 92
       -2
340
0
 93
        0
 40
0.045
309
GRIDFORMAT_END
 95
        4
302
GRIDFORMAT
  1
GRIDFORMAT_BEGIN
 90
        0
 91
        1
 62
     0
 92
       -2
340
0
 93
        0
 40
0.045
309
GRIDFORMAT_END
 95
        8
302
GRIDFORMAT
  1
GRIDFORMAT_BEGIN
 90
        0
 91
        1
 62
     0
 92
       -2
340
0
 93
        0
 40
0.045
309
GRIDFORMAT_END
 95
       16
302
GRIDFORMAT
  1
GRIDFORMAT_BEGIN
 90
        0
 91
        1
 62
     0
 92
       -2
340
0
 93
        0
 40
0.045
309
GRIDFORMAT_END
 95
       32
302
GRIDFORMAT
  1
GRIDFORMAT_BEGIN
 90
        0
 91
        1
 62
     0
 92
       -2
340
0
 93
        0
 40
0.045
309
GRIDFORMAT_END
309
TABLEFORMAT_END
  1
CELLSTYLE_BEGIN
 90
        1
 91
        1
300
_TITLE
309
CELLSTYLE_END
300
CELLSTYLE
  1
TABLEFORMAT_BEGIN
 90
        5
170
     1
 91
        0
 92
        0
 62
   257
 93
        1
300
CONTENTFORMAT
  1
CONTENTFORMAT_BEGIN
 90
        0
 91
        0
 92
      512
 93
        0
300

 40
0.0
140
1.0
 94
        5
 62
     0
340
21E5
144
0.18
309
CONTENTFORMAT_END
171
     1
301
MARGIN
  1
CELLMARGIN_BEGIN
 40
0.06
 40
0.06
 40
0.06
 40
0.06
 40
0.18
 40
0.18
309
CELLMARGIN_END
 94
        6
 95
        1
302
GRIDFORMAT
  1
GRIDFORMAT_BEGIN
 90
        0
 91
        1
 62
     0
 92
       -2
340
0
 93
        0
 40
0.045
309
GRIDFORMAT_END
 95
        2
302
GRIDFORMAT
  1
GRIDFORMAT_BEGIN
 90
        0
 91
        1
 62
     0
 92
       -2
340
0
 93
        0
 40
0.045
309
GRIDFORMAT_END
 95
        4
302
GRIDFORMAT
  1
GRIDFORMAT_BEGIN
 90
        0
 91
        1
 62
     0
 92
       -2
340
0
 93
        0
 40
0.045
309
GRIDFORMAT_END
 95
        8
302
GRIDFORMAT
  1
GRIDFORMAT_BEGIN
 90
        0
 91
        1
 62
     0
 92
       -2
340
0
 93
        0
 40
0.045
309
GRIDFORMAT_END
 95
       16
302
GRIDFORMAT
  1
GRIDFORMAT_BEGIN
 90
        0
 91
        1
 62
     0
 92
       -2
340
0
 93
        0
 40
0.045
309
GRIDFORMAT_END
 95
       32
302
GRIDFORMAT
  1
GRIDFORMAT_BEGIN
 90
        0
 91
        1
 62
     0
 92
       -2
340
0
 93
        0
 40
0.045
309
GRIDFORMAT_END
309
TABLEFORMAT_END
  1
CELLSTYLE_BEGIN
 90
        2
 91
        1
300
_HEADER
309
CELLSTYLE_END
300
CELLSTYLE
  1
TABLEFORMAT_BEGIN
 90
        5
170
     1
 91
        0
 92
        0
 62
   257
 93
        1
300
CONTENTFORMAT
  1
CONTENTFORMAT_BEGIN
 90
        0
 91
        0
 92
      512
 93
        0
300

 40
0.0
140
1.0
 94
        2
 62
     0
340
21E5
144
0.18
309
CONTENTFORMAT_END
171
     1
301
MARGIN
  1
CELLMARGIN_BEGIN
 40
0.06
 40
0.06
 40
0.06
 40
0.06
 40
0.18
 40
0.18
309
CELLMARGIN_END
 94
        6
 95
        1
302
GRIDFORMAT
  1
GRIDFORMAT_BEGIN
 90
        0
 91
        1
 62
     0
 92
       -2
340
0
 93
        0
 40
0.045
309
GRIDFORMAT_END
 95
        2
302
GRIDFORMAT
  1
GRIDFORMAT_BEGIN
 90
        0
 91
        1
 62
     0
 92
       -2
340
0
 93
        0
 40
0.045
309
GRIDFORMAT_END
 95
        4
302
GRIDFORMAT
  1
GRIDFORMAT_BEGIN
 90
        0
 91
        1
 62
     0
 92
       -2
340
0
 93
        0
 40
0.045
309
GRIDFORMAT_END
 95
        8
302
GRIDFORMAT
  1
GRIDFORMAT_BEGIN
 90
        0
 91
        1
 62
     0
 92
       -2
340
0
 93
        0
 40
0.045
309
GRIDFORMAT_END
 95
       16
302
GRIDFORMAT
  1
GRIDFORMAT_BEGIN
 90
        0
 91
        1
 62
     0
 92
       -2
340
0
 93
        0
 40
0.045
309
GRIDFORMAT_END
 95
       32
302
GRIDFORMAT
  1
GRIDFORMAT_BEGIN
 90
        0
 91
        1
 62
     0
 92
       -2
340
0
 93
        0
 40
0.045
309
GRIDFORMAT_END
309
TABLEFORMAT_END
  1
CELLSTYLE_BEGIN
 90
        3
 91
        2
300
_DATA
309
CELLSTYLE_END
  0
XRECORD
  5
24FF
102
{ACAD_REACTORS
330
239A
102
}
330
239A
100
AcDbXrecord
280
     1
102
ACAD_ROUNDTRIP_PRE2007_TABLESTYLE
 90
      512
 91
        0
  1

 92
      512
 93
        0
  2

 94
      512
 95
        0
  3

  0
XRECORD
  5
24E4
102
{ACAD_REACTORS
330
24E3
102
}
330
24E3
100
AcDbXrecord
280
     1
102
RTVSPropertyOp0
 70
     1
102
RTVSPropertyOp1
 70
     1
102
RTVSPropertyOp2
 70
     1
102
RTVSPropertyOp3
 70
     1
102
RTVSPropertyOp4
 70
     1
102
RTVSPropertyOp5
 70
     1
102
RTVSPropertyOp6
 70
     1
102
RTVSPropertyOp7
 70
     1
102
RTVSPropertyOp8
 70
     1
102
RTVSPropertyOp9
 70
     1
102
RTVSPropertyOp10
 70
     1
102
RTVSPropertyOp11
 70
     1
102
RTVSPropertyOp12
 70
     1
102
RTVSPropertyOp13
 70
     1
102
RTVSPropertyOp14
 70
     1
102
RTVSPropertyOp15
 70
     1
102
RTVSPropertyOp16
 70
     1
102
RTVSPropertyOp17
 70
     1
102
RTVSPropertyOp18
 70
     1
102
RTVSPropertyOp19
 70
     1
102
RTVSPropertyOp20
 70
     1
102
RTVSPropertyOp21
 70
     1
102
RTVSPropertyOp22
 70
     1
102
RTVSPropertyOp23
 70
     1
102
RTVSPropertyOp24
 70
     1
102
RTVSPropertyOp25
 70
     1
102
RTVSPropertyOp26
 70
     1
102
RTVSPropertyOp27
 70
     1
  0
XRECORD
  5
24E8
102
{ACAD_REACTORS
330
24E7
102
}
330
24E7
100
AcDbXrecord
280
     1
102
RTVSPropertyOp0
 70
     1
102
RTVSPropertyOp1
 70
     1
102
RTVSPropertyOp2
 70
     1
102
RTVSPropertyOp3
 70
     1
102
RTVSPropertyOp4
 70
     1
102
RTVSPropertyOp5
 70
     1
102
RTVSPropertyOp6
 70
     1
102
RTVSPropertyOp7
 70
     1
102
RTVSPropertyOp8
 70
     1
102
RTVSPropertyOp9
 70
     1
102
RTVSPropertyOp10
 70
     1
102
RTVSPropertyOp11
 70
     1
102
RTVSPropertyOp12
 70
     1
102
RTVSPropertyOp13
 70
     1
102
RTVSPropertyOp14
 70
     1
102
RTVSPropertyOp15
 70
     1
102
RTVSPropertyOp16
 70
     1
102
RTVSPropertyOp17
 70
     1
102
RTVSPropertyOp18
 70
     1
102
RTVSPropertyOp19
 70
     1
102
RTVSPropertyOp20
 70
     1
102
RTVSPropertyOp21
 70
     1
102
RTVSPropertyOp22
 70
     1
102
RTVSPropertyOp23
 70
     1
102
RTVSPropertyOp24
 70
     1
102
RTVSPropertyOp25
 70
     1
102
RTVSPropertyOp26
 70
     1
102
RTVSPropertyOp27
 70
     1
  0
XRECORD
  5
24E6
102
{ACAD_REACTORS
330
24E5
102
}
330
24E5
100
AcDbXrecord
280
     1
102
RTVSPropertyOp0
 70
     1
102
RTVSPropertyOp1
 70
     1
102
RTVSPropertyOp2
 70
     1
102
RTVSPropertyOp3
 70
     1
102
RTVSPropertyOp4
 70
     1
102
RTVSPropertyOp5
 70
     1
102
RTVSPropertyOp6
 70
     1
102
RTVSPropertyOp7
 70
     1
102
RTVSPropertyOp8
 70
     1
102
RTVSPropertyOp9
 70
     1
102
RTVSPropertyOp10
 70
     1
102
RTVSPropertyOp11
 70
     1
102
RTVSPropertyOp12
 70
     1
102
RTVSPropertyOp13
 70
     1
102
RTVSPropertyOp14
 70
     1
102
RTVSPropertyOp15
 70
     1
102
RTVSPropertyOp16
 70
     1
102
RTVSPropertyOp17
 70
     1
102
RTVSPropertyOp18
 70
     1
102
RTVSPropertyOp19
 70
     1
102
RTVSPropertyOp20
 70
     1
102
RTVSPropertyOp21
 70
     1
102
RTVSPropertyOp22
 70
     1
102
RTVSPropertyOp23
 70
     1
102
RTVSPropertyOp24
 70
     1
102
RTVSPropertyOp25
 70
     1
102
RTVSPropertyOp26
 70
     1
102
RTVSPropertyOp27
 70
     1
  0
XRECORD
  5
24E2
102
{ACAD_REACTORS
330
24E1
102
}
330
24E1
100
AcDbXrecord
280
     1
102
RTVSPropertyOp0
 70
     1
102
RTVSPropertyOp1
 70
     1
102
RTVSPropertyOp2
 70
     1
102
RTVSPropertyOp3
 70
     1
102
RTVSPropertyOp4
 70
     1
102
RTVSPropertyOp5
 70
     1
102
RTVSPropertyOp6
 70
     1
102
RTVSPropertyOp7
 70
     1
102
RTVSPropertyOp8
 70
     1
102
RTVSPropertyOp9
 70
     1
102
RTVSPropertyOp10
 70
     1
102
RTVSPropertyOp11
 70
     1
102
RTVSPropertyOp12
 70
     1
102
RTVSPropertyOp13
 70
     1
102
RTVSPropertyOp14
 70
     1
102
RTVSPropertyOp15
 70
     1
102
RTVSPropertyOp16
 70
     1
102
RTVSPropertyOp17
 70
     1
102
RTVSPropertyOp18
 70
     1
102
RTVSPropertyOp19
 70
     1
102
RTVSPropertyOp20
 70
     1
102
RTVSPropertyOp21
 70
     1
102
RTVSPropertyOp22
 70
     1
102
RTVSPropertyOp23
 70
     1
102
RTVSPropertyOp24
 70
     1
102
RTVSPropertyOp25
 70
     1
102
RTVSPropertyOp26
 70
     1
102
RTVSPropertyOp27
 70
     1
  0
XRECORD
  5
24F0
102
{ACAD_REACTORS
330
24EF
102
}
330
24EF
100
AcDbXrecord
280
     1
102
RTVSPropertyOp0
 70
     1
102
RTVSPropertyOp1
 70
     1
102
RTVSPropertyOp2
 70
     1
102
RTVSPropertyOp3
 70
     1
102
RTVSPropertyOp4
 70
     1
102
RTVSPropertyOp5
 70
     1
102
RTVSPropertyOp6
 70
     1
102
RTVSPropertyOp7
 70
     1
102
RTVSPropertyOp8
 70
     1
102
RTVSPropertyOp9
 70
     1
102
RTVSPropertyOp10
 70
     1
102
RTVSPropertyOp11
 70
     1
102
RTVSPropertyOp12
 70
     1
102
RTVSPropertyOp13
 70
     1
102
RTVSPropertyOp14
 70
     1
102
RTVSPropertyOp15
 70
     1
102
RTVSPropertyOp16
 70
     1
102
RTVSPropertyOp17
 70
     1
102
RTVSPropertyOp18
 70
     1
102
RTVSPropertyOp19
 70
     1
102
RTVSPropertyOp20
 70
     1
102
RTVSPropertyOp21
 70
     1
102
RTVSPropertyOp22
 70
     1
102
RTVSPropertyOp23
 70
     1
102
RTVSPropertyOp24
 70
     1
102
RTVSPropertyOp25
 70
     1
102
RTVSPropertyOp26
 70
     1
102
RTVSPropertyOp27
 70
     1
  0
XRECORD
  5
24F8
102
{ACAD_REACTORS
330
24F7
102
}
330
24F7
100
AcDbXrecord
280
     1
102
RTVSPropertyOp0
 70
     1
102
RTVSPropertyOp1
 70
     1
102
RTVSPropertyOp2
 70
     1
102
RTVSPropertyOp3
 70
     1
102
RTVSPropertyOp4
 70
     1
102
RTVSPropertyOp5
 70
     1
102
RTVSPropertyOp6
 70
     1
102
RTVSPropertyOp7
 70
     1
102
RTVSPropertyOp8
 70
     1
102
RTVSPropertyOp9
 70
     1
102
RTVSPropertyOp10
 70
     1
102
RTVSPropertyOp11
 70
     1
102
RTVSPropertyOp12
 70
     1
102
RTVSPropertyOp13
 70
     1
102
RTVSPropertyOp14
 70
     1
102
RTVSPropertyOp15
 70
     1
102
RTVSPropertyOp16
 70
     1
102
RTVSPropertyOp17
 70
     1
102
RTVSPropertyOp18
 70
     1
102
RTVSPropertyOp19
 70
     1
102
RTVSPropertyOp20
 70
     1
102
RTVSPropertyOp21
 70
     1
102
RTVSPropertyOp22
 70
     1
102
RTVSPropertyOp23
 70
     1
102
RTVSPropertyOp24
 70
     1
102
RTVSPropertyOp25
 70
     1
102
RTVSPropertyOp26
 70
     1
102
RTVSPropertyOp27
 70
     1
  0
XRECORD
  5
24EA
102
{ACAD_REACTORS
330
24E9
102
}
330
24E9
100
AcDbXrecord
280
     1
102
RTVSPropertyOp0
 70
     1
102
RTVSPropertyOp1
 70
     1
102
RTVSPropertyOp2
 70
     1
102
RTVSPropertyOp3
 70
     1
102
RTVSPropertyOp4
 70
     1
102
RTVSPropertyOp5
 70
     1
102
RTVSPropertyOp6
 70
     1
102
RTVSPropertyOp7
 70
     1
102
RTVSPropertyOp8
 70
     1
102
RTVSPropertyOp9
 70
     1
102
RTVSPropertyOp10
 70
     1
102
RTVSPropertyOp11
 70
     1
102
RTVSPropertyOp12
 70
     1
102
RTVSPropertyOp13
 70
     1
102
RTVSPropertyOp14
 70
     1
102
RTVSPropertyOp15
 70
     1
102
RTVSPropertyOp16
 70
     1
102
RTVSPropertyOp17
 70
     1
102
RTVSPropertyOp18
 70
     1
102
RTVSPropertyOp19
 70
     1
102
RTVSPropertyOp20
 70
     1
102
RTVSPropertyOp21
 70
     1
102
RTVSPropertyOp22
 70
     1
102
RTVSPropertyOp23
 70
     1
102
RTVSPropertyOp24
 70
     1
102
RTVSPropertyOp25
 70
     1
102
RTVSPropertyOp26
 70
     1
102
RTVSPropertyOp27
 70
     1
  0
XRECORD
  5
24EE
102
{ACAD_REACTORS
330
24ED
102
}
330
24ED
100
AcDbXrecord
280
     1
102
RTVSPropertyOp0
 70
     1
102
RTVSPropertyOp1
 70
     1
102
RTVSPropertyOp2
 70
     1
102
RTVSPropertyOp3
 70
     1
102
RTVSPropertyOp4
 70
     1
102
RTVSPropertyOp5
 70
     1
102
RTVSPropertyOp6
 70
     1
102
RTVSPropertyOp7
 70
     1
102
RTVSPropertyOp8
 70
     1
102
RTVSPropertyOp9
 70
     1
102
RTVSPropertyOp10
 70
     1
102
RTVSPropertyOp11
 70
     1
102
RTVSPropertyOp12
 70
     1
102
RTVSPropertyOp13
 70
     1
102
RTVSPropertyOp14
 70
     1
102
RTVSPropertyOp15
 70
     1
102
RTVSPropertyOp16
 70
     1
102
RTVSPropertyOp17
 70
     1
102
RTVSPropertyOp18
 70
     1
102
RTVSPropertyOp19
 70
     1
102
RTVSPropertyOp20
 70
     1
102
RTVSPropertyOp21
 70
     1
102
RTVSPropertyOp22
 70
     1
102
RTVSPropertyOp23
 70
     1
102
RTVSPropertyOp24
 70
     1
102
RTVSPropertyOp25
 70
     1
102
RTVSPropertyOp26
 70
     1
102
RTVSPropertyOp27
 70
     1
  0
XRECORD
  5
24FE
102
{ACAD_REACTORS
330
24FD
102
}
330
24FD
100
AcDbXrecord
280
     1
102
RTVSPropertyOp0
 70
     0
102
RTVSPropertyOp1
 70
     0
102
RTVSPropertyOp2
 70
     0
102
RTVSPropertyOp3
 70
     0
102
RTVSPropertyOp4
 70
     0
102
RTVSPropertyOp5
 70
     0
102
RTVSPropertyOp6
 70
     0
102
RTVSPropertyOp7
 70
     0
102
RTVSPropertyOp8
 70
     0
102
RTVSPropertyOp9
 70
     0
102
RTVSPropertyOp10
 70
     0
102
RTVSPropertyOp11
 70
     0
102
RTVSPropertyOp12
 70
     0
102
RTVSPropertyOp13
 70
     0
102
RTVSPropertyOp14
 70
     2
102
RTVSPropertyOp15
 70
     0
102
RTVSPropertyOp16
 70
     0
102
RTVSPropertyOp17
 70
     0
102
RTVSPropertyOp18
 70
     0
102
RTVSPropertyOp19
 70
     0
102
RTVSPropertyOp20
 70
     0
102
RTVSPropertyOp21
 70
     0
102
RTVSPropertyOp22
 70
     0
102
RTVSPropertyOp23
 70
     0
102
RTVSPropertyOp24
 70
     0
102
RTVSPropertyOp25
 70
     0
102
RTVSPropertyOp26
 70
     0
102
RTVSPropertyOp27
 70
     0
  0
XRECORD
  5
24F6
102
{ACAD_REACTORS
330
24F5
102
}
330
24F5
100
AcDbXrecord
280
     1
102
RTVSPropertyOp0
 70
     1
102
RTVSPropertyOp1
 70
     1
102
RTVSPropertyOp2
 70
     1
102
RTVSPropertyOp3
 70
     1
102
RTVSPropertyOp4
 70
     1
102
RTVSPropertyOp5
 70
     1
102
RTVSPropertyOp6
 70
     1
102
RTVSPropertyOp7
 70
     1
102
RTVSPropertyOp8
 70
     1
102
RTVSPropertyOp9
 70
     1
102
RTVSPropertyOp10
 70
     1
102
RTVSPropertyOp11
 70
     1
102
RTVSPropertyOp12
 70
     1
102
RTVSPropertyOp13
 70
     1
102
RTVSPropertyOp14
 70
     1
102
RTVSPropertyOp15
 70
     1
102
RTVSPropertyOp16
 70
     1
102
RTVSPropertyOp17
 70
     1
102
RTVSPropertyOp18
 70
     1
102
RTVSPropertyOp19
 70
     1
102
RTVSPropertyOp20
 70
     1
102
RTVSPropertyOp21
 70
     1
102
RTVSPropertyOp22
 70
     1
102
RTVSPropertyOp23
 70
     1
102
RTVSPropertyOp24
 70
     1
102
RTVSPropertyOp25
 70
     1
102
RTVSPropertyOp26
 70
     1
102
RTVSPropertyOp27
 70
     1
  0
XRECORD
  5
24DA
102
{ACAD_REACTORS
330
24D9
102
}
330
24D9
100
AcDbXrecord
280
     1
102
RTVSPropertyOp0
 70
     1
102
RTVSPropertyOp1
 70
     1
102
RTVSPropertyOp2
 70
     1
102
RTVSPropertyOp3
 70
     1
102
RTVSPropertyOp4
 70
     1
102
RTVSPropertyOp5
 70
     1
102
RTVSPropertyOp6
 70
     1
102
RTVSPropertyOp7
 70
     1
102
RTVSPropertyOp8
 70
     1
102
RTVSPropertyOp9
 70
     1
102
RTVSPropertyOp10
 70
     1
102
RTVSPropertyOp11
 70
     1
102
RTVSPropertyOp12
 70
     1
102
RTVSPropertyOp13
 70
     1
102
RTVSPropertyOp14
 70
     1
102
RTVSPropertyOp15
 70
     1
102
RTVSPropertyOp16
 70
     1
102
RTVSPropertyOp17
 70
     1
102
RTVSPropertyOp18
 70
     1
102
RTVSPropertyOp19
 70
     1
102
RTVSPropertyOp20
 70
     1
102
RTVSPropertyOp21
 70
     1
102
RTVSPropertyOp22
 70
     1
102
RTVSPropertyOp23
 70
     1
102
RTVSPropertyOp24
 70
     1
102
RTVSPropertyOp25
 70
     1
102
RTVSPropertyOp26
 70
     1
102
RTVSPropertyOp27
 70
     1
  0
XRECORD
  5
24DC
102
{ACAD_REACTORS
330
24DB
102
}
330
24DB
100
AcDbXrecord
280
     1
102
RTVSPropertyOp0
 70
     1
102
RTVSPropertyOp1
 70
     1
102
RTVSPropertyOp2
 70
     1
102
RTVSPropertyOp3
 70
     1
102
RTVSPropertyOp4
 70
     1
102
RTVSPropertyOp5
 70
     1
102
RTVSPropertyOp6
 70
     1
102
RTVSPropertyOp7
 70
     1
102
RTVSPropertyOp8
 70
     1
102
RTVSPropertyOp9
 70
     1
102
RTVSPropertyOp10
 70
     1
102
RTVSPropertyOp11
 70
     1
102
RTVSPropertyOp12
 70
     1
102
RTVSPropertyOp13
 70
     1
102
RTVSPropertyOp14
 70
     1
102
RTVSPropertyOp15
 70
     1
102
RTVSPropertyOp16
 70
     1
102
RTVSPropertyOp17
 70
     1
102
RTVSPropertyOp18
 70
     1
102
RTVSPropertyOp19
 70
     1
102
RTVSPropertyOp20
 70
     1
102
RTVSPropertyOp21
 70
     1
102
RTVSPropertyOp22
 70
     1
102
RTVSPropertyOp23
 70
     1
102
RTVSPropertyOp24
 70
     1
102
RTVSPropertyOp25
 70
     1
102
RTVSPropertyOp26
 70
     1
102
RTVSPropertyOp27
 70
     1
  0
XRECORD
  5
24DE
102
{ACAD_REACTORS
330
24DD
102
}
330
24DD
100
AcDbXrecord
280
     1
102
RTVSPropertyOp0
 70
     1
102
RTVSPropertyOp1
 70
     1
102
RTVSPropertyOp2
 70
     1
102
RTVSPropertyOp3
 70
     1
102
RTVSPropertyOp4
 70
     1
102
RTVSPropertyOp5
 70
     1
102
RTVSPropertyOp6
 70
     1
102
RTVSPropertyOp7
 70
     1
102
RTVSPropertyOp8
 70
     1
102
RTVSPropertyOp9
 70
     1
102
RTVSPropertyOp10
 70
     1
102
RTVSPropertyOp11
 70
     1
102
RTVSPropertyOp12
 70
     1
102
RTVSPropertyOp13
 70
     1
102
RTVSPropertyOp14
 70
     1
102
RTVSPropertyOp15
 70
     1
102
RTVSPropertyOp16
 70
     1
102
RTVSPropertyOp17
 70
     1
102
RTVSPropertyOp18
 70
     1
102
RTVSPropertyOp19
 70
     1
102
RTVSPropertyOp20
 70
     1
102
RTVSPropertyOp21
 70
     1
102
RTVSPropertyOp22
 70
     1
102
RTVSPropertyOp23
 70
     1
102
RTVSPropertyOp24
 70
     1
102
RTVSPropertyOp25
 70
     1
102
RTVSPropertyOp26
 70
     1
102
RTVSPropertyOp27
 70
     1
  0
XRECORD
  5
24E0
102
{ACAD_REACTORS
330
24DF
102
}
330
24DF
100
AcDbXrecord
280
     1
102
RTVSPropertyOp0
 70
     1
102
RTVSPropertyOp1
 70
     1
102
RTVSPropertyOp2
 70
     1
102
RTVSPropertyOp3
 70
     1
102
RTVSPropertyOp4
 70
     1
102
RTVSPropertyOp5
 70
     1
102
RTVSPropertyOp6
 70
     1
102
RTVSPropertyOp7
 70
     1
102
RTVSPropertyOp8
 70
     1
102
RTVSPropertyOp9
 70
     1
102
RTVSPropertyOp10
 70
     1
102
RTVSPropertyOp11
 70
     1
102
RTVSPropertyOp12
 70
     1
102
RTVSPropertyOp13
 70
     1
102
RTVSPropertyOp14
 70
     1
102
RTVSPropertyOp15
 70
     1
102
RTVSPropertyOp16
 70
     1
102
RTVSPropertyOp17
 70
     1
102
RTVSPropertyOp18
 70
     1
102
RTVSPropertyOp19
 70
     1
102
RTVSPropertyOp20
 70
     1
102
RTVSPropertyOp21
 70
     1
102
RTVSPropertyOp22
 70
     1
102
RTVSPropertyOp23
 70
     1
102
RTVSPropertyOp24
 70
     1
102
RTVSPropertyOp25
 70
     1
102
RTVSPropertyOp26
 70
     1
102
RTVSPropertyOp27
 70
     1
  0
XRECORD
  5
24FA
102
{ACAD_REACTORS
330
24F9
102
}
330
24F9
100
AcDbXrecord
280
     1
102
RTVSPropertyOp0
 70
     0
102
RTVSPropertyOp1
 70
     0
102
RTVSPropertyOp2
 70
     0
102
RTVSPropertyOp3
 70
     0
102
RTVSPropertyOp4
 70
     0
102
RTVSPropertyOp5
 70
     0
102
RTVSPropertyOp6
 70
     0
102
RTVSPropertyOp7
 70
     0
102
RTVSPropertyOp8
 70
     0
102
RTVSPropertyOp9
 70
     0
102
RTVSPropertyOp10
 70
     0
102
RTVSPropertyOp11
 70
     0
102
RTVSPropertyOp12
 70
     0
102
RTVSPropertyOp13
 70
     0
102
RTVSPropertyOp14
 70
     2
102
RTVSPropertyOp15
 70
     0
102
RTVSPropertyOp16
 70
     0
102
RTVSPropertyOp17
 70
     0
102
RTVSPropertyOp18
 70
     0
102
RTVSPropertyOp19
 70
     0
102
RTVSPropertyOp20
 70
     0
102
RTVSPropertyOp21
 70
     0
102
RTVSPropertyOp22
 70
     0
102
RTVSPropertyOp23
 70
     0
102
RTVSPropertyOp24
 70
     0
102
RTVSPropertyOp25
 70
     0
102
RTVSPropertyOp26
 70
     0
102
RTVSPropertyOp27
 70
     0
  0
XRECORD
  5
24F4
102
{ACAD_REACTORS
330
24F3
102
}
330
24F3
100
AcDbXrecord
280
     1
102
RTVSPropertyOp0
 70
     1
102
RTVSPropertyOp1
 70
     1
102
RTVSPropertyOp2
 70
     1
102
RTVSPropertyOp3
 70
     1
102
RTVSPropertyOp4
 70
     1
102
RTVSPropertyOp5
 70
     1
102
RTVSPropertyOp6
 70
     1
102
RTVSPropertyOp7
 70
     1
102
RTVSPropertyOp8
 70
     1
102
RTVSPropertyOp9
 70
     1
102
RTVSPropertyOp10
 70
     1
102
RTVSPropertyOp11
 70
     1
102
RTVSPropertyOp12
 70
     1
102
RTVSPropertyOp13
 70
     1
102
RTVSPropertyOp14
 70
     1
102
RTVSPropertyOp15
 70
     1
102
RTVSPropertyOp16
 70
     1
102
RTVSPropertyOp17
 70
     1
102
RTVSPropertyOp18
 70
     1
102
RTVSPropertyOp19
 70
     1
102
RTVSPropertyOp20
 70
     1
102
RTVSPropertyOp21
 70
     1
102
RTVSPropertyOp22
 70
     1
102
RTVSPropertyOp23
 70
     1
102
RTVSPropertyOp24
 70
     1
102
RTVSPropertyOp25
 70
     1
102
RTVSPropertyOp26
 70
     1
102
RTVSPropertyOp27
 70
     1
  0
XRECORD
  5
24FC
102
{ACAD_REACTORS
330
24FB
102
}
330
24FB
100
AcDbXrecord
280
     1
102
RTVSPropertyOp0
 70
     0
102
RTVSPropertyOp1
 70
     0
102
RTVSPropertyOp2
 70
     0
102
RTVSPropertyOp3
 70
     0
102
RTVSPropertyOp4
 70
     0
102
RTVSPropertyOp5
 70
     0
102
RTVSPropertyOp6
 70
     0
102
RTVSPropertyOp7
 70
     0
102
RTVSPropertyOp8
 70
     0
102
RTVSPropertyOp9
 70
     0
102
RTVSPropertyOp10
 70
     0
102
RTVSPropertyOp11
 70
     0
102
RTVSPropertyOp12
 70
     0
102
RTVSPropertyOp13
 70
     0
102
RTVSPropertyOp14
 70
     2
102
RTVSPropertyOp15
 70
     0
102
RTVSPropertyOp16
 70
     0
102
RTVSPropertyOp17
 70
     0
102
RTVSPropertyOp18
 70
     0
102
RTVSPropertyOp19
 70
     0
102
RTVSPropertyOp20
 70
     0
102
RTVSPropertyOp21
 70
     0
102
RTVSPropertyOp22
 70
     0
102
RTVSPropertyOp23
 70
     0
102
RTVSPropertyOp24
 70
     0
102
RTVSPropertyOp25
 70
     0
102
RTVSPropertyOp26
 70
     0
102
RTVSPropertyOp27
 70
     0
  0
XRECORD
  5
24EC
102
{ACAD_REACTORS
330
24EB
102
}
330
24EB
100
AcDbXrecord
280
     1
102
RTVSPropertyOp0
 70
     1
102
RTVSPropertyOp1
 70
     1
102
RTVSPropertyOp2
 70
     1
102
RTVSPropertyOp3
 70
     1
102
RTVSPropertyOp4
 70
     1
102
RTVSPropertyOp5
 70
     1
102
RTVSPropertyOp6
 70
     1
102
RTVSPropertyOp7
 70
     1
102
RTVSPropertyOp8
 70
     1
102
RTVSPropertyOp9
 70
     1
102
RTVSPropertyOp10
 70
     1
102
RTVSPropertyOp11
 70
     1
102
RTVSPropertyOp12
 70
     1
102
RTVSPropertyOp13
 70
     1
102
RTVSPropertyOp14
 70
     1
102
RTVSPropertyOp15
 70
     1
102
RTVSPropertyOp16
 70
     1
102
RTVSPropertyOp17
 70
     1
102
RTVSPropertyOp18
 70
     1
102
RTVSPropertyOp19
 70
     1
102
RTVSPropertyOp20
 70
     1
102
RTVSPropertyOp21
 70
     1
102
RTVSPropertyOp22
 70
     1
102
RTVSPropertyOp23
 70
     1
102
RTVSPropertyOp24
 70
     1
102
RTVSPropertyOp25
 70
     1
102
RTVSPropertyOp26
 70
     1
102
RTVSPropertyOp27
 70
     1
  0
XRECORD
  5
24F2
102
{ACAD_REACTORS
330
24F1
102
}
330
24F1
100
AcDbXrecord
280
     1
102
RTVSPropertyOp0
 70
     1
102
RTVSPropertyOp1
 70
     1
102
RTVSPropertyOp2
 70
     1
102
RTVSPropertyOp3
 70
     1
102
RTVSPropertyOp4
 70
     1
102
RTVSPropertyOp5
 70
     1
102
RTVSPropertyOp6
 70
     1
102
RTVSPropertyOp7
 70
     1
102
RTVSPropertyOp8
 70
     1
102
RTVSPropertyOp9
 70
     1
102
RTVSPropertyOp10
 70
     1
102
RTVSPropertyOp11
 70
     1
102
RTVSPropertyOp12
 70
     1
102
RTVSPropertyOp13
 70
     1
102
RTVSPropertyOp14
 70
     1
102
RTVSPropertyOp15
 70
     1
102
RTVSPropertyOp16
 70
     1
102
RTVSPropertyOp17
 70
     1
102
RTVSPropertyOp18
 70
     1
102
RTVSPropertyOp19
 70
     1
102
RTVSPropertyOp20
 70
     1
102
RTVSPropertyOp21
 70
     1
102
RTVSPropertyOp22
 70
     1
102
RTVSPropertyOp23
 70
     1
102
RTVSPropertyOp24
 70
     1
102
RTVSPropertyOp25
 70
     1
102
RTVSPropertyOp26
 70
     1
102
RTVSPropertyOp27
 70
     1
  0
ENDSEC
  0
EOF
