  0
SECTION
  2
HEADER
  9
$ACADVER
  1
AC1015
  9
$ACADMAINTVER
 70
    20
  9
$DWGCODEPAGE
  3
ANSI_1252
  9
$INSBASE
 10
0.0
 20
0.0
 30
0.0
  9
$EXTMIN
 10
-93.0018641046225
 20
-50.10722445975066
 30
0.0
  9
$EXTMAX
 10
372.9951780869535
 20
92.47636232253158
 30
0.0
  9
$LIMMIN
 10
0.0
 20
0.0
  9
$LIMMAX
 10
420.0
 20
297.0
  9
$ORTHOMODE
 70
     0
  9
$REGENMODE
 70
     1
  9
$FILLMODE
 70
     1
  9
$QTEXTMODE
 70
     0
  9
$MIRRTEXT
 70
     0
  9
$LTSCALE
 40
15.0
  9
$ATTMODE
 70
     2
  9
$TEXTSIZE
 40
2.5
  9
$TRACEWID
 40
1.0
  9
$TEXTSTYLE
  7
STANDARD
  9
$CLAYER
  8
0
  9
$CELTYPE
  6
ByLayer
  9
$CECOLOR
 62
   256
  9
$CELTSCALE
 40
1.0
  9
$DISPSILH
 70
     0
  9
$DIMSCALE
 40
1.0
  9
$DIMASZ
 40
3.5
  9
$DIMEXO
 40
1.0
  9
$DIMDLI
 40
10.0
  9
$DIMRND
 40
0.0
  9
$DIMDLE
 40
0.0
  9
$DIMEXE
 40
1.0
  9
$DIMTP
 40
0.1
  9
$DIMTM
 40
0.1
  9
$DIMTXT
 40
3.5
  9
$DIMCEN
 40
0.0
  9
$DIMTSZ
 40
0.0
  9
$DIMTOL
 70
     0
  9
$DIMLIM
 70
     0
  9
$DIMTIH
 70
     0
  9
$DIMTOH
 70
     0
  9
$DIMSE1
 70
     0
  9
$DIMSE2
 70
     0
  9
$DIMTAD
 70
     1
  9
$DIMZIN
 70
     8
  9
$DIMBLK
  1

  9
$DIMASO
 70
     1
  9
$DIMSHO
 70
     1
  9
$DIMPOST
  1

  9
$DIMAPOST
  1
"
  9
$DIMALT
 70
     0
  9
$DIMALTD
 70
     2
  9
$DIMALTF
 40
0.0393701
  9
$DIMLFAC
 40
1.0
  9
$DIMTOFL
 70
     1
  9
$DIMTVP
 40
0.0
  9
$DIMTIX
 70
     0
  9
$DIMSOXD
 70
     0
  9
$DIMSAH
 70
     0
  9
$DIMBLK1
  1

  9
$DIMBLK2
  1

  9
$DIMSTYLE
  2
AM_DIN
  9
$DIMCLRD
 70
   256
  9
$DIMCLRE
 70
   256
  9
$DIMCLRT
 70
   140
  9
$DIMTFAC
 40
0.71
  9
$DIMGAP
 40
1.5
  9
$DIMJUST
 70
     0
  9
$DIMSD1
 70
     0
  9
$DIMSD2
 70
     0
  9
$DIMTOLJ
 70
     1
  9
$DIMTZIN
 70
     0
  9
$DIMALTZ
 70
     0
  9
$DIMALTTZ
 70
     0
  9
$DIMUPT
 70
     0
  9
$DIMDEC
 70
     4
  9
$DIMTDEC
 70
     4
  9
$DIMALTU
 70
     2
  9
$DIMALTTD
 70
     2
  9
$DIMTXSTY
  7
STANDARD
  9
$DIMAUNIT
 70
     0
  9
$DIMADEC
 70
     0
  9
$DIMALTRND
 40
0.0
  9
$DIMAZIN
 70
     0
  9
$DIMDSEP
 70
    46
  9
$DIMATFIT
 70
     3
  9
$DIMFRAC
 70
     0
  9
$DIMLDRBLK
  1

  9
$DIMLUNIT
 70
     2
  9
$DIMLWD
 70
    -2
  9
$DIMLWE
 70
    -2
  9
$DIMTMOVE
 70
     0
  9
$LUNITS
 70
     2
  9
$LUPREC
 70
     2
  9
$SKETCHINC
 40
1.0
  9
$FILLETRAD
 40
2.5
  9
$AUNITS
 70
     0
  9
$AUPREC
 70
     0
  9
$MENU
  1
.
  9
$ELEVATION
 40
0.0
  9
$PELEVATION
 40
0.0
  9
$THICKNESS
 40
0.0
  9
$LIMCHECK
 70
     0
  9
$CHAMFERA
 40
2.5
  9
$CHAMFERB
 40
2.5
  9
$CHAMFERC
 40
0.0
  9
$CHAMFERD
 40
0.0
  9
$SKPOLY
 70
     0
  9
$TDCREATE
 40
2455672.497120949
  9
$TDUCREATE
 40
2455672.455454283
  9
$TDUPDATE
 40
2457718.713497535
  9
$TDUUPDATE
 40
2457718.671830868
  9
$TDINDWG
 40
0.1592223727
  9
$TDUSRTIMER
 40
0.1592214583
  9
$USRTIMER
 70
     1
  9
$ANGBASE
 50
0.0
  9
$ANGDIR
 70
     0
  9
$PDMODE
 70
     0
  9
$PDSIZE
 40
0.0
  9
$PLINEWID
 40
0.0
  9
$SPLFRAME
 70
     0
  9
$SPLINETYPE
 70
     6
  9
$SPLINESEGS
 70
     8
  9
$HANDSEED
  5
260F
  9
$SURFTAB1
 70
     6
  9
$SURFTAB2
 70
     6
  9
$SURFTYPE
 70
     6
  9
$SURFU
 70
     6
  9
$SURFV
 70
     6
  9
$UCSBASE
  2

  9
$UCSNAME
  2

  9
$UCSORG
 10
0.0
 20
0.0
 30
0.0
  9
$UCSXDIR
 10
1.0
 20
0.0
 30
0.0
  9
$UCSYDIR
 10
0.0
 20
1.0
 30
0.0
  9
$UCSORTHOREF
  2

  9
$UCSORTHOVIEW
 70
     0
  9
$UCSORGTOP
 10
0.0
 20
0.0
 30
0.0
  9
$UCSORGBOTTOM
 10
0.0
 20
0.0
 30
0.0
  9
$UCSORGLEFT
 10
0.0
 20
0.0
 30
0.0
  9
$UCSORGRIGHT
 10
0.0
 20
0.0
 30
0.0
  9
$UCSORGFRONT
 10
0.0
 20
0.0
 30
0.0
  9
$UCSORGBACK
 10
0.0
 20
0.0
 30
0.0
  9
$PUCSBASE
  2

  9
$PUCSNAME
  2

  9
$PUCSORG
 10
0.0
 20
0.0
 30
0.0
  9
$PUCSXDIR
 10
1.0
 20
0.0
 30
0.0
  9
$PUCSYDIR
 10
0.0
 20
1.0
 30
0.0
  9
$PUCSORTHOREF
  2

  9
$PUCSORTHOVIEW
 70
     0
  9
$PUCSORGTOP
 10
0.0
 20
0.0
 30
0.0
  9
$PUCSORGBOTTOM
 10
0.0
 20
0.0
 30
0.0
  9
$PUCSORGLEFT
 10
0.0
 20
0.0
 30
0.0
  9
$PUCSORGRIGHT
 10
0.0
 20
0.0
 30
0.0
  9
$PUCSORGFRONT
 10
0.0
 20
0.0
 30
0.0
  9
$PUCSORGBACK
 10
0.0
 20
0.0
 30
0.0
  9
$USERI1
 70
     0
  9
$USERI2
 70
     0
  9
$USERI3
 70
     0
  9
$USERI4
 70
     0
  9
$USERI5
 70
     0
  9
$USERR1
 40
0.0
  9
$USERR2
 40
0.0
  9
$USERR3
 40
0.0
  9
$USERR4
 40
0.0
  9
$USERR5
 40
0.0
  9
$WORLDVIEW
 70
     1
  9
$SHADEDGE
 70
     3
  9
$SHADEDIF
 70
    70
  9
$TILEMODE
 70
     1
  9
$MAXACTVP
 70
    64
  9
$PINSBASE
 10
0.0
 20
0.0
 30
0.0
  9
$PLIMCHECK
 70
     0
  9
$PEXTMIN
 10
1.131083300733189
 20
0.7885833800308344
 30
0.0
  9
$PEXTMAX
 10
10.17974970659872
 20
7.097250420277513
 30
0.0
  9
$PLIMMIN
 10
-0.1912502979669045
 20
-0.1912499975970411
  9
$PLIMMAX
 10
11.503750057671
 20
8.072082940049059
  9
$UNITMODE
 70
     0
  9
$VISRETAIN
 70
     1
  9
$PLINEGEN
 70
     0
  9
$PSLTSCALE
 70
     1
  9
$TREEDEPTH
 70
  3020
  9
$CMLSTYLE
  2
Standard
  9
$CMLJUST
 70
     0
  9
$CMLSCALE
 40
1.0
  9
$PROXYGRAPHICS
 70
     1
  9
$MEASUREMENT
 70
     0
  9
$CELWEIGHT
370
    -1
  9
$ENDCAPS
280
     0
  9
$JOINSTYLE
280
     0
  9
$LWDISPLAY
290
     0
  9
$INSUNITS
 70
     0
  9
$HYPERLINKBASE
  1

  9
$STYLESHEET
  1

  9
$XEDIT
290
     1
  9
$CEPSNTYPE
380
     0
  9
$PSTYLEMODE
290
     1
  9
$FINGERPRINTGUID
  2
{361D2E0A-37A2-4D8A-B8C6-DD462AF0DE91}
  9
$VERSIONGUID
  2
{DBEDAA88-258E-42AE-A73C-47F5AD3515D4}
  9
$EXTNAMES
290
     1
  9
$PSVPSCALE
 40
0.0
  9
$OLESTARTUP
290
     0
  0
ENDSEC
  0
SECTION
  2
CLASSES
  0
CLASS
  1
ACDBDICTIONARYWDFLT
  2
AcDbDictionaryWithDefault
  3
ObjectDBX Classes
 90
        0
280
     0
281
     0
  0
CLASS
  1
MATERIAL
  2
AcDbMaterial
  3
ObjectDBX Classes
 90
     1153
280
     0
281
     0
  0
CLASS
  1
VISUALSTYLE
  2
AcDbVisualStyle
  3
ObjectDBX Classes
 90
     4095
280
     0
281
     0
  0
CLASS
  1
SCALE
  2
AcDbScale
  3
ObjectDBX Classes
 90
     1153
280
     0
281
     0
  0
CLASS
  1
TABLESTYLE
  2
AcDbTableStyle
  3
ObjectDBX Classes
 90
     4095
280
     0
281
     0
  0
CLASS
  1
MLEADERSTYLE
  2
AcDbMLeaderStyle
  3
ACDB_MLEADERSTYLE_CLASS
 90
     4095
280
     0
281
     0
  0
CLASS
  1
DICTIONARYVAR
  2
AcDbDictionaryVar
  3
ObjectDBX Classes
 90
        0
280
     0
281
     0
  0
CLASS
  1
CELLSTYLEMAP
  2
AcDbCellStyleMap
  3
ObjectDBX Classes
 90
     1152
280
     0
281
     0
  0
CLASS
  1
ACDBPLACEHOLDER
  2
AcDbPlaceHolder
  3
ObjectDBX Classes
 90
        0
280
     0
281
     0
  0
CLASS
  1
LAYOUT
  2
AcDbLayout
  3
ObjectDBX Classes
 90
        0
280
     0
281
     0
  0
ENDSEC
  0
SECTION
  2
TABLES
  0
TABLE
  2
VPORT
  5
2294
330
0
100
AcDbSymbolTable
 70
     1
  0
VPORT
  5
2306
330
2294
100
AcDbSymbolTableRecord
100
AcDbViewportTableRecord
  2
*ACTIVE
 70
     0
 10
0.0
 20
0.0
 11
1.0
 21
1.0
 12
50.47180491010627
 22
-9.674317843306482
 13
0.0
 23
0.0
 14
2.5
 24
2.5
 15
10.0
 25
10.0
 16
0.0
 26
0.0
 36
271.8911082557244
 17
-7.077914484763256
 27
5.165508186469383
 37
0.0
 40
109.3361949047477
 41
2.145220588235293
 42
50.0
 43
0.0
 44
0.0
 50
0.0
 51
0.0
 71
     0
 72
   100
 73
     1
 74
     3
 75
     0
 76
     0
 77
     0
 78
     0
281
     0
 65
     1
110
0.0
120
0.0
130
0.0
111
1.0
121
0.0
131
0.0
112
0.0
122
1.0
132
0.0
 79
     0
146
0.0
  0
ENDTAB
  0
TABLE
  2
LTYPE
  5
2291
330
0
100
AcDbSymbolTable
 70
     4
  0
LTYPE
  5
22F1
330
2291
100
AcDbSymbolTableRecord
100
AcDbLinetypeTableRecord
  2
ByBlock
 70
     0
  3

 72
    65
 73
     0
 40
0.0
  0
LTYPE
  5
22F2
330
2291
100
AcDbSymbolTableRecord
100
AcDbLinetypeTableRecord
  2
ByLayer
 70
     0
  3

 72
    65
 73
     0
 40
0.0
  0
LTYPE
  5
22F3
330
2291
100
AcDbSymbolTableRecord
100
AcDbLinetypeTableRecord
  2
CONTINUOUS
 70
     0
  3
Solid line
 72
    65
 73
     0
 40
0.0
  0
LTYPE
  5
2307
330
2291
100
AcDbSymbolTableRecord
100
AcDbLinetypeTableRecord
  2
CENTER
 70
     0
  3
__ . __
 72
    65
 73
     4
 40
7.0
 49
4.0
 74
     0
 49
-1.0
 74
     0
 49
1.0
 74
     0
 49
-1.0
 74
     0
  0
LTYPE
  5
2308
330
2291
100
AcDbSymbolTableRecord
100
AcDbLinetypeTableRecord
  2
DASHED
 70
     0
  3
- - - - - - - - - - - - - - - - - - - -
 72
    65
 73
     2
 40
0.2
 49
0.1
 74
     0
 49
-0.1
 74
     0
  0
LTYPE
  5
2309
330
2291
100
AcDbSymbolTableRecord
100
AcDbLinetypeTableRecord
  2
CENTER2
 70
     0
  3
Center (.5x) ___ _ ___ _ ___ _ ___ _ ___ _ ___
 72
    65
 73
     4
 40
1.125
 49
0.75
 74
     0
 49
-0.125
 74
     0
 49
0.125
 74
     0
 49
-0.125
 74
     0
  0
ENDTAB
  0
TABLE
  2
LAYER
  5
228E
330
0
100
AcDbSymbolTable
 70
    12
  0
LAYER
  5
22EB
102
{ACAD_XDICTIONARY
360
2423
102
}
330
228E
100
AcDbSymbolTableRecord
100
AcDbLayerTableRecord
  2
0
 70
     0
 62
     7
  6
CONTINUOUS
370
    -3
390
229B
  0
LAYER
  5
230A
102
{ACAD_XDICTIONARY
360
2425
102
}
330
228E
100
AcDbSymbolTableRecord
100
AcDbLayerTableRecord
  2
1
 70
     0
 62
     4
  6
CONTINUOUS
370
    -3
390
229B
  0
LAYER
  5
230B
330
228E
100
AcDbSymbolTableRecord
100
AcDbLayerTableRecord
  2
DEFPOINTS
 70
     0
 62
     7
  6
CONTINUOUS
290
     0
370
    -3
390
229B
  0
LAYER
  5
230C
102
{ACAD_XDICTIONARY
360
2427
102
}
330
228E
100
AcDbSymbolTableRecord
100
AcDbLayerTableRecord
  2
80
 70
     0
 62
     6
  6
CONTINUOUS
370
    -3
390
229B
  0
LAYER
  5
230D
102
{ACAD_XDICTIONARY
360
2429
102
}
330
228E
100
AcDbSymbolTableRecord
100
AcDbLayerTableRecord
  2
81
 70
     0
 62
     3
  6
CONTINUOUS
370
    -3
390
229B
  0
LAYER
  5
230E
102
{ACAD_XDICTIONARY
360
242B
102
}
330
228E
100
AcDbSymbolTableRecord
100
AcDbLayerTableRecord
  2
SK4
 70
     0
 62
     2
  6
CENTER
370
    -3
390
229B
  0
LAYER
  5
230F
102
{ACAD_XDICTIONARY
360
242D
102
}
330
228E
100
AcDbSymbolTableRecord
100
AcDbLayerTableRecord
  2
SK3
 70
     0
 62
     1
  6
DASHED
370
    -3
390
229B
  0
LAYER
  5
2310
102
{ACAD_XDICTIONARY
360
242F
102
}
330
228E
100
AcDbSymbolTableRecord
100
AcDbLayerTableRecord
  2
SK2
 70
     0
 62
   255
  6
CONTINUOUS
370
    -3
390
229B
  0
LAYER
  5
2311
102
{ACAD_XDICTIONARY
360
2431
102
}
330
228E
100
AcDbSymbolTableRecord
100
AcDbLayerTableRecord
  2
SK6
 70
     0
 62
     5
  6
CONTINUOUS
370
    -3
390
229B
  0
LAYER
  5
2312
102
{ACAD_XDICTIONARY
360
2433
102
}
330
228E
100
AcDbSymbolTableRecord
100
AcDbLayerTableRecord
  2
2
 70
     0
 62
     7
  6
CONTINUOUS
370
    -3
390
229B
  0
LAYER
  5
2313
102
{ACAD_XDICTIONARY
360
2435
102
}
330
228E
100
AcDbSymbolTableRecord
100
AcDbLayerTableRecord
  2
4
 70
     0
 62
     2
  6
CENTER
370
    -3
390
229B
  0
LAYER
  5
2314
102
{ACAD_XDICTIONARY
360
2437
102
}
330
228E
100
AcDbSymbolTableRecord
100
AcDbLayerTableRecord
  2
6
 70
     0
 62
     5
  6
CONTINUOUS
370
    -3
390
229B
  0
ENDTAB
  0
TABLE
  2
STYLE
  5
228F
330
0
100
AcDbSymbolTable
 70
     5
  0
STYLE
  5
22EC
330
228F
100
AcDbSymbolTableRecord
100
AcDbTextStyleTableRecord
  2
STANDARD
 70
     0
 40
0.0
 41
1.0
 50
0.0
 71
     0
 42
2.5
  3
ISOCP.SHX
  4

  0
STYLE
  5
22F0
330
228F
100
AcDbSymbolTableRecord
100
AcDbTextStyleTableRecord
  2
ANNOTATIVE
 70
     0
 40
0.0
 41
1.0
 50
0.0
 71
     0
 42
0.2
  3
txt
  4

1001
ACADANNOTATIVE
1000
AnnotativeData
1002
{
1070
     1
1070
     1
1002
}
  0
STYLE
  5
2315
330
228F
100
AcDbSymbolTableRecord
100
AcDbTextStyleTableRecord
  2
TEXTSTYLE_2
 70
     0
 40
0.0
 41
0.72
 50
0.0
 71
     0
 42
0.2
  3
SIMPLEX.SHX
  4

  0
STYLE
  5
2316
330
228F
100
AcDbSymbolTableRecord
100
AcDbTextStyleTableRecord
  2
TEXTSTYLE_3
 70
     0
 40
0.0
 41
0.72
 50
0.0
 71
     0
 42
0.2
  3
gdt
  4

  0
STYLE
  5
2317
330
228F
100
AcDbSymbolTableRecord
100
AcDbTextStyleTableRecord
  2
TEXTSTYLE_4
 70
     0
 40
0.0
 41
1.0
 50
0.0
 71
     0
 42
0.2
  3
txt
  4

  0
ENDTAB
  0
TABLE
  2
VIEW
  5
2292
330
0
100
AcDbSymbolTable
 70
     0
  0
ENDTAB
  0
TABLE
  2
UCS
  5
2293
330
0
100
AcDbSymbolTable
 70
     0
  0
ENDTAB
  0
TABLE
  2
APPID
  5
2295
330
0
100
AcDbSymbolTable
 70
    27
  0
APPID
  5
22ED
330
2295
100
AcDbSymbolTableRecord
100
AcDbRegAppTableRecord
  2
ACAD
 70
     0
  0
APPID
  5
22F4
330
2295
100
AcDbSymbolTableRecord
100
AcDbRegAppTableRecord
  2
ACADANNOTATIVE
 70
     0
  0
APPID
  5
2318
330
2295
100
AcDbSymbolTableRecord
100
AcDbRegAppTableRecord
  2
MCAD_NO_VIS
 70
     0
  0
APPID
  5
2319
330
2295
100
AcDbSymbolTableRecord
100
AcDbRegAppTableRecord
  2
ACAD_TEMP_GRAPHIC
 70
     0
  0
APPID
  5
231A
330
2295
100
AcDbSymbolTableRecord
100
AcDbRegAppTableRecord
  2
ACATTRIBSERVICES
 70
     0
  0
APPID
  5
231B
330
2295
100
AcDbSymbolTableRecord
100
AcDbRegAppTableRecord
  2
AD_DRAW
 70
     0
  0
APPID
  5
231C
330
2295
100
AcDbSymbolTableRecord
100
AcDbRegAppTableRecord
  2
DESIGNERASSEMBLIES
 70
     0
  0
APPID
  5
231D
330
2295
100
AcDbSymbolTableRecord
100
AcDbRegAppTableRecord
  2
ACADM_DIM_EDIT
 70
     0
  0
APPID
  5
231E
330
2295
100
AcDbSymbolTableRecord
100
AcDbRegAppTableRecord
  2
AMDT_DM_ADJ
 70
     0
  0
APPID
  5
231F
330
2295
100
AcDbSymbolTableRecord
100
AcDbRegAppTableRecord
  2
ACAD_DSTYLE_DIMARC_LENGTH_
 70
     0
  0
APPID
  5
2320
330
2295
100
AcDbSymbolTableRecord
100
AcDbRegAppTableRecord
  2
ACAD_DSTYLE_DIMJOGGED_JOGA
 70
     0
  0
APPID
  5
2321
330
2295
100
AcDbSymbolTableRecord
100
AcDbRegAppTableRecord
  2
ACAECLAYERSTANDARD
 70
     0
  0
APPID
  5
2322
330
2295
100
AcDbSymbolTableRecord
100
AcDbRegAppTableRecord
  2
ACAD_MLEADERVER
 70
     0
  0
APPID
  5
2323
330
2295
100
AcDbSymbolTableRecord
100
AcDbRegAppTableRecord
  2
ACAD_DSTYLE_DIMJAG
 70
     0
  0
APPID
  5
2324
330
2295
100
AcDbSymbolTableRecord
100
AcDbRegAppTableRecord
  2
ACAD_DSTYLE_DIMBREAK
 70
     0
  0
APPID
  5
2325
330
2295
100
AcDbSymbolTableRecord
100
AcDbRegAppTableRecord
  2
ACAD_EXEMPT_FROM_CAD_STANDARDS
 70
     0
  0
APPID
  5
2326
330
2295
100
AcDbSymbolTableRecord
100
AcDbRegAppTableRecord
  2
GENIUS_GENREC_14
 70
     0
  0
APPID
  5
2327
330
2295
100
AcDbSymbolTableRecord
100
AcDbRegAppTableRecord
  2
GENIUS_GENODEF_13
 70
     0
  0
APPID
  5
2328
330
2295
100
AcDbSymbolTableRecord
100
AcDbRegAppTableRecord
  2
GENIUS_GENOBJ-N-REC_13
 70
     0
  0
APPID
  5
2329
330
2295
100
AcDbSymbolTableRecord
100
AcDbRegAppTableRecord
  2
ACAUTHENVIRON
 70
     0
  0
APPID
  5
232A
330
2295
100
AcDbSymbolTableRecord
100
AcDbRegAppTableRecord
  2
ACDBDYNAMICBLOCKTRUENAME
 70
     0
  0
APPID
  5
232B
330
2295
100
AcDbSymbolTableRecord
100
AcDbRegAppTableRecord
  2
ACDBDYNAMICBLOCKGUID
 70
     0
  0
APPID
  5
232C
330
2295
100
AcDbSymbolTableRecord
100
AcDbRegAppTableRecord
  2
ACDBBLOCKREPETAG
 70
     0
  0
APPID
  5
232D
330
2295
100
AcDbSymbolTableRecord
100
AcDbRegAppTableRecord
  2
ACADANNOPO
 70
     0
  0
APPID
  5
232E
330
2295
100
AcDbSymbolTableRecord
100
AcDbRegAppTableRecord
  2
ACDBBLOCKREPBTAG
 70
     0
  0
APPID
  5
232F
330
2295
100
AcDbSymbolTableRecord
100
AcDbRegAppTableRecord
  2
ACCMTRANSPARENCY
 70
     0
  0
APPID
  5
2330
330
2295
100
AcDbSymbolTableRecord
100
AcDbRegAppTableRecord
  2
ACAD_PSEXT
 70
     0
  0
ENDTAB
  0
TABLE
  2
DIMSTYLE
  5
2296
330
0
100
AcDbSymbolTable
 70
     7
100
AcDbDimStyleTable
 71
     3
340
22EE
340
2335
340
2331
  0
DIMSTYLE
105
22EE
102
{ACAD_REACTORS
330
1D9E
330
1D9F
330
1DA0
330
1DA1
330
1DA2
330
1DA3
330
23F2
330
2480
102
}
330
2296
100
AcDbSymbolTableRecord
100
AcDbDimStyleTableRecord
  2
STANDARD
 70
     0
 41
3.5
 47
0.005
 48
0.005
 71
     1
 73
     0
 74
     0
 77
     1
 78
     8
140
3.5
178
     5
271
     2
272
     2
279
     2
284
     8
285
     8
286
     8
340
22EC
  0
DIMSTYLE
105
22EF
330
2296
100
AcDbSymbolTableRecord
100
AcDbDimStyleTableRecord
  2
ANNOTATIVE
 70
     0
271
     2
272
     2
279
     2
284
     8
285
     8
286
     8
340
22EC
1001
ACADANNOTATIVE
1000
AnnotativeData
1002
{
1070
     1
1070
     1
1002
}
  0
DIMSTYLE
105
2331
330
2296
100
AcDbSymbolTableRecord
100
AcDbDimStyleTableRecord
  2
AM_DIN
 70
     0
  4
"
 41
3.5
 42
1.0
 43
10.0
 44
1.0
 47
0.1
 48
0.1
 73
     0
 74
     0
 77
     1
 78
     8
140
3.5
141
0.0
143
0.0393701
146
0.71
147
1.5
172
     1
176
   256
177
   256
178
   140
271
     2
272
     2
279
     2
284
     8
285
     8
286
     8
340
22EC
  0
DIMSTYLE
105
2332
330
2296
100
AcDbSymbolTableRecord
100
AcDbDimStyleTableRecord
  2
DIMSTYLE_1
 70
     0
 41
3.5
 47
0.3
 48
0.3
 73
     0
 74
     0
 77
     1
 78
     8
140
3.5
271
     2
272
     2
279
     2
284
     8
285
     8
286
     8
340
22EC
  0
DIMSTYLE
105
2333
330
2296
100
AcDbSymbolTableRecord
100
AcDbDimStyleTableRecord
  2
DIMSTYLE_2
 70
     0
 41
3.5
 47
0.5
 48
0.5
 73
     0
 74
     0
 77
     1
 78
     8
140
3.5
271
     2
272
     2
279
     2
284
     8
285
     8
286
     8
340
22EC
  0
DIMSTYLE
105
2334
330
2296
100
AcDbSymbolTableRecord
100
AcDbDimStyleTableRecord
  2
DIMSTYLE_3
 70
     0
 41
3.5
 47
0.2
 48
0.2
 73
     0
 74
     0
 77
     1
 78
     8
140
3.5
271
     2
272
     2
279
     2
284
     8
285
     8
286
     8
340
22EC
  0
DIMSTYLE
105
2335
330
2296
100
AcDbSymbolTableRecord
100
AcDbDimStyleTableRecord
  2
DIMSTYLE_4
 70
     0
 41
3.5
 47
0.2
 48
0.2
 73
     0
 74
     0
 77
     1
 78
     8
140
3.5
271
     2
272
     2
279
     2
284
     8
285
     8
286
     8
340
22EC
  0
ENDTAB
  0
TABLE
  2
BLOCK_RECORD
  5
228D
330
0
100
AcDbSymbolTable
 70
    51
  0
BLOCK_RECORD
  5
2302
330
228D
100
AcDbSymbolTableRecord
100
AcDbBlockTableRecord
  2
*Model_Space
340
2305
  0
BLOCK_RECORD
  5
22FE
330
228D
100
AcDbSymbolTableRecord
100
AcDbBlockTableRecord
  2
*Paper_Space
340
2301
  0
BLOCK_RECORD
  5
233A
330
228D
100
AcDbSymbolTableRecord
100
AcDbBlockTableRecord
  2
$MODEL_SPACE
340
0
  0
BLOCK_RECORD
  5
233C
330
228D
100
AcDbSymbolTableRecord
100
AcDbBlockTableRecord
  2
$PAPER_SPACE
340
0
  0
BLOCK_RECORD
  5
233E
330
228D
100
AcDbSymbolTableRecord
100
AcDbBlockTableRecord
  2
*D2
340
0
  0
BLOCK_RECORD
  5
2340
330
228D
100
AcDbSymbolTableRecord
100
AcDbBlockTableRecord
  2
*U3
340
0
102
{BLKREFS
331
1965
102
}
  0
BLOCK_RECORD
  5
2342
330
228D
100
AcDbSymbolTableRecord
100
AcDbBlockTableRecord
  2
*D4
340
0
  0
BLOCK_RECORD
  5
2344
330
228D
100
AcDbSymbolTableRecord
100
AcDbBlockTableRecord
  2
*U5
340
0
102
{BLKREFS
331
196E
102
}
  0
BLOCK_RECORD
  5
2346
330
228D
100
AcDbSymbolTableRecord
100
AcDbBlockTableRecord
  2
*D6
340
0
  0
BLOCK_RECORD
  5
2348
330
228D
100
AcDbSymbolTableRecord
100
AcDbBlockTableRecord
  2
*U7
340
0
102
{BLKREFS
331
19BD
102
}
  0
BLOCK_RECORD
  5
234A
330
228D
100
AcDbSymbolTableRecord
100
AcDbBlockTableRecord
  2
*D8
340
0
  0
BLOCK_RECORD
  5
234C
330
228D
100
AcDbSymbolTableRecord
100
AcDbBlockTableRecord
  2
*U9
340
0
102
{BLKREFS
331
1980
102
}
  0
BLOCK_RECORD
  5
234E
330
228D
100
AcDbSymbolTableRecord
100
AcDbBlockTableRecord
  2
*D10
340
0
  0
BLOCK_RECORD
  5
2350
330
228D
100
AcDbSymbolTableRecord
100
AcDbBlockTableRecord
  2
*U11
340
0
102
{BLKREFS
331
1989
102
}
  0
BLOCK_RECORD
  5
2352
330
228D
100
AcDbSymbolTableRecord
100
AcDbBlockTableRecord
  2
*D12
340
0
  0
BLOCK_RECORD
  5
2354
330
228D
100
AcDbSymbolTableRecord
100
AcDbBlockTableRecord
  2
*U13
340
0
102
{BLKREFS
331
1992
102
}
  0
BLOCK_RECORD
  5
2356
330
228D
100
AcDbSymbolTableRecord
100
AcDbBlockTableRecord
  2
*D14
340
0
  0
BLOCK_RECORD
  5
2358
330
228D
100
AcDbSymbolTableRecord
100
AcDbBlockTableRecord
  2
*U15
340
0
102
{BLKREFS
331
195C
102
}
  0
BLOCK_RECORD
  5
235A
330
228D
100
AcDbSymbolTableRecord
100
AcDbBlockTableRecord
  2
_FILLED
340
0
102
{BLKREFS
331
1CCB
331
1CCC
331
1CD5
331
1CD6
331
1CDF
331
1CE0
331
1CE9
331
1CEA
331
1CF3
331
1CF4
331
1CFD
331
1CFE
331
1F26
331
1F27
331
1F0A
331
1F0B
331
1F2F
331
1F30
331
1F38
331
1F39
331
1F1D
331
1F1E
331
1F14
331
1F15
102
}
  0
BLOCK_RECORD
  5
235C
330
228D
100
AcDbSymbolTableRecord
100
AcDbBlockTableRecord
  2
*D17
340
0
  0
BLOCK_RECORD
  5
235E
330
228D
100
AcDbSymbolTableRecord
100
AcDbBlockTableRecord
  2
*U18
340
0
102
{BLKREFS
331
1CC6
102
}
  0
BLOCK_RECORD
  5
2360
330
228D
100
AcDbSymbolTableRecord
100
AcDbBlockTableRecord
  2
*D19
340
0
  0
BLOCK_RECORD
  5
2362
330
228D
100
AcDbSymbolTableRecord
100
AcDbBlockTableRecord
  2
*U20
340
0
102
{BLKREFS
331
1CD0
102
}
  0
BLOCK_RECORD
  5
2364
330
228D
100
AcDbSymbolTableRecord
100
AcDbBlockTableRecord
  2
*D21
340
0
  0
BLOCK_RECORD
  5
2366
330
228D
100
AcDbSymbolTableRecord
100
AcDbBlockTableRecord
  2
*U22
340
0
102
{BLKREFS
331
1CDA
102
}
  0
BLOCK_RECORD
  5
2368
330
228D
100
AcDbSymbolTableRecord
100
AcDbBlockTableRecord
  2
*D23
340
0
  0
BLOCK_RECORD
  5
236A
330
228D
100
AcDbSymbolTableRecord
100
AcDbBlockTableRecord
  2
*U24
340
0
102
{BLKREFS
331
1CE4
102
}
  0
BLOCK_RECORD
  5
236C
330
228D
100
AcDbSymbolTableRecord
100
AcDbBlockTableRecord
  2
*D25
340
0
  0
BLOCK_RECORD
  5
236E
330
228D
100
AcDbSymbolTableRecord
100
AcDbBlockTableRecord
  2
*U26
340
0
102
{BLKREFS
331
1CEE
102
}
  0
BLOCK_RECORD
  5
2370
330
228D
100
AcDbSymbolTableRecord
100
AcDbBlockTableRecord
  2
*D27
340
0
  0
BLOCK_RECORD
  5
2372
330
228D
100
AcDbSymbolTableRecord
100
AcDbBlockTableRecord
  2
*U28
340
0
102
{BLKREFS
331
1CF8
102
}
  0
BLOCK_RECORD
  5
2374
330
228D
100
AcDbSymbolTableRecord
100
AcDbBlockTableRecord
  2
*D29
340
0
  0
BLOCK_RECORD
  5
2376
330
228D
100
AcDbSymbolTableRecord
100
AcDbBlockTableRecord
  2
*U30
340
0
102
{BLKREFS
331
1F28
102
}
  0
BLOCK_RECORD
  5
2378
330
228D
100
AcDbSymbolTableRecord
100
AcDbBlockTableRecord
  2
*D31
340
0
  0
BLOCK_RECORD
  5
237A
330
228D
100
AcDbSymbolTableRecord
100
AcDbBlockTableRecord
  2
*U32
340
0
102
{BLKREFS
331
1F0C
102
}
  0
BLOCK_RECORD
  5
237C
330
228D
100
AcDbSymbolTableRecord
100
AcDbBlockTableRecord
  2
*D33
340
0
  0
BLOCK_RECORD
  5
237E
330
228D
100
AcDbSymbolTableRecord
100
AcDbBlockTableRecord
  2
*U34
340
0
102
{BLKREFS
331
1F31
102
}
  0
BLOCK_RECORD
  5
2380
330
228D
100
AcDbSymbolTableRecord
100
AcDbBlockTableRecord
  2
*D35
340
0
  0
BLOCK_RECORD
  5
2382
330
228D
100
AcDbSymbolTableRecord
100
AcDbBlockTableRecord
  2
*U36
340
0
102
{BLKREFS
331
1F3A
102
}
  0
BLOCK_RECORD
  5
2384
330
228D
100
AcDbSymbolTableRecord
100
AcDbBlockTableRecord
  2
*D37
340
0
  0
BLOCK_RECORD
  5
2386
330
228D
100
AcDbSymbolTableRecord
100
AcDbBlockTableRecord
  2
*U38
340
0
102
{BLKREFS
331
1F1F
102
}
  0
BLOCK_RECORD
  5
2388
330
228D
100
AcDbSymbolTableRecord
100
AcDbBlockTableRecord
  2
*D39
340
0
  0
BLOCK_RECORD
  5
238A
330
228D
100
AcDbSymbolTableRecord
100
AcDbBlockTableRecord
  2
*U40
340
0
102
{BLKREFS
331
1F16
102
}
  0
BLOCK_RECORD
  5
238C
330
228D
100
AcDbSymbolTableRecord
100
AcDbBlockTableRecord
  2
*U41
340
0
  0
BLOCK_RECORD
  5
238E
330
228D
100
AcDbSymbolTableRecord
100
AcDbBlockTableRecord
  2
*U42
340
0
  0
BLOCK_RECORD
  5
2393
330
228D
100
AcDbSymbolTableRecord
100
AcDbBlockTableRecord
  2
*D43
340
0
  0
BLOCK_RECORD
  5
23A0
330
228D
100
AcDbSymbolTableRecord
100
AcDbBlockTableRecord
  2
*D44
340
0
  0
BLOCK_RECORD
  5
23BE
330
228D
100
AcDbSymbolTableRecord
100
AcDbBlockTableRecord
  2
*D45
340
0
  0
BLOCK_RECORD
  5
23CB
330
228D
100
AcDbSymbolTableRecord
100
AcDbBlockTableRecord
  2
*D46
340
0
  0
BLOCK_RECORD
  5
23D8
330
228D
100
AcDbSymbolTableRecord
100
AcDbBlockTableRecord
  2
*D47
340
0
  0
BLOCK_RECORD
  5
23E5
330
228D
100
AcDbSymbolTableRecord
100
AcDbBlockTableRecord
  2
*D48
340
0
  0
BLOCK_RECORD
  5
23F3
330
228D
100
AcDbSymbolTableRecord
100
AcDbBlockTableRecord
  2
*D49
340
0
  0
BLOCK_RECORD
  5
2481
330
228D
100
AcDbSymbolTableRecord
100
AcDbBlockTableRecord
  2
*D50
340
0
  0
ENDTAB
  0
ENDSEC
  0
SECTION
  2
BLOCKS
  0
BLOCK
  5
2303
330
2302
100
AcDbEntity
  8
0
100
AcDbBlockBegin
  2
*Model_Space
 70
     0
 10
0.0
 20
0.0
 30
0.0
  3
*Model_Space
  1

  0
ENDBLK
  5
2304
330
2302
100
AcDbEntity
  8
0
100
AcDbBlockEnd
  0
BLOCK
  5
22FF
330
22FE
100
AcDbEntity
 67
     1
  8
0
100
AcDbBlockBegin
  2
*Paper_Space
 70
     0
 10
0.0
 20
0.0
 30
0.0
  3
*Paper_Space
  1

  0
ENDBLK
  5
2300
330
22FE
100
AcDbEntity
 67
     1
  8
0
100
AcDbBlockEnd
  0
BLOCK
  5
233B
330
233A
100
AcDbEntity
  8
0
100
AcDbBlockBegin
  2
$MODEL_SPACE
 70
     0
 10
0.0
 20
0.0
 30
0.0
  3
$MODEL_SPACE
  1

  0
ENDBLK
  5
21A6
330
233A
100
AcDbEntity
  8
0
100
AcDbBlockEnd
  0
BLOCK
  5
233D
330
233C
100
AcDbEntity
  8
0
100
AcDbBlockBegin
  2
$PAPER_SPACE
 70
     0
 10
0.0
 20
0.0
 30
0.0
  3
$PAPER_SPACE
  1

  0
ENDBLK
  5
21A2
330
233C
100
AcDbEntity
  8
0
100
AcDbBlockEnd
  0
BLOCK
  5
233F
330
233E
100
AcDbEntity
  8
0
100
AcDbBlockBegin
  2
*D2
 70
     1
 10
0.0
 20
0.0
 30
0.0
  3
*D2
  1

  0
LINE
  5
1962
330
233E
100
AcDbEntity
  8
2
 62
     0
100
AcDbLine
 10
0.0
 20
15.47474753889992
 30
0.0
 11
0.0000000000000018
 21
44.22528291250108
 31
0.0
  0
LINE
  5
1963
330
233E
100
AcDbEntity
  8
2
 62
     0
100
AcDbLine
 10
60.0
 20
11.5625
 30
0.0
 11
60.0
 21
44.22528291250108
 31
0.0
  0
LINE
  5
1964
330
233E
100
AcDbEntity
  8
2
 62
     0
100
AcDbLine
 10
3.5
 20
44.04528291250108
 30
0.0
 11
56.5
 21
44.04528291250108
 31
0.0
  0
INSERT
  5
1965
330
233E
100
AcDbEntity
  8
0
100
AcDbBlockReference
  2
*U3
 10
0.0
 20
0.0
 30
0.0
  0
SOLID
  5
1966
330
233E
100
AcDbEntity
  8
2
 62
     0
100
AcDbTrace
 10
3.5
 20
44.62861624583442
 30
0.0
 11
3.5
 21
43.46194957916774
 31
0.0
 12
0.0000000000000018
 22
44.04528291250108
 32
0.0
 13
0.0000000000000018
 23
44.04528291250108
 33
0.0
  0
SOLID
  5
1967
330
233E
100
AcDbEntity
  8
2
 62
     0
100
AcDbTrace
 10
56.5
 20
44.62861624583442
 30
0.0
 11
56.5
 21
43.46194957916774
 31
0.0
 12
60.0
 22
44.04528291250108
 32
0.0
 13
60.0
 23
44.04528291250108
 33
0.0
  0
POINT
  5
1968
330
233E
100
AcDbEntity
  8
DEFPOINTS
 62
     0
100
AcDbPoint
 10
0.0
 20
15.41224753889992
 30
0.0
  0
POINT
  5
1969
330
233E
100
AcDbEntity
  8
DEFPOINTS
 62
     0
100
AcDbPoint
 10
60.0
 20
11.5
 30
0.0
  0
POINT
  5
196A
330
233E
100
AcDbEntity
  8
DEFPOINTS
 62
     0
100
AcDbPoint
 10
60.0
 20
44.04528291250108
 30
0.0
  0
ENDBLK
  5
1875
330
233E
100
AcDbEntity
  8
0
100
AcDbBlockEnd
  0
BLOCK
  5
2341
330
2340
100
AcDbEntity
  8
0
100
AcDbBlockBegin
  2
*U3
 70
     1
 10
0.0
 20
0.0
 30
0.0
  3
*U3
  1

  0
TEXT
  5
1A69
330
2340
100
AcDbEntity
  8
2
100
AcDbText
 10
26.57647811243656
 20
44.86565621357089
 30
0.0
 40
3.5
  1
60
100
AcDbText
  0
ENDBLK
  5
1A6B
330
2340
100
AcDbEntity
  8
0
100
AcDbBlockEnd
  0
BLOCK
  5
2343
330
2342
100
AcDbEntity
  8
0
100
AcDbBlockBegin
  2
*D4
 70
     1
 10
0.0
 20
0.0
 30
0.0
  3
*D4
  1

  0
LINE
  5
196B
330
2342
100
AcDbEntity
  8
SK2
 62
     0
100
AcDbLine
 10
-48.39999999999964
 20
10.37868783880026
 30
0.0
 11
-48.39999999999964
 21
44.2331845337
 31
0.0
  0
LINE
  5
196C
330
2342
100
AcDbEntity
  8
SK2
 62
     0
100
AcDbLine
 10
0.0
 20
15.47474753889992
 30
0.0
 11
0.0000000000000018
 21
44.2331845337
 31
0.0
  0
LINE
  5
196D
330
2342
100
AcDbEntity
  8
SK2
 62
     0
100
AcDbLine
 10
-44.89999999999962
 20
44.05318453369999
 30
0.0
 11
-3.499999999999996
 21
44.05318453369999
 31
0.0
  0
INSERT
  5
196E
330
2342
100
AcDbEntity
  8
0
100
AcDbBlockReference
  2
*U5
 10
0.0
 20
0.0
 30
0.0
  0
SOLID
  5
196F
330
2342
100
AcDbEntity
  8
SK2
 62
     0
100
AcDbTrace
 10
-44.89999999999962
 20
44.63651786703334
 30
0.0
 11
-44.89999999999962
 21
43.46985120036666
 31
0.0
 12
-48.39999999999964
 22
44.05318453369999
 32
0.0
 13
-48.39999999999964
 23
44.05318453369999
 33
0.0
  0
SOLID
  5
1970
330
2342
100
AcDbEntity
  8
SK2
 62
     0
100
AcDbTrace
 10
-3.499999999999996
 20
44.63651786703334
 30
0.0
 11
-3.499999999999996
 21
43.46985120036666
 31
0.0
 12
0.0000000000000018
 22
44.05318453369999
 32
0.0
 13
0.0000000000000018
 23
44.05318453369999
 33
0.0
  0
POINT
  5
1971
330
2342
100
AcDbEntity
  8
DEFPOINTS
 62
     0
100
AcDbPoint
 10
-48.39999999999964
 20
10.31618783880026
 30
0.0
  0
POINT
  5
1972
330
2342
100
AcDbEntity
  8
DEFPOINTS
 62
     0
100
AcDbPoint
 10
0.0
 20
15.41224753889992
 30
0.0
  0
POINT
  5
1973
330
2342
100
AcDbEntity
  8
DEFPOINTS
 62
     0
100
AcDbPoint
 10
0.0000000000000018
 20
44.05318453369999
 30
0.0
  0
ENDBLK
  5
18D4
330
2342
100
AcDbEntity
  8
0
100
AcDbBlockEnd
  0
BLOCK
  5
2345
330
2344
100
AcDbEntity
  8
0
100
AcDbBlockBegin
  2
*U5
 70
     1
 10
0.0
 20
0.0
 30
0.0
  3
*U5
  1

  0
TEXT
  5
1A6D
330
2344
100
AcDbEntity
  8
SK2
100
AcDbText
 10
-31.73018861516793
 20
44.99203433457181
 30
0.0
 40
3.5
  1
48.4
100
AcDbText
  0
ENDBLK
  5
1A6F
330
2344
100
AcDbEntity
  8
0
100
AcDbBlockEnd
  0
BLOCK
  5
2347
330
2346
100
AcDbEntity
  8
0
100
AcDbBlockBegin
  2
*D6
 70
     1
 10
0.0
 20
0.0
 30
0.0
  3
*D6
  1

  0
LINE
  5
19BA
330
2346
100
AcDbEntity
  8
2
 62
     0
100
AcDbLine
 10
0.0
 20
15.47474753889992
 30
0.0
 11
0.0000000000000013
 21
36.11458243420105
 31
0.0
  0
LINE
  5
19BB
330
2346
100
AcDbEntity
  8
2
 62
     0
100
AcDbLine
 10
22.0
 20
23.962500000001
 30
0.0
 11
22.0
 21
36.11458243420105
 31
0.0
  0
LINE
  5
19BC
330
2346
100
AcDbEntity
  8
2
 62
     0
100
AcDbLine
 10
3.5
 20
35.93458243420105
 30
0.0
 11
18.5
 21
35.93458243420105
 31
0.0
  0
INSERT
  5
19BD
330
2346
100
AcDbEntity
  8
0
100
AcDbBlockReference
  2
*U7
 10
0.0
 20
0.0
 30
0.0
  0
SOLID
  5
19BE
330
2346
100
AcDbEntity
  8
2
 62
     0
100
AcDbTrace
 10
3.5
 20
36.51791576753439
 30
0.0
 11
3.5
 21
35.35124910086771
 31
0.0
 12
0.0000000000000013
 22
35.93458243420105
 32
0.0
 13
0.0000000000000013
 23
35.93458243420105
 33
0.0
  0
SOLID
  5
19BF
330
2346
100
AcDbEntity
  8
2
 62
     0
100
AcDbTrace
 10
18.5
 20
36.51791576753439
 30
0.0
 11
18.5
 21
35.35124910086771
 31
0.0
 12
22.0
 22
35.93458243420105
 32
0.0
 13
22.0
 23
35.93458243420105
 33
0.0
  0
POINT
  5
19C0
330
2346
100
AcDbEntity
  8
DEFPOINTS
 62
     0
100
AcDbPoint
 10
0.0
 20
15.41224753889992
 30
0.0
  0
POINT
  5
19C1
330
2346
100
AcDbEntity
  8
DEFPOINTS
 62
     0
100
AcDbPoint
 10
22.0
 20
23.900000000001
 30
0.0
  0
POINT
  5
19C2
330
2346
100
AcDbEntity
  8
DEFPOINTS
 62
     0
100
AcDbPoint
 10
22.0
 20
35.93458243420105
 30
0.0
  0
ENDBLK
  5
18E0
330
2346
100
AcDbEntity
  8
0
100
AcDbBlockEnd
  0
BLOCK
  5
2349
330
2348
100
AcDbEntity
  8
0
100
AcDbBlockBegin
  2
*U7
 70
     1
 10
0.0
 20
0.0
 30
0.0
  3
*U7
  1

  0
TEXT
  5
1A7F
330
2348
100
AcDbEntity
  8
2
100
AcDbText
 10
7.729649161784447
 20
36.72992496952907
 30
0.0
 40
3.5
  1
22
100
AcDbText
  0
ENDBLK
  5
1A81
330
2348
100
AcDbEntity
  8
0
100
AcDbBlockEnd
  0
BLOCK
  5
234B
330
234A
100
AcDbEntity
  8
0
100
AcDbBlockBegin
  2
*D8
 70
     1
 10
0.0
 20
0.0
 30
0.0
  3
*D8
  1

  0
LINE
  5
197D
330
234A
100
AcDbEntity
  8
SK2
 62
     0
100
AcDbLine
 10
1.037499999999909
 20
-22.99999999999863
 30
0.0
 11
-71.73780759629966
 21
-22.99999999999863
 31
0.0
  0
LINE
  5
197E
330
234A
100
AcDbEntity
  8
SK2
 62
     0
100
AcDbLine
 10
1.037499999999909
 20
23.00000000000137
 30
0.0
 11
-71.73780759629966
 21
23.00000000000137
 31
0.0
  0
LINE
  5
197F
330
234A
100
AcDbEntity
  8
SK2
 62
     0
100
AcDbLine
 10
-71.55780759629966
 20
-19.49999999999862
 30
0.0
 11
-71.55780759629966
 21
19.50000000000137
 31
0.0
  0
INSERT
  5
1980
330
234A
100
AcDbEntity
  8
0
100
AcDbBlockReference
  2
*U9
 10
0.0
 20
0.0
 30
0.0
  0
SOLID
  5
1981
330
234A
100
AcDbEntity
  8
SK2
 62
     0
100
AcDbTrace
 10
-72.14114092963298
 20
-19.49999999999861
 30
0.0
 11
-70.97447426296631
 21
-19.49999999999862
 31
0.0
 12
-71.55780759629966
 22
-22.99999999999863
 32
0.0
 13
-71.55780759629966
 23
-22.99999999999863
 33
0.0
  0
SOLID
  5
1982
330
234A
100
AcDbEntity
  8
SK2
 62
     0
100
AcDbTrace
 10
-72.14114092963298
 20
19.50000000000137
 30
0.0
 11
-70.97447426296631
 21
19.50000000000137
 31
0.0
 12
-71.55780759629966
 22
23.00000000000137
 32
0.0
 13
-71.55780759629966
 23
23.00000000000137
 33
0.0
  0
POINT
  5
1983
330
234A
100
AcDbEntity
  8
DEFPOINTS
 62
     0
100
AcDbPoint
 10
1.099999999999909
 20
-22.99999999999863
 30
0.0
  0
POINT
  5
1984
330
234A
100
AcDbEntity
  8
DEFPOINTS
 62
     0
100
AcDbPoint
 10
1.099999999999909
 20
23.00000000000137
 30
0.0
  0
POINT
  5
1985
330
234A
100
AcDbEntity
  8
DEFPOINTS
 62
     0
100
AcDbPoint
 10
-71.55780759629966
 20
23.00000000000137
 30
0.0
  0
ENDBLK
  5
18EC
330
234A
100
AcDbEntity
  8
0
100
AcDbBlockEnd
  0
BLOCK
  5
234D
330
234C
100
AcDbEntity
  8
0
100
AcDbBlockBegin
  2
*U9
 70
     1
 10
0.0
 20
0.0
 30
0.0
  3
*U9
  1

  0
TEXT
  5
1A71
330
234C
100
AcDbEntity
  8
SK2
100
AcDbText
 10
-72.26342445040393
 20
-5.551610435369664
 30
0.0
 40
3.5
  1
\U+220546
 50
90.0
100
AcDbText
  0
ENDBLK
  5
1A73
330
234C
100
AcDbEntity
  8
0
100
AcDbBlockEnd
  0
BLOCK
  5
234F
330
234E
100
AcDbEntity
  8
0
100
AcDbBlockBegin
  2
*D10
 70
     1
 10
0.0
 20
0.0
 30
0.0
  3
*D10
  1

  0
LINE
  5
1986
330
234E
100
AcDbEntity
  8
SK2
 62
     0
100
AcDbLine
 10
-1.5625
 20
15.87500000000136
 30
0.0
 11
-62.40446057479953
 21
15.87500000000138
 31
0.0
  0
LINE
  5
1987
330
234E
100
AcDbEntity
  8
SK2
 62
     0
100
AcDbLine
 10
-2.462500000000087
 20
-15.875
 30
0.0
 11
-62.40446057479953
 21
-15.87499999999998
 31
0.0
  0
LINE
  5
1988
330
234E
100
AcDbEntity
  8
SK2
 62
     0
100
AcDbLine
 10
-62.22446057479952
 20
12.37500000000138
 30
0.0
 11
-62.22446057479952
 21
-12.37499999999998
 31
0.0
  0
INSERT
  5
1989
330
234E
100
AcDbEntity
  8
0
100
AcDbBlockReference
  2
*U11
 10
0.0
 20
0.0
 30
0.0
  0
SOLID
  5
198A
330
234E
100
AcDbEntity
  8
SK2
 62
     0
100
AcDbTrace
 10
-62.80779390813286
 20
12.37500000000138
 30
0.0
 11
-61.64112724146621
 21
12.37500000000138
 31
0.0
 12
-62.22446057479952
 22
15.87500000000138
 32
0.0
 13
-62.22446057479952
 23
15.87500000000138
 33
0.0
  0
SOLID
  5
198B
330
234E
100
AcDbEntity
  8
SK2
 62
     0
100
AcDbTrace
 10
-62.80779390813286
 20
-12.37499999999998
 30
0.0
 11
-61.64112724146621
 21
-12.37499999999998
 31
0.0
 12
-62.22446057479952
 22
-15.87499999999998
 32
0.0
 13
-62.22446057479952
 23
-15.87499999999998
 33
0.0
  0
POINT
  5
198C
330
234E
100
AcDbEntity
  8
DEFPOINTS
 62
     0
100
AcDbPoint
 10
-1.5
 20
15.87500000000136
 30
0.0
  0
POINT
  5
198D
330
234E
100
AcDbEntity
  8
DEFPOINTS
 62
     0
100
AcDbPoint
 10
-2.400000000000087
 20
-15.875
 30
0.0
  0
POINT
  5
198E
330
234E
100
AcDbEntity
  8
DEFPOINTS
 62
     0
100
AcDbPoint
 10
-62.22446057479952
 20
-15.87499999999998
 30
0.0
  0
ENDBLK
  5
18F8
330
234E
100
AcDbEntity
  8
0
100
AcDbBlockEnd
  0
BLOCK
  5
2351
330
2350
100
AcDbEntity
  8
0
100
AcDbBlockBegin
  2
*U11
 70
     1
 10
0.0
 20
0.0
 30
0.0
  3
*U11
  1

  0
TEXT
  5
1A75
330
2350
100
AcDbEntity
  8
SK2
100
AcDbText
 10
-62.89373359312481
 20
-8.412806503916682
 30
0.0
 40
3.5
  1
\U+220531.75
 50
90.0
100
AcDbText
  0
ENDBLK
  5
1A77
330
2350
100
AcDbEntity
  8
0
100
AcDbBlockEnd
  0
BLOCK
  5
2353
330
2352
100
AcDbEntity
  8
0
100
AcDbBlockBegin
  2
*D12
 70
     1
 10
0.0
 20
0.0
 30
0.0
  3
*D12
  1

  0
LINE
  5
198F
330
2352
100
AcDbEntity
  8
SK2
 62
     0
100
AcDbLine
 10
-42.40949999999964
 20
-5.999999999998633
 30
0.0
 11
-55.42437952949961
 21
-5.999999999998633
 31
0.0
  0
LINE
  5
1990
330
2352
100
AcDbEntity
  8
SK2
 62
     0
100
AcDbLine
 10
-42.40949999999964
 20
6.0
 30
0.0
 11
-55.42437952949961
 21
6.0
 31
0.0
  0
LINE
  5
1991
330
2352
100
AcDbEntity
  8
SK2
 62
     0
100
AcDbLine
 10
-55.24437952949959
 20
-2.499999999998629
 30
0.0
 11
-55.24437952949959
 21
2.500000000000003
 31
0.0
  0
INSERT
  5
1992
330
2352
100
AcDbEntity
  8
0
100
AcDbBlockReference
  2
*U13
 10
0.0
 20
0.0
 30
0.0
  0
SOLID
  5
1993
330
2352
100
AcDbEntity
  8
SK2
 62
     0
100
AcDbTrace
 10
-55.82771286283294
 20
-2.499999999998629
 30
0.0
 11
-54.66104619616626
 21
-2.499999999998629
 31
0.0
 12
-55.24437952949959
 22
-5.999999999998633
 32
0.0
 13
-55.24437952949959
 23
-5.999999999998633
 33
0.0
  0
SOLID
  5
1994
330
2352
100
AcDbEntity
  8
SK2
 62
     0
100
AcDbTrace
 10
-55.82771286283294
 20
2.500000000000003
 30
0.0
 11
-54.66104619616626
 21
2.500000000000003
 31
0.0
 12
-55.24437952949959
 22
6.0
 32
0.0
 13
-55.24437952949959
 23
6.0
 33
0.0
  0
POINT
  5
1995
330
2352
100
AcDbEntity
  8
DEFPOINTS
 62
     0
100
AcDbPoint
 10
-42.34699999999963
 20
-5.999999999998633
 30
0.0
  0
POINT
  5
1996
330
2352
100
AcDbEntity
  8
DEFPOINTS
 62
     0
100
AcDbPoint
 10
-42.34699999999963
 20
6.0
 30
0.0
  0
POINT
  5
1997
330
2352
100
AcDbEntity
  8
DEFPOINTS
 62
     0
100
AcDbPoint
 10
-55.24437952949959
 20
6.0
 30
0.0
  0
ENDBLK
  5
1904
330
2352
100
AcDbEntity
  8
0
100
AcDbBlockEnd
  0
BLOCK
  5
2355
330
2354
100
AcDbEntity
  8
0
100
AcDbBlockBegin
  2
*U13
 70
     1
 10
0.0
 20
0.0
 30
0.0
  3
*U13
  1

  0
TEXT
  5
1A79
330
2354
100
AcDbEntity
  8
SK2
100
AcDbText
 10
-56.22137771621806
 20
-4.122943178965763
 30
0.0
 40
3.5
  1
M12
 50
90.0
100
AcDbText
  0
ENDBLK
  5
1A7B
330
2354
100
AcDbEntity
  8
0
100
AcDbBlockEnd
  0
BLOCK
  5
2357
330
2356
100
AcDbEntity
  8
0
100
AcDbBlockBegin
  2
*D14
 70
     1
 10
0.0
 20
0.0
 30
0.0
  3
*D14
  1

  0
LINE
  5
1959
330
2356
100
AcDbEntity
  8
SK2
 62
     0
100
AcDbLine
 10
57.52149999999982
 20
-17.0
 30
0.0
 11
75.05248683719099
 21
-17.0
 31
0.0
  0
LINE
  5
195A
330
2356
100
AcDbEntity
  8
SK2
 62
     0
100
AcDbLine
 10
57.52149999999982
 20
17.0
 30
0.0
 11
75.05248683719099
 21
17.0
 31
0.0
  0
LINE
  5
195B
330
2356
100
AcDbEntity
  8
SK2
 62
     0
100
AcDbLine
 10
74.87248683719098
 20
-13.5
 30
0.0
 11
74.87248683719098
 21
13.5
 31
0.0
  0
INSERT
  5
195C
330
2356
100
AcDbEntity
  8
0
100
AcDbBlockReference
  2
*U15
 10
0.0
 20
0.0
 30
0.0
  0
SOLID
  5
195D
330
2356
100
AcDbEntity
  8
SK2
 62
     0
100
AcDbTrace
 10
74.28915350385766
 20
-13.5
 30
0.0
 11
75.45582017052431
 21
-13.5
 31
0.0
 12
74.87248683719098
 22
-17.0
 32
0.0
 13
74.87248683719098
 23
-17.0
 33
0.0
  0
SOLID
  5
195E
330
2356
100
AcDbEntity
  8
SK2
 62
     0
100
AcDbTrace
 10
74.28915350385766
 20
13.5
 30
0.0
 11
75.45582017052431
 21
13.5
 31
0.0
 12
74.87248683719098
 22
17.0
 32
0.0
 13
74.87248683719098
 23
17.0
 33
0.0
  0
POINT
  5
195F
330
2356
100
AcDbEntity
  8
DEFPOINTS
 62
     0
100
AcDbPoint
 10
57.45899999999982
 20
-17.0
 30
0.0
  0
POINT
  5
1960
330
2356
100
AcDbEntity
  8
DEFPOINTS
 62
     0
100
AcDbPoint
 10
57.45899999999982
 20
17.0
 30
0.0
  0
POINT
  5
1961
330
2356
100
AcDbEntity
  8
DEFPOINTS
 62
     0
100
AcDbPoint
 10
74.87248683719098
 20
17.0
 30
0.0
  0
ENDBLK
  5
1910
330
2356
100
AcDbEntity
  8
0
100
AcDbBlockEnd
  0
BLOCK
  5
2359
330
2358
100
AcDbEntity
  8
0
100
AcDbBlockBegin
  2
*U15
 70
     1
 10
0.0
 20
0.0
 30
0.0
  3
*U15
  1

  0
TEXT
  5
1A65
330
2358
100
AcDbEntity
  8
SK2
100
AcDbText
 10
74.20886536071794
 20
-5.288761393091768
 30
0.0
 40
3.5
  1
\U+220534
 50
90.0
100
AcDbText
  0
ENDBLK
  5
1A67
330
2358
100
AcDbEntity
  8
0
100
AcDbBlockEnd
  0
BLOCK
  5
235B
330
235A
100
AcDbEntity
  8
0
100
AcDbBlockBegin
  2
_FILLED
 70
     0
 10
0.0
 20
0.0
 30
0.0
  3
_FILLED
  1

  0
SOLID
  5
1CC2
330
235A
100
AcDbEntity
  8
0
  6
ByBlock
 62
     0
100
AcDbTrace
 10
0.0
 20
0.0
 30
0.0
 11
-1.0
 21
0.125
 31
0.0
 12
-1.0
 22
-0.125
 32
0.0
 13
-1.0
 23
-0.125
 33
0.0
  0
ENDBLK
  5
1CC3
330
235A
100
AcDbEntity
  8
0
  6
ByBlock
 62
     0
100
AcDbBlockEnd
  0
BLOCK
  5
235D
330
235C
100
AcDbEntity
  8
1
  6
Continuous
 62
     2
100
AcDbBlockBegin
  2
*D17
 70
     1
 10
0.0
 20
0.0
 30
0.0
  3
*D17
  1

  0
INSERT
  5
1CC6
330
235C
100
AcDbEntity
  8
0
100
AcDbBlockReference
  2
*U18
 10
0.0
 20
0.0
 30
0.0
  0
LINE
  5
1CC7
330
235C
100
AcDbEntity
  8
1
  6
Continuous
 62
     2
100
AcDbLine
 10
241.5589713607
 20
9.4223977364
 30
0.0
 11
259.0137191236
 21
9.4223977364
 31
0.0
  0
LINE
  5
1CC8
330
235C
100
AcDbEntity
  8
1
  6
Continuous
 62
     2
100
AcDbLine
 10
241.5589713607
 20
59.4223977364
 30
0.0
 11
259.0137191236
 21
59.4223977364
 31
0.0
  0
LINE
  5
1CC9
330
235C
100
AcDbEntity
  8
1
  6
Continuous
 62
     2
100
AcDbLine
 10
257.5137191236
 20
9.4223977364
 30
0.0
 11
257.5137191236
 21
34.4223977364
 31
0.0
  0
LINE
  5
1CCA
330
235C
100
AcDbEntity
  8
1
  6
Continuous
 62
     2
100
AcDbLine
 10
257.5137191236
 20
59.4223977364
 30
0.0
 11
257.5137191236
 21
34.4223977364
 31
0.0
  0
INSERT
  5
1CCB
330
235C
100
AcDbEntity
  8
1
  6
Continuous
 62
     2
100
AcDbBlockReference
  2
_FILLED
 10
257.5137191236
 20
9.4223977364
 30
0.0
 41
3.5
 42
3.5
 43
3.5
 50
270.0
  0
INSERT
  5
1CCC
330
235C
100
AcDbEntity
  8
1
  6
Continuous
 62
     2
100
AcDbBlockReference
  2
_FILLED
 10
257.5137191236
 20
59.4223977364
 30
0.0
 41
3.5
 42
3.5
 43
3.5
 50
90.0
  0
ENDBLK
  5
1CCD
330
235C
100
AcDbEntity
  8
0
  6
ByBlock
 62
     0
100
AcDbBlockEnd
  0
BLOCK
  5
235F
330
235E
100
AcDbEntity
  8
0
100
AcDbBlockBegin
  2
*U18
 70
     1
 10
0.0
 20
0.0
 30
0.0
  3
*U18
  1

  0
TEXT
  5
1FAB
330
235E
100
AcDbEntity
  8
1
 62
     2
100
AcDbText
 10
257.4720524569333
 20
31.6620973356
 30
0.0
 40
3.5
  1
n
 50
90.0
 41
0.72
  7
TEXTSTYLE_3
100
AcDbText
  0
TEXT
  5
1FAC
330
235E
100
AcDbEntity
  8
1
 62
     2
100
AcDbText
 10
257.4720524569333
 20
34.5420973356
 30
0.0
 40
3.5
  1
50
 50
90.0
 41
0.72
  7
TEXTSTYLE_3
100
AcDbText
  0
ENDBLK
  5
1FAE
330
235E
100
AcDbEntity
  8
0
100
AcDbBlockEnd
  0
BLOCK
  5
2361
330
2360
100
AcDbEntity
  8
1
  6
Continuous
 62
     2
100
AcDbBlockBegin
  2
*D19
 70
     1
 10
0.0
 20
0.0
 30
0.0
  3
*D19
  1

  0
INSERT
  5
1CD0
330
2360
100
AcDbEntity
  8
0
100
AcDbBlockReference
  2
*U20
 10
0.0
 20
0.0
 30
0.0
  0
LINE
  5
1CD1
330
2360
100
AcDbEntity
  8
1
  6
Continuous
 62
     2
100
AcDbLine
 10
84.09997136069998
 20
56.7980867651
 30
0.0
 11
84.09997136069998
 21
83.36094537900001
 31
0.0
  0
LINE
  5
1CD2
330
2360
100
AcDbEntity
  8
1
  6
Continuous
 62
     2
100
AcDbLine
 10
15.8499713607
 20
48.19427391619999
 30
0.0
 11
15.8499713607
 21
83.36094537900001
 31
0.0
  0
LINE
  5
1CD3
330
2360
100
AcDbEntity
  8
1
  6
Continuous
 62
     2
100
AcDbLine
 10
84.09997136069998
 20
81.860945379
 30
0.0
 11
49.97497136069999
 21
81.860945379
 31
0.0
  0
LINE
  5
1CD4
330
2360
100
AcDbEntity
  8
1
  6
Continuous
 62
     2
100
AcDbLine
 10
15.8499713607
 20
81.860945379
 30
0.0
 11
49.97497136069999
 21
81.860945379
 31
0.0
  0
INSERT
  5
1CD5
330
2360
100
AcDbEntity
  8
1
  6
Continuous
 62
     2
100
AcDbBlockReference
  2
_FILLED
 10
84.09997136069998
 20
81.860945379
 30
0.0
 41
3.5
 42
3.5
 43
3.5
  0
INSERT
  5
1CD6
330
2360
100
AcDbEntity
  8
1
  6
Continuous
 62
     2
100
AcDbBlockReference
  2
_FILLED
 10
15.8499713607
 20
81.860945379
 30
0.0
 41
3.5
 42
3.5
 43
3.5
 50
180.0
  0
ENDBLK
  5
1CD7
330
2360
100
AcDbEntity
  8
0
  6
ByBlock
 62
     0
100
AcDbBlockEnd
  0
BLOCK
  5
2363
330
2362
100
AcDbEntity
  8
0
100
AcDbBlockBegin
  2
*U20
 70
     1
 10
0.0
 20
0.0
 30
0.0
  3
*U20
  1

  0
TEXT
  5
1FB0
330
2362
100
AcDbEntity
  8
1
 62
     2
100
AcDbText
 10
46.1299893842
 20
82.73594537900001
 30
0.0
 40
3.5
  1
68.25
 41
0.72
  7
TEXTSTYLE_2
100
AcDbText
  0
ENDBLK
  5
1FB2
330
2362
100
AcDbEntity
  8
0
100
AcDbBlockEnd
  0
BLOCK
  5
2365
330
2364
100
AcDbEntity
  8
1
  6
Continuous
 62
     2
100
AcDbBlockBegin
  2
*D21
 70
     1
 10
0.0
 20
0.0
 30
0.0
  3
*D21
  1

  0
INSERT
  5
1CDA
330
2364
100
AcDbEntity
  8
0
100
AcDbBlockReference
  2
*U22
 10
0.0
 20
0.0
 30
0.0
  0
LINE
  5
1CDB
330
2364
100
AcDbEntity
  8
1
  6
Continuous
 62
     2
100
AcDbLine
 10
84.09997136069998
 20
56.4326726283
 30
0.0
 11
84.09997136069998
 21
83.36094537900001
 31
0.0
  0
LINE
  5
1CDC
330
2364
100
AcDbEntity
  8
1
  6
Continuous
 62
     2
100
AcDbLine
 10
244.0999713607
 20
53.9223977364
 30
0.0
 11
244.0999713607
 21
83.36094537900001
 31
0.0
  0
LINE
  5
1CDD
330
2364
100
AcDbEntity
  8
1
  6
Continuous
 62
     2
100
AcDbLine
 10
84.09997136069998
 20
81.860945379
 30
0.0
 11
164.0999713607
 21
81.860945379
 31
0.0
  0
LINE
  5
1CDE
330
2364
100
AcDbEntity
  8
1
  6
Continuous
 62
     2
100
AcDbLine
 10
244.0999713607
 20
81.860945379
 30
0.0
 11
164.0999713607
 21
81.860945379
 31
0.0
  0
INSERT
  5
1CDF
330
2364
100
AcDbEntity
  8
1
  6
Continuous
 62
     2
100
AcDbBlockReference
  2
_FILLED
 10
84.09997136069998
 20
81.860945379
 30
0.0
 41
3.5
 42
3.5
 43
3.5
 50
180.0
  0
INSERT
  5
1CE0
330
2364
100
AcDbEntity
  8
1
  6
Continuous
 62
     2
100
AcDbBlockReference
  2
_FILLED
 10
244.0999713607
 20
81.860945379
 30
0.0
 41
3.5
 42
3.5
 43
3.5
  0
ENDBLK
  5
1CE1
330
2364
100
AcDbEntity
  8
0
  6
ByBlock
 62
     0
100
AcDbBlockEnd
  0
BLOCK
  5
2367
330
2366
100
AcDbEntity
  8
0
100
AcDbBlockBegin
  2
*U22
 70
     1
 10
0.0
 20
0.0
 30
0.0
  3
*U22
  1

  0
TEXT
  5
1FB4
330
2366
100
AcDbEntity
  8
1
 62
     2
100
AcDbText
 10
170.032249543
 20
82.73594537900001
 30
0.0
 40
3.5
  1
160
 41
0.72
  7
TEXTSTYLE_2
100
AcDbText
  0
ENDBLK
  5
1FB6
330
2366
100
AcDbEntity
  8
0
100
AcDbBlockEnd
  0
BLOCK
  5
2369
330
2368
100
AcDbEntity
  8
1
  6
Continuous
 62
     2
100
AcDbBlockBegin
  2
*D23
 70
     1
 10
0.0
 20
0.0
 30
0.0
  3
*D23
  1

  0
INSERT
  5
1CE4
330
2368
100
AcDbEntity
  8
0
100
AcDbBlockReference
  2
*U24
 10
0.0
 20
0.0
 30
0.0
  0
LINE
  5
1CE5
330
2368
100
AcDbEntity
  8
1
  6
Continuous
 62
     2
100
AcDbLine
 10
103.1999713607
 20
66.94739773640001
 30
0.0
 11
103.1999713607
 21
75.18743670560001
 31
0.0
  0
LINE
  5
1CE6
330
2368
100
AcDbEntity
  8
1
  6
Continuous
 62
     2
100
AcDbLine
 10
84.09997136069998
 20
56.7980867651
 30
0.0
 11
84.09997136069998
 21
75.18743670560001
 31
0.0
  0
LINE
  5
1CE7
330
2368
100
AcDbEntity
  8
1
  6
Continuous
 62
     2
100
AcDbLine
 10
103.1999713607
 20
73.6874367056
 30
0.0
 11
93.6499713607
 21
73.6874367056
 31
0.0
  0
LINE
  5
1CE8
330
2368
100
AcDbEntity
  8
1
  6
Continuous
 62
     2
100
AcDbLine
 10
84.09997136069998
 20
73.6874367056
 30
0.0
 11
93.6499713607
 21
73.6874367056
 31
0.0
  0
INSERT
  5
1CE9
330
2368
100
AcDbEntity
  8
1
  6
Continuous
 62
     2
100
AcDbBlockReference
  2
_FILLED
 10
103.1999713607
 20
73.6874367056
 30
0.0
 41
3.5
 42
3.5
 43
3.5
  0
INSERT
  5
1CEA
330
2368
100
AcDbEntity
  8
1
  6
Continuous
 62
     2
100
AcDbBlockReference
  2
_FILLED
 10
84.09997136069998
 20
73.6874367056
 30
0.0
 41
3.5
 42
3.5
 43
3.5
 50
180.0
  0
ENDBLK
  5
1CEB
330
2368
100
AcDbEntity
  8
0
  6
ByBlock
 62
     0
100
AcDbBlockEnd
  0
BLOCK
  5
236B
330
236A
100
AcDbEntity
  8
0
100
AcDbBlockBegin
  2
*U24
 70
     1
 10
0.0
 20
0.0
 30
0.0
  3
*U24
  1

  0
TEXT
  5
1FB8
330
236A
100
AcDbEntity
  8
1
 62
     2
100
AcDbText
 10
91.59438246290001
 20
74.56243670560001
 30
0.0
 40
3.5
  1
19.1
 41
0.72
  7
TEXTSTYLE_2
100
AcDbText
  0
ENDBLK
  5
1FBA
330
236A
100
AcDbEntity
  8
0
100
AcDbBlockEnd
  0
BLOCK
  5
236D
330
236C
100
AcDbEntity
  8
1
  6
Continuous
 62
     2
100
AcDbBlockBegin
  2
*D25
 70
     1
 10
0.0
 20
0.0
 30
0.0
  3
*D25
  1

  0
INSERT
  5
1CEE
330
236C
100
AcDbEntity
  8
0
100
AcDbBlockReference
  2
*U26
 10
0.0
 20
0.0
 30
0.0
  0
LINE
  5
1CEF
330
236C
100
AcDbEntity
  8
1
  6
Continuous
 62
     2
100
AcDbLine
 10
82.59997136069998
 20
12.1973977364
 30
0.0
 11
0.0
 21
12.1973977364
 31
0.0
  0
LINE
  5
1CF0
330
236C
100
AcDbEntity
  8
1
  6
Continuous
 62
     2
100
AcDbLine
 10
82.59997136069998
 20
56.6473977364
 30
0.0
 11
0.0
 21
56.6473977364
 31
0.0
  0
LINE
  5
1CF1
330
236C
100
AcDbEntity
  8
1
  6
Continuous
 62
     2
100
AcDbLine
 10
1.5
 20
12.1973977364
 30
0.0
 11
1.5
 21
34.4223977364
 31
0.0
  0
LINE
  5
1CF2
330
236C
100
AcDbEntity
  8
1
  6
Continuous
 62
     2
100
AcDbLine
 10
1.5
 20
56.6473977364
 30
0.0
 11
1.5
 21
34.4223977364
 31
0.0
  0
INSERT
  5
1CF3
330
236C
100
AcDbEntity
  8
1
  6
Continuous
 62
     2
100
AcDbBlockReference
  2
_FILLED
 10
1.5
 20
12.1973977364
 30
0.0
 41
3.5
 42
3.5
 43
3.5
 50
270.0
  0
INSERT
  5
1CF4
330
236C
100
AcDbEntity
  8
1
  6
Continuous
 62
     2
100
AcDbBlockReference
  2
_FILLED
 10
1.5
 20
56.6473977364
 30
0.0
 41
3.5
 42
3.5
 43
3.5
 50
90.0
  0
ENDBLK
  5
1CF5
330
236C
100
AcDbEntity
  8
0
  6
ByBlock
 62
     0
100
AcDbBlockEnd
  0
BLOCK
  5
236F
330
236E
100
AcDbEntity
  8
0
100
AcDbBlockBegin
  2
*U26
 70
     1
 10
0.0
 20
0.0
 30
0.0
  3
*U26
  1

  0
TEXT
  5
1FBC
330
236E
100
AcDbEntity
  8
1
 62
     2
100
AcDbText
 10
1.458333333333333
 20
29.4777148401
 30
0.0
 40
3.5
  1
n
 50
90.0
 41
0.72
  7
TEXTSTYLE_3
100
AcDbText
  0
TEXT
  5
1FBD
330
236E
100
AcDbEntity
  8
1
 62
     2
100
AcDbText
 10
1.458333333333333
 20
32.3577148401
 30
0.0
 40
3.5
  1
44,45
 50
90.0
 41
0.72
  7
TEXTSTYLE_3
100
AcDbText
  0
ENDBLK
  5
1FBF
330
236E
100
AcDbEntity
  8
0
100
AcDbBlockEnd
  0
BLOCK
  5
2371
330
2370
100
AcDbEntity
  8
1
  6
Continuous
 62
     2
100
AcDbBlockBegin
  2
*D27
 70
     1
 10
0.0
 20
0.0
 30
0.0
  3
*D27
  1

  0
INSERT
  5
1CF8
330
2370
100
AcDbEntity
  8
0
100
AcDbBlockReference
  2
*U28
 10
0.0
 20
0.0
 30
0.0
  0
LINE
  5
1CF9
330
2370
100
AcDbEntity
  8
1
  6
Continuous
 62
     2
100
AcDbLine
 10
19.6924713607
 20
42.3598977364
 30
0.0
 11
6.644849012599999
 21
42.3598977364
 31
0.0
  0
LINE
  5
1CFA
330
2370
100
AcDbEntity
  8
1
  6
Continuous
 62
     2
100
AcDbLine
 10
19.6924713607
 20
26.4848977364
 30
0.0
 11
6.644849012599999
 21
26.4848977364
 31
0.0
  0
LINE
  5
1CFB
330
2370
100
AcDbEntity
  8
1
  6
Continuous
 62
     2
100
AcDbLine
 10
8.144849012599998
 20
42.3598977364
 30
0.0
 11
8.144849012599998
 21
34.4223977364
 31
0.0
  0
LINE
  5
1CFC
330
2370
100
AcDbEntity
  8
1
  6
Continuous
 62
     2
100
AcDbLine
 10
8.144849012599998
 20
26.4848977364
 30
0.0
 11
8.144849012599998
 21
34.4223977364
 31
0.0
  0
INSERT
  5
1CFD
330
2370
100
AcDbEntity
  8
1
  6
Continuous
 62
     2
100
AcDbBlockReference
  2
_FILLED
 10
8.144849012599998
 20
42.3598977364
 30
0.0
 41
3.5
 42
3.5
 43
3.5
 50
90.0
  0
INSERT
  5
1CFE
330
2370
100
AcDbEntity
  8
1
  6
Continuous
 62
     2
100
AcDbBlockReference
  2
_FILLED
 10
8.144849012599998
 20
26.4848977364
 30
0.0
 41
3.5
 42
3.5
 43
3.5
 50
270.0
  0
ENDBLK
  5
1CFF
330
2370
100
AcDbEntity
  8
0
  6
ByBlock
 62
     0
100
AcDbBlockEnd
  0
BLOCK
  5
2373
330
2372
100
AcDbEntity
  8
0
100
AcDbBlockBegin
  2
*U28
 70
     1
 10
0.0
 20
0.0
 30
0.0
  3
*U28
  1

  0
TEXT
  5
1FC1
330
2372
100
AcDbEntity
  8
1
 62
     2
100
AcDbText
 10
7.269849012599999
 20
16.3887900153
 30
0.0
 40
3.5
  1
5/8-11UNC 2B
 50
90.0
  7
TEXTSTYLE_4
100
AcDbText
  0
ENDBLK
  5
1FC3
330
2372
100
AcDbEntity
  8
0
100
AcDbBlockEnd
  0
BLOCK
  5
2375
330
2374
100
AcDbEntity
  8
0
100
AcDbBlockBegin
  2
*D29
 70
     1
 10
0.0
 20
0.0
 30
0.0
  3
*D29
  1

  0
LINE
  5
1F23
330
2374
100
AcDbEntity
  8
SK2
  6
Continuous
 62
     0
100
AcDbLine
 10
357.0642270627978
 20
15.83643672717567
 30
0.0
 11
371.5988001341979
 21
15.83643672717566
 31
0.0
  0
LINE
  5
1F24
330
2374
100
AcDbEntity
  8
SK2
  6
Continuous
 62
     0
100
AcDbLine
 10
357.0642270627978
 20
65.83643672717568
 30
0.0
 11
371.5988001341979
 21
65.83643672717568
 31
0.0
  0
LINE
  5
1F25
330
2374
100
AcDbEntity
  8
SK2
  6
Continuous
 62
     0
100
AcDbLine
 10
371.4188001341979
 20
19.33643672717565
 30
0.0
 11
371.4188001341979
 21
62.33643672717565
 31
0.0
  0
INSERT
  5
1F26
330
2374
100
AcDbEntity
  8
SK2
  6
Continuous
 62
     0
100
AcDbBlockReference
  2
_FILLED
 10
371.4188001341979
 20
15.83643672717566
 30
0.0
 41
3.5
 42
3.5
 43
3.5
 50
270.0
  0
INSERT
  5
1F27
330
2374
100
AcDbEntity
  8
SK2
  6
Continuous
 62
     0
100
AcDbBlockReference
  2
_FILLED
 10
371.4188001341979
 20
65.83643672717568
 30
0.0
 41
3.5
 42
3.5
 43
3.5
 50
90.0
  0
INSERT
  5
1F28
330
2374
100
AcDbEntity
  8
0
100
AcDbBlockReference
  2
*U30
 10
0.0
 20
0.0
 30
0.0
  0
POINT
  5
1F29
330
2374
100
AcDbEntity
  8
DEFPOINTS
  6
Continuous
 62
     0
100
AcDbPoint
 10
357.0017270627978
 20
15.83643672717567
 30
0.0
  0
POINT
  5
1F2A
330
2374
100
AcDbEntity
  8
DEFPOINTS
  6
Continuous
 62
     0
100
AcDbPoint
 10
357.0017270627978
 20
65.83643672717568
 30
0.0
  0
POINT
  5
1F2B
330
2374
100
AcDbEntity
  8
DEFPOINTS
  6
Continuous
 62
     0
100
AcDbPoint
 10
371.4188001341979
 20
65.83643672717568
 30
0.0
  0
ENDBLK
  5
1E33
330
2374
100
AcDbEntity
  8
0
100
AcDbBlockEnd
  0
BLOCK
  5
2377
330
2376
100
AcDbEntity
  8
0
100
AcDbBlockBegin
  2
*U30
 70
     1
 10
0.0
 20
0.0
 30
0.0
  3
*U30
  1

  0
TEXT
  5
1FD9
330
2376
100
AcDbEntity
  8
SK2
 62
     0
100
AcDbText
 10
371.3288001341978
 20
36.14670442267567
 30
0.0
 40
3.5
  1
\U+220550
 50
90.0
 41
0.72
  7
TEXTSTYLE_2
100
AcDbText
  0
ENDBLK
  5
1FDB
330
2376
100
AcDbEntity
  8
0
100
AcDbBlockEnd
  0
BLOCK
  5
2379
330
2378
100
AcDbEntity
  8
0
100
AcDbBlockBegin
  2
*D31
 70
     1
 10
0.0
 20
0.0
 30
0.0
  3
*D31
  1

  0
LINE
  5
1F07
330
2378
100
AcDbEntity
  8
SK2
  6
Continuous
 62
     0
100
AcDbLine
 10
199.5427270627978
 20
63.27462575587567
 30
0.0
 11
199.5427270627978
 21
91.0799843697757
 31
0.0
  0
LINE
  5
1F08
330
2378
100
AcDbEntity
  8
SK2
  6
Continuous
 62
     0
100
AcDbLine
 10
131.2927270627977
 20
54.67081290697566
 30
0.0
 11
131.2927270627977
 21
91.0799843697757
 31
0.0
  0
LINE
  5
1F09
330
2378
100
AcDbEntity
  8
SK2
  6
Continuous
 62
     0
100
AcDbLine
 10
196.0427270627978
 20
90.89998436977564
 30
0.0
 11
134.7927270627978
 21
90.89998436977564
 31
0.0
  0
INSERT
  5
1F0A
330
2378
100
AcDbEntity
  8
SK2
  6
Continuous
 62
     0
100
AcDbBlockReference
  2
_FILLED
 10
199.5427270627978
 20
90.89998436977564
 30
0.0
 41
3.5
 42
3.5
 43
3.5
  0
INSERT
  5
1F0B
330
2378
100
AcDbEntity
  8
SK2
  6
Continuous
 62
     0
100
AcDbBlockReference
  2
_FILLED
 10
131.2927270627977
 20
90.89998436977564
 30
0.0
 41
3.5
 42
3.5
 43
3.5
 50
180.0
  0
INSERT
  5
1F0C
330
2378
100
AcDbEntity
  8
0
100
AcDbBlockReference
  2
*U32
 10
0.0
 20
0.0
 30
0.0
  0
POINT
  5
1F0D
330
2378
100
AcDbEntity
  8
DEFPOINTS
  6
Continuous
 62
     0
100
AcDbPoint
 10
199.5427270627978
 20
63.21212575587566
 30
0.0
  0
POINT
  5
1F0E
330
2378
100
AcDbEntity
  8
DEFPOINTS
  6
Continuous
 62
     0
100
AcDbPoint
 10
131.2927270627977
 20
54.60831290697566
 30
0.0
  0
POINT
  5
1F0F
330
2378
100
AcDbEntity
  8
DEFPOINTS
  6
Continuous
 62
     0
100
AcDbPoint
 10
131.2927270627977
 20
90.89998436977564
 30
0.0
  0
ENDBLK
  5
1E3F
330
2378
100
AcDbEntity
  8
0
100
AcDbBlockEnd
  0
BLOCK
  5
237B
330
237A
100
AcDbEntity
  8
0
100
AcDbBlockBegin
  2
*U32
 70
     1
 10
0.0
 20
0.0
 30
0.0
  3
*U32
  1

  0
TEXT
  5
1FCD
330
237A
100
AcDbEntity
  8
SK2
 62
     0
100
AcDbText
 10
155.2727450862978
 20
90.98998436977565
 30
0.0
 40
3.5
  1
68.25
 41
0.72
  7
TEXTSTYLE_2
100
AcDbText
  0
ENDBLK
  5
1FCF
330
237A
100
AcDbEntity
  8
0
100
AcDbBlockEnd
  0
BLOCK
  5
237D
330
237C
100
AcDbEntity
  8
0
100
AcDbBlockBegin
  2
*D33
 70
     1
 10
0.0
 20
0.0
 30
0.0
  3
*D33
  1

  0
LINE
  5
1F2C
330
237C
100
AcDbEntity
  8
2
  6
Continuous
 62
     0
100
AcDbLine
 10
199.5427270627978
 20
62.90921161907566
 30
0.0
 11
199.5427270627978
 21
91.0799843697757
 31
0.0
  0
LINE
  5
1F2D
330
237C
100
AcDbEntity
  8
2
  6
Continuous
 62
     0
100
AcDbLine
 10
359.5427270627978
 20
60.39893672717568
 30
0.0
 11
359.5427270627978
 21
91.0799843697757
 31
0.0
  0
LINE
  5
1F2E
330
237C
100
AcDbEntity
  8
2
  6
Continuous
 62
     0
100
AcDbLine
 10
203.0427270627978
 20
90.89998436977564
 30
0.0
 11
356.0427270627978
 21
90.89998436977564
 31
0.0
  0
INSERT
  5
1F2F
330
237C
100
AcDbEntity
  8
2
  6
Continuous
 62
     0
100
AcDbBlockReference
  2
_FILLED
 10
199.5427270627978
 20
90.89998436977564
 30
0.0
 41
3.5
 42
3.5
 43
3.5
 50
180.0
  0
INSERT
  5
1F30
330
237C
100
AcDbEntity
  8
2
  6
Continuous
 62
     0
100
AcDbBlockReference
  2
_FILLED
 10
359.5427270627978
 20
90.89998436977564
 30
0.0
 41
3.5
 42
3.5
 43
3.5
  0
INSERT
  5
1F31
330
237C
100
AcDbEntity
  8
0
100
AcDbBlockReference
  2
*U34
 10
0.0
 20
0.0
 30
0.0
  0
POINT
  5
1F32
330
237C
100
AcDbEntity
  8
DEFPOINTS
  6
Continuous
 62
     0
100
AcDbPoint
 10
199.5427270627978
 20
62.84671161907566
 30
0.0
  0
POINT
  5
1F33
330
237C
100
AcDbEntity
  8
DEFPOINTS
  6
Continuous
 62
     0
100
AcDbPoint
 10
359.5427270627978
 20
60.33643672717563
 30
0.0
  0
POINT
  5
1F34
330
237C
100
AcDbEntity
  8
DEFPOINTS
  6
Continuous
 62
     0
100
AcDbPoint
 10
359.5427270627978
 20
90.89998436977564
 30
0.0
  0
ENDBLK
  5
1E4B
330
237C
100
AcDbEntity
  8
0
100
AcDbBlockEnd
  0
BLOCK
  5
237F
330
237E
100
AcDbEntity
  8
0
100
AcDbBlockBegin
  2
*U34
 70
     1
 10
0.0
 20
0.0
 30
0.0
  3
*U34
  1

  0
TEXT
  5
1FDD
330
237E
100
AcDbEntity
  8
2
 62
     0
100
AcDbText
 10
281.6950052450977
 20
90.98998436977565
 30
0.0
 40
3.5
  1
160
 41
0.72
  7
TEXTSTYLE_2
100
AcDbText
  0
ENDBLK
  5
1FDF
330
237E
100
AcDbEntity
  8
0
100
AcDbBlockEnd
  0
BLOCK
  5
2381
330
2380
100
AcDbEntity
  8
0
100
AcDbBlockBegin
  2
*D35
 70
     1
 10
0.0
 20
0.0
 30
0.0
  3
*D35
  1

  0
LINE
  5
1F35
330
2380
100
AcDbEntity
  8
2
  6
Continuous
 62
     0
100
AcDbLine
 10
218.6427270627977
 20
73.42393672717566
 30
0.0
 11
218.6427270627977
 21
82.90647569637568
 31
0.0
  0
LINE
  5
1F36
330
2380
100
AcDbEntity
  8
2
  6
Continuous
 62
     0
100
AcDbLine
 10
199.5427270627978
 20
63.27462575587567
 30
0.0
 11
199.5427270627978
 21
82.90647569637568
 31
0.0
  0
LINE
  5
1F37
330
2380
100
AcDbEntity
  8
2
  6
Continuous
 62
     0
100
AcDbLine
 10
215.1427270627977
 20
82.72647569637568
 30
0.0
 11
203.0427270627978
 21
82.72647569637568
 31
0.0
  0
INSERT
  5
1F38
330
2380
100
AcDbEntity
  8
2
  6
Continuous
 62
     0
100
AcDbBlockReference
  2
_FILLED
 10
218.6427270627977
 20
82.72647569637568
 30
0.0
 41
3.5
 42
3.5
 43
3.5
  0
INSERT
  5
1F39
330
2380
100
AcDbEntity
  8
2
  6
Continuous
 62
     0
100
AcDbBlockReference
  2
_FILLED
 10
199.5427270627978
 20
82.72647569637568
 30
0.0
 41
3.5
 42
3.5
 43
3.5
 50
180.0
  0
INSERT
  5
1F3A
330
2380
100
AcDbEntity
  8
0
100
AcDbBlockReference
  2
*U36
 10
0.0
 20
0.0
 30
0.0
  0
POINT
  5
1F3B
330
2380
100
AcDbEntity
  8
DEFPOINTS
  6
Continuous
 62
     0
100
AcDbPoint
 10
218.6427270627977
 20
73.36143672717565
 30
0.0
  0
POINT
  5
1F3C
330
2380
100
AcDbEntity
  8
DEFPOINTS
  6
Continuous
 62
     0
100
AcDbPoint
 10
199.5427270627978
 20
63.21212575587566
 30
0.0
  0
POINT
  5
1F3D
330
2380
100
AcDbEntity
  8
DEFPOINTS
  6
Continuous
 62
     0
100
AcDbPoint
 10
199.5427270627978
 20
82.72647569637568
 30
0.0
  0
ENDBLK
  5
1E57
330
2380
100
AcDbEntity
  8
0
100
AcDbBlockEnd
  0
BLOCK
  5
2383
330
2382
100
AcDbEntity
  8
0
100
AcDbBlockBegin
  2
*U36
 70
     1
 10
0.0
 20
0.0
 30
0.0
  3
*U36
  1

  0
TEXT
  5
1FE1
330
2382
100
AcDbEntity
  8
2
 62
     0
100
AcDbText
 10
201.9971381649978
 20
82.81647569637566
 30
0.0
 40
3.5
  1
19.1
 41
0.72
  7
TEXTSTYLE_2
100
AcDbText
  0
ENDBLK
  5
1FE3
330
2382
100
AcDbEntity
  8
0
100
AcDbBlockEnd
  0
BLOCK
  5
2385
330
2384
100
AcDbEntity
  8
0
100
AcDbBlockBegin
  2
*D37
 70
     1
 10
0.0
 20
0.0
 30
0.0
  3
*D37
  1

  0
LINE
  5
1F1A
330
2384
100
AcDbEntity
  8
SK2
  6
Continuous
 62
     0
100
AcDbLine
 10
197.9802270627978
 20
18.61143672717567
 30
0.0
 11
116.0719401450977
 21
18.61143672717569
 31
0.0
  0
LINE
  5
1F1B
330
2384
100
AcDbEntity
  8
SK2
  6
Continuous
 62
     0
100
AcDbLine
 10
197.9802270627978
 20
63.06143672717567
 30
0.0
 11
116.0719401450978
 21
63.06143672717568
 31
0.0
  0
LINE
  5
1F1C
330
2384
100
AcDbEntity
  8
SK2
  6
Continuous
 62
     0
100
AcDbLine
 10
116.2519401450978
 20
22.11143672717569
 30
0.0
 11
116.2519401450978
 21
59.56143672717568
 31
0.0
  0
INSERT
  5
1F1D
330
2384
100
AcDbEntity
  8
SK2
  6
Continuous
 62
     0
100
AcDbBlockReference
  2
_FILLED
 10
116.2519401450978
 20
18.61143672717569
 30
0.0
 41
3.5
 42
3.5
 43
3.5
 50
270.0
  0
INSERT
  5
1F1E
330
2384
100
AcDbEntity
  8
SK2
  6
Continuous
 62
     0
100
AcDbBlockReference
  2
_FILLED
 10
116.2519401450978
 20
63.06143672717568
 30
0.0
 41
3.5
 42
3.5
 43
3.5
 50
90.0
  0
INSERT
  5
1F1F
330
2384
100
AcDbEntity
  8
0
100
AcDbBlockReference
  2
*U38
 10
0.0
 20
0.0
 30
0.0
  0
POINT
  5
1F20
330
2384
100
AcDbEntity
  8
DEFPOINTS
  6
Continuous
 62
     0
100
AcDbPoint
 10
198.0427270627977
 20
18.61143672717567
 30
0.0
  0
POINT
  5
1F21
330
2384
100
AcDbEntity
  8
DEFPOINTS
  6
Continuous
 62
     0
100
AcDbPoint
 10
198.0427270627977
 20
63.06143672717567
 30
0.0
  0
POINT
  5
1F22
330
2384
100
AcDbEntity
  8
DEFPOINTS
  6
Continuous
 62
     0
100
AcDbPoint
 10
116.2519401450978
 20
63.06143672717568
 30
0.0
  0
ENDBLK
  5
1E63
330
2384
100
AcDbEntity
  8
0
100
AcDbBlockEnd
  0
BLOCK
  5
2387
330
2386
100
AcDbEntity
  8
0
100
AcDbBlockBegin
  2
*U38
 70
     1
 10
0.0
 20
0.0
 30
0.0
  3
*U38
  1

  0
TEXT
  5
1FD5
330
2386
100
AcDbEntity
  8
SK2
 62
     0
100
AcDbText
 10
115.4952734784311
 20
32.63266823297566
 30
0.0
 40
3.5
  1
\U+220544,45
 50
90.0
 41
0.72
  7
TEXTSTYLE_2
100
AcDbText
  0
ENDBLK
  5
1FD7
330
2386
100
AcDbEntity
  8
0
100
AcDbBlockEnd
  0
BLOCK
  5
2389
330
2388
100
AcDbEntity
  8
0
100
AcDbBlockBegin
  2
*D39
 70
     1
 10
0.0
 20
0.0
 30
0.0
  3
*D39
  1

  0
LINE
  5
1F10
330
2388
100
AcDbEntity
  8
SK2
  6
Continuous
 62
     0
100
AcDbLine
 10
135.0727270627978
 20
48.77393672717563
 30
0.0
 11
130.1921506533977
 21
48.77393672717563
 31
0.0
  0
LINE
  5
1F11
330
2388
100
AcDbEntity
  8
SK2
  6
Continuous
 62
     0
100
AcDbLine
 10
135.0727270627978
 20
32.89893672717568
 30
0.0
 11
130.1921506533977
 21
32.89893672717568
 31
0.0
  0
LINE
  5
1F12
330
2388
100
AcDbEntity
  8
SK2
  6
Continuous
 62
     0
100
AcDbLine
 10
130.3721506533978
 20
45.27393672717564
 30
0.0
 11
130.3721506533978
 21
36.39893672717567
 31
0.0
  0
LINE
  5
1F13
330
2388
100
AcDbEntity
  8
SK2
  6
Continuous
 62
     0
100
AcDbLine
 10
130.3721506533978
 20
32.89893672717568
 30
0.0
 11
130.3721506533978
 21
-9.281063272824358
 31
0.0
  0
INSERT
  5
1F14
330
2388
100
AcDbEntity
  8
SK2
  6
Continuous
 62
     0
100
AcDbBlockReference
  2
_FILLED
 10
130.3721506533978
 20
48.77393672717563
 30
0.0
 41
3.5
 42
3.5
 43
3.5
 50
90.0
  0
INSERT
  5
1F15
330
2388
100
AcDbEntity
  8
SK2
  6
Continuous
 62
     0
100
AcDbBlockReference
  2
_FILLED
 10
130.3721506533978
 20
32.89893672717568
 30
0.0
 41
3.5
 42
3.5
 43
3.5
 50
270.0
  0
INSERT
  5
1F16
330
2388
100
AcDbEntity
  8
0
100
AcDbBlockReference
  2
*U40
 10
0.0
 20
0.0
 30
0.0
  0
POINT
  5
1F17
330
2388
100
AcDbEntity
  8
DEFPOINTS
  6
Continuous
 62
     0
100
AcDbPoint
 10
135.1352270627978
 20
48.77393672717563
 30
0.0
  0
POINT
  5
1F18
330
2388
100
AcDbEntity
  8
DEFPOINTS
  6
Continuous
 62
     0
100
AcDbPoint
 10
135.1352270627978
 20
32.89893672717568
 30
0.0
  0
POINT
  5
1F19
330
2388
100
AcDbEntity
  8
DEFPOINTS
  6
Continuous
 62
     0
100
AcDbPoint
 10
130.3721506533978
 20
32.89893672717568
 30
0.0
  0
ENDBLK
  5
1E6F
330
2388
100
AcDbEntity
  8
0
100
AcDbBlockEnd
  0
BLOCK
  5
238B
330
238A
100
AcDbEntity
  8
0
100
AcDbBlockBegin
  2
*U40
 70
     1
 10
0.0
 20
0.0
 30
0.0
  3
*U40
  1

  0
TEXT
  5
1FD1
330
238A
100
AcDbEntity
  8
SK2
 62
     0
100
AcDbText
 10
130.2821506533977
 20
-9.191063272824337
 30
0.0
 40
3.5
  1
5/8-11UNC 2B
 50
90.0
  7
TEXTSTYLE_4
100
AcDbText
  0
ENDBLK
  5
1FD3
330
238A
100
AcDbEntity
  8
0
100
AcDbBlockEnd
  0
BLOCK
  5
238D
330
238C
100
AcDbEntity
  8
0
100
AcDbBlockBegin
  2
*U41
 70
     1
 10
0.0
 20
0.0
 30
0.0
  3
*U41
  1

  0
TEXT
  5
1FC5
330
238C
100
AcDbEntity
  8
1
 62
     3
100
AcDbText
 10
42.60342727002369
 20
45.41215506310922
 30
0.0
 40
3.5
  1
ASME B5.50 CAT40
 41
0.72
  7
TEXTSTYLE_2
100
AcDbText
  0
ENDBLK
  5
1FC7
330
238C
100
AcDbEntity
  8
0
100
AcDbBlockEnd
  0
BLOCK
  5
238F
330
238E
100
AcDbEntity
  8
0
100
AcDbBlockBegin
  2
*U42
 70
     1
 10
0.0
 20
0.0
 30
0.0
  3
*U42
  1

  0
TEXT
  5
1FC9
330
238E
100
AcDbEntity
  8
1
 62
     3
100
AcDbText
 10
38.79427508142372
 20
-0.000000032090782
 30
0.0
 40
3.5
  1
AA3B14-40 32 160
 41
0.72
  7
TEXTSTYLE_2
100
AcDbText
  0
ENDBLK
  5
1FCB
330
238E
100
AcDbEntity
  8
0
100
AcDbBlockEnd
  0
BLOCK
  5
2394
330
2393
100
AcDbEntity
  8
0
100
AcDbBlockBegin
  2
*D43
 70
     1
 10
0.0
 20
0.0
 30
0.0
  3
*D43
  1

  0
LINE
  5
25B7
330
2393
100
AcDbEntity
  8
SK2
  6
Continuous
 62
     0
370
    -2
100
AcDbLine
 10
-1.559772937202296
 20
-22.22856327282433
 30
0.0
 11
-83.4680598549022
 21
-22.22856327282431
 31
0.0
  0
LINE
  5
25B8
330
2393
100
AcDbEntity
  8
SK2
  6
Continuous
 62
     0
370
    -2
100
AcDbLine
 10
-1.559772937202296
 20
22.22143672717567
 30
0.0
 11
-83.4680598549022
 21
22.22143672717569
 31
0.0
  0
LINE
  5
25B9
330
2393
100
AcDbEntity
  8
SK2
  6
Continuous
 62
     0
370
    -2
100
AcDbLine
 10
-83.2880598549022
 20
-18.72856327282431
 30
0.0
 11
-83.2880598549022
 21
-9.277319140439628
 31
0.0
  0
LINE
  5
25BA
330
2393
100
AcDbEntity
  8
SK2
  6
Continuous
 62
     0
370
    -2
100
AcDbLine
 10
-83.2880598549022
 20
18.72143672717569
 30
0.0
 11
-83.2880598549022
 21
5.222655606390955
 31
0.0
  0
MTEXT
  5
25BB
330
2393
100
AcDbEntity
  8
SK2
  6
Continuous
 62
     5
100
AcDbMText
 10
-83.2880598549022
 20
-2.02733176702435
 30
0.0
 40
3.5
 41
0.0
 71
     5
 72
     1
  1
\A1;%%c44,45
 11
0.0000000000000001
 21
1.0
 31
0.0
 73
     1
 44
1.0
1001
ACAD
1000
MTEXTBEGIN
1070
    73
1070
     1
1070
    44
1040
1.0
1070
    74
1070
     0
1000
MTEXTEND
  0
SOLID
  5
25BC
330
2393
100
AcDbEntity
  8
SK2
  6
Continuous
 62
     0
100
AcDbTrace
 10
-83.87139318823553
 20
-18.72856327282431
 30
0.0
 11
-82.70472652156888
 21
-18.72856327282431
 31
0.0
 12
-83.2880598549022
 22
-22.22856327282431
 32
0.0
 13
-83.2880598549022
 23
-22.22856327282431
 33
0.0
  0
SOLID
  5
25BD
330
2393
100
AcDbEntity
  8
SK2
  6
Continuous
 62
     0
100
AcDbTrace
 10
-83.87139318823553
 20
18.72143672717569
 30
0.0
 11
-82.70472652156888
 21
18.72143672717569
 31
0.0
 12
-83.2880598549022
 22
22.22143672717569
 32
0.0
 13
-83.2880598549022
 23
22.22143672717569
 33
0.0
  0
POINT
  5
25BE
330
2393
100
AcDbEntity
  8
DEFPOINTS
  6
Continuous
 62
     0
100
AcDbPoint
 10
-1.497272937202296
 20
-22.22856327282433
 30
0.0
  0
POINT
  5
25BF
330
2393
100
AcDbEntity
  8
DEFPOINTS
  6
Continuous
 62
     0
100
AcDbPoint
 10
-1.497272937202296
 20
22.22143672717567
 30
0.0
  0
POINT
  5
25C0
330
2393
100
AcDbEntity
  8
DEFPOINTS
  6
Continuous
 62
     0
100
AcDbPoint
 10
-83.2880598549022
 20
22.22143672717569
 30
0.0
  0
ENDBLK
  5
2395
330
2393
100
AcDbEntity
  8
0
100
AcDbBlockEnd
  0
BLOCK
  5
23A1
330
23A0
100
AcDbEntity
  8
0
100
AcDbBlockBegin
  2
*D44
 70
     1
 10
0.0
 20
0.0
 30
0.0
  3
*D44
  1

  0
LINE
  5
25C1
330
23A0
100
AcDbEntity
  8
SK2
  6
Continuous
 62
     0
370
    -2
100
AcDbLine
 10
-64.46727293720221
 20
7.933936727175634
 30
0.0
 11
-71.0981938347912
 21
7.933936727175636
 31
0.0
  0
LINE
  5
25C2
330
23A0
100
AcDbEntity
  8
SK2
  6
Continuous
 62
     0
370
    -2
100
AcDbLine
 10
-64.46727293720221
 20
-7.941063272824322
 30
0.0
 11
-71.0981938347912
 21
-7.941063272824321
 31
0.0
  0
LINE
  5
25C3
330
23A0
100
AcDbEntity
  8
SK2
  6
Continuous
 62
     0
370
    -2
100
AcDbLine
 10
-70.91819383479119
 20
4.433936727175636
 30
0.0
 11
-70.91819383479119
 21
-4.441063272824321
 31
0.0
  0
MTEXT
  5
25C4
330
23A0
100
AcDbEntity
  8
SK2
  6
Continuous
 62
     5
100
AcDbMText
 10
-75.9206359857556
 20
2.092402410081419
 30
0.0
 40
3.5
 41
0.0
 71
     5
 72
     1
  1
\A1;5/8-11UNC 2B
 11
0.0000000000000001
 21
1.0
 31
0.0
 73
     1
 44
1.0
1001
ACAD
1000
MTEXTBEGIN
1070
    73
1070
     1
1070
    44
1040
1.0
1070
    74
1070
     0
1000
MTEXTEND
  0
SOLID
  5
25C5
330
23A0
100
AcDbEntity
  8
SK2
  6
Continuous
 62
     0
100
AcDbTrace
 10
-71.50152716812453
 20
4.433936727175636
 30
0.0
 11
-70.33486050145786
 21
4.433936727175636
 31
0.0
 12
-70.91819383479119
 22
7.933936727175636
 32
0.0
 13
-70.91819383479119
 23
7.933936727175636
 33
0.0
  0
SOLID
  5
25C6
330
23A0
100
AcDbEntity
  8
SK2
  6
Continuous
 62
     0
100
AcDbTrace
 10
-71.50152716812453
 20
-4.441063272824321
 30
0.0
 11
-70.33486050145786
 21
-4.441063272824321
 31
0.0
 12
-70.91819383479119
 22
-7.941063272824321
 32
0.0
 13
-70.91819383479119
 23
-7.941063272824321
 33
0.0
  0
POINT
  5
25C7
330
23A0
100
AcDbEntity
  8
DEFPOINTS
  6
Continuous
 62
     0
100
AcDbPoint
 10
-64.40477293720221
 20
7.933936727175634
 30
0.0
  0
POINT
  5
25C8
330
23A0
100
AcDbEntity
  8
DEFPOINTS
  6
Continuous
 62
     0
100
AcDbPoint
 10
-64.40477293720221
 20
-7.941063272824322
 30
0.0
  0
POINT
  5
25C9
330
23A0
100
AcDbEntity
  8
DEFPOINTS
  6
Continuous
 62
     0
100
AcDbPoint
 10
-70.91819383479119
 20
-7.941063272824321
 30
0.0
  0
ENDBLK
  5
23A2
330
23A0
100
AcDbEntity
  8
0
100
AcDbBlockEnd
  0
BLOCK
  5
23BF
330
23BE
100
AcDbEntity
  8
0
100
AcDbBlockBegin
  2
*D45
 70
     1
 10
0.0
 20
0.0
 30
0.0
  3
*D45
  1

  0
LINE
  5
259A
330
23BE
100
AcDbEntity
  8
SK2
  6
Continuous
 62
     0
370
    -2
100
AcDbLine
 10
0.0027270627978169
 20
22.43462575587565
 30
0.0
 11
0.0027270627978186
 21
50.23998436977564
 31
0.0
  0
LINE
  5
259B
330
23BE
100
AcDbEntity
  8
SK2
  6
Continuous
 62
     0
370
    -2
100
AcDbLine
 10
-68.24727293720229
 20
13.83081290697566
 30
0.0
 11
-68.24727293720229
 21
50.23998436977564
 31
0.0
  0
LINE
  5
259C
330
23BE
100
AcDbEntity
  8
SK2
  6
Continuous
 62
     0
370
    -2
100
AcDbLine
 10
-3.497272937202181
 20
50.05998436977563
 30
0.0
 11
-34.06004313083819
 21
50.05998436977563
 31
0.0
  0
LINE
  5
259D
330
23BE
100
AcDbEntity
  8
SK2
  6
Continuous
 62
     0
370
    -2
100
AcDbLine
 10
-64.7472729372023
 20
50.05998436977563
 30
0.0
 11
-44.3944666965664
 21
50.05998436977563
 31
0.0
  0
MTEXT
  5
259E
330
23BE
100
AcDbEntity
  8
SK2
  6
Continuous
 62
     5
100
AcDbMText
 10
-39.22725491370229
 20
50.05998436977563
 30
0.0
 40
3.5
 41
0.0
 71
     5
 72
     1
  1
\A1;68.25
 73
     1
 44
1.0
1001
ACAD
1000
MTEXTBEGIN
1070
    73
1070
     1
1070
    44
1040
1.0
1070
    74
1070
     0
1000
MTEXTEND
  0
SOLID
  5
259F
330
23BE
100
AcDbEntity
  8
SK2
  6
Continuous
 62
     0
100
AcDbTrace
 10
-3.497272937202181
 20
50.64331770310896
 30
0.0
 11
-3.497272937202181
 21
49.47665103644229
 31
0.0
 12
0.0027270627978186
 22
50.05998436977563
 32
0.0
 13
0.0027270627978186
 23
50.05998436977563
 33
0.0
  0
SOLID
  5
25A0
330
23BE
100
AcDbEntity
  8
SK2
  6
Continuous
 62
     0
100
AcDbTrace
 10
-64.7472729372023
 20
50.64331770310896
 30
0.0
 11
-64.7472729372023
 21
49.47665103644229
 31
0.0
 12
-68.24727293720229
 22
50.05998436977563
 32
0.0
 13
-68.24727293720229
 23
50.05998436977563
 33
0.0
  0
POINT
  5
25A1
330
23BE
100
AcDbEntity
  8
DEFPOINTS
  6
Continuous
 62
     0
100
AcDbPoint
 10
0.0027270627978169
 20
22.37212575587565
 30
0.0
  0
POINT
  5
25A2
330
23BE
100
AcDbEntity
  8
DEFPOINTS
  6
Continuous
 62
     0
100
AcDbPoint
 10
-68.24727293720229
 20
13.76831290697566
 30
0.0
  0
POINT
  5
25A3
330
23BE
100
AcDbEntity
  8
DEFPOINTS
  6
Continuous
 62
     0
100
AcDbPoint
 10
-68.24727293720229
 20
50.05998436977563
 30
0.0
  0
ENDBLK
  5
23C0
330
23BE
100
AcDbEntity
  8
0
100
AcDbBlockEnd
  0
BLOCK
  5
23CC
330
23CB
100
AcDbEntity
  8
0
100
AcDbBlockBegin
  2
*D46
 70
     1
 10
0.0
 20
0.0
 30
0.0
  3
*D46
  1

  0
LINE
  5
25A4
330
23CB
100
AcDbEntity
  8
2
  6
Continuous
 62
     0
370
    -2
100
AcDbLine
 10
0.0027270627978169
 20
22.06921161907566
 30
0.0
 11
0.0027270627978186
 21
50.23998436977564
 31
0.0
  0
LINE
  5
25A5
330
23CB
100
AcDbEntity
  8
2
  6
Continuous
 62
     0
370
    -2
100
AcDbLine
 10
160.0027270627978
 20
19.55893672717563
 30
0.0
 11
160.0027270627978
 21
50.23998436977564
 31
0.0
  0
LINE
  5
25A6
330
23CB
100
AcDbEntity
  8
2
  6
Continuous
 62
     0
370
    -2
100
AcDbLine
 10
3.502727062797818
 20
50.05998436977563
 30
0.0
 11
82.26362729234182
 21
50.05998436977563
 31
0.0
  0
LINE
  5
25A7
330
23CB
100
AcDbEntity
  8
2
  6
Continuous
 62
     0
370
    -2
100
AcDbLine
 10
156.5027270627978
 20
50.05998436977563
 30
0.0
 11
88.04638319785363
 21
50.05998436977563
 31
0.0
  0
MTEXT
  5
25A8
330
23CB
100
AcDbEntity
  8
2
  6
Continuous
 62
     5
100
AcDbMText
 10
85.15500524509773
 20
50.05998436977563
 30
0.0
 40
3.5
 41
0.0
 71
     5
 72
     1
  1
\A1;160
 73
     1
 44
1.0
1001
ACAD
1000
MTEXTBEGIN
1070
    73
1070
     1
1070
    44
1040
1.0
1070
    74
1070
     0
1000
MTEXTEND
  0
SOLID
  5
25A9
330
23CB
100
AcDbEntity
  8
2
  6
Continuous
 62
     0
100
AcDbTrace
 10
3.502727062797818
 20
50.64331770310896
 30
0.0
 11
3.502727062797818
 21
49.47665103644229
 31
0.0
 12
0.0027270627978186
 22
50.05998436977563
 32
0.0
 13
0.0027270627978186
 23
50.05998436977563
 33
0.0
  0
SOLID
  5
25AA
330
23CB
100
AcDbEntity
  8
2
  6
Continuous
 62
     0
100
AcDbTrace
 10
156.5027270627978
 20
50.64331770310896
 30
0.0
 11
156.5027270627978
 21
49.47665103644229
 31
0.0
 12
160.0027270627978
 22
50.05998436977563
 32
0.0
 13
160.0027270627978
 23
50.05998436977563
 33
0.0
  0
POINT
  5
25AB
330
23CB
100
AcDbEntity
  8
DEFPOINTS
  6
Continuous
 62
     0
100
AcDbPoint
 10
0.0027270627978169
 20
22.00671161907566
 30
0.0
  0
POINT
  5
25AC
330
23CB
100
AcDbEntity
  8
DEFPOINTS
  6
Continuous
 62
     0
100
AcDbPoint
 10
160.0027270627978
 20
19.49643672717563
 30
0.0
  0
POINT
  5
25AD
330
23CB
100
AcDbEntity
  8
DEFPOINTS
  6
Continuous
 62
     0
100
AcDbPoint
 10
160.0027270627978
 20
50.05998436977563
 30
0.0
  0
ENDBLK
  5
23CD
330
23CB
100
AcDbEntity
  8
0
100
AcDbBlockEnd
  0
BLOCK
  5
23D9
330
23D8
100
AcDbEntity
  8
0
100
AcDbBlockBegin
  2
*D47
 70
     1
 10
0.0
 20
0.0
 30
0.0
  3
*D47
  1

  0
LINE
  5
25AE
330
23D8
100
AcDbEntity
  8
2
  6
Continuous
 62
     0
370
    -2
100
AcDbLine
 10
19.10272706279769
 20
32.58393672717565
 30
0.0
 11
19.10272706279769
 21
42.06647569637568
 31
0.0
  0
LINE
  5
25AF
330
23D8
100
AcDbEntity
  8
2
  6
Continuous
 62
     0
370
    -2
100
AcDbLine
 10
0.0027270627978169
 20
22.43462575587565
 30
0.0
 11
0.0027270627978181
 21
42.06647569637568
 31
0.0
  0
LINE
  5
25B0
330
23D8
100
AcDbEntity
  8
2
  6
Continuous
 62
     0
370
    -2
100
AcDbLine
 10
15.6027270627977
 20
41.88647569637568
 30
0.0
 11
3.502727062797818
 21
41.88647569637568
 31
0.0
  0
MTEXT
  5
25B1
330
23D8
100
AcDbEntity
  8
2
  6
Continuous
 62
     5
100
AcDbMText
 10
8.565336788721026
 20
45.3022542667927
 30
0.0
 40
3.5
 41
0.0
 71
     5
 72
     1
  1
\A1;19.1
 73
     1
 44
1.0
1001
ACAD
1000
MTEXTBEGIN
1070
    73
1070
     1
1070
    44
1040
1.0
1070
    74
1070
     0
1000
MTEXTEND
  0
SOLID
  5
25B2
330
23D8
100
AcDbEntity
  8
2
  6
Continuous
 62
     0
100
AcDbTrace
 10
15.6027270627977
 20
42.46980902970902
 30
0.0
 11
15.6027270627977
 21
41.30314236304235
 31
0.0
 12
19.10272706279769
 22
41.88647569637568
 32
0.0
 13
19.10272706279769
 23
41.88647569637568
 33
0.0
  0
SOLID
  5
25B3
330
23D8
100
AcDbEntity
  8
2
  6
Continuous
 62
     0
100
AcDbTrace
 10
3.502727062797818
 20
42.46980902970902
 30
0.0
 11
3.502727062797818
 21
41.30314236304235
 31
0.0
 12
0.0027270627978181
 22
41.88647569637568
 32
0.0
 13
0.0027270627978181
 23
41.88647569637568
 33
0.0
  0
POINT
  5
25B4
330
23D8
100
AcDbEntity
  8
DEFPOINTS
  6
Continuous
 62
     0
100
AcDbPoint
 10
19.10272706279769
 20
32.52143672717565
 30
0.0
  0
POINT
  5
25B5
330
23D8
100
AcDbEntity
  8
DEFPOINTS
  6
Continuous
 62
     0
100
AcDbPoint
 10
0.0027270627978169
 20
22.37212575587565
 30
0.0
  0
POINT
  5
25B6
330
23D8
100
AcDbEntity
  8
DEFPOINTS
  6
Continuous
 62
     0
100
AcDbPoint
 10
0.0027270627978181
 20
41.88647569637568
 30
0.0
  0
ENDBLK
  5
23DA
330
23D8
100
AcDbEntity
  8
0
100
AcDbBlockEnd
  0
BLOCK
  5
23E6
330
23E5
100
AcDbEntity
  8
0
100
AcDbBlockBegin
  2
*D48
 70
     1
 10
0.0
 20
0.0
 30
0.0
  3
*D48
  1

  0
LINE
  5
2590
330
23E5
100
AcDbEntity
  8
SK2
  6
Continuous
 62
     0
370
    -2
100
AcDbLine
 10
157.5242270627978
 20
-25.00356327282434
 30
0.0
 11
172.0588001341979
 21
-25.00356327282434
 31
0.0
  0
LINE
  5
2591
330
23E5
100
AcDbEntity
  8
SK2
  6
Continuous
 62
     0
370
    -2
100
AcDbLine
 10
157.5242270627978
 20
24.99643672717568
 30
0.0
 11
172.0588001341979
 21
24.99643672717568
 31
0.0
  0
LINE
  5
2592
330
23E5
100
AcDbEntity
  8
SK2
  6
Continuous
 62
     0
370
    -2
100
AcDbLine
 10
171.8788001341978
 20
-21.50356327282434
 30
0.0
 11
171.8788001341978
 21
-5.104673530080269
 31
0.0
  0
LINE
  5
2593
330
23E5
100
AcDbEntity
  8
SK2
  6
Continuous
 62
     0
370
    -2
100
AcDbLine
 10
171.8788001341978
 20
21.49643672717568
 30
0.0
 11
171.8788001341978
 21
2.078082375431543
 31
0.0
  0
MTEXT
  5
2594
330
23E5
100
AcDbEntity
  8
SK2
  6
Continuous
 62
     5
100
AcDbMText
 10
171.8788001341978
 20
-1.513295577324335
 30
0.0
 40
3.5
 41
0.0
 71
     5
 72
     1
  1
\A1;%%c50
 11
0.0000000000000001
 21
1.0
 31
0.0
 73
     1
 44
1.0
1001
ACAD
1000
MTEXTBEGIN
1070
    73
1070
     1
1070
    44
1040
1.0
1070
    74
1070
     0
1000
MTEXTEND
  0
SOLID
  5
2595
330
23E5
100
AcDbEntity
  8
SK2
  6
Continuous
 62
     0
100
AcDbTrace
 10
171.2954668008645
 20
-21.50356327282434
 30
0.0
 11
172.4621334675312
 21
-21.50356327282434
 31
0.0
 12
171.8788001341978
 22
-25.00356327282434
 32
0.0
 13
171.8788001341978
 23
-25.00356327282434
 33
0.0
  0
SOLID
  5
2596
330
23E5
100
AcDbEntity
  8
SK2
  6
Continuous
 62
     0
100
AcDbTrace
 10
171.2954668008645
 20
21.49643672717568
 30
0.0
 11
172.4621334675312
 21
21.49643672717568
 31
0.0
 12
171.8788001341978
 22
24.99643672717568
 32
0.0
 13
171.8788001341978
 23
24.99643672717568
 33
0.0
  0
POINT
  5
2597
330
23E5
100
AcDbEntity
  8
DEFPOINTS
  6
Continuous
 62
     0
100
AcDbPoint
 10
157.4617270627978
 20
-25.00356327282434
 30
0.0
  0
POINT
  5
2598
330
23E5
100
AcDbEntity
  8
DEFPOINTS
  6
Continuous
 62
     0
100
AcDbPoint
 10
157.4617270627978
 20
24.99643672717568
 30
0.0
  0
POINT
  5
2599
330
23E5
100
AcDbEntity
  8
DEFPOINTS
  6
Continuous
 62
     0
100
AcDbPoint
 10
171.8788001341978
 20
24.99643672717568
 30
0.0
  0
ENDBLK
  5
23E7
330
23E5
100
AcDbEntity
  8
0
100
AcDbBlockEnd
  0
BLOCK
  5
23F4
330
23F3
100
AcDbEntity
  8
0
100
AcDbBlockBegin
  2
*D49
 70
     1
 10
0.0
 20
0.0
 30
0.0
  3
*D49
  1

  0
LINE
  5
25CA
330
23F3
100
AcDbEntity
  8
2
 62
     0
370
    -2
100
AcDbLine
 10
147.3427270627977
 20
-0.0660632728243513
 30
0.0
 11
147.3427270627977
 21
-49.70389112641733
 31
0.0
  0
LINE
  5
25CB
330
23F3
100
AcDbEntity
  8
2
 62
     0
370
    -2
100
AcDbLine
 10
0.0027270627978169
 20
-23.30164100662433
 30
0.0
 11
0.0027270627978153
 21
-49.70389112641733
 31
0.0
  0
LINE
  5
25CC
330
23F3
100
AcDbEntity
  8
2
 62
     0
370
    -2
100
AcDbLine
 10
143.8427270627977
 20
-49.52389112641732
 30
0.0
 11
3.502727062797815
 21
-49.52389112641732
 31
0.0
  0
SOLID
  5
25CD
330
23F3
100
AcDbEntity
  8
2
 62
     0
100
AcDbTrace
 10
143.8427270627977
 20
-48.94055779308398
 30
0.0
 11
143.8427270627977
 21
-50.10722445975066
 31
0.0
 12
147.3427270627977
 22
-49.52389112641732
 32
0.0
 13
147.3427270627977
 23
-49.52389112641732
 33
0.0
  0
SOLID
  5
25CE
330
23F3
100
AcDbEntity
  8
2
 62
     0
100
AcDbTrace
 10
3.502727062797815
 20
-48.94055779308398
 30
0.0
 11
3.502727062797815
 21
-50.10722445975066
 31
0.0
 12
0.0027270627978153
 22
-49.52389112641732
 32
0.0
 13
0.0027270627978153
 23
-49.52389112641732
 33
0.0
  0
MTEXT
  5
25CF
330
23F3
100
AcDbEntity
  8
2
 62
     5
100
AcDbMText
 10
73.67272706279776
 20
-47.68389112641732
 30
0.0
 40
3.5
 41
0.0
 71
     5
 72
     1
  1
\A1;147.34
 73
     1
 44
1.0
1001
ACAD
1000
MTEXTBEGIN
1070
    73
1070
     1
1070
    44
1040
1.0
1070
    74
1070
     0
1000
MTEXTEND
  0
POINT
  5
25D0
330
23F3
100
AcDbEntity
  8
DEFPOINTS
 62
     0
100
AcDbPoint
 10
147.3427270627977
 20
-0.0035632728243513
 30
0.0
  0
POINT
  5
25D1
330
23F3
100
AcDbEntity
  8
DEFPOINTS
 62
     0
100
AcDbPoint
 10
0.0027270627978169
 20
-23.23914100662433
 30
0.0
  0
POINT
  5
25D2
330
23F3
100
AcDbEntity
  8
DEFPOINTS
 62
     0
100
AcDbPoint
 10
0.0027270627978153
 20
-49.52389112641732
 30
0.0
  0
ENDBLK
  5
23F5
330
23F3
100
AcDbEntity
  8
0
100
AcDbBlockEnd
  0
BLOCK
  5
2482
330
2481
100
AcDbEntity
  8
0
100
AcDbBlockBegin
  2
*D50
 70
     1
 10
0.0
 20
0.0
 30
0.0
  3
*D50
  1

  0
LINE
  5
25D3
330
2481
100
AcDbEntity
  8
SK2
 62
     0
370
    -2
100
AcDbLine
 10
3.915227062797697
 20
31.77143672717566
 30
0.0
 11
-89.76686410462249
 21
31.77143672717568
 31
0.0
  0
LINE
  5
25D4
330
2481
100
AcDbEntity
  8
SK2
 62
     0
370
    -2
100
AcDbLine
 10
3.915227062797697
 20
-31.77856327282434
 30
0.0
 11
-89.76686410462249
 21
-31.77856327282431
 31
0.0
  0
LINE
  5
25D5
330
2481
100
AcDbEntity
  8
SK2
 62
     0
370
    -2
100
AcDbLine
 10
-89.58686410462249
 20
28.27143672717568
 30
0.0
 11
-89.58686410462249
 21
-28.27856327282431
 31
0.0
  0
SOLID
  5
25D6
330
2481
100
AcDbEntity
  8
SK2
 62
     0
100
AcDbTrace
 10
-90.17019743795582
 20
28.27143672717568
 30
0.0
 11
-89.00353077128917
 21
28.27143672717568
 31
0.0
 12
-89.58686410462249
 22
31.77143672717568
 32
0.0
 13
-89.58686410462249
 23
31.77143672717568
 33
0.0
  0
SOLID
  5
25D7
330
2481
100
AcDbEntity
  8
SK2
 62
     0
100
AcDbTrace
 10
-90.17019743795582
 20
-28.27856327282431
 30
0.0
 11
-89.00353077128917
 21
-28.27856327282431
 31
0.0
 12
-89.58686410462249
 22
-31.77856327282431
 32
0.0
 13
-89.58686410462249
 23
-31.77856327282431
 33
0.0
  0
MTEXT
  5
25D8
330
2481
100
AcDbEntity
  8
SK2
 62
     5
100
AcDbMText
 10
-91.4268641046225
 20
-0.0035632728243278
 30
0.0
 40
3.5
 41
0.0
 71
     5
 72
     1
  1
\A1;ø63.55
 11
0.0000000000000001
 21
1.0
 31
0.0
 73
     1
 44
1.0
1001
ACAD
1000
MTEXTBEGIN
1070
    73
1070
     1
1070
    44
1040
1.0
1070
    74
1070
     0
1000
MTEXTEND
  0
POINT
  5
25D9
330
2481
100
AcDbEntity
  8
DEFPOINTS
 62
     0
100
AcDbPoint
 10
3.977727062797697
 20
31.77143672717566
 30
0.0
  0
POINT
  5
25DA
330
2481
100
AcDbEntity
  8
DEFPOINTS
 62
     0
100
AcDbPoint
 10
3.977727062797697
 20
-31.77856327282434
 30
0.0
  0
POINT
  5
25DB
330
2481
100
AcDbEntity
  8
DEFPOINTS
 62
     0
100
AcDbPoint
 10
-89.58686410462249
 20
-31.77856327282431
 30
0.0
  0
ENDBLK
  5
2483
330
2481
100
AcDbEntity
  8
0
100
AcDbBlockEnd
  0
ENDSEC
  0
SECTION
  2
ENTITIES
  0
DIMENSION
  5
1D9E
330
2302
100
AcDbEntity
  8
SK2
  6
Continuous
 62
     7
100
AcDbDimension
  2
*D48
 10
171.8788001341978
 20
24.99643672717568
 30
0.0
 11
171.8788001341978
 21
-1.513295577324335
 31
0.0
 70
   160
  1
%%c50
 71
     5
 42
50.00000000000001
  3
STANDARD
100
AcDbAlignedDimension
 13
157.4617270627978
 23
-25.00356327282434
 33
0.0
 14
157.4617270627978
 24
24.99643672717568
 34
0.0
 50
90.0
100
AcDbRotatedDimension
  0
DIMENSION
  5
1D9F
330
2302
100
AcDbEntity
  8
SK2
  6
Continuous
 62
     7
100
AcDbDimension
  2
*D45
 10
-68.24727293720229
 20
50.05998436977563
 30
0.0
 11
-39.22725491370229
 21
50.05998436977563
 31
0.0
 70
   160
  1
68.25
 71
     5
 42
68.25000000000011
  3
STANDARD
100
AcDbAlignedDimension
 13
0.0027270627978169
 23
22.37212575587565
 33
0.0
 14
-68.24727293720229
 24
13.76831290697566
 34
0.0
 50
180.0
100
AcDbRotatedDimension
  0
DIMENSION
  5
1DA0
330
2302
100
AcDbEntity
  8
2
  6
Continuous
 62
     7
100
AcDbDimension
  2
*D46
 10
160.0027270627978
 20
50.05998436977563
 30
0.0
 11
85.15500524509773
 21
50.05998436977563
 31
0.0
 70
   160
  1
160
 71
     5
 42
159.9999999999999
  3
STANDARD
100
AcDbAlignedDimension
 13
0.0027270627978169
 23
22.00671161907566
 33
0.0
 14
160.0027270627978
 24
19.49643672717563
 34
0.0
100
AcDbRotatedDimension
  0
DIMENSION
  5
1DA1
330
2302
100
AcDbEntity
  8
2
  6
Continuous
 62
     7
100
AcDbDimension
  2
*D47
 10
0.0027270627978181
 20
41.88647569637568
 30
0.0
 11
8.565336788721026
 21
45.3022542667927
 31
0.0
 70
   160
  1
19.1
 71
     5
 42
19.09999999999988
  3
STANDARD
100
AcDbAlignedDimension
 13
19.10272706279769
 23
32.52143672717565
 33
0.0
 14
0.0027270627978169
 24
22.37212575587565
 34
0.0
 50
180.0
100
AcDbRotatedDimension
  0
DIMENSION
  5
1DA2
330
2302
100
AcDbEntity
  8
SK2
  6
Continuous
 62
     7
100
AcDbDimension
  2
*D43
 10
-83.2880598549022
 20
22.22143672717569
 30
0.0
 11
-83.2880598549022
 21
-2.02733176702435
 31
0.0
 70
   160
  1
%%c44,45
 71
     5
 42
44.45
  3
STANDARD
100
AcDbAlignedDimension
 13
-1.497272937202296
 23
-22.22856327282433
 33
0.0
 14
-1.497272937202296
 24
22.22143672717567
 34
0.0
 50
90.0
100
AcDbRotatedDimension
  0
DIMENSION
  5
1DA3
330
2302
100
AcDbEntity
  8
SK2
  6
Continuous
 62
     7
100
AcDbDimension
  2
*D44
 10
-70.91819383479119
 20
-7.941063272824321
 30
0.0
 11
-75.9206359857556
 21
2.092402410081419
 31
0.0
 70
   160
  1
5/8-11UNC 2B
 71
     5
 42
15.87499999999996
  3
STANDARD
100
AcDbAlignedDimension
 13
-64.40477293720221
 23
7.933936727175634
 33
0.0
 14
-64.40477293720221
 24
-7.941063272824322
 34
0.0
 50
270.0
100
AcDbRotatedDimension
  0
LINE
  5
1DA7
330
2302
100
AcDbEntity
  8
1
  6
Continuous
100
AcDbLine
 10
-68.24727293720229
 20
-12.27543945272433
 30
0.0
 11
-68.24727293720229
 21
12.26831290697566
 31
0.0
  0
LINE
  5
1DA8
330
2302
100
AcDbEntity
  8
SK3
  6
DASHED
100
AcDbLine
 10
-67.14727293720219
 20
-7.503563272824337
 30
0.0
 11
-67.14727293720219
 21
7.49643672717567
 31
0.0
  0
LINE
  5
1DA9
330
2302
100
AcDbEntity
  8
SK3
  6
DASHED
100
AcDbLine
 10
-63.46727293720221
 20
-7.144563272824335
 30
0.0
 11
-63.46727293720221
 21
7.137436727175632
 31
0.0
  0
LINE
  5
1DAA
330
2302
100
AcDbEntity
  8
SK3
  6
DASHED
100
AcDbLine
 10
-61.89727293720219
 20
-6.933563272824336
 30
0.0
 11
-61.89727293720219
 21
6.926436727175655
 31
0.0
  0
LINE
  5
1DAB
330
2302
100
AcDbEntity
  8
SK3
  6
DASHED
100
AcDbLine
 10
-33.24727293720219
 20
-7.941063272824322
 30
0.0
 11
-33.24727293720219
 21
7.933936727175634
 31
0.0
  0
LINE
  5
1DAC
330
2302
100
AcDbEntity
  8
SK3
  6
DASHED
100
AcDbLine
 10
-25.4955335530023
 20
-6.933563272824336
 30
0.0
 11
-25.4955335530023
 21
6.926436727175655
 31
0.0
  0
LINE
  5
1DAD
330
2302
100
AcDbEntity
  8
SK3
  6
DASHED
100
AcDbLine
 10
-25.24727293720218
 20
-6.503563272824337
 30
0.0
 11
-25.24727293720218
 21
6.496436727175641
 31
0.0
  0
LINE
  5
1DAE
330
2302
100
AcDbEntity
  8
SK3
  6
DASHED
100
AcDbLine
 10
-63.29153700590229
 20
8.32070079587568
 30
0.0
 11
-61.89727293720219
 21
6.926436727175655
 31
0.0
  0
LINE
  5
1DAF
330
2302
100
AcDbEntity
  8
SK3
  6
DASHED
100
AcDbLine
 10
-61.89727293720219
 20
-6.933563272824336
 30
0.0
 11
-63.29153700590229
 21
-8.327827341524333
 31
0.0
  0
LINE
  5
1DB0
330
2302
100
AcDbEntity
  8
SK3
  6
DASHED
100
AcDbLine
 10
-25.24727293720218
 20
6.496436727175641
 30
0.0
 11
-25.4955335530023
 21
6.926436727175655
 31
0.0
  0
LINE
  5
1DB1
330
2302
100
AcDbEntity
  8
SK3
  6
DASHED
100
AcDbLine
 10
-25.4955335530023
 20
-6.933563272824336
 30
0.0
 11
-25.24727293720218
 21
-6.503563272824337
 31
0.0
  0
LINE
  5
1DB2
330
2302
100
AcDbEntity
  8
SK3
  6
DASHED
100
AcDbLine
 10
-68.04727293720228
 20
9.016051969375652
 30
0.0
 11
-67.24009326020229
 21
8.550026565675658
 31
0.0
  0
LINE
  5
1DB3
330
2302
100
AcDbEntity
  8
1
  6
Continuous
100
AcDbLine
 10
-0.5193476972023064
 20
-22.15242737942433
 30
0.0
 11
-0.5193476972023064
 21
22.14530083367565
 31
0.0
  0
LINE
  5
1DB4
330
2302
100
AcDbEntity
  8
SK4
  6
CENTER
100
AcDbLine
 10
0.0027270627978169
 20
-23.23914100662433
 30
0.0
 11
0.0027270627978169
 21
23.23201446097568
 31
0.0
  0
LINE
  5
1DB5
330
2302
100
AcDbEntity
  8
1
  6
Continuous
100
AcDbLine
 10
0.5027270627978169
 20
-20.87856327282436
 30
0.0
 11
0.5027270627978169
 21
20.87143672717564
 31
0.0
  0
LINE
  5
1DB6
330
2302
100
AcDbEntity
  8
1
  6
Continuous
100
AcDbLine
 10
14.63899746159782
 20
-31.77856327282434
 30
0.0
 11
13.02022706279783
 21
-28.97477069632433
 31
0.0
  0
LINE
  5
1DB7
330
2302
100
AcDbEntity
  8
1
  6
Continuous
100
AcDbLine
 10
3.227727062797697
 20
-31.02856327282434
 30
0.0
 11
3.227727062797697
 21
31.02143672717567
 31
0.0
  0
LINE
  5
1DB8
330
2302
100
AcDbEntity
  8
1
  6
Continuous
100
AcDbLine
 10
7.566456663997797
 20
8.188436727175641
 30
0.0
 11
7.566456663997797
 21
31.77143672717566
 31
0.0
  0
LINE
  5
1DB9
330
2302
100
AcDbEntity
  8
1
  6
Continuous
100
AcDbLine
 10
7.576560293697809
 20
-8.195563272824337
 30
0.0
 11
7.576560293697809
 21
-31.77856327282434
 31
0.0
  0
LINE
  5
1DBA
330
2302
100
AcDbEntity
  8
1
  6
Continuous
100
AcDbLine
 10
9.185227062797821
 20
28.96764415067567
 30
0.0
 11
9.185227062797821
 21
8.188436727175641
 31
0.0
  0
LINE
  5
1DBB
330
2302
100
AcDbEntity
  8
1
  6
Continuous
100
AcDbLine
 10
9.185227062797821
 20
-8.195563272824337
 30
0.0
 11
9.185227062797821
 21
-28.97477069632433
 31
0.0
  0
LINE
  5
1DBC
330
2302
100
AcDbEntity
  8
SK4
  6
CENTER
100
AcDbLine
 10
11.10272706279769
 20
36.84643672717566
 30
0.0
 11
11.10272706279769
 21
28.54043672717568
 31
0.0
  0
LINE
  5
1DBD
330
2302
100
AcDbEntity
  8
SK4
  6
CENTER
100
AcDbLine
 10
11.10272706279769
 20
-27.25356327282434
 30
0.0
 11
11.10272706279769
 21
28.29643672717568
 31
0.0
  0
LINE
  5
1DBE
330
2302
100
AcDbEntity
  8
1
  6
Continuous
100
AcDbLine
 10
13.02022706279783
 20
28.96764415067567
 30
0.0
 11
14.63899746159782
 21
31.77143672717566
 31
0.0
  0
LINE
  5
1DBF
330
2302
100
AcDbEntity
  8
SK3
  6
DASHED
100
AcDbLine
 10
-68.04727293720228
 20
-9.023178515124328
 30
0.0
 11
-67.24009326020229
 21
-8.557153111324339
 31
0.0
  0
LINE
  5
1DC1
330
2302
100
AcDbEntity
  8
1
  6
Continuous
100
AcDbLine
 10
3.977727062797697
 20
-31.77856327282434
 30
0.0
 11
7.566456663997797
 21
-31.77856327282434
 31
0.0
  0
LINE
  5
1DC2
330
2302
100
AcDbEntity
  8
1
  6
Continuous
100
AcDbLine
 10
14.63899746159782
 20
-31.77856327282434
 30
0.0
 11
18.35272706279781
 21
-31.77856327282434
 31
0.0
  0
LINE
  5
1DC3
330
2302
100
AcDbEntity
  8
1
  6
Continuous
100
AcDbLine
 10
13.02022706279783
 20
-28.30356327282434
 30
0.0
 11
9.185227062797821
 21
-28.30356327282434
 31
0.0
  0
LINE
  5
1DC4
330
2302
100
AcDbEntity
  8
1
  6
Continuous
100
AcDbLine
 10
-68.24727293720229
 20
-12.27543945272433
 30
0.0
 11
-0.5193476972023064
 21
-22.15242737942433
 31
0.0
  0
LINE
  5
1DC5
330
2302
100
AcDbEntity
  8
1
  6
Continuous
100
AcDbLine
 10
13.02022706279783
 20
28.96764415067567
 30
0.0
 11
13.02022706279783
 21
8.188436727175641
 31
0.0
  0
LINE
  5
1DC6
330
2302
100
AcDbEntity
  8
1
  6
Continuous
100
AcDbLine
 10
13.02022706279783
 20
-8.195563272824337
 30
0.0
 11
13.02022706279783
 21
-28.97477069632433
 31
0.0
  0
LINE
  5
1DC7
330
2302
100
AcDbEntity
  8
1
  6
Continuous
100
AcDbLine
 10
14.62889383189781
 20
-8.195563272824337
 30
0.0
 11
14.62889383189781
 21
-31.77856327282434
 31
0.0
  0
LINE
  5
1DC8
330
2302
100
AcDbEntity
  8
1
  6
Continuous
100
AcDbLine
 10
14.63899746159782
 20
8.188436727175641
 30
0.0
 11
14.63899746159782
 21
31.77143672717566
 31
0.0
  0
LINE
  5
1DC9
330
2302
100
AcDbEntity
  8
1
  6
Continuous
100
AcDbLine
 10
19.10272706279769
 20
-31.02856327282434
 30
0.0
 11
19.10272706279769
 21
31.02143672717567
 31
0.0
  0
LINE
  5
1DCA
330
2302
100
AcDbEntity
  8
1
  6
Continuous
100
AcDbLine
 10
138.5027270627977
 20
-25.00356327282434
 30
0.0
 11
155.9617270627978
 21
-25.00356327282434
 31
0.0
  0
LINE
  5
1DCB
330
2302
100
AcDbEntity
  8
1
  6
Continuous
100
AcDbLine
 10
157.1197270627978
 20
-22.99756327282433
 30
0.0
 11
139.0027270627977
 21
-22.99756327282433
 31
0.0
  0
LINE
  5
1DCC
330
2302
100
AcDbEntity
  8
1
  6
Continuous
100
AcDbLine
 10
-0.6193476972023007
 20
-22.15242737942433
 30
0.0
 11
-0.5193476972023064
 21
-22.15242737942433
 31
0.0
  0
LINE
  5
1DCD
330
2302
100
AcDbEntity
  8
1
  6
Continuous
100
AcDbLine
 10
0.6343795603978038
 20
-21.87856327282435
 30
0.0
 11
2.227727062797697
 21
-21.87856327282435
 31
0.0
  0
LINE
  5
1DCE
330
2302
100
AcDbEntity
  8
1
  6
Continuous
100
AcDbLine
 10
19.90272706279771
 20
-21.72856327282433
 30
0.0
 11
126.3605135003978
 21
-21.72856327282433
 31
0.0
  0
LINE
  5
1DCF
330
2302
100
AcDbEntity
  8
1
  6
Continuous
100
AcDbLine
 10
150.0027270627978
 20
-20.39956327282433
 30
0.0
 11
157.6937270627977
 21
-20.39956327282433
 31
0.0
  0
LINE
  5
1DD0
330
2302
100
AcDbEntity
  8
1
  6
Continuous
100
AcDbLine
 10
137.0027270627977
 20
-20.00356327282433
 30
0.0
 11
128.9137270627977
 21
-20.00356327282433
 31
0.0
  0
LINE
  5
1DD1
330
2302
100
AcDbEntity
  8
1
  6
Continuous
100
AcDbLine
 10
139.0027270627977
 20
-19.99756327282433
 30
0.0
 11
157.6937270627977
 21
-19.99756327282433
 31
0.0
  0
LINE
  5
1DD2
330
2302
100
AcDbEntity
  8
1
  6
Continuous
100
AcDbLine
 10
137.0027270627977
 20
-19.08356327282433
 30
0.0
 11
130.9997270627977
 21
-19.08356327282433
 31
0.0
  0
LINE
  5
1DD3
330
2302
100
AcDbEntity
  8
1
  6
Continuous
100
AcDbLine
 10
3.227727062797697
 20
9.18843672717567
 30
0.0
 11
4.227727062797697
 21
8.188436727175641
 31
0.0
  0
LINE
  5
1DD4
330
2302
100
AcDbEntity
  8
1
  6
Continuous
100
AcDbLine
 10
3.227727062797697
 20
-9.195563272824333
 30
0.0
 11
4.227727062797697
 21
-8.195563272824337
 31
0.0
  0
LINE
  5
1DD5
330
2302
100
AcDbEntity
  8
1
  6
Continuous
100
AcDbLine
 10
-0.5193476972023064
 20
-22.15242737942433
 30
0.0
 11
0.3755605152978205
 21
-21.91263744652433
 31
0.0
  0
LINE
  5
1DD6
330
2302
100
AcDbEntity
  8
SK3
  6
DASHED
100
AcDbLine
 10
95.99972706279769
 20
-11.75356327282434
 30
0.0
 11
116.7597270627977
 21
-11.75356327282434
 31
0.0
  0
LINE
  5
1DD7
330
2302
100
AcDbEntity
  8
SK3
  6
DASHED
100
AcDbLine
 10
-67.04009326020218
 20
-8.503563272824322
 30
0.0
 11
-63.71580107460218
 21
-8.503563272824322
 31
0.0
  0
LINE
  5
1DD8
330
2302
100
AcDbEntity
  8
1
  6
Continuous
100
AcDbLine
 10
19.10272706279769
 20
-8.195563272824337
 30
0.0
 11
4.227727062797697
 21
-8.195563272824337
 31
0.0
  0
LINE
  5
1DD9
330
2302
100
AcDbEntity
  8
SK3
  6
DASHED
100
AcDbLine
 10
-62.90477293720221
 20
-7.941063272824322
 30
0.0
 11
-33.24727293720219
 21
-7.941063272824322
 31
0.0
  0
LINE
  5
1DDA
330
2302
100
AcDbEntity
  8
1
  6
Continuous
100
AcDbLine
 10
9.185227062797821
 20
28.96764415067567
 30
0.0
 11
7.566456663997797
 21
31.77143672717566
 31
0.0
  0
LINE
  5
1DDB
330
2302
100
AcDbEntity
  8
1
  6
Continuous
100
AcDbLine
 10
7.566456663997797
 20
-31.77856327282434
 30
0.0
 11
9.185227062797821
 21
-28.97477069632433
 31
0.0
  0
LINE
  5
1DDC
330
2302
100
AcDbEntity
  8
SK3
  6
DASHED
100
AcDbLine
 10
-61.89727293720219
 20
-6.933563272824336
 30
0.0
 11
-25.4955335530023
 21
-6.933563272824336
 31
0.0
  0
LINE
  5
1DDD
330
2302
100
AcDbEntity
  8
SK3
  6
DASHED
100
AcDbLine
 10
92.96863434759783
 20
-6.503563272824337
 30
0.0
 11
-25.24727293720218
 21
-6.503563272824337
 31
0.0
  0
LINE
  5
1DDE
330
2302
100
AcDbEntity
  8
1
  6
Continuous
100
AcDbLine
 10
139.0027270627977
 20
-3.003563272824337
 30
0.0
 11
157.6937270627977
 21
-3.003563272824337
 31
0.0
  0
LINE
  5
1DE0
330
2302
100
AcDbEntity
  8
SK3
  6
DASHED
100
AcDbLine
 10
116.7597270627977
 20
-11.75356327282434
 30
0.0
 11
146.9997270627978
 21
-16.00383899582433
 31
0.0
  0
LINE
  5
1DE1
330
2302
100
AcDbEntity
  8
SK3
  6
DASHED
100
AcDbLine
 10
116.7597270627977
 20
11.74643672717567
 30
0.0
 11
146.9997270627978
 21
15.99772926247565
 31
0.0
  0
LINE
  5
1DE2
330
2302
100
AcDbEntity
  8
1
  6
Continuous
100
AcDbLine
 10
157.6937270627977
 20
2.99643672717567
 30
0.0
 11
139.0027270627977
 21
2.99643672717567
 31
0.0
  0
LINE
  5
1DE3
330
2302
100
AcDbEntity
  8
SK3
  6
DASHED
100
AcDbLine
 10
-25.24727293720218
 20
6.496436727175641
 30
0.0
 11
92.96863434759783
 21
6.496436727175641
 31
0.0
  0
LINE
  5
1DE4
330
2302
100
AcDbEntity
  8
SK3
  6
DASHED
100
AcDbLine
 10
-25.4955335530023
 20
6.926436727175655
 30
0.0
 11
-61.89727293720219
 21
6.926436727175655
 31
0.0
  0
LINE
  5
1DE5
330
2302
100
AcDbEntity
  8
SK3
  6
DASHED
100
AcDbLine
 10
-33.24727293720219
 20
7.933936727175634
 30
0.0
 11
-62.90477293720221
 21
7.933936727175634
 31
0.0
  0
LINE
  5
1DE6
330
2302
100
AcDbEntity
  8
1
  6
Continuous
100
AcDbLine
 10
19.10272706279769
 20
8.188436727175641
 30
0.0
 11
4.227727062797697
 21
8.188436727175641
 31
0.0
  0
LINE
  5
1DE7
330
2302
100
AcDbEntity
  8
SK3
  6
DASHED
100
AcDbLine
 10
-63.71580107460218
 20
8.496436727175641
 30
0.0
 11
-67.04009326020218
 21
8.496436727175641
 31
0.0
  0
LINE
  5
1DE8
330
2302
100
AcDbEntity
  8
1
  6
Continuous
100
AcDbLine
 10
0.3755605152978205
 20
21.90551090087564
 30
0.0
 11
-0.5193476972023064
 21
22.14530083367565
 31
0.0
  0
LINE
  5
1DE9
330
2302
100
AcDbEntity
  8
SK3
  6
DASHED
100
AcDbLine
 10
95.99972706279769
 20
11.74643672717567
 30
0.0
 11
116.7597270627977
 21
11.74643672717567
 31
0.0
  0
LINE
  5
1DEA
330
2302
100
AcDbEntity
  8
1
  6
Continuous
100
AcDbLine
 10
137.0027270627977
 20
19.07643672717567
 30
0.0
 11
130.9987270627978
 21
19.07643672717567
 31
0.0
  0
LINE
  5
1DEB
330
2302
100
AcDbEntity
  8
1
  6
Continuous
100
AcDbLine
 10
139.0027270627977
 20
19.99043672717564
 30
0.0
 11
157.6937270627977
 21
19.99043672717564
 31
0.0
  0
LINE
  5
1DEC
330
2302
100
AcDbEntity
  8
1
  6
Continuous
100
AcDbLine
 10
137.0027270627977
 20
19.99643672717567
 30
0.0
 11
128.9137270627977
 21
19.99643672717567
 31
0.0
  0
LINE
  5
1DED
330
2302
100
AcDbEntity
  8
1
  6
Continuous
100
AcDbLine
 10
150.0027270627978
 20
20.39243672717567
 30
0.0
 11
157.6937270627977
 21
20.39243672717567
 31
0.0
  0
LINE
  5
1DEE
330
2302
100
AcDbEntity
  8
1
  6
Continuous
100
AcDbLine
 10
126.3605135003978
 20
21.72143672717564
 30
0.0
 11
19.90272706279771
 21
21.72143672717564
 31
0.0
  0
LINE
  5
1DEF
330
2302
100
AcDbEntity
  8
1
  6
Continuous
100
AcDbLine
 10
2.227727062797697
 20
21.87143672717567
 30
0.0
 11
0.6343795603978038
 21
21.87143672717567
 31
0.0
  0
LINE
  5
1DF0
330
2302
100
AcDbEntity
  8
1
  6
Continuous
100
AcDbLine
 10
-0.5193476972023064
 20
22.14530083367565
 30
0.0
 11
-0.6193476972023007
 21
22.14530083367565
 31
0.0
  0
LINE
  5
1DF1
330
2302
100
AcDbEntity
  8
1
  6
Continuous
100
AcDbLine
 10
157.1197270627978
 20
22.99043672717564
 30
0.0
 11
139.0027270627977
 21
22.99043672717564
 31
0.0
  0
LINE
  5
1DF2
330
2302
100
AcDbEntity
  8
1
  6
Continuous
100
AcDbLine
 10
155.9617270627978
 20
24.99643672717568
 30
0.0
 11
138.5027270627977
 21
24.99643672717568
 31
0.0
  0
LINE
  5
1DF3
330
2302
100
AcDbEntity
  8
1
  6
Continuous
100
AcDbLine
 10
9.185227062797821
 20
28.29643672717568
 30
0.0
 11
13.02022706279783
 21
28.29643672717568
 31
0.0
  0
LINE
  5
1DF4
330
2302
100
AcDbEntity
  8
1
  6
Continuous
100
AcDbLine
 10
-68.24727293720229
 20
12.26831290697566
 30
0.0
 11
-0.5193476972023064
 21
22.14530083367565
 31
0.0
  0
LINE
  5
1DF5
330
2302
100
AcDbEntity
  8
1
  6
Continuous
100
AcDbLine
 10
18.35272706279781
 20
31.77143672717566
 30
0.0
 11
14.63899746159782
 21
31.77143672717566
 31
0.0
  0
LINE
  5
1DF6
330
2302
100
AcDbEntity
  8
1
  6
Continuous
100
AcDbLine
 10
7.566456663997797
 20
31.77143672717566
 30
0.0
 11
3.977727062797697
 21
31.77143672717566
 31
0.0
  0
LINE
  5
1DF7
330
2302
100
AcDbEntity
  8
SK3
  6
DASHED
100
AcDbLine
 10
92.96863434759783
 20
-6.503563272824337
 30
0.0
 11
95.99972706279769
 21
-11.75356327282434
 31
0.0
  0
LINE
  5
1DF8
330
2302
100
AcDbEntity
  8
SK3
  6
DASHED
100
AcDbLine
 10
92.96863434759783
 20
-6.503563272824337
 30
0.0
 11
92.96863434759783
 21
6.496436727175641
 31
0.0
  0
LINE
  5
1DF9
330
2302
100
AcDbEntity
  8
SK3
  6
DASHED
100
AcDbLine
 10
92.96863434759783
 20
6.496436727175641
 30
0.0
 11
95.99972706279769
 21
11.74643672717567
 31
0.0
  0
LINE
  5
1DFB
330
2302
100
AcDbEntity
  8
SK3
  6
DASHED
100
AcDbLine
 10
95.99972706279769
 20
11.74643672717567
 30
0.0
 11
95.99972706279769
 21
-11.75356327282434
 31
0.0
  0
LINE
  5
1DFC
330
2302
100
AcDbEntity
  8
1
  6
Continuous
100
AcDbLine
 10
128.2067270627976
 20
20.28943672717566
 30
0.0
 11
127.0676202815977
 21
21.42854350837565
 31
0.0
  0
LINE
  5
1DFD
330
2302
100
AcDbEntity
  8
SK3
  6
DASHED
100
AcDbLine
 10
116.7597270627977
 20
-11.75356327282434
 30
0.0
 11
116.7597270627977
 21
11.74643672717567
 31
0.0
  0
LINE
  5
1DFE
330
2302
100
AcDbEntity
  8
1
  6
Continuous
100
AcDbLine
 10
126.7747270627977
 20
20.37143672717564
 30
0.0
 11
126.7747270627977
 21
-20.12856327282432
 31
0.0
  0
LINE
  5
1DFF
330
2302
100
AcDbEntity
  8
1
  6
Continuous
100
AcDbLine
 10
128.4995501425978
 20
18.69634827177567
 30
0.0
 11
128.4995501425978
 21
-18.90365172822434
 31
0.0
  0
LINE
  5
1E00
330
2302
100
AcDbEntity
  8
1
  6
Continuous
100
AcDbLine
 10
130.9997270627977
 20
-19.08356327282433
 30
0.0
 11
130.9987270627978
 21
19.07643672717567
 31
0.0
  0
LINE
  5
1E01
330
2302
100
AcDbEntity
  8
1
  6
Continuous
100
AcDbLine
 10
130.9997270627977
 20
-19.08356327282433
 30
0.0
 11
130.9997270627977
 21
-20.00356327282433
 31
0.0
  0
LINE
  5
1E02
330
2302
100
AcDbEntity
  8
1
  6
Continuous
100
AcDbLine
 10
130.9987270627978
 20
19.07643672717567
 30
0.0
 11
130.9997270627977
 21
19.99643672717567
 31
0.0
  0
LINE
  5
1E03
330
2302
100
AcDbEntity
  8
1
  6
Continuous
100
AcDbLine
 10
127.0676202815977
 20
-21.43567005402433
 30
0.0
 11
128.2067270627976
 21
-20.29656327282433
 31
0.0
  0
LINE
  5
1E04
330
2302
100
AcDbEntity
  8
1
  6
Continuous
100
AcDbLine
 10
137.0027270627977
 20
23.49643672717568
 30
0.0
 11
137.0027270627977
 21
-23.50356327282435
 31
0.0
  0
LINE
  5
1E05
330
2302
100
AcDbEntity
  8
1
  6
Continuous
100
AcDbLine
 10
139.0027270627977
 20
22.99043672717564
 30
0.0
 11
139.0027270627977
 21
19.99043672717564
 31
0.0
  0
LINE
  5
1E06
330
2302
100
AcDbEntity
  8
1
  6
Continuous
100
AcDbLine
 10
139.0027270627977
 20
2.99643672717567
 30
0.0
 11
139.0027270627977
 21
-3.003563272824337
 31
0.0
  0
LINE
  5
1E07
330
2302
100
AcDbEntity
  8
1
  6
Continuous
100
AcDbLine
 10
139.0027270627977
 20
-22.99756327282433
 30
0.0
 11
139.0027270627977
 21
-19.99756327282433
 31
0.0
  0
LINE
  5
1E08
330
2302
100
AcDbEntity
  8
SK3
  6
DASHED
100
AcDbLine
 10
146.9997270627978
 20
24.99643672717568
 30
0.0
 11
146.9997270627978
 21
-25.00356327282434
 31
0.0
  0
LINE
  5
1E09
330
2302
100
AcDbEntity
  8
1
  6
Continuous
100
AcDbLine
 10
160.0027270627978
 20
17.99643672717567
 30
0.0
 11
155.9617270627978
 21
24.99643672717568
 31
0.0
  0
LINE
  5
1E0A
330
2302
100
AcDbEntity
  8
1
  6
Continuous
100
AcDbLine
 10
155.9617270627978
 20
24.99643672717568
 30
0.0
 11
155.9617270627978
 21
22.99043672717564
 31
0.0
  0
LINE
  5
1E0B
330
2302
100
AcDbEntity
  8
1
  6
Continuous
100
AcDbLine
 10
155.9617270627978
 20
19.99043672717564
 30
0.0
 11
155.9617270627978
 21
2.99643672717567
 31
0.0
  0
LINE
  5
1E0C
330
2302
100
AcDbEntity
  8
1
  6
Continuous
100
AcDbLine
 10
155.9617270627978
 20
-3.003563272824337
 30
0.0
 11
155.9617270627978
 21
-19.99756327282433
 31
0.0
  0
LINE
  5
1E0D
330
2302
100
AcDbEntity
  8
1
  6
Continuous
100
AcDbLine
 10
155.9617270627978
 20
-22.99756327282433
 30
0.0
 11
155.9617270627978
 21
-25.00356327282434
 31
0.0
  0
LINE
  5
1E0E
330
2302
100
AcDbEntity
  8
1
  6
Continuous
100
AcDbLine
 10
157.6937270627977
 20
-19.99756327282433
 30
0.0
 11
157.6937270627977
 21
-22.00356327282436
 31
0.0
  0
LINE
  5
1E0F
330
2302
100
AcDbEntity
  8
1
  6
Continuous
100
AcDbLine
 10
157.6937270627977
 20
-3.003563272824337
 30
0.0
 11
157.6937270627977
 21
2.99643672717567
 31
0.0
  0
LINE
  5
1E10
330
2302
100
AcDbEntity
  8
1
  6
Continuous
100
AcDbLine
 10
157.6937270627977
 20
19.99043672717564
 30
0.0
 11
157.6937270627977
 21
21.99643672717563
 31
0.0
  0
LINE
  5
1E11
330
2302
100
AcDbEntity
  8
1
  6
Continuous
100
AcDbLine
 10
155.9617270627978
 20
-25.00356327282434
 30
0.0
 11
160.0027270627978
 21
-18.00356327282433
 31
0.0
  0
LINE
  5
1E12
330
2302
100
AcDbEntity
  8
1
  6
Continuous
100
AcDbLine
 10
160.0027270627978
 20
-18.00356327282433
 30
0.0
 11
160.0027270627978
 21
17.99643672717567
 31
0.0
  0
ARC
  5
1E14
330
2302
100
AcDbEntity
  8
1
  6
Continuous
100
AcDbCircle
 10
150.0577270627976
 20
45.21243672717566
 30
0.0
 40
24.82
100
AcDbArc
 50
243.5505829999998
 51
269.8730470000008
  0
ARC
  5
1E15
330
2302
100
AcDbEntity
  8
1
  6
Continuous
100
AcDbCircle
 10
150.0577270627976
 20
-45.21956327282433
 30
0.0
 40
24.82
100
AcDbArc
 50
90.1269530000008
 51
116.4494089999995
  0
CIRCLE
  5
1E16
330
2302
100
AcDbEntity
  8
1
  6
Continuous
100
AcDbCircle
 10
11.10272706279769
 20
-0.0035632728243513
 30
0.0
 40
5.25
  0
CIRCLE
  5
1E17
330
2302
100
AcDbEntity
  8
1
  6
Continuous
100
AcDbCircle
 10
11.10272706279769
 20
-0.0035632728243513
 30
0.0
 40
5.0
  0
CIRCLE
  5
1E18
330
2302
100
AcDbEntity
  8
1
  6
Continuous
100
AcDbCircle
 10
11.10272706279769
 20
-0.0035632728243513
 30
0.0
 40
3.0
  0
ARC
  5
1E19
330
2302
100
AcDbEntity
  8
1
  6
Continuous
100
AcDbCircle
 10
-66.24727293720221
 20
10.53882407147564
 30
0.0
 40
2.0
100
AcDbArc
 50
98.29714399999954
 51
180.0
  0
ARC
  5
1E1A
330
2302
100
AcDbEntity
  8
1
  6
Continuous
100
AcDbCircle
 10
-66.24727293720221
 20
-10.54595061712433
 30
0.0
 40
2.0
100
AcDbArc
 50
180.0
 51
261.7028559999988
  0
ARC
  5
1E1B
330
2302
100
AcDbEntity
  8
1
  6
Continuous
100
AcDbCircle
 10
138.5027270627977
 20
23.49643672717568
 30
0.0
 40
1.5
100
AcDbArc
 50
90.0
 51
180.0
  0
ARC
  5
1E1C
330
2302
100
AcDbEntity
  8
1
  6
Continuous
100
AcDbCircle
 10
138.5027270627977
 20
-23.50356327282435
 30
0.0
 40
1.5
100
AcDbArc
 50
179.9999850000001
 51
269.9999689999988
  0
ARC
  5
1E1D
330
2302
100
AcDbEntity
  8
1
  6
Continuous
100
AcDbCircle
 10
128.9139406317978
 20
-21.00356325002433
 30
0.0
 40
1.0
100
AcDbArc
 50
90.01223660529937
 51
135.0086535103996
  0
ARC
  5
1E1E
330
2302
100
AcDbEntity
  8
1
  6
Continuous
100
AcDbCircle
 10
128.9139406317978
 20
20.99643670437565
 30
0.0
 40
1.0
100
AcDbArc
 50
224.9913464894996
 51
269.9877633948
  0
ARC
  5
1E1F
330
2302
100
AcDbEntity
  8
1
  6
Continuous
100
AcDbCircle
 10
0.6343795603978038
 20
-22.87856327282435
 30
0.0
 40
1.0
100
AcDbArc
 50
90.0
 51
104.9999999999995
  0
ARC
  5
1E20
330
2302
100
AcDbEntity
  8
1
  6
Continuous
100
AcDbCircle
 10
0.6343795603978038
 20
22.87143672717564
 30
0.0
 40
1.0
100
AcDbArc
 50
255.0000000000004
 51
270.0
  0
ARC
  5
1E21
330
2302
100
AcDbEntity
  8
1
  6
Continuous
100
AcDbCircle
 10
2.227727062797697
 20
-22.87856327282435
 30
0.0
 40
1.0
100
AcDbArc
 50
0.0
 51
90.0
  0
ARC
  5
1E22
330
2302
100
AcDbEntity
  8
1
  6
Continuous
100
AcDbCircle
 10
2.227727062797697
 20
22.87143672717564
 30
0.0
 40
1.0
100
AcDbArc
 50
270.0
 51
0.0
  0
ARC
  5
1E23
330
2302
100
AcDbEntity
  8
1
  6
Continuous
100
AcDbCircle
 10
126.3605135003978
 20
-20.72856327282433
 30
0.0
 40
1.0
100
AcDbArc
 50
270.0
 51
315.0000000000002
  0
ARC
  5
1E24
330
2302
100
AcDbEntity
  8
1
  6
Continuous
100
AcDbCircle
 10
126.3605135003978
 20
20.72143672717568
 30
0.0
 40
1.0
100
AcDbArc
 50
44.99999999999977
 51
90.0
  0
ARC
  5
1E25
330
2302
100
AcDbEntity
  8
1
  6
Continuous
100
AcDbCircle
 10
19.90272706279771
 20
-22.52856327282433
 30
0.0
 40
0.8
100
AcDbArc
 50
90.0
 51
180.0
  0
ARC
  5
1E26
330
2302
100
AcDbEntity
  8
1
  6
Continuous
100
AcDbCircle
 10
19.90272706279771
 20
22.52143672717567
 30
0.0
 40
0.8
100
AcDbArc
 50
180.0
 51
270.0
  0
ARC
  5
1E27
330
2302
100
AcDbEntity
  8
1
  6
Continuous
100
AcDbCircle
 10
18.35272706279781
 20
31.02143672717567
 30
0.0
 40
0.75
100
AcDbArc
 50
0.0
 51
90.0
  0
ARC
  5
1E28
330
2302
100
AcDbEntity
  8
1
  6
Continuous
100
AcDbCircle
 10
3.977727062797697
 20
31.02143672717567
 30
0.0
 40
0.75
100
AcDbArc
 50
90.0
 51
180.0
  0
ARC
  5
1E29
330
2302
100
AcDbEntity
  8
1
  6
Continuous
100
AcDbCircle
 10
18.35272706279781
 20
-31.02856327282434
 30
0.0
 40
0.75
100
AcDbArc
 50
270.0
 51
0.0
  0
ARC
  5
1E2A
330
2302
100
AcDbEntity
  8
1
  6
Continuous
100
AcDbCircle
 10
3.977727062797697
 20
-31.02856327282434
 30
0.0
 40
0.75
100
AcDbArc
 50
180.0
 51
270.0
  0
ARC
  5
1E2B
330
2302
100
AcDbEntity
  8
SK3
  6
DASHED
100
AcDbCircle
 10
-63.71580107460218
 20
7.896436727175654
 30
0.0
 40
0.6
100
AcDbArc
 50
44.99999999999977
 51
90.0
  0
ARC
  5
1E2C
330
2302
100
AcDbEntity
  8
SK3
  6
DASHED
100
AcDbCircle
 10
-63.71580107460218
 20
-7.903563272824335
 30
0.0
 40
0.6
100
AcDbArc
 50
270.0
 51
315.0000000000002
  0
ARC
  5
1E2D
330
2302
100
AcDbEntity
  8
SK3
  6
DASHED
100
AcDbCircle
 10
-67.84727293720229
 20
9.362462130975671
 30
0.0
 40
0.4
100
AcDbArc
 50
180.0
 51
240.0
  0
ARC
  5
1E2E
330
2302
100
AcDbEntity
  8
SK3
  6
DASHED
100
AcDbCircle
 10
-67.04009326020218
 20
8.896436727175668
 30
0.0
 40
0.4
100
AcDbArc
 50
240.0
 51
269.999999999899
  0
ARC
  5
1E2F
330
2302
100
AcDbEntity
  8
SK3
  6
DASHED
100
AcDbCircle
 10
-67.04009326020218
 20
-8.903563272824332
 30
0.0
 40
0.4
100
AcDbArc
 50
90.00000000009931
 51
119.9999999999999
  0
ARC
  5
1E30
330
2302
100
AcDbEntity
  8
SK3
  6
DASHED
100
AcDbCircle
 10
-67.84727293720229
 20
-9.369588676624324
 30
0.0
 40
0.4
100
AcDbArc
 50
120.0000000000997
 51
180.0
  0
TEXT
  5
1EB6
330
2302
100
AcDbEntity
  8
SK6
100
AcDbText
 10
-55.9151353801634
 20
-28.44269808183233
 30
0.0
 40
3.5
  1
AA3B14-40 32 160
 41
0.72
  7
TEXTSTYLE_2
100
AcDbText
  0
TEXT
  5
1EBC
330
2302
100
AcDbEntity
  8
SK6
100
AcDbText
 10
-44.89120426561789
 20
10.81324274766763
 30
0.0
 40
3.5
  1
ASME B5.50 CAT40
 41
0.72
  7
TEXTSTYLE_2
100
AcDbText
  0
LINE
  5
1F44
330
2302
100
AcDbEntity
  8
4
100
AcDbLine
 10
-70.54727293720228
 20
-0.0035632728243513
 30
0.0
 11
163.4027270627977
 21
-0.0035632728243513
 31
0.0
  0
LINE
  5
1F45
330
2302
100
AcDbEntity
  8
SK4
100
AcDbLine
 10
-70.54727293720228
 20
-0.0035632728243513
 30
0.0
 11
163.4027270627977
 21
-0.0035632728243513
 31
0.0
  0
POINT
  5
1F4E
330
2302
100
AcDbEntity
  8
81
  6
CENTER
100
AcDbPoint
 10
160.0027270627978
 20
-0.0035632728243513
 30
0.0
1001
ACDBBLOCKREPETAG
1070
     1
1071
      156
1005
1F4E
  0
LINE
  5
1F4F
330
2302
100
AcDbEntity
  8
81
100
AcDbLine
 10
147.3427270627977
 20
-0.0035632728243513
 30
0.0
 11
157.3427270627977
 21
-0.0035632728243513
 31
0.0
1001
ACDBBLOCKREPETAG
1070
     1
1071
      157
1005
1F4F
  0
POINT
  5
1F50
330
2302
100
AcDbEntity
  8
80
  6
CENTER
100
AcDbPoint
 10
0.0027270627978169
 20
-0.0035632728243513
 30
0.0
1001
ACDBBLOCKREPETAG
1070
     1
1071
      158
1005
1F50
  0
LINE
  5
1F51
330
2302
100
AcDbEntity
  8
80
100
AcDbLine
 10
0.0027270627978169
 20
-0.0035632728243513
 30
0.0
 11
-9.997261979765568
 21
-0.0035632728243513
 31
0.0
1001
ACDBBLOCKREPETAG
1070
     1
1071
      159
1005
1F51
  0
DIMENSION
  5
23F2
330
2302
100
AcDbEntity
  8
2
 62
     7
100
AcDbDimension
  2
*D49
 10
0.0027270627978153
 20
-49.52389112641732
 30
0.0
 11
73.67272706279776
 21
-47.68389112641732
 31
0.0
 70
    32
 71
     5
 42
147.3399999999999
  3
STANDARD
100
AcDbAlignedDimension
 13
147.3427270627977
 23
-0.0035632728243513
 33
0.0
 14
0.0027270627978169
 24
-23.23914100662433
 34
0.0
100
AcDbRotatedDimension
1001
ACAD
1000
DSTYLE
1002
{
1070
   147
1040
0.09
1070
    72
1070
     0
1070
    71
1070
     0
1002
}
  0
DIMENSION
  5
2480
330
2302
100
AcDbEntity
  8
SK2
 62
     7
100
AcDbDimension
  2
*D50
 10
-89.58686410462249
 20
-31.77856327282431
 30
0.0
 11
-91.4268641046225
 21
-0.0035632728243278
 31
0.0
 70
    32
 71
     5
 42
63.54999999999999
  3
STANDARD
100
AcDbAlignedDimension
 13
3.977727062797697
 23
31.77143672717566
 33
0.0
 14
3.977727062797697
 24
-31.77856327282434
 34
0.0
 50
90.0
100
AcDbRotatedDimension
1001
ACAD
1000
DSTYLE
1002
{
1070
   147
1040
0.09
1070
    72
1070
     0
1070
    71
1070
     0
1070
     3
1000
ø<>
1002
}
  0
VIEWPORT
  5
19A4
102
{ACAD_XDICTIONARY
360
25E0
102
}
330
22FE
100
AcDbEntity
 67
     1
  8
0
100
AcDbViewport
 10
5.656249879852054
 20
3.940416471226006
 30
0.0
 40
20.37689369710756
 41
8.742606248029574
 68
     1
 69
     1
 12
5.656249879852054
 22
3.940416471226006
 13
0.0
 23
0.0
 14
10.0
 24
10.0
 15
10.0
 25
10.0
 16
0.0
 26
0.0
 36
1.0
 17
0.0
 27
0.0
 37
0.0
 42
50.0
 43
0.0
 44
0.0
 45
8.742606248029574
 50
0.0
 51
0.0
 72
   100
 90
   819232
  1

281
     0
 71
     0
 74
     0
110
0.0
120
0.0
130
0.0
111
1.0
121
0.0
131
0.0
112
0.0
122
1.0
132
0.0
 79
     0
146
0.0
  0
VIEWPORT
  5
19A9
102
{ACAD_XDICTIONARY
360
25E2
102
}
330
22FE
100
AcDbEntity
 67
     1
  8
0
100
AcDbViewport
 10
5.655416503665952
 20
3.942916900154171
 30
0.0
 40
9.048666405865523
 41
6.308667040246676
 68
     2
 69
     2
 12
-0.1538021399398133
 22
7.989341809812112
 13
0.0
 23
0.0
 14
10.0
 24
10.0
 15
10.0
 25
10.0
 16
0.0
 26
0.0
 36
1.0
 17
0.0
 27
0.0
 37
0.0
 42
50.0
 43
0.0
 44
0.0
 45
106.374553117978
 50
0.0
 51
0.0
 72
   100
 90
   819232
  1

281
     0
 71
     0
 74
     0
110
0.0
120
0.0
130
0.0
111
1.0
121
0.0
131
0.0
112
0.0
122
1.0
132
0.0
 79
     0
146
0.0
  0
ENDSEC
  0
SECTION
  2
OBJECTS
  0
DICTIONARY
  5
2298
330
0
100
AcDbDictionary
281
     1
  3
ACAD_COLOR
350
22F9
  3
ACAD_GROUP
350
2299
  3
ACAD_LAYOUT
350
22F8
  3
ACAD_MATERIAL
350
229C
  3
ACAD_MLEADERSTYLE
350
22FC
  3
ACAD_MLINESTYLE
350
22F5
  3
ACAD_PLOTSETTINGS
350
22F7
  3
ACAD_PLOTSTYLENAME
350
229A
  3
ACAD_SCALELIST
350
22C9
  3
ACAD_TABLESTYLE
350
22FA
  3
ACAD_VISUALSTYLE
350
22B5
  3
ACDB_RECOMPOSE_DATA
350
25DE
  3
AcDbVariableDictionary
350
2439
  3
DWGPROPS
350
25DF
  0
DICTIONARY
  5
2423
330
22EB
100
AcDbDictionary
280
     1
281
     1
  3
ADSK_XREC_LAYER_RECONCILED
360
2424
  0
DICTIONARY
  5
2425
330
230A
100
AcDbDictionary
280
     1
281
     1
  3
ADSK_XREC_LAYER_RECONCILED
360
2426
  0
DICTIONARY
  5
2427
330
230C
100
AcDbDictionary
280
     1
281
     1
  3
ADSK_XREC_LAYER_RECONCILED
360
2428
  0
DICTIONARY
  5
2429
330
230D
100
AcDbDictionary
280
     1
281
     1
  3
ADSK_XREC_LAYER_RECONCILED
360
242A
  0
DICTIONARY
  5
242B
330
230E
100
AcDbDictionary
280
     1
281
     1
  3
ADSK_XREC_LAYER_RECONCILED
360
242C
  0
DICTIONARY
  5
242D
330
230F
100
AcDbDictionary
280
     1
281
     1
  3
ADSK_XREC_LAYER_RECONCILED
360
242E
  0
DICTIONARY
  5
242F
330
2310
100
AcDbDictionary
280
     1
281
     1
  3
ADSK_XREC_LAYER_RECONCILED
360
2430
  0
DICTIONARY
  5
2431
330
2311
100
AcDbDictionary
280
     1
281
     1
  3
ADSK_XREC_LAYER_RECONCILED
360
2432
  0
DICTIONARY
  5
2433
330
2312
100
AcDbDictionary
280
     1
281
     1
  3
ADSK_XREC_LAYER_RECONCILED
360
2434
  0
DICTIONARY
  5
2435
330
2313
100
AcDbDictionary
280
     1
281
     1
  3
ADSK_XREC_LAYER_RECONCILED
360
2436
  0
DICTIONARY
  5
2437
330
2314
100
AcDbDictionary
280
     1
281
     1
  3
ADSK_XREC_LAYER_RECONCILED
360
2438
  0
DICTIONARY
  5
25E0
330
19A4
100
AcDbDictionary
280
     1
281
     1
  3
ACAD_XREC_ROUNDTRIP
360
25E1
  0
DICTIONARY
  5
25E2
330
19A9
100
AcDbDictionary
280
     1
281
     1
  3
ACAD_XREC_ROUNDTRIP
360
25E3
  0
DICTIONARY
  5
22F9
102
{ACAD_REACTORS
330
2298
102
}
330
2298
100
AcDbDictionary
281
     1
  0
DICTIONARY
  5
2299
102
{ACAD_REACTORS
330
2298
102
}
330
2298
100
AcDbDictionary
281
     1
  0
DICTIONARY
  5
22F8
102
{ACAD_REACTORS
330
2298
102
}
330
2298
100
AcDbDictionary
281
     1
  3
Layout1
350
2301
  3
Model
350
2305
  0
DICTIONARY
  5
229C
102
{ACAD_REACTORS
330
2298
102
}
330
2298
100
AcDbDictionary
281
     1
  3
ByBlock
350
22A5
  3
ByLayer
350
229D
  3
Global
350
22AD
  0
DICTIONARY
  5
22FC
102
{ACAD_REACTORS
330
2298
102
}
330
2298
100
AcDbDictionary
281
     1
  3
Standard
350
22FD
  0
DICTIONARY
  5
22F5
102
{ACAD_REACTORS
330
2298
102
}
330
2298
100
AcDbDictionary
281
     1
  3
Standard
350
22F6
  0
DICTIONARY
  5
22F7
102
{ACAD_REACTORS
330
2298
102
}
330
2298
100
AcDbDictionary
281
     1
  0
ACDBDICTIONARYWDFLT
  5
229A
102
{ACAD_REACTORS
330
2298
102
}
330
2298
100
AcDbDictionary
281
     1
  3
Normal
350
229B
100
AcDbDictionaryWithDefault
340
229B
  0
DICTIONARY
  5
22C9
102
{ACAD_REACTORS
330
2298
102
}
330
2298
100
AcDbDictionary
281
     1
  3
A0
350
22CA
  3
A1
350
22CB
  3
A2
350
22CC
  3
A3
350
22CD
  3
A4
350
22CE
  3
A5
350
22CF
  3
A6
350
22D0
  3
A7
350
22D1
  3
A8
350
22D2
  3
A9
350
22D3
  3
B0
350
22D4
  3
B1
350
22D5
  3
B2
350
22D6
  3
B3
350
22D7
  3
B4
350
22D8
  3
B5
350
22D9
  3
B6
350
22DA
  3
B7
350
22DB
  3
B8
350
22DC
  3
B9
350
22DD
  3
C0
350
22DE
  3
C1
350
22DF
  3
C2
350
22E0
  3
C3
350
22E1
  3
C4
350
22E2
  3
C5
350
22E3
  3
C6
350
22E4
  3
C7
350
22E5
  3
C8
350
22E6
  3
C9
350
22E7
  3
D0
350
22E8
  3
D1
350
22E9
  3
D2
350
22EA
  0
DICTIONARY
  5
22FA
102
{ACAD_REACTORS
330
2298
102
}
330
2298
100
AcDbDictionary
281
     1
  3
Standard
350
22FB
  0
DICTIONARY
  5
22B5
102
{ACAD_REACTORS
330
2298
102
}
330
2298
100
AcDbDictionary
281
     1
  3
2dWireframe
350
22BB
  3
3D Hidden
350
22BD
  3
3dWireframe
350
22BC
  3
Basic
350
22BA
  3
Brighten
350
22C1
  3
ColorChange
350
22C5
  3
Conceptual
350
22BE
  3
Dim
350
22C0
  3
EdgeColorOff
350
22C8
  3
Facepattern
350
22C4
  3
Flat
350
22B6
  3
FlatWithEdges
350
22B7
  3
Gouraud
350
22B8
  3
GouraudWithEdges
350
22B9
  3
JitterOff
350
22C6
  3
Linepattern
350
22C3
  3
OverhangOff
350
22C7
  3
Realistic
350
22BF
  3
Thicken
350
22C2
  0
XRECORD
  5
25DE
102
{ACAD_REACTORS
330
2298
102
}
330
2298
100
AcDbXrecord
280
     1
 90
        1
330
22FB
  0
DICTIONARY
  5
2439
102
{ACAD_REACTORS
330
2298
102
}
330
2298
100
AcDbDictionary
281
     1
  3
CANNOSCALE
350
243C
  3
CMLEADERSTYLE
350
243B
  3
CTABLESTYLE
350
243A
  3
DIMASSOC
350
243F
  3
INDEXCTL
350
243E
  3
SORTENTS
350
243D
  3
XCLIPFRAME
350
25DC
  0
XRECORD
  5
25DF
102
{ACAD_REACTORS
330
2298
102
}
330
2298
100
AcDbXrecord
280
     1
  1
DWGPROPS COOKIE
  2

  3

  4

  6

  7

  8
Konstruktion
  9

300
=
301
=
302
=
303
=
304
=
305
=
306
=
307
=
308
=
309
=
 40
0.1592216550925926
 41
2455672.497120949
 42
2457718.713497535
  1

 90
        0
  0
XRECORD
  5
2424
102
{ACAD_REACTORS
330
2423
102
}
330
2423
100
AcDbXrecord
280
     1
290
     1
  0
XRECORD
  5
2426
102
{ACAD_REACTORS
330
2425
102
}
330
2425
100
AcDbXrecord
280
     1
290
     1
  0
XRECORD
  5
2428
102
{ACAD_REACTORS
330
2427
102
}
330
2427
100
AcDbXrecord
280
     1
290
     1
  0
XRECORD
  5
242A
102
{ACAD_REACTORS
330
2429
102
}
330
2429
100
AcDbXrecord
280
     1
290
     1
  0
XRECORD
  5
242C
102
{ACAD_REACTORS
330
242B
102
}
330
242B
100
AcDbXrecord
280
     1
290
     1
  0
XRECORD
  5
242E
102
{ACAD_REACTORS
330
242D
102
}
330
242D
100
AcDbXrecord
280
     1
290
     1
  0
XRECORD
  5
2430
102
{ACAD_REACTORS
330
242F
102
}
330
242F
100
AcDbXrecord
280
     1
290
     1
  0
XRECORD
  5
2432
102
{ACAD_REACTORS
330
2431
102
}
330
2431
100
AcDbXrecord
280
     1
290
     1
  0
XRECORD
  5
2434
102
{ACAD_REACTORS
330
2433
102
}
330
2433
100
AcDbXrecord
280
     1
290
     1
  0
XRECORD
  5
2436
102
{ACAD_REACTORS
330
2435
102
}
330
2435
100
AcDbXrecord
280
     1
290
     1
  0
XRECORD
  5
2438
102
{ACAD_REACTORS
330
2437
102
}
330
2437
100
AcDbXrecord
280
     1
290
     1
  0
XRECORD
  5
25E1
102
{ACAD_REACTORS
330
25E0
102
}
330
25E0
100
AcDbXrecord
280
     1
102
SHADEPLOT
 70
     0
  0
XRECORD
  5
25E3
102
{ACAD_REACTORS
330
25E2
102
}
330
25E2
100
AcDbXrecord
280
     1
102
SHADEPLOT
 70
     0
  0
LAYOUT
  5
2301
102
{ACAD_XDICTIONARY
360
260B
102
}
102
{ACAD_REACTORS
330
22F8
102
}
330
22F8
100
AcDbPlotSettings
  1

  2
HP Color LaserJet 5550 PCL 6
  4

  6

 40
0.0
 41
0.0
 42
0.0
 43
0.0
 44
0.0
 45
0.0
 46
0.0
 47
0.0
 48
0.0
 49
0.0
140
0.0
141
0.0
142
1.0
143
1.0
 70
   688
 72
     0
 73
     0
 74
     5
  7

 75
    16
147
1.0
148
0.0
149
0.0
100
AcDbLayout
  1
Layout1
 70
     1
 71
     1
 10
-0.1912502979669045
 20
-0.1912499975970411
 11
11.503750057671
 21
8.072082940049059
 12
0.0
 22
0.0
 32
0.0
 14
1.131083300733189
 24
0.7885833800308344
 34
0.0
 15
10.17974970659872
 25
7.097250420277513
 35
0.0
146
0.0
 13
0.0
 23
0.0
 33
0.0
 16
1.0
 26
0.0
 36
0.0
 17
0.0
 27
1.0
 37
0.0
 76
     0
330
22FE
331
19A4
  0
LAYOUT
  5
2305
102
{ACAD_XDICTIONARY
360
260D
102
}
102
{ACAD_REACTORS
330
22F8
102
}
330
22F8
100
AcDbPlotSettings
  1

  2
HP Color LaserJet 5550 PCL 6
  4

  6

 40
0.0
 41
0.0
 42
0.0
 43
0.0
 44
0.0
 45
0.0
 46
0.0
 47
0.0
 48
0.0
 49
0.0
140
0.0
141
0.0
142
1.0
143
1.0
 70
  1712
 72
     0
 73
     0
 74
     0
  7

 75
     0
147
1.0
148
0.0
149
0.0
100
AcDbLayout
  1
Model
 70
     1
 71
     0
 10
0.0
 20
0.0
 11
12.0
 21
9.0
 12
0.0
 22
0.0
 32
0.0
 14
0.0
 24
0.0
 34
0.0
 15
0.0
 25
0.0
 35
0.0
146
0.0
 13
0.0
 23
0.0
 33
0.0
 16
1.0
 26
0.0
 36
0.0
 17
0.0
 27
1.0
 37
0.0
 76
     0
330
2302
331
2306
  0
MATERIAL
  5
22A5
102
{ACAD_XDICTIONARY
360
22A6
102
}
102
{ACAD_REACTORS
330
229C
102
}
330
229C
100
AcDbMaterial
  1
ByBlock
 72
     0
 43
0.0208333333333333
 43
0.0
 43
0.0
 43
0.0
 43
0.0
 43
0.0208333333333333
 43
0.0
 43
0.0
 43
0.0
 43
0.0
 43
1.0
 43
0.0
 43
0.0
 43
0.0
 43
0.0
 43
1.0
 77
     0
 47
0.0208333333333333
 47
0.0
 47
0.0
 47
0.0
 47
0.0
 47
0.0208333333333333
 47
0.0
 47
0.0
 47
0.0
 47
0.0
 47
1.0
 47
0.0
 47
0.0
 47
0.0
 47
0.0
 47
1.0
171
     0
 49
0.0208333333333333
 49
0.0
 49
0.0
 49
0.0
 49
0.0
 49
0.0208333333333333
 49
0.0
 49
0.0
 49
0.0
 49
0.0
 49
1.0
 49
0.0
 49
0.0
 49
0.0
 49
0.0
 49
1.0
175
     0
142
0.0208333333333333
142
0.0
142
0.0
142
0.0
142
0.0
142
0.0208333333333333
142
0.0
142
0.0
142
0.0
142
0.0
142
1.0
142
0.0
142
0.0
142
0.0
142
0.0
142
1.0
179
     0
144
0.0208333333333333
144
0.0
144
0.0
144
0.0
144
0.0
144
0.0208333333333333
144
0.0
144
0.0
144
0.0
144
0.0
144
1.0
144
0.0
144
0.0
144
0.0
144
0.0
144
1.0
147
0.0208333333333333
147
0.0
147
0.0
147
0.0
147
0.0
147
0.0208333333333333
147
0.0
147
0.0
147
0.0
147
0.0
147
1.0
147
0.0
147
0.0
147
0.0
147
0.0
147
1.0
  0
MATERIAL
  5
229D
102
{ACAD_XDICTIONARY
360
229E
102
}
102
{ACAD_REACTORS
330
229C
102
}
330
229C
100
AcDbMaterial
  1
ByLayer
 72
     0
 43
0.0208333333333333
 43
0.0
 43
0.0
 43
0.0
 43
0.0
 43
0.0208333333333333
 43
0.0
 43
0.0
 43
0.0
 43
0.0
 43
1.0
 43
0.0
 43
0.0
 43
0.0
 43
0.0
 43
1.0
 77
     0
 47
0.0208333333333333
 47
0.0
 47
0.0
 47
0.0
 47
0.0
 47
0.0208333333333333
 47
0.0
 47
0.0
 47
0.0
 47
0.0
 47
1.0
 47
0.0
 47
0.0
 47
0.0
 47
0.0
 47
1.0
171
     0
 49
0.0208333333333333
 49
0.0
 49
0.0
 49
0.0
 49
0.0
 49
0.0208333333333333
 49
0.0
 49
0.0
 49
0.0
 49
0.0
 49
1.0
 49
0.0
 49
0.0
 49
0.0
 49
0.0
 49
1.0
175
     0
142
0.0208333333333333
142
0.0
142
0.0
142
0.0
142
0.0
142
0.0208333333333333
142
0.0
142
0.0
142
0.0
142
0.0
142
1.0
142
0.0
142
0.0
142
0.0
142
0.0
142
1.0
179
     0
144
0.0208333333333333
144
0.0
144
0.0
144
0.0
144
0.0
144
0.0208333333333333
144
0.0
144
0.0
144
0.0
144
0.0
144
1.0
144
0.0
144
0.0
144
0.0
144
0.0
144
1.0
147
0.0208333333333333
147
0.0
147
0.0
147
0.0
147
0.0
147
0.0208333333333333
147
0.0
147
0.0
147
0.0
147
0.0
147
1.0
147
0.0
147
0.0
147
0.0
147
0.0
147
1.0
  0
MATERIAL
  5
22AD
102
{ACAD_XDICTIONARY
360
22AE
102
}
102
{ACAD_REACTORS
330
229C
102
}
330
229C
100
AcDbMaterial
  1
Global
 72
     0
 43
0.0208333333333333
 43
0.0
 43
0.0
 43
0.0
 43
0.0
 43
0.0208333333333333
 43
0.0
 43
0.0
 43
0.0
 43
0.0
 43
1.0
 43
0.0
 43
0.0
 43
0.0
 43
0.0
 43
1.0
 77
     0
 47
0.0208333333333333
 47
0.0
 47
0.0
 47
0.0
 47
0.0
 47
0.0208333333333333
 47
0.0
 47
0.0
 47
0.0
 47
0.0
 47
1.0
 47
0.0
 47
0.0
 47
0.0
 47
0.0
 47
1.0
171
     0
 49
0.0208333333333333
 49
0.0
 49
0.0
 49
0.0
 49
0.0
 49
0.0208333333333333
 49
0.0
 49
0.0
 49
0.0
 49
0.0
 49
1.0
 49
0.0
 49
0.0
 49
0.0
 49
0.0
 49
1.0
175
     0
142
0.0208333333333333
142
0.0
142
0.0
142
0.0
142
0.0
142
0.0208333333333333
142
0.0
142
0.0
142
0.0
142
0.0
142
1.0
142
0.0
142
0.0
142
0.0
142
0.0
142
1.0
179
     0
144
0.0208333333333333
144
0.0
144
0.0
144
0.0
144
0.0
144
0.0208333333333333
144
0.0
144
0.0
144
0.0
144
0.0
144
1.0
144
0.0
144
0.0
144
0.0
144
0.0
144
1.0
147
0.0208333333333333
147
0.0
147
0.0
147
0.0
147
0.0
147
0.0208333333333333
147
0.0
147
0.0
147
0.0
147
0.0
147
1.0
147
0.0
147
0.0
147
0.0
147
0.0
147
1.0
  0
MLEADERSTYLE
  5
22FD
102
{ACAD_REACTORS
330
22FC
102
}
330
22FC
100
AcDbMLeaderStyle
170
     2
171
     1
172
     0
 90
        2
 40
0.0
 41
0.0
173
     1
 91
-1056964608
340
22F1
 92
       -2
290
     1
 42
0.09
291
     1
 43
0.36
  3
Standard
 44
0.18
300

342
22EC
174
     1
178
     6
175
     1
176
     0
 93
-1056964608
 45
0.18
292
     0
297
     0
 46
0.18
 94
-1056964608
 47
1.0
 49
1.0
140
1.0
293
     1
141
0.0
294
     1
177
     0
142
1.0
295
     0
296
     0
143
0.125
1001
ACAD_MLEADERVER
1070
     2
  0
MLINESTYLE
  5
22F6
102
{ACAD_REACTORS
330
22F5
102
}
330
22F5
100
AcDbMlineStyle
  2
STANDARD
 70
     0
  3

 62
   256
 51
90.0
 52
90.0
 71
     2
 49
0.5
 62
   256
  6
BYLAYER
 49
-0.5
 62
   256
  6
BYLAYER
  0
ACDBPLACEHOLDER
  5
229B
102
{ACAD_REACTORS
330
229A
102
}
330
229A
  0
SCALE
  5
22CA
102
{ACAD_REACTORS
330
22C9
102
}
330
22C9
100
AcDbScale
 70
     0
300
1:1
140
1.0
141
1.0
290
     1
  0
SCALE
  5
22CB
102
{ACAD_REACTORS
330
22C9
102
}
330
22C9
100
AcDbScale
 70
     0
300
1:2
140
1.0
141
2.0
290
     0
  0
SCALE
  5
22CC
102
{ACAD_REACTORS
330
22C9
102
}
330
22C9
100
AcDbScale
 70
     0
300
1:4
140
1.0
141
4.0
290
     0
  0
SCALE
  5
22CD
102
{ACAD_REACTORS
330
22C9
102
}
330
22C9
100
AcDbScale
 70
     0
300
1:5
140
1.0
141
5.0
290
     0
  0
SCALE
  5
22CE
102
{ACAD_REACTORS
330
22C9
102
}
330
22C9
100
AcDbScale
 70
     0
300
1:8
140
1.0
141
8.0
290
     0
  0
SCALE
  5
22CF
102
{ACAD_REACTORS
330
22C9
102
}
330
22C9
100
AcDbScale
 70
     0
300
1:10
140
1.0
141
10.0
290
     0
  0
SCALE
  5
22D0
102
{ACAD_REACTORS
330
22C9
102
}
330
22C9
100
AcDbScale
 70
     0
300
1:16
140
1.0
141
16.0
290
     0
  0
SCALE
  5
22D1
102
{ACAD_REACTORS
330
22C9
102
}
330
22C9
100
AcDbScale
 70
     0
300
1:20
140
1.0
141
20.0
290
     0
  0
SCALE
  5
22D2
102
{ACAD_REACTORS
330
22C9
102
}
330
22C9
100
AcDbScale
 70
     0
300
1:30
140
1.0
141
30.0
290
     0
  0
SCALE
  5
22D3
102
{ACAD_REACTORS
330
22C9
102
}
330
22C9
100
AcDbScale
 70
     0
300
1:40
140
1.0
141
40.0
290
     0
  0
SCALE
  5
22D4
102
{ACAD_REACTORS
330
22C9
102
}
330
22C9
100
AcDbScale
 70
     0
300
1:50
140
1.0
141
50.0
290
     0
  0
SCALE
  5
22D5
102
{ACAD_REACTORS
330
22C9
102
}
330
22C9
100
AcDbScale
 70
     0
300
1:100
140
1.0
141
100.0
290
     0
  0
SCALE
  5
22D6
102
{ACAD_REACTORS
330
22C9
102
}
330
22C9
100
AcDbScale
 70
     0
300
2:1
140
2.0
141
1.0
290
     0
  0
SCALE
  5
22D7
102
{ACAD_REACTORS
330
22C9
102
}
330
22C9
100
AcDbScale
 70
     0
300
4:1
140
4.0
141
1.0
290
     0
  0
SCALE
  5
22D8
102
{ACAD_REACTORS
330
22C9
102
}
330
22C9
100
AcDbScale
 70
     0
300
8:1
140
8.0
141
1.0
290
     0
  0
SCALE
  5
22D9
102
{ACAD_REACTORS
330
22C9
102
}
330
22C9
100
AcDbScale
 70
     0
300
10:1
140
10.0
141
1.0
290
     0
  0
SCALE
  5
22DA
102
{ACAD_REACTORS
330
22C9
102
}
330
22C9
100
AcDbScale
 70
     0
300
100:1
140
100.0
141
1.0
290
     0
  0
SCALE
  5
22DB
102
{ACAD_REACTORS
330
22C9
102
}
330
22C9
100
AcDbScale
 70
     0
300
1/128" = 1'-0"
140
0.0078125
141
12.0
290
     0
  0
SCALE
  5
22DC
102
{ACAD_REACTORS
330
22C9
102
}
330
22C9
100
AcDbScale
 70
     0
300
1/64" = 1'-0"
140
0.015625
141
12.0
290
     0
  0
SCALE
  5
22DD
102
{ACAD_REACTORS
330
22C9
102
}
330
22C9
100
AcDbScale
 70
     0
300
1/32" = 1'-0"
140
0.03125
141
12.0
290
     0
  0
SCALE
  5
22DE
102
{ACAD_REACTORS
330
22C9
102
}
330
22C9
100
AcDbScale
 70
     0
300
1/16" = 1'-0"
140
0.0625
141
12.0
290
     0
  0
SCALE
  5
22DF
102
{ACAD_REACTORS
330
22C9
102
}
330
22C9
100
AcDbScale
 70
     0
300
3/32" = 1'-0"
140
0.09375
141
12.0
290
     0
  0
SCALE
  5
22E0
102
{ACAD_REACTORS
330
22C9
102
}
330
22C9
100
AcDbScale
 70
     0
300
1/8" = 1'-0"
140
0.125
141
12.0
290
     0
  0
SCALE
  5
22E1
102
{ACAD_REACTORS
330
22C9
102
}
330
22C9
100
AcDbScale
 70
     0
300
3/16" = 1'-0"
140
0.1875
141
12.0
290
     0
  0
SCALE
  5
22E2
102
{ACAD_REACTORS
330
22C9
102
}
330
22C9
100
AcDbScale
 70
     0
300
1/4" = 1'-0"
140
0.25
141
12.0
290
     0
  0
SCALE
  5
22E3
102
{ACAD_REACTORS
330
22C9
102
}
330
22C9
100
AcDbScale
 70
     0
300
3/8" = 1'-0"
140
0.375
141
12.0
290
     0
  0
SCALE
  5
22E4
102
{ACAD_REACTORS
330
22C9
102
}
330
22C9
100
AcDbScale
 70
     0
300
1/2" = 1'-0"
140
0.5
141
12.0
290
     0
  0
SCALE
  5
22E5
102
{ACAD_REACTORS
330
22C9
102
}
330
22C9
100
AcDbScale
 70
     0
300
3/4" = 1'-0"
140
0.75
141
12.0
290
     0
  0
SCALE
  5
22E6
102
{ACAD_REACTORS
330
22C9
102
}
330
22C9
100
AcDbScale
 70
     0
300
1" = 1'-0"
140
1.0
141
12.0
290
     0
  0
SCALE
  5
22E7
102
{ACAD_REACTORS
330
22C9
102
}
330
22C9
100
AcDbScale
 70
     0
300
1-1/2" = 1'-0"
140
1.5
141
12.0
290
     0
  0
SCALE
  5
22E8
102
{ACAD_REACTORS
330
22C9
102
}
330
22C9
100
AcDbScale
 70
     0
300
3" = 1'-0"
140
3.0
141
12.0
290
     0
  0
SCALE
  5
22E9
102
{ACAD_REACTORS
330
22C9
102
}
330
22C9
100
AcDbScale
 70
     0
300
6" = 1'-0"
140
6.0
141
12.0
290
     0
  0
SCALE
  5
22EA
102
{ACAD_REACTORS
330
22C9
102
}
330
22C9
100
AcDbScale
 70
     0
300
1'-0" = 1'-0"
140
12.0
141
12.0
290
     0
  0
TABLESTYLE
  5
22FB
102
{ACAD_XDICTIONARY
360
2441
102
}
102
{ACAD_REACTORS
330
22FA
102
}
330
22FA
100
AcDbTableStyle
  3
Standard
 70
     0
 71
     0
 40
0.06
 41
0.06
280
     0
281
     0
  7
STANDARD
140
0.18
170
     2
 62
     0
 63
     7
283
     0
274
    -2
284
     1
 64
     0
275
    -2
285
     1
 65
     0
276
    -2
286
     1
 66
     0
277
    -2
287
     1
 67
     0
278
    -2
288
     1
 68
     0
279
    -2
289
     1
 69
     0
  7
STANDARD
140
0.25
170
     5
 62
     0
 63
     7
283
     0
274
    -2
284
     1
 64
     0
275
    -2
285
     1
 65
     0
276
    -2
286
     1
 66
     0
277
    -2
287
     1
 67
     0
278
    -2
288
     1
 68
     0
279
    -2
289
     1
 69
     0
  7
STANDARD
140
0.18
170
     5
 62
     0
 63
     7
283
     0
274
    -2
284
     1
 64
     0
275
    -2
285
     1
 65
     0
276
    -2
286
     1
 66
     0
277
    -2
287
     1
 67
     0
278
    -2
288
     1
 68
     0
279
    -2
289
     1
 69
     0
  0
VISUALSTYLE
  5
22BB
102
{ACAD_XDICTIONARY
360
25EE
102
}
102
{ACAD_REACTORS
330
22B5
102
}
330
22B5
100
AcDbVisualStyle
  2

 70
     4
 71
     0
 72
     2
 73
     0
 90
        0
 40
-0.6
 41
-30.0
 62
     5
 63
     7
 74
     1
 91
        4
 64
     7
 65
   257
 75
     1
175
     1
 42
1.0
 92
        0
 66
   257
 43
1.0
 76
     1
 77
     6
 78
     2
 67
     7
 79
     5
170
     0
171
     0
290
     0
174
     0
 93
        1
 44
0.0
173
     0
291
     0
 45
0.0
1001
ACAD
1000
AcDbSavedByObjectVersion
1070
     0
  0
VISUALSTYLE
  5
22BD
102
{ACAD_XDICTIONARY
360
25F2
102
}
102
{ACAD_REACTORS
330
22B5
102
}
330
22B5
100
AcDbVisualStyle
  2

 70
     6
 71
     1
 72
     2
 73
     2
 90
        0
 40
-0.6
 41
-30.0
 62
     5
 63
     7
 74
     2
 91
        2
 64
     7
 65
   257
 75
     2
175
     1
 42
179.0
 92
        0
 66
   257
 43
1.0
 76
     1
 77
     6
 78
     2
 67
     7
 79
     3
170
     0
171
     0
290
     0
174
     0
 93
        1
 44
0.0
173
     0
291
     0
 45
0.0
1001
ACAD
1000
AcDbSavedByObjectVersion
1070
     0
  0
VISUALSTYLE
  5
22BC
102
{ACAD_XDICTIONARY
360
25F0
102
}
102
{ACAD_REACTORS
330
22B5
102
}
330
22B5
100
AcDbVisualStyle
  2

 70
     5
 71
     0
 72
     2
 73
     0
 90
        0
 40
-0.6
 41
-30.0
 62
     5
 63
     7
 74
     1
 91
        4
 64
     7
 65
   257
 75
     1
175
     1
 42
1.0
 92
        0
 66
   257
 43
1.0
 76
     1
 77
     6
 78
     2
 67
     7
 79
     5
170
     0
171
     0
290
     0
174
     0
 93
        1
 44
0.0
173
     0
291
     0
 45
0.0
1001
ACAD
1000
AcDbSavedByObjectVersion
1070
     0
  0
VISUALSTYLE
  5
22BA
102
{ACAD_XDICTIONARY
360
25EC
102
}
102
{ACAD_REACTORS
330
22B5
102
}
330
22B5
100
AcDbVisualStyle
  2

 70
     7
 71
     1
 72
     0
 73
     1
 90
        0
 40
-0.6
 41
-30.0
 62
     5
 63
     7
 74
     0
 91
        4
 64
     7
 65
   257
 75
     1
175
     1
 42
1.0
 92
        8
 66
     7
 43
1.0
 76
     1
 77
     6
 78
     2
 67
     7
 79
     5
170
     0
171
     0
290
     0
174
     0
 93
        1
 44
0.0
173
     0
291
     1
 45
0.0
1001
ACAD
1000
AcDbSavedByObjectVersion
1070
     0
  0
VISUALSTYLE
  5
22C1
102
{ACAD_XDICTIONARY
360
25FA
102
}
102
{ACAD_REACTORS
330
22B5
102
}
330
22B5
100
AcDbVisualStyle
  2

 70
    12
 71
     2
 72
     2
 73
     0
 90
        0
 40
-0.6
 41
-30.0
 62
     5
 63
     7
 74
     1
 91
        4
 64
     7
 65
   257
 75
     1
175
     1
 42
1.0
 92
        8
 66
     7
 43
1.0
 76
     1
 77
     6
 78
     2
 67
     7
 79
     5
170
     0
171
     0
290
     0
174
     0
 93
        1
 44
50.0
173
     0
291
     1
 45
0.0
1001
ACAD
1000
AcDbSavedByObjectVersion
1070
     0
  0
VISUALSTYLE
  5
22C5
102
{ACAD_XDICTIONARY
360
2602
102
}
102
{ACAD_REACTORS
330
22B5
102
}
330
22B5
100
AcDbVisualStyle
  2

 70
    16
 71
     2
 72
     2
 73
     3
 90
        0
 40
-0.6
 41
-30.0
 62
     5
 63
     8
 74
     1
 91
        4
 64
     7
 65
   257
 75
     1
175
     1
 42
1.0
 92
        8
 66
     8
 43
1.0
 76
     1
 77
     6
 78
     2
 67
     7
 79
     5
170
     0
171
     0
290
     0
174
     0
 93
        1
 44
0.0
173
     0
291
     1
 45
0.0
1001
ACAD
1000
AcDbSavedByObjectVersion
1070
     0
  0
VISUALSTYLE
  5
22BE
102
{ACAD_XDICTIONARY
360
25F4
102
}
102
{ACAD_REACTORS
330
22B5
102
}
330
22B5
100
AcDbVisualStyle
  2

 70
     9
 71
     3
 72
     2
 73
     0
 90
        0
 40
-0.6
 41
-30.0
 62
     5
 63
     7
 74
     2
 91
        2
 64
     7
 65
   257
 75
     1
175
     1
 42
179.0
 92
        8
 66
     7
 43
1.0
 76
     1
 77
     6
 78
     2
 67
     7
 79
     3
170
     0
171
     0
290
     0
174
     0
 93
        1
 44
0.0
173
     0
291
     0
 45
0.0
1001
ACAD
1000
AcDbSavedByObjectVersion
1070
     0
  0
VISUALSTYLE
  5
22C0
102
{ACAD_XDICTIONARY
360
25F8
102
}
102
{ACAD_REACTORS
330
22B5
102
}
330
22B5
100
AcDbVisualStyle
  2

 70
    11
 71
     2
 72
     2
 73
     0
 90
        0
 40
-0.6
 41
-30.0
 62
     5
 63
     7
 74
     1
 91
        4
 64
     7
 65
   257
 75
     1
175
     1
 42
1.0
 92
        8
 66
     7
 43
1.0
 76
     1
 77
     6
 78
     2
 67
     7
 79
     5
170
     0
171
     0
290
     0
174
     0
 93
        1
 44
-50.0
173
     0
291
     1
 45
0.0
1001
ACAD
1000
AcDbSavedByObjectVersion
1070
     0
  0
VISUALSTYLE
  5
22C8
102
{ACAD_XDICTIONARY
360
2608
102
}
102
{ACAD_REACTORS
330
22B5
102
}
330
22B5
100
AcDbVisualStyle
  2

 70
    22
 71
     2
 72
     2
 73
     0
 90
        0
 40
-0.6
 41
-30.0
 62
     5
 63
     7
 74
     1
 91
        4
 64
     7
 65
   257
 75
     1
175
     1
 42
1.0
 92
        8
 66
     7
 43
1.0
 76
     1
 77
     6
 78
     2
 67
     7
 79
     5
170
     0
171
     0
290
     0
174
     0
 93
        1
 44
0.0
173
     0
291
     1
 45
0.0
1001
ACAD
1000
AcDbSavedByObjectVersion
1070
     0
  0
VISUALSTYLE
  5
22C4
102
{ACAD_XDICTIONARY
360
2600
102
}
102
{ACAD_REACTORS
330
22B5
102
}
330
22B5
100
AcDbVisualStyle
  2

 70
    15
 71
     2
 72
     2
 73
     0
 90
        0
 40
-0.6
 41
-30.0
 62
     5
 63
     7
 74
     1
 91
        4
 64
     7
 65
   257
 75
     1
175
     1
 42
1.0
 92
        8
 66
     7
 43
1.0
 76
     1
 77
     6
 78
     2
 67
     7
 79
     5
170
     0
171
     0
290
     0
174
     0
 93
        1
 44
0.0
173
     0
291
     1
 45
0.0
1001
ACAD
1000
AcDbSavedByObjectVersion
1070
     0
  0
VISUALSTYLE
  5
22B6
102
{ACAD_XDICTIONARY
360
25E4
102
}
102
{ACAD_REACTORS
330
22B5
102
}
330
22B5
100
AcDbVisualStyle
  2

 70
     0
 71
     2
 72
     1
 73
     1
 90
        2
 40
-0.6
 41
30.0
 62
     5
 63
     7
 74
     0
 91
        4
 64
     7
 65
   257
 75
     1
175
     1
 42
1.0
 92
        8
 66
     7
 43
1.0
 76
     1
 77
     6
 78
     2
 67
     7
 79
     5
170
     0
171
     0
290
     0
174
     0
 93
       13
 44
0.0
173
     0
291
     1
 45
0.0
1001
ACAD
1000
AcDbSavedByObjectVersion
1070
     0
  0
VISUALSTYLE
  5
22B7
102
{ACAD_XDICTIONARY
360
25E6
102
}
102
{ACAD_REACTORS
330
22B5
102
}
330
22B5
100
AcDbVisualStyle
  2

 70
     1
 71
     2
 72
     1
 73
     1
 90
        2
 40
-0.6
 41
30.0
 62
     5
 63
     7
 74
     1
 91
        4
 64
     7
 65
   257
 75
     1
175
     1
 42
1.0
 92
        0
 66
   257
 43
1.0
 76
     1
 77
     6
 78
     2
 67
     7
 79
     5
170
     0
171
     0
290
     0
174
     0
 93
       13
 44
0.0
173
     0
291
     1
 45
0.0
1001
ACAD
1000
AcDbSavedByObjectVersion
1070
     0
  0
VISUALSTYLE
  5
22B8
102
{ACAD_XDICTIONARY
360
25E8
102
}
102
{ACAD_REACTORS
330
22B5
102
}
330
22B5
100
AcDbVisualStyle
  2

 70
     2
 71
     2
 72
     2
 73
     1
 90
        2
 40
-0.6
 41
30.0
 62
     5
 63
     7
 74
     0
 91
        4
 64
     7
 65
   257
 75
     1
175
     1
 42
1.0
 92
        0
 66
     7
 43
1.0
 76
     1
 77
     6
 78
     2
 67
     7
 79
     5
170
     0
171
     0
290
     0
174
     0
 93
       13
 44
0.0
173
     0
291
     1
 45
0.0
1001
ACAD
1000
AcDbSavedByObjectVersion
1070
     0
  0
VISUALSTYLE
  5
22B9
102
{ACAD_XDICTIONARY
360
25EA
102
}
102
{ACAD_REACTORS
330
22B5
102
}
330
22B5
100
AcDbVisualStyle
  2

 70
     3
 71
     2
 72
     2
 73
     1
 90
        2
 40
-0.6
 41
30.0
 62
     5
 63
     7
 74
     1
 91
        4
 64
     7
 65
   257
 75
     1
175
     1
 42
1.0
 92
        0
 66
   257
 43
1.0
 76
     1
 77
     6
 78
     2
 67
     7
 79
     5
170
     0
171
     0
290
     0
174
     0
 93
       13
 44
0.0
173
     0
291
     1
 45
0.0
1001
ACAD
1000
AcDbSavedByObjectVersion
1070
     0
  0
VISUALSTYLE
  5
22C6
102
{ACAD_XDICTIONARY
360
2604
102
}
102
{ACAD_REACTORS
330
22B5
102
}
330
22B5
100
AcDbVisualStyle
  2

 70
    20
 71
     2
 72
     2
 73
     0
 90
        0
 40
-0.6
 41
-30.0
 62
     5
 63
     7
 74
     1
 91
        4
 64
     7
 65
   257
 75
     1
175
     1
 42
1.0
 92
       10
 66
     7
 43
1.0
 76
     1
 77
     6
 78
     2
 67
     7
 79
     5
170
     0
171
     0
290
     0
174
     0
 93
        1
 44
0.0
173
     0
291
     1
 45
0.0
1001
ACAD
1000
AcDbSavedByObjectVersion
1070
     0
  0
VISUALSTYLE
  5
22C3
102
{ACAD_XDICTIONARY
360
25FE
102
}
102
{ACAD_REACTORS
330
22B5
102
}
330
22B5
100
AcDbVisualStyle
  2

 70
    14
 71
     2
 72
     2
 73
     0
 90
        0
 40
-0.6
 41
-30.0
 62
     5
 63
     7
 74
     1
 91
        4
 64
     7
 65
   257
 75
     7
175
     7
 42
1.0
 92
        8
 66
     7
 43
1.0
 76
     1
 77
     6
 78
     2
 67
     7
 79
     5
170
     0
171
     0
290
     0
174
     0
 93
        1
 44
0.0
173
     0
291
     1
 45
0.0
1001
ACAD
1000
AcDbSavedByObjectVersion
1070
     0
  0
VISUALSTYLE
  5
22C7
102
{ACAD_XDICTIONARY
360
2606
102
}
102
{ACAD_REACTORS
330
22B5
102
}
330
22B5
100
AcDbVisualStyle
  2

 70
    21
 71
     2
 72
     2
 73
     0
 90
        0
 40
-0.6
 41
-30.0
 62
     5
 63
     7
 74
     1
 91
        4
 64
     7
 65
   257
 75
     1
175
     1
 42
1.0
 92
        9
 66
     7
 43
1.0
 76
     1
 77
     6
 78
     2
 67
     7
 79
     5
170
     0
171
     0
290
     0
174
     0
 93
        1
 44
0.0
173
     0
291
     1
 45
0.0
1001
ACAD
1000
AcDbSavedByObjectVersion
1070
     0
  0
VISUALSTYLE
  5
22BF
102
{ACAD_XDICTIONARY
360
25F6
102
}
102
{ACAD_REACTORS
330
22B5
102
}
330
22B5
100
AcDbVisualStyle
  2

 70
     8
 71
     2
 72
     2
 73
     0
 90
        0
 40
-0.6
 41
-30.0
 62
     5
 63
     7
 74
     1
 91
        0
 64
     7
 65
   257
 75
     1
175
     1
 42
1.0
 92
        8
 66
     8
 43
1.0
 76
     1
 77
     6
 78
     2
 67
     7
 79
     5
170
     0
171
     0
290
     0
174
     0
 93
       13
 44
0.0
173
     0
291
     0
 45
0.0
1001
ACAD
1000
AcDbSavedByObjectVersion
1070
     0
  0
VISUALSTYLE
  5
22C2
102
{ACAD_XDICTIONARY
360
25FC
102
}
102
{ACAD_REACTORS
330
22B5
102
}
330
22B5
100
AcDbVisualStyle
  2

 70
    13
 71
     2
 72
     2
 73
     0
 90
        0
 40
-0.6
 41
-30.0
 62
     5
 63
     7
 74
     1
 91
        4
 64
     7
 65
   257
 75
     1
175
     1
 42
1.0
 92
       12
 66
     7
 43
1.0
 76
     1
 77
     6
 78
     2
 67
     7
 79
     5
170
     0
171
     0
290
     0
174
     0
 93
        1
 44
0.0
173
     0
291
     1
 45
0.0
1001
ACAD
1000
AcDbSavedByObjectVersion
1070
     0
  0
DICTIONARYVAR
  5
243C
102
{ACAD_REACTORS
330
2439
102
}
330
2439
100
DictionaryVariables
280
     0
  1
1:1
  0
DICTIONARYVAR
  5
243B
102
{ACAD_REACTORS
330
2439
102
}
330
2439
100
DictionaryVariables
280
     0
  1
STANDARD
  0
DICTIONARYVAR
  5
243A
102
{ACAD_REACTORS
330
2439
102
}
330
2439
100
DictionaryVariables
280
     0
  1
STANDARD
  0
DICTIONARYVAR
  5
243F
102
{ACAD_REACTORS
330
2439
102
}
330
2439
100
DictionaryVariables
280
     0
  1
1
  0
DICTIONARYVAR
  5
243E
102
{ACAD_REACTORS
330
2439
102
}
330
2439
100
DictionaryVariables
280
     0
  1
0
  0
DICTIONARYVAR
  5
243D
102
{ACAD_REACTORS
330
2439
102
}
330
2439
100
DictionaryVariables
280
     0
  1
127
  0
DICTIONARYVAR
  5
25DC
102
{ACAD_REACTORS
330
2439
102
}
330
2439
100
DictionaryVariables
280
     0
  1
2
  0
DICTIONARY
  5
260B
330
2301
100
AcDbDictionary
280
     1
281
     1
  3
ACAD_XREC_ROUNDTRIP
360
260C
  0
DICTIONARY
  5
260D
330
2305
100
AcDbDictionary
280
     1
281
     1
  3
ACAD_XREC_ROUNDTRIP
360
260E
  0
DICTIONARY
  5
22A6
330
22A5
100
AcDbDictionary
280
     1
281
     1
  3
ACAD_XREC_ROUNDTRIP
360
244A
  3
BUMPTILE
360
22A8
  3
DIFFUSETILE
360
22A7
  3
OPACITYTILE
360
22AB
  3
REFLECTIONTILE
360
22AA
  3
REFRACTIONTILE
360
22AC
  3
SPECULARTILE
360
22A9
  0
DICTIONARY
  5
229E
330
229D
100
AcDbDictionary
280
     1
281
     1
  3
ACAD_XREC_ROUNDTRIP
360
2449
  3
BUMPTILE
360
22A0
  3
DIFFUSETILE
360
229F
  3
OPACITYTILE
360
22A3
  3
REFLECTIONTILE
360
22A2
  3
REFRACTIONTILE
360
22A4
  3
SPECULARTILE
360
22A1
  0
DICTIONARY
  5
22AE
330
22AD
100
AcDbDictionary
280
     1
281
     1
  3
ACAD_XREC_ROUNDTRIP
360
244B
  3
BUMPTILE
360
22B0
  3
DIFFUSETILE
360
22AF
  3
OPACITYTILE
360
22B3
  3
REFLECTIONTILE
360
22B2
  3
REFRACTIONTILE
360
22B4
  3
SPECULARTILE
360
22B1
  0
DICTIONARY
  5
2441
330
22FB
100
AcDbDictionary
280
     1
281
     1
  3
ACAD_ROUNDTRIP_2008_TABLESTYLE_CELLSTYLEMAP
360
25DD
  3
ACAD_XREC_ROUNDTRIP
360
260A
  0
DICTIONARY
  5
25EE
330
22BB
100
AcDbDictionary
280
     1
281
     1
  3
ACAD_XREC_ROUNDTRIP
360
25EF
  0
DICTIONARY
  5
25F2
330
22BD
100
AcDbDictionary
280
     1
281
     1
  3
ACAD_XREC_ROUNDTRIP
360
25F3
  0
DICTIONARY
  5
25F0
330
22BC
100
AcDbDictionary
280
     1
281
     1
  3
ACAD_XREC_ROUNDTRIP
360
25F1
  0
DICTIONARY
  5
25EC
330
22BA
100
AcDbDictionary
280
     1
281
     1
  3
ACAD_XREC_ROUNDTRIP
360
25ED
  0
DICTIONARY
  5
25FA
330
22C1
100
AcDbDictionary
280
     1
281
     1
  3
ACAD_XREC_ROUNDTRIP
360
25FB
  0
DICTIONARY
  5
2602
330
22C5
100
AcDbDictionary
280
     1
281
     1
  3
ACAD_XREC_ROUNDTRIP
360
2603
  0
DICTIONARY
  5
25F4
330
22BE
100
AcDbDictionary
280
     1
281
     1
  3
ACAD_XREC_ROUNDTRIP
360
25F5
  0
DICTIONARY
  5
25F8
330
22C0
100
AcDbDictionary
280
     1
281
     1
  3
ACAD_XREC_ROUNDTRIP
360
25F9
  0
DICTIONARY
  5
2608
330
22C8
100
AcDbDictionary
280
     1
281
     1
  3
ACAD_XREC_ROUNDTRIP
360
2609
  0
DICTIONARY
  5
2600
330
22C4
100
AcDbDictionary
280
     1
281
     1
  3
ACAD_XREC_ROUNDTRIP
360
2601
  0
DICTIONARY
  5
25E4
330
22B6
100
AcDbDictionary
280
     1
281
     1
  3
ACAD_XREC_ROUNDTRIP
360
25E5
  0
DICTIONARY
  5
25E6
330
22B7
100
AcDbDictionary
280
     1
281
     1
  3
ACAD_XREC_ROUNDTRIP
360
25E7
  0
DICTIONARY
  5
25E8
330
22B8
100
AcDbDictionary
280
     1
281
     1
  3
ACAD_XREC_ROUNDTRIP
360
25E9
  0
DICTIONARY
  5
25EA
330
22B9
100
AcDbDictionary
280
     1
281
     1
  3
ACAD_XREC_ROUNDTRIP
360
25EB
  0
DICTIONARY
  5
2604
330
22C6
100
AcDbDictionary
280
     1
281
     1
  3
ACAD_XREC_ROUNDTRIP
360
2605
  0
DICTIONARY
  5
25FE
330
22C3
100
AcDbDictionary
280
     1
281
     1
  3
ACAD_XREC_ROUNDTRIP
360
25FF
  0
DICTIONARY
  5
2606
330
22C7
100
AcDbDictionary
280
     1
281
     1
  3
ACAD_XREC_ROUNDTRIP
360
2607
  0
DICTIONARY
  5
25F6
330
22BF
100
AcDbDictionary
280
     1
281
     1
  3
ACAD_XREC_ROUNDTRIP
360
25F7
  0
DICTIONARY
  5
25FC
330
22C2
100
AcDbDictionary
280
     1
281
     1
  3
ACAD_XREC_ROUNDTRIP
360
25FD
  0
XRECORD
  5
260C
102
{ACAD_REACTORS
330
260B
102
}
330
260B
100
AcDbXrecord
280
     1
102
SHADEPLOT
 70
     0
102
SHADEPLOTRESLEVEL
 70
     2
102
SHADEPLOTCUSTOMDPI
 70
   300
  0
XRECORD
  5
260E
102
{ACAD_REACTORS
330
260D
102
}
330
260D
100
AcDbXrecord
280
     1
102
SHADEPLOT
 70
     0
102
SHADEPLOTRESLEVEL
 70
     2
102
SHADEPLOTCUSTOMDPI
 70
   300
  0
XRECORD
  5
244A
102
{ACAD_REACTORS
330
22A6
102
}
330
22A6
100
AcDbXrecord
280
     1
102
MATERIAL
148
0.0
149
0.0
149
0.0
 93
        0
 94
      127
282
     0
 72
     0
 77
     0
171
     0
175
     0
179
     0
273
     0
  0
XRECORD
  5
22A8
102
{ACAD_REACTORS
330
22A6
102
}
330
22A6
100
AcDbXrecord
280
     1
270
     1
271
     1
  0
XRECORD
  5
22A7
102
{ACAD_REACTORS
330
22A6
102
}
330
22A6
100
AcDbXrecord
280
     1
270
     1
271
     1
  0
XRECORD
  5
22AB
102
{ACAD_REACTORS
330
22A6
102
}
330
22A6
100
AcDbXrecord
280
     1
270
     1
271
     1
  0
XRECORD
  5
22AA
102
{ACAD_REACTORS
330
22A6
102
}
330
22A6
100
AcDbXrecord
280
     1
270
     1
271
     1
  0
XRECORD
  5
22AC
102
{ACAD_REACTORS
330
22A6
102
}
330
22A6
100
AcDbXrecord
280
     1
270
     1
271
     1
  0
XRECORD
  5
22A9
102
{ACAD_REACTORS
330
22A6
102
}
330
22A6
100
AcDbXrecord
280
     1
270
     1
271
     1
  0
XRECORD
  5
2449
102
{ACAD_REACTORS
330
229E
102
}
330
229E
100
AcDbXrecord
280
     1
102
MATERIAL
148
0.0
149
0.0
149
0.0
 93
        0
 94
      127
282
     0
 72
     0
 77
     0
171
     0
175
     0
179
     0
273
     0
  0
XRECORD
  5
22A0
102
{ACAD_REACTORS
330
229E
102
}
330
229E
100
AcDbXrecord
280
     1
270
     1
271
     1
  0
XRECORD
  5
229F
102
{ACAD_REACTORS
330
229E
102
}
330
229E
100
AcDbXrecord
280
     1
270
     1
271
     1
  0
XRECORD
  5
22A3
102
{ACAD_REACTORS
330
229E
102
}
330
229E
100
AcDbXrecord
280
     1
270
     1
271
     1
  0
XRECORD
  5
22A2
102
{ACAD_REACTORS
330
229E
102
}
330
229E
100
AcDbXrecord
280
     1
270
     1
271
     1
  0
XRECORD
  5
22A4
102
{ACAD_REACTORS
330
229E
102
}
330
229E
100
AcDbXrecord
280
     1
270
     1
271
     1
  0
XRECORD
  5
22A1
102
{ACAD_REACTORS
330
229E
102
}
330
229E
100
AcDbXrecord
280
     1
270
     1
271
     1
  0
XRECORD
  5
244B
102
{ACAD_REACTORS
330
22AE
102
}
330
22AE
100
AcDbXrecord
280
     1
102
MATERIAL
148
0.0
149
0.0
149
0.0
 93
        0
 94
      127
282
     0
 72
     0
 77
     0
171
     0
175
     0
179
     0
273
     0
  0
XRECORD
  5
22B0
102
{ACAD_REACTORS
330
22AE
102
}
330
22AE
100
AcDbXrecord
280
     1
270
     1
271
     1
  0
XRECORD
  5
22AF
102
{ACAD_REACTORS
330
22AE
102
}
330
22AE
100
AcDbXrecord
280
     1
270
     1
271
     1
  0
XRECORD
  5
22B3
102
{ACAD_REACTORS
330
22AE
102
}
330
22AE
100
AcDbXrecord
280
     1
270
     1
271
     1
  0
XRECORD
  5
22B2
102
{ACAD_REACTORS
330
22AE
102
}
330
22AE
100
AcDbXrecord
280
     1
270
     1
271
     1
  0
XRECORD
  5
22B4
102
{ACAD_REACTORS
330
22AE
102
}
330
22AE
100
AcDbXrecord
280
     1
270
     1
271
     1
  0
XRECORD
  5
22B1
102
{ACAD_REACTORS
330
22AE
102
}
330
22AE
100
AcDbXrecord
280
     1
270
     1
271
     1
  0
CELLSTYLEMAP
  5
25DD
102
{ACAD_REACTORS
330
2441
102
}
330
2441
100
AcDbCellStyleMap
 90
        3
300
CELLSTYLE
  1
TABLEFORMAT_BEGIN
 90
        5
170
     1
 91
        0
 92
    32768
 62
   257
 93
        1
300
CONTENTFORMAT
  1
CONTENTFORMAT_BEGIN
 90
        0
 91
        0
 92
      512
 93
        0
300

 40
0.0
140
1.0
 94
        5
 62
     0
340
22EC
144
0.25
309
CONTENTFORMAT_END
171
     1
301
MARGIN
  1
CELLMARGIN_BEGIN
 40
0.06
 40
0.06
 40
0.06
 40
0.06
 40
0.18
 40
0.18
309
CELLMARGIN_END
 94
        6
 95
        1
302
GRIDFORMAT
  1
GRIDFORMAT_BEGIN
 90
        0
 91
        1
 62
     0
 92
       -2
340
0
 93
        0
 40
0.045
309
GRIDFORMAT_END
 95
        2
302
GRIDFORMAT
  1
GRIDFORMAT_BEGIN
 90
        0
 91
        1
 62
     0
 92
       -2
340
0
 93
        0
 40
0.045
309
GRIDFORMAT_END
 95
        4
302
GRIDFORMAT
  1
GRIDFORMAT_BEGIN
 90
        0
 91
        1
 62
     0
 92
       -2
340
0
 93
        0
 40
0.045
309
GRIDFORMAT_END
 95
        8
302
GRIDFORMAT
  1
GRIDFORMAT_BEGIN
 90
        0
 91
        1
 62
     0
 92
       -2
340
0
 93
        0
 40
0.045
309
GRIDFORMAT_END
 95
       16
302
GRIDFORMAT
  1
GRIDFORMAT_BEGIN
 90
        0
 91
        1
 62
     0
 92
       -2
340
0
 93
        0
 40
0.045
309
GRIDFORMAT_END
 95
       32
302
GRIDFORMAT
  1
GRIDFORMAT_BEGIN
 90
        0
 91
        1
 62
     0
 92
       -2
340
0
 93
        0
 40
0.045
309
GRIDFORMAT_END
309
TABLEFORMAT_END
  1
CELLSTYLE_BEGIN
 90
        1
 91
        1
300
_TITLE
309
CELLSTYLE_END
300
CELLSTYLE
  1
TABLEFORMAT_BEGIN
 90
        5
170
     1
 91
        0
 92
        0
 62
   257
 93
        1
300
CONTENTFORMAT
  1
CONTENTFORMAT_BEGIN
 90
        0
 91
        0
 92
      512
 93
        0
300

 40
0.0
140
1.0
 94
        5
 62
     0
340
22EC
144
0.18
309
CONTENTFORMAT_END
171
     1
301
MARGIN
  1
CELLMARGIN_BEGIN
 40
0.06
 40
0.06
 40
0.06
 40
0.06
 40
0.18
 40
0.18
309
CELLMARGIN_END
 94
        6
 95
        1
302
GRIDFORMAT
  1
GRIDFORMAT_BEGIN
 90
        0
 91
        1
 62
     0
 92
       -2
340
0
 93
        0
 40
0.045
309
GRIDFORMAT_END
 95
        2
302
GRIDFORMAT
  1
GRIDFORMAT_BEGIN
 90
        0
 91
        1
 62
     0
 92
       -2
340
0
 93
        0
 40
0.045
309
GRIDFORMAT_END
 95
        4
302
GRIDFORMAT
  1
GRIDFORMAT_BEGIN
 90
        0
 91
        1
 62
     0
 92
       -2
340
0
 93
        0
 40
0.045
309
GRIDFORMAT_END
 95
        8
302
GRIDFORMAT
  1
GRIDFORMAT_BEGIN
 90
        0
 91
        1
 62
     0
 92
       -2
340
0
 93
        0
 40
0.045
309
GRIDFORMAT_END
 95
       16
302
GRIDFORMAT
  1
GRIDFORMAT_BEGIN
 90
        0
 91
        1
 62
     0
 92
       -2
340
0
 93
        0
 40
0.045
309
GRIDFORMAT_END
 95
       32
302
GRIDFORMAT
  1
GRIDFORMAT_BEGIN
 90
        0
 91
        1
 62
     0
 92
       -2
340
0
 93
        0
 40
0.045
309
GRIDFORMAT_END
309
TABLEFORMAT_END
  1
CELLSTYLE_BEGIN
 90
        2
 91
        1
300
_HEADER
309
CELLSTYLE_END
300
CELLSTYLE
  1
TABLEFORMAT_BEGIN
 90
        5
170
     1
 91
        0
 92
        0
 62
   257
 93
        1
300
CONTENTFORMAT
  1
CONTENTFORMAT_BEGIN
 90
        0
 91
        0
 92
      512
 93
        0
300

 40
0.0
140
1.0
 94
        2
 62
     0
340
22EC
144
0.18
309
CONTENTFORMAT_END
171
     1
301
MARGIN
  1
CELLMARGIN_BEGIN
 40
0.06
 40
0.06
 40
0.06
 40
0.06
 40
0.18
 40
0.18
309
CELLMARGIN_END
 94
        6
 95
        1
302
GRIDFORMAT
  1
GRIDFORMAT_BEGIN
 90
        0
 91
        1
 62
     0
 92
       -2
340
0
 93
        0
 40
0.045
309
GRIDFORMAT_END
 95
        2
302
GRIDFORMAT
  1
GRIDFORMAT_BEGIN
 90
        0
 91
        1
 62
     0
 92
       -2
340
0
 93
        0
 40
0.045
309
GRIDFORMAT_END
 95
        4
302
GRIDFORMAT
  1
GRIDFORMAT_BEGIN
 90
        0
 91
        1
 62
     0
 92
       -2
340
0
 93
        0
 40
0.045
309
GRIDFORMAT_END
 95
        8
302
GRIDFORMAT
  1
GRIDFORMAT_BEGIN
 90
        0
 91
        1
 62
     0
 92
       -2
340
0
 93
        0
 40
0.045
309
GRIDFORMAT_END
 95
       16
302
GRIDFORMAT
  1
GRIDFORMAT_BEGIN
 90
        0
 91
        1
 62
     0
 92
       -2
340
0
 93
        0
 40
0.045
309
GRIDFORMAT_END
 95
       32
302
GRIDFORMAT
  1
GRIDFORMAT_BEGIN
 90
        0
 91
        1
 62
     0
 92
       -2
340
0
 93
        0
 40
0.045
309
GRIDFORMAT_END
309
TABLEFORMAT_END
  1
CELLSTYLE_BEGIN
 90
        3
 91
        2
300
_DATA
309
CELLSTYLE_END
  0
XRECORD
  5
260A
102
{ACAD_REACTORS
330
2441
102
}
330
2441
100
AcDbXrecord
280
     1
102
ACAD_ROUNDTRIP_PRE2007_TABLESTYLE
 90
      512
 91
        0
  1

 92
      512
 93
        0
  2

 94
      512
 95
        0
  3

  0
XRECORD
  5
25EF
102
{ACAD_REACTORS
330
25EE
102
}
330
25EE
100
AcDbXrecord
280
     1
102
RTVSPropertyOp0
 70
     1
102
RTVSPropertyOp1
 70
     1
102
RTVSPropertyOp2
 70
     1
102
RTVSPropertyOp3
 70
     1
102
RTVSPropertyOp4
 70
     1
102
RTVSPropertyOp5
 70
     1
102
RTVSPropertyOp6
 70
     1
102
RTVSPropertyOp7
 70
     1
102
RTVSPropertyOp8
 70
     1
102
RTVSPropertyOp9
 70
     1
102
RTVSPropertyOp10
 70
     1
102
RTVSPropertyOp11
 70
     1
102
RTVSPropertyOp12
 70
     1
102
RTVSPropertyOp13
 70
     1
102
RTVSPropertyOp14
 70
     1
102
RTVSPropertyOp15
 70
     1
102
RTVSPropertyOp16
 70
     1
102
RTVSPropertyOp17
 70
     1
102
RTVSPropertyOp18
 70
     1
102
RTVSPropertyOp19
 70
     1
102
RTVSPropertyOp20
 70
     1
102
RTVSPropertyOp21
 70
     1
102
RTVSPropertyOp22
 70
     1
102
RTVSPropertyOp23
 70
     1
102
RTVSPropertyOp24
 70
     1
102
RTVSPropertyOp25
 70
     1
102
RTVSPropertyOp26
 70
     1
102
RTVSPropertyOp27
 70
     1
  0
XRECORD
  5
25F3
102
{ACAD_REACTORS
330
25F2
102
}
330
25F2
100
AcDbXrecord
280
     1
102
RTVSPropertyOp0
 70
     1
102
RTVSPropertyOp1
 70
     1
102
RTVSPropertyOp2
 70
     1
102
RTVSPropertyOp3
 70
     1
102
RTVSPropertyOp4
 70
     1
102
RTVSPropertyOp5
 70
     1
102
RTVSPropertyOp6
 70
     1
102
RTVSPropertyOp7
 70
     1
102
RTVSPropertyOp8
 70
     1
102
RTVSPropertyOp9
 70
     1
102
RTVSPropertyOp10
 70
     1
102
RTVSPropertyOp11
 70
     1
102
RTVSPropertyOp12
 70
     1
102
RTVSPropertyOp13
 70
     1
102
RTVSPropertyOp14
 70
     1
102
RTVSPropertyOp15
 70
     1
102
RTVSPropertyOp16
 70
     1
102
RTVSPropertyOp17
 70
     1
102
RTVSPropertyOp18
 70
     1
102
RTVSPropertyOp19
 70
     1
102
RTVSPropertyOp20
 70
     1
102
RTVSPropertyOp21
 70
     1
102
RTVSPropertyOp22
 70
     1
102
RTVSPropertyOp23
 70
     1
102
RTVSPropertyOp24
 70
     1
102
RTVSPropertyOp25
 70
     1
102
RTVSPropertyOp26
 70
     1
102
RTVSPropertyOp27
 70
     1
  0
XRECORD
  5
25F1
102
{ACAD_REACTORS
330
25F0
102
}
330
25F0
100
AcDbXrecord
280
     1
102
RTVSPropertyOp0
 70
     1
102
RTVSPropertyOp1
 70
     1
102
RTVSPropertyOp2
 70
     1
102
RTVSPropertyOp3
 70
     1
102
RTVSPropertyOp4
 70
     1
102
RTVSPropertyOp5
 70
     1
102
RTVSPropertyOp6
 70
     1
102
RTVSPropertyOp7
 70
     1
102
RTVSPropertyOp8
 70
     1
102
RTVSPropertyOp9
 70
     1
102
RTVSPropertyOp10
 70
     1
102
RTVSPropertyOp11
 70
     1
102
RTVSPropertyOp12
 70
     1
102
RTVSPropertyOp13
 70
     1
102
RTVSPropertyOp14
 70
     1
102
RTVSPropertyOp15
 70
     1
102
RTVSPropertyOp16
 70
     1
102
RTVSPropertyOp17
 70
     1
102
RTVSPropertyOp18
 70
     1
102
RTVSPropertyOp19
 70
     1
102
RTVSPropertyOp20
 70
     1
102
RTVSPropertyOp21
 70
     1
102
RTVSPropertyOp22
 70
     1
102
RTVSPropertyOp23
 70
     1
102
RTVSPropertyOp24
 70
     1
102
RTVSPropertyOp25
 70
     1
102
RTVSPropertyOp26
 70
     1
102
RTVSPropertyOp27
 70
     1
  0
XRECORD
  5
25ED
102
{ACAD_REACTORS
330
25EC
102
}
330
25EC
100
AcDbXrecord
280
     1
102
RTVSPropertyOp0
 70
     1
102
RTVSPropertyOp1
 70
     1
102
RTVSPropertyOp2
 70
     1
102
RTVSPropertyOp3
 70
     1
102
RTVSPropertyOp4
 70
     1
102
RTVSPropertyOp5
 70
     1
102
RTVSPropertyOp6
 70
     1
102
RTVSPropertyOp7
 70
     1
102
RTVSPropertyOp8
 70
     1
102
RTVSPropertyOp9
 70
     1
102
RTVSPropertyOp10
 70
     1
102
RTVSPropertyOp11
 70
     1
102
RTVSPropertyOp12
 70
     1
102
RTVSPropertyOp13
 70
     1
102
RTVSPropertyOp14
 70
     1
102
RTVSPropertyOp15
 70
     1
102
RTVSPropertyOp16
 70
     1
102
RTVSPropertyOp17
 70
     1
102
RTVSPropertyOp18
 70
     1
102
RTVSPropertyOp19
 70
     1
102
RTVSPropertyOp20
 70
     1
102
RTVSPropertyOp21
 70
     1
102
RTVSPropertyOp22
 70
     1
102
RTVSPropertyOp23
 70
     1
102
RTVSPropertyOp24
 70
     1
102
RTVSPropertyOp25
 70
     1
102
RTVSPropertyOp26
 70
     1
102
RTVSPropertyOp27
 70
     1
  0
XRECORD
  5
25FB
102
{ACAD_REACTORS
330
25FA
102
}
330
25FA
100
AcDbXrecord
280
     1
102
RTVSPropertyOp0
 70
     1
102
RTVSPropertyOp1
 70
     1
102
RTVSPropertyOp2
 70
     1
102
RTVSPropertyOp3
 70
     1
102
RTVSPropertyOp4
 70
     1
102
RTVSPropertyOp5
 70
     1
102
RTVSPropertyOp6
 70
     1
102
RTVSPropertyOp7
 70
     1
102
RTVSPropertyOp8
 70
     1
102
RTVSPropertyOp9
 70
     1
102
RTVSPropertyOp10
 70
     1
102
RTVSPropertyOp11
 70
     1
102
RTVSPropertyOp12
 70
     1
102
RTVSPropertyOp13
 70
     1
102
RTVSPropertyOp14
 70
     1
102
RTVSPropertyOp15
 70
     1
102
RTVSPropertyOp16
 70
     1
102
RTVSPropertyOp17
 70
     1
102
RTVSPropertyOp18
 70
     1
102
RTVSPropertyOp19
 70
     1
102
RTVSPropertyOp20
 70
     1
102
RTVSPropertyOp21
 70
     1
102
RTVSPropertyOp22
 70
     1
102
RTVSPropertyOp23
 70
     1
102
RTVSPropertyOp24
 70
     1
102
RTVSPropertyOp25
 70
     1
102
RTVSPropertyOp26
 70
     1
102
RTVSPropertyOp27
 70
     1
  0
XRECORD
  5
2603
102
{ACAD_REACTORS
330
2602
102
}
330
2602
100
AcDbXrecord
280
     1
102
RTVSPropertyOp0
 70
     1
102
RTVSPropertyOp1
 70
     1
102
RTVSPropertyOp2
 70
     1
102
RTVSPropertyOp3
 70
     1
102
RTVSPropertyOp4
 70
     1
102
RTVSPropertyOp5
 70
     1
102
RTVSPropertyOp6
 70
     1
102
RTVSPropertyOp7
 70
     1
102
RTVSPropertyOp8
 70
     1
102
RTVSPropertyOp9
 70
     1
102
RTVSPropertyOp10
 70
     1
102
RTVSPropertyOp11
 70
     1
102
RTVSPropertyOp12
 70
     1
102
RTVSPropertyOp13
 70
     1
102
RTVSPropertyOp14
 70
     1
102
RTVSPropertyOp15
 70
     1
102
RTVSPropertyOp16
 70
     1
102
RTVSPropertyOp17
 70
     1
102
RTVSPropertyOp18
 70
     1
102
RTVSPropertyOp19
 70
     1
102
RTVSPropertyOp20
 70
     1
102
RTVSPropertyOp21
 70
     1
102
RTVSPropertyOp22
 70
     1
102
RTVSPropertyOp23
 70
     1
102
RTVSPropertyOp24
 70
     1
102
RTVSPropertyOp25
 70
     1
102
RTVSPropertyOp26
 70
     1
102
RTVSPropertyOp27
 70
     1
  0
XRECORD
  5
25F5
102
{ACAD_REACTORS
330
25F4
102
}
330
25F4
100
AcDbXrecord
280
     1
102
RTVSPropertyOp0
 70
     1
102
RTVSPropertyOp1
 70
     1
102
RTVSPropertyOp2
 70
     1
102
RTVSPropertyOp3
 70
     1
102
RTVSPropertyOp4
 70
     1
102
RTVSPropertyOp5
 70
     1
102
RTVSPropertyOp6
 70
     1
102
RTVSPropertyOp7
 70
     1
102
RTVSPropertyOp8
 70
     1
102
RTVSPropertyOp9
 70
     1
102
RTVSPropertyOp10
 70
     1
102
RTVSPropertyOp11
 70
     1
102
RTVSPropertyOp12
 70
     1
102
RTVSPropertyOp13
 70
     1
102
RTVSPropertyOp14
 70
     1
102
RTVSPropertyOp15
 70
     1
102
RTVSPropertyOp16
 70
     1
102
RTVSPropertyOp17
 70
     1
102
RTVSPropertyOp18
 70
     1
102
RTVSPropertyOp19
 70
     1
102
RTVSPropertyOp20
 70
     1
102
RTVSPropertyOp21
 70
     1
102
RTVSPropertyOp22
 70
     1
102
RTVSPropertyOp23
 70
     1
102
RTVSPropertyOp24
 70
     1
102
RTVSPropertyOp25
 70
     1
102
RTVSPropertyOp26
 70
     1
102
RTVSPropertyOp27
 70
     1
  0
XRECORD
  5
25F9
102
{ACAD_REACTORS
330
25F8
102
}
330
25F8
100
AcDbXrecord
280
     1
102
RTVSPropertyOp0
 70
     1
102
RTVSPropertyOp1
 70
     1
102
RTVSPropertyOp2
 70
     1
102
RTVSPropertyOp3
 70
     1
102
RTVSPropertyOp4
 70
     1
102
RTVSPropertyOp5
 70
     1
102
RTVSPropertyOp6
 70
     1
102
RTVSPropertyOp7
 70
     1
102
RTVSPropertyOp8
 70
     1
102
RTVSPropertyOp9
 70
     1
102
RTVSPropertyOp10
 70
     1
102
RTVSPropertyOp11
 70
     1
102
RTVSPropertyOp12
 70
     1
102
RTVSPropertyOp13
 70
     1
102
RTVSPropertyOp14
 70
     1
102
RTVSPropertyOp15
 70
     1
102
RTVSPropertyOp16
 70
     1
102
RTVSPropertyOp17
 70
     1
102
RTVSPropertyOp18
 70
     1
102
RTVSPropertyOp19
 70
     1
102
RTVSPropertyOp20
 70
     1
102
RTVSPropertyOp21
 70
     1
102
RTVSPropertyOp22
 70
     1
102
RTVSPropertyOp23
 70
     1
102
RTVSPropertyOp24
 70
     1
102
RTVSPropertyOp25
 70
     1
102
RTVSPropertyOp26
 70
     1
102
RTVSPropertyOp27
 70
     1
  0
XRECORD
  5
2609
102
{ACAD_REACTORS
330
2608
102
}
330
2608
100
AcDbXrecord
280
     1
102
RTVSPropertyOp0
 70
     0
102
RTVSPropertyOp1
 70
     0
102
RTVSPropertyOp2
 70
     0
102
RTVSPropertyOp3
 70
     0
102
RTVSPropertyOp4
 70
     0
102
RTVSPropertyOp5
 70
     0
102
RTVSPropertyOp6
 70
     0
102
RTVSPropertyOp7
 70
     0
102
RTVSPropertyOp8
 70
     0
102
RTVSPropertyOp9
 70
     0
102
RTVSPropertyOp10
 70
     0
102
RTVSPropertyOp11
 70
     0
102
RTVSPropertyOp12
 70
     0
102
RTVSPropertyOp13
 70
     0
102
RTVSPropertyOp14
 70
     2
102
RTVSPropertyOp15
 70
     0
102
RTVSPropertyOp16
 70
     0
102
RTVSPropertyOp17
 70
     0
102
RTVSPropertyOp18
 70
     0
102
RTVSPropertyOp19
 70
     0
102
RTVSPropertyOp20
 70
     0
102
RTVSPropertyOp21
 70
     0
102
RTVSPropertyOp22
 70
     0
102
RTVSPropertyOp23
 70
     0
102
RTVSPropertyOp24
 70
     0
102
RTVSPropertyOp25
 70
     0
102
RTVSPropertyOp26
 70
     0
102
RTVSPropertyOp27
 70
     0
  0
XRECORD
  5
2601
102
{ACAD_REACTORS
330
2600
102
}
330
2600
100
AcDbXrecord
280
     1
102
RTVSPropertyOp0
 70
     1
102
RTVSPropertyOp1
 70
     1
102
RTVSPropertyOp2
 70
     1
102
RTVSPropertyOp3
 70
     1
102
RTVSPropertyOp4
 70
     1
102
RTVSPropertyOp5
 70
     1
102
RTVSPropertyOp6
 70
     1
102
RTVSPropertyOp7
 70
     1
102
RTVSPropertyOp8
 70
     1
102
RTVSPropertyOp9
 70
     1
102
RTVSPropertyOp10
 70
     1
102
RTVSPropertyOp11
 70
     1
102
RTVSPropertyOp12
 70
     1
102
RTVSPropertyOp13
 70
     1
102
RTVSPropertyOp14
 70
     1
102
RTVSPropertyOp15
 70
     1
102
RTVSPropertyOp16
 70
     1
102
RTVSPropertyOp17
 70
     1
102
RTVSPropertyOp18
 70
     1
102
RTVSPropertyOp19
 70
     1
102
RTVSPropertyOp20
 70
     1
102
RTVSPropertyOp21
 70
     1
102
RTVSPropertyOp22
 70
     1
102
RTVSPropertyOp23
 70
     1
102
RTVSPropertyOp24
 70
     1
102
RTVSPropertyOp25
 70
     1
102
RTVSPropertyOp26
 70
     1
102
RTVSPropertyOp27
 70
     1
  0
XRECORD
  5
25E5
102
{ACAD_REACTORS
330
25E4
102
}
330
25E4
100
AcDbXrecord
280
     1
102
RTVSPropertyOp0
 70
     1
102
RTVSPropertyOp1
 70
     1
102
RTVSPropertyOp2
 70
     1
102
RTVSPropertyOp3
 70
     1
102
RTVSPropertyOp4
 70
     1
102
RTVSPropertyOp5
 70
     1
102
RTVSPropertyOp6
 70
     1
102
RTVSPropertyOp7
 70
     1
102
RTVSPropertyOp8
 70
     1
102
RTVSPropertyOp9
 70
     1
102
RTVSPropertyOp10
 70
     1
102
RTVSPropertyOp11
 70
     1
102
RTVSPropertyOp12
 70
     1
102
RTVSPropertyOp13
 70
     1
102
RTVSPropertyOp14
 70
     1
102
RTVSPropertyOp15
 70
     1
102
RTVSPropertyOp16
 70
     1
102
RTVSPropertyOp17
 70
     1
102
RTVSPropertyOp18
 70
     1
102
RTVSPropertyOp19
 70
     1
102
RTVSPropertyOp20
 70
     1
102
RTVSPropertyOp21
 70
     1
102
RTVSPropertyOp22
 70
     1
102
RTVSPropertyOp23
 70
     1
102
RTVSPropertyOp24
 70
     1
102
RTVSPropertyOp25
 70
     1
102
RTVSPropertyOp26
 70
     1
102
RTVSPropertyOp27
 70
     1
  0
XRECORD
  5
25E7
102
{ACAD_REACTORS
330
25E6
102
}
330
25E6
100
AcDbXrecord
280
     1
102
RTVSPropertyOp0
 70
     1
102
RTVSPropertyOp1
 70
     1
102
RTVSPropertyOp2
 70
     1
102
RTVSPropertyOp3
 70
     1
102
RTVSPropertyOp4
 70
     1
102
RTVSPropertyOp5
 70
     1
102
RTVSPropertyOp6
 70
     1
102
RTVSPropertyOp7
 70
     1
102
RTVSPropertyOp8
 70
     1
102
RTVSPropertyOp9
 70
     1
102
RTVSPropertyOp10
 70
     1
102
RTVSPropertyOp11
 70
     1
102
RTVSPropertyOp12
 70
     1
102
RTVSPropertyOp13
 70
     1
102
RTVSPropertyOp14
 70
     1
102
RTVSPropertyOp15
 70
     1
102
RTVSPropertyOp16
 70
     1
102
RTVSPropertyOp17
 70
     1
102
RTVSPropertyOp18
 70
     1
102
RTVSPropertyOp19
 70
     1
102
RTVSPropertyOp20
 70
     1
102
RTVSPropertyOp21
 70
     1
102
RTVSPropertyOp22
 70
     1
102
RTVSPropertyOp23
 70
     1
102
RTVSPropertyOp24
 70
     1
102
RTVSPropertyOp25
 70
     1
102
RTVSPropertyOp26
 70
     1
102
RTVSPropertyOp27
 70
     1
  0
XRECORD
  5
25E9
102
{ACAD_REACTORS
330
25E8
102
}
330
25E8
100
AcDbXrecord
280
     1
102
RTVSPropertyOp0
 70
     1
102
RTVSPropertyOp1
 70
     1
102
RTVSPropertyOp2
 70
     1
102
RTVSPropertyOp3
 70
     1
102
RTVSPropertyOp4
 70
     1
102
RTVSPropertyOp5
 70
     1
102
RTVSPropertyOp6
 70
     1
102
RTVSPropertyOp7
 70
     1
102
RTVSPropertyOp8
 70
     1
102
RTVSPropertyOp9
 70
     1
102
RTVSPropertyOp10
 70
     1
102
RTVSPropertyOp11
 70
     1
102
RTVSPropertyOp12
 70
     1
102
RTVSPropertyOp13
 70
     1
102
RTVSPropertyOp14
 70
     1
102
RTVSPropertyOp15
 70
     1
102
RTVSPropertyOp16
 70
     1
102
RTVSPropertyOp17
 70
     1
102
RTVSPropertyOp18
 70
     1
102
RTVSPropertyOp19
 70
     1
102
RTVSPropertyOp20
 70
     1
102
RTVSPropertyOp21
 70
     1
102
RTVSPropertyOp22
 70
     1
102
RTVSPropertyOp23
 70
     1
102
RTVSPropertyOp24
 70
     1
102
RTVSPropertyOp25
 70
     1
102
RTVSPropertyOp26
 70
     1
102
RTVSPropertyOp27
 70
     1
  0
XRECORD
  5
25EB
102
{ACAD_REACTORS
330
25EA
102
}
330
25EA
100
AcDbXrecord
280
     1
102
RTVSPropertyOp0
 70
     1
102
RTVSPropertyOp1
 70
     1
102
RTVSPropertyOp2
 70
     1
102
RTVSPropertyOp3
 70
     1
102
RTVSPropertyOp4
 70
     1
102
RTVSPropertyOp5
 70
     1
102
RTVSPropertyOp6
 70
     1
102
RTVSPropertyOp7
 70
     1
102
RTVSPropertyOp8
 70
     1
102
RTVSPropertyOp9
 70
     1
102
RTVSPropertyOp10
 70
     1
102
RTVSPropertyOp11
 70
     1
102
RTVSPropertyOp12
 70
     1
102
RTVSPropertyOp13
 70
     1
102
RTVSPropertyOp14
 70
     1
102
RTVSPropertyOp15
 70
     1
102
RTVSPropertyOp16
 70
     1
102
RTVSPropertyOp17
 70
     1
102
RTVSPropertyOp18
 70
     1
102
RTVSPropertyOp19
 70
     1
102
RTVSPropertyOp20
 70
     1
102
RTVSPropertyOp21
 70
     1
102
RTVSPropertyOp22
 70
     1
102
RTVSPropertyOp23
 70
     1
102
RTVSPropertyOp24
 70
     1
102
RTVSPropertyOp25
 70
     1
102
RTVSPropertyOp26
 70
     1
102
RTVSPropertyOp27
 70
     1
  0
XRECORD
  5
2605
102
{ACAD_REACTORS
330
2604
102
}
330
2604
100
AcDbXrecord
280
     1
102
RTVSPropertyOp0
 70
     0
102
RTVSPropertyOp1
 70
     0
102
RTVSPropertyOp2
 70
     0
102
RTVSPropertyOp3
 70
     0
102
RTVSPropertyOp4
 70
     0
102
RTVSPropertyOp5
 70
     0
102
RTVSPropertyOp6
 70
     0
102
RTVSPropertyOp7
 70
     0
102
RTVSPropertyOp8
 70
     0
102
RTVSPropertyOp9
 70
     0
102
RTVSPropertyOp10
 70
     0
102
RTVSPropertyOp11
 70
     0
102
RTVSPropertyOp12
 70
     0
102
RTVSPropertyOp13
 70
     0
102
RTVSPropertyOp14
 70
     2
102
RTVSPropertyOp15
 70
     0
102
RTVSPropertyOp16
 70
     0
102
RTVSPropertyOp17
 70
     0
102
RTVSPropertyOp18
 70
     0
102
RTVSPropertyOp19
 70
     0
102
RTVSPropertyOp20
 70
     0
102
RTVSPropertyOp21
 70
     0
102
RTVSPropertyOp22
 70
     0
102
RTVSPropertyOp23
 70
     0
102
RTVSPropertyOp24
 70
     0
102
RTVSPropertyOp25
 70
     0
102
RTVSPropertyOp26
 70
     0
102
RTVSPropertyOp27
 70
     0
  0
XRECORD
  5
25FF
102
{ACAD_REACTORS
330
25FE
102
}
330
25FE
100
AcDbXrecord
280
     1
102
RTVSPropertyOp0
 70
     1
102
RTVSPropertyOp1
 70
     1
102
RTVSPropertyOp2
 70
     1
102
RTVSPropertyOp3
 70
     1
102
RTVSPropertyOp4
 70
     1
102
RTVSPropertyOp5
 70
     1
102
RTVSPropertyOp6
 70
     1
102
RTVSPropertyOp7
 70
     1
102
RTVSPropertyOp8
 70
     1
102
RTVSPropertyOp9
 70
     1
102
RTVSPropertyOp10
 70
     1
102
RTVSPropertyOp11
 70
     1
102
RTVSPropertyOp12
 70
     1
102
RTVSPropertyOp13
 70
     1
102
RTVSPropertyOp14
 70
     1
102
RTVSPropertyOp15
 70
     1
102
RTVSPropertyOp16
 70
     1
102
RTVSPropertyOp17
 70
     1
102
RTVSPropertyOp18
 70
     1
102
RTVSPropertyOp19
 70
     1
102
RTVSPropertyOp20
 70
     1
102
RTVSPropertyOp21
 70
     1
102
RTVSPropertyOp22
 70
     1
102
RTVSPropertyOp23
 70
     1
102
RTVSPropertyOp24
 70
     1
102
RTVSPropertyOp25
 70
     1
102
RTVSPropertyOp26
 70
     1
102
RTVSPropertyOp27
 70
     1
  0
XRECORD
  5
2607
102
{ACAD_REACTORS
330
2606
102
}
330
2606
100
AcDbXrecord
280
     1
102
RTVSPropertyOp0
 70
     0
102
RTVSPropertyOp1
 70
     0
102
RTVSPropertyOp2
 70
     0
102
RTVSPropertyOp3
 70
     0
102
RTVSPropertyOp4
 70
     0
102
RTVSPropertyOp5
 70
     0
102
RTVSPropertyOp6
 70
     0
102
RTVSPropertyOp7
 70
     0
102
RTVSPropertyOp8
 70
     0
102
RTVSPropertyOp9
 70
     0
102
RTVSPropertyOp10
 70
     0
102
RTVSPropertyOp11
 70
     0
102
RTVSPropertyOp12
 70
     0
102
RTVSPropertyOp13
 70
     0
102
RTVSPropertyOp14
 70
     2
102
RTVSPropertyOp15
 70
     0
102
RTVSPropertyOp16
 70
     0
102
RTVSPropertyOp17
 70
     0
102
RTVSPropertyOp18
 70
     0
102
RTVSPropertyOp19
 70
     0
102
RTVSPropertyOp20
 70
     0
102
RTVSPropertyOp21
 70
     0
102
RTVSPropertyOp22
 70
     0
102
RTVSPropertyOp23
 70
     0
102
RTVSPropertyOp24
 70
     0
102
RTVSPropertyOp25
 70
     0
102
RTVSPropertyOp26
 70
     0
102
RTVSPropertyOp27
 70
     0
  0
XRECORD
  5
25F7
102
{ACAD_REACTORS
330
25F6
102
}
330
25F6
100
AcDbXrecord
280
     1
102
RTVSPropertyOp0
 70
     1
102
RTVSPropertyOp1
 70
     1
102
RTVSPropertyOp2
 70
     1
102
RTVSPropertyOp3
 70
     1
102
RTVSPropertyOp4
 70
     1
102
RTVSPropertyOp5
 70
     1
102
RTVSPropertyOp6
 70
     1
102
RTVSPropertyOp7
 70
     1
102
RTVSPropertyOp8
 70
     1
102
RTVSPropertyOp9
 70
     1
102
RTVSPropertyOp10
 70
     1
102
RTVSPropertyOp11
 70
     1
102
RTVSPropertyOp12
 70
     1
102
RTVSPropertyOp13
 70
     1
102
RTVSPropertyOp14
 70
     1
102
RTVSPropertyOp15
 70
     1
102
RTVSPropertyOp16
 70
     1
102
RTVSPropertyOp17
 70
     1
102
RTVSPropertyOp18
 70
     1
102
RTVSPropertyOp19
 70
     1
102
RTVSPropertyOp20
 70
     1
102
RTVSPropertyOp21
 70
     1
102
RTVSPropertyOp22
 70
     1
102
RTVSPropertyOp23
 70
     1
102
RTVSPropertyOp24
 70
     1
102
RTVSPropertyOp25
 70
     1
102
RTVSPropertyOp26
 70
     1
102
RTVSPropertyOp27
 70
     1
  0
XRECORD
  5
25FD
102
{ACAD_REACTORS
330
25FC
102
}
330
25FC
100
AcDbXrecord
280
     1
102
RTVSPropertyOp0
 70
     1
102
RTVSPropertyOp1
 70
     1
102
RTVSPropertyOp2
 70
     1
102
RTVSPropertyOp3
 70
     1
102
RTVSPropertyOp4
 70
     1
102
RTVSPropertyOp5
 70
     1
102
RTVSPropertyOp6
 70
     1
102
RTVSPropertyOp7
 70
     1
102
RTVSPropertyOp8
 70
     1
102
RTVSPropertyOp9
 70
     1
102
RTVSPropertyOp10
 70
     1
102
RTVSPropertyOp11
 70
     1
102
RTVSPropertyOp12
 70
     1
102
RTVSPropertyOp13
 70
     1
102
RTVSPropertyOp14
 70
     1
102
RTVSPropertyOp15
 70
     1
102
RTVSPropertyOp16
 70
     1
102
RTVSPropertyOp17
 70
     1
102
RTVSPropertyOp18
 70
     1
102
RTVSPropertyOp19
 70
     1
102
RTVSPropertyOp20
 70
     1
102
RTVSPropertyOp21
 70
     1
102
RTVSPropertyOp22
 70
     1
102
RTVSPropertyOp23
 70
     1
102
RTVSPropertyOp24
 70
     1
102
RTVSPropertyOp25
 70
     1
102
RTVSPropertyOp26
 70
     1
102
RTVSPropertyOp27
 70
     1
  0
ENDSEC
  0
EOF
