  0
SECTION
  2
HEADER
  9
$ACADVER
  1
AC1015
  9
$ACADMAINTVER
 70
    20
  9
$DWGCODEPAGE
  3
ANSI_1252
  9
$INSBASE
 10
0.0
 20
0.0
 30
0.0
  9
$EXTMIN
 10
-92.46564649000545
 20
-44.46187196798639
 30
0.0
  9
$EXTMAX
 10
269.5525478094945
 20
87.5024306474771
 30
0.0
  9
$LIMMIN
 10
0.0
 20
0.0
  9
$LIMMAX
 10
420.0
 20
297.0
  9
$ORTHOMODE
 70
     0
  9
$REGENMODE
 70
     1
  9
$FILLMODE
 70
     1
  9
$QTEXTMODE
 70
     0
  9
$MIRRTEXT
 70
     0
  9
$LTSCALE
 40
15.0
  9
$ATTMODE
 70
     2
  9
$TEXTSIZE
 40
2.5
  9
$TRACEWID
 40
1.0
  9
$TEXTSTYLE
  7
STANDARD
  9
$CLAYER
  8
0
  9
$CELTYPE
  6
ByLayer
  9
$CECOLOR
 62
   256
  9
$CELTSCALE
 40
1.0
  9
$DISPSILH
 70
     0
  9
$DIMSCALE
 40
1.0
  9
$DIMASZ
 40
3.5
  9
$DIMEXO
 40
1.0
  9
$DIMDLI
 40
10.0
  9
$DIMRND
 40
0.0
  9
$DIMDLE
 40
0.0
  9
$DIMEXE
 40
1.0
  9
$DIMTP
 40
0.1
  9
$DIMTM
 40
0.1
  9
$DIMTXT
 40
3.5
  9
$DIMCEN
 40
0.0
  9
$DIMTSZ
 40
0.0
  9
$DIMTOL
 70
     0
  9
$DIMLIM
 70
     0
  9
$DIMTIH
 70
     0
  9
$DIMTOH
 70
     0
  9
$DIMSE1
 70
     0
  9
$DIMSE2
 70
     0
  9
$DIMTAD
 70
     1
  9
$DIMZIN
 70
     8
  9
$DIMBLK
  1

  9
$DIMASO
 70
     1
  9
$DIMSHO
 70
     1
  9
$DIMPOST
  1

  9
$DIMAPOST
  1
"
  9
$DIMALT
 70
     0
  9
$DIMALTD
 70
     2
  9
$DIMALTF
 40
0.0393701
  9
$DIMLFAC
 40
1.0
  9
$DIMTOFL
 70
     1
  9
$DIMTVP
 40
0.0
  9
$DIMTIX
 70
     0
  9
$DIMSOXD
 70
     0
  9
$DIMSAH
 70
     0
  9
$DIMBLK1
  1

  9
$DIMBLK2
  1

  9
$DIMSTYLE
  2
AM_DIN
  9
$DIMCLRD
 70
   256
  9
$DIMCLRE
 70
   256
  9
$DIMCLRT
 70
   140
  9
$DIMTFAC
 40
0.71
  9
$DIMGAP
 40
1.5
  9
$DIMJUST
 70
     0
  9
$DIMSD1
 70
     0
  9
$DIMSD2
 70
     0
  9
$DIMTOLJ
 70
     1
  9
$DIMTZIN
 70
     0
  9
$DIMALTZ
 70
     0
  9
$DIMALTTZ
 70
     0
  9
$DIMUPT
 70
     0
  9
$DIMDEC
 70
     4
  9
$DIMTDEC
 70
     4
  9
$DIMALTU
 70
     2
  9
$DIMALTTD
 70
     2
  9
$DIMTXSTY
  7
STANDARD
  9
$DIMAUNIT
 70
     0
  9
$DIMADEC
 70
     0
  9
$DIMALTRND
 40
0.0
  9
$DIMAZIN
 70
     0
  9
$DIMDSEP
 70
    46
  9
$DIMATFIT
 70
     3
  9
$DIMFRAC
 70
     0
  9
$DIMLDRBLK
  1

  9
$DIMLUNIT
 70
     2
  9
$DIMLWD
 70
    -2
  9
$DIMLWE
 70
    -2
  9
$DIMTMOVE
 70
     0
  9
$LUNITS
 70
     2
  9
$LUPREC
 70
     2
  9
$SKETCHINC
 40
1.0
  9
$FILLETRAD
 40
2.5
  9
$AUNITS
 70
     0
  9
$AUPREC
 70
     0
  9
$MENU
  1
.
  9
$ELEVATION
 40
0.0
  9
$PELEVATION
 40
0.0
  9
$THICKNESS
 40
0.0
  9
$LIMCHECK
 70
     0
  9
$CHAMFERA
 40
2.5
  9
$CHAMFERB
 40
2.5
  9
$CHAMFERC
 40
0.0
  9
$CHAMFERD
 40
0.0
  9
$SKPOLY
 70
     0
  9
$TDCREATE
 40
2455672.497120949
  9
$TDUCREATE
 40
2455672.455454283
  9
$TDUPDATE
 40
2457718.715127315
  9
$TDUUPDATE
 40
2457718.673460648
  9
$TDINDWG
 40
0.1650658333
  9
$TDUSRTIMER
 40
0.1650652894
  9
$USRTIMER
 70
     1
  9
$ANGBASE
 50
0.0
  9
$ANGDIR
 70
     0
  9
$PDMODE
 70
     0
  9
$PDSIZE
 40
0.0
  9
$PLINEWID
 40
0.0
  9
$SPLFRAME
 70
     0
  9
$SPLINETYPE
 70
     6
  9
$SPLINESEGS
 70
     8
  9
$HANDSEED
  5
2493
  9
$SURFTAB1
 70
     6
  9
$SURFTAB2
 70
     6
  9
$SURFTYPE
 70
     6
  9
$SURFU
 70
     6
  9
$SURFV
 70
     6
  9
$UCSBASE
  2

  9
$UCSNAME
  2

  9
$UCSORG
 10
0.0
 20
0.0
 30
0.0
  9
$UCSXDIR
 10
1.0
 20
0.0
 30
0.0
  9
$UCSYDIR
 10
0.0
 20
1.0
 30
0.0
  9
$UCSORTHOREF
  2

  9
$UCSORTHOVIEW
 70
     0
  9
$UCSORGTOP
 10
0.0
 20
0.0
 30
0.0
  9
$UCSORGBOTTOM
 10
0.0
 20
0.0
 30
0.0
  9
$UCSORGLEFT
 10
0.0
 20
0.0
 30
0.0
  9
$UCSORGRIGHT
 10
0.0
 20
0.0
 30
0.0
  9
$UCSORGFRONT
 10
0.0
 20
0.0
 30
0.0
  9
$UCSORGBACK
 10
0.0
 20
0.0
 30
0.0
  9
$PUCSBASE
  2

  9
$PUCSNAME
  2

  9
$PUCSORG
 10
0.0
 20
0.0
 30
0.0
  9
$PUCSXDIR
 10
1.0
 20
0.0
 30
0.0
  9
$PUCSYDIR
 10
0.0
 20
1.0
 30
0.0
  9
$PUCSORTHOREF
  2

  9
$PUCSORTHOVIEW
 70
     0
  9
$PUCSORGTOP
 10
0.0
 20
0.0
 30
0.0
  9
$PUCSORGBOTTOM
 10
0.0
 20
0.0
 30
0.0
  9
$PUCSORGLEFT
 10
0.0
 20
0.0
 30
0.0
  9
$PUCSORGRIGHT
 10
0.0
 20
0.0
 30
0.0
  9
$PUCSORGFRONT
 10
0.0
 20
0.0
 30
0.0
  9
$PUCSORGBACK
 10
0.0
 20
0.0
 30
0.0
  9
$USERI1
 70
     0
  9
$USERI2
 70
     0
  9
$USERI3
 70
     0
  9
$USERI4
 70
     0
  9
$USERI5
 70
     0
  9
$USERR1
 40
0.0
  9
$USERR2
 40
0.0
  9
$USERR3
 40
0.0
  9
$USERR4
 40
0.0
  9
$USERR5
 40
0.0
  9
$WORLDVIEW
 70
     1
  9
$SHADEDGE
 70
     3
  9
$SHADEDIF
 70
    70
  9
$TILEMODE
 70
     1
  9
$MAXACTVP
 70
    64
  9
$PINSBASE
 10
0.0
 20
0.0
 30
0.0
  9
$PLIMCHECK
 70
     0
  9
$PEXTMIN
 10
1.131083300733189
 20
0.7885833800308344
 30
0.0
  9
$PEXTMAX
 10
10.17974970659872
 20
7.097250420277513
 30
0.0
  9
$PLIMMIN
 10
-0.1912502979669045
 20
-0.1912499975970411
  9
$PLIMMAX
 10
11.503750057671
 20
8.072082940049059
  9
$UNITMODE
 70
     0
  9
$VISRETAIN
 70
     1
  9
$PLINEGEN
 70
     0
  9
$PSLTSCALE
 70
     1
  9
$TREEDEPTH
 70
  3020
  9
$CMLSTYLE
  2
Standard
  9
$CMLJUST
 70
     0
  9
$CMLSCALE
 40
1.0
  9
$PROXYGRAPHICS
 70
     1
  9
$MEASUREMENT
 70
     0
  9
$CELWEIGHT
370
    -1
  9
$ENDCAPS
280
     0
  9
$JOINSTYLE
280
     0
  9
$LWDISPLAY
290
     0
  9
$INSUNITS
 70
     0
  9
$HYPERLINKBASE
  1

  9
$STYLESHEET
  1

  9
$XEDIT
290
     1
  9
$CEPSNTYPE
380
     0
  9
$PSTYLEMODE
290
     1
  9
$FINGERPRINTGUID
  2
{BB3E360E-84DD-45DD-A2E4-7AC9923142CC}
  9
$VERSIONGUID
  2
{D1192142-981A-4494-B130-1D4823087CE4}
  9
$EXTNAMES
290
     1
  9
$PSVPSCALE
 40
0.0
  9
$OLESTARTUP
290
     0
  0
ENDSEC
  0
SECTION
  2
CLASSES
  0
CLASS
  1
ACDBDICTIONARYWDFLT
  2
AcDbDictionaryWithDefault
  3
ObjectDBX Classes
 90
        0
280
     0
281
     0
  0
CLASS
  1
MATERIAL
  2
AcDbMaterial
  3
ObjectDBX Classes
 90
     1153
280
     0
281
     0
  0
CLASS
  1
VISUALSTYLE
  2
AcDbVisualStyle
  3
ObjectDBX Classes
 90
     4095
280
     0
281
     0
  0
CLASS
  1
SCALE
  2
AcDbScale
  3
ObjectDBX Classes
 90
     1153
280
     0
281
     0
  0
CLASS
  1
TABLESTYLE
  2
AcDbTableStyle
  3
ObjectDBX Classes
 90
     4095
280
     0
281
     0
  0
CLASS
  1
MLEADERSTYLE
  2
AcDbMLeaderStyle
  3
ACDB_MLEADERSTYLE_CLASS
 90
     4095
280
     0
281
     0
  0
CLASS
  1
DICTIONARYVAR
  2
AcDbDictionaryVar
  3
ObjectDBX Classes
 90
        0
280
     0
281
     0
  0
CLASS
  1
CELLSTYLEMAP
  2
AcDbCellStyleMap
  3
ObjectDBX Classes
 90
     1152
280
     0
281
     0
  0
CLASS
  1
ACDBPLACEHOLDER
  2
AcDbPlaceHolder
  3
ObjectDBX Classes
 90
        0
280
     0
281
     0
  0
CLASS
  1
LAYOUT
  2
AcDbLayout
  3
ObjectDBX Classes
 90
        0
280
     0
281
     0
  0
ENDSEC
  0
SECTION
  2
TABLES
  0
TABLE
  2
VPORT
  5
2187
330
0
100
AcDbSymbolTable
 70
     1
  0
VPORT
  5
21F9
330
2187
100
AcDbSymbolTableRecord
100
AcDbViewportTableRecord
  2
*ACTIVE
 70
     0
 10
0.0
 20
0.0
 11
1.0
 21
1.0
 12
33.68328615659364
 22
-8.611587822977298
 13
0.0
 23
0.0
 14
2.5
 24
2.5
 15
10.0
 25
10.0
 16
0.0
 26
0.0
 36
271.8911082557244
 17
-7.077914484763256
 27
5.165508186469383
 37
0.0
 40
64.197443831324
 41
2.145220588235293
 42
50.0
 43
0.0
 44
0.0
 50
0.0
 51
0.0
 71
     0
 72
   100
 73
     1
 74
     3
 75
     0
 76
     0
 77
     0
 78
     0
281
     0
 65
     1
110
0.0
120
0.0
130
0.0
111
1.0
121
0.0
131
0.0
112
0.0
122
1.0
132
0.0
 79
     0
146
0.0
  0
ENDTAB
  0
TABLE
  2
LTYPE
  5
2184
330
0
100
AcDbSymbolTable
 70
     4
  0
LTYPE
  5
21E4
330
2184
100
AcDbSymbolTableRecord
100
AcDbLinetypeTableRecord
  2
ByBlock
 70
     0
  3

 72
    65
 73
     0
 40
0.0
  0
LTYPE
  5
21E5
330
2184
100
AcDbSymbolTableRecord
100
AcDbLinetypeTableRecord
  2
ByLayer
 70
     0
  3

 72
    65
 73
     0
 40
0.0
  0
LTYPE
  5
21E6
330
2184
100
AcDbSymbolTableRecord
100
AcDbLinetypeTableRecord
  2
CONTINUOUS
 70
     0
  3
Solid line
 72
    65
 73
     0
 40
0.0
  0
LTYPE
  5
21FA
330
2184
100
AcDbSymbolTableRecord
100
AcDbLinetypeTableRecord
  2
CENTER
 70
     0
  3
__ . __
 72
    65
 73
     4
 40
7.0
 49
4.0
 74
     0
 49
-1.0
 74
     0
 49
1.0
 74
     0
 49
-1.0
 74
     0
  0
LTYPE
  5
21FB
330
2184
100
AcDbSymbolTableRecord
100
AcDbLinetypeTableRecord
  2
DASHED
 70
     0
  3
- - - - - - - - - - - - - - - - - - - -
 72
    65
 73
     2
 40
0.2
 49
0.1
 74
     0
 49
-0.1
 74
     0
  0
LTYPE
  5
21FC
330
2184
100
AcDbSymbolTableRecord
100
AcDbLinetypeTableRecord
  2
CENTER2
 70
     0
  3
Center (.5x) ___ _ ___ _ ___ _ ___ _ ___ _ ___
 72
    65
 73
     4
 40
1.125
 49
0.75
 74
     0
 49
-0.125
 74
     0
 49
0.125
 74
     0
 49
-0.125
 74
     0
  0
ENDTAB
  0
TABLE
  2
LAYER
  5
2181
330
0
100
AcDbSymbolTable
 70
    12
  0
LAYER
  5
21DE
102
{ACAD_XDICTIONARY
360
2321
102
}
330
2181
100
AcDbSymbolTableRecord
100
AcDbLayerTableRecord
  2
0
 70
     0
 62
     7
  6
CONTINUOUS
370
    -3
390
218E
  0
LAYER
  5
21FD
102
{ACAD_XDICTIONARY
360
2323
102
}
330
2181
100
AcDbSymbolTableRecord
100
AcDbLayerTableRecord
  2
1
 70
     0
 62
     4
  6
CONTINUOUS
370
    -3
390
218E
  0
LAYER
  5
21FE
330
2181
100
AcDbSymbolTableRecord
100
AcDbLayerTableRecord
  2
DEFPOINTS
 70
     0
 62
     7
  6
CONTINUOUS
290
     0
370
    -3
390
218E
  0
LAYER
  5
21FF
102
{ACAD_XDICTIONARY
360
2325
102
}
330
2181
100
AcDbSymbolTableRecord
100
AcDbLayerTableRecord
  2
80
 70
     0
 62
     6
  6
CONTINUOUS
370
    -3
390
218E
  0
LAYER
  5
2200
102
{ACAD_XDICTIONARY
360
2327
102
}
330
2181
100
AcDbSymbolTableRecord
100
AcDbLayerTableRecord
  2
81
 70
     0
 62
     3
  6
CONTINUOUS
370
    -3
390
218E
  0
LAYER
  5
2201
102
{ACAD_XDICTIONARY
360
2329
102
}
330
2181
100
AcDbSymbolTableRecord
100
AcDbLayerTableRecord
  2
SK4
 70
     0
 62
     2
  6
CENTER
370
    -3
390
218E
  0
LAYER
  5
2202
102
{ACAD_XDICTIONARY
360
232B
102
}
330
2181
100
AcDbSymbolTableRecord
100
AcDbLayerTableRecord
  2
SK3
 70
     0
 62
     1
  6
DASHED
370
    -3
390
218E
  0
LAYER
  5
2203
102
{ACAD_XDICTIONARY
360
232D
102
}
330
2181
100
AcDbSymbolTableRecord
100
AcDbLayerTableRecord
  2
SK2
 70
     0
 62
   255
  6
CONTINUOUS
370
    -3
390
218E
  0
LAYER
  5
2204
102
{ACAD_XDICTIONARY
360
232F
102
}
330
2181
100
AcDbSymbolTableRecord
100
AcDbLayerTableRecord
  2
SK6
 70
     0
 62
     5
  6
CONTINUOUS
370
    -3
390
218E
  0
LAYER
  5
2205
102
{ACAD_XDICTIONARY
360
2331
102
}
330
2181
100
AcDbSymbolTableRecord
100
AcDbLayerTableRecord
  2
2
 70
     0
 62
     7
  6
CONTINUOUS
370
    -3
390
218E
  0
LAYER
  5
2206
102
{ACAD_XDICTIONARY
360
2333
102
}
330
2181
100
AcDbSymbolTableRecord
100
AcDbLayerTableRecord
  2
4
 70
     0
 62
     2
  6
CENTER
370
    -3
390
218E
  0
LAYER
  5
2207
102
{ACAD_XDICTIONARY
360
2335
102
}
330
2181
100
AcDbSymbolTableRecord
100
AcDbLayerTableRecord
  2
6
 70
     0
 62
     5
  6
CONTINUOUS
370
    -3
390
218E
  0
ENDTAB
  0
TABLE
  2
STYLE
  5
2182
330
0
100
AcDbSymbolTable
 70
     5
  0
STYLE
  5
21DF
330
2182
100
AcDbSymbolTableRecord
100
AcDbTextStyleTableRecord
  2
STANDARD
 70
     0
 40
0.0
 41
1.0
 50
0.0
 71
     0
 42
2.5
  3
ISOCP.SHX
  4

  0
STYLE
  5
21E3
330
2182
100
AcDbSymbolTableRecord
100
AcDbTextStyleTableRecord
  2
ANNOTATIVE
 70
     0
 40
0.0
 41
1.0
 50
0.0
 71
     0
 42
0.2
  3
txt
  4

1001
ACADANNOTATIVE
1000
AnnotativeData
1002
{
1070
     1
1070
     1
1002
}
  0
STYLE
  5
2208
330
2182
100
AcDbSymbolTableRecord
100
AcDbTextStyleTableRecord
  2
TEXTSTYLE_2
 70
     0
 40
0.0
 41
0.72
 50
0.0
 71
     0
 42
0.2
  3
SIMPLEX.SHX
  4

  0
STYLE
  5
2209
330
2182
100
AcDbSymbolTableRecord
100
AcDbTextStyleTableRecord
  2
TEXTSTYLE_3
 70
     0
 40
0.0
 41
0.72
 50
0.0
 71
     0
 42
0.2
  3
txt
  4

  0
STYLE
  5
220A
330
2182
100
AcDbSymbolTableRecord
100
AcDbTextStyleTableRecord
  2
TEXTSTYLE_4
 70
     0
 40
0.0
 41
0.72
 50
0.0
 71
     0
 42
0.2
  3
gdt
  4

  0
ENDTAB
  0
TABLE
  2
VIEW
  5
2185
330
0
100
AcDbSymbolTable
 70
     0
  0
ENDTAB
  0
TABLE
  2
UCS
  5
2186
330
0
100
AcDbSymbolTable
 70
     0
  0
ENDTAB
  0
TABLE
  2
APPID
  5
2188
330
0
100
AcDbSymbolTable
 70
    27
  0
APPID
  5
21E0
330
2188
100
AcDbSymbolTableRecord
100
AcDbRegAppTableRecord
  2
ACAD
 70
     0
  0
APPID
  5
21E7
330
2188
100
AcDbSymbolTableRecord
100
AcDbRegAppTableRecord
  2
ACADANNOTATIVE
 70
     0
  0
APPID
  5
220B
330
2188
100
AcDbSymbolTableRecord
100
AcDbRegAppTableRecord
  2
MCAD_NO_VIS
 70
     0
  0
APPID
  5
220C
330
2188
100
AcDbSymbolTableRecord
100
AcDbRegAppTableRecord
  2
ACAD_TEMP_GRAPHIC
 70
     0
  0
APPID
  5
220D
330
2188
100
AcDbSymbolTableRecord
100
AcDbRegAppTableRecord
  2
ACATTRIBSERVICES
 70
     0
  0
APPID
  5
220E
330
2188
100
AcDbSymbolTableRecord
100
AcDbRegAppTableRecord
  2
AD_DRAW
 70
     0
  0
APPID
  5
220F
330
2188
100
AcDbSymbolTableRecord
100
AcDbRegAppTableRecord
  2
DESIGNERASSEMBLIES
 70
     0
  0
APPID
  5
2210
330
2188
100
AcDbSymbolTableRecord
100
AcDbRegAppTableRecord
  2
ACADM_DIM_EDIT
 70
     0
  0
APPID
  5
2211
330
2188
100
AcDbSymbolTableRecord
100
AcDbRegAppTableRecord
  2
AMDT_DM_ADJ
 70
     0
  0
APPID
  5
2212
330
2188
100
AcDbSymbolTableRecord
100
AcDbRegAppTableRecord
  2
ACAD_DSTYLE_DIMARC_LENGTH_
 70
     0
  0
APPID
  5
2213
330
2188
100
AcDbSymbolTableRecord
100
AcDbRegAppTableRecord
  2
ACAD_DSTYLE_DIMJOGGED_JOGA
 70
     0
  0
APPID
  5
2214
330
2188
100
AcDbSymbolTableRecord
100
AcDbRegAppTableRecord
  2
ACAECLAYERSTANDARD
 70
     0
  0
APPID
  5
2215
330
2188
100
AcDbSymbolTableRecord
100
AcDbRegAppTableRecord
  2
ACAD_MLEADERVER
 70
     0
  0
APPID
  5
2216
330
2188
100
AcDbSymbolTableRecord
100
AcDbRegAppTableRecord
  2
ACAD_DSTYLE_DIMJAG
 70
     0
  0
APPID
  5
2217
330
2188
100
AcDbSymbolTableRecord
100
AcDbRegAppTableRecord
  2
ACAD_DSTYLE_DIMBREAK
 70
     0
  0
APPID
  5
2218
330
2188
100
AcDbSymbolTableRecord
100
AcDbRegAppTableRecord
  2
ACAD_EXEMPT_FROM_CAD_STANDARDS
 70
     0
  0
APPID
  5
2219
330
2188
100
AcDbSymbolTableRecord
100
AcDbRegAppTableRecord
  2
GENIUS_GENREC_14
 70
     0
  0
APPID
  5
221A
330
2188
100
AcDbSymbolTableRecord
100
AcDbRegAppTableRecord
  2
GENIUS_GENODEF_13
 70
     0
  0
APPID
  5
221B
330
2188
100
AcDbSymbolTableRecord
100
AcDbRegAppTableRecord
  2
GENIUS_GENOBJ-N-REC_13
 70
     0
  0
APPID
  5
221C
330
2188
100
AcDbSymbolTableRecord
100
AcDbRegAppTableRecord
  2
ACAUTHENVIRON
 70
     0
  0
APPID
  5
221D
330
2188
100
AcDbSymbolTableRecord
100
AcDbRegAppTableRecord
  2
ACDBDYNAMICBLOCKTRUENAME
 70
     0
  0
APPID
  5
221E
330
2188
100
AcDbSymbolTableRecord
100
AcDbRegAppTableRecord
  2
ACDBDYNAMICBLOCKGUID
 70
     0
  0
APPID
  5
221F
330
2188
100
AcDbSymbolTableRecord
100
AcDbRegAppTableRecord
  2
ACDBBLOCKREPETAG
 70
     0
  0
APPID
  5
2220
330
2188
100
AcDbSymbolTableRecord
100
AcDbRegAppTableRecord
  2
ACADANNOPO
 70
     0
  0
APPID
  5
2221
330
2188
100
AcDbSymbolTableRecord
100
AcDbRegAppTableRecord
  2
ACDBBLOCKREPBTAG
 70
     0
  0
APPID
  5
2222
330
2188
100
AcDbSymbolTableRecord
100
AcDbRegAppTableRecord
  2
ACCMTRANSPARENCY
 70
     0
  0
APPID
  5
2223
330
2188
100
AcDbSymbolTableRecord
100
AcDbRegAppTableRecord
  2
ACAD_PSEXT
 70
     0
  0
ENDTAB
  0
TABLE
  2
DIMSTYLE
  5
2189
330
0
100
AcDbSymbolTable
 70
     6
100
AcDbDimStyleTable
 71
     2
340
21E1
340
2224
  0
DIMSTYLE
105
21E1
102
{ACAD_REACTORS
330
1DA7
330
1DA8
330
1DA9
330
1DAA
330
1DAB
330
1DAC
330
1DAD
330
22F0
102
}
330
2189
100
AcDbSymbolTableRecord
100
AcDbDimStyleTableRecord
  2
STANDARD
 70
     0
 41
3.5
 47
0.005
 48
0.005
 71
     1
 73
     0
 74
     0
 77
     1
 78
     8
140
3.5
178
     5
271
     2
272
     2
279
     2
284
     8
285
     8
286
     8
340
21DF
  0
DIMSTYLE
105
21E2
330
2189
100
AcDbSymbolTableRecord
100
AcDbDimStyleTableRecord
  2
ANNOTATIVE
 70
     0
271
     2
272
     2
279
     2
284
     8
285
     8
286
     8
340
21DF
1001
ACADANNOTATIVE
1000
AnnotativeData
1002
{
1070
     1
1070
     1
1002
}
  0
DIMSTYLE
105
2224
330
2189
100
AcDbSymbolTableRecord
100
AcDbDimStyleTableRecord
  2
AM_DIN
 70
     0
  4
"
 41
3.5
 42
1.0
 43
10.0
 44
1.0
 47
0.1
 48
0.1
 73
     0
 74
     0
 77
     1
 78
     8
140
3.5
141
0.0
143
0.0393701
146
0.71
147
1.5
172
     1
176
   256
177
   256
178
   140
271
     2
272
     2
279
     2
284
     8
285
     8
286
     8
340
21DF
  0
DIMSTYLE
105
2225
330
2189
100
AcDbSymbolTableRecord
100
AcDbDimStyleTableRecord
  2
DIMSTYLE_1
 70
     0
 41
3.5
 47
0.2
 48
0.2
 73
     0
 74
     0
 77
     1
 78
     8
140
3.5
271
     2
272
     2
279
     2
284
     8
285
     8
286
     8
340
21DF
  0
DIMSTYLE
105
2226
330
2189
100
AcDbSymbolTableRecord
100
AcDbDimStyleTableRecord
  2
DIMSTYLE_2
 70
     0
 41
3.5
 47
0.3
 48
0.3
 73
     0
 74
     0
 77
     1
 78
     8
140
3.5
271
     2
272
     2
279
     2
284
     8
285
     8
286
     8
340
21DF
  0
DIMSTYLE
105
2227
330
2189
100
AcDbSymbolTableRecord
100
AcDbDimStyleTableRecord
  2
DIMSTYLE_3
 70
     0
 41
3.5
 47
0.2
 48
0.2
 73
     0
 74
     0
 77
     1
 78
     8
140
3.5
271
     2
272
     2
279
     2
284
     8
285
     8
286
     8
340
21DF
  0
ENDTAB
  0
TABLE
  2
BLOCK_RECORD
  5
2180
330
0
100
AcDbSymbolTable
 70
    55
  0
BLOCK_RECORD
  5
21F5
330
2180
100
AcDbSymbolTableRecord
100
AcDbBlockTableRecord
  2
*Model_Space
340
21F8
  0
BLOCK_RECORD
  5
21F1
330
2180
100
AcDbSymbolTableRecord
100
AcDbBlockTableRecord
  2
*Paper_Space
340
21F4
  0
BLOCK_RECORD
  5
222C
330
2180
100
AcDbSymbolTableRecord
100
AcDbBlockTableRecord
  2
$MODEL_SPACE
340
0
  0
BLOCK_RECORD
  5
222E
330
2180
100
AcDbSymbolTableRecord
100
AcDbBlockTableRecord
  2
$PAPER_SPACE
340
0
  0
BLOCK_RECORD
  5
2230
330
2180
100
AcDbSymbolTableRecord
100
AcDbBlockTableRecord
  2
*D2
340
0
  0
BLOCK_RECORD
  5
2232
330
2180
100
AcDbSymbolTableRecord
100
AcDbBlockTableRecord
  2
*U3
340
0
102
{BLKREFS
331
1965
102
}
  0
BLOCK_RECORD
  5
2234
330
2180
100
AcDbSymbolTableRecord
100
AcDbBlockTableRecord
  2
*D4
340
0
  0
BLOCK_RECORD
  5
2236
330
2180
100
AcDbSymbolTableRecord
100
AcDbBlockTableRecord
  2
*U5
340
0
102
{BLKREFS
331
196E
102
}
  0
BLOCK_RECORD
  5
2238
330
2180
100
AcDbSymbolTableRecord
100
AcDbBlockTableRecord
  2
*D6
340
0
  0
BLOCK_RECORD
  5
223A
330
2180
100
AcDbSymbolTableRecord
100
AcDbBlockTableRecord
  2
*U7
340
0
102
{BLKREFS
331
19BD
102
}
  0
BLOCK_RECORD
  5
223C
330
2180
100
AcDbSymbolTableRecord
100
AcDbBlockTableRecord
  2
*D8
340
0
  0
BLOCK_RECORD
  5
223E
330
2180
100
AcDbSymbolTableRecord
100
AcDbBlockTableRecord
  2
*U9
340
0
102
{BLKREFS
331
1980
102
}
  0
BLOCK_RECORD
  5
2240
330
2180
100
AcDbSymbolTableRecord
100
AcDbBlockTableRecord
  2
*D10
340
0
  0
BLOCK_RECORD
  5
2242
330
2180
100
AcDbSymbolTableRecord
100
AcDbBlockTableRecord
  2
*U11
340
0
102
{BLKREFS
331
1989
102
}
  0
BLOCK_RECORD
  5
2244
330
2180
100
AcDbSymbolTableRecord
100
AcDbBlockTableRecord
  2
*D12
340
0
  0
BLOCK_RECORD
  5
2246
330
2180
100
AcDbSymbolTableRecord
100
AcDbBlockTableRecord
  2
*U13
340
0
102
{BLKREFS
331
1992
102
}
  0
BLOCK_RECORD
  5
2248
330
2180
100
AcDbSymbolTableRecord
100
AcDbBlockTableRecord
  2
*D14
340
0
  0
BLOCK_RECORD
  5
224A
330
2180
100
AcDbSymbolTableRecord
100
AcDbBlockTableRecord
  2
*U15
340
0
102
{BLKREFS
331
195C
102
}
  0
BLOCK_RECORD
  5
224C
330
2180
100
AcDbSymbolTableRecord
100
AcDbBlockTableRecord
  2
_FILLED
340
0
102
{BLKREFS
331
1CCB
331
1CCC
331
1CD5
331
1CD6
331
1CDF
331
1CE0
331
1CE9
331
1CEA
331
1CF3
331
1CF4
331
1CFD
331
1CFE
331
1D07
331
1D08
331
1F83
331
1F84
331
1F28
331
1F29
331
1F1F
331
1F20
331
1F56
331
1F57
331
1F68
331
1F69
331
1F44
331
1F45
331
1F5F
331
1F60
102
}
  0
BLOCK_RECORD
  5
224E
330
2180
100
AcDbSymbolTableRecord
100
AcDbBlockTableRecord
  2
*D17
340
0
  0
BLOCK_RECORD
  5
2250
330
2180
100
AcDbSymbolTableRecord
100
AcDbBlockTableRecord
  2
*U18
340
0
102
{BLKREFS
331
1CC6
102
}
  0
BLOCK_RECORD
  5
2252
330
2180
100
AcDbSymbolTableRecord
100
AcDbBlockTableRecord
  2
*D19
340
0
  0
BLOCK_RECORD
  5
2254
330
2180
100
AcDbSymbolTableRecord
100
AcDbBlockTableRecord
  2
*U20
340
0
102
{BLKREFS
331
1CD0
102
}
  0
BLOCK_RECORD
  5
2256
330
2180
100
AcDbSymbolTableRecord
100
AcDbBlockTableRecord
  2
*D21
340
0
  0
BLOCK_RECORD
  5
2258
330
2180
100
AcDbSymbolTableRecord
100
AcDbBlockTableRecord
  2
*U22
340
0
102
{BLKREFS
331
1CDA
102
}
  0
BLOCK_RECORD
  5
225A
330
2180
100
AcDbSymbolTableRecord
100
AcDbBlockTableRecord
  2
*D23
340
0
  0
BLOCK_RECORD
  5
225C
330
2180
100
AcDbSymbolTableRecord
100
AcDbBlockTableRecord
  2
*U24
340
0
102
{BLKREFS
331
1CE4
102
}
  0
BLOCK_RECORD
  5
225E
330
2180
100
AcDbSymbolTableRecord
100
AcDbBlockTableRecord
  2
*D25
340
0
  0
BLOCK_RECORD
  5
2260
330
2180
100
AcDbSymbolTableRecord
100
AcDbBlockTableRecord
  2
*U26
340
0
102
{BLKREFS
331
1CEE
102
}
  0
BLOCK_RECORD
  5
2262
330
2180
100
AcDbSymbolTableRecord
100
AcDbBlockTableRecord
  2
*D27
340
0
  0
BLOCK_RECORD
  5
2264
330
2180
100
AcDbSymbolTableRecord
100
AcDbBlockTableRecord
  2
*U28
340
0
102
{BLKREFS
331
1CF8
102
}
  0
BLOCK_RECORD
  5
2266
330
2180
100
AcDbSymbolTableRecord
100
AcDbBlockTableRecord
  2
*D29
340
0
  0
BLOCK_RECORD
  5
2268
330
2180
100
AcDbSymbolTableRecord
100
AcDbBlockTableRecord
  2
*U30
340
0
102
{BLKREFS
331
1D02
102
}
  0
BLOCK_RECORD
  5
226A
330
2180
100
AcDbSymbolTableRecord
100
AcDbBlockTableRecord
  2
*D31
340
0
  0
BLOCK_RECORD
  5
226C
330
2180
100
AcDbSymbolTableRecord
100
AcDbBlockTableRecord
  2
*U32
340
0
102
{BLKREFS
331
1F85
102
}
  0
BLOCK_RECORD
  5
226E
330
2180
100
AcDbSymbolTableRecord
100
AcDbBlockTableRecord
  2
*D33
340
0
  0
BLOCK_RECORD
  5
2270
330
2180
100
AcDbSymbolTableRecord
100
AcDbBlockTableRecord
  2
*U34
340
0
102
{BLKREFS
331
1F2A
102
}
  0
BLOCK_RECORD
  5
2272
330
2180
100
AcDbSymbolTableRecord
100
AcDbBlockTableRecord
  2
*D35
340
0
  0
BLOCK_RECORD
  5
2274
330
2180
100
AcDbSymbolTableRecord
100
AcDbBlockTableRecord
  2
*U36
340
0
102
{BLKREFS
331
1F21
102
}
  0
BLOCK_RECORD
  5
2276
330
2180
100
AcDbSymbolTableRecord
100
AcDbBlockTableRecord
  2
*D37
340
0
  0
BLOCK_RECORD
  5
2278
330
2180
100
AcDbSymbolTableRecord
100
AcDbBlockTableRecord
  2
*U38
340
0
102
{BLKREFS
331
1F58
102
}
  0
BLOCK_RECORD
  5
227A
330
2180
100
AcDbSymbolTableRecord
100
AcDbBlockTableRecord
  2
*D39
340
0
  0
BLOCK_RECORD
  5
227C
330
2180
100
AcDbSymbolTableRecord
100
AcDbBlockTableRecord
  2
*U40
340
0
102
{BLKREFS
331
1F6A
102
}
  0
BLOCK_RECORD
  5
227E
330
2180
100
AcDbSymbolTableRecord
100
AcDbBlockTableRecord
  2
*D41
340
0
  0
BLOCK_RECORD
  5
2280
330
2180
100
AcDbSymbolTableRecord
100
AcDbBlockTableRecord
  2
*U42
340
0
102
{BLKREFS
331
1F46
102
}
  0
BLOCK_RECORD
  5
2282
330
2180
100
AcDbSymbolTableRecord
100
AcDbBlockTableRecord
  2
*D43
340
0
  0
BLOCK_RECORD
  5
2284
330
2180
100
AcDbSymbolTableRecord
100
AcDbBlockTableRecord
  2
*U44
340
0
102
{BLKREFS
331
1F61
102
}
  0
BLOCK_RECORD
  5
2286
330
2180
100
AcDbSymbolTableRecord
100
AcDbBlockTableRecord
  2
*U45
340
0
  0
BLOCK_RECORD
  5
2288
330
2180
100
AcDbSymbolTableRecord
100
AcDbBlockTableRecord
  2
*U46
340
0
  0
BLOCK_RECORD
  5
228D
330
2180
100
AcDbSymbolTableRecord
100
AcDbBlockTableRecord
  2
*D47
340
0
  0
BLOCK_RECORD
  5
229A
330
2180
100
AcDbSymbolTableRecord
100
AcDbBlockTableRecord
  2
*D48
340
0
  0
BLOCK_RECORD
  5
22A7
330
2180
100
AcDbSymbolTableRecord
100
AcDbBlockTableRecord
  2
*D49
340
0
  0
BLOCK_RECORD
  5
22B3
330
2180
100
AcDbSymbolTableRecord
100
AcDbBlockTableRecord
  2
*D50
340
0
  0
BLOCK_RECORD
  5
22C0
330
2180
100
AcDbSymbolTableRecord
100
AcDbBlockTableRecord
  2
*D51
340
0
  0
BLOCK_RECORD
  5
22CD
330
2180
100
AcDbSymbolTableRecord
100
AcDbBlockTableRecord
  2
*D52
340
0
  0
BLOCK_RECORD
  5
22DA
330
2180
100
AcDbSymbolTableRecord
100
AcDbBlockTableRecord
  2
*D53
340
0
  0
BLOCK_RECORD
  5
22F1
330
2180
100
AcDbSymbolTableRecord
100
AcDbBlockTableRecord
  2
*D54
340
0
  0
ENDTAB
  0
ENDSEC
  0
SECTION
  2
BLOCKS
  0
BLOCK
  5
21F6
330
21F5
100
AcDbEntity
  8
0
100
AcDbBlockBegin
  2
*Model_Space
 70
     0
 10
0.0
 20
0.0
 30
0.0
  3
*Model_Space
  1

  0
ENDBLK
  5
21F7
330
21F5
100
AcDbEntity
  8
0
100
AcDbBlockEnd
  0
BLOCK
  5
21F2
330
21F1
100
AcDbEntity
 67
     1
  8
0
100
AcDbBlockBegin
  2
*Paper_Space
 70
     0
 10
0.0
 20
0.0
 30
0.0
  3
*Paper_Space
  1

  0
ENDBLK
  5
21F3
330
21F1
100
AcDbEntity
 67
     1
  8
0
100
AcDbBlockEnd
  0
BLOCK
  5
222D
330
222C
100
AcDbEntity
  8
0
100
AcDbBlockBegin
  2
$MODEL_SPACE
 70
     0
 10
0.0
 20
0.0
 30
0.0
  3
$MODEL_SPACE
  1

  0
ENDBLK
  5
20A8
330
222C
100
AcDbEntity
  8
0
100
AcDbBlockEnd
  0
BLOCK
  5
222F
330
222E
100
AcDbEntity
  8
0
100
AcDbBlockBegin
  2
$PAPER_SPACE
 70
     0
 10
0.0
 20
0.0
 30
0.0
  3
$PAPER_SPACE
  1

  0
ENDBLK
  5
20A4
330
222E
100
AcDbEntity
  8
0
100
AcDbBlockEnd
  0
BLOCK
  5
2231
330
2230
100
AcDbEntity
  8
0
100
AcDbBlockBegin
  2
*D2
 70
     1
 10
0.0
 20
0.0
 30
0.0
  3
*D2
  1

  0
LINE
  5
1962
330
2230
100
AcDbEntity
  8
2
 62
     0
100
AcDbLine
 10
0.0
 20
15.47474753889992
 30
0.0
 11
0.0000000000000018
 21
44.22528291250108
 31
0.0
  0
LINE
  5
1963
330
2230
100
AcDbEntity
  8
2
 62
     0
100
AcDbLine
 10
60.0
 20
11.5625
 30
0.0
 11
60.0
 21
44.22528291250108
 31
0.0
  0
LINE
  5
1964
330
2230
100
AcDbEntity
  8
2
 62
     0
100
AcDbLine
 10
3.5
 20
44.04528291250108
 30
0.0
 11
56.5
 21
44.04528291250108
 31
0.0
  0
INSERT
  5
1965
330
2230
100
AcDbEntity
  8
0
100
AcDbBlockReference
  2
*U3
 10
0.0
 20
0.0
 30
0.0
  0
SOLID
  5
1966
330
2230
100
AcDbEntity
  8
2
 62
     0
100
AcDbTrace
 10
3.5
 20
44.62861624583442
 30
0.0
 11
3.5
 21
43.46194957916774
 31
0.0
 12
0.0000000000000018
 22
44.04528291250108
 32
0.0
 13
0.0000000000000018
 23
44.04528291250108
 33
0.0
  0
SOLID
  5
1967
330
2230
100
AcDbEntity
  8
2
 62
     0
100
AcDbTrace
 10
56.5
 20
44.62861624583442
 30
0.0
 11
56.5
 21
43.46194957916774
 31
0.0
 12
60.0
 22
44.04528291250108
 32
0.0
 13
60.0
 23
44.04528291250108
 33
0.0
  0
POINT
  5
1968
330
2230
100
AcDbEntity
  8
DEFPOINTS
 62
     0
100
AcDbPoint
 10
0.0
 20
15.41224753889992
 30
0.0
  0
POINT
  5
1969
330
2230
100
AcDbEntity
  8
DEFPOINTS
 62
     0
100
AcDbPoint
 10
60.0
 20
11.5
 30
0.0
  0
POINT
  5
196A
330
2230
100
AcDbEntity
  8
DEFPOINTS
 62
     0
100
AcDbPoint
 10
60.0
 20
44.04528291250108
 30
0.0
  0
ENDBLK
  5
1875
330
2230
100
AcDbEntity
  8
0
100
AcDbBlockEnd
  0
BLOCK
  5
2233
330
2232
100
AcDbEntity
  8
0
100
AcDbBlockBegin
  2
*U3
 70
     1
 10
0.0
 20
0.0
 30
0.0
  3
*U3
  1

  0
TEXT
  5
1A69
330
2232
100
AcDbEntity
  8
2
100
AcDbText
 10
26.57647811243656
 20
44.86565621357089
 30
0.0
 40
3.5
  1
60
100
AcDbText
  0
ENDBLK
  5
1A6B
330
2232
100
AcDbEntity
  8
0
100
AcDbBlockEnd
  0
BLOCK
  5
2235
330
2234
100
AcDbEntity
  8
0
100
AcDbBlockBegin
  2
*D4
 70
     1
 10
0.0
 20
0.0
 30
0.0
  3
*D4
  1

  0
LINE
  5
196B
330
2234
100
AcDbEntity
  8
SK2
 62
     0
100
AcDbLine
 10
-48.39999999999964
 20
10.37868783880026
 30
0.0
 11
-48.39999999999964
 21
44.2331845337
 31
0.0
  0
LINE
  5
196C
330
2234
100
AcDbEntity
  8
SK2
 62
     0
100
AcDbLine
 10
0.0
 20
15.47474753889992
 30
0.0
 11
0.0000000000000018
 21
44.2331845337
 31
0.0
  0
LINE
  5
196D
330
2234
100
AcDbEntity
  8
SK2
 62
     0
100
AcDbLine
 10
-44.89999999999962
 20
44.05318453369999
 30
0.0
 11
-3.499999999999996
 21
44.05318453369999
 31
0.0
  0
INSERT
  5
196E
330
2234
100
AcDbEntity
  8
0
100
AcDbBlockReference
  2
*U5
 10
0.0
 20
0.0
 30
0.0
  0
SOLID
  5
196F
330
2234
100
AcDbEntity
  8
SK2
 62
     0
100
AcDbTrace
 10
-44.89999999999962
 20
44.63651786703334
 30
0.0
 11
-44.89999999999962
 21
43.46985120036666
 31
0.0
 12
-48.39999999999964
 22
44.05318453369999
 32
0.0
 13
-48.39999999999964
 23
44.05318453369999
 33
0.0
  0
SOLID
  5
1970
330
2234
100
AcDbEntity
  8
SK2
 62
     0
100
AcDbTrace
 10
-3.499999999999996
 20
44.63651786703334
 30
0.0
 11
-3.499999999999996
 21
43.46985120036666
 31
0.0
 12
0.0000000000000018
 22
44.05318453369999
 32
0.0
 13
0.0000000000000018
 23
44.05318453369999
 33
0.0
  0
POINT
  5
1971
330
2234
100
AcDbEntity
  8
DEFPOINTS
 62
     0
100
AcDbPoint
 10
-48.39999999999964
 20
10.31618783880026
 30
0.0
  0
POINT
  5
1972
330
2234
100
AcDbEntity
  8
DEFPOINTS
 62
     0
100
AcDbPoint
 10
0.0
 20
15.41224753889992
 30
0.0
  0
POINT
  5
1973
330
2234
100
AcDbEntity
  8
DEFPOINTS
 62
     0
100
AcDbPoint
 10
0.0000000000000018
 20
44.05318453369999
 30
0.0
  0
ENDBLK
  5
18D4
330
2234
100
AcDbEntity
  8
0
100
AcDbBlockEnd
  0
BLOCK
  5
2237
330
2236
100
AcDbEntity
  8
0
100
AcDbBlockBegin
  2
*U5
 70
     1
 10
0.0
 20
0.0
 30
0.0
  3
*U5
  1

  0
TEXT
  5
1A6D
330
2236
100
AcDbEntity
  8
SK2
100
AcDbText
 10
-31.73018861516793
 20
44.99203433457181
 30
0.0
 40
3.5
  1
48.4
100
AcDbText
  0
ENDBLK
  5
1A6F
330
2236
100
AcDbEntity
  8
0
100
AcDbBlockEnd
  0
BLOCK
  5
2239
330
2238
100
AcDbEntity
  8
0
100
AcDbBlockBegin
  2
*D6
 70
     1
 10
0.0
 20
0.0
 30
0.0
  3
*D6
  1

  0
LINE
  5
19BA
330
2238
100
AcDbEntity
  8
2
 62
     0
100
AcDbLine
 10
0.0
 20
15.47474753889992
 30
0.0
 11
0.0000000000000013
 21
36.11458243420105
 31
0.0
  0
LINE
  5
19BB
330
2238
100
AcDbEntity
  8
2
 62
     0
100
AcDbLine
 10
22.0
 20
23.962500000001
 30
0.0
 11
22.0
 21
36.11458243420105
 31
0.0
  0
LINE
  5
19BC
330
2238
100
AcDbEntity
  8
2
 62
     0
100
AcDbLine
 10
3.5
 20
35.93458243420105
 30
0.0
 11
18.5
 21
35.93458243420105
 31
0.0
  0
INSERT
  5
19BD
330
2238
100
AcDbEntity
  8
0
100
AcDbBlockReference
  2
*U7
 10
0.0
 20
0.0
 30
0.0
  0
SOLID
  5
19BE
330
2238
100
AcDbEntity
  8
2
 62
     0
100
AcDbTrace
 10
3.5
 20
36.51791576753439
 30
0.0
 11
3.5
 21
35.35124910086771
 31
0.0
 12
0.0000000000000013
 22
35.93458243420105
 32
0.0
 13
0.0000000000000013
 23
35.93458243420105
 33
0.0
  0
SOLID
  5
19BF
330
2238
100
AcDbEntity
  8
2
 62
     0
100
AcDbTrace
 10
18.5
 20
36.51791576753439
 30
0.0
 11
18.5
 21
35.35124910086771
 31
0.0
 12
22.0
 22
35.93458243420105
 32
0.0
 13
22.0
 23
35.93458243420105
 33
0.0
  0
POINT
  5
19C0
330
2238
100
AcDbEntity
  8
DEFPOINTS
 62
     0
100
AcDbPoint
 10
0.0
 20
15.41224753889992
 30
0.0
  0
POINT
  5
19C1
330
2238
100
AcDbEntity
  8
DEFPOINTS
 62
     0
100
AcDbPoint
 10
22.0
 20
23.900000000001
 30
0.0
  0
POINT
  5
19C2
330
2238
100
AcDbEntity
  8
DEFPOINTS
 62
     0
100
AcDbPoint
 10
22.0
 20
35.93458243420105
 30
0.0
  0
ENDBLK
  5
18E0
330
2238
100
AcDbEntity
  8
0
100
AcDbBlockEnd
  0
BLOCK
  5
223B
330
223A
100
AcDbEntity
  8
0
100
AcDbBlockBegin
  2
*U7
 70
     1
 10
0.0
 20
0.0
 30
0.0
  3
*U7
  1

  0
TEXT
  5
1A7F
330
223A
100
AcDbEntity
  8
2
100
AcDbText
 10
7.729649161784447
 20
36.72992496952907
 30
0.0
 40
3.5
  1
22
100
AcDbText
  0
ENDBLK
  5
1A81
330
223A
100
AcDbEntity
  8
0
100
AcDbBlockEnd
  0
BLOCK
  5
223D
330
223C
100
AcDbEntity
  8
0
100
AcDbBlockBegin
  2
*D8
 70
     1
 10
0.0
 20
0.0
 30
0.0
  3
*D8
  1

  0
LINE
  5
197D
330
223C
100
AcDbEntity
  8
SK2
 62
     0
100
AcDbLine
 10
1.037499999999909
 20
-22.99999999999863
 30
0.0
 11
-71.73780759629966
 21
-22.99999999999863
 31
0.0
  0
LINE
  5
197E
330
223C
100
AcDbEntity
  8
SK2
 62
     0
100
AcDbLine
 10
1.037499999999909
 20
23.00000000000137
 30
0.0
 11
-71.73780759629966
 21
23.00000000000137
 31
0.0
  0
LINE
  5
197F
330
223C
100
AcDbEntity
  8
SK2
 62
     0
100
AcDbLine
 10
-71.55780759629966
 20
-19.49999999999862
 30
0.0
 11
-71.55780759629966
 21
19.50000000000137
 31
0.0
  0
INSERT
  5
1980
330
223C
100
AcDbEntity
  8
0
100
AcDbBlockReference
  2
*U9
 10
0.0
 20
0.0
 30
0.0
  0
SOLID
  5
1981
330
223C
100
AcDbEntity
  8
SK2
 62
     0
100
AcDbTrace
 10
-72.14114092963298
 20
-19.49999999999861
 30
0.0
 11
-70.97447426296631
 21
-19.49999999999862
 31
0.0
 12
-71.55780759629966
 22
-22.99999999999863
 32
0.0
 13
-71.55780759629966
 23
-22.99999999999863
 33
0.0
  0
SOLID
  5
1982
330
223C
100
AcDbEntity
  8
SK2
 62
     0
100
AcDbTrace
 10
-72.14114092963298
 20
19.50000000000137
 30
0.0
 11
-70.97447426296631
 21
19.50000000000137
 31
0.0
 12
-71.55780759629966
 22
23.00000000000137
 32
0.0
 13
-71.55780759629966
 23
23.00000000000137
 33
0.0
  0
POINT
  5
1983
330
223C
100
AcDbEntity
  8
DEFPOINTS
 62
     0
100
AcDbPoint
 10
1.099999999999909
 20
-22.99999999999863
 30
0.0
  0
POINT
  5
1984
330
223C
100
AcDbEntity
  8
DEFPOINTS
 62
     0
100
AcDbPoint
 10
1.099999999999909
 20
23.00000000000137
 30
0.0
  0
POINT
  5
1985
330
223C
100
AcDbEntity
  8
DEFPOINTS
 62
     0
100
AcDbPoint
 10
-71.55780759629966
 20
23.00000000000137
 30
0.0
  0
ENDBLK
  5
18EC
330
223C
100
AcDbEntity
  8
0
100
AcDbBlockEnd
  0
BLOCK
  5
223F
330
223E
100
AcDbEntity
  8
0
100
AcDbBlockBegin
  2
*U9
 70
     1
 10
0.0
 20
0.0
 30
0.0
  3
*U9
  1

  0
TEXT
  5
1A71
330
223E
100
AcDbEntity
  8
SK2
100
AcDbText
 10
-72.26342445040393
 20
-5.551610435369664
 30
0.0
 40
3.5
  1
\U+220546
 50
90.0
100
AcDbText
  0
ENDBLK
  5
1A73
330
223E
100
AcDbEntity
  8
0
100
AcDbBlockEnd
  0
BLOCK
  5
2241
330
2240
100
AcDbEntity
  8
0
100
AcDbBlockBegin
  2
*D10
 70
     1
 10
0.0
 20
0.0
 30
0.0
  3
*D10
  1

  0
LINE
  5
1986
330
2240
100
AcDbEntity
  8
SK2
 62
     0
100
AcDbLine
 10
-1.5625
 20
15.87500000000136
 30
0.0
 11
-62.40446057479953
 21
15.87500000000138
 31
0.0
  0
LINE
  5
1987
330
2240
100
AcDbEntity
  8
SK2
 62
     0
100
AcDbLine
 10
-2.462500000000088
 20
-15.875
 30
0.0
 11
-62.40446057479953
 21
-15.87499999999998
 31
0.0
  0
LINE
  5
1988
330
2240
100
AcDbEntity
  8
SK2
 62
     0
100
AcDbLine
 10
-62.22446057479952
 20
12.37500000000138
 30
0.0
 11
-62.22446057479952
 21
-12.37499999999998
 31
0.0
  0
INSERT
  5
1989
330
2240
100
AcDbEntity
  8
0
100
AcDbBlockReference
  2
*U11
 10
0.0
 20
0.0
 30
0.0
  0
SOLID
  5
198A
330
2240
100
AcDbEntity
  8
SK2
 62
     0
100
AcDbTrace
 10
-62.80779390813286
 20
12.37500000000138
 30
0.0
 11
-61.64112724146621
 21
12.37500000000138
 31
0.0
 12
-62.22446057479952
 22
15.87500000000138
 32
0.0
 13
-62.22446057479952
 23
15.87500000000138
 33
0.0
  0
SOLID
  5
198B
330
2240
100
AcDbEntity
  8
SK2
 62
     0
100
AcDbTrace
 10
-62.80779390813286
 20
-12.37499999999998
 30
0.0
 11
-61.64112724146621
 21
-12.37499999999998
 31
0.0
 12
-62.22446057479952
 22
-15.87499999999998
 32
0.0
 13
-62.22446057479952
 23
-15.87499999999998
 33
0.0
  0
POINT
  5
198C
330
2240
100
AcDbEntity
  8
DEFPOINTS
 62
     0
100
AcDbPoint
 10
-1.5
 20
15.87500000000136
 30
0.0
  0
POINT
  5
198D
330
2240
100
AcDbEntity
  8
DEFPOINTS
 62
     0
100
AcDbPoint
 10
-2.400000000000088
 20
-15.875
 30
0.0
  0
POINT
  5
198E
330
2240
100
AcDbEntity
  8
DEFPOINTS
 62
     0
100
AcDbPoint
 10
-62.22446057479952
 20
-15.87499999999998
 30
0.0
  0
ENDBLK
  5
18F8
330
2240
100
AcDbEntity
  8
0
100
AcDbBlockEnd
  0
BLOCK
  5
2243
330
2242
100
AcDbEntity
  8
0
100
AcDbBlockBegin
  2
*U11
 70
     1
 10
0.0
 20
0.0
 30
0.0
  3
*U11
  1

  0
TEXT
  5
1A75
330
2242
100
AcDbEntity
  8
SK2
100
AcDbText
 10
-62.89373359312481
 20
-8.412806503916682
 30
0.0
 40
3.5
  1
\U+220531.75
 50
90.0
100
AcDbText
  0
ENDBLK
  5
1A77
330
2242
100
AcDbEntity
  8
0
100
AcDbBlockEnd
  0
BLOCK
  5
2245
330
2244
100
AcDbEntity
  8
0
100
AcDbBlockBegin
  2
*D12
 70
     1
 10
0.0
 20
0.0
 30
0.0
  3
*D12
  1

  0
LINE
  5
198F
330
2244
100
AcDbEntity
  8
SK2
 62
     0
100
AcDbLine
 10
-42.40949999999964
 20
-5.999999999998633
 30
0.0
 11
-55.42437952949961
 21
-5.999999999998633
 31
0.0
  0
LINE
  5
1990
330
2244
100
AcDbEntity
  8
SK2
 62
     0
100
AcDbLine
 10
-42.40949999999964
 20
6.0
 30
0.0
 11
-55.42437952949961
 21
6.0
 31
0.0
  0
LINE
  5
1991
330
2244
100
AcDbEntity
  8
SK2
 62
     0
100
AcDbLine
 10
-55.24437952949959
 20
-2.49999999999863
 30
0.0
 11
-55.24437952949959
 21
2.500000000000003
 31
0.0
  0
INSERT
  5
1992
330
2244
100
AcDbEntity
  8
0
100
AcDbBlockReference
  2
*U13
 10
0.0
 20
0.0
 30
0.0
  0
SOLID
  5
1993
330
2244
100
AcDbEntity
  8
SK2
 62
     0
100
AcDbTrace
 10
-55.82771286283294
 20
-2.49999999999863
 30
0.0
 11
-54.66104619616626
 21
-2.49999999999863
 31
0.0
 12
-55.24437952949959
 22
-5.999999999998633
 32
0.0
 13
-55.24437952949959
 23
-5.999999999998633
 33
0.0
  0
SOLID
  5
1994
330
2244
100
AcDbEntity
  8
SK2
 62
     0
100
AcDbTrace
 10
-55.82771286283294
 20
2.500000000000003
 30
0.0
 11
-54.66104619616626
 21
2.500000000000003
 31
0.0
 12
-55.24437952949959
 22
6.0
 32
0.0
 13
-55.24437952949959
 23
6.0
 33
0.0
  0
POINT
  5
1995
330
2244
100
AcDbEntity
  8
DEFPOINTS
 62
     0
100
AcDbPoint
 10
-42.34699999999963
 20
-5.999999999998633
 30
0.0
  0
POINT
  5
1996
330
2244
100
AcDbEntity
  8
DEFPOINTS
 62
     0
100
AcDbPoint
 10
-42.34699999999963
 20
6.0
 30
0.0
  0
POINT
  5
1997
330
2244
100
AcDbEntity
  8
DEFPOINTS
 62
     0
100
AcDbPoint
 10
-55.24437952949959
 20
6.0
 30
0.0
  0
ENDBLK
  5
1904
330
2244
100
AcDbEntity
  8
0
100
AcDbBlockEnd
  0
BLOCK
  5
2247
330
2246
100
AcDbEntity
  8
0
100
AcDbBlockBegin
  2
*U13
 70
     1
 10
0.0
 20
0.0
 30
0.0
  3
*U13
  1

  0
TEXT
  5
1A79
330
2246
100
AcDbEntity
  8
SK2
100
AcDbText
 10
-56.22137771621806
 20
-4.122943178965763
 30
0.0
 40
3.5
  1
M12
 50
90.0
100
AcDbText
  0
ENDBLK
  5
1A7B
330
2246
100
AcDbEntity
  8
0
100
AcDbBlockEnd
  0
BLOCK
  5
2249
330
2248
100
AcDbEntity
  8
0
100
AcDbBlockBegin
  2
*D14
 70
     1
 10
0.0
 20
0.0
 30
0.0
  3
*D14
  1

  0
LINE
  5
1959
330
2248
100
AcDbEntity
  8
SK2
 62
     0
100
AcDbLine
 10
57.52149999999982
 20
-17.0
 30
0.0
 11
75.05248683719099
 21
-17.0
 31
0.0
  0
LINE
  5
195A
330
2248
100
AcDbEntity
  8
SK2
 62
     0
100
AcDbLine
 10
57.52149999999982
 20
17.0
 30
0.0
 11
75.05248683719099
 21
17.0
 31
0.0
  0
LINE
  5
195B
330
2248
100
AcDbEntity
  8
SK2
 62
     0
100
AcDbLine
 10
74.87248683719098
 20
-13.5
 30
0.0
 11
74.87248683719098
 21
13.5
 31
0.0
  0
INSERT
  5
195C
330
2248
100
AcDbEntity
  8
0
100
AcDbBlockReference
  2
*U15
 10
0.0
 20
0.0
 30
0.0
  0
SOLID
  5
195D
330
2248
100
AcDbEntity
  8
SK2
 62
     0
100
AcDbTrace
 10
74.28915350385766
 20
-13.5
 30
0.0
 11
75.45582017052431
 21
-13.5
 31
0.0
 12
74.87248683719098
 22
-17.0
 32
0.0
 13
74.87248683719098
 23
-17.0
 33
0.0
  0
SOLID
  5
195E
330
2248
100
AcDbEntity
  8
SK2
 62
     0
100
AcDbTrace
 10
74.28915350385766
 20
13.5
 30
0.0
 11
75.45582017052431
 21
13.5
 31
0.0
 12
74.87248683719098
 22
17.0
 32
0.0
 13
74.87248683719098
 23
17.0
 33
0.0
  0
POINT
  5
195F
330
2248
100
AcDbEntity
  8
DEFPOINTS
 62
     0
100
AcDbPoint
 10
57.45899999999982
 20
-17.0
 30
0.0
  0
POINT
  5
1960
330
2248
100
AcDbEntity
  8
DEFPOINTS
 62
     0
100
AcDbPoint
 10
57.45899999999982
 20
17.0
 30
0.0
  0
POINT
  5
1961
330
2248
100
AcDbEntity
  8
DEFPOINTS
 62
     0
100
AcDbPoint
 10
74.87248683719098
 20
17.0
 30
0.0
  0
ENDBLK
  5
1910
330
2248
100
AcDbEntity
  8
0
100
AcDbBlockEnd
  0
BLOCK
  5
224B
330
224A
100
AcDbEntity
  8
0
100
AcDbBlockBegin
  2
*U15
 70
     1
 10
0.0
 20
0.0
 30
0.0
  3
*U15
  1

  0
TEXT
  5
1A65
330
224A
100
AcDbEntity
  8
SK2
100
AcDbText
 10
74.20886536071794
 20
-5.288761393091768
 30
0.0
 40
3.5
  1
\U+220534
 50
90.0
100
AcDbText
  0
ENDBLK
  5
1A67
330
224A
100
AcDbEntity
  8
0
100
AcDbBlockEnd
  0
BLOCK
  5
224D
330
224C
100
AcDbEntity
  8
0
100
AcDbBlockBegin
  2
_FILLED
 70
     0
 10
0.0
 20
0.0
 30
0.0
  3
_FILLED
  1

  0
SOLID
  5
1CC2
330
224C
100
AcDbEntity
  8
0
  6
ByBlock
 62
     0
100
AcDbTrace
 10
0.0
 20
0.0
 30
0.0
 11
-1.0
 21
0.125
 31
0.0
 12
-1.0
 22
-0.125
 32
0.0
 13
-1.0
 23
-0.125
 33
0.0
  0
ENDBLK
  5
1CC3
330
224C
100
AcDbEntity
  8
0
  6
ByBlock
 62
     0
100
AcDbBlockEnd
  0
BLOCK
  5
224F
330
224E
100
AcDbEntity
  8
1
  6
Continuous
 62
     2
100
AcDbBlockBegin
  2
*D17
 70
     1
 10
0.0
 20
0.0
 30
0.0
  3
*D17
  1

  0
INSERT
  5
1CC6
330
224E
100
AcDbEntity
  8
0
100
AcDbBlockReference
  2
*U18
 10
0.0
 20
0.0
 30
0.0
  0
LINE
  5
1CC7
330
224E
100
AcDbEntity
  8
1
  6
Continuous
 62
     2
100
AcDbLine
 10
27.2951637134
 20
45.3393342363
 30
0.0
 11
14.2475413653
 21
45.3393342363
 31
0.0
  0
LINE
  5
1CC8
330
224E
100
AcDbEntity
  8
1
  6
Continuous
 62
     2
100
AcDbLine
 10
27.2951637134
 20
29.4643342363
 30
0.0
 11
14.2475413653
 21
29.4643342363
 31
0.0
  0
LINE
  5
1CC9
330
224E
100
AcDbEntity
  8
1
  6
Continuous
 62
     2
100
AcDbLine
 10
15.7475413653
 20
45.3393342363
 30
0.0
 11
15.7475413653
 21
37.4018342363
 31
0.0
  0
LINE
  5
1CCA
330
224E
100
AcDbEntity
  8
1
  6
Continuous
 62
     2
100
AcDbLine
 10
15.7475413653
 20
29.4643342363
 30
0.0
 11
15.7475413653
 21
37.4018342363
 31
0.0
  0
INSERT
  5
1CCB
330
224E
100
AcDbEntity
  8
1
  6
Continuous
 62
     2
100
AcDbBlockReference
  2
_FILLED
 10
15.7475413653
 20
45.3393342363
 30
0.0
 41
3.5
 42
3.5
 43
3.5
 50
90.0
  0
INSERT
  5
1CCC
330
224E
100
AcDbEntity
  8
1
  6
Continuous
 62
     2
100
AcDbBlockReference
  2
_FILLED
 10
15.7475413653
 20
29.4643342363
 30
0.0
 41
3.5
 42
3.5
 43
3.5
 50
270.0
  0
ENDBLK
  5
1CCD
330
224E
100
AcDbEntity
  8
0
  6
ByBlock
 62
     0
100
AcDbBlockEnd
  0
BLOCK
  5
2251
330
2250
100
AcDbEntity
  8
0
100
AcDbBlockBegin
  2
*U18
 70
     1
 10
0.0
 20
0.0
 30
0.0
  3
*U18
  1

  0
TEXT
  5
1FEC
330
2250
100
AcDbEntity
  8
1
 62
     2
100
AcDbText
 10
15.53920803196666
 20
24.3382265152
 30
0.0
 40
3.5
  1
5/8-11UNC 2B
 50
90.0
 41
0.72
  7
TEXTSTYLE_2
100
AcDbText
  0
ENDBLK
  5
1FEE
330
2250
100
AcDbEntity
  8
0
100
AcDbBlockEnd
  0
BLOCK
  5
2253
330
2252
100
AcDbEntity
  8
1
  6
Continuous
 62
     2
100
AcDbBlockBegin
  2
*D19
 70
     1
 10
0.0
 20
0.0
 30
0.0
  3
*D19
  1

  0
INSERT
  5
1CD0
330
2252
100
AcDbEntity
  8
0
100
AcDbBlockReference
  2
*U20
 10
0.0
 20
0.0
 30
0.0
  0
LINE
  5
1CD1
330
2252
100
AcDbEntity
  8
1
  6
Continuous
 62
     2
100
AcDbLine
 10
90.20266371339998
 20
15.1768342363
 30
0.0
 11
7.6026923527
 21
15.1768342363
 31
0.0
  0
LINE
  5
1CD2
330
2252
100
AcDbEntity
  8
1
  6
Continuous
 62
     2
100
AcDbLine
 10
90.20266371339998
 20
59.6268342363
 30
0.0
 11
7.6026923527
 21
59.6268342363
 31
0.0
  0
LINE
  5
1CD3
330
2252
100
AcDbEntity
  8
1
  6
Continuous
 62
     2
100
AcDbLine
 10
9.1026923527
 20
15.1768342363
 30
0.0
 11
9.1026923527
 21
37.4018342363
 31
0.0
  0
LINE
  5
1CD4
330
2252
100
AcDbEntity
  8
1
  6
Continuous
 62
     2
100
AcDbLine
 10
9.1026923527
 20
59.6268342363
 30
0.0
 11
9.1026923527
 21
37.4018342363
 31
0.0
  0
INSERT
  5
1CD5
330
2252
100
AcDbEntity
  8
1
  6
Continuous
 62
     2
100
AcDbBlockReference
  2
_FILLED
 10
9.1026923527
 20
15.1768342363
 30
0.0
 41
3.5
 42
3.5
 43
3.5
 50
270.0
  0
INSERT
  5
1CD6
330
2252
100
AcDbEntity
  8
1
  6
Continuous
 62
     2
100
AcDbBlockReference
  2
_FILLED
 10
9.1026923527
 20
59.6268342363
 30
0.0
 41
3.5
 42
3.5
 43
3.5
 50
90.0
  0
ENDBLK
  5
1CD7
330
2252
100
AcDbEntity
  8
0
  6
ByBlock
 62
     0
100
AcDbBlockEnd
  0
BLOCK
  5
2255
330
2254
100
AcDbEntity
  8
0
100
AcDbBlockBegin
  2
*U20
 70
     1
 10
0.0
 20
0.0
 30
0.0
  3
*U20
  1

  0
TEXT
  5
1FF0
330
2254
100
AcDbEntity
  8
1
 62
     2
100
AcDbText
 10
9.061025686033334
 20
32.45715134010001
 30
0.0
 40
3.5
  1
n
 50
90.0
 41
0.72
  7
TEXTSTYLE_4
100
AcDbText
  0
TEXT
  5
1FF1
330
2254
100
AcDbEntity
  8
1
 62
     2
100
AcDbText
 10
9.061025686033334
 20
35.33715134010001
 30
0.0
 40
3.5
  1
44,45
 50
90.0
 41
0.72
  7
TEXTSTYLE_4
100
AcDbText
  0
ENDBLK
  5
1FF3
330
2254
100
AcDbEntity
  8
0
100
AcDbBlockEnd
  0
BLOCK
  5
2257
330
2256
100
AcDbEntity
  8
1
  6
Continuous
 62
     2
100
AcDbBlockBegin
  2
*D21
 70
     1
 10
0.0
 20
0.0
 30
0.0
  3
*D21
  1

  0
INSERT
  5
1CDA
330
2256
100
AcDbEntity
  8
0
100
AcDbBlockReference
  2
*U22
 10
0.0
 20
0.0
 30
0.0
  0
LINE
  5
1CDB
330
2256
100
AcDbEntity
  8
1
  6
Continuous
 62
     2
100
AcDbLine
 10
94.1776637134
 20
69.17683423629999
 30
0.0
 11
0.0
 21
69.17683423629999
 31
0.0
  0
LINE
  5
1CDC
330
2256
100
AcDbEntity
  8
1
  6
Continuous
 62
     2
100
AcDbLine
 10
94.1776637134
 20
5.626834236299997
 30
0.0
 11
0.0
 21
5.626834236299997
 31
0.0
  0
LINE
  5
1CDD
330
2256
100
AcDbEntity
  8
1
  6
Continuous
 62
     2
100
AcDbLine
 10
1.5
 20
69.17683423629999
 30
0.0
 11
1.5
 21
37.4018342363
 31
0.0
  0
LINE
  5
1CDE
330
2256
100
AcDbEntity
  8
1
  6
Continuous
 62
     2
100
AcDbLine
 10
1.5
 20
5.626834236299997
 30
0.0
 11
1.5
 21
37.4018342363
 31
0.0
  0
INSERT
  5
1CDF
330
2256
100
AcDbEntity
  8
1
  6
Continuous
 62
     2
100
AcDbBlockReference
  2
_FILLED
 10
1.5
 20
69.17683423629999
 30
0.0
 41
3.5
 42
3.5
 43
3.5
 50
90.0
  0
INSERT
  5
1CE0
330
2256
100
AcDbEntity
  8
1
  6
Continuous
 62
     2
100
AcDbBlockReference
  2
_FILLED
 10
1.5
 20
5.626834236299997
 30
0.0
 41
3.5
 42
3.5
 43
3.5
 50
270.0
  0
ENDBLK
  5
1CE1
330
2256
100
AcDbEntity
  8
0
  6
ByBlock
 62
     0
100
AcDbBlockEnd
  0
BLOCK
  5
2259
330
2258
100
AcDbEntity
  8
0
100
AcDbBlockBegin
  2
*U22
 70
     1
 10
0.0
 20
0.0
 30
0.0
  3
*U22
  1

  0
TEXT
  5
1FF5
330
2258
100
AcDbEntity
  8
1
 62
     2
100
AcDbText
 10
1.458333333333333
 20
31.12593378310001
 30
0.0
 40
3.5
  1
n
 50
90.0
 41
0.72
  7
TEXTSTYLE_4
100
AcDbText
  0
TEXT
  5
1FF6
330
2258
100
AcDbEntity
  8
1
 62
     2
100
AcDbText
 10
1.458333333333333
 20
34.00593378310001
 30
0.0
 40
3.5
  1
63.55
 50
90.0
 41
0.72
  7
TEXTSTYLE_4
100
AcDbText
  0
ENDBLK
  5
1FF8
330
2258
100
AcDbEntity
  8
0
100
AcDbBlockEnd
  0
BLOCK
  5
225B
330
225A
100
AcDbEntity
  8
1
  6
Continuous
 62
     2
100
AcDbBlockBegin
  2
*D23
 70
     1
 10
0.0
 20
0.0
 30
0.0
  3
*D23
  1

  0
INSERT
  5
1CE4
330
225A
100
AcDbEntity
  8
0
100
AcDbBlockReference
  2
*U24
 10
0.0
 20
0.0
 30
0.0
  0
LINE
  5
1CE5
330
225A
100
AcDbEntity
  8
1
  6
Continuous
 62
     2
100
AcDbLine
 10
159.1566637134
 20
58.4018342363
 30
0.0
 11
175.855053434
 21
58.4018342363
 31
0.0
  0
LINE
  5
1CE6
330
225A
100
AcDbEntity
  8
1
  6
Continuous
 62
     2
100
AcDbLine
 10
159.1566637134
 20
16.4018342363
 30
0.0
 11
175.855053434
 21
16.4018342363
 31
0.0
  0
LINE
  5
1CE7
330
225A
100
AcDbEntity
  8
1
  6
Continuous
 62
     2
100
AcDbLine
 10
174.355053434
 20
58.4018342363
 30
0.0
 11
174.355053434
 21
37.4018342363
 31
0.0
  0
LINE
  5
1CE8
330
225A
100
AcDbEntity
  8
1
  6
Continuous
 62
     2
100
AcDbLine
 10
174.355053434
 20
16.4018342363
 30
0.0
 11
174.355053434
 21
37.4018342363
 31
0.0
  0
INSERT
  5
1CE9
330
225A
100
AcDbEntity
  8
1
  6
Continuous
 62
     2
100
AcDbBlockReference
  2
_FILLED
 10
174.355053434
 20
58.4018342363
 30
0.0
 41
3.5
 42
3.5
 43
3.5
 50
90.0
  0
INSERT
  5
1CEA
330
225A
100
AcDbEntity
  8
1
  6
Continuous
 62
     2
100
AcDbBlockReference
  2
_FILLED
 10
174.355053434
 20
16.4018342363
 30
0.0
 41
3.5
 42
3.5
 43
3.5
 50
270.0
  0
ENDBLK
  5
1CEB
330
225A
100
AcDbEntity
  8
0
  6
ByBlock
 62
     0
100
AcDbBlockEnd
  0
BLOCK
  5
225D
330
225C
100
AcDbEntity
  8
0
100
AcDbBlockBegin
  2
*U24
 70
     1
 10
0.0
 20
0.0
 30
0.0
  3
*U24
  1

  0
TEXT
  5
1FFA
330
225C
100
AcDbEntity
  8
1
 62
     2
100
AcDbText
 10
174.3133867673333
 20
33.7718188511
 30
0.0
 40
3.5
  1
n
 50
90.0
 41
0.72
  7
TEXTSTYLE_4
100
AcDbText
  0
TEXT
  5
1FFB
330
225C
100
AcDbEntity
  8
1
 62
     2
100
AcDbText
 10
174.3133867673333
 20
36.6518188511
 30
0.0
 40
3.5
  1
42
 50
90.0
 41
0.72
  7
TEXTSTYLE_4
100
AcDbText
  0
ENDBLK
  5
1FFD
330
225C
100
AcDbEntity
  8
0
100
AcDbBlockEnd
  0
BLOCK
  5
225F
330
225E
100
AcDbEntity
  8
1
  6
Continuous
 62
     2
100
AcDbBlockBegin
  2
*D25
 70
     1
 10
0.0
 20
0.0
 30
0.0
  3
*D25
  1

  0
INSERT
  5
1CEE
330
225E
100
AcDbEntity
  8
0
100
AcDbBlockReference
  2
*U26
 10
0.0
 20
0.0
 30
0.0
  0
LINE
  5
1CEF
330
225E
100
AcDbEntity
  8
1
  6
Continuous
 62
     2
100
AcDbLine
 10
91.7026637134
 20
59.39550913489998
 30
0.0
 11
91.7026637134
 21
81.56645958490001
 31
0.0
  0
LINE
  5
1CF0
330
225E
100
AcDbEntity
  8
1
  6
Continuous
 62
     2
100
AcDbLine
 10
110.8026637134
 20
69.92683423629999
 30
0.0
 11
110.8026637134
 21
81.56645958490001
 31
0.0
  0
LINE
  5
1CF1
330
225E
100
AcDbEntity
  8
1
  6
Continuous
 62
     2
100
AcDbLine
 10
91.7026637134
 20
80.0664595849
 30
0.0
 11
101.2526637134
 21
80.0664595849
 31
0.0
  0
LINE
  5
1CF2
330
225E
100
AcDbEntity
  8
1
  6
Continuous
 62
     2
100
AcDbLine
 10
110.8026637134
 20
80.0664595849
 30
0.0
 11
101.2526637134
 21
80.0664595849
 31
0.0
  0
INSERT
  5
1CF3
330
225E
100
AcDbEntity
  8
1
  6
Continuous
 62
     2
100
AcDbBlockReference
  2
_FILLED
 10
91.7026637134
 20
80.0664595849
 30
0.0
 41
3.5
 42
3.5
 43
3.5
 50
180.0
  0
INSERT
  5
1CF4
330
225E
100
AcDbEntity
  8
1
  6
Continuous
 62
     2
100
AcDbBlockReference
  2
_FILLED
 10
110.8026637134
 20
80.0664595849
 30
0.0
 41
3.5
 42
3.5
 43
3.5
  0
ENDBLK
  5
1CF5
330
225E
100
AcDbEntity
  8
0
  6
ByBlock
 62
     0
100
AcDbBlockEnd
  0
BLOCK
  5
2261
330
2260
100
AcDbEntity
  8
0
100
AcDbBlockBegin
  2
*U26
 70
     1
 10
0.0
 20
0.0
 30
0.0
  3
*U26
  1

  0
TEXT
  5
1FFF
330
2260
100
AcDbEntity
  8
1
 62
     2
100
AcDbText
 10
100.4178832808
 20
80.94145958490001
 30
0.0
 40
3.5
  1
19.1
 41
0.72
  7
TEXTSTYLE_3
100
AcDbText
  0
ENDBLK
  5
2001
330
2260
100
AcDbEntity
  8
0
100
AcDbBlockEnd
  0
BLOCK
  5
2263
330
2262
100
AcDbEntity
  8
1
  6
Continuous
 62
     2
100
AcDbBlockBegin
  2
*D27
 70
     1
 10
0.0
 20
0.0
 30
0.0
  3
*D27
  1

  0
INSERT
  5
1CF8
330
2262
100
AcDbEntity
  8
0
100
AcDbBlockReference
  2
*U28
 10
0.0
 20
0.0
 30
0.0
  0
LINE
  5
1CF9
330
2262
100
AcDbEntity
  8
1
  6
Continuous
 62
     2
100
AcDbLine
 10
23.4526637134
 20
51.1737104162
 30
0.0
 11
23.4526637134
 21
91.138116275
 31
0.0
  0
LINE
  5
1CFA
330
2262
100
AcDbEntity
  8
1
  6
Continuous
 62
     2
100
AcDbLine
 10
91.7026637134
 20
59.39550913489998
 30
0.0
 11
91.7026637134
 21
91.138116275
 31
0.0
  0
LINE
  5
1CFB
330
2262
100
AcDbEntity
  8
1
  6
Continuous
 62
     2
100
AcDbLine
 10
23.4526637134
 20
89.638116275
 30
0.0
 11
57.5776637134
 21
89.638116275
 31
0.0
  0
LINE
  5
1CFC
330
2262
100
AcDbEntity
  8
1
  6
Continuous
 62
     2
100
AcDbLine
 10
91.7026637134
 20
89.638116275
 30
0.0
 11
57.5776637134
 21
89.638116275
 31
0.0
  0
INSERT
  5
1CFD
330
2262
100
AcDbEntity
  8
1
  6
Continuous
 62
     2
100
AcDbBlockReference
  2
_FILLED
 10
23.4526637134
 20
89.638116275
 30
0.0
 41
3.5
 42
3.5
 43
3.5
 50
180.0
  0
INSERT
  5
1CFE
330
2262
100
AcDbEntity
  8
1
  6
Continuous
 62
     2
100
AcDbBlockReference
  2
_FILLED
 10
91.7026637134
 20
89.638116275
 30
0.0
 41
3.5
 42
3.5
 43
3.5
  0
ENDBLK
  5
1CFF
330
2262
100
AcDbEntity
  8
0
  6
ByBlock
 62
     0
100
AcDbBlockEnd
  0
BLOCK
  5
2265
330
2264
100
AcDbEntity
  8
0
100
AcDbBlockBegin
  2
*U28
 70
     1
 10
0.0
 20
0.0
 30
0.0
  3
*U28
  1

  0
TEXT
  5
2003
330
2264
100
AcDbEntity
  8
1
 62
     2
100
AcDbText
 10
56.94766788689999
 20
90.513116275
 30
0.0
 40
3.5
  1
68.25
 41
0.72
  7
TEXTSTYLE_3
100
AcDbText
  0
ENDBLK
  5
2005
330
2264
100
AcDbEntity
  8
0
100
AcDbBlockEnd
  0
BLOCK
  5
2267
330
2266
100
AcDbEntity
  8
1
  6
Continuous
 62
     2
100
AcDbBlockBegin
  2
*D29
 70
     1
 10
0.0
 20
0.0
 30
0.0
  3
*D29
  1

  0
INSERT
  5
1D02
330
2266
100
AcDbEntity
  8
0
100
AcDbBlockReference
  2
*U30
 10
0.0
 20
0.0
 30
0.0
  0
LINE
  5
1D03
330
2266
100
AcDbEntity
  8
1
  6
Continuous
 62
     2
100
AcDbLine
 10
91.7026637134
 20
59.39550913489998
 30
0.0
 11
91.7026637134
 21
91.10298085409999
 31
0.0
  0
LINE
  5
1D04
330
2266
100
AcDbEntity
  8
1
  6
Continuous
 62
     2
100
AcDbLine
 10
161.6976637134
 20
52.90183423630001
 30
0.0
 11
161.6976637134
 21
91.10298085409999
 31
0.0
  0
LINE
  5
1D05
330
2266
100
AcDbEntity
  8
1
  6
Continuous
 62
     2
100
AcDbLine
 10
91.7026637134
 20
89.60298085409998
 30
0.0
 11
126.7001637134
 21
89.60298085409998
 31
0.0
  0
LINE
  5
1D06
330
2266
100
AcDbEntity
  8
1
  6
Continuous
 62
     2
100
AcDbLine
 10
161.6976637134
 20
89.60298085409998
 30
0.0
 11
126.7001637134
 21
89.60298085409998
 31
0.0
  0
INSERT
  5
1D07
330
2266
100
AcDbEntity
  8
1
  6
Continuous
 62
     2
100
AcDbBlockReference
  2
_FILLED
 10
91.7026637134
 20
89.60298085409998
 30
0.0
 41
3.5
 42
3.5
 43
3.5
 50
180.0
  0
INSERT
  5
1D08
330
2266
100
AcDbEntity
  8
1
  6
Continuous
 62
     2
100
AcDbBlockReference
  2
_FILLED
 10
161.6976637134
 20
89.60298085409998
 30
0.0
 41
3.5
 42
3.5
 43
3.5
  0
ENDBLK
  5
1D09
330
2266
100
AcDbEntity
  8
0
  6
ByBlock
 62
     0
100
AcDbBlockEnd
  0
BLOCK
  5
2269
330
2268
100
AcDbEntity
  8
0
100
AcDbBlockBegin
  2
*U30
 70
     1
 10
0.0
 20
0.0
 30
0.0
  3
*U30
  1

  0
TEXT
  5
2007
330
2268
100
AcDbEntity
  8
1
 62
     2
100
AcDbText
 10
125.6079486098
 20
90.47798085409999
 30
0.0
 40
3.5
  1
70
 41
0.72
  7
TEXTSTYLE_3
100
AcDbText
  0
ENDBLK
  5
2009
330
2268
100
AcDbEntity
  8
0
100
AcDbBlockEnd
  0
BLOCK
  5
226B
330
226A
100
AcDbEntity
  8
0
100
AcDbBlockBegin
  2
*D31
 70
     1
 10
0.0
 20
0.0
 30
0.0
  3
*D31
  1

  0
LINE
  5
1F80
330
226A
100
AcDbEntity
  8
SK2
  6
Continuous
 62
     0
100
AcDbLine
 10
122.3928327803945
 20
39.00361656336417
 30
0.0
 11
112.1633582365005
 21
39.00361656336417
 31
0.0
  0
LINE
  5
1F81
330
226A
100
AcDbEntity
  8
SK2
  6
Continuous
 62
     0
100
AcDbLine
 10
122.3928327803945
 20
23.12861656336419
 30
0.0
 11
112.1633582365005
 21
23.12861656336419
 31
0.0
  0
LINE
  5
1F82
330
226A
100
AcDbEntity
  8
SK2
  6
Continuous
 62
     0
100
AcDbLine
 10
112.3433582365005
 20
35.50361656336419
 30
0.0
 11
112.3433582365005
 21
26.62861656336419
 31
0.0
  0
INSERT
  5
1F83
330
226A
100
AcDbEntity
  8
SK2
  6
Continuous
 62
     0
100
AcDbBlockReference
  2
_FILLED
 10
112.3433582365005
 20
39.00361656336417
 30
0.0
 41
3.5
 42
3.5
 43
3.5
 50
90.0
  0
INSERT
  5
1F84
330
226A
100
AcDbEntity
  8
SK2
  6
Continuous
 62
     0
100
AcDbBlockReference
  2
_FILLED
 10
112.3433582365005
 20
23.12861656336419
 30
0.0
 41
3.5
 42
3.5
 43
3.5
 50
270.0
  0
INSERT
  5
1F85
330
226A
100
AcDbEntity
  8
0
100
AcDbBlockReference
  2
*U32
 10
0.0
 20
0.0
 30
0.0
  0
POINT
  5
1F86
330
226A
100
AcDbEntity
  8
DEFPOINTS
  6
Continuous
 62
     0
100
AcDbPoint
 10
122.4553327803945
 20
39.00361656336417
 30
0.0
  0
POINT
  5
1F87
330
226A
100
AcDbEntity
  8
DEFPOINTS
  6
Continuous
 62
     0
100
AcDbPoint
 10
122.4553327803945
 20
23.12861656336419
 30
0.0
  0
POINT
  5
1F88
330
226A
100
AcDbEntity
  8
DEFPOINTS
  6
Continuous
 62
     0
100
AcDbPoint
 10
112.3433582365005
 20
23.12861656336419
 30
0.0
  0
ENDBLK
  5
1E3C
330
226A
100
AcDbEntity
  8
0
100
AcDbBlockEnd
  0
BLOCK
  5
226D
330
226C
100
AcDbEntity
  8
0
100
AcDbBlockBegin
  2
*U32
 70
     1
 10
0.0
 20
0.0
 30
0.0
  3
*U32
  1

  0
TEXT
  5
202E
330
226C
100
AcDbEntity
  8
SK2
 62
     0
100
AcDbText
 10
110.7533582365005
 20
16.78611656336421
 30
0.0
 40
3.5
  1
5/8-11UNC 2B
 50
90.0
 41
0.72
  7
TEXTSTYLE_2
100
AcDbText
  0
ENDBLK
  5
2030
330
226C
100
AcDbEntity
  8
0
100
AcDbBlockEnd
  0
BLOCK
  5
226F
330
226E
100
AcDbEntity
  8
0
100
AcDbBlockBegin
  2
*D33
 70
     1
 10
0.0
 20
0.0
 30
0.0
  3
*D33
  1

  0
LINE
  5
1F25
330
226E
100
AcDbEntity
  8
SK2
  6
Continuous
 62
     0
100
AcDbLine
 10
185.3003327803945
 20
8.841116563364185
 30
0.0
 11
103.3920458625945
 21
8.841116563364211
 31
0.0
  0
LINE
  5
1F26
330
226E
100
AcDbEntity
  8
SK2
  6
Continuous
 62
     0
100
AcDbLine
 10
185.3003327803945
 20
53.29111656336419
 30
0.0
 11
103.3920458625946
 21
53.29111656336421
 31
0.0
  0
LINE
  5
1F27
330
226E
100
AcDbEntity
  8
SK2
  6
Continuous
 62
     0
100
AcDbLine
 10
103.5720458625945
 20
12.34111656336421
 30
0.0
 11
103.5720458625946
 21
49.79111656336421
 31
0.0
  0
INSERT
  5
1F28
330
226E
100
AcDbEntity
  8
SK2
  6
Continuous
 62
     0
100
AcDbBlockReference
  2
_FILLED
 10
103.5720458625945
 20
8.841116563364211
 30
0.0
 41
3.5
 42
3.5
 43
3.5
 50
270.0
  0
INSERT
  5
1F29
330
226E
100
AcDbEntity
  8
SK2
  6
Continuous
 62
     0
100
AcDbBlockReference
  2
_FILLED
 10
103.5720458625946
 20
53.29111656336421
 30
0.0
 41
3.5
 42
3.5
 43
3.5
 50
90.0
  0
INSERT
  5
1F2A
330
226E
100
AcDbEntity
  8
0
100
AcDbBlockReference
  2
*U34
 10
0.0
 20
0.0
 30
0.0
  0
POINT
  5
1F2B
330
226E
100
AcDbEntity
  8
DEFPOINTS
  6
Continuous
 62
     0
100
AcDbPoint
 10
185.3628327803946
 20
8.841116563364185
 30
0.0
  0
POINT
  5
1F2C
330
226E
100
AcDbEntity
  8
DEFPOINTS
  6
Continuous
 62
     0
100
AcDbPoint
 10
185.3628327803946
 20
53.29111656336419
 30
0.0
  0
POINT
  5
1F2D
330
226E
100
AcDbEntity
  8
DEFPOINTS
  6
Continuous
 62
     0
100
AcDbPoint
 10
103.5720458625946
 20
53.29111656336421
 30
0.0
  0
ENDBLK
  5
1E49
330
226E
100
AcDbEntity
  8
0
100
AcDbBlockEnd
  0
BLOCK
  5
2271
330
2270
100
AcDbEntity
  8
0
100
AcDbBlockBegin
  2
*U34
 70
     1
 10
0.0
 20
0.0
 30
0.0
  3
*U34
  1

  0
TEXT
  5
2017
330
2270
100
AcDbEntity
  8
SK2
 62
     0
100
AcDbText
 10
102.8987125292612
 20
22.53234806926419
 30
0.0
 40
3.5
  1
\U+220544,45
 50
90.0
 41
0.72
  7
TEXTSTYLE_3
100
AcDbText
  0
ENDBLK
  5
2019
330
2270
100
AcDbEntity
  8
0
100
AcDbBlockEnd
  0
BLOCK
  5
2273
330
2272
100
AcDbEntity
  8
0
100
AcDbBlockBegin
  2
*D35
 70
     1
 10
0.0
 20
0.0
 30
0.0
  3
*D35
  1

  0
LINE
  5
1F1C
330
2272
100
AcDbEntity
  8
SK2
  6
Continuous
 62
     0
100
AcDbLine
 10
189.2753327803944
 20
62.84111656336418
 30
0.0
 11
95.78935350999458
 21
62.8411165633642
 31
0.0
  0
LINE
  5
1F1D
330
2272
100
AcDbEntity
  8
SK2
  6
Continuous
 62
     0
100
AcDbLine
 10
189.2753327803944
 20
-0.708883436635813
 30
0.0
 11
95.78935350999456
 21
-0.7088834366357865
 31
0.0
  0
LINE
  5
1F1E
330
2272
100
AcDbEntity
  8
SK2
  6
Continuous
 62
     0
100
AcDbLine
 10
95.9693535099946
 20
59.34111656336421
 30
0.0
 11
95.96935350999457
 21
2.79111656336421
 31
0.0
  0
INSERT
  5
1F1F
330
2272
100
AcDbEntity
  8
SK2
  6
Continuous
 62
     0
100
AcDbBlockReference
  2
_FILLED
 10
95.9693535099946
 20
62.8411165633642
 30
0.0
 41
3.5
 42
3.5
 43
3.5
 50
90.0
  0
INSERT
  5
1F20
330
2272
100
AcDbEntity
  8
SK2
  6
Continuous
 62
     0
100
AcDbBlockReference
  2
_FILLED
 10
95.96935350999457
 20
-0.7088834366357866
 30
0.0
 41
3.5
 42
3.5
 43
3.5
 50
270.0
  0
INSERT
  5
1F21
330
2272
100
AcDbEntity
  8
0
100
AcDbBlockReference
  2
*U36
 10
0.0
 20
0.0
 30
0.0
  0
POINT
  5
1F22
330
2272
100
AcDbEntity
  8
DEFPOINTS
  6
Continuous
 62
     0
100
AcDbPoint
 10
189.3378327803945
 20
62.84111656336418
 30
0.0
  0
POINT
  5
1F23
330
2272
100
AcDbEntity
  8
DEFPOINTS
  6
Continuous
 62
     0
100
AcDbPoint
 10
189.3378327803945
 20
-0.708883436635813
 30
0.0
  0
POINT
  5
1F24
330
2272
100
AcDbEntity
  8
DEFPOINTS
  6
Continuous
 62
     0
100
AcDbPoint
 10
95.96935350999457
 20
-0.7088834366357866
 30
0.0
  0
ENDBLK
  5
1E55
330
2272
100
AcDbEntity
  8
0
100
AcDbBlockEnd
  0
BLOCK
  5
2275
330
2274
100
AcDbEntity
  8
0
100
AcDbBlockBegin
  2
*U36
 70
     1
 10
0.0
 20
0.0
 30
0.0
  3
*U36
  1

  0
TEXT
  5
2013
330
2274
100
AcDbEntity
  8
SK2
 62
     0
100
AcDbText
 10
95.87935350999458
 20
21.20113051226418
 30
0.0
 40
3.5
  1
\U+220563.55
 50
90.0
 41
0.72
  7
TEXTSTYLE_3
100
AcDbText
  0
ENDBLK
  5
2015
330
2274
100
AcDbEntity
  8
0
100
AcDbBlockEnd
  0
BLOCK
  5
2277
330
2276
100
AcDbEntity
  8
0
100
AcDbBlockBegin
  2
*D37
 70
     1
 10
0.0
 20
0.0
 30
0.0
  3
*D37
  1

  0
LINE
  5
1F53
330
2276
100
AcDbEntity
  8
SK2
  6
Continuous
 62
     0
100
AcDbLine
 10
254.3793327803946
 20
52.06611656336419
 30
0.0
 11
268.1575478094945
 21
52.06611656336419
 31
0.0
  0
LINE
  5
1F54
330
2276
100
AcDbEntity
  8
SK2
  6
Continuous
 62
     0
100
AcDbLine
 10
254.3793327803946
 20
10.06611656336419
 30
0.0
 11
268.1575478094945
 21
10.06611656336418
 31
0.0
  0
LINE
  5
1F55
330
2276
100
AcDbEntity
  8
SK2
  6
Continuous
 62
     0
100
AcDbLine
 10
267.9775478094945
 20
48.56611656336419
 30
0.0
 11
267.9775478094945
 21
13.56611656336419
 31
0.0
  0
INSERT
  5
1F56
330
2276
100
AcDbEntity
  8
SK2
  6
Continuous
 62
     0
100
AcDbBlockReference
  2
_FILLED
 10
267.9775478094945
 20
52.06611656336419
 30
0.0
 41
3.5
 42
3.5
 43
3.5
 50
90.0
  0
INSERT
  5
1F57
330
2276
100
AcDbEntity
  8
SK2
  6
Continuous
 62
     0
100
AcDbBlockReference
  2
_FILLED
 10
267.9775478094945
 20
10.06611656336418
 30
0.0
 41
3.5
 42
3.5
 43
3.5
 50
270.0
  0
INSERT
  5
1F58
330
2276
100
AcDbEntity
  8
0
100
AcDbBlockReference
  2
*U38
 10
0.0
 20
0.0
 30
0.0
  0
POINT
  5
1F59
330
2276
100
AcDbEntity
  8
DEFPOINTS
  6
Continuous
 62
     0
100
AcDbPoint
 10
254.3168327803946
 20
52.06611656336419
 30
0.0
  0
POINT
  5
1F5A
330
2276
100
AcDbEntity
  8
DEFPOINTS
  6
Continuous
 62
     0
100
AcDbPoint
 10
254.3168327803946
 20
10.06611656336419
 30
0.0
  0
POINT
  5
1F5B
330
2276
100
AcDbEntity
  8
DEFPOINTS
  6
Continuous
 62
     0
100
AcDbPoint
 10
267.9775478094945
 20
10.06611656336418
 30
0.0
  0
ENDBLK
  5
1E61
330
2276
100
AcDbEntity
  8
0
100
AcDbBlockEnd
  0
BLOCK
  5
2279
330
2278
100
AcDbEntity
  8
0
100
AcDbBlockBegin
  2
*U38
 70
     1
 10
0.0
 20
0.0
 30
0.0
  3
*U38
  1

  0
TEXT
  5
201F
330
2278
100
AcDbEntity
  8
SK2
 62
     0
100
AcDbText
 10
267.8875478094946
 20
25.53666927446418
 30
0.0
 40
3.5
  1
\U+220542
 50
90.0
 41
0.72
  7
TEXTSTYLE_3
100
AcDbText
  0
ENDBLK
  5
2021
330
2278
100
AcDbEntity
  8
0
100
AcDbBlockEnd
  0
BLOCK
  5
227B
330
227A
100
AcDbEntity
  8
0
100
AcDbBlockBegin
  2
*D39
 70
     1
 10
0.0
 20
0.0
 30
0.0
  3
*D39
  1

  0
LINE
  5
1F65
330
227A
100
AcDbEntity
  8
2
  6
Continuous
 62
     0
100
AcDbLine
 10
186.8628327803945
 20
53.12229146196418
 30
0.0
 11
186.8628327803945
 21
76.53574191196419
 31
0.0
  0
LINE
  5
1F66
330
227A
100
AcDbEntity
  8
2
  6
Continuous
 62
     0
100
AcDbLine
 10
205.9628327803946
 20
63.65361656336418
 30
0.0
 11
205.9628327803946
 21
76.53574191196419
 31
0.0
  0
LINE
  5
1F67
330
227A
100
AcDbEntity
  8
2
  6
Continuous
 62
     0
100
AcDbLine
 10
190.3628327803945
 20
76.35574191196418
 30
0.0
 11
202.4628327803946
 21
76.35574191196418
 31
0.0
  0
INSERT
  5
1F68
330
227A
100
AcDbEntity
  8
2
  6
Continuous
 62
     0
100
AcDbBlockReference
  2
_FILLED
 10
186.8628327803945
 20
76.35574191196418
 30
0.0
 41
3.5
 42
3.5
 43
3.5
 50
180.0
  0
INSERT
  5
1F69
330
227A
100
AcDbEntity
  8
2
  6
Continuous
 62
     0
100
AcDbBlockReference
  2
_FILLED
 10
205.9628327803946
 20
76.35574191196418
 30
0.0
 41
3.5
 42
3.5
 43
3.5
  0
INSERT
  5
1F6A
330
227A
100
AcDbEntity
  8
0
100
AcDbBlockReference
  2
*U40
 10
0.0
 20
0.0
 30
0.0
  0
POINT
  5
1F6B
330
227A
100
AcDbEntity
  8
DEFPOINTS
  6
Continuous
 62
     0
100
AcDbPoint
 10
186.8628327803945
 20
53.05979146196418
 30
0.0
  0
POINT
  5
1F6C
330
227A
100
AcDbEntity
  8
DEFPOINTS
  6
Continuous
 62
     0
100
AcDbPoint
 10
205.9628327803946
 20
63.59111656336418
 30
0.0
  0
POINT
  5
1F6D
330
227A
100
AcDbEntity
  8
DEFPOINTS
  6
Continuous
 62
     0
100
AcDbPoint
 10
205.9628327803946
 20
76.35574191196418
 30
0.0
  0
ENDBLK
  5
1E6D
330
227A
100
AcDbEntity
  8
0
100
AcDbBlockEnd
  0
BLOCK
  5
227D
330
227C
100
AcDbEntity
  8
0
100
AcDbBlockBegin
  2
*U40
 70
     1
 10
0.0
 20
0.0
 30
0.0
  3
*U40
  1

  0
TEXT
  5
2027
330
227C
100
AcDbEntity
  8
2
 62
     0
100
AcDbText
 10
190.5380523477946
 20
76.44574191196419
 30
0.0
 40
3.5
  1
19.1
 41
0.72
  7
TEXTSTYLE_3
100
AcDbText
  0
ENDBLK
  5
2029
330
227C
100
AcDbEntity
  8
0
100
AcDbBlockEnd
  0
BLOCK
  5
227F
330
227E
100
AcDbEntity
  8
0
100
AcDbBlockBegin
  2
*D41
 70
     1
 10
0.0
 20
0.0
 30
0.0
  3
*D41
  1

  0
LINE
  5
1F41
330
227E
100
AcDbEntity
  8
SK2
  6
Continuous
 62
     0
100
AcDbLine
 10
118.6128327803945
 20
44.90049274326419
 30
0.0
 11
118.6128327803945
 21
86.1073986020642
 31
0.0
  0
LINE
  5
1F42
330
227E
100
AcDbEntity
  8
SK2
  6
Continuous
 62
     0
100
AcDbLine
 10
186.8628327803945
 20
53.12229146196418
 30
0.0
 11
186.8628327803945
 21
86.1073986020642
 31
0.0
  0
LINE
  5
1F43
330
227E
100
AcDbEntity
  8
SK2
  6
Continuous
 62
     0
100
AcDbLine
 10
122.1128327803945
 20
85.92739860206419
 30
0.0
 11
183.3628327803945
 21
85.92739860206419
 31
0.0
  0
INSERT
  5
1F44
330
227E
100
AcDbEntity
  8
SK2
  6
Continuous
 62
     0
100
AcDbBlockReference
  2
_FILLED
 10
118.6128327803945
 20
85.92739860206419
 30
0.0
 41
3.5
 42
3.5
 43
3.5
 50
180.0
  0
INSERT
  5
1F45
330
227E
100
AcDbEntity
  8
SK2
  6
Continuous
 62
     0
100
AcDbBlockReference
  2
_FILLED
 10
186.8628327803945
 20
85.92739860206419
 30
0.0
 41
3.5
 42
3.5
 43
3.5
  0
INSERT
  5
1F46
330
227E
100
AcDbEntity
  8
0
100
AcDbBlockReference
  2
*U42
 10
0.0
 20
0.0
 30
0.0
  0
POINT
  5
1F47
330
227E
100
AcDbEntity
  8
DEFPOINTS
  6
Continuous
 62
     0
100
AcDbPoint
 10
118.6128327803945
 20
44.83799274326417
 30
0.0
  0
POINT
  5
1F48
330
227E
100
AcDbEntity
  8
DEFPOINTS
  6
Continuous
 62
     0
100
AcDbPoint
 10
186.8628327803945
 20
53.05979146196418
 30
0.0
  0
POINT
  5
1F49
330
227E
100
AcDbEntity
  8
DEFPOINTS
  6
Continuous
 62
     0
100
AcDbPoint
 10
186.8628327803945
 20
85.92739860206419
 30
0.0
  0
ENDBLK
  5
1E79
330
227E
100
AcDbEntity
  8
0
100
AcDbBlockEnd
  0
BLOCK
  5
2281
330
2280
100
AcDbEntity
  8
0
100
AcDbBlockBegin
  2
*U42
 70
     1
 10
0.0
 20
0.0
 30
0.0
  3
*U42
  1

  0
TEXT
  5
201B
330
2280
100
AcDbEntity
  8
SK2
 62
     0
100
AcDbText
 10
145.8078369538945
 20
86.0173986020642
 30
0.0
 40
3.5
  1
68.25
 41
0.72
  7
TEXTSTYLE_3
100
AcDbText
  0
ENDBLK
  5
201D
330
2280
100
AcDbEntity
  8
0
100
AcDbBlockEnd
  0
BLOCK
  5
2283
330
2282
100
AcDbEntity
  8
0
100
AcDbBlockBegin
  2
*D43
 70
     1
 10
0.0
 20
0.0
 30
0.0
  3
*D43
  1

  0
LINE
  5
1F5C
330
2282
100
AcDbEntity
  8
2
  6
Continuous
 62
     0
100
AcDbLine
 10
186.8628327803945
 20
53.12229146196418
 30
0.0
 11
186.8628327803945
 21
86.07226318116419
 31
0.0
  0
LINE
  5
1F5D
330
2282
100
AcDbEntity
  8
2
  6
Continuous
 62
     0
100
AcDbLine
 10
256.8578327803946
 20
46.62861656336419
 30
0.0
 11
256.8578327803946
 21
86.07226318116419
 31
0.0
  0
LINE
  5
1F5E
330
2282
100
AcDbEntity
  8
2
  6
Continuous
 62
     0
100
AcDbLine
 10
190.3628327803945
 20
85.89226318116418
 30
0.0
 11
253.3578327803946
 21
85.89226318116418
 31
0.0
  0
INSERT
  5
1F5F
330
2282
100
AcDbEntity
  8
2
  6
Continuous
 62
     0
100
AcDbBlockReference
  2
_FILLED
 10
186.8628327803945
 20
85.89226318116418
 30
0.0
 41
3.5
 42
3.5
 43
3.5
 50
180.0
  0
INSERT
  5
1F60
330
2282
100
AcDbEntity
  8
2
  6
Continuous
 62
     0
100
AcDbBlockReference
  2
_FILLED
 10
256.8578327803946
 20
85.89226318116418
 30
0.0
 41
3.5
 42
3.5
 43
3.5
  0
INSERT
  5
1F61
330
2282
100
AcDbEntity
  8
0
100
AcDbBlockReference
  2
*U44
 10
0.0
 20
0.0
 30
0.0
  0
POINT
  5
1F62
330
2282
100
AcDbEntity
  8
DEFPOINTS
  6
Continuous
 62
     0
100
AcDbPoint
 10
186.8628327803945
 20
53.05979146196418
 30
0.0
  0
POINT
  5
1F63
330
2282
100
AcDbEntity
  8
DEFPOINTS
  6
Continuous
 62
     0
100
AcDbPoint
 10
256.8578327803946
 20
46.56611656336418
 30
0.0
  0
POINT
  5
1F64
330
2282
100
AcDbEntity
  8
DEFPOINTS
  6
Continuous
 62
     0
100
AcDbPoint
 10
256.8578327803946
 20
85.89226318116418
 30
0.0
  0
ENDBLK
  5
1E85
330
2282
100
AcDbEntity
  8
0
100
AcDbBlockEnd
  0
BLOCK
  5
2285
330
2284
100
AcDbEntity
  8
0
100
AcDbBlockBegin
  2
*U44
 70
     1
 10
0.0
 20
0.0
 30
0.0
  3
*U44
  1

  0
TEXT
  5
2023
330
2284
100
AcDbEntity
  8
2
 62
     0
100
AcDbText
 10
218.2481176767946
 20
85.98226318116418
 30
0.0
 40
3.5
  1
70
 41
0.72
  7
TEXTSTYLE_3
100
AcDbText
  0
ENDBLK
  5
2025
330
2284
100
AcDbEntity
  8
0
100
AcDbBlockEnd
  0
BLOCK
  5
2287
330
2286
100
AcDbEntity
  8
0
100
AcDbBlockBegin
  2
*U45
 70
     1
 10
0.0
 20
0.0
 30
0.0
  3
*U45
  1

  0
TEXT
  5
200B
330
2286
100
AcDbEntity
  8
1
 62
     3
100
AcDbText
 10
50.20611982466153
 20
48.39159157414417
 30
0.0
 40
3.5
  1
ASME B5.50 CAT40
 41
0.72
  7
TEXTSTYLE_3
100
AcDbText
  0
ENDBLK
  5
200D
330
2286
100
AcDbEntity
  8
0
100
AcDbBlockEnd
  0
BLOCK
  5
2289
330
2288
100
AcDbEntity
  8
0
100
AcDbBlockBegin
  2
*U46
 70
     1
 10
0.0
 20
0.0
 30
0.0
  3
*U46
  1

  0
TEXT
  5
200F
330
2288
100
AcDbEntity
  8
1
 62
     3
100
AcDbText
 10
40.77455831576153
 20
-0.0000000210558255
 30
0.0
 40
3.5
  1
AA3B14-40 25 070
 41
0.72
  7
TEXTSTYLE_3
100
AcDbText
  0
ENDBLK
  5
2011
330
2288
100
AcDbEntity
  8
0
100
AcDbBlockEnd
  0
BLOCK
  5
228E
330
228D
100
AcDbEntity
  8
0
100
AcDbBlockBegin
  2
*D47
 70
     1
 10
0.0
 20
0.0
 30
0.0
  3
*D47
  1

  0
LINE
  5
2425
330
228D
100
AcDbEntity
  8
SK2
  6
Continuous
 62
     0
370
    -2
100
AcDbLine
 10
2.415332780394493
 20
31.77111656336418
 30
0.0
 11
-91.07064649000546
 21
31.77111656336421
 31
0.0
  0
LINE
  5
2426
330
228D
100
AcDbEntity
  8
SK2
  6
Continuous
 62
     0
370
    -2
100
AcDbLine
 10
2.415332780394493
 20
-31.77888343663581
 30
0.0
 11
-91.07064649000546
 21
-31.77888343663579
 31
0.0
  0
LINE
  5
2427
330
228D
100
AcDbEntity
  8
SK2
  6
Continuous
 62
     0
370
    -2
100
AcDbLine
 10
-90.89064649000546
 20
28.27111656336421
 30
0.0
 11
-90.89064649000546
 21
3.068617885679484
 31
0.0
  0
LINE
  5
2428
330
228D
100
AcDbEntity
  8
SK2
  6
Continuous
 62
     0
370
    -2
100
AcDbLine
 10
-90.89064649000546
 20
-28.27888343663579
 30
0.0
 11
-90.89064649000546
 21
-10.2063568611511
 31
0.0
  0
MTEXT
  5
2429
330
228D
100
AcDbEntity
  8
SK2
  6
Continuous
 62
     5
100
AcDbMText
 10
-90.89064649000546
 20
-3.56886948773582
 30
0.0
 40
3.5
 41
0.0
 71
     5
 72
     1
  1
\A1;%%c63.55
 11
0.0000000000000001
 21
1.0
 31
0.0
 73
     1
 44
1.0
1001
ACAD
1000
MTEXTBEGIN
1070
    73
1070
     1
1070
    44
1040
1.0
1070
    74
1070
     0
1000
MTEXTEND
  0
SOLID
  5
242A
330
228D
100
AcDbEntity
  8
SK2
  6
Continuous
 62
     0
100
AcDbTrace
 10
-91.47397982333878
 20
28.27111656336421
 30
0.0
 11
-90.30731315667212
 21
28.27111656336421
 31
0.0
 12
-90.89064649000546
 22
31.77111656336421
 32
0.0
 13
-90.89064649000546
 23
31.77111656336421
 33
0.0
  0
SOLID
  5
242B
330
228D
100
AcDbEntity
  8
SK2
  6
Continuous
 62
     0
100
AcDbTrace
 10
-91.47397982333878
 20
-28.27888343663579
 30
0.0
 11
-90.30731315667212
 21
-28.27888343663579
 31
0.0
 12
-90.89064649000546
 22
-31.77888343663579
 32
0.0
 13
-90.89064649000546
 23
-31.77888343663579
 33
0.0
  0
POINT
  5
242C
330
228D
100
AcDbEntity
  8
DEFPOINTS
  6
Continuous
 62
     0
100
AcDbPoint
 10
2.477832780394493
 20
31.77111656336418
 30
0.0
  0
POINT
  5
242D
330
228D
100
AcDbEntity
  8
DEFPOINTS
  6
Continuous
 62
     0
100
AcDbPoint
 10
2.477832780394493
 20
-31.77888343663581
 30
0.0
  0
POINT
  5
242E
330
228D
100
AcDbEntity
  8
DEFPOINTS
  6
Continuous
 62
     0
100
AcDbPoint
 10
-90.89064649000546
 20
-31.77888343663579
 30
0.0
  0
ENDBLK
  5
228F
330
228D
100
AcDbEntity
  8
0
100
AcDbBlockEnd
  0
BLOCK
  5
229B
330
229A
100
AcDbEntity
  8
0
100
AcDbBlockBegin
  2
*D48
 70
     1
 10
0.0
 20
0.0
 30
0.0
  3
*D48
  1

  0
LINE
  5
241B
330
229A
100
AcDbEntity
  8
SK2
  6
Continuous
 62
     0
370
    -2
100
AcDbLine
 10
-1.559667219605415
 20
-22.22888343663582
 30
0.0
 11
-83.46795413740542
 21
-22.2288834366358
 31
0.0
  0
LINE
  5
241C
330
229A
100
AcDbEntity
  8
SK2
  6
Continuous
 62
     0
370
    -2
100
AcDbLine
 10
-1.559667219605415
 20
22.22111656336419
 30
0.0
 11
-83.46795413740542
 21
22.22111656336421
 31
0.0
  0
LINE
  5
241D
330
229A
100
AcDbEntity
  8
SK2
  6
Continuous
 62
     0
370
    -2
100
AcDbLine
 10
-83.28795413740541
 20
-18.72888343663579
 30
0.0
 11
-83.28795413740541
 21
-9.277639304151081
 31
0.0
  0
LINE
  5
241E
330
229A
100
AcDbEntity
  8
SK2
  6
Continuous
 62
     0
370
    -2
100
AcDbLine
 10
-83.28795413740541
 20
18.72111656336421
 30
0.0
 11
-83.28795413740541
 21
5.222335442679502
 31
0.0
  0
MTEXT
  5
241F
330
229A
100
AcDbEntity
  8
SK2
  6
Continuous
 62
     5
100
AcDbMText
 10
-83.2879541374055
 20
-2.027651930735803
 30
0.0
 40
3.5
 41
0.0
 71
     5
 72
     1
  1
\A1;%%c44,45
 11
0.0000000000000001
 21
1.0
 31
0.0
 73
     1
 44
1.0
1001
ACAD
1000
MTEXTBEGIN
1070
    73
1070
     1
1070
    44
1040
1.0
1070
    74
1070
     0
1000
MTEXTEND
  0
SOLID
  5
2420
330
229A
100
AcDbEntity
  8
SK2
  6
Continuous
 62
     0
100
AcDbTrace
 10
-83.87128747073875
 20
-18.72888343663579
 30
0.0
 11
-82.70462080407209
 21
-18.72888343663579
 31
0.0
 12
-83.28795413740541
 22
-22.2288834366358
 32
0.0
 13
-83.28795413740541
 23
-22.2288834366358
 33
0.0
  0
SOLID
  5
2421
330
229A
100
AcDbEntity
  8
SK2
  6
Continuous
 62
     0
100
AcDbTrace
 10
-83.87128747073875
 20
18.72111656336421
 30
0.0
 11
-82.70462080407209
 21
18.72111656336421
 31
0.0
 12
-83.28795413740541
 22
22.22111656336421
 32
0.0
 13
-83.28795413740541
 23
22.22111656336421
 33
0.0
  0
POINT
  5
2422
330
229A
100
AcDbEntity
  8
DEFPOINTS
  6
Continuous
 62
     0
100
AcDbPoint
 10
-1.497167219605415
 20
-22.22888343663582
 30
0.0
  0
POINT
  5
2423
330
229A
100
AcDbEntity
  8
DEFPOINTS
  6
Continuous
 62
     0
100
AcDbPoint
 10
-1.497167219605415
 20
22.22111656336419
 30
0.0
  0
POINT
  5
2424
330
229A
100
AcDbEntity
  8
DEFPOINTS
  6
Continuous
 62
     0
100
AcDbPoint
 10
-83.28795413740541
 20
22.22111656336421
 30
0.0
  0
ENDBLK
  5
229C
330
229A
100
AcDbEntity
  8
0
100
AcDbBlockEnd
  0
BLOCK
  5
22A8
330
22A7
100
AcDbEntity
  8
0
100
AcDbBlockBegin
  2
*D49
 70
     1
 10
0.0
 20
0.0
 30
0.0
  3
*D49
  1

  0
LINE
  5
2412
330
22A7
100
AcDbEntity
  8
SK2
  6
Continuous
 62
     0
370
    -2
100
AcDbLine
 10
-64.46716721960552
 20
7.933616563364168
 30
0.0
 11
-74.69664176349951
 21
7.933616563364171
 31
0.0
  0
LINE
  5
2413
330
22A7
100
AcDbEntity
  8
SK2
  6
Continuous
 62
     0
370
    -2
100
AcDbLine
 10
-64.46716721960552
 20
-7.94138343663581
 30
0.0
 11
-74.69664176349951
 21
-7.941383436635806
 31
0.0
  0
LINE
  5
2414
330
22A7
100
AcDbEntity
  8
SK2
  6
Continuous
 62
     0
370
    -2
100
AcDbLine
 10
-74.51664176349952
 20
4.433616563364171
 30
0.0
 11
-74.51664176349952
 21
-4.441383436635806
 31
0.0
  0
MTEXT
  5
2415
330
22A7
100
AcDbEntity
  8
SK2
  6
Continuous
 62
     5
100
AcDbMText
 10
-77.34053892811409
 20
-0.4137286297563989
 30
0.0
 40
3.5
 41
0.0
 71
     5
 72
     1
  1
\A1;5/8-11UNC 2B
 11
0.0000000000000001
 21
1.0
 31
0.0
 73
     1
 44
1.0
1001
ACAD
1000
MTEXTBEGIN
1070
    73
1070
     1
1070
    44
1040
1.0
1070
    74
1070
     0
1000
MTEXTEND
  0
SOLID
  5
2416
330
22A7
100
AcDbEntity
  8
SK2
  6
Continuous
 62
     0
100
AcDbTrace
 10
-75.09997509683285
 20
4.433616563364171
 30
0.0
 11
-73.93330843016619
 21
4.433616563364171
 31
0.0
 12
-74.51664176349952
 22
7.933616563364171
 32
0.0
 13
-74.51664176349952
 23
7.933616563364171
 33
0.0
  0
SOLID
  5
2417
330
22A7
100
AcDbEntity
  8
SK2
  6
Continuous
 62
     0
100
AcDbTrace
 10
-75.09997509683285
 20
-4.441383436635806
 30
0.0
 11
-73.93330843016619
 21
-4.441383436635807
 31
0.0
 12
-74.51664176349952
 22
-7.941383436635806
 32
0.0
 13
-74.51664176349952
 23
-7.941383436635806
 33
0.0
  0
POINT
  5
2418
330
22A7
100
AcDbEntity
  8
DEFPOINTS
  6
Continuous
 62
     0
100
AcDbPoint
 10
-64.40466721960551
 20
7.933616563364168
 30
0.0
  0
POINT
  5
2419
330
22A7
100
AcDbEntity
  8
DEFPOINTS
  6
Continuous
 62
     0
100
AcDbPoint
 10
-64.40466721960551
 20
-7.94138343663581
 30
0.0
  0
POINT
  5
241A
330
22A7
100
AcDbEntity
  8
DEFPOINTS
  6
Continuous
 62
     0
100
AcDbPoint
 10
-74.51664176349952
 20
-7.941383436635806
 30
0.0
  0
ENDBLK
  5
22A9
330
22A7
100
AcDbEntity
  8
0
100
AcDbBlockEnd
  0
BLOCK
  5
22B4
330
22B3
100
AcDbEntity
  8
0
100
AcDbBlockBegin
  2
*D50
 70
     1
 10
0.0
 20
0.0
 30
0.0
  3
*D50
  1

  0
LINE
  5
2443
330
22B3
100
AcDbEntity
  8
SK2
  6
Continuous
 62
     0
370
    -2
100
AcDbLine
 10
-68.24716721960552
 20
13.83049274326416
 30
0.0
 11
-68.24716721960552
 21
55.03739860206419
 31
0.0
  0
LINE
  5
2444
330
22B3
100
AcDbEntity
  8
SK2
  6
Continuous
 62
     0
370
    -2
100
AcDbLine
 10
0.002832780394499
 20
22.05229146196418
 30
0.0
 11
0.002832780394501
 21
55.03739860206419
 31
0.0
  0
LINE
  5
2445
330
22B3
100
AcDbEntity
  8
SK2
  6
Continuous
 62
     0
370
    -2
100
AcDbLine
 10
-64.74716721960551
 20
54.85739860206418
 30
0.0
 11
-41.17937482896961
 21
54.85739860206418
 31
0.0
  0
LINE
  5
2446
330
22B3
100
AcDbEntity
  8
SK2
  6
Continuous
 62
     0
370
    -2
100
AcDbLine
 10
-3.497167219605498
 20
54.85739860206418
 30
0.0
 11
-30.8449512632414
 21
54.85739860206418
 31
0.0
  0
MTEXT
  5
2447
330
22B3
100
AcDbEntity
  8
SK2
  6
Continuous
 62
     5
100
AcDbMText
 10
-36.01216304610551
 20
54.85739860206418
 30
0.0
 40
3.5
 41
0.0
 71
     5
 72
     1
  1
\A1;68.25
 73
     1
 44
1.0
1001
ACAD
1000
MTEXTBEGIN
1070
    73
1070
     1
1070
    44
1040
1.0
1070
    74
1070
     0
1000
MTEXTEND
  0
SOLID
  5
2448
330
22B3
100
AcDbEntity
  8
SK2
  6
Continuous
 62
     0
100
AcDbTrace
 10
-64.74716721960551
 20
55.44073193539752
 30
0.0
 11
-64.74716721960551
 21
54.27406526873085
 31
0.0
 12
-68.24716721960552
 22
54.85739860206418
 32
0.0
 13
-68.24716721960552
 23
54.85739860206418
 33
0.0
  0
SOLID
  5
2449
330
22B3
100
AcDbEntity
  8
SK2
  6
Continuous
 62
     0
100
AcDbTrace
 10
-3.497167219605498
 20
55.44073193539752
 30
0.0
 11
-3.497167219605498
 21
54.27406526873085
 31
0.0
 12
0.002832780394501
 22
54.85739860206418
 32
0.0
 13
0.002832780394501
 23
54.85739860206418
 33
0.0
  0
POINT
  5
244A
330
22B3
100
AcDbEntity
  8
DEFPOINTS
  6
Continuous
 62
     0
100
AcDbPoint
 10
-68.24716721960552
 20
13.76799274326417
 30
0.0
  0
POINT
  5
244B
330
22B3
100
AcDbEntity
  8
DEFPOINTS
  6
Continuous
 62
     0
100
AcDbPoint
 10
0.002832780394499
 20
21.98979146196418
 30
0.0
  0
POINT
  5
244C
330
22B3
100
AcDbEntity
  8
DEFPOINTS
  6
Continuous
 62
     0
100
AcDbPoint
 10
0.002832780394501
 20
54.85739860206418
 30
0.0
  0
ENDBLK
  5
22B5
330
22B3
100
AcDbEntity
  8
0
100
AcDbBlockEnd
  0
BLOCK
  5
22C1
330
22C0
100
AcDbEntity
  8
0
100
AcDbBlockBegin
  2
*D51
 70
     1
 10
0.0
 20
0.0
 30
0.0
  3
*D51
  1

  0
LINE
  5
2439
330
22C0
100
AcDbEntity
  8
2
  6
Continuous
 62
     0
370
    -2
100
AcDbLine
 10
0.002832780394499
 20
22.05229146196418
 30
0.0
 11
0.0028327803945004
 21
45.46574191196419
 31
0.0
  0
LINE
  5
243A
330
22C0
100
AcDbEntity
  8
2
  6
Continuous
 62
     0
370
    -2
100
AcDbLine
 10
19.10283278039458
 20
32.58361656336418
 30
0.0
 11
19.10283278039458
 21
45.46574191196419
 31
0.0
  0
LINE
  5
243B
330
22C0
100
AcDbEntity
  8
2
  6
Continuous
 62
     0
370
    -2
100
AcDbLine
 10
3.5028327803945
 20
45.28574191196418
 30
0.0
 11
6.618052347794589
 21
45.28574191196418
 31
0.0
  0
LINE
  5
243C
330
22C0
100
AcDbEntity
  8
2
  6
Continuous
 62
     0
370
    -2
100
AcDbLine
 10
15.60283278039458
 20
45.28574191196418
 30
0.0
 11
12.76028250452455
 21
45.28574191196418
 31
0.0
  0
MTEXT
  5
243D
330
22C0
100
AcDbEntity
  8
2
  6
Continuous
 62
     5
100
AcDbMText
 10
9.689167426159571
 20
45.28574191196418
 30
0.0
 40
3.5
 41
0.0
 71
     5
 72
     1
  1
\A1;19.1
 73
     1
 44
1.0
1001
ACAD
1000
MTEXTBEGIN
1070
    73
1070
     1
1070
    44
1040
1.0
1070
    74
1070
     0
1000
MTEXTEND
  0
SOLID
  5
243E
330
22C0
100
AcDbEntity
  8
2
  6
Continuous
 62
     0
100
AcDbTrace
 10
3.5028327803945
 20
45.86907524529752
 30
0.0
 11
3.5028327803945
 21
44.70240857863085
 31
0.0
 12
0.0028327803945004
 22
45.28574191196418
 32
0.0
 13
0.0028327803945004
 23
45.28574191196418
 33
0.0
  0
SOLID
  5
243F
330
22C0
100
AcDbEntity
  8
2
  6
Continuous
 62
     0
100
AcDbTrace
 10
15.60283278039458
 20
45.86907524529752
 30
0.0
 11
15.60283278039458
 21
44.70240857863085
 31
0.0
 12
19.10283278039458
 22
45.28574191196418
 32
0.0
 13
19.10283278039458
 23
45.28574191196418
 33
0.0
  0
POINT
  5
2440
330
22C0
100
AcDbEntity
  8
DEFPOINTS
  6
Continuous
 62
     0
100
AcDbPoint
 10
0.002832780394499
 20
21.98979146196418
 30
0.0
  0
POINT
  5
2441
330
22C0
100
AcDbEntity
  8
DEFPOINTS
  6
Continuous
 62
     0
100
AcDbPoint
 10
19.10283278039458
 20
32.52111656336418
 30
0.0
  0
POINT
  5
2442
330
22C0
100
AcDbEntity
  8
DEFPOINTS
  6
Continuous
 62
     0
100
AcDbPoint
 10
19.10283278039458
 20
45.28574191196418
 30
0.0
  0
ENDBLK
  5
22C2
330
22C0
100
AcDbEntity
  8
0
100
AcDbBlockEnd
  0
BLOCK
  5
22CE
330
22CD
100
AcDbEntity
  8
0
100
AcDbBlockBegin
  2
*D52
 70
     1
 10
0.0
 20
0.0
 30
0.0
  3
*D52
  1

  0
LINE
  5
244D
330
22CD
100
AcDbEntity
  8
2
  6
Continuous
 62
     0
370
    -2
100
AcDbLine
 10
0.002832780394499
 20
22.05229146196418
 30
0.0
 11
0.002832780394501
 21
55.00226318116418
 31
0.0
  0
LINE
  5
244E
330
22CD
100
AcDbEntity
  8
2
  6
Continuous
 62
     0
370
    -2
100
AcDbLine
 10
69.99783278039456
 20
15.55861656336418
 30
0.0
 11
69.99783278039456
 21
55.00226318116418
 31
0.0
  0
LINE
  5
244F
330
22CD
100
AcDbEntity
  8
2
  6
Continuous
 62
     0
370
    -2
100
AcDbLine
 10
3.502832780394501
 20
54.82226318116418
 30
0.0
 11
31.26173972403859
 21
54.82226318116418
 31
0.0
  0
LINE
  5
2450
330
22CD
100
AcDbEntity
  8
2
  6
Continuous
 62
     0
370
    -2
100
AcDbLine
 10
66.49783278039456
 20
54.82226318116418
 30
0.0
 11
35.2944956295504
 21
54.82226318116418
 31
0.0
  0
MTEXT
  5
2451
330
22CD
100
AcDbEntity
  8
2
  6
Continuous
 62
     5
100
AcDbMText
 10
33.27811767679449
 20
54.82226318116418
 30
0.0
 40
3.5
 41
0.0
 71
     5
 72
     1
  1
\A1;70
 73
     1
 44
1.0
1001
ACAD
1000
MTEXTBEGIN
1070
    73
1070
     1
1070
    44
1040
1.0
1070
    74
1070
     0
1000
MTEXTEND
  0
SOLID
  5
2452
330
22CD
100
AcDbEntity
  8
2
  6
Continuous
 62
     0
100
AcDbTrace
 10
3.502832780394501
 20
55.40559651449751
 30
0.0
 11
3.502832780394501
 21
54.23892984783084
 31
0.0
 12
0.002832780394501
 22
54.82226318116418
 32
0.0
 13
0.002832780394501
 23
54.82226318116418
 33
0.0
  0
SOLID
  5
2453
330
22CD
100
AcDbEntity
  8
2
  6
Continuous
 62
     0
100
AcDbTrace
 10
66.49783278039456
 20
55.40559651449751
 30
0.0
 11
66.49783278039456
 21
54.23892984783084
 31
0.0
 12
69.99783278039456
 22
54.82226318116418
 32
0.0
 13
69.99783278039456
 23
54.82226318116418
 33
0.0
  0
POINT
  5
2454
330
22CD
100
AcDbEntity
  8
DEFPOINTS
  6
Continuous
 62
     0
100
AcDbPoint
 10
0.002832780394499
 20
21.98979146196418
 30
0.0
  0
POINT
  5
2455
330
22CD
100
AcDbEntity
  8
DEFPOINTS
  6
Continuous
 62
     0
100
AcDbPoint
 10
69.99783278039456
 20
15.49611656336418
 30
0.0
  0
POINT
  5
2456
330
22CD
100
AcDbEntity
  8
DEFPOINTS
  6
Continuous
 62
     0
100
AcDbPoint
 10
69.99783278039456
 20
54.82226318116418
 30
0.0
  0
ENDBLK
  5
22CF
330
22CD
100
AcDbEntity
  8
0
100
AcDbBlockEnd
  0
BLOCK
  5
22DB
330
22DA
100
AcDbEntity
  8
0
100
AcDbBlockBegin
  2
*D53
 70
     1
 10
0.0
 20
0.0
 30
0.0
  3
*D53
  1

  0
LINE
  5
242F
330
22DA
100
AcDbEntity
  8
SK2
  6
Continuous
 62
     0
370
    -2
100
AcDbLine
 10
67.51933278039459
 20
20.99611656336419
 30
0.0
 11
81.29754780949452
 21
20.99611656336419
 31
0.0
  0
LINE
  5
2430
330
22DA
100
AcDbEntity
  8
SK2
  6
Continuous
 62
     0
370
    -2
100
AcDbLine
 10
67.51933278039459
 20
-21.00388343663581
 30
0.0
 11
81.29754780949452
 21
-21.00388343663581
 31
0.0
  0
LINE
  5
2431
330
22DA
100
AcDbEntity
  8
SK2
  6
Continuous
 62
     0
370
    -2
100
AcDbLine
 10
81.11754780949452
 20
17.49611656336418
 30
0.0
 11
81.11754780949452
 21
1.696772620920856
 31
0.0
  0
LINE
  5
2432
330
22DA
100
AcDbEntity
  8
SK2
  6
Continuous
 62
     0
370
    -2
100
AcDbLine
 10
81.11754780949452
 20
-17.50388343663581
 30
0.0
 11
81.11754780949452
 21
-6.043434071992528
 31
0.0
  0
MTEXT
  5
2433
330
22DA
100
AcDbEntity
  8
SK2
  6
Continuous
 62
     5
100
AcDbMText
 10
81.11754780949452
 20
-2.173330725535823
 30
0.0
 40
3.5
 41
0.0
 71
     5
 72
     1
  1
\A1;%%c42
 11
0.0000000000000001
 21
1.0
 31
0.0
 73
     1
 44
1.0
1001
ACAD
1000
MTEXTBEGIN
1070
    73
1070
     1
1070
    44
1040
1.0
1070
    74
1070
     0
1000
MTEXTEND
  0
SOLID
  5
2434
330
22DA
100
AcDbEntity
  8
SK2
  6
Continuous
 62
     0
100
AcDbTrace
 10
80.53421447616118
 20
17.49611656336418
 30
0.0
 11
81.70088114282783
 21
17.49611656336418
 31
0.0
 12
81.11754780949452
 22
20.99611656336419
 32
0.0
 13
81.11754780949452
 23
20.99611656336419
 33
0.0
  0
SOLID
  5
2435
330
22DA
100
AcDbEntity
  8
SK2
  6
Continuous
 62
     0
100
AcDbTrace
 10
80.53421447616118
 20
-17.50388343663581
 30
0.0
 11
81.70088114282783
 21
-17.50388343663581
 31
0.0
 12
81.11754780949452
 22
-21.00388343663581
 32
0.0
 13
81.11754780949452
 23
-21.00388343663581
 33
0.0
  0
POINT
  5
2436
330
22DA
100
AcDbEntity
  8
DEFPOINTS
  6
Continuous
 62
     0
100
AcDbPoint
 10
67.45683278039459
 20
20.99611656336419
 30
0.0
  0
POINT
  5
2437
330
22DA
100
AcDbEntity
  8
DEFPOINTS
  6
Continuous
 62
     0
100
AcDbPoint
 10
67.45683278039459
 20
-21.00388343663581
 30
0.0
  0
POINT
  5
2438
330
22DA
100
AcDbEntity
  8
DEFPOINTS
  6
Continuous
 62
     0
100
AcDbPoint
 10
81.11754780949452
 20
-21.00388343663581
 30
0.0
  0
ENDBLK
  5
22DC
330
22DA
100
AcDbEntity
  8
0
100
AcDbBlockEnd
  0
BLOCK
  5
22F2
330
22F1
100
AcDbEntity
  8
0
100
AcDbBlockBegin
  2
*D54
 70
     1
 10
0.0
 20
0.0
 30
0.0
  3
*D54
  1

  0
LINE
  5
2457
330
22F1
100
AcDbEntity
  8
2
 62
     0
370
    -2
100
AcDbLine
 10
58.3428327803945
 20
-0.0663834366358103
 30
0.0
 11
58.3428327803945
 21
-44.05853863465305
 31
0.0
  0
LINE
  5
2458
330
22F1
100
AcDbEntity
  8
2
 62
     0
370
    -2
100
AcDbLine
 10
0.002832780394499
 20
-0.0663834366358103
 30
0.0
 11
0.0028327803944963
 21
-44.05853863465305
 31
0.0
  0
LINE
  5
2459
330
22F1
100
AcDbEntity
  8
2
 62
     0
370
    -2
100
AcDbLine
 10
54.8428327803945
 20
-43.87853863465306
 30
0.0
 11
3.502832780394496
 21
-43.87853863465306
 31
0.0
  0
SOLID
  5
245A
330
22F1
100
AcDbEntity
  8
2
 62
     0
100
AcDbTrace
 10
54.8428327803945
 20
-43.29520530131972
 30
0.0
 11
54.8428327803945
 21
-44.46187196798639
 31
0.0
 12
58.3428327803945
 22
-43.87853863465306
 32
0.0
 13
58.3428327803945
 23
-43.87853863465306
 33
0.0
  0
SOLID
  5
245B
330
22F1
100
AcDbEntity
  8
2
 62
     0
100
AcDbTrace
 10
3.502832780394496
 20
-43.29520530131972
 30
0.0
 11
3.502832780394496
 21
-44.46187196798639
 31
0.0
 12
0.0028327803944963
 22
-43.87853863465306
 32
0.0
 13
0.0028327803944963
 23
-43.87853863465306
 33
0.0
  0
MTEXT
  5
245C
330
22F1
100
AcDbEntity
  8
2
 62
     5
100
AcDbMText
 10
29.1728327803945
 20
-42.03853863465305
 30
0.0
 40
3.5
 41
0.0
 71
     5
 72
     1
  1
\A1;58.34
 73
     1
 44
1.0
1001
ACAD
1000
MTEXTBEGIN
1070
    73
1070
     1
1070
    44
1040
1.0
1070
    74
1070
     0
1000
MTEXTEND
  0
POINT
  5
245D
330
22F1
100
AcDbEntity
  8
DEFPOINTS
 62
     0
100
AcDbPoint
 10
58.3428327803945
 20
-0.0038834366358103
 30
0.0
  0
POINT
  5
245E
330
22F1
100
AcDbEntity
  8
DEFPOINTS
 62
     0
100
AcDbPoint
 10
0.002832780394499
 20
-0.0038834366358103
 30
0.0
  0
POINT
  5
245F
330
22F1
100
AcDbEntity
  8
DEFPOINTS
 62
     0
100
AcDbPoint
 10
0.0028327803944963
 20
-43.87853863465306
 30
0.0
  0
ENDBLK
  5
22F3
330
22F1
100
AcDbEntity
  8
0
100
AcDbBlockEnd
  0
ENDSEC
  0
SECTION
  2
ENTITIES
  0
DIMENSION
  5
1DA7
330
21F5
100
AcDbEntity
  8
SK2
  6
Continuous
 62
     7
100
AcDbDimension
  2
*D49
 10
-74.51664176349952
 20
-7.941383436635806
 30
0.0
 11
-77.34053892811409
 21
-0.4137286297563989
 31
0.0
 70
   160
  1
5/8-11UNC 2B
 71
     5
 42
15.87499999999998
  3
STANDARD
100
AcDbAlignedDimension
 13
-64.40466721960551
 23
7.933616563364168
 33
0.0
 14
-64.40466721960551
 24
-7.94138343663581
 34
0.0
 50
270.0
100
AcDbRotatedDimension
  0
DIMENSION
  5
1DA8
330
21F5
100
AcDbEntity
  8
SK2
  6
Continuous
 62
     7
100
AcDbDimension
  2
*D48
 10
-83.28795413740541
 20
22.22111656336421
 30
0.0
 11
-83.2879541374055
 21
-2.027651930735803
 31
0.0
 70
   160
  1
%%c44,45
 71
     5
 42
44.45
  3
STANDARD
100
AcDbAlignedDimension
 13
-1.497167219605415
 23
-22.22888343663582
 33
0.0
 14
-1.497167219605415
 24
22.22111656336419
 34
0.0
 50
90.0
100
AcDbRotatedDimension
  0
DIMENSION
  5
1DA9
330
21F5
100
AcDbEntity
  8
SK2
  6
Continuous
 62
     7
100
AcDbDimension
  2
*D47
 10
-90.89064649000546
 20
-31.77888343663579
 30
0.0
 11
-90.89064649000546
 21
-3.56886948773582
 31
0.0
 70
   160
  1
%%c63.55
 71
     5
 42
63.55
  3
STANDARD
100
AcDbAlignedDimension
 13
2.477832780394493
 23
31.77111656336418
 33
0.0
 14
2.477832780394493
 24
-31.77888343663581
 34
0.0
 50
270.0
100
AcDbRotatedDimension
  0
DIMENSION
  5
1DAA
330
21F5
100
AcDbEntity
  8
SK2
  6
Continuous
 62
     7
100
AcDbDimension
  2
*D53
 10
81.11754780949452
 20
-21.00388343663581
 30
0.0
 11
81.11754780949452
 21
-2.173330725535823
 31
0.0
 70
   160
  1
%%c42
 71
     5
 42
42.0
  3
STANDARD
100
AcDbAlignedDimension
 13
67.45683278039459
 23
20.99611656336419
 33
0.0
 14
67.45683278039459
 24
-21.00388343663581
 34
0.0
 50
270.0
100
AcDbRotatedDimension
  0
DIMENSION
  5
1DAB
330
21F5
100
AcDbEntity
  8
2
  6
Continuous
 62
     7
100
AcDbDimension
  2
*D51
 10
19.10283278039458
 20
45.28574191196418
 30
0.0
 11
9.689167426159571
 21
45.28574191196418
 31
0.0
 70
   160
  1
19.1
 71
     5
 42
19.10000000000008
  3
STANDARD
100
AcDbAlignedDimension
 13
0.002832780394499
 23
21.98979146196418
 33
0.0
 14
19.10283278039458
 24
32.52111656336418
 34
0.0
100
AcDbRotatedDimension
  0
DIMENSION
  5
1DAC
330
21F5
100
AcDbEntity
  8
SK2
  6
Continuous
 62
     7
100
AcDbDimension
  2
*D50
 10
0.002832780394501
 20
54.85739860206418
 30
0.0
 11
-36.01216304610551
 21
54.85739860206418
 31
0.0
 70
   160
  1
68.25
 71
     5
 42
68.25000000000001
  3
STANDARD
100
AcDbAlignedDimension
 13
-68.24716721960552
 23
13.76799274326417
 33
0.0
 14
0.002832780394499
 24
21.98979146196418
 34
0.0
100
AcDbRotatedDimension
  0
DIMENSION
  5
1DAD
330
21F5
100
AcDbEntity
  8
2
  6
Continuous
 62
     7
100
AcDbDimension
  2
*D52
 10
69.99783278039456
 20
54.82226318116418
 30
0.0
 11
33.27811767679449
 21
54.82226318116418
 31
0.0
 70
   160
  1
70
 71
     5
 42
69.99500000000006
  3
STANDARD
100
AcDbAlignedDimension
 13
0.002832780394499
 23
21.98979146196418
 33
0.0
 14
69.99783278039456
 24
15.49611656336418
 34
0.0
100
AcDbRotatedDimension
  0
LINE
  5
1DB1
330
21F5
100
AcDbEntity
  8
1
  6
Continuous
100
AcDbLine
 10
-68.24716721960552
 20
-12.27575961643582
 30
0.0
 11
-68.24716721960552
 21
12.26799274326419
 31
0.0
  0
LINE
  5
1DB2
330
21F5
100
AcDbEntity
  8
SK3
  6
DASHED
100
AcDbLine
 10
-67.14716721960552
 20
-7.50388343663581
 30
0.0
 11
-67.14716721960552
 21
7.496116563364182
 31
0.0
  0
LINE
  5
1DB3
330
21F5
100
AcDbEntity
  8
SK3
  6
DASHED
100
AcDbLine
 10
-63.46716721960551
 20
-7.144883436635808
 30
0.0
 11
-63.46716721960551
 21
7.137116563364187
 31
0.0
  0
LINE
  5
1DB4
330
21F5
100
AcDbEntity
  8
SK3
  6
DASHED
100
AcDbLine
 10
-61.89716721960552
 20
-6.933883436635809
 30
0.0
 11
-61.89716721960552
 21
6.926116563364189
 31
0.0
  0
LINE
  5
1DB6
330
21F5
100
AcDbEntity
  8
SK3
  6
DASHED
100
AcDbLine
 10
-63.2914312884056
 20
8.320380632164187
 30
0.0
 11
-61.89716721960552
 21
6.926116563364189
 31
0.0
  0
LINE
  5
1DB7
330
21F5
100
AcDbEntity
  8
1
  6
Continuous
100
AcDbLine
 10
3.977832780394379
 20
-31.77888343663581
 30
0.0
 11
7.566562381594565
 21
-31.77888343663581
 31
0.0
  0
LINE
  5
1DB8
330
21F5
100
AcDbEntity
  8
1
  6
Continuous
100
AcDbLine
 10
14.63910317909449
 20
-31.77888343663581
 30
0.0
 11
18.35283278029439
 21
-31.77888343663581
 31
0.0
  0
LINE
  5
1DB9
330
21F5
100
AcDbEntity
  8
1
  6
Continuous
100
AcDbLine
 10
13.02033278039451
 20
-28.30388343663582
 30
0.0
 11
9.185332780394503
 21
-28.30388343663582
 31
0.0
  0
LINE
  5
1DBA
330
21F5
100
AcDbEntity
  8
1
  6
Continuous
100
AcDbLine
 10
-0.5192419796055106
 20
-22.15274754313582
 30
0.0
 11
0.3756662327946003
 21
-21.91295761033581
 31
0.0
  0
LINE
  5
1DBB
330
21F5
100
AcDbEntity
  8
1
  6
Continuous
100
AcDbLine
 10
-0.6192419796054196
 20
-22.15274754313582
 30
0.0
 11
-0.5192419796055106
 21
-22.15274754313582
 31
0.0
  0
LINE
  5
1DBC
330
21F5
100
AcDbEntity
  8
1
  6
Continuous
100
AcDbLine
 10
0.6344852778944983
 20
-21.87888343663581
 30
0.0
 11
2.227832780394379
 21
-21.87888343663581
 31
0.0
  0
LINE
  5
1DBD
330
21F5
100
AcDbEntity
  8
1
  6
Continuous
100
AcDbLine
 10
36.25983278039459
 20
-21.00388343663581
 30
0.0
 11
20.30283278029461
 21
-21.00388343663581
 31
0.0
  0
LINE
  5
1DBE
330
21F5
100
AcDbEntity
  8
1
  6
Continuous
100
AcDbLine
 10
51.49783278039459
 20
-21.00388343663581
 30
0.0
 11
65.95683278039459
 21
-21.00388343663581
 31
0.0
  0
LINE
  5
1DBF
330
21F5
100
AcDbEntity
  8
1
  6
Continuous
100
AcDbLine
 10
-68.24716721960552
 20
-12.27575961643582
 30
0.0
 11
-0.5192419796055106
 21
-22.15274754313582
 31
0.0
  0
LINE
  5
1DC0
330
21F5
100
AcDbEntity
  8
SK3
  6
DASHED
100
AcDbLine
 10
-68.04716721960542
 20
9.015731805664174
 30
0.0
 11
-67.2399875427055
 21
8.54970640186417
 31
0.0
  0
LINE
  5
1DC1
330
21F5
100
AcDbEntity
  8
SK3
  6
DASHED
100
AcDbLine
 10
-33.24716721960553
 20
-7.94138343663581
 30
0.0
 11
-33.24716721960553
 21
7.933616563364168
 31
0.0
  0
LINE
  5
1DC2
330
21F5
100
AcDbEntity
  8
SK3
  6
DASHED
100
AcDbLine
 10
-61.89716721960552
 20
-6.933883436635809
 30
0.0
 11
-63.2914312884056
 21
-8.328147505335802
 31
0.0
  0
LINE
  5
1DC3
330
21F5
100
AcDbEntity
  8
1
  6
Continuous
100
AcDbLine
 10
51.99783278039459
 20
-19.50388343663581
 30
0.0
 11
66.82283278029458
 21
-19.50388343663581
 31
0.0
  0
LINE
  5
1DC4
330
21F5
100
AcDbEntity
  8
1
  6
Continuous
100
AcDbLine
 10
61.99783278039459
 20
-16.90588343663581
 30
0.0
 11
67.6888327802946
 21
-16.90588343663581
 31
0.0
  0
LINE
  5
1DC5
330
21F5
100
AcDbEntity
  8
1
  6
Continuous
100
AcDbLine
 10
51.99783278039459
 20
-16.50388343663581
 30
0.0
 11
67.6888327802946
 21
-16.50388343663581
 31
0.0
  0
LINE
  5
1DC6
330
21F5
100
AcDbEntity
  8
1
  6
Continuous
100
AcDbLine
 10
49.99783278039458
 20
-16.00388343663581
 30
0.0
 11
42.91683278039457
 21
-16.00388343663581
 31
0.0
  0
LINE
  5
1DC7
330
21F5
100
AcDbEntity
  8
1
  6
Continuous
100
AcDbLine
 10
44.00283278039458
 20
-15.08388343663581
 30
0.0
 11
49.99783278039458
 21
-15.08388343663581
 31
0.0
  0
LINE
  5
1DC8
330
21F5
100
AcDbEntity
  8
SK3
  6
DASHED
100
AcDbLine
 10
-25.49542783540551
 20
-6.933883436635809
 30
0.0
 11
-25.49542783540551
 21
6.926116563364189
 31
0.0
  0
LINE
  5
1DC9
330
21F5
100
AcDbEntity
  8
SK3
  6
DASHED
100
AcDbLine
 10
-25.24716721960553
 20
-6.50388343663581
 30
0.0
 11
-25.24716721960553
 21
6.496116563364168
 31
0.0
  0
LINE
  5
1DCA
330
21F5
100
AcDbEntity
  8
SK3
  6
DASHED
100
AcDbLine
 10
8.002832780394584
 20
-9.002883436635809
 30
0.0
 11
33.09883278039459
 21
-9.002883436635809
 31
0.0
  0
LINE
  5
1DCB
330
21F5
100
AcDbEntity
  8
SK3
  6
DASHED
100
AcDbLine
 10
-67.03998754270552
 20
-8.50388343663581
 30
0.0
 11
-63.71569535710552
 21
-8.50388343663581
 31
0.0
  0
LINE
  5
1DCC
330
21F5
100
AcDbEntity
  8
1
  6
Continuous
100
AcDbLine
 10
19.10283278039458
 20
-8.19588343663581
 30
0.0
 11
4.227832780394379
 21
-8.19588343663581
 31
0.0
  0
LINE
  5
1DCD
330
21F5
100
AcDbEntity
  8
SK3
  6
DASHED
100
AcDbLine
 10
-25.24716721960553
 20
6.496116563364168
 30
0.0
 11
-25.49542783540551
 21
6.926116563364189
 31
0.0
  0
LINE
  5
1DCE
330
21F5
100
AcDbEntity
  8
SK3
  6
DASHED
100
AcDbLine
 10
-68.04716721960542
 20
-9.023498678835803
 30
0.0
 11
-67.2399875427055
 21
-8.55747327503581
 31
0.0
  0
LINE
  5
1DCF
330
21F5
100
AcDbEntity
  8
SK3
  6
DASHED
100
AcDbLine
 10
-62.90466721960552
 20
-7.94138343663581
 30
0.0
 11
-33.24716721960553
 21
-7.94138343663581
 31
0.0
  0
LINE
  5
1DD0
330
21F5
100
AcDbEntity
  8
SK3
  6
DASHED
100
AcDbLine
 10
-61.89716721960552
 20
-6.933883436635809
 30
0.0
 11
-25.49542783540551
 21
-6.933883436635809
 31
0.0
  0
LINE
  5
1DD1
330
21F5
100
AcDbEntity
  8
SK3
  6
DASHED
100
AcDbLine
 10
6.560034457594412
 20
-6.50388343663581
 30
0.0
 11
-25.24716721960553
 21
-6.50388343663581
 31
0.0
  0
LINE
  5
1DD2
330
21F5
100
AcDbEntity
  8
1
  6
Continuous
100
AcDbLine
 10
51.99783278039459
 20
-3.00388343663581
 30
0.0
 11
67.6888327802946
 21
-3.00388343663581
 31
0.0
  0
LINE
  5
1DD3
330
21F5
100
AcDbEntity
  8
SK3
  6
DASHED
100
AcDbLine
 10
33.09883278039459
 20
-9.002883436635809
 30
0.0
 11
58.00283278039458
 21
-12.50315880123581
 31
0.0
  0
LINE
  5
1DD4
330
21F5
100
AcDbEntity
  8
SK3
  6
DASHED
100
AcDbLine
 10
-25.49542783540551
 20
-6.933883436635809
 30
0.0
 11
-25.24716721960553
 21
-6.50388343663581
 31
0.0
  0
LINE
  5
1DD5
330
21F5
100
AcDbEntity
  8
SK3
  6
DASHED
100
AcDbLine
 10
33.09883278039459
 20
8.995116563364156
 30
0.0
 11
58.00283278039458
 21
12.49539192806419
 31
0.0
  0
LINE
  5
1DD8
330
21F5
100
AcDbEntity
  8
1
  6
Continuous
100
AcDbLine
 10
67.6888327802946
 20
2.996116563364189
 30
0.0
 11
51.99783278039459
 21
2.996116563364189
 31
0.0
  0
LINE
  5
1DD9
330
21F5
100
AcDbEntity
  8
SK3
  6
DASHED
100
AcDbLine
 10
-25.24716721960553
 20
6.496116563364168
 30
0.0
 11
6.560034457594412
 21
6.496116563364168
 31
0.0
  0
LINE
  5
1DDA
330
21F5
100
AcDbEntity
  8
SK3
  6
DASHED
100
AcDbLine
 10
-25.49542783540551
 20
6.926116563364189
 30
0.0
 11
-61.89716721960552
 21
6.926116563364189
 31
0.0
  0
LINE
  5
1DDB
330
21F5
100
AcDbEntity
  8
SK3
  6
DASHED
100
AcDbLine
 10
-33.24716721960553
 20
7.933616563364168
 30
0.0
 11
-62.90466721960552
 21
7.933616563364168
 31
0.0
  0
LINE
  5
1DDC
330
21F5
100
AcDbEntity
  8
1
  6
Continuous
100
AcDbLine
 10
19.10283278039458
 20
8.188116563364182
 30
0.0
 11
4.227832780394379
 21
8.188116563364182
 31
0.0
  0
LINE
  5
1DDD
330
21F5
100
AcDbEntity
  8
SK3
  6
DASHED
100
AcDbLine
 10
-63.71569535710552
 20
8.496116563364182
 30
0.0
 11
-67.03998754270552
 21
8.496116563364182
 31
0.0
  0
LINE
  5
1DDE
330
21F5
100
AcDbEntity
  8
SK3
  6
DASHED
100
AcDbLine
 10
8.002832780394584
 20
8.995116563364156
 30
0.0
 11
33.09883278039459
 21
8.995116563364156
 31
0.0
  0
LINE
  5
1DDF
330
21F5
100
AcDbEntity
  8
1
  6
Continuous
100
AcDbLine
 10
14.63910317909449
 20
-31.77888343663581
 30
0.0
 11
13.02033278039451
 21
-28.97509086013581
 31
0.0
  0
LINE
  5
1DE0
330
21F5
100
AcDbEntity
  8
1
  6
Continuous
100
AcDbLine
 10
-0.5192419796055106
 20
-22.15274754313582
 30
0.0
 11
-0.5192419796055106
 21
22.14498066996419
 31
0.0
  0
LINE
  5
1DE1
330
21F5
100
AcDbEntity
  8
SK4
  6
CENTER
100
AcDbLine
 10
0.002832780394499
 20
-23.23946117043581
 30
0.0
 11
0.002832780394499
 21
23.23169429726418
 31
0.0
  0
LINE
  5
1DE2
330
21F5
100
AcDbEntity
  8
1
  6
Continuous
100
AcDbLine
 10
0.5028327803945843
 20
-20.87888343663581
 30
0.0
 11
0.5028327803945843
 21
20.87111656336419
 31
0.0
  0
LINE
  5
1DE3
330
21F5
100
AcDbEntity
  8
1
  6
Continuous
100
AcDbLine
 10
13.02033278039451
 20
28.96732398696417
 30
0.0
 11
14.63910317909449
 21
31.77111656336418
 31
0.0
  0
LINE
  5
1DE4
330
21F5
100
AcDbEntity
  8
1
  6
Continuous
100
AcDbLine
 10
44.00283278039458
 20
15.07611656336418
 30
0.0
 11
49.99783278039458
 21
15.07611656336418
 31
0.0
  0
LINE
  5
1DE5
330
21F5
100
AcDbEntity
  8
1
  6
Continuous
100
AcDbLine
 10
49.99783278039458
 20
15.99611656336419
 30
0.0
 11
42.91683278039457
 21
15.99611656336419
 31
0.0
  0
LINE
  5
1DE6
330
21F5
100
AcDbEntity
  8
1
  6
Continuous
100
AcDbLine
 10
51.99783278039459
 20
16.49611656336419
 30
0.0
 11
67.6888327802946
 21
16.49611656336419
 31
0.0
  0
LINE
  5
1DE7
330
21F5
100
AcDbEntity
  8
1
  6
Continuous
100
AcDbLine
 10
3.227832780394379
 20
9.188116563364168
 30
0.0
 11
4.227832780394379
 21
8.188116563364182
 31
0.0
  0
LINE
  5
1DE8
330
21F5
100
AcDbEntity
  8
SK3
  6
DASHED
100
AcDbLine
 10
8.002832780394584
 20
-9.002883436635809
 30
0.0
 11
6.560034457594412
 21
-6.50388343663581
 31
0.0
  0
LINE
  5
1DE9
330
21F5
100
AcDbEntity
  8
1
  6
Continuous
100
AcDbLine
 10
3.227832780394379
 20
-31.02888343663581
 30
0.0
 11
3.227832780394379
 21
31.02111656336418
 31
0.0
  0
LINE
  5
1DEA
330
21F5
100
AcDbEntity
  8
SK3
  6
DASHED
100
AcDbLine
 10
6.560034457594412
 20
-6.50388343663581
 30
0.0
 11
6.560034457594412
 21
6.496116563364168
 31
0.0
  0
LINE
  5
1DEB
330
21F5
100
AcDbEntity
  8
1
  6
Continuous
100
AcDbLine
 10
7.566562381594565
 20
8.188116563364182
 30
0.0
 11
7.566562381594565
 21
31.77111656336418
 31
0.0
  0
LINE
  5
1DEC
330
21F5
100
AcDbEntity
  8
1
  6
Continuous
100
AcDbLine
 10
7.576666011294491
 20
-8.19588343663581
 30
0.0
 11
7.576666011294491
 21
-31.77888343663581
 31
0.0
  0
LINE
  5
1DED
330
21F5
100
AcDbEntity
  8
SK3
  6
DASHED
100
AcDbLine
 10
8.002832780394584
 20
8.995116563364156
 30
0.0
 11
8.002832780394584
 21
-9.002883436635809
 31
0.0
  0
LINE
  5
1DEE
330
21F5
100
AcDbEntity
  8
1
  6
Continuous
100
AcDbLine
 10
9.185332780394503
 20
28.96732398696417
 30
0.0
 11
9.185332780394503
 21
8.188116563364182
 31
0.0
  0
LINE
  5
1DEF
330
21F5
100
AcDbEntity
  8
1
  6
Continuous
100
AcDbLine
 10
9.185332780394503
 20
-8.19588343663581
 30
0.0
 11
9.185332780394503
 21
-28.97509086013581
 31
0.0
  0
LINE
  5
1DF0
330
21F5
100
AcDbEntity
  8
SK3
  6
DASHED
100
AcDbLine
 10
6.560034457594412
 20
6.496116563364168
 30
0.0
 11
8.002832780394584
 21
8.995116563364156
 31
0.0
  0
LINE
  5
1DF1
330
21F5
100
AcDbEntity
  8
1
  6
Continuous
100
AcDbLine
 10
-68.24716721960552
 20
12.26799274326419
 30
0.0
 11
-0.5192419796055106
 21
22.14498066996419
 31
0.0
  0
LINE
  5
1DF2
330
21F5
100
AcDbEntity
  8
1
  6
Continuous
100
AcDbLine
 10
61.99783278039459
 20
16.89811656336418
 30
0.0
 11
67.6888327802946
 21
16.89811656336418
 31
0.0
  0
LINE
  5
1DF3
330
21F5
100
AcDbEntity
  8
1
  6
Continuous
100
AcDbLine
 10
51.99783278039459
 20
19.49611656336419
 30
0.0
 11
66.82283278029458
 21
19.49611656336419
 31
0.0
  0
LINE
  5
1DF4
330
21F5
100
AcDbEntity
  8
1
  6
Continuous
100
AcDbLine
 10
65.95683278039459
 20
20.99611656336419
 30
0.0
 11
51.49783278039459
 21
20.99611656336419
 31
0.0
  0
LINE
  5
1DF5
330
21F5
100
AcDbEntity
  8
1
  6
Continuous
100
AcDbLine
 10
36.25983278039459
 20
20.99611656336419
 30
0.0
 11
20.30283278029461
 21
20.99611656336419
 31
0.0
  0
LINE
  5
1DF6
330
21F5
100
AcDbEntity
  8
1
  6
Continuous
100
AcDbLine
 10
2.227832780394379
 20
21.87111656336419
 30
0.0
 11
0.6344852778944983
 21
21.87111656336419
 31
0.0
  0
LINE
  5
1DF7
330
21F5
100
AcDbEntity
  8
1
  6
Continuous
100
AcDbLine
 10
-0.5192419796055106
 20
22.14498066996419
 30
0.0
 11
-0.6192419796054196
 21
22.14498066996419
 31
0.0
  0
LINE
  5
1DF8
330
21F5
100
AcDbEntity
  8
1
  6
Continuous
100
AcDbLine
 10
0.3756662327946003
 20
21.90519073716419
 30
0.0
 11
-0.5192419796055106
 21
22.14498066996419
 31
0.0
  0
LINE
  5
1DF9
330
21F5
100
AcDbEntity
  8
SK4
  6
CENTER
100
AcDbLine
 10
11.10283278039438
 20
36.84611656336418
 30
0.0
 11
11.10283278039438
 21
28.54011656336418
 31
0.0
  0
LINE
  5
1DFA
330
21F5
100
AcDbEntity
  8
SK4
  6
CENTER
100
AcDbLine
 10
11.10283278039438
 20
-27.25388343663582
 30
0.0
 11
11.10283278039438
 21
28.29611656336418
 31
0.0
  0
LINE
  5
1DFB
330
21F5
100
AcDbEntity
  8
1
  6
Continuous
100
AcDbLine
 10
13.02033278039451
 20
28.96732398696417
 30
0.0
 11
13.02033278039451
 21
8.188116563364182
 31
0.0
  0
LINE
  5
1DFC
330
21F5
100
AcDbEntity
  8
1
  6
Continuous
100
AcDbLine
 10
13.02033278039451
 20
-8.19588343663581
 30
0.0
 11
13.02033278039451
 21
-28.97509086013581
 31
0.0
  0
LINE
  5
1DFD
330
21F5
100
AcDbEntity
  8
1
  6
Continuous
100
AcDbLine
 10
14.62899954939459
 20
-8.19588343663581
 30
0.0
 11
14.62899954939459
 21
-31.77888343663581
 31
0.0
  0
LINE
  5
1DFE
330
21F5
100
AcDbEntity
  8
1
  6
Continuous
100
AcDbLine
 10
14.63910317909449
 20
8.188116563364182
 30
0.0
 11
14.63910317909449
 21
31.77111656336418
 31
0.0
  0
LINE
  5
1DFF
330
21F5
100
AcDbEntity
  8
1
  6
Continuous
100
AcDbLine
 10
3.227832780394379
 20
-9.19588343663581
 30
0.0
 11
4.227832780394379
 21
-8.19588343663581
 31
0.0
  0
LINE
  5
1E00
330
21F5
100
AcDbEntity
  8
1
  6
Continuous
100
AcDbLine
 10
9.185332780394503
 20
28.29611656336418
 30
0.0
 11
13.02033278039451
 21
28.29611656336418
 31
0.0
  0
LINE
  5
1E01
330
21F5
100
AcDbEntity
  8
1
  6
Continuous
100
AcDbLine
 10
19.10283278039458
 20
-31.02888343663581
 30
0.0
 11
19.10283278039458
 21
31.02111656336418
 31
0.0
  0
LINE
  5
1E02
330
21F5
100
AcDbEntity
  8
1
  6
Continuous
100
AcDbLine
 10
18.35283278029439
 20
31.77111656336418
 30
0.0
 11
14.63910317909449
 21
31.77111656336418
 31
0.0
  0
LINE
  5
1E03
330
21F5
100
AcDbEntity
  8
1
  6
Continuous
100
AcDbLine
 10
7.566562381594565
 20
31.77111656336418
 30
0.0
 11
3.977832780394379
 21
31.77111656336418
 31
0.0
  0
LINE
  5
1E04
330
21F5
100
AcDbEntity
  8
1
  6
Continuous
100
AcDbLine
 10
9.185332780394503
 20
28.96732398696417
 30
0.0
 11
7.566562381594565
 21
31.77111656336418
 31
0.0
  0
LINE
  5
1E05
330
21F5
100
AcDbEntity
  8
1
  6
Continuous
100
AcDbLine
 10
7.566562381594565
 20
-31.77888343663581
 30
0.0
 11
9.185332780394503
 21
-28.97509086013581
 31
0.0
  0
LINE
  5
1E06
330
21F5
100
AcDbEntity
  8
SK3
  6
DASHED
100
AcDbLine
 10
33.09883278039459
 20
-9.002883436635809
 30
0.0
 11
33.09883278039459
 21
8.995116563364156
 31
0.0
  0
LINE
  5
1E07
330
21F5
100
AcDbEntity
  8
1
  6
Continuous
100
AcDbLine
 10
42.20983278039457
 20
16.28911656336418
 30
0.0
 11
38.38183278029459
 21
20.11711656336419
 31
0.0
  0
LINE
  5
1E08
330
21F5
100
AcDbEntity
  8
1
  6
Continuous
100
AcDbLine
 10
37.50294936069457
 20
19.49596766296419
 30
0.0
 11
37.50294936069457
 21
-19.30403233703582
 31
0.0
  0
LINE
  5
1E09
330
21F5
100
AcDbEntity
  8
1
  6
Continuous
100
AcDbLine
 10
42.50265586019449
 20
14.89602810806418
 30
0.0
 11
42.50265586019449
 21
-14.80397189193582
 31
0.0
  0
LINE
  5
1E0A
330
21F5
100
AcDbEntity
  8
1
  6
Continuous
100
AcDbLine
 10
44.00283278039458
 20
-16.00388343663581
 30
0.0
 11
44.00283278039458
 21
15.99611656336419
 31
0.0
  0
LINE
  5
1E0C
330
21F5
100
AcDbEntity
  8
1
  6
Continuous
100
AcDbLine
 10
49.99783278039458
 20
19.49611656336419
 30
0.0
 11
49.99783278039458
 21
-19.50388343663581
 31
0.0
  0
LINE
  5
1E0D
330
21F5
100
AcDbEntity
  8
1
  6
Continuous
100
AcDbLine
 10
51.99783278039459
 20
19.49611656336419
 30
0.0
 11
51.99783278039459
 21
16.49611656336419
 31
0.0
  0
LINE
  5
1E0E
330
21F5
100
AcDbEntity
  8
1
  6
Continuous
100
AcDbLine
 10
51.99783278039459
 20
2.996116563364189
 30
0.0
 11
51.99783278039459
 21
-3.00388343663581
 31
0.0
  0
LINE
  5
1E0F
330
21F5
100
AcDbEntity
  8
1
  6
Continuous
100
AcDbLine
 10
51.99783278039459
 20
-19.50388343663581
 30
0.0
 11
51.99783278039459
 21
-16.50388343663581
 31
0.0
  0
LINE
  5
1E10
330
21F5
100
AcDbEntity
  8
1
  6
Continuous
100
AcDbLine
 10
42.20983278039457
 20
-16.29688343663581
 30
0.0
 11
38.38183278029459
 21
-20.12488343663582
 31
0.0
  0
LINE
  5
1E11
330
21F5
100
AcDbEntity
  8
SK3
  6
DASHED
100
AcDbLine
 10
58.00283278039458
 20
-21.00388343663581
 30
0.0
 11
58.00283278039458
 21
20.99611656336419
 31
0.0
  0
LINE
  5
1E12
330
21F5
100
AcDbEntity
  8
1
  6
Continuous
100
AcDbLine
 10
69.99783278039456
 20
13.99611656336419
 30
0.0
 11
65.95683278039459
 21
20.99611656336419
 31
0.0
  0
LINE
  5
1E13
330
21F5
100
AcDbEntity
  8
1
  6
Continuous
100
AcDbLine
 10
65.95683278039459
 20
20.99611656336419
 30
0.0
 11
65.95683278039459
 21
19.49611656336419
 31
0.0
  0
LINE
  5
1E14
330
21F5
100
AcDbEntity
  8
1
  6
Continuous
100
AcDbLine
 10
65.95683278039459
 20
16.49611656336419
 30
0.0
 11
65.95683278039459
 21
2.996116563364189
 31
0.0
  0
LINE
  5
1E15
330
21F5
100
AcDbEntity
  8
1
  6
Continuous
100
AcDbLine
 10
65.95683278039459
 20
-3.00388343663581
 30
0.0
 11
65.95683278039459
 21
-16.50388343663581
 31
0.0
  0
LINE
  5
1E16
330
21F5
100
AcDbEntity
  8
1
  6
Continuous
100
AcDbLine
 10
65.95683278039459
 20
-19.50388343663581
 30
0.0
 11
65.95683278039459
 21
-21.00388343663581
 31
0.0
  0
LINE
  5
1E17
330
21F5
100
AcDbEntity
  8
1
  6
Continuous
100
AcDbLine
 10
67.6888327802946
 20
-16.50388343663581
 30
0.0
 11
67.6888327802946
 21
-18.00388343663581
 31
0.0
  0
LINE
  5
1E18
330
21F5
100
AcDbEntity
  8
1
  6
Continuous
100
AcDbLine
 10
67.6888327802946
 20
-3.00388343663581
 30
0.0
 11
67.6888327802946
 21
2.996116563364189
 31
0.0
  0
LINE
  5
1E19
330
21F5
100
AcDbEntity
  8
1
  6
Continuous
100
AcDbLine
 10
67.6888327802946
 20
16.49611656336419
 30
0.0
 11
67.6888327802946
 21
17.99611656336419
 31
0.0
  0
LINE
  5
1E1A
330
21F5
100
AcDbEntity
  8
1
  6
Continuous
100
AcDbLine
 10
69.99783278039456
 20
-14.00388343663581
 30
0.0
 11
69.99783278039456
 21
13.99611656336419
 31
0.0
  0
LINE
  5
1E1B
330
21F5
100
AcDbEntity
  8
1
  6
Continuous
100
AcDbLine
 10
65.95683278039459
 20
-21.00388343663581
 30
0.0
 11
69.99783278039456
 21
-14.00388343663581
 31
0.0
  0
ARC
  5
1E1D
330
21F5
100
AcDbEntity
  8
1
  6
Continuous
100
AcDbCircle
 10
61.3018327802946
 20
34.76511656336418
 30
0.0
 40
17.88
100
AcDbArc
 50
238.6444240000002
 51
272.230803999999
  0
ARC
  5
1E1E
330
21F5
100
AcDbEntity
  8
1
  6
Continuous
100
AcDbCircle
 10
61.3018327802946
 20
-34.77288343663581
 30
0.0
 40
17.88
100
AcDbArc
 50
87.769202999999
 51
121.3555829999995
  0
CIRCLE
  5
1E1F
330
21F5
100
AcDbEntity
  8
1
  6
Continuous
100
AcDbCircle
 10
11.10283278039438
 20
-0.0038834366358103
 30
0.0
 40
5.25
  0
CIRCLE
  5
1E20
330
21F5
100
AcDbEntity
  8
1
  6
Continuous
100
AcDbCircle
 10
11.10283278039438
 20
-0.0038834366358103
 30
0.0
 40
5.0
  0
ARC
  5
1E21
330
21F5
100
AcDbEntity
  8
1
  6
Continuous
100
AcDbCircle
 10
36.26019212009448
 20
-18.00388345813581
 30
0.0
 40
3.0
100
AcDbArc
 50
269.9931371165988
 51
315.0086522439996
  0
ARC
  5
1E22
330
21F5
100
AcDbEntity
  8
1
  6
Continuous
100
AcDbCircle
 10
36.26019212009448
 20
17.99611658496419
 30
0.0
 40
3.0
100
AcDbArc
 50
44.99134775600039
 51
90.00686288340119
  0
CIRCLE
  5
1E23
330
21F5
100
AcDbEntity
  8
1
  6
Continuous
100
AcDbCircle
 10
11.10283278039438
 20
-0.0038834366358103
 30
0.0
 40
3.0
  0
ARC
  5
1E24
330
21F5
100
AcDbEntity
  8
1
  6
Continuous
100
AcDbCircle
 10
-66.24716721960552
 20
-10.54627078093581
 30
0.0
 40
2.0
100
AcDbArc
 50
180.0
 51
261.7028559999988
  0
ARC
  5
1E25
330
21F5
100
AcDbEntity
  8
1
  6
Continuous
100
AcDbCircle
 10
-66.24716721960552
 20
10.53850390766418
 30
0.0
 40
2.0
100
AcDbArc
 50
98.29714399999957
 51
180.0
  0
ARC
  5
1E26
330
21F5
100
AcDbEntity
  8
1
  6
Continuous
100
AcDbCircle
 10
51.49783278039459
 20
19.49611656336419
 30
0.0
 40
1.5
100
AcDbArc
 50
90.0
 51
180.0
  0
ARC
  5
1E27
330
21F5
100
AcDbEntity
  8
1
  6
Continuous
100
AcDbCircle
 10
51.49783278039459
 20
-19.50388343663581
 30
0.0
 40
1.5
100
AcDbArc
 50
179.9999849999999
 51
269.9999689999988
  0
ARC
  5
1E28
330
21F5
100
AcDbEntity
  8
1
  6
Continuous
100
AcDbCircle
 10
20.30283278029461
 20
-22.20388343663581
 30
0.0
 40
1.199999999999999
100
AcDbArc
 50
90.0
 51
180.0
  0
ARC
  5
1E29
330
21F5
100
AcDbEntity
  8
1
  6
Continuous
100
AcDbCircle
 10
20.30283278029461
 20
22.19611656336417
 30
0.0
 40
1.199999999999999
100
AcDbArc
 50
180.0
 51
270.0
  0
ARC
  5
1E2A
330
21F5
100
AcDbEntity
  8
1
  6
Continuous
100
AcDbCircle
 10
42.91704634939458
 20
-17.00388341373581
 30
0.0
 40
1.0
100
AcDbArc
 50
90.01223660520002
 51
135.0086535105003
  0
ARC
  5
1E2B
330
21F5
100
AcDbEntity
  8
1
  6
Continuous
100
AcDbCircle
 10
42.91704634939458
 20
16.99611654056418
 30
0.0
 40
1.0
100
AcDbArc
 50
224.9913464894996
 51
269.9877633948
  0
ARC
  5
1E2C
330
21F5
100
AcDbEntity
  8
1
  6
Continuous
100
AcDbCircle
 10
2.227832780394379
 20
22.87111656336419
 30
0.0
 40
1.0
100
AcDbArc
 50
270.0
 51
0.0
  0
ARC
  5
1E2D
330
21F5
100
AcDbEntity
  8
1
  6
Continuous
100
AcDbCircle
 10
2.227832780394379
 20
-22.87888343663581
 30
0.0
 40
1.0
100
AcDbArc
 50
0.0
 51
90.0
  0
ARC
  5
1E2E
330
21F5
100
AcDbEntity
  8
1
  6
Continuous
100
AcDbCircle
 10
0.6344852778944983
 20
22.87111656336419
 30
0.0
 40
1.0
100
AcDbArc
 50
255.0000000000004
 51
270.0
  0
ARC
  5
1E2F
330
21F5
100
AcDbEntity
  8
1
  6
Continuous
100
AcDbCircle
 10
0.6344852778944983
 20
-22.87888343663581
 30
0.0
 40
1.0
100
AcDbArc
 50
90.0
 51
104.9999999999995
  0
ARC
  5
1E30
330
21F5
100
AcDbEntity
  8
1
  6
Continuous
100
AcDbCircle
 10
3.977832780394379
 20
-31.02888343663581
 30
0.0
 40
0.75
100
AcDbArc
 50
180.0
 51
270.0
  0
ARC
  5
1E31
330
21F5
100
AcDbEntity
  8
1
  6
Continuous
100
AcDbCircle
 10
18.35283278029439
 20
-31.02888343663581
 30
0.0
 40
0.75
100
AcDbArc
 50
270.0
 51
0.0
  0
ARC
  5
1E32
330
21F5
100
AcDbEntity
  8
1
  6
Continuous
100
AcDbCircle
 10
3.977832780394379
 20
31.02111656336418
 30
0.0
 40
0.75
100
AcDbArc
 50
90.0
 51
180.0
  0
ARC
  5
1E33
330
21F5
100
AcDbEntity
  8
1
  6
Continuous
100
AcDbCircle
 10
18.35283278029439
 20
31.02111656336418
 30
0.0
 40
0.75
100
AcDbArc
 50
0.0
 51
90.0
  0
ARC
  5
1E34
330
21F5
100
AcDbEntity
  8
SK3
  6
DASHED
100
AcDbCircle
 10
-63.71569535710552
 20
-7.903883436635808
 30
0.0
 40
0.6
100
AcDbArc
 50
270.0000000000994
 51
315.0000000000003
  0
ARC
  5
1E35
330
21F5
100
AcDbEntity
  8
SK3
  6
DASHED
100
AcDbCircle
 10
-63.71569535710552
 20
7.896116563364188
 30
0.0
 40
0.6
100
AcDbArc
 50
44.99999999999963
 51
90.0
  0
ARC
  5
1E36
330
21F5
100
AcDbEntity
  8
SK3
  6
DASHED
100
AcDbCircle
 10
-67.84716721960542
 20
-9.369908840335806
 30
0.0
 40
0.4
100
AcDbArc
 50
120.0
 51
180.0
  0
ARC
  5
1E37
330
21F5
100
AcDbEntity
  8
SK3
  6
DASHED
100
AcDbCircle
 10
-67.03998754270552
 20
-8.903883436635808
 30
0.0
 40
0.4
100
AcDbArc
 50
90.0
 51
120.0
  0
ARC
  5
1E38
330
21F5
100
AcDbEntity
  8
SK3
  6
DASHED
100
AcDbCircle
 10
-67.03998754270552
 20
8.896116563364188
 30
0.0
 40
0.4
100
AcDbArc
 50
239.9999999999999
 51
270.0
  0
ARC
  5
1E39
330
21F5
100
AcDbEntity
  8
SK3
  6
DASHED
100
AcDbCircle
 10
-67.84716721960542
 20
9.362141967164184
 30
0.0
 40
0.4
100
AcDbArc
 50
180.0
 51
239.9999999999003
  0
TEXT
  5
1ED4
330
21F5
100
AcDbEntity
  8
SK6
100
AcDbText
 10
-53.70301970343581
 20
-39.37603672398623
 30
0.0
 40
3.5
  1
AA3B14-40 25 070
 41
0.72
  7
TEXTSTYLE_2
100
AcDbText
  0
TEXT
  5
1EDA
330
21F5
100
AcDbEntity
  8
SK6
100
AcDbText
 10
-44.03885044985694
 20
11.42622180817545
 30
0.0
 40
3.5
  1
ASME B5.50 CAT40
 41
0.72
  7
TEXTSTYLE_2
100
AcDbText
  0
POINT
  5
1F76
330
21F5
100
AcDbEntity
  8
81
  6
CENTER
100
AcDbPoint
 10
69.99783278039456
 20
-0.0038834366358103
 30
0.0
1001
ACDBBLOCKREPETAG
1070
     1
1071
      156
1005
1F76
  0
LINE
  5
1F77
330
21F5
100
AcDbEntity
  8
81
100
AcDbLine
 10
58.3428327803945
 20
-0.0038834366358103
 30
0.0
 11
68.3428327803945
 21
-0.0038834366358103
 31
0.0
1001
ACDBBLOCKREPETAG
1070
     1
1071
      157
1005
1F77
  0
POINT
  5
1F78
330
21F5
100
AcDbEntity
  8
80
  6
CENTER
100
AcDbPoint
 10
0.002832780394499
 20
-0.0038834366358103
 30
0.0
1001
ACDBBLOCKREPETAG
1070
     1
1071
      158
1005
1F78
  0
LINE
  5
1F79
330
21F5
100
AcDbEntity
  8
80
100
AcDbLine
 10
0.002832780394499
 20
-0.0038834366358103
 30
0.0
 11
-9.997156262168601
 21
-0.0038834366358103
 31
0.0
1001
ACDBBLOCKREPETAG
1070
     1
1071
      159
1005
1F79
  0
LINE
  5
1F89
330
21F5
100
AcDbEntity
  8
4
100
AcDbLine
 10
-70.54716721960551
 20
-0.0038834366358103
 30
0.0
 11
74.32808942309446
 21
-0.0038834366358103
 31
0.0
  0
LINE
  5
1F8A
330
21F5
100
AcDbEntity
  8
SK4
100
AcDbLine
 10
-70.54716721960551
 20
-0.0038834366358103
 30
0.0
 11
74.32808942309446
 21
-0.0038834366358103
 31
0.0
  0
DIMENSION
  5
22F0
330
21F5
100
AcDbEntity
  8
2
 62
     7
100
AcDbDimension
  2
*D54
 10
0.0028327803944963
 20
-43.87853863465306
 30
0.0
 11
29.1728327803945
 21
-42.03853863465305
 31
0.0
 70
    32
 71
     5
 42
58.34
  3
STANDARD
100
AcDbAlignedDimension
 13
58.3428327803945
 23
-0.0038834366358103
 33
0.0
 14
0.002832780394499
 24
-0.0038834366358103
 34
0.0
100
AcDbRotatedDimension
1001
ACAD
1000
DSTYLE
1002
{
1070
   147
1040
0.09
1070
    72
1070
     0
1070
    71
1070
     0
1002
}
  0
VIEWPORT
  5
19A4
102
{ACAD_XDICTIONARY
360
2464
102
}
330
21F1
100
AcDbEntity
 67
     1
  8
0
100
AcDbViewport
 10
5.656249879852054
 20
3.940416471226006
 30
0.0
 40
20.37689369710756
 41
8.742606248029574
 68
     1
 69
     1
 12
5.656249879852054
 22
3.940416471226006
 13
0.0
 23
0.0
 14
10.0
 24
10.0
 15
10.0
 25
10.0
 16
0.0
 26
0.0
 36
1.0
 17
0.0
 27
0.0
 37
0.0
 42
50.0
 43
0.0
 44
0.0
 45
8.742606248029574
 50
0.0
 51
0.0
 72
   100
 90
   819232
  1

281
     0
 71
     0
 74
     0
110
0.0
120
0.0
130
0.0
111
1.0
121
0.0
131
0.0
112
0.0
122
1.0
132
0.0
 79
     0
146
0.0
  0
VIEWPORT
  5
19A9
102
{ACAD_XDICTIONARY
360
2466
102
}
330
21F1
100
AcDbEntity
 67
     1
  8
0
100
AcDbViewport
 10
5.655416503665952
 20
3.942916900154171
 30
0.0
 40
9.048666405865523
 41
6.308667040246676
 68
     2
 69
     2
 12
-0.1538021399398133
 22
7.989341809812112
 13
0.0
 23
0.0
 14
10.0
 24
10.0
 15
10.0
 25
10.0
 16
0.0
 26
0.0
 36
1.0
 17
0.0
 27
0.0
 37
0.0
 42
50.0
 43
0.0
 44
0.0
 45
106.374553117978
 50
0.0
 51
0.0
 72
   100
 90
   819232
  1

281
     0
 71
     0
 74
     0
110
0.0
120
0.0
130
0.0
111
1.0
121
0.0
131
0.0
112
0.0
122
1.0
132
0.0
 79
     0
146
0.0
  0
ENDSEC
  0
SECTION
  2
OBJECTS
  0
DICTIONARY
  5
218B
330
0
100
AcDbDictionary
281
     1
  3
ACAD_COLOR
350
21EC
  3
ACAD_GROUP
350
218C
  3
ACAD_LAYOUT
350
21EB
  3
ACAD_MATERIAL
350
218F
  3
ACAD_MLEADERSTYLE
350
21EF
  3
ACAD_MLINESTYLE
350
21E8
  3
ACAD_PLOTSETTINGS
350
21EA
  3
ACAD_PLOTSTYLENAME
350
218D
  3
ACAD_SCALELIST
350
21BC
  3
ACAD_TABLESTYLE
350
21ED
  3
ACAD_VISUALSTYLE
350
21A8
  3
ACDB_RECOMPOSE_DATA
350
2462
  3
AcDbVariableDictionary
350
2337
  3
DWGPROPS
350
2463
  0
DICTIONARY
  5
2321
330
21DE
100
AcDbDictionary
280
     1
281
     1
  3
ADSK_XREC_LAYER_RECONCILED
360
2322
  0
DICTIONARY
  5
2323
330
21FD
100
AcDbDictionary
280
     1
281
     1
  3
ADSK_XREC_LAYER_RECONCILED
360
2324
  0
DICTIONARY
  5
2325
330
21FF
100
AcDbDictionary
280
     1
281
     1
  3
ADSK_XREC_LAYER_RECONCILED
360
2326
  0
DICTIONARY
  5
2327
330
2200
100
AcDbDictionary
280
     1
281
     1
  3
ADSK_XREC_LAYER_RECONCILED
360
2328
  0
DICTIONARY
  5
2329
330
2201
100
AcDbDictionary
280
     1
281
     1
  3
ADSK_XREC_LAYER_RECONCILED
360
232A
  0
DICTIONARY
  5
232B
330
2202
100
AcDbDictionary
280
     1
281
     1
  3
ADSK_XREC_LAYER_RECONCILED
360
232C
  0
DICTIONARY
  5
232D
330
2203
100
AcDbDictionary
280
     1
281
     1
  3
ADSK_XREC_LAYER_RECONCILED
360
232E
  0
DICTIONARY
  5
232F
330
2204
100
AcDbDictionary
280
     1
281
     1
  3
ADSK_XREC_LAYER_RECONCILED
360
2330
  0
DICTIONARY
  5
2331
330
2205
100
AcDbDictionary
280
     1
281
     1
  3
ADSK_XREC_LAYER_RECONCILED
360
2332
  0
DICTIONARY
  5
2333
330
2206
100
AcDbDictionary
280
     1
281
     1
  3
ADSK_XREC_LAYER_RECONCILED
360
2334
  0
DICTIONARY
  5
2335
330
2207
100
AcDbDictionary
280
     1
281
     1
  3
ADSK_XREC_LAYER_RECONCILED
360
2336
  0
DICTIONARY
  5
2464
330
19A4
100
AcDbDictionary
280
     1
281
     1
  3
ACAD_XREC_ROUNDTRIP
360
2465
  0
DICTIONARY
  5
2466
330
19A9
100
AcDbDictionary
280
     1
281
     1
  3
ACAD_XREC_ROUNDTRIP
360
2467
  0
DICTIONARY
  5
21EC
102
{ACAD_REACTORS
330
218B
102
}
330
218B
100
AcDbDictionary
281
     1
  0
DICTIONARY
  5
218C
102
{ACAD_REACTORS
330
218B
102
}
330
218B
100
AcDbDictionary
281
     1
  0
DICTIONARY
  5
21EB
102
{ACAD_REACTORS
330
218B
102
}
330
218B
100
AcDbDictionary
281
     1
  3
Layout1
350
21F4
  3
Model
350
21F8
  0
DICTIONARY
  5
218F
102
{ACAD_REACTORS
330
218B
102
}
330
218B
100
AcDbDictionary
281
     1
  3
ByBlock
350
2198
  3
ByLayer
350
2190
  3
Global
350
21A0
  0
DICTIONARY
  5
21EF
102
{ACAD_REACTORS
330
218B
102
}
330
218B
100
AcDbDictionary
281
     1
  3
Standard
350
21F0
  0
DICTIONARY
  5
21E8
102
{ACAD_REACTORS
330
218B
102
}
330
218B
100
AcDbDictionary
281
     1
  3
Standard
350
21E9
  0
DICTIONARY
  5
21EA
102
{ACAD_REACTORS
330
218B
102
}
330
218B
100
AcDbDictionary
281
     1
  0
ACDBDICTIONARYWDFLT
  5
218D
102
{ACAD_REACTORS
330
218B
102
}
330
218B
100
AcDbDictionary
281
     1
  3
Normal
350
218E
100
AcDbDictionaryWithDefault
340
218E
  0
DICTIONARY
  5
21BC
102
{ACAD_REACTORS
330
218B
102
}
330
218B
100
AcDbDictionary
281
     1
  3
A0
350
21BD
  3
A1
350
21BE
  3
A2
350
21BF
  3
A3
350
21C0
  3
A4
350
21C1
  3
A5
350
21C2
  3
A6
350
21C3
  3
A7
350
21C4
  3
A8
350
21C5
  3
A9
350
21C6
  3
B0
350
21C7
  3
B1
350
21C8
  3
B2
350
21C9
  3
B3
350
21CA
  3
B4
350
21CB
  3
B5
350
21CC
  3
B6
350
21CD
  3
B7
350
21CE
  3
B8
350
21CF
  3
B9
350
21D0
  3
C0
350
21D1
  3
C1
350
21D2
  3
C2
350
21D3
  3
C3
350
21D4
  3
C4
350
21D5
  3
C5
350
21D6
  3
C6
350
21D7
  3
C7
350
21D8
  3
C8
350
21D9
  3
C9
350
21DA
  3
D0
350
21DB
  3
D1
350
21DC
  3
D2
350
21DD
  0
DICTIONARY
  5
21ED
102
{ACAD_REACTORS
330
218B
102
}
330
218B
100
AcDbDictionary
281
     1
  3
Standard
350
21EE
  0
DICTIONARY
  5
21A8
102
{ACAD_REACTORS
330
218B
102
}
330
218B
100
AcDbDictionary
281
     1
  3
2dWireframe
350
21AE
  3
3D Hidden
350
21B0
  3
3dWireframe
350
21AF
  3
Basic
350
21AD
  3
Brighten
350
21B4
  3
ColorChange
350
21B8
  3
Conceptual
350
21B1
  3
Dim
350
21B3
  3
EdgeColorOff
350
21BB
  3
Facepattern
350
21B7
  3
Flat
350
21A9
  3
FlatWithEdges
350
21AA
  3
Gouraud
350
21AB
  3
GouraudWithEdges
350
21AC
  3
JitterOff
350
21B9
  3
Linepattern
350
21B6
  3
OverhangOff
350
21BA
  3
Realistic
350
21B2
  3
Thicken
350
21B5
  0
XRECORD
  5
2462
102
{ACAD_REACTORS
330
218B
102
}
330
218B
100
AcDbXrecord
280
     1
 90
        1
330
21EE
  0
DICTIONARY
  5
2337
102
{ACAD_REACTORS
330
218B
102
}
330
218B
100
AcDbDictionary
281
     1
  3
CANNOSCALE
350
233A
  3
CMLEADERSTYLE
350
2339
  3
CTABLESTYLE
350
2338
  3
DIMASSOC
350
233D
  3
INDEXCTL
350
233C
  3
SORTENTS
350
233B
  3
XCLIPFRAME
350
2460
  0
XRECORD
  5
2463
102
{ACAD_REACTORS
330
218B
102
}
330
218B
100
AcDbXrecord
280
     1
  1
DWGPROPS COOKIE
  2

  3

  4

  6

  7

  8
Konstruktion
  9

300
=
301
=
302
=
303
=
304
=
305
=
306
=
307
=
308
=
309
=
 40
0.1650651041666667
 41
2455672.497120949
 42
2457718.715127315
  1

 90
        0
  0
XRECORD
  5
2322
102
{ACAD_REACTORS
330
2321
102
}
330
2321
100
AcDbXrecord
280
     1
290
     1
  0
XRECORD
  5
2324
102
{ACAD_REACTORS
330
2323
102
}
330
2323
100
AcDbXrecord
280
     1
290
     1
  0
XRECORD
  5
2326
102
{ACAD_REACTORS
330
2325
102
}
330
2325
100
AcDbXrecord
280
     1
290
     1
  0
XRECORD
  5
2328
102
{ACAD_REACTORS
330
2327
102
}
330
2327
100
AcDbXrecord
280
     1
290
     1
  0
XRECORD
  5
232A
102
{ACAD_REACTORS
330
2329
102
}
330
2329
100
AcDbXrecord
280
     1
290
     1
  0
XRECORD
  5
232C
102
{ACAD_REACTORS
330
232B
102
}
330
232B
100
AcDbXrecord
280
     1
290
     1
  0
XRECORD
  5
232E
102
{ACAD_REACTORS
330
232D
102
}
330
232D
100
AcDbXrecord
280
     1
290
     1
  0
XRECORD
  5
2330
102
{ACAD_REACTORS
330
232F
102
}
330
232F
100
AcDbXrecord
280
     1
290
     1
  0
XRECORD
  5
2332
102
{ACAD_REACTORS
330
2331
102
}
330
2331
100
AcDbXrecord
280
     1
290
     1
  0
XRECORD
  5
2334
102
{ACAD_REACTORS
330
2333
102
}
330
2333
100
AcDbXrecord
280
     1
290
     1
  0
XRECORD
  5
2336
102
{ACAD_REACTORS
330
2335
102
}
330
2335
100
AcDbXrecord
280
     1
290
     1
  0
XRECORD
  5
2465
102
{ACAD_REACTORS
330
2464
102
}
330
2464
100
AcDbXrecord
280
     1
102
SHADEPLOT
 70
     0
  0
XRECORD
  5
2467
102
{ACAD_REACTORS
330
2466
102
}
330
2466
100
AcDbXrecord
280
     1
102
SHADEPLOT
 70
     0
  0
LAYOUT
  5
21F4
102
{ACAD_XDICTIONARY
360
248F
102
}
102
{ACAD_REACTORS
330
21EB
102
}
330
21EB
100
AcDbPlotSettings
  1

  2
HP Color LaserJet 5550 PCL 6
  4

  6

 40
0.0
 41
0.0
 42
0.0
 43
0.0
 44
0.0
 45
0.0
 46
0.0
 47
0.0
 48
0.0
 49
0.0
140
0.0
141
0.0
142
1.0
143
1.0
 70
   688
 72
     0
 73
     0
 74
     5
  7

 75
    16
147
1.0
148
0.0
149
0.0
100
AcDbLayout
  1
Layout1
 70
     1
 71
     1
 10
-0.1912502979669045
 20
-0.1912499975970411
 11
11.503750057671
 21
8.072082940049059
 12
0.0
 22
0.0
 32
0.0
 14
1.131083300733189
 24
0.7885833800308344
 34
0.0
 15
10.17974970659872
 25
7.097250420277513
 35
0.0
146
0.0
 13
0.0
 23
0.0
 33
0.0
 16
1.0
 26
0.0
 36
0.0
 17
0.0
 27
1.0
 37
0.0
 76
     0
330
21F1
331
19A4
  0
LAYOUT
  5
21F8
102
{ACAD_XDICTIONARY
360
2491
102
}
102
{ACAD_REACTORS
330
21EB
102
}
330
21EB
100
AcDbPlotSettings
  1

  2
HP Color LaserJet 5550 PCL 6
  4

  6

 40
0.0
 41
0.0
 42
0.0
 43
0.0
 44
0.0
 45
0.0
 46
0.0
 47
0.0
 48
0.0
 49
0.0
140
0.0
141
0.0
142
1.0
143
1.0
 70
  1712
 72
     0
 73
     0
 74
     0
  7

 75
     0
147
1.0
148
0.0
149
0.0
100
AcDbLayout
  1
Model
 70
     1
 71
     0
 10
0.0
 20
0.0
 11
12.0
 21
9.0
 12
0.0
 22
0.0
 32
0.0
 14
0.0
 24
0.0
 34
0.0
 15
0.0
 25
0.0
 35
0.0
146
0.0
 13
0.0
 23
0.0
 33
0.0
 16
1.0
 26
0.0
 36
0.0
 17
0.0
 27
1.0
 37
0.0
 76
     0
330
21F5
331
21F9
  0
MATERIAL
  5
2198
102
{ACAD_XDICTIONARY
360
2199
102
}
102
{ACAD_REACTORS
330
218F
102
}
330
218F
100
AcDbMaterial
  1
ByBlock
 72
     0
 43
0.0208333333333333
 43
0.0
 43
0.0
 43
0.0
 43
0.0
 43
0.0208333333333333
 43
0.0
 43
0.0
 43
0.0
 43
0.0
 43
1.0
 43
0.0
 43
0.0
 43
0.0
 43
0.0
 43
1.0
 77
     0
 47
0.0208333333333333
 47
0.0
 47
0.0
 47
0.0
 47
0.0
 47
0.0208333333333333
 47
0.0
 47
0.0
 47
0.0
 47
0.0
 47
1.0
 47
0.0
 47
0.0
 47
0.0
 47
0.0
 47
1.0
171
     0
 49
0.0208333333333333
 49
0.0
 49
0.0
 49
0.0
 49
0.0
 49
0.0208333333333333
 49
0.0
 49
0.0
 49
0.0
 49
0.0
 49
1.0
 49
0.0
 49
0.0
 49
0.0
 49
0.0
 49
1.0
175
     0
142
0.0208333333333333
142
0.0
142
0.0
142
0.0
142
0.0
142
0.0208333333333333
142
0.0
142
0.0
142
0.0
142
0.0
142
1.0
142
0.0
142
0.0
142
0.0
142
0.0
142
1.0
179
     0
144
0.0208333333333333
144
0.0
144
0.0
144
0.0
144
0.0
144
0.0208333333333333
144
0.0
144
0.0
144
0.0
144
0.0
144
1.0
144
0.0
144
0.0
144
0.0
144
0.0
144
1.0
147
0.0208333333333333
147
0.0
147
0.0
147
0.0
147
0.0
147
0.0208333333333333
147
0.0
147
0.0
147
0.0
147
0.0
147
1.0
147
0.0
147
0.0
147
0.0
147
0.0
147
1.0
  0
MATERIAL
  5
2190
102
{ACAD_XDICTIONARY
360
2191
102
}
102
{ACAD_REACTORS
330
218F
102
}
330
218F
100
AcDbMaterial
  1
ByLayer
 72
     0
 43
0.0208333333333333
 43
0.0
 43
0.0
 43
0.0
 43
0.0
 43
0.0208333333333333
 43
0.0
 43
0.0
 43
0.0
 43
0.0
 43
1.0
 43
0.0
 43
0.0
 43
0.0
 43
0.0
 43
1.0
 77
     0
 47
0.0208333333333333
 47
0.0
 47
0.0
 47
0.0
 47
0.0
 47
0.0208333333333333
 47
0.0
 47
0.0
 47
0.0
 47
0.0
 47
1.0
 47
0.0
 47
0.0
 47
0.0
 47
0.0
 47
1.0
171
     0
 49
0.0208333333333333
 49
0.0
 49
0.0
 49
0.0
 49
0.0
 49
0.0208333333333333
 49
0.0
 49
0.0
 49
0.0
 49
0.0
 49
1.0
 49
0.0
 49
0.0
 49
0.0
 49
0.0
 49
1.0
175
     0
142
0.0208333333333333
142
0.0
142
0.0
142
0.0
142
0.0
142
0.0208333333333333
142
0.0
142
0.0
142
0.0
142
0.0
142
1.0
142
0.0
142
0.0
142
0.0
142
0.0
142
1.0
179
     0
144
0.0208333333333333
144
0.0
144
0.0
144
0.0
144
0.0
144
0.0208333333333333
144
0.0
144
0.0
144
0.0
144
0.0
144
1.0
144
0.0
144
0.0
144
0.0
144
0.0
144
1.0
147
0.0208333333333333
147
0.0
147
0.0
147
0.0
147
0.0
147
0.0208333333333333
147
0.0
147
0.0
147
0.0
147
0.0
147
1.0
147
0.0
147
0.0
147
0.0
147
0.0
147
1.0
  0
MATERIAL
  5
21A0
102
{ACAD_XDICTIONARY
360
21A1
102
}
102
{ACAD_REACTORS
330
218F
102
}
330
218F
100
AcDbMaterial
  1
Global
 72
     0
 43
0.0208333333333333
 43
0.0
 43
0.0
 43
0.0
 43
0.0
 43
0.0208333333333333
 43
0.0
 43
0.0
 43
0.0
 43
0.0
 43
1.0
 43
0.0
 43
0.0
 43
0.0
 43
0.0
 43
1.0
 77
     0
 47
0.0208333333333333
 47
0.0
 47
0.0
 47
0.0
 47
0.0
 47
0.0208333333333333
 47
0.0
 47
0.0
 47
0.0
 47
0.0
 47
1.0
 47
0.0
 47
0.0
 47
0.0
 47
0.0
 47
1.0
171
     0
 49
0.0208333333333333
 49
0.0
 49
0.0
 49
0.0
 49
0.0
 49
0.0208333333333333
 49
0.0
 49
0.0
 49
0.0
 49
0.0
 49
1.0
 49
0.0
 49
0.0
 49
0.0
 49
0.0
 49
1.0
175
     0
142
0.0208333333333333
142
0.0
142
0.0
142
0.0
142
0.0
142
0.0208333333333333
142
0.0
142
0.0
142
0.0
142
0.0
142
1.0
142
0.0
142
0.0
142
0.0
142
0.0
142
1.0
179
     0
144
0.0208333333333333
144
0.0
144
0.0
144
0.0
144
0.0
144
0.0208333333333333
144
0.0
144
0.0
144
0.0
144
0.0
144
1.0
144
0.0
144
0.0
144
0.0
144
0.0
144
1.0
147
0.0208333333333333
147
0.0
147
0.0
147
0.0
147
0.0
147
0.0208333333333333
147
0.0
147
0.0
147
0.0
147
0.0
147
1.0
147
0.0
147
0.0
147
0.0
147
0.0
147
1.0
  0
MLEADERSTYLE
  5
21F0
102
{ACAD_REACTORS
330
21EF
102
}
330
21EF
100
AcDbMLeaderStyle
170
     2
171
     1
172
     0
 90
        2
 40
0.0
 41
0.0
173
     1
 91
-1056964608
340
21E4
 92
       -2
290
     1
 42
0.09
291
     1
 43
0.36
  3
Standard
 44
0.18
300

342
21DF
174
     1
178
     6
175
     1
176
     0
 93
-1056964608
 45
0.18
292
     0
297
     0
 46
0.18
 94
-1056964608
 47
1.0
 49
1.0
140
1.0
293
     1
141
0.0
294
     1
177
     0
142
1.0
295
     0
296
     0
143
0.125
1001
ACAD_MLEADERVER
1070
     2
  0
MLINESTYLE
  5
21E9
102
{ACAD_REACTORS
330
21E8
102
}
330
21E8
100
AcDbMlineStyle
  2
STANDARD
 70
     0
  3

 62
   256
 51
90.0
 52
90.0
 71
     2
 49
0.5
 62
   256
  6
BYLAYER
 49
-0.5
 62
   256
  6
BYLAYER
  0
ACDBPLACEHOLDER
  5
218E
102
{ACAD_REACTORS
330
218D
102
}
330
218D
  0
SCALE
  5
21BD
102
{ACAD_REACTORS
330
21BC
102
}
330
21BC
100
AcDbScale
 70
     0
300
1:1
140
1.0
141
1.0
290
     1
  0
SCALE
  5
21BE
102
{ACAD_REACTORS
330
21BC
102
}
330
21BC
100
AcDbScale
 70
     0
300
1:2
140
1.0
141
2.0
290
     0
  0
SCALE
  5
21BF
102
{ACAD_REACTORS
330
21BC
102
}
330
21BC
100
AcDbScale
 70
     0
300
1:4
140
1.0
141
4.0
290
     0
  0
SCALE
  5
21C0
102
{ACAD_REACTORS
330
21BC
102
}
330
21BC
100
AcDbScale
 70
     0
300
1:5
140
1.0
141
5.0
290
     0
  0
SCALE
  5
21C1
102
{ACAD_REACTORS
330
21BC
102
}
330
21BC
100
AcDbScale
 70
     0
300
1:8
140
1.0
141
8.0
290
     0
  0
SCALE
  5
21C2
102
{ACAD_REACTORS
330
21BC
102
}
330
21BC
100
AcDbScale
 70
     0
300
1:10
140
1.0
141
10.0
290
     0
  0
SCALE
  5
21C3
102
{ACAD_REACTORS
330
21BC
102
}
330
21BC
100
AcDbScale
 70
     0
300
1:16
140
1.0
141
16.0
290
     0
  0
SCALE
  5
21C4
102
{ACAD_REACTORS
330
21BC
102
}
330
21BC
100
AcDbScale
 70
     0
300
1:20
140
1.0
141
20.0
290
     0
  0
SCALE
  5
21C5
102
{ACAD_REACTORS
330
21BC
102
}
330
21BC
100
AcDbScale
 70
     0
300
1:30
140
1.0
141
30.0
290
     0
  0
SCALE
  5
21C6
102
{ACAD_REACTORS
330
21BC
102
}
330
21BC
100
AcDbScale
 70
     0
300
1:40
140
1.0
141
40.0
290
     0
  0
SCALE
  5
21C7
102
{ACAD_REACTORS
330
21BC
102
}
330
21BC
100
AcDbScale
 70
     0
300
1:50
140
1.0
141
50.0
290
     0
  0
SCALE
  5
21C8
102
{ACAD_REACTORS
330
21BC
102
}
330
21BC
100
AcDbScale
 70
     0
300
1:100
140
1.0
141
100.0
290
     0
  0
SCALE
  5
21C9
102
{ACAD_REACTORS
330
21BC
102
}
330
21BC
100
AcDbScale
 70
     0
300
2:1
140
2.0
141
1.0
290
     0
  0
SCALE
  5
21CA
102
{ACAD_REACTORS
330
21BC
102
}
330
21BC
100
AcDbScale
 70
     0
300
4:1
140
4.0
141
1.0
290
     0
  0
SCALE
  5
21CB
102
{ACAD_REACTORS
330
21BC
102
}
330
21BC
100
AcDbScale
 70
     0
300
8:1
140
8.0
141
1.0
290
     0
  0
SCALE
  5
21CC
102
{ACAD_REACTORS
330
21BC
102
}
330
21BC
100
AcDbScale
 70
     0
300
10:1
140
10.0
141
1.0
290
     0
  0
SCALE
  5
21CD
102
{ACAD_REACTORS
330
21BC
102
}
330
21BC
100
AcDbScale
 70
     0
300
100:1
140
100.0
141
1.0
290
     0
  0
SCALE
  5
21CE
102
{ACAD_REACTORS
330
21BC
102
}
330
21BC
100
AcDbScale
 70
     0
300
1/128" = 1'-0"
140
0.0078125
141
12.0
290
     0
  0
SCALE
  5
21CF
102
{ACAD_REACTORS
330
21BC
102
}
330
21BC
100
AcDbScale
 70
     0
300
1/64" = 1'-0"
140
0.015625
141
12.0
290
     0
  0
SCALE
  5
21D0
102
{ACAD_REACTORS
330
21BC
102
}
330
21BC
100
AcDbScale
 70
     0
300
1/32" = 1'-0"
140
0.03125
141
12.0
290
     0
  0
SCALE
  5
21D1
102
{ACAD_REACTORS
330
21BC
102
}
330
21BC
100
AcDbScale
 70
     0
300
1/16" = 1'-0"
140
0.0625
141
12.0
290
     0
  0
SCALE
  5
21D2
102
{ACAD_REACTORS
330
21BC
102
}
330
21BC
100
AcDbScale
 70
     0
300
3/32" = 1'-0"
140
0.09375
141
12.0
290
     0
  0
SCALE
  5
21D3
102
{ACAD_REACTORS
330
21BC
102
}
330
21BC
100
AcDbScale
 70
     0
300
1/8" = 1'-0"
140
0.125
141
12.0
290
     0
  0
SCALE
  5
21D4
102
{ACAD_REACTORS
330
21BC
102
}
330
21BC
100
AcDbScale
 70
     0
300
3/16" = 1'-0"
140
0.1875
141
12.0
290
     0
  0
SCALE
  5
21D5
102
{ACAD_REACTORS
330
21BC
102
}
330
21BC
100
AcDbScale
 70
     0
300
1/4" = 1'-0"
140
0.25
141
12.0
290
     0
  0
SCALE
  5
21D6
102
{ACAD_REACTORS
330
21BC
102
}
330
21BC
100
AcDbScale
 70
     0
300
3/8" = 1'-0"
140
0.375
141
12.0
290
     0
  0
SCALE
  5
21D7
102
{ACAD_REACTORS
330
21BC
102
}
330
21BC
100
AcDbScale
 70
     0
300
1/2" = 1'-0"
140
0.5
141
12.0
290
     0
  0
SCALE
  5
21D8
102
{ACAD_REACTORS
330
21BC
102
}
330
21BC
100
AcDbScale
 70
     0
300
3/4" = 1'-0"
140
0.75
141
12.0
290
     0
  0
SCALE
  5
21D9
102
{ACAD_REACTORS
330
21BC
102
}
330
21BC
100
AcDbScale
 70
     0
300
1" = 1'-0"
140
1.0
141
12.0
290
     0
  0
SCALE
  5
21DA
102
{ACAD_REACTORS
330
21BC
102
}
330
21BC
100
AcDbScale
 70
     0
300
1-1/2" = 1'-0"
140
1.5
141
12.0
290
     0
  0
SCALE
  5
21DB
102
{ACAD_REACTORS
330
21BC
102
}
330
21BC
100
AcDbScale
 70
     0
300
3" = 1'-0"
140
3.0
141
12.0
290
     0
  0
SCALE
  5
21DC
102
{ACAD_REACTORS
330
21BC
102
}
330
21BC
100
AcDbScale
 70
     0
300
6" = 1'-0"
140
6.0
141
12.0
290
     0
  0
SCALE
  5
21DD
102
{ACAD_REACTORS
330
21BC
102
}
330
21BC
100
AcDbScale
 70
     0
300
1'-0" = 1'-0"
140
12.0
141
12.0
290
     0
  0
TABLESTYLE
  5
21EE
102
{ACAD_XDICTIONARY
360
233F
102
}
102
{ACAD_REACTORS
330
21ED
102
}
330
21ED
100
AcDbTableStyle
  3
Standard
 70
     0
 71
     0
 40
0.06
 41
0.06
280
     0
281
     0
  7
STANDARD
140
0.18
170
     2
 62
     0
 63
     7
283
     0
274
    -2
284
     1
 64
     0
275
    -2
285
     1
 65
     0
276
    -2
286
     1
 66
     0
277
    -2
287
     1
 67
     0
278
    -2
288
     1
 68
     0
279
    -2
289
     1
 69
     0
  7
STANDARD
140
0.25
170
     5
 62
     0
 63
     7
283
     0
274
    -2
284
     1
 64
     0
275
    -2
285
     1
 65
     0
276
    -2
286
     1
 66
     0
277
    -2
287
     1
 67
     0
278
    -2
288
     1
 68
     0
279
    -2
289
     1
 69
     0
  7
STANDARD
140
0.18
170
     5
 62
     0
 63
     7
283
     0
274
    -2
284
     1
 64
     0
275
    -2
285
     1
 65
     0
276
    -2
286
     1
 66
     0
277
    -2
287
     1
 67
     0
278
    -2
288
     1
 68
     0
279
    -2
289
     1
 69
     0
  0
VISUALSTYLE
  5
21AE
102
{ACAD_XDICTIONARY
360
2472
102
}
102
{ACAD_REACTORS
330
21A8
102
}
330
21A8
100
AcDbVisualStyle
  2

 70
     4
 71
     0
 72
     2
 73
     0
 90
        0
 40
-0.6
 41
-30.0
 62
     5
 63
     7
 74
     1
 91
        4
 64
     7
 65
   257
 75
     1
175
     1
 42
1.0
 92
        0
 66
   257
 43
1.0
 76
     1
 77
     6
 78
     2
 67
     7
 79
     5
170
     0
171
     0
290
     0
174
     0
 93
        1
 44
0.0
173
     0
291
     0
 45
0.0
1001
ACAD
1000
AcDbSavedByObjectVersion
1070
     0
  0
VISUALSTYLE
  5
21B0
102
{ACAD_XDICTIONARY
360
2476
102
}
102
{ACAD_REACTORS
330
21A8
102
}
330
21A8
100
AcDbVisualStyle
  2

 70
     6
 71
     1
 72
     2
 73
     2
 90
        0
 40
-0.6
 41
-30.0
 62
     5
 63
     7
 74
     2
 91
        2
 64
     7
 65
   257
 75
     2
175
     1
 42
179.0
 92
        0
 66
   257
 43
1.0
 76
     1
 77
     6
 78
     2
 67
     7
 79
     3
170
     0
171
     0
290
     0
174
     0
 93
        1
 44
0.0
173
     0
291
     0
 45
0.0
1001
ACAD
1000
AcDbSavedByObjectVersion
1070
     0
  0
VISUALSTYLE
  5
21AF
102
{ACAD_XDICTIONARY
360
2474
102
}
102
{ACAD_REACTORS
330
21A8
102
}
330
21A8
100
AcDbVisualStyle
  2

 70
     5
 71
     0
 72
     2
 73
     0
 90
        0
 40
-0.6
 41
-30.0
 62
     5
 63
     7
 74
     1
 91
        4
 64
     7
 65
   257
 75
     1
175
     1
 42
1.0
 92
        0
 66
   257
 43
1.0
 76
     1
 77
     6
 78
     2
 67
     7
 79
     5
170
     0
171
     0
290
     0
174
     0
 93
        1
 44
0.0
173
     0
291
     0
 45
0.0
1001
ACAD
1000
AcDbSavedByObjectVersion
1070
     0
  0
VISUALSTYLE
  5
21AD
102
{ACAD_XDICTIONARY
360
2470
102
}
102
{ACAD_REACTORS
330
21A8
102
}
330
21A8
100
AcDbVisualStyle
  2

 70
     7
 71
     1
 72
     0
 73
     1
 90
        0
 40
-0.6
 41
-30.0
 62
     5
 63
     7
 74
     0
 91
        4
 64
     7
 65
   257
 75
     1
175
     1
 42
1.0
 92
        8
 66
     7
 43
1.0
 76
     1
 77
     6
 78
     2
 67
     7
 79
     5
170
     0
171
     0
290
     0
174
     0
 93
        1
 44
0.0
173
     0
291
     1
 45
0.0
1001
ACAD
1000
AcDbSavedByObjectVersion
1070
     0
  0
VISUALSTYLE
  5
21B4
102
{ACAD_XDICTIONARY
360
247E
102
}
102
{ACAD_REACTORS
330
21A8
102
}
330
21A8
100
AcDbVisualStyle
  2

 70
    12
 71
     2
 72
     2
 73
     0
 90
        0
 40
-0.6
 41
-30.0
 62
     5
 63
     7
 74
     1
 91
        4
 64
     7
 65
   257
 75
     1
175
     1
 42
1.0
 92
        8
 66
     7
 43
1.0
 76
     1
 77
     6
 78
     2
 67
     7
 79
     5
170
     0
171
     0
290
     0
174
     0
 93
        1
 44
50.0
173
     0
291
     1
 45
0.0
1001
ACAD
1000
AcDbSavedByObjectVersion
1070
     0
  0
VISUALSTYLE
  5
21B8
102
{ACAD_XDICTIONARY
360
2486
102
}
102
{ACAD_REACTORS
330
21A8
102
}
330
21A8
100
AcDbVisualStyle
  2

 70
    16
 71
     2
 72
     2
 73
     3
 90
        0
 40
-0.6
 41
-30.0
 62
     5
 63
     8
 74
     1
 91
        4
 64
     7
 65
   257
 75
     1
175
     1
 42
1.0
 92
        8
 66
     8
 43
1.0
 76
     1
 77
     6
 78
     2
 67
     7
 79
     5
170
     0
171
     0
290
     0
174
     0
 93
        1
 44
0.0
173
     0
291
     1
 45
0.0
1001
ACAD
1000
AcDbSavedByObjectVersion
1070
     0
  0
VISUALSTYLE
  5
21B1
102
{ACAD_XDICTIONARY
360
2478
102
}
102
{ACAD_REACTORS
330
21A8
102
}
330
21A8
100
AcDbVisualStyle
  2

 70
     9
 71
     3
 72
     2
 73
     0
 90
        0
 40
-0.6
 41
-30.0
 62
     5
 63
     7
 74
     2
 91
        2
 64
     7
 65
   257
 75
     1
175
     1
 42
179.0
 92
        8
 66
     7
 43
1.0
 76
     1
 77
     6
 78
     2
 67
     7
 79
     3
170
     0
171
     0
290
     0
174
     0
 93
        1
 44
0.0
173
     0
291
     0
 45
0.0
1001
ACAD
1000
AcDbSavedByObjectVersion
1070
     0
  0
VISUALSTYLE
  5
21B3
102
{ACAD_XDICTIONARY
360
247C
102
}
102
{ACAD_REACTORS
330
21A8
102
}
330
21A8
100
AcDbVisualStyle
  2

 70
    11
 71
     2
 72
     2
 73
     0
 90
        0
 40
-0.6
 41
-30.0
 62
     5
 63
     7
 74
     1
 91
        4
 64
     7
 65
   257
 75
     1
175
     1
 42
1.0
 92
        8
 66
     7
 43
1.0
 76
     1
 77
     6
 78
     2
 67
     7
 79
     5
170
     0
171
     0
290
     0
174
     0
 93
        1
 44
-50.0
173
     0
291
     1
 45
0.0
1001
ACAD
1000
AcDbSavedByObjectVersion
1070
     0
  0
VISUALSTYLE
  5
21BB
102
{ACAD_XDICTIONARY
360
248C
102
}
102
{ACAD_REACTORS
330
21A8
102
}
330
21A8
100
AcDbVisualStyle
  2

 70
    22
 71
     2
 72
     2
 73
     0
 90
        0
 40
-0.6
 41
-30.0
 62
     5
 63
     7
 74
     1
 91
        4
 64
     7
 65
   257
 75
     1
175
     1
 42
1.0
 92
        8
 66
     7
 43
1.0
 76
     1
 77
     6
 78
     2
 67
     7
 79
     5
170
     0
171
     0
290
     0
174
     0
 93
        1
 44
0.0
173
     0
291
     1
 45
0.0
1001
ACAD
1000
AcDbSavedByObjectVersion
1070
     0
  0
VISUALSTYLE
  5
21B7
102
{ACAD_XDICTIONARY
360
2484
102
}
102
{ACAD_REACTORS
330
21A8
102
}
330
21A8
100
AcDbVisualStyle
  2

 70
    15
 71
     2
 72
     2
 73
     0
 90
        0
 40
-0.6
 41
-30.0
 62
     5
 63
     7
 74
     1
 91
        4
 64
     7
 65
   257
 75
     1
175
     1
 42
1.0
 92
        8
 66
     7
 43
1.0
 76
     1
 77
     6
 78
     2
 67
     7
 79
     5
170
     0
171
     0
290
     0
174
     0
 93
        1
 44
0.0
173
     0
291
     1
 45
0.0
1001
ACAD
1000
AcDbSavedByObjectVersion
1070
     0
  0
VISUALSTYLE
  5
21A9
102
{ACAD_XDICTIONARY
360
2468
102
}
102
{ACAD_REACTORS
330
21A8
102
}
330
21A8
100
AcDbVisualStyle
  2

 70
     0
 71
     2
 72
     1
 73
     1
 90
        2
 40
-0.6
 41
30.0
 62
     5
 63
     7
 74
     0
 91
        4
 64
     7
 65
   257
 75
     1
175
     1
 42
1.0
 92
        8
 66
     7
 43
1.0
 76
     1
 77
     6
 78
     2
 67
     7
 79
     5
170
     0
171
     0
290
     0
174
     0
 93
       13
 44
0.0
173
     0
291
     1
 45
0.0
1001
ACAD
1000
AcDbSavedByObjectVersion
1070
     0
  0
VISUALSTYLE
  5
21AA
102
{ACAD_XDICTIONARY
360
246A
102
}
102
{ACAD_REACTORS
330
21A8
102
}
330
21A8
100
AcDbVisualStyle
  2

 70
     1
 71
     2
 72
     1
 73
     1
 90
        2
 40
-0.6
 41
30.0
 62
     5
 63
     7
 74
     1
 91
        4
 64
     7
 65
   257
 75
     1
175
     1
 42
1.0
 92
        0
 66
   257
 43
1.0
 76
     1
 77
     6
 78
     2
 67
     7
 79
     5
170
     0
171
     0
290
     0
174
     0
 93
       13
 44
0.0
173
     0
291
     1
 45
0.0
1001
ACAD
1000
AcDbSavedByObjectVersion
1070
     0
  0
VISUALSTYLE
  5
21AB
102
{ACAD_XDICTIONARY
360
246C
102
}
102
{ACAD_REACTORS
330
21A8
102
}
330
21A8
100
AcDbVisualStyle
  2

 70
     2
 71
     2
 72
     2
 73
     1
 90
        2
 40
-0.6
 41
30.0
 62
     5
 63
     7
 74
     0
 91
        4
 64
     7
 65
   257
 75
     1
175
     1
 42
1.0
 92
        0
 66
     7
 43
1.0
 76
     1
 77
     6
 78
     2
 67
     7
 79
     5
170
     0
171
     0
290
     0
174
     0
 93
       13
 44
0.0
173
     0
291
     1
 45
0.0
1001
ACAD
1000
AcDbSavedByObjectVersion
1070
     0
  0
VISUALSTYLE
  5
21AC
102
{ACAD_XDICTIONARY
360
246E
102
}
102
{ACAD_REACTORS
330
21A8
102
}
330
21A8
100
AcDbVisualStyle
  2

 70
     3
 71
     2
 72
     2
 73
     1
 90
        2
 40
-0.6
 41
30.0
 62
     5
 63
     7
 74
     1
 91
        4
 64
     7
 65
   257
 75
     1
175
     1
 42
1.0
 92
        0
 66
   257
 43
1.0
 76
     1
 77
     6
 78
     2
 67
     7
 79
     5
170
     0
171
     0
290
     0
174
     0
 93
       13
 44
0.0
173
     0
291
     1
 45
0.0
1001
ACAD
1000
AcDbSavedByObjectVersion
1070
     0
  0
VISUALSTYLE
  5
21B9
102
{ACAD_XDICTIONARY
360
2488
102
}
102
{ACAD_REACTORS
330
21A8
102
}
330
21A8
100
AcDbVisualStyle
  2

 70
    20
 71
     2
 72
     2
 73
     0
 90
        0
 40
-0.6
 41
-30.0
 62
     5
 63
     7
 74
     1
 91
        4
 64
     7
 65
   257
 75
     1
175
     1
 42
1.0
 92
       10
 66
     7
 43
1.0
 76
     1
 77
     6
 78
     2
 67
     7
 79
     5
170
     0
171
     0
290
     0
174
     0
 93
        1
 44
0.0
173
     0
291
     1
 45
0.0
1001
ACAD
1000
AcDbSavedByObjectVersion
1070
     0
  0
VISUALSTYLE
  5
21B6
102
{ACAD_XDICTIONARY
360
2482
102
}
102
{ACAD_REACTORS
330
21A8
102
}
330
21A8
100
AcDbVisualStyle
  2

 70
    14
 71
     2
 72
     2
 73
     0
 90
        0
 40
-0.6
 41
-30.0
 62
     5
 63
     7
 74
     1
 91
        4
 64
     7
 65
   257
 75
     7
175
     7
 42
1.0
 92
        8
 66
     7
 43
1.0
 76
     1
 77
     6
 78
     2
 67
     7
 79
     5
170
     0
171
     0
290
     0
174
     0
 93
        1
 44
0.0
173
     0
291
     1
 45
0.0
1001
ACAD
1000
AcDbSavedByObjectVersion
1070
     0
  0
VISUALSTYLE
  5
21BA
102
{ACAD_XDICTIONARY
360
248A
102
}
102
{ACAD_REACTORS
330
21A8
102
}
330
21A8
100
AcDbVisualStyle
  2

 70
    21
 71
     2
 72
     2
 73
     0
 90
        0
 40
-0.6
 41
-30.0
 62
     5
 63
     7
 74
     1
 91
        4
 64
     7
 65
   257
 75
     1
175
     1
 42
1.0
 92
        9
 66
     7
 43
1.0
 76
     1
 77
     6
 78
     2
 67
     7
 79
     5
170
     0
171
     0
290
     0
174
     0
 93
        1
 44
0.0
173
     0
291
     1
 45
0.0
1001
ACAD
1000
AcDbSavedByObjectVersion
1070
     0
  0
VISUALSTYLE
  5
21B2
102
{ACAD_XDICTIONARY
360
247A
102
}
102
{ACAD_REACTORS
330
21A8
102
}
330
21A8
100
AcDbVisualStyle
  2

 70
     8
 71
     2
 72
     2
 73
     0
 90
        0
 40
-0.6
 41
-30.0
 62
     5
 63
     7
 74
     1
 91
        0
 64
     7
 65
   257
 75
     1
175
     1
 42
1.0
 92
        8
 66
     8
 43
1.0
 76
     1
 77
     6
 78
     2
 67
     7
 79
     5
170
     0
171
     0
290
     0
174
     0
 93
       13
 44
0.0
173
     0
291
     0
 45
0.0
1001
ACAD
1000
AcDbSavedByObjectVersion
1070
     0
  0
VISUALSTYLE
  5
21B5
102
{ACAD_XDICTIONARY
360
2480
102
}
102
{ACAD_REACTORS
330
21A8
102
}
330
21A8
100
AcDbVisualStyle
  2

 70
    13
 71
     2
 72
     2
 73
     0
 90
        0
 40
-0.6
 41
-30.0
 62
     5
 63
     7
 74
     1
 91
        4
 64
     7
 65
   257
 75
     1
175
     1
 42
1.0
 92
       12
 66
     7
 43
1.0
 76
     1
 77
     6
 78
     2
 67
     7
 79
     5
170
     0
171
     0
290
     0
174
     0
 93
        1
 44
0.0
173
     0
291
     1
 45
0.0
1001
ACAD
1000
AcDbSavedByObjectVersion
1070
     0
  0
DICTIONARYVAR
  5
233A
102
{ACAD_REACTORS
330
2337
102
}
330
2337
100
DictionaryVariables
280
     0
  1
1:1
  0
DICTIONARYVAR
  5
2339
102
{ACAD_REACTORS
330
2337
102
}
330
2337
100
DictionaryVariables
280
     0
  1
STANDARD
  0
DICTIONARYVAR
  5
2338
102
{ACAD_REACTORS
330
2337
102
}
330
2337
100
DictionaryVariables
280
     0
  1
STANDARD
  0
DICTIONARYVAR
  5
233D
102
{ACAD_REACTORS
330
2337
102
}
330
2337
100
DictionaryVariables
280
     0
  1
1
  0
DICTIONARYVAR
  5
233C
102
{ACAD_REACTORS
330
2337
102
}
330
2337
100
DictionaryVariables
280
     0
  1
0
  0
DICTIONARYVAR
  5
233B
102
{ACAD_REACTORS
330
2337
102
}
330
2337
100
DictionaryVariables
280
     0
  1
127
  0
DICTIONARYVAR
  5
2460
102
{ACAD_REACTORS
330
2337
102
}
330
2337
100
DictionaryVariables
280
     0
  1
2
  0
DICTIONARY
  5
248F
330
21F4
100
AcDbDictionary
280
     1
281
     1
  3
ACAD_XREC_ROUNDTRIP
360
2490
  0
DICTIONARY
  5
2491
330
21F8
100
AcDbDictionary
280
     1
281
     1
  3
ACAD_XREC_ROUNDTRIP
360
2492
  0
DICTIONARY
  5
2199
330
2198
100
AcDbDictionary
280
     1
281
     1
  3
ACAD_XREC_ROUNDTRIP
360
2348
  3
BUMPTILE
360
219B
  3
DIFFUSETILE
360
219A
  3
OPACITYTILE
360
219E
  3
REFLECTIONTILE
360
219D
  3
REFRACTIONTILE
360
219F
  3
SPECULARTILE
360
219C
  0
DICTIONARY
  5
2191
330
2190
100
AcDbDictionary
280
     1
281
     1
  3
ACAD_XREC_ROUNDTRIP
360
2347
  3
BUMPTILE
360
2193
  3
DIFFUSETILE
360
2192
  3
OPACITYTILE
360
2196
  3
REFLECTIONTILE
360
2195
  3
REFRACTIONTILE
360
2197
  3
SPECULARTILE
360
2194
  0
DICTIONARY
  5
21A1
330
21A0
100
AcDbDictionary
280
     1
281
     1
  3
ACAD_XREC_ROUNDTRIP
360
2349
  3
BUMPTILE
360
21A3
  3
DIFFUSETILE
360
21A2
  3
OPACITYTILE
360
21A6
  3
REFLECTIONTILE
360
21A5
  3
REFRACTIONTILE
360
21A7
  3
SPECULARTILE
360
21A4
  0
DICTIONARY
  5
233F
330
21EE
100
AcDbDictionary
280
     1
281
     1
  3
ACAD_ROUNDTRIP_2008_TABLESTYLE_CELLSTYLEMAP
360
2461
  3
ACAD_XREC_ROUNDTRIP
360
248E
  0
DICTIONARY
  5
2472
330
21AE
100
AcDbDictionary
280
     1
281
     1
  3
ACAD_XREC_ROUNDTRIP
360
2473
  0
DICTIONARY
  5
2476
330
21B0
100
AcDbDictionary
280
     1
281
     1
  3
ACAD_XREC_ROUNDTRIP
360
2477
  0
DICTIONARY
  5
2474
330
21AF
100
AcDbDictionary
280
     1
281
     1
  3
ACAD_XREC_ROUNDTRIP
360
2475
  0
DICTIONARY
  5
2470
330
21AD
100
AcDbDictionary
280
     1
281
     1
  3
ACAD_XREC_ROUNDTRIP
360
2471
  0
DICTIONARY
  5
247E
330
21B4
100
AcDbDictionary
280
     1
281
     1
  3
ACAD_XREC_ROUNDTRIP
360
247F
  0
DICTIONARY
  5
2486
330
21B8
100
AcDbDictionary
280
     1
281
     1
  3
ACAD_XREC_ROUNDTRIP
360
2487
  0
DICTIONARY
  5
2478
330
21B1
100
AcDbDictionary
280
     1
281
     1
  3
ACAD_XREC_ROUNDTRIP
360
2479
  0
DICTIONARY
  5
247C
330
21B3
100
AcDbDictionary
280
     1
281
     1
  3
ACAD_XREC_ROUNDTRIP
360
247D
  0
DICTIONARY
  5
248C
330
21BB
100
AcDbDictionary
280
     1
281
     1
  3
ACAD_XREC_ROUNDTRIP
360
248D
  0
DICTIONARY
  5
2484
330
21B7
100
AcDbDictionary
280
     1
281
     1
  3
ACAD_XREC_ROUNDTRIP
360
2485
  0
DICTIONARY
  5
2468
330
21A9
100
AcDbDictionary
280
     1
281
     1
  3
ACAD_XREC_ROUNDTRIP
360
2469
  0
DICTIONARY
  5
246A
330
21AA
100
AcDbDictionary
280
     1
281
     1
  3
ACAD_XREC_ROUNDTRIP
360
246B
  0
DICTIONARY
  5
246C
330
21AB
100
AcDbDictionary
280
     1
281
     1
  3
ACAD_XREC_ROUNDTRIP
360
246D
  0
DICTIONARY
  5
246E
330
21AC
100
AcDbDictionary
280
     1
281
     1
  3
ACAD_XREC_ROUNDTRIP
360
246F
  0
DICTIONARY
  5
2488
330
21B9
100
AcDbDictionary
280
     1
281
     1
  3
ACAD_XREC_ROUNDTRIP
360
2489
  0
DICTIONARY
  5
2482
330
21B6
100
AcDbDictionary
280
     1
281
     1
  3
ACAD_XREC_ROUNDTRIP
360
2483
  0
DICTIONARY
  5
248A
330
21BA
100
AcDbDictionary
280
     1
281
     1
  3
ACAD_XREC_ROUNDTRIP
360
248B
  0
DICTIONARY
  5
247A
330
21B2
100
AcDbDictionary
280
     1
281
     1
  3
ACAD_XREC_ROUNDTRIP
360
247B
  0
DICTIONARY
  5
2480
330
21B5
100
AcDbDictionary
280
     1
281
     1
  3
ACAD_XREC_ROUNDTRIP
360
2481
  0
XRECORD
  5
2490
102
{ACAD_REACTORS
330
248F
102
}
330
248F
100
AcDbXrecord
280
     1
102
SHADEPLOT
 70
     0
102
SHADEPLOTRESLEVEL
 70
     2
102
SHADEPLOTCUSTOMDPI
 70
   300
  0
XRECORD
  5
2492
102
{ACAD_REACTORS
330
2491
102
}
330
2491
100
AcDbXrecord
280
     1
102
SHADEPLOT
 70
     0
102
SHADEPLOTRESLEVEL
 70
     2
102
SHADEPLOTCUSTOMDPI
 70
   300
  0
XRECORD
  5
2348
102
{ACAD_REACTORS
330
2199
102
}
330
2199
100
AcDbXrecord
280
     1
102
MATERIAL
148
0.0
149
0.0
149
0.0
 93
        0
 94
      127
282
     0
 72
     0
 77
     0
171
     0
175
     0
179
     0
273
     0
  0
XRECORD
  5
219B
102
{ACAD_REACTORS
330
2199
102
}
330
2199
100
AcDbXrecord
280
     1
270
     1
271
     1
  0
XRECORD
  5
219A
102
{ACAD_REACTORS
330
2199
102
}
330
2199
100
AcDbXrecord
280
     1
270
     1
271
     1
  0
XRECORD
  5
219E
102
{ACAD_REACTORS
330
2199
102
}
330
2199
100
AcDbXrecord
280
     1
270
     1
271
     1
  0
XRECORD
  5
219D
102
{ACAD_REACTORS
330
2199
102
}
330
2199
100
AcDbXrecord
280
     1
270
     1
271
     1
  0
XRECORD
  5
219F
102
{ACAD_REACTORS
330
2199
102
}
330
2199
100
AcDbXrecord
280
     1
270
     1
271
     1
  0
XRECORD
  5
219C
102
{ACAD_REACTORS
330
2199
102
}
330
2199
100
AcDbXrecord
280
     1
270
     1
271
     1
  0
XRECORD
  5
2347
102
{ACAD_REACTORS
330
2191
102
}
330
2191
100
AcDbXrecord
280
     1
102
MATERIAL
148
0.0
149
0.0
149
0.0
 93
        0
 94
      127
282
     0
 72
     0
 77
     0
171
     0
175
     0
179
     0
273
     0
  0
XRECORD
  5
2193
102
{ACAD_REACTORS
330
2191
102
}
330
2191
100
AcDbXrecord
280
     1
270
     1
271
     1
  0
XRECORD
  5
2192
102
{ACAD_REACTORS
330
2191
102
}
330
2191
100
AcDbXrecord
280
     1
270
     1
271
     1
  0
XRECORD
  5
2196
102
{ACAD_REACTORS
330
2191
102
}
330
2191
100
AcDbXrecord
280
     1
270
     1
271
     1
  0
XRECORD
  5
2195
102
{ACAD_REACTORS
330
2191
102
}
330
2191
100
AcDbXrecord
280
     1
270
     1
271
     1
  0
XRECORD
  5
2197
102
{ACAD_REACTORS
330
2191
102
}
330
2191
100
AcDbXrecord
280
     1
270
     1
271
     1
  0
XRECORD
  5
2194
102
{ACAD_REACTORS
330
2191
102
}
330
2191
100
AcDbXrecord
280
     1
270
     1
271
     1
  0
XRECORD
  5
2349
102
{ACAD_REACTORS
330
21A1
102
}
330
21A1
100
AcDbXrecord
280
     1
102
MATERIAL
148
0.0
149
0.0
149
0.0
 93
        0
 94
      127
282
     0
 72
     0
 77
     0
171
     0
175
     0
179
     0
273
     0
  0
XRECORD
  5
21A3
102
{ACAD_REACTORS
330
21A1
102
}
330
21A1
100
AcDbXrecord
280
     1
270
     1
271
     1
  0
XRECORD
  5
21A2
102
{ACAD_REACTORS
330
21A1
102
}
330
21A1
100
AcDbXrecord
280
     1
270
     1
271
     1
  0
XRECORD
  5
21A6
102
{ACAD_REACTORS
330
21A1
102
}
330
21A1
100
AcDbXrecord
280
     1
270
     1
271
     1
  0
XRECORD
  5
21A5
102
{ACAD_REACTORS
330
21A1
102
}
330
21A1
100
AcDbXrecord
280
     1
270
     1
271
     1
  0
XRECORD
  5
21A7
102
{ACAD_REACTORS
330
21A1
102
}
330
21A1
100
AcDbXrecord
280
     1
270
     1
271
     1
  0
XRECORD
  5
21A4
102
{ACAD_REACTORS
330
21A1
102
}
330
21A1
100
AcDbXrecord
280
     1
270
     1
271
     1
  0
CELLSTYLEMAP
  5
2461
102
{ACAD_REACTORS
330
233F
102
}
330
233F
100
AcDbCellStyleMap
 90
        3
300
CELLSTYLE
  1
TABLEFORMAT_BEGIN
 90
        5
170
     1
 91
        0
 92
    32768
 62
   257
 93
        1
300
CONTENTFORMAT
  1
CONTENTFORMAT_BEGIN
 90
        0
 91
        0
 92
      512
 93
        0
300

 40
0.0
140
1.0
 94
        5
 62
     0
340
21DF
144
0.25
309
CONTENTFORMAT_END
171
     1
301
MARGIN
  1
CELLMARGIN_BEGIN
 40
0.06
 40
0.06
 40
0.06
 40
0.06
 40
0.18
 40
0.18
309
CELLMARGIN_END
 94
        6
 95
        1
302
GRIDFORMAT
  1
GRIDFORMAT_BEGIN
 90
        0
 91
        1
 62
     0
 92
       -2
340
0
 93
        0
 40
0.045
309
GRIDFORMAT_END
 95
        2
302
GRIDFORMAT
  1
GRIDFORMAT_BEGIN
 90
        0
 91
        1
 62
     0
 92
       -2
340
0
 93
        0
 40
0.045
309
GRIDFORMAT_END
 95
        4
302
GRIDFORMAT
  1
GRIDFORMAT_BEGIN
 90
        0
 91
        1
 62
     0
 92
       -2
340
0
 93
        0
 40
0.045
309
GRIDFORMAT_END
 95
        8
302
GRIDFORMAT
  1
GRIDFORMAT_BEGIN
 90
        0
 91
        1
 62
     0
 92
       -2
340
0
 93
        0
 40
0.045
309
GRIDFORMAT_END
 95
       16
302
GRIDFORMAT
  1
GRIDFORMAT_BEGIN
 90
        0
 91
        1
 62
     0
 92
       -2
340
0
 93
        0
 40
0.045
309
GRIDFORMAT_END
 95
       32
302
GRIDFORMAT
  1
GRIDFORMAT_BEGIN
 90
        0
 91
        1
 62
     0
 92
       -2
340
0
 93
        0
 40
0.045
309
GRIDFORMAT_END
309
TABLEFORMAT_END
  1
CELLSTYLE_BEGIN
 90
        1
 91
        1
300
_TITLE
309
CELLSTYLE_END
300
CELLSTYLE
  1
TABLEFORMAT_BEGIN
 90
        5
170
     1
 91
        0
 92
        0
 62
   257
 93
        1
300
CONTENTFORMAT
  1
CONTENTFORMAT_BEGIN
 90
        0
 91
        0
 92
      512
 93
        0
300

 40
0.0
140
1.0
 94
        5
 62
     0
340
21DF
144
0.18
309
CONTENTFORMAT_END
171
     1
301
MARGIN
  1
CELLMARGIN_BEGIN
 40
0.06
 40
0.06
 40
0.06
 40
0.06
 40
0.18
 40
0.18
309
CELLMARGIN_END
 94
        6
 95
        1
302
GRIDFORMAT
  1
GRIDFORMAT_BEGIN
 90
        0
 91
        1
 62
     0
 92
       -2
340
0
 93
        0
 40
0.045
309
GRIDFORMAT_END
 95
        2
302
GRIDFORMAT
  1
GRIDFORMAT_BEGIN
 90
        0
 91
        1
 62
     0
 92
       -2
340
0
 93
        0
 40
0.045
309
GRIDFORMAT_END
 95
        4
302
GRIDFORMAT
  1
GRIDFORMAT_BEGIN
 90
        0
 91
        1
 62
     0
 92
       -2
340
0
 93
        0
 40
0.045
309
GRIDFORMAT_END
 95
        8
302
GRIDFORMAT
  1
GRIDFORMAT_BEGIN
 90
        0
 91
        1
 62
     0
 92
       -2
340
0
 93
        0
 40
0.045
309
GRIDFORMAT_END
 95
       16
302
GRIDFORMAT
  1
GRIDFORMAT_BEGIN
 90
        0
 91
        1
 62
     0
 92
       -2
340
0
 93
        0
 40
0.045
309
GRIDFORMAT_END
 95
       32
302
GRIDFORMAT
  1
GRIDFORMAT_BEGIN
 90
        0
 91
        1
 62
     0
 92
       -2
340
0
 93
        0
 40
0.045
309
GRIDFORMAT_END
309
TABLEFORMAT_END
  1
CELLSTYLE_BEGIN
 90
        2
 91
        1
300
_HEADER
309
CELLSTYLE_END
300
CELLSTYLE
  1
TABLEFORMAT_BEGIN
 90
        5
170
     1
 91
        0
 92
        0
 62
   257
 93
        1
300
CONTENTFORMAT
  1
CONTENTFORMAT_BEGIN
 90
        0
 91
        0
 92
      512
 93
        0
300

 40
0.0
140
1.0
 94
        2
 62
     0
340
21DF
144
0.18
309
CONTENTFORMAT_END
171
     1
301
MARGIN
  1
CELLMARGIN_BEGIN
 40
0.06
 40
0.06
 40
0.06
 40
0.06
 40
0.18
 40
0.18
309
CELLMARGIN_END
 94
        6
 95
        1
302
GRIDFORMAT
  1
GRIDFORMAT_BEGIN
 90
        0
 91
        1
 62
     0
 92
       -2
340
0
 93
        0
 40
0.045
309
GRIDFORMAT_END
 95
        2
302
GRIDFORMAT
  1
GRIDFORMAT_BEGIN
 90
        0
 91
        1
 62
     0
 92
       -2
340
0
 93
        0
 40
0.045
309
GRIDFORMAT_END
 95
        4
302
GRIDFORMAT
  1
GRIDFORMAT_BEGIN
 90
        0
 91
        1
 62
     0
 92
       -2
340
0
 93
        0
 40
0.045
309
GRIDFORMAT_END
 95
        8
302
GRIDFORMAT
  1
GRIDFORMAT_BEGIN
 90
        0
 91
        1
 62
     0
 92
       -2
340
0
 93
        0
 40
0.045
309
GRIDFORMAT_END
 95
       16
302
GRIDFORMAT
  1
GRIDFORMAT_BEGIN
 90
        0
 91
        1
 62
     0
 92
       -2
340
0
 93
        0
 40
0.045
309
GRIDFORMAT_END
 95
       32
302
GRIDFORMAT
  1
GRIDFORMAT_BEGIN
 90
        0
 91
        1
 62
     0
 92
       -2
340
0
 93
        0
 40
0.045
309
GRIDFORMAT_END
309
TABLEFORMAT_END
  1
CELLSTYLE_BEGIN
 90
        3
 91
        2
300
_DATA
309
CELLSTYLE_END
  0
XRECORD
  5
248E
102
{ACAD_REACTORS
330
233F
102
}
330
233F
100
AcDbXrecord
280
     1
102
ACAD_ROUNDTRIP_PRE2007_TABLESTYLE
 90
      512
 91
        0
  1

 92
      512
 93
        0
  2

 94
      512
 95
        0
  3

  0
XRECORD
  5
2473
102
{ACAD_REACTORS
330
2472
102
}
330
2472
100
AcDbXrecord
280
     1
102
RTVSPropertyOp0
 70
     1
102
RTVSPropertyOp1
 70
     1
102
RTVSPropertyOp2
 70
     1
102
RTVSPropertyOp3
 70
     1
102
RTVSPropertyOp4
 70
     1
102
RTVSPropertyOp5
 70
     1
102
RTVSPropertyOp6
 70
     1
102
RTVSPropertyOp7
 70
     1
102
RTVSPropertyOp8
 70
     1
102
RTVSPropertyOp9
 70
     1
102
RTVSPropertyOp10
 70
     1
102
RTVSPropertyOp11
 70
     1
102
RTVSPropertyOp12
 70
     1
102
RTVSPropertyOp13
 70
     1
102
RTVSPropertyOp14
 70
     1
102
RTVSPropertyOp15
 70
     1
102
RTVSPropertyOp16
 70
     1
102
RTVSPropertyOp17
 70
     1
102
RTVSPropertyOp18
 70
     1
102
RTVSPropertyOp19
 70
     1
102
RTVSPropertyOp20
 70
     1
102
RTVSPropertyOp21
 70
     1
102
RTVSPropertyOp22
 70
     1
102
RTVSPropertyOp23
 70
     1
102
RTVSPropertyOp24
 70
     1
102
RTVSPropertyOp25
 70
     1
102
RTVSPropertyOp26
 70
     1
102
RTVSPropertyOp27
 70
     1
  0
XRECORD
  5
2477
102
{ACAD_REACTORS
330
2476
102
}
330
2476
100
AcDbXrecord
280
     1
102
RTVSPropertyOp0
 70
     1
102
RTVSPropertyOp1
 70
     1
102
RTVSPropertyOp2
 70
     1
102
RTVSPropertyOp3
 70
     1
102
RTVSPropertyOp4
 70
     1
102
RTVSPropertyOp5
 70
     1
102
RTVSPropertyOp6
 70
     1
102
RTVSPropertyOp7
 70
     1
102
RTVSPropertyOp8
 70
     1
102
RTVSPropertyOp9
 70
     1
102
RTVSPropertyOp10
 70
     1
102
RTVSPropertyOp11
 70
     1
102
RTVSPropertyOp12
 70
     1
102
RTVSPropertyOp13
 70
     1
102
RTVSPropertyOp14
 70
     1
102
RTVSPropertyOp15
 70
     1
102
RTVSPropertyOp16
 70
     1
102
RTVSPropertyOp17
 70
     1
102
RTVSPropertyOp18
 70
     1
102
RTVSPropertyOp19
 70
     1
102
RTVSPropertyOp20
 70
     1
102
RTVSPropertyOp21
 70
     1
102
RTVSPropertyOp22
 70
     1
102
RTVSPropertyOp23
 70
     1
102
RTVSPropertyOp24
 70
     1
102
RTVSPropertyOp25
 70
     1
102
RTVSPropertyOp26
 70
     1
102
RTVSPropertyOp27
 70
     1
  0
XRECORD
  5
2475
102
{ACAD_REACTORS
330
2474
102
}
330
2474
100
AcDbXrecord
280
     1
102
RTVSPropertyOp0
 70
     1
102
RTVSPropertyOp1
 70
     1
102
RTVSPropertyOp2
 70
     1
102
RTVSPropertyOp3
 70
     1
102
RTVSPropertyOp4
 70
     1
102
RTVSPropertyOp5
 70
     1
102
RTVSPropertyOp6
 70
     1
102
RTVSPropertyOp7
 70
     1
102
RTVSPropertyOp8
 70
     1
102
RTVSPropertyOp9
 70
     1
102
RTVSPropertyOp10
 70
     1
102
RTVSPropertyOp11
 70
     1
102
RTVSPropertyOp12
 70
     1
102
RTVSPropertyOp13
 70
     1
102
RTVSPropertyOp14
 70
     1
102
RTVSPropertyOp15
 70
     1
102
RTVSPropertyOp16
 70
     1
102
RTVSPropertyOp17
 70
     1
102
RTVSPropertyOp18
 70
     1
102
RTVSPropertyOp19
 70
     1
102
RTVSPropertyOp20
 70
     1
102
RTVSPropertyOp21
 70
     1
102
RTVSPropertyOp22
 70
     1
102
RTVSPropertyOp23
 70
     1
102
RTVSPropertyOp24
 70
     1
102
RTVSPropertyOp25
 70
     1
102
RTVSPropertyOp26
 70
     1
102
RTVSPropertyOp27
 70
     1
  0
XRECORD
  5
2471
102
{ACAD_REACTORS
330
2470
102
}
330
2470
100
AcDbXrecord
280
     1
102
RTVSPropertyOp0
 70
     1
102
RTVSPropertyOp1
 70
     1
102
RTVSPropertyOp2
 70
     1
102
RTVSPropertyOp3
 70
     1
102
RTVSPropertyOp4
 70
     1
102
RTVSPropertyOp5
 70
     1
102
RTVSPropertyOp6
 70
     1
102
RTVSPropertyOp7
 70
     1
102
RTVSPropertyOp8
 70
     1
102
RTVSPropertyOp9
 70
     1
102
RTVSPropertyOp10
 70
     1
102
RTVSPropertyOp11
 70
     1
102
RTVSPropertyOp12
 70
     1
102
RTVSPropertyOp13
 70
     1
102
RTVSPropertyOp14
 70
     1
102
RTVSPropertyOp15
 70
     1
102
RTVSPropertyOp16
 70
     1
102
RTVSPropertyOp17
 70
     1
102
RTVSPropertyOp18
 70
     1
102
RTVSPropertyOp19
 70
     1
102
RTVSPropertyOp20
 70
     1
102
RTVSPropertyOp21
 70
     1
102
RTVSPropertyOp22
 70
     1
102
RTVSPropertyOp23
 70
     1
102
RTVSPropertyOp24
 70
     1
102
RTVSPropertyOp25
 70
     1
102
RTVSPropertyOp26
 70
     1
102
RTVSPropertyOp27
 70
     1
  0
XRECORD
  5
247F
102
{ACAD_REACTORS
330
247E
102
}
330
247E
100
AcDbXrecord
280
     1
102
RTVSPropertyOp0
 70
     1
102
RTVSPropertyOp1
 70
     1
102
RTVSPropertyOp2
 70
     1
102
RTVSPropertyOp3
 70
     1
102
RTVSPropertyOp4
 70
     1
102
RTVSPropertyOp5
 70
     1
102
RTVSPropertyOp6
 70
     1
102
RTVSPropertyOp7
 70
     1
102
RTVSPropertyOp8
 70
     1
102
RTVSPropertyOp9
 70
     1
102
RTVSPropertyOp10
 70
     1
102
RTVSPropertyOp11
 70
     1
102
RTVSPropertyOp12
 70
     1
102
RTVSPropertyOp13
 70
     1
102
RTVSPropertyOp14
 70
     1
102
RTVSPropertyOp15
 70
     1
102
RTVSPropertyOp16
 70
     1
102
RTVSPropertyOp17
 70
     1
102
RTVSPropertyOp18
 70
     1
102
RTVSPropertyOp19
 70
     1
102
RTVSPropertyOp20
 70
     1
102
RTVSPropertyOp21
 70
     1
102
RTVSPropertyOp22
 70
     1
102
RTVSPropertyOp23
 70
     1
102
RTVSPropertyOp24
 70
     1
102
RTVSPropertyOp25
 70
     1
102
RTVSPropertyOp26
 70
     1
102
RTVSPropertyOp27
 70
     1
  0
XRECORD
  5
2487
102
{ACAD_REACTORS
330
2486
102
}
330
2486
100
AcDbXrecord
280
     1
102
RTVSPropertyOp0
 70
     1
102
RTVSPropertyOp1
 70
     1
102
RTVSPropertyOp2
 70
     1
102
RTVSPropertyOp3
 70
     1
102
RTVSPropertyOp4
 70
     1
102
RTVSPropertyOp5
 70
     1
102
RTVSPropertyOp6
 70
     1
102
RTVSPropertyOp7
 70
     1
102
RTVSPropertyOp8
 70
     1
102
RTVSPropertyOp9
 70
     1
102
RTVSPropertyOp10
 70
     1
102
RTVSPropertyOp11
 70
     1
102
RTVSPropertyOp12
 70
     1
102
RTVSPropertyOp13
 70
     1
102
RTVSPropertyOp14
 70
     1
102
RTVSPropertyOp15
 70
     1
102
RTVSPropertyOp16
 70
     1
102
RTVSPropertyOp17
 70
     1
102
RTVSPropertyOp18
 70
     1
102
RTVSPropertyOp19
 70
     1
102
RTVSPropertyOp20
 70
     1
102
RTVSPropertyOp21
 70
     1
102
RTVSPropertyOp22
 70
     1
102
RTVSPropertyOp23
 70
     1
102
RTVSPropertyOp24
 70
     1
102
RTVSPropertyOp25
 70
     1
102
RTVSPropertyOp26
 70
     1
102
RTVSPropertyOp27
 70
     1
  0
XRECORD
  5
2479
102
{ACAD_REACTORS
330
2478
102
}
330
2478
100
AcDbXrecord
280
     1
102
RTVSPropertyOp0
 70
     1
102
RTVSPropertyOp1
 70
     1
102
RTVSPropertyOp2
 70
     1
102
RTVSPropertyOp3
 70
     1
102
RTVSPropertyOp4
 70
     1
102
RTVSPropertyOp5
 70
     1
102
RTVSPropertyOp6
 70
     1
102
RTVSPropertyOp7
 70
     1
102
RTVSPropertyOp8
 70
     1
102
RTVSPropertyOp9
 70
     1
102
RTVSPropertyOp10
 70
     1
102
RTVSPropertyOp11
 70
     1
102
RTVSPropertyOp12
 70
     1
102
RTVSPropertyOp13
 70
     1
102
RTVSPropertyOp14
 70
     1
102
RTVSPropertyOp15
 70
     1
102
RTVSPropertyOp16
 70
     1
102
RTVSPropertyOp17
 70
     1
102
RTVSPropertyOp18
 70
     1
102
RTVSPropertyOp19
 70
     1
102
RTVSPropertyOp20
 70
     1
102
RTVSPropertyOp21
 70
     1
102
RTVSPropertyOp22
 70
     1
102
RTVSPropertyOp23
 70
     1
102
RTVSPropertyOp24
 70
     1
102
RTVSPropertyOp25
 70
     1
102
RTVSPropertyOp26
 70
     1
102
RTVSPropertyOp27
 70
     1
  0
XRECORD
  5
247D
102
{ACAD_REACTORS
330
247C
102
}
330
247C
100
AcDbXrecord
280
     1
102
RTVSPropertyOp0
 70
     1
102
RTVSPropertyOp1
 70
     1
102
RTVSPropertyOp2
 70
     1
102
RTVSPropertyOp3
 70
     1
102
RTVSPropertyOp4
 70
     1
102
RTVSPropertyOp5
 70
     1
102
RTVSPropertyOp6
 70
     1
102
RTVSPropertyOp7
 70
     1
102
RTVSPropertyOp8
 70
     1
102
RTVSPropertyOp9
 70
     1
102
RTVSPropertyOp10
 70
     1
102
RTVSPropertyOp11
 70
     1
102
RTVSPropertyOp12
 70
     1
102
RTVSPropertyOp13
 70
     1
102
RTVSPropertyOp14
 70
     1
102
RTVSPropertyOp15
 70
     1
102
RTVSPropertyOp16
 70
     1
102
RTVSPropertyOp17
 70
     1
102
RTVSPropertyOp18
 70
     1
102
RTVSPropertyOp19
 70
     1
102
RTVSPropertyOp20
 70
     1
102
RTVSPropertyOp21
 70
     1
102
RTVSPropertyOp22
 70
     1
102
RTVSPropertyOp23
 70
     1
102
RTVSPropertyOp24
 70
     1
102
RTVSPropertyOp25
 70
     1
102
RTVSPropertyOp26
 70
     1
102
RTVSPropertyOp27
 70
     1
  0
XRECORD
  5
248D
102
{ACAD_REACTORS
330
248C
102
}
330
248C
100
AcDbXrecord
280
     1
102
RTVSPropertyOp0
 70
     0
102
RTVSPropertyOp1
 70
     0
102
RTVSPropertyOp2
 70
     0
102
RTVSPropertyOp3
 70
     0
102
RTVSPropertyOp4
 70
     0
102
RTVSPropertyOp5
 70
     0
102
RTVSPropertyOp6
 70
     0
102
RTVSPropertyOp7
 70
     0
102
RTVSPropertyOp8
 70
     0
102
RTVSPropertyOp9
 70
     0
102
RTVSPropertyOp10
 70
     0
102
RTVSPropertyOp11
 70
     0
102
RTVSPropertyOp12
 70
     0
102
RTVSPropertyOp13
 70
     0
102
RTVSPropertyOp14
 70
     2
102
RTVSPropertyOp15
 70
     0
102
RTVSPropertyOp16
 70
     0
102
RTVSPropertyOp17
 70
     0
102
RTVSPropertyOp18
 70
     0
102
RTVSPropertyOp19
 70
     0
102
RTVSPropertyOp20
 70
     0
102
RTVSPropertyOp21
 70
     0
102
RTVSPropertyOp22
 70
     0
102
RTVSPropertyOp23
 70
     0
102
RTVSPropertyOp24
 70
     0
102
RTVSPropertyOp25
 70
     0
102
RTVSPropertyOp26
 70
     0
102
RTVSPropertyOp27
 70
     0
  0
XRECORD
  5
2485
102
{ACAD_REACTORS
330
2484
102
}
330
2484
100
AcDbXrecord
280
     1
102
RTVSPropertyOp0
 70
     1
102
RTVSPropertyOp1
 70
     1
102
RTVSPropertyOp2
 70
     1
102
RTVSPropertyOp3
 70
     1
102
RTVSPropertyOp4
 70
     1
102
RTVSPropertyOp5
 70
     1
102
RTVSPropertyOp6
 70
     1
102
RTVSPropertyOp7
 70
     1
102
RTVSPropertyOp8
 70
     1
102
RTVSPropertyOp9
 70
     1
102
RTVSPropertyOp10
 70
     1
102
RTVSPropertyOp11
 70
     1
102
RTVSPropertyOp12
 70
     1
102
RTVSPropertyOp13
 70
     1
102
RTVSPropertyOp14
 70
     1
102
RTVSPropertyOp15
 70
     1
102
RTVSPropertyOp16
 70
     1
102
RTVSPropertyOp17
 70
     1
102
RTVSPropertyOp18
 70
     1
102
RTVSPropertyOp19
 70
     1
102
RTVSPropertyOp20
 70
     1
102
RTVSPropertyOp21
 70
     1
102
RTVSPropertyOp22
 70
     1
102
RTVSPropertyOp23
 70
     1
102
RTVSPropertyOp24
 70
     1
102
RTVSPropertyOp25
 70
     1
102
RTVSPropertyOp26
 70
     1
102
RTVSPropertyOp27
 70
     1
  0
XRECORD
  5
2469
102
{ACAD_REACTORS
330
2468
102
}
330
2468
100
AcDbXrecord
280
     1
102
RTVSPropertyOp0
 70
     1
102
RTVSPropertyOp1
 70
     1
102
RTVSPropertyOp2
 70
     1
102
RTVSPropertyOp3
 70
     1
102
RTVSPropertyOp4
 70
     1
102
RTVSPropertyOp5
 70
     1
102
RTVSPropertyOp6
 70
     1
102
RTVSPropertyOp7
 70
     1
102
RTVSPropertyOp8
 70
     1
102
RTVSPropertyOp9
 70
     1
102
RTVSPropertyOp10
 70
     1
102
RTVSPropertyOp11
 70
     1
102
RTVSPropertyOp12
 70
     1
102
RTVSPropertyOp13
 70
     1
102
RTVSPropertyOp14
 70
     1
102
RTVSPropertyOp15
 70
     1
102
RTVSPropertyOp16
 70
     1
102
RTVSPropertyOp17
 70
     1
102
RTVSPropertyOp18
 70
     1
102
RTVSPropertyOp19
 70
     1
102
RTVSPropertyOp20
 70
     1
102
RTVSPropertyOp21
 70
     1
102
RTVSPropertyOp22
 70
     1
102
RTVSPropertyOp23
 70
     1
102
RTVSPropertyOp24
 70
     1
102
RTVSPropertyOp25
 70
     1
102
RTVSPropertyOp26
 70
     1
102
RTVSPropertyOp27
 70
     1
  0
XRECORD
  5
246B
102
{ACAD_REACTORS
330
246A
102
}
330
246A
100
AcDbXrecord
280
     1
102
RTVSPropertyOp0
 70
     1
102
RTVSPropertyOp1
 70
     1
102
RTVSPropertyOp2
 70
     1
102
RTVSPropertyOp3
 70
     1
102
RTVSPropertyOp4
 70
     1
102
RTVSPropertyOp5
 70
     1
102
RTVSPropertyOp6
 70
     1
102
RTVSPropertyOp7
 70
     1
102
RTVSPropertyOp8
 70
     1
102
RTVSPropertyOp9
 70
     1
102
RTVSPropertyOp10
 70
     1
102
RTVSPropertyOp11
 70
     1
102
RTVSPropertyOp12
 70
     1
102
RTVSPropertyOp13
 70
     1
102
RTVSPropertyOp14
 70
     1
102
RTVSPropertyOp15
 70
     1
102
RTVSPropertyOp16
 70
     1
102
RTVSPropertyOp17
 70
     1
102
RTVSPropertyOp18
 70
     1
102
RTVSPropertyOp19
 70
     1
102
RTVSPropertyOp20
 70
     1
102
RTVSPropertyOp21
 70
     1
102
RTVSPropertyOp22
 70
     1
102
RTVSPropertyOp23
 70
     1
102
RTVSPropertyOp24
 70
     1
102
RTVSPropertyOp25
 70
     1
102
RTVSPropertyOp26
 70
     1
102
RTVSPropertyOp27
 70
     1
  0
XRECORD
  5
246D
102
{ACAD_REACTORS
330
246C
102
}
330
246C
100
AcDbXrecord
280
     1
102
RTVSPropertyOp0
 70
     1
102
RTVSPropertyOp1
 70
     1
102
RTVSPropertyOp2
 70
     1
102
RTVSPropertyOp3
 70
     1
102
RTVSPropertyOp4
 70
     1
102
RTVSPropertyOp5
 70
     1
102
RTVSPropertyOp6
 70
     1
102
RTVSPropertyOp7
 70
     1
102
RTVSPropertyOp8
 70
     1
102
RTVSPropertyOp9
 70
     1
102
RTVSPropertyOp10
 70
     1
102
RTVSPropertyOp11
 70
     1
102
RTVSPropertyOp12
 70
     1
102
RTVSPropertyOp13
 70
     1
102
RTVSPropertyOp14
 70
     1
102
RTVSPropertyOp15
 70
     1
102
RTVSPropertyOp16
 70
     1
102
RTVSPropertyOp17
 70
     1
102
RTVSPropertyOp18
 70
     1
102
RTVSPropertyOp19
 70
     1
102
RTVSPropertyOp20
 70
     1
102
RTVSPropertyOp21
 70
     1
102
RTVSPropertyOp22
 70
     1
102
RTVSPropertyOp23
 70
     1
102
RTVSPropertyOp24
 70
     1
102
RTVSPropertyOp25
 70
     1
102
RTVSPropertyOp26
 70
     1
102
RTVSPropertyOp27
 70
     1
  0
XRECORD
  5
246F
102
{ACAD_REACTORS
330
246E
102
}
330
246E
100
AcDbXrecord
280
     1
102
RTVSPropertyOp0
 70
     1
102
RTVSPropertyOp1
 70
     1
102
RTVSPropertyOp2
 70
     1
102
RTVSPropertyOp3
 70
     1
102
RTVSPropertyOp4
 70
     1
102
RTVSPropertyOp5
 70
     1
102
RTVSPropertyOp6
 70
     1
102
RTVSPropertyOp7
 70
     1
102
RTVSPropertyOp8
 70
     1
102
RTVSPropertyOp9
 70
     1
102
RTVSPropertyOp10
 70
     1
102
RTVSPropertyOp11
 70
     1
102
RTVSPropertyOp12
 70
     1
102
RTVSPropertyOp13
 70
     1
102
RTVSPropertyOp14
 70
     1
102
RTVSPropertyOp15
 70
     1
102
RTVSPropertyOp16
 70
     1
102
RTVSPropertyOp17
 70
     1
102
RTVSPropertyOp18
 70
     1
102
RTVSPropertyOp19
 70
     1
102
RTVSPropertyOp20
 70
     1
102
RTVSPropertyOp21
 70
     1
102
RTVSPropertyOp22
 70
     1
102
RTVSPropertyOp23
 70
     1
102
RTVSPropertyOp24
 70
     1
102
RTVSPropertyOp25
 70
     1
102
RTVSPropertyOp26
 70
     1
102
RTVSPropertyOp27
 70
     1
  0
XRECORD
  5
2489
102
{ACAD_REACTORS
330
2488
102
}
330
2488
100
AcDbXrecord
280
     1
102
RTVSPropertyOp0
 70
     0
102
RTVSPropertyOp1
 70
     0
102
RTVSPropertyOp2
 70
     0
102
RTVSPropertyOp3
 70
     0
102
RTVSPropertyOp4
 70
     0
102
RTVSPropertyOp5
 70
     0
102
RTVSPropertyOp6
 70
     0
102
RTVSPropertyOp7
 70
     0
102
RTVSPropertyOp8
 70
     0
102
RTVSPropertyOp9
 70
     0
102
RTVSPropertyOp10
 70
     0
102
RTVSPropertyOp11
 70
     0
102
RTVSPropertyOp12
 70
     0
102
RTVSPropertyOp13
 70
     0
102
RTVSPropertyOp14
 70
     2
102
RTVSPropertyOp15
 70
     0
102
RTVSPropertyOp16
 70
     0
102
RTVSPropertyOp17
 70
     0
102
RTVSPropertyOp18
 70
     0
102
RTVSPropertyOp19
 70
     0
102
RTVSPropertyOp20
 70
     0
102
RTVSPropertyOp21
 70
     0
102
RTVSPropertyOp22
 70
     0
102
RTVSPropertyOp23
 70
     0
102
RTVSPropertyOp24
 70
     0
102
RTVSPropertyOp25
 70
     0
102
RTVSPropertyOp26
 70
     0
102
RTVSPropertyOp27
 70
     0
  0
XRECORD
  5
2483
102
{ACAD_REACTORS
330
2482
102
}
330
2482
100
AcDbXrecord
280
     1
102
RTVSPropertyOp0
 70
     1
102
RTVSPropertyOp1
 70
     1
102
RTVSPropertyOp2
 70
     1
102
RTVSPropertyOp3
 70
     1
102
RTVSPropertyOp4
 70
     1
102
RTVSPropertyOp5
 70
     1
102
RTVSPropertyOp6
 70
     1
102
RTVSPropertyOp7
 70
     1
102
RTVSPropertyOp8
 70
     1
102
RTVSPropertyOp9
 70
     1
102
RTVSPropertyOp10
 70
     1
102
RTVSPropertyOp11
 70
     1
102
RTVSPropertyOp12
 70
     1
102
RTVSPropertyOp13
 70
     1
102
RTVSPropertyOp14
 70
     1
102
RTVSPropertyOp15
 70
     1
102
RTVSPropertyOp16
 70
     1
102
RTVSPropertyOp17
 70
     1
102
RTVSPropertyOp18
 70
     1
102
RTVSPropertyOp19
 70
     1
102
RTVSPropertyOp20
 70
     1
102
RTVSPropertyOp21
 70
     1
102
RTVSPropertyOp22
 70
     1
102
RTVSPropertyOp23
 70
     1
102
RTVSPropertyOp24
 70
     1
102
RTVSPropertyOp25
 70
     1
102
RTVSPropertyOp26
 70
     1
102
RTVSPropertyOp27
 70
     1
  0
XRECORD
  5
248B
102
{ACAD_REACTORS
330
248A
102
}
330
248A
100
AcDbXrecord
280
     1
102
RTVSPropertyOp0
 70
     0
102
RTVSPropertyOp1
 70
     0
102
RTVSPropertyOp2
 70
     0
102
RTVSPropertyOp3
 70
     0
102
RTVSPropertyOp4
 70
     0
102
RTVSPropertyOp5
 70
     0
102
RTVSPropertyOp6
 70
     0
102
RTVSPropertyOp7
 70
     0
102
RTVSPropertyOp8
 70
     0
102
RTVSPropertyOp9
 70
     0
102
RTVSPropertyOp10
 70
     0
102
RTVSPropertyOp11
 70
     0
102
RTVSPropertyOp12
 70
     0
102
RTVSPropertyOp13
 70
     0
102
RTVSPropertyOp14
 70
     2
102
RTVSPropertyOp15
 70
     0
102
RTVSPropertyOp16
 70
     0
102
RTVSPropertyOp17
 70
     0
102
RTVSPropertyOp18
 70
     0
102
RTVSPropertyOp19
 70
     0
102
RTVSPropertyOp20
 70
     0
102
RTVSPropertyOp21
 70
     0
102
RTVSPropertyOp22
 70
     0
102
RTVSPropertyOp23
 70
     0
102
RTVSPropertyOp24
 70
     0
102
RTVSPropertyOp25
 70
     0
102
RTVSPropertyOp26
 70
     0
102
RTVSPropertyOp27
 70
     0
  0
XRECORD
  5
247B
102
{ACAD_REACTORS
330
247A
102
}
330
247A
100
AcDbXrecord
280
     1
102
RTVSPropertyOp0
 70
     1
102
RTVSPropertyOp1
 70
     1
102
RTVSPropertyOp2
 70
     1
102
RTVSPropertyOp3
 70
     1
102
RTVSPropertyOp4
 70
     1
102
RTVSPropertyOp5
 70
     1
102
RTVSPropertyOp6
 70
     1
102
RTVSPropertyOp7
 70
     1
102
RTVSPropertyOp8
 70
     1
102
RTVSPropertyOp9
 70
     1
102
RTVSPropertyOp10
 70
     1
102
RTVSPropertyOp11
 70
     1
102
RTVSPropertyOp12
 70
     1
102
RTVSPropertyOp13
 70
     1
102
RTVSPropertyOp14
 70
     1
102
RTVSPropertyOp15
 70
     1
102
RTVSPropertyOp16
 70
     1
102
RTVSPropertyOp17
 70
     1
102
RTVSPropertyOp18
 70
     1
102
RTVSPropertyOp19
 70
     1
102
RTVSPropertyOp20
 70
     1
102
RTVSPropertyOp21
 70
     1
102
RTVSPropertyOp22
 70
     1
102
RTVSPropertyOp23
 70
     1
102
RTVSPropertyOp24
 70
     1
102
RTVSPropertyOp25
 70
     1
102
RTVSPropertyOp26
 70
     1
102
RTVSPropertyOp27
 70
     1
  0
XRECORD
  5
2481
102
{ACAD_REACTORS
330
2480
102
}
330
2480
100
AcDbXrecord
280
     1
102
RTVSPropertyOp0
 70
     1
102
RTVSPropertyOp1
 70
     1
102
RTVSPropertyOp2
 70
     1
102
RTVSPropertyOp3
 70
     1
102
RTVSPropertyOp4
 70
     1
102
RTVSPropertyOp5
 70
     1
102
RTVSPropertyOp6
 70
     1
102
RTVSPropertyOp7
 70
     1
102
RTVSPropertyOp8
 70
     1
102
RTVSPropertyOp9
 70
     1
102
RTVSPropertyOp10
 70
     1
102
RTVSPropertyOp11
 70
     1
102
RTVSPropertyOp12
 70
     1
102
RTVSPropertyOp13
 70
     1
102
RTVSPropertyOp14
 70
     1
102
RTVSPropertyOp15
 70
     1
102
RTVSPropertyOp16
 70
     1
102
RTVSPropertyOp17
 70
     1
102
RTVSPropertyOp18
 70
     1
102
RTVSPropertyOp19
 70
     1
102
RTVSPropertyOp20
 70
     1
102
RTVSPropertyOp21
 70
     1
102
RTVSPropertyOp22
 70
     1
102
RTVSPropertyOp23
 70
     1
102
RTVSPropertyOp24
 70
     1
102
RTVSPropertyOp25
 70
     1
102
RTVSPropertyOp26
 70
     1
102
RTVSPropertyOp27
 70
     1
  0
ENDSEC
  0
EOF
