  0
SECTION
  2
HEADER
  9
$ACADVER
  1
AC1015
  9
$ACADMAINTVER
 70
    20
  9
$DWGCODEPAGE
  3
ANSI_1252
  9
$INSBASE
 10
0.0
 20
0.0
 30
0.0
  9
$EXTMIN
 10
-92.58549340263659
 20
-42.2030153063672
 30
0.0
  9
$EXTMAX
 10
281.8064524279634
 20
75.63085931383686
 30
0.0
  9
$LIMMIN
 10
0.0
 20
0.0
  9
$LIMMAX
 10
420.0
 20
297.0
  9
$ORTHOMODE
 70
     0
  9
$REGENMODE
 70
     1
  9
$FILLMODE
 70
     1
  9
$QTEXTMODE
 70
     0
  9
$MIRRTEXT
 70
     0
  9
$LTSCALE
 40
15.0
  9
$ATTMODE
 70
     2
  9
$TEXTSIZE
 40
2.5
  9
$TRACEWID
 40
1.0
  9
$TEXTSTYLE
  7
STANDARD
  9
$CLAYER
  8
0
  9
$CELTYPE
  6
ByLayer
  9
$CECOLOR
 62
   256
  9
$CELTSCALE
 40
1.0
  9
$DISPSILH
 70
     0
  9
$DIMSCALE
 40
1.0
  9
$DIMASZ
 40
3.5
  9
$DIMEXO
 40
1.0
  9
$DIMDLI
 40
10.0
  9
$DIMRND
 40
0.0
  9
$DIMDLE
 40
0.0
  9
$DIMEXE
 40
1.0
  9
$DIMTP
 40
0.1
  9
$DIMTM
 40
0.1
  9
$DIMTXT
 40
3.5
  9
$DIMCEN
 40
0.0
  9
$DIMTSZ
 40
0.0
  9
$DIMTOL
 70
     0
  9
$DIMLIM
 70
     0
  9
$DIMTIH
 70
     0
  9
$DIMTOH
 70
     0
  9
$DIMSE1
 70
     0
  9
$DIMSE2
 70
     0
  9
$DIMTAD
 70
     1
  9
$DIMZIN
 70
     8
  9
$DIMBLK
  1

  9
$DIMASO
 70
     1
  9
$DIMSHO
 70
     1
  9
$DIMPOST
  1

  9
$DIMAPOST
  1
"
  9
$DIMALT
 70
     0
  9
$DIMALTD
 70
     2
  9
$DIMALTF
 40
0.0393701
  9
$DIMLFAC
 40
1.0
  9
$DIMTOFL
 70
     1
  9
$DIMTVP
 40
0.0
  9
$DIMTIX
 70
     0
  9
$DIMSOXD
 70
     0
  9
$DIMSAH
 70
     0
  9
$DIMBLK1
  1

  9
$DIMBLK2
  1

  9
$DIMSTYLE
  2
AM_DIN
  9
$DIMCLRD
 70
   256
  9
$DIMCLRE
 70
   256
  9
$DIMCLRT
 70
   140
  9
$DIMTFAC
 40
0.71
  9
$DIMGAP
 40
1.5
  9
$DIMJUST
 70
     0
  9
$DIMSD1
 70
     0
  9
$DIMSD2
 70
     0
  9
$DIMTOLJ
 70
     1
  9
$DIMTZIN
 70
     0
  9
$DIMALTZ
 70
     0
  9
$DIMALTTZ
 70
     0
  9
$DIMUPT
 70
     0
  9
$DIMDEC
 70
     4
  9
$DIMTDEC
 70
     4
  9
$DIMALTU
 70
     2
  9
$DIMALTTD
 70
     2
  9
$DIMTXSTY
  7
STANDARD
  9
$DIMAUNIT
 70
     0
  9
$DIMADEC
 70
     0
  9
$DIMALTRND
 40
0.0
  9
$DIMAZIN
 70
     0
  9
$DIMDSEP
 70
    46
  9
$DIMATFIT
 70
     3
  9
$DIMFRAC
 70
     0
  9
$DIMLDRBLK
  1

  9
$DIMLUNIT
 70
     2
  9
$DIMLWD
 70
    -2
  9
$DIMLWE
 70
    -2
  9
$DIMTMOVE
 70
     0
  9
$LUNITS
 70
     2
  9
$LUPREC
 70
     2
  9
$SKETCHINC
 40
1.0
  9
$FILLETRAD
 40
2.5
  9
$AUNITS
 70
     0
  9
$AUPREC
 70
     0
  9
$MENU
  1
.
  9
$ELEVATION
 40
0.0
  9
$PELEVATION
 40
0.0
  9
$THICKNESS
 40
0.0
  9
$LIMCHECK
 70
     0
  9
$CHAMFERA
 40
2.5
  9
$CHAMFERB
 40
2.5
  9
$CHAMFERC
 40
0.0
  9
$CHAMFERD
 40
0.0
  9
$SKPOLY
 70
     0
  9
$TDCREATE
 40
2455672.497120949
  9
$TDUCREATE
 40
2455672.455454283
  9
$TDUPDATE
 40
2457718.715807292
  9
$TDUUPDATE
 40
2457718.674140625
  9
$TDINDWG
 40
0.1688576042
  9
$TDUSRTIMER
 40
0.1688566898
  9
$USRTIMER
 70
     1
  9
$ANGBASE
 50
0.0
  9
$ANGDIR
 70
     0
  9
$PDMODE
 70
     0
  9
$PDSIZE
 40
0.0
  9
$PLINEWID
 40
0.0
  9
$SPLFRAME
 70
     0
  9
$SPLINETYPE
 70
     6
  9
$SPLINESEGS
 70
     8
  9
$HANDSEED
  5
2553
  9
$SURFTAB1
 70
     6
  9
$SURFTAB2
 70
     6
  9
$SURFTYPE
 70
     6
  9
$SURFU
 70
     6
  9
$SURFV
 70
     6
  9
$UCSBASE
  2

  9
$UCSNAME
  2

  9
$UCSORG
 10
0.0
 20
0.0
 30
0.0
  9
$UCSXDIR
 10
1.0
 20
0.0
 30
0.0
  9
$UCSYDIR
 10
0.0
 20
1.0
 30
0.0
  9
$UCSORTHOREF
  2

  9
$UCSORTHOVIEW
 70
     0
  9
$UCSORGTOP
 10
0.0
 20
0.0
 30
0.0
  9
$UCSORGBOTTOM
 10
0.0
 20
0.0
 30
0.0
  9
$UCSORGLEFT
 10
0.0
 20
0.0
 30
0.0
  9
$UCSORGRIGHT
 10
0.0
 20
0.0
 30
0.0
  9
$UCSORGFRONT
 10
0.0
 20
0.0
 30
0.0
  9
$UCSORGBACK
 10
0.0
 20
0.0
 30
0.0
  9
$PUCSBASE
  2

  9
$PUCSNAME
  2

  9
$PUCSORG
 10
0.0
 20
0.0
 30
0.0
  9
$PUCSXDIR
 10
1.0
 20
0.0
 30
0.0
  9
$PUCSYDIR
 10
0.0
 20
1.0
 30
0.0
  9
$PUCSORTHOREF
  2

  9
$PUCSORTHOVIEW
 70
     0
  9
$PUCSORGTOP
 10
0.0
 20
0.0
 30
0.0
  9
$PUCSORGBOTTOM
 10
0.0
 20
0.0
 30
0.0
  9
$PUCSORGLEFT
 10
0.0
 20
0.0
 30
0.0
  9
$PUCSORGRIGHT
 10
0.0
 20
0.0
 30
0.0
  9
$PUCSORGFRONT
 10
0.0
 20
0.0
 30
0.0
  9
$PUCSORGBACK
 10
0.0
 20
0.0
 30
0.0
  9
$USERI1
 70
     0
  9
$USERI2
 70
     0
  9
$USERI3
 70
     0
  9
$USERI4
 70
     0
  9
$USERI5
 70
     0
  9
$USERR1
 40
0.0
  9
$USERR2
 40
0.0
  9
$USERR3
 40
0.0
  9
$USERR4
 40
0.0
  9
$USERR5
 40
0.0
  9
$WORLDVIEW
 70
     1
  9
$SHADEDGE
 70
     3
  9
$SHADEDIF
 70
    70
  9
$TILEMODE
 70
     1
  9
$MAXACTVP
 70
    64
  9
$PINSBASE
 10
0.0
 20
0.0
 30
0.0
  9
$PLIMCHECK
 70
     0
  9
$PEXTMIN
 10
1.131083300733189
 20
0.7885833800308344
 30
0.0
  9
$PEXTMAX
 10
10.17974970659872
 20
7.097250420277513
 30
0.0
  9
$PLIMMIN
 10
-0.1912502979669045
 20
-0.1912499975970411
  9
$PLIMMAX
 10
11.503750057671
 20
8.072082940049059
  9
$UNITMODE
 70
     0
  9
$VISRETAIN
 70
     1
  9
$PLINEGEN
 70
     0
  9
$PSLTSCALE
 70
     1
  9
$TREEDEPTH
 70
  3020
  9
$CMLSTYLE
  2
Standard
  9
$CMLJUST
 70
     0
  9
$CMLSCALE
 40
1.0
  9
$PROXYGRAPHICS
 70
     1
  9
$MEASUREMENT
 70
     0
  9
$CELWEIGHT
370
    -1
  9
$ENDCAPS
280
     0
  9
$JOINSTYLE
280
     0
  9
$LWDISPLAY
290
     0
  9
$INSUNITS
 70
     0
  9
$HYPERLINKBASE
  1

  9
$STYLESHEET
  1

  9
$XEDIT
290
     1
  9
$CEPSNTYPE
380
     0
  9
$PSTYLEMODE
290
     1
  9
$FINGERPRINTGUID
  2
{83C8A0B7-7AE6-4DD4-9068-0BFBB5F286F4}
  9
$VERSIONGUID
  2
{91924F6E-C939-4AA7-8FBF-EA659A6094DE}
  9
$EXTNAMES
290
     1
  9
$PSVPSCALE
 40
0.0
  9
$OLESTARTUP
290
     0
  0
ENDSEC
  0
SECTION
  2
CLASSES
  0
CLASS
  1
ACDBDICTIONARYWDFLT
  2
AcDbDictionaryWithDefault
  3
ObjectDBX Classes
 90
        0
280
     0
281
     0
  0
CLASS
  1
MATERIAL
  2
AcDbMaterial
  3
ObjectDBX Classes
 90
     1153
280
     0
281
     0
  0
CLASS
  1
VISUALSTYLE
  2
AcDbVisualStyle
  3
ObjectDBX Classes
 90
     4095
280
     0
281
     0
  0
CLASS
  1
SCALE
  2
AcDbScale
  3
ObjectDBX Classes
 90
     1153
280
     0
281
     0
  0
CLASS
  1
TABLESTYLE
  2
AcDbTableStyle
  3
ObjectDBX Classes
 90
     4095
280
     0
281
     0
  0
CLASS
  1
MLEADERSTYLE
  2
AcDbMLeaderStyle
  3
ACDB_MLEADERSTYLE_CLASS
 90
     4095
280
     0
281
     0
  0
CLASS
  1
DICTIONARYVAR
  2
AcDbDictionaryVar
  3
ObjectDBX Classes
 90
        0
280
     0
281
     0
  0
CLASS
  1
CELLSTYLEMAP
  2
AcDbCellStyleMap
  3
ObjectDBX Classes
 90
     1152
280
     0
281
     0
  0
CLASS
  1
ACDBPLACEHOLDER
  2
AcDbPlaceHolder
  3
ObjectDBX Classes
 90
        0
280
     0
281
     0
  0
CLASS
  1
LAYOUT
  2
AcDbLayout
  3
ObjectDBX Classes
 90
        0
280
     0
281
     0
  0
ENDSEC
  0
SECTION
  2
TABLES
  0
TABLE
  2
VPORT
  5
2209
330
0
100
AcDbSymbolTable
 70
     1
  0
VPORT
  5
227B
330
2209
100
AcDbSymbolTableRecord
100
AcDbViewportTableRecord
  2
*ACTIVE
 70
     0
 10
0.0
 20
0.0
 11
1.0
 21
1.0
 12
30.21355990876145
 22
-7.800612342933959
 13
0.0
 23
0.0
 14
2.5
 24
2.5
 15
10.0
 25
10.0
 16
0.0
 26
0.0
 36
271.8911082557244
 17
-7.077914484763256
 27
5.165508186469383
 37
0.0
 40
61.22203894833797
 41
2.145220588235293
 42
50.0
 43
0.0
 44
0.0
 50
0.0
 51
0.0
 71
     0
 72
   100
 73
     1
 74
     3
 75
     0
 76
     0
 77
     0
 78
     0
281
     0
 65
     1
110
0.0
120
0.0
130
0.0
111
1.0
121
0.0
131
0.0
112
0.0
122
1.0
132
0.0
 79
     0
146
0.0
  0
ENDTAB
  0
TABLE
  2
LTYPE
  5
2206
330
0
100
AcDbSymbolTable
 70
     4
  0
LTYPE
  5
2266
330
2206
100
AcDbSymbolTableRecord
100
AcDbLinetypeTableRecord
  2
ByBlock
 70
     0
  3

 72
    65
 73
     0
 40
0.0
  0
LTYPE
  5
2267
330
2206
100
AcDbSymbolTableRecord
100
AcDbLinetypeTableRecord
  2
ByLayer
 70
     0
  3

 72
    65
 73
     0
 40
0.0
  0
LTYPE
  5
2268
330
2206
100
AcDbSymbolTableRecord
100
AcDbLinetypeTableRecord
  2
CONTINUOUS
 70
     0
  3
Solid line
 72
    65
 73
     0
 40
0.0
  0
LTYPE
  5
227C
330
2206
100
AcDbSymbolTableRecord
100
AcDbLinetypeTableRecord
  2
CENTER
 70
     0
  3
__ . __
 72
    65
 73
     4
 40
7.0
 49
4.0
 74
     0
 49
-1.0
 74
     0
 49
1.0
 74
     0
 49
-1.0
 74
     0
  0
LTYPE
  5
227D
330
2206
100
AcDbSymbolTableRecord
100
AcDbLinetypeTableRecord
  2
DASHED
 70
     0
  3
- - - - - - - - - - - - - - - - - - - -
 72
    65
 73
     2
 40
0.2
 49
0.1
 74
     0
 49
-0.1
 74
     0
  0
LTYPE
  5
227E
330
2206
100
AcDbSymbolTableRecord
100
AcDbLinetypeTableRecord
  2
CENTER2
 70
     0
  3
Center (.5x) ___ _ ___ _ ___ _ ___ _ ___ _ ___
 72
    65
 73
     4
 40
1.125
 49
0.75
 74
     0
 49
-0.125
 74
     0
 49
0.125
 74
     0
 49
-0.125
 74
     0
  0
ENDTAB
  0
TABLE
  2
LAYER
  5
2203
330
0
100
AcDbSymbolTable
 70
    12
  0
LAYER
  5
2260
102
{ACAD_XDICTIONARY
360
23A5
102
}
330
2203
100
AcDbSymbolTableRecord
100
AcDbLayerTableRecord
  2
0
 70
     0
 62
     7
  6
CONTINUOUS
370
    -3
390
2210
  0
LAYER
  5
227F
102
{ACAD_XDICTIONARY
360
23A7
102
}
330
2203
100
AcDbSymbolTableRecord
100
AcDbLayerTableRecord
  2
1
 70
     0
 62
     4
  6
CONTINUOUS
370
    -3
390
2210
  0
LAYER
  5
2280
330
2203
100
AcDbSymbolTableRecord
100
AcDbLayerTableRecord
  2
DEFPOINTS
 70
     0
 62
     7
  6
CONTINUOUS
290
     0
370
    -3
390
2210
  0
LAYER
  5
2281
102
{ACAD_XDICTIONARY
360
23A9
102
}
330
2203
100
AcDbSymbolTableRecord
100
AcDbLayerTableRecord
  2
80
 70
     0
 62
     6
  6
CONTINUOUS
370
    -3
390
2210
  0
LAYER
  5
2282
102
{ACAD_XDICTIONARY
360
23AB
102
}
330
2203
100
AcDbSymbolTableRecord
100
AcDbLayerTableRecord
  2
81
 70
     0
 62
     3
  6
CONTINUOUS
370
    -3
390
2210
  0
LAYER
  5
2283
102
{ACAD_XDICTIONARY
360
23AD
102
}
330
2203
100
AcDbSymbolTableRecord
100
AcDbLayerTableRecord
  2
SK4
 70
     0
 62
     2
  6
CENTER
370
    -3
390
2210
  0
LAYER
  5
2284
102
{ACAD_XDICTIONARY
360
23AF
102
}
330
2203
100
AcDbSymbolTableRecord
100
AcDbLayerTableRecord
  2
SK3
 70
     0
 62
     1
  6
DASHED
370
    -3
390
2210
  0
LAYER
  5
2285
102
{ACAD_XDICTIONARY
360
23B1
102
}
330
2203
100
AcDbSymbolTableRecord
100
AcDbLayerTableRecord
  2
SK2
 70
     0
 62
   255
  6
CONTINUOUS
370
    -3
390
2210
  0
LAYER
  5
2286
102
{ACAD_XDICTIONARY
360
23B3
102
}
330
2203
100
AcDbSymbolTableRecord
100
AcDbLayerTableRecord
  2
SK6
 70
     0
 62
     5
  6
CONTINUOUS
370
    -3
390
2210
  0
LAYER
  5
2287
102
{ACAD_XDICTIONARY
360
23B5
102
}
330
2203
100
AcDbSymbolTableRecord
100
AcDbLayerTableRecord
  2
2
 70
     0
 62
     7
  6
CONTINUOUS
370
    -3
390
2210
  0
LAYER
  5
2288
102
{ACAD_XDICTIONARY
360
23B7
102
}
330
2203
100
AcDbSymbolTableRecord
100
AcDbLayerTableRecord
  2
4
 70
     0
 62
     2
  6
CENTER
370
    -3
390
2210
  0
LAYER
  5
2289
102
{ACAD_XDICTIONARY
360
23B9
102
}
330
2203
100
AcDbSymbolTableRecord
100
AcDbLayerTableRecord
  2
6
 70
     0
 62
     5
  6
CONTINUOUS
370
    -3
390
2210
  0
ENDTAB
  0
TABLE
  2
STYLE
  5
2204
330
0
100
AcDbSymbolTable
 70
     5
  0
STYLE
  5
2261
330
2204
100
AcDbSymbolTableRecord
100
AcDbTextStyleTableRecord
  2
STANDARD
 70
     0
 40
0.0
 41
1.0
 50
0.0
 71
     0
 42
2.5
  3
ISOCP.SHX
  4

  0
STYLE
  5
2265
330
2204
100
AcDbSymbolTableRecord
100
AcDbTextStyleTableRecord
  2
ANNOTATIVE
 70
     0
 40
0.0
 41
1.0
 50
0.0
 71
     0
 42
0.2
  3
txt
  4

1001
ACADANNOTATIVE
1000
AnnotativeData
1002
{
1070
     1
1070
     1
1002
}
  0
STYLE
  5
228A
330
2204
100
AcDbSymbolTableRecord
100
AcDbTextStyleTableRecord
  2
TEXTSTYLE_2
 70
     0
 40
0.0
 41
0.72
 50
0.0
 71
     0
 42
0.2
  3
SIMPLEX.SHX
  4

  0
STYLE
  5
228B
330
2204
100
AcDbSymbolTableRecord
100
AcDbTextStyleTableRecord
  2
TEXTSTYLE_3
 70
     0
 40
0.0
 41
0.72
 50
0.0
 71
     0
 42
0.2
  3
gdt
  4

  0
STYLE
  5
228C
330
2204
100
AcDbSymbolTableRecord
100
AcDbTextStyleTableRecord
  2
TEXTSTYLE_4
 70
     0
 40
0.0
 41
1.0
 50
0.0
 71
     0
 42
0.2
  3
txt
  4

  0
ENDTAB
  0
TABLE
  2
VIEW
  5
2207
330
0
100
AcDbSymbolTable
 70
     0
  0
ENDTAB
  0
TABLE
  2
UCS
  5
2208
330
0
100
AcDbSymbolTable
 70
     0
  0
ENDTAB
  0
TABLE
  2
APPID
  5
220A
330
0
100
AcDbSymbolTable
 70
    27
  0
APPID
  5
2262
330
220A
100
AcDbSymbolTableRecord
100
AcDbRegAppTableRecord
  2
ACAD
 70
     0
  0
APPID
  5
2269
330
220A
100
AcDbSymbolTableRecord
100
AcDbRegAppTableRecord
  2
ACADANNOTATIVE
 70
     0
  0
APPID
  5
228D
330
220A
100
AcDbSymbolTableRecord
100
AcDbRegAppTableRecord
  2
MCAD_NO_VIS
 70
     0
  0
APPID
  5
228E
330
220A
100
AcDbSymbolTableRecord
100
AcDbRegAppTableRecord
  2
ACAD_TEMP_GRAPHIC
 70
     0
  0
APPID
  5
228F
330
220A
100
AcDbSymbolTableRecord
100
AcDbRegAppTableRecord
  2
ACATTRIBSERVICES
 70
     0
  0
APPID
  5
2290
330
220A
100
AcDbSymbolTableRecord
100
AcDbRegAppTableRecord
  2
AD_DRAW
 70
     0
  0
APPID
  5
2291
330
220A
100
AcDbSymbolTableRecord
100
AcDbRegAppTableRecord
  2
DESIGNERASSEMBLIES
 70
     0
  0
APPID
  5
2292
330
220A
100
AcDbSymbolTableRecord
100
AcDbRegAppTableRecord
  2
ACADM_DIM_EDIT
 70
     0
  0
APPID
  5
2293
330
220A
100
AcDbSymbolTableRecord
100
AcDbRegAppTableRecord
  2
AMDT_DM_ADJ
 70
     0
  0
APPID
  5
2294
330
220A
100
AcDbSymbolTableRecord
100
AcDbRegAppTableRecord
  2
ACAD_DSTYLE_DIMARC_LENGTH_
 70
     0
  0
APPID
  5
2295
330
220A
100
AcDbSymbolTableRecord
100
AcDbRegAppTableRecord
  2
ACAD_DSTYLE_DIMJOGGED_JOGA
 70
     0
  0
APPID
  5
2296
330
220A
100
AcDbSymbolTableRecord
100
AcDbRegAppTableRecord
  2
ACAECLAYERSTANDARD
 70
     0
  0
APPID
  5
2297
330
220A
100
AcDbSymbolTableRecord
100
AcDbRegAppTableRecord
  2
ACAD_MLEADERVER
 70
     0
  0
APPID
  5
2298
330
220A
100
AcDbSymbolTableRecord
100
AcDbRegAppTableRecord
  2
ACAD_DSTYLE_DIMJAG
 70
     0
  0
APPID
  5
2299
330
220A
100
AcDbSymbolTableRecord
100
AcDbRegAppTableRecord
  2
ACAD_DSTYLE_DIMBREAK
 70
     0
  0
APPID
  5
229A
330
220A
100
AcDbSymbolTableRecord
100
AcDbRegAppTableRecord
  2
ACAD_EXEMPT_FROM_CAD_STANDARDS
 70
     0
  0
APPID
  5
229B
330
220A
100
AcDbSymbolTableRecord
100
AcDbRegAppTableRecord
  2
GENIUS_GENREC_14
 70
     0
  0
APPID
  5
229C
330
220A
100
AcDbSymbolTableRecord
100
AcDbRegAppTableRecord
  2
GENIUS_GENODEF_13
 70
     0
  0
APPID
  5
229D
330
220A
100
AcDbSymbolTableRecord
100
AcDbRegAppTableRecord
  2
GENIUS_GENOBJ-N-REC_13
 70
     0
  0
APPID
  5
229E
330
220A
100
AcDbSymbolTableRecord
100
AcDbRegAppTableRecord
  2
ACAUTHENVIRON
 70
     0
  0
APPID
  5
229F
330
220A
100
AcDbSymbolTableRecord
100
AcDbRegAppTableRecord
  2
ACDBDYNAMICBLOCKTRUENAME
 70
     0
  0
APPID
  5
22A0
330
220A
100
AcDbSymbolTableRecord
100
AcDbRegAppTableRecord
  2
ACDBDYNAMICBLOCKGUID
 70
     0
  0
APPID
  5
22A1
330
220A
100
AcDbSymbolTableRecord
100
AcDbRegAppTableRecord
  2
ACDBBLOCKREPETAG
 70
     0
  0
APPID
  5
22A2
330
220A
100
AcDbSymbolTableRecord
100
AcDbRegAppTableRecord
  2
ACADANNOPO
 70
     0
  0
APPID
  5
22A3
330
220A
100
AcDbSymbolTableRecord
100
AcDbRegAppTableRecord
  2
ACDBBLOCKREPBTAG
 70
     0
  0
APPID
  5
22A4
330
220A
100
AcDbSymbolTableRecord
100
AcDbRegAppTableRecord
  2
ACCMTRANSPARENCY
 70
     0
  0
APPID
  5
22A5
330
220A
100
AcDbSymbolTableRecord
100
AcDbRegAppTableRecord
  2
ACAD_PSEXT
 70
     0
  0
ENDTAB
  0
TABLE
  2
DIMSTYLE
  5
220B
330
0
100
AcDbSymbolTable
 70
     6
100
AcDbDimStyleTable
 71
     2
340
2263
340
22A6
  0
DIMSTYLE
105
2263
102
{ACAD_REACTORS
330
1DA9
330
1DAA
330
1DAB
330
1DAC
330
1DAD
330
1DAE
330
1DAF
330
2374
102
}
330
220B
100
AcDbSymbolTableRecord
100
AcDbDimStyleTableRecord
  2
STANDARD
 70
     0
 41
3.5
 47
0.005
 48
0.005
 71
     1
 73
     0
 74
     0
 77
     1
 78
     8
140
3.5
178
     5
271
     2
272
     2
279
     2
284
     8
285
     8
286
     8
340
2261
  0
DIMSTYLE
105
2264
330
220B
100
AcDbSymbolTableRecord
100
AcDbDimStyleTableRecord
  2
ANNOTATIVE
 70
     0
271
     2
272
     2
279
     2
284
     8
285
     8
286
     8
340
2261
1001
ACADANNOTATIVE
1000
AnnotativeData
1002
{
1070
     1
1070
     1
1002
}
  0
DIMSTYLE
105
22A6
330
220B
100
AcDbSymbolTableRecord
100
AcDbDimStyleTableRecord
  2
AM_DIN
 70
     0
  4
"
 41
3.5
 42
1.0
 43
10.0
 44
1.0
 47
0.1
 48
0.1
 73
     0
 74
     0
 77
     1
 78
     8
140
3.5
141
0.0
143
0.0393701
146
0.71
147
1.5
172
     1
176
   256
177
   256
178
   140
271
     2
272
     2
279
     2
284
     8
285
     8
286
     8
340
2261
  0
DIMSTYLE
105
22A7
330
220B
100
AcDbSymbolTableRecord
100
AcDbDimStyleTableRecord
  2
DIMSTYLE_1
 70
     0
 41
3.5
 47
0.3
 48
0.3
 73
     0
 74
     0
 77
     1
 78
     8
140
3.5
271
     2
272
     2
279
     2
284
     8
285
     8
286
     8
340
2261
  0
DIMSTYLE
105
22A8
330
220B
100
AcDbSymbolTableRecord
100
AcDbDimStyleTableRecord
  2
DIMSTYLE_2
 70
     0
 41
3.5
 47
0.2
 48
0.2
 73
     0
 74
     0
 77
     1
 78
     8
140
3.5
271
     2
272
     2
279
     2
284
     8
285
     8
286
     8
340
2261
  0
DIMSTYLE
105
22A9
330
220B
100
AcDbSymbolTableRecord
100
AcDbDimStyleTableRecord
  2
DIMSTYLE_3
 70
     0
 41
3.5
 47
0.2
 48
0.2
 73
     0
 74
     0
 77
     1
 78
     8
140
3.5
271
     2
272
     2
279
     2
284
     8
285
     8
286
     8
340
2261
  0
ENDTAB
  0
TABLE
  2
BLOCK_RECORD
  5
2202
330
0
100
AcDbSymbolTable
 70
    56
  0
BLOCK_RECORD
  5
2277
330
2202
100
AcDbSymbolTableRecord
100
AcDbBlockTableRecord
  2
*Model_Space
340
227A
  0
BLOCK_RECORD
  5
2273
330
2202
100
AcDbSymbolTableRecord
100
AcDbBlockTableRecord
  2
*Paper_Space
340
2276
  0
BLOCK_RECORD
  5
22AE
330
2202
100
AcDbSymbolTableRecord
100
AcDbBlockTableRecord
  2
$MODEL_SPACE
340
0
  0
BLOCK_RECORD
  5
22B0
330
2202
100
AcDbSymbolTableRecord
100
AcDbBlockTableRecord
  2
$PAPER_SPACE
340
0
  0
BLOCK_RECORD
  5
22B2
330
2202
100
AcDbSymbolTableRecord
100
AcDbBlockTableRecord
  2
*D2
340
0
  0
BLOCK_RECORD
  5
22B4
330
2202
100
AcDbSymbolTableRecord
100
AcDbBlockTableRecord
  2
*U3
340
0
102
{BLKREFS
331
1965
102
}
  0
BLOCK_RECORD
  5
22B6
330
2202
100
AcDbSymbolTableRecord
100
AcDbBlockTableRecord
  2
*D4
340
0
  0
BLOCK_RECORD
  5
22B8
330
2202
100
AcDbSymbolTableRecord
100
AcDbBlockTableRecord
  2
*U5
340
0
102
{BLKREFS
331
196E
102
}
  0
BLOCK_RECORD
  5
22BA
330
2202
100
AcDbSymbolTableRecord
100
AcDbBlockTableRecord
  2
*D6
340
0
  0
BLOCK_RECORD
  5
22BC
330
2202
100
AcDbSymbolTableRecord
100
AcDbBlockTableRecord
  2
*U7
340
0
102
{BLKREFS
331
19BD
102
}
  0
BLOCK_RECORD
  5
22BE
330
2202
100
AcDbSymbolTableRecord
100
AcDbBlockTableRecord
  2
*D8
340
0
  0
BLOCK_RECORD
  5
22C0
330
2202
100
AcDbSymbolTableRecord
100
AcDbBlockTableRecord
  2
*U9
340
0
102
{BLKREFS
331
1980
102
}
  0
BLOCK_RECORD
  5
22C2
330
2202
100
AcDbSymbolTableRecord
100
AcDbBlockTableRecord
  2
*D10
340
0
  0
BLOCK_RECORD
  5
22C4
330
2202
100
AcDbSymbolTableRecord
100
AcDbBlockTableRecord
  2
*U11
340
0
102
{BLKREFS
331
1989
102
}
  0
BLOCK_RECORD
  5
22C6
330
2202
100
AcDbSymbolTableRecord
100
AcDbBlockTableRecord
  2
*D12
340
0
  0
BLOCK_RECORD
  5
22C8
330
2202
100
AcDbSymbolTableRecord
100
AcDbBlockTableRecord
  2
*U13
340
0
102
{BLKREFS
331
1992
102
}
  0
BLOCK_RECORD
  5
22CA
330
2202
100
AcDbSymbolTableRecord
100
AcDbBlockTableRecord
  2
*D14
340
0
  0
BLOCK_RECORD
  5
22CC
330
2202
100
AcDbSymbolTableRecord
100
AcDbBlockTableRecord
  2
*U15
340
0
102
{BLKREFS
331
195C
102
}
  0
BLOCK_RECORD
  5
22CE
330
2202
100
AcDbSymbolTableRecord
100
AcDbBlockTableRecord
  2
_FILLED
340
0
102
{BLKREFS
331
1CCB
331
1CCC
331
1CD5
331
1CD6
331
1CDF
331
1CE0
331
1CE9
331
1CEA
331
1CF3
331
1CF4
331
1CFD
331
1CFE
331
1D07
331
1D08
331
1FC8
331
1FC9
331
1FAC
331
1FAD
331
1FEC
331
1FED
331
1FE3
331
1FE4
331
1FB5
331
1FB6
331
1FF5
331
1FF6
331
1FA3
331
1FA4
102
}
  0
BLOCK_RECORD
  5
22D0
330
2202
100
AcDbSymbolTableRecord
100
AcDbBlockTableRecord
  2
*D17
340
0
  0
BLOCK_RECORD
  5
22D2
330
2202
100
AcDbSymbolTableRecord
100
AcDbBlockTableRecord
  2
*U18
340
0
102
{BLKREFS
331
1CC6
102
}
  0
BLOCK_RECORD
  5
22D4
330
2202
100
AcDbSymbolTableRecord
100
AcDbBlockTableRecord
  2
*D19
340
0
  0
BLOCK_RECORD
  5
22D6
330
2202
100
AcDbSymbolTableRecord
100
AcDbBlockTableRecord
  2
*U20
340
0
102
{BLKREFS
331
1CD0
102
}
  0
BLOCK_RECORD
  5
22D8
330
2202
100
AcDbSymbolTableRecord
100
AcDbBlockTableRecord
  2
*D21
340
0
  0
BLOCK_RECORD
  5
22DA
330
2202
100
AcDbSymbolTableRecord
100
AcDbBlockTableRecord
  2
*U22
340
0
102
{BLKREFS
331
1CDA
102
}
  0
BLOCK_RECORD
  5
22DC
330
2202
100
AcDbSymbolTableRecord
100
AcDbBlockTableRecord
  2
*D23
340
0
  0
BLOCK_RECORD
  5
22DE
330
2202
100
AcDbSymbolTableRecord
100
AcDbBlockTableRecord
  2
*U24
340
0
102
{BLKREFS
331
1CE4
102
}
  0
BLOCK_RECORD
  5
22E0
330
2202
100
AcDbSymbolTableRecord
100
AcDbBlockTableRecord
  2
*D25
340
0
  0
BLOCK_RECORD
  5
22E2
330
2202
100
AcDbSymbolTableRecord
100
AcDbBlockTableRecord
  2
*U26
340
0
102
{BLKREFS
331
1CEE
102
}
  0
BLOCK_RECORD
  5
22E4
330
2202
100
AcDbSymbolTableRecord
100
AcDbBlockTableRecord
  2
*D27
340
0
  0
BLOCK_RECORD
  5
22E6
330
2202
100
AcDbSymbolTableRecord
100
AcDbBlockTableRecord
  2
*U28
340
0
102
{BLKREFS
331
1CF8
102
}
  0
BLOCK_RECORD
  5
22E8
330
2202
100
AcDbSymbolTableRecord
100
AcDbBlockTableRecord
  2
*D29
340
0
  0
BLOCK_RECORD
  5
22EA
330
2202
100
AcDbSymbolTableRecord
100
AcDbBlockTableRecord
  2
*U30
340
0
102
{BLKREFS
331
1D02
102
}
  0
BLOCK_RECORD
  5
22EC
330
2202
100
AcDbSymbolTableRecord
100
AcDbBlockTableRecord
  2
*D31
340
0
  0
BLOCK_RECORD
  5
22EE
330
2202
100
AcDbSymbolTableRecord
100
AcDbBlockTableRecord
  2
*U32
340
0
102
{BLKREFS
331
1FCA
102
}
  0
BLOCK_RECORD
  5
22F0
330
2202
100
AcDbSymbolTableRecord
100
AcDbBlockTableRecord
  2
*D33
340
0
  0
BLOCK_RECORD
  5
22F2
330
2202
100
AcDbSymbolTableRecord
100
AcDbBlockTableRecord
  2
*U34
340
0
102
{BLKREFS
331
1FAE
102
}
  0
BLOCK_RECORD
  5
22F4
330
2202
100
AcDbSymbolTableRecord
100
AcDbBlockTableRecord
  2
*D35
340
0
  0
BLOCK_RECORD
  5
22F6
330
2202
100
AcDbSymbolTableRecord
100
AcDbBlockTableRecord
  2
*U36
340
0
102
{BLKREFS
331
1FEE
102
}
  0
BLOCK_RECORD
  5
22F8
330
2202
100
AcDbSymbolTableRecord
100
AcDbBlockTableRecord
  2
*D37
340
0
  0
BLOCK_RECORD
  5
22FA
330
2202
100
AcDbSymbolTableRecord
100
AcDbBlockTableRecord
  2
*U38
340
0
102
{BLKREFS
331
1FE5
102
}
  0
BLOCK_RECORD
  5
22FC
330
2202
100
AcDbSymbolTableRecord
100
AcDbBlockTableRecord
  2
*D39
340
0
  0
BLOCK_RECORD
  5
22FE
330
2202
100
AcDbSymbolTableRecord
100
AcDbBlockTableRecord
  2
*U40
340
0
102
{BLKREFS
331
1FB7
102
}
  0
BLOCK_RECORD
  5
2300
330
2202
100
AcDbSymbolTableRecord
100
AcDbBlockTableRecord
  2
*D41
340
0
  0
BLOCK_RECORD
  5
2302
330
2202
100
AcDbSymbolTableRecord
100
AcDbBlockTableRecord
  2
*U42
340
0
102
{BLKREFS
331
1FF7
102
}
  0
BLOCK_RECORD
  5
2304
330
2202
100
AcDbSymbolTableRecord
100
AcDbBlockTableRecord
  2
*D43
340
0
  0
BLOCK_RECORD
  5
2306
330
2202
100
AcDbSymbolTableRecord
100
AcDbBlockTableRecord
  2
*U44
340
0
102
{BLKREFS
331
1FA5
102
}
  0
BLOCK_RECORD
  5
2308
330
2202
100
AcDbSymbolTableRecord
100
AcDbBlockTableRecord
  2
*U45
340
0
  0
BLOCK_RECORD
  5
230A
330
2202
100
AcDbSymbolTableRecord
100
AcDbBlockTableRecord
  2
*U46
340
0
  0
BLOCK_RECORD
  5
230C
330
2202
100
AcDbSymbolTableRecord
100
AcDbBlockTableRecord
  2
*U47
340
0
  0
BLOCK_RECORD
  5
2311
330
2202
100
AcDbSymbolTableRecord
100
AcDbBlockTableRecord
  2
*D48
340
0
  0
BLOCK_RECORD
  5
231E
330
2202
100
AcDbSymbolTableRecord
100
AcDbBlockTableRecord
  2
*D49
340
0
  0
BLOCK_RECORD
  5
232B
330
2202
100
AcDbSymbolTableRecord
100
AcDbBlockTableRecord
  2
*D50
340
0
  0
BLOCK_RECORD
  5
2337
330
2202
100
AcDbSymbolTableRecord
100
AcDbBlockTableRecord
  2
*D51
340
0
  0
BLOCK_RECORD
  5
2344
330
2202
100
AcDbSymbolTableRecord
100
AcDbBlockTableRecord
  2
*D52
340
0
  0
BLOCK_RECORD
  5
2351
330
2202
100
AcDbSymbolTableRecord
100
AcDbBlockTableRecord
  2
*D53
340
0
  0
BLOCK_RECORD
  5
235E
330
2202
100
AcDbSymbolTableRecord
100
AcDbBlockTableRecord
  2
*D54
340
0
  0
BLOCK_RECORD
  5
2375
330
2202
100
AcDbSymbolTableRecord
100
AcDbBlockTableRecord
  2
*D55
340
0
  0
ENDTAB
  0
ENDSEC
  0
SECTION
  2
BLOCKS
  0
BLOCK
  5
2278
330
2277
100
AcDbEntity
  8
0
100
AcDbBlockBegin
  2
*Model_Space
 70
     0
 10
0.0
 20
0.0
 30
0.0
  3
*Model_Space
  1

  0
ENDBLK
  5
2279
330
2277
100
AcDbEntity
  8
0
100
AcDbBlockEnd
  0
BLOCK
  5
2274
330
2273
100
AcDbEntity
 67
     1
  8
0
100
AcDbBlockBegin
  2
*Paper_Space
 70
     0
 10
0.0
 20
0.0
 30
0.0
  3
*Paper_Space
  1

  0
ENDBLK
  5
2275
330
2273
100
AcDbEntity
 67
     1
  8
0
100
AcDbBlockEnd
  0
BLOCK
  5
22AF
330
22AE
100
AcDbEntity
  8
0
100
AcDbBlockBegin
  2
$MODEL_SPACE
 70
     0
 10
0.0
 20
0.0
 30
0.0
  3
$MODEL_SPACE
  1

  0
ENDBLK
  5
2128
330
22AE
100
AcDbEntity
  8
0
100
AcDbBlockEnd
  0
BLOCK
  5
22B1
330
22B0
100
AcDbEntity
  8
0
100
AcDbBlockBegin
  2
$PAPER_SPACE
 70
     0
 10
0.0
 20
0.0
 30
0.0
  3
$PAPER_SPACE
  1

  0
ENDBLK
  5
2124
330
22B0
100
AcDbEntity
  8
0
100
AcDbBlockEnd
  0
BLOCK
  5
22B3
330
22B2
100
AcDbEntity
  8
0
100
AcDbBlockBegin
  2
*D2
 70
     1
 10
0.0
 20
0.0
 30
0.0
  3
*D2
  1

  0
LINE
  5
1962
330
22B2
100
AcDbEntity
  8
2
 62
     0
100
AcDbLine
 10
0.0
 20
15.47474753889992
 30
0.0
 11
0.0000000000000018
 21
44.22528291250108
 31
0.0
  0
LINE
  5
1963
330
22B2
100
AcDbEntity
  8
2
 62
     0
100
AcDbLine
 10
60.0
 20
11.5625
 30
0.0
 11
60.0
 21
44.22528291250108
 31
0.0
  0
LINE
  5
1964
330
22B2
100
AcDbEntity
  8
2
 62
     0
100
AcDbLine
 10
3.5
 20
44.04528291250108
 30
0.0
 11
56.5
 21
44.04528291250108
 31
0.0
  0
INSERT
  5
1965
330
22B2
100
AcDbEntity
  8
0
100
AcDbBlockReference
  2
*U3
 10
0.0
 20
0.0
 30
0.0
  0
SOLID
  5
1966
330
22B2
100
AcDbEntity
  8
2
 62
     0
100
AcDbTrace
 10
3.5
 20
44.62861624583442
 30
0.0
 11
3.5
 21
43.46194957916774
 31
0.0
 12
0.0000000000000018
 22
44.04528291250108
 32
0.0
 13
0.0000000000000018
 23
44.04528291250108
 33
0.0
  0
SOLID
  5
1967
330
22B2
100
AcDbEntity
  8
2
 62
     0
100
AcDbTrace
 10
56.5
 20
44.62861624583442
 30
0.0
 11
56.5
 21
43.46194957916774
 31
0.0
 12
60.0
 22
44.04528291250108
 32
0.0
 13
60.0
 23
44.04528291250108
 33
0.0
  0
POINT
  5
1968
330
22B2
100
AcDbEntity
  8
DEFPOINTS
 62
     0
100
AcDbPoint
 10
0.0
 20
15.41224753889992
 30
0.0
  0
POINT
  5
1969
330
22B2
100
AcDbEntity
  8
DEFPOINTS
 62
     0
100
AcDbPoint
 10
60.0
 20
11.5
 30
0.0
  0
POINT
  5
196A
330
22B2
100
AcDbEntity
  8
DEFPOINTS
 62
     0
100
AcDbPoint
 10
60.0
 20
44.04528291250108
 30
0.0
  0
ENDBLK
  5
1875
330
22B2
100
AcDbEntity
  8
0
100
AcDbBlockEnd
  0
BLOCK
  5
22B5
330
22B4
100
AcDbEntity
  8
0
100
AcDbBlockBegin
  2
*U3
 70
     1
 10
0.0
 20
0.0
 30
0.0
  3
*U3
  1

  0
TEXT
  5
1A69
330
22B4
100
AcDbEntity
  8
2
100
AcDbText
 10
26.57647811243656
 20
44.86565621357089
 30
0.0
 40
3.5
  1
60
100
AcDbText
  0
ENDBLK
  5
1A6B
330
22B4
100
AcDbEntity
  8
0
100
AcDbBlockEnd
  0
BLOCK
  5
22B7
330
22B6
100
AcDbEntity
  8
0
100
AcDbBlockBegin
  2
*D4
 70
     1
 10
0.0
 20
0.0
 30
0.0
  3
*D4
  1

  0
LINE
  5
196B
330
22B6
100
AcDbEntity
  8
SK2
 62
     0
100
AcDbLine
 10
-48.39999999999964
 20
10.37868783880026
 30
0.0
 11
-48.39999999999964
 21
44.2331845337
 31
0.0
  0
LINE
  5
196C
330
22B6
100
AcDbEntity
  8
SK2
 62
     0
100
AcDbLine
 10
0.0
 20
15.47474753889992
 30
0.0
 11
0.0000000000000018
 21
44.2331845337
 31
0.0
  0
LINE
  5
196D
330
22B6
100
AcDbEntity
  8
SK2
 62
     0
100
AcDbLine
 10
-44.89999999999962
 20
44.05318453369999
 30
0.0
 11
-3.499999999999996
 21
44.05318453369999
 31
0.0
  0
INSERT
  5
196E
330
22B6
100
AcDbEntity
  8
0
100
AcDbBlockReference
  2
*U5
 10
0.0
 20
0.0
 30
0.0
  0
SOLID
  5
196F
330
22B6
100
AcDbEntity
  8
SK2
 62
     0
100
AcDbTrace
 10
-44.89999999999962
 20
44.63651786703334
 30
0.0
 11
-44.89999999999962
 21
43.46985120036666
 31
0.0
 12
-48.39999999999964
 22
44.05318453369999
 32
0.0
 13
-48.39999999999964
 23
44.05318453369999
 33
0.0
  0
SOLID
  5
1970
330
22B6
100
AcDbEntity
  8
SK2
 62
     0
100
AcDbTrace
 10
-3.499999999999996
 20
44.63651786703334
 30
0.0
 11
-3.499999999999996
 21
43.46985120036666
 31
0.0
 12
0.0000000000000018
 22
44.05318453369999
 32
0.0
 13
0.0000000000000018
 23
44.05318453369999
 33
0.0
  0
POINT
  5
1971
330
22B6
100
AcDbEntity
  8
DEFPOINTS
 62
     0
100
AcDbPoint
 10
-48.39999999999964
 20
10.31618783880026
 30
0.0
  0
POINT
  5
1972
330
22B6
100
AcDbEntity
  8
DEFPOINTS
 62
     0
100
AcDbPoint
 10
0.0
 20
15.41224753889992
 30
0.0
  0
POINT
  5
1973
330
22B6
100
AcDbEntity
  8
DEFPOINTS
 62
     0
100
AcDbPoint
 10
0.0000000000000018
 20
44.05318453369999
 30
0.0
  0
ENDBLK
  5
18D4
330
22B6
100
AcDbEntity
  8
0
100
AcDbBlockEnd
  0
BLOCK
  5
22B9
330
22B8
100
AcDbEntity
  8
0
100
AcDbBlockBegin
  2
*U5
 70
     1
 10
0.0
 20
0.0
 30
0.0
  3
*U5
  1

  0
TEXT
  5
1A6D
330
22B8
100
AcDbEntity
  8
SK2
100
AcDbText
 10
-31.73018861516793
 20
44.99203433457181
 30
0.0
 40
3.5
  1
48.4
100
AcDbText
  0
ENDBLK
  5
1A6F
330
22B8
100
AcDbEntity
  8
0
100
AcDbBlockEnd
  0
BLOCK
  5
22BB
330
22BA
100
AcDbEntity
  8
0
100
AcDbBlockBegin
  2
*D6
 70
     1
 10
0.0
 20
0.0
 30
0.0
  3
*D6
  1

  0
LINE
  5
19BA
330
22BA
100
AcDbEntity
  8
2
 62
     0
100
AcDbLine
 10
0.0
 20
15.47474753889992
 30
0.0
 11
0.0000000000000013
 21
36.11458243420105
 31
0.0
  0
LINE
  5
19BB
330
22BA
100
AcDbEntity
  8
2
 62
     0
100
AcDbLine
 10
22.0
 20
23.962500000001
 30
0.0
 11
22.0
 21
36.11458243420105
 31
0.0
  0
LINE
  5
19BC
330
22BA
100
AcDbEntity
  8
2
 62
     0
100
AcDbLine
 10
3.5
 20
35.93458243420105
 30
0.0
 11
18.5
 21
35.93458243420105
 31
0.0
  0
INSERT
  5
19BD
330
22BA
100
AcDbEntity
  8
0
100
AcDbBlockReference
  2
*U7
 10
0.0
 20
0.0
 30
0.0
  0
SOLID
  5
19BE
330
22BA
100
AcDbEntity
  8
2
 62
     0
100
AcDbTrace
 10
3.5
 20
36.51791576753439
 30
0.0
 11
3.5
 21
35.35124910086771
 31
0.0
 12
0.0000000000000013
 22
35.93458243420105
 32
0.0
 13
0.0000000000000013
 23
35.93458243420105
 33
0.0
  0
SOLID
  5
19BF
330
22BA
100
AcDbEntity
  8
2
 62
     0
100
AcDbTrace
 10
18.5
 20
36.51791576753439
 30
0.0
 11
18.5
 21
35.35124910086771
 31
0.0
 12
22.0
 22
35.93458243420105
 32
0.0
 13
22.0
 23
35.93458243420105
 33
0.0
  0
POINT
  5
19C0
330
22BA
100
AcDbEntity
  8
DEFPOINTS
 62
     0
100
AcDbPoint
 10
0.0
 20
15.41224753889992
 30
0.0
  0
POINT
  5
19C1
330
22BA
100
AcDbEntity
  8
DEFPOINTS
 62
     0
100
AcDbPoint
 10
22.0
 20
23.900000000001
 30
0.0
  0
POINT
  5
19C2
330
22BA
100
AcDbEntity
  8
DEFPOINTS
 62
     0
100
AcDbPoint
 10
22.0
 20
35.93458243420105
 30
0.0
  0
ENDBLK
  5
18E0
330
22BA
100
AcDbEntity
  8
0
100
AcDbBlockEnd
  0
BLOCK
  5
22BD
330
22BC
100
AcDbEntity
  8
0
100
AcDbBlockBegin
  2
*U7
 70
     1
 10
0.0
 20
0.0
 30
0.0
  3
*U7
  1

  0
TEXT
  5
1A7F
330
22BC
100
AcDbEntity
  8
2
100
AcDbText
 10
7.729649161784447
 20
36.72992496952907
 30
0.0
 40
3.5
  1
22
100
AcDbText
  0
ENDBLK
  5
1A81
330
22BC
100
AcDbEntity
  8
0
100
AcDbBlockEnd
  0
BLOCK
  5
22BF
330
22BE
100
AcDbEntity
  8
0
100
AcDbBlockBegin
  2
*D8
 70
     1
 10
0.0
 20
0.0
 30
0.0
  3
*D8
  1

  0
LINE
  5
197D
330
22BE
100
AcDbEntity
  8
SK2
 62
     0
100
AcDbLine
 10
1.037499999999909
 20
-22.99999999999863
 30
0.0
 11
-71.73780759629966
 21
-22.99999999999863
 31
0.0
  0
LINE
  5
197E
330
22BE
100
AcDbEntity
  8
SK2
 62
     0
100
AcDbLine
 10
1.037499999999909
 20
23.00000000000137
 30
0.0
 11
-71.73780759629966
 21
23.00000000000137
 31
0.0
  0
LINE
  5
197F
330
22BE
100
AcDbEntity
  8
SK2
 62
     0
100
AcDbLine
 10
-71.55780759629966
 20
-19.49999999999862
 30
0.0
 11
-71.55780759629966
 21
19.50000000000137
 31
0.0
  0
INSERT
  5
1980
330
22BE
100
AcDbEntity
  8
0
100
AcDbBlockReference
  2
*U9
 10
0.0
 20
0.0
 30
0.0
  0
SOLID
  5
1981
330
22BE
100
AcDbEntity
  8
SK2
 62
     0
100
AcDbTrace
 10
-72.14114092963298
 20
-19.49999999999861
 30
0.0
 11
-70.97447426296631
 21
-19.49999999999862
 31
0.0
 12
-71.55780759629966
 22
-22.99999999999863
 32
0.0
 13
-71.55780759629966
 23
-22.99999999999863
 33
0.0
  0
SOLID
  5
1982
330
22BE
100
AcDbEntity
  8
SK2
 62
     0
100
AcDbTrace
 10
-72.14114092963298
 20
19.50000000000137
 30
0.0
 11
-70.97447426296631
 21
19.50000000000137
 31
0.0
 12
-71.55780759629966
 22
23.00000000000137
 32
0.0
 13
-71.55780759629966
 23
23.00000000000137
 33
0.0
  0
POINT
  5
1983
330
22BE
100
AcDbEntity
  8
DEFPOINTS
 62
     0
100
AcDbPoint
 10
1.099999999999909
 20
-22.99999999999863
 30
0.0
  0
POINT
  5
1984
330
22BE
100
AcDbEntity
  8
DEFPOINTS
 62
     0
100
AcDbPoint
 10
1.099999999999909
 20
23.00000000000137
 30
0.0
  0
POINT
  5
1985
330
22BE
100
AcDbEntity
  8
DEFPOINTS
 62
     0
100
AcDbPoint
 10
-71.55780759629966
 20
23.00000000000137
 30
0.0
  0
ENDBLK
  5
18EC
330
22BE
100
AcDbEntity
  8
0
100
AcDbBlockEnd
  0
BLOCK
  5
22C1
330
22C0
100
AcDbEntity
  8
0
100
AcDbBlockBegin
  2
*U9
 70
     1
 10
0.0
 20
0.0
 30
0.0
  3
*U9
  1

  0
TEXT
  5
1A71
330
22C0
100
AcDbEntity
  8
SK2
100
AcDbText
 10
-72.26342445040393
 20
-5.551610435369664
 30
0.0
 40
3.5
  1
\U+220546
 50
90.0
100
AcDbText
  0
ENDBLK
  5
1A73
330
22C0
100
AcDbEntity
  8
0
100
AcDbBlockEnd
  0
BLOCK
  5
22C3
330
22C2
100
AcDbEntity
  8
0
100
AcDbBlockBegin
  2
*D10
 70
     1
 10
0.0
 20
0.0
 30
0.0
  3
*D10
  1

  0
LINE
  5
1986
330
22C2
100
AcDbEntity
  8
SK2
 62
     0
100
AcDbLine
 10
-1.5625
 20
15.87500000000136
 30
0.0
 11
-62.40446057479953
 21
15.87500000000138
 31
0.0
  0
LINE
  5
1987
330
22C2
100
AcDbEntity
  8
SK2
 62
     0
100
AcDbLine
 10
-2.462500000000087
 20
-15.875
 30
0.0
 11
-62.40446057479953
 21
-15.87499999999998
 31
0.0
  0
LINE
  5
1988
330
22C2
100
AcDbEntity
  8
SK2
 62
     0
100
AcDbLine
 10
-62.22446057479952
 20
12.37500000000138
 30
0.0
 11
-62.22446057479952
 21
-12.37499999999998
 31
0.0
  0
INSERT
  5
1989
330
22C2
100
AcDbEntity
  8
0
100
AcDbBlockReference
  2
*U11
 10
0.0
 20
0.0
 30
0.0
  0
SOLID
  5
198A
330
22C2
100
AcDbEntity
  8
SK2
 62
     0
100
AcDbTrace
 10
-62.80779390813286
 20
12.37500000000138
 30
0.0
 11
-61.64112724146621
 21
12.37500000000138
 31
0.0
 12
-62.22446057479952
 22
15.87500000000138
 32
0.0
 13
-62.22446057479952
 23
15.87500000000138
 33
0.0
  0
SOLID
  5
198B
330
22C2
100
AcDbEntity
  8
SK2
 62
     0
100
AcDbTrace
 10
-62.80779390813286
 20
-12.37499999999998
 30
0.0
 11
-61.64112724146621
 21
-12.37499999999998
 31
0.0
 12
-62.22446057479952
 22
-15.87499999999998
 32
0.0
 13
-62.22446057479952
 23
-15.87499999999998
 33
0.0
  0
POINT
  5
198C
330
22C2
100
AcDbEntity
  8
DEFPOINTS
 62
     0
100
AcDbPoint
 10
-1.5
 20
15.87500000000136
 30
0.0
  0
POINT
  5
198D
330
22C2
100
AcDbEntity
  8
DEFPOINTS
 62
     0
100
AcDbPoint
 10
-2.400000000000087
 20
-15.875
 30
0.0
  0
POINT
  5
198E
330
22C2
100
AcDbEntity
  8
DEFPOINTS
 62
     0
100
AcDbPoint
 10
-62.22446057479952
 20
-15.87499999999998
 30
0.0
  0
ENDBLK
  5
18F8
330
22C2
100
AcDbEntity
  8
0
100
AcDbBlockEnd
  0
BLOCK
  5
22C5
330
22C4
100
AcDbEntity
  8
0
100
AcDbBlockBegin
  2
*U11
 70
     1
 10
0.0
 20
0.0
 30
0.0
  3
*U11
  1

  0
TEXT
  5
1A75
330
22C4
100
AcDbEntity
  8
SK2
100
AcDbText
 10
-62.89373359312481
 20
-8.412806503916682
 30
0.0
 40
3.5
  1
\U+220531.75
 50
90.0
100
AcDbText
  0
ENDBLK
  5
1A77
330
22C4
100
AcDbEntity
  8
0
100
AcDbBlockEnd
  0
BLOCK
  5
22C7
330
22C6
100
AcDbEntity
  8
0
100
AcDbBlockBegin
  2
*D12
 70
     1
 10
0.0
 20
0.0
 30
0.0
  3
*D12
  1

  0
LINE
  5
198F
330
22C6
100
AcDbEntity
  8
SK2
 62
     0
100
AcDbLine
 10
-42.40949999999964
 20
-5.999999999998633
 30
0.0
 11
-55.42437952949961
 21
-5.999999999998633
 31
0.0
  0
LINE
  5
1990
330
22C6
100
AcDbEntity
  8
SK2
 62
     0
100
AcDbLine
 10
-42.40949999999964
 20
6.0
 30
0.0
 11
-55.42437952949961
 21
6.0
 31
0.0
  0
LINE
  5
1991
330
22C6
100
AcDbEntity
  8
SK2
 62
     0
100
AcDbLine
 10
-55.24437952949959
 20
-2.499999999998629
 30
0.0
 11
-55.24437952949959
 21
2.500000000000003
 31
0.0
  0
INSERT
  5
1992
330
22C6
100
AcDbEntity
  8
0
100
AcDbBlockReference
  2
*U13
 10
0.0
 20
0.0
 30
0.0
  0
SOLID
  5
1993
330
22C6
100
AcDbEntity
  8
SK2
 62
     0
100
AcDbTrace
 10
-55.82771286283294
 20
-2.499999999998629
 30
0.0
 11
-54.66104619616626
 21
-2.499999999998629
 31
0.0
 12
-55.24437952949959
 22
-5.999999999998633
 32
0.0
 13
-55.24437952949959
 23
-5.999999999998633
 33
0.0
  0
SOLID
  5
1994
330
22C6
100
AcDbEntity
  8
SK2
 62
     0
100
AcDbTrace
 10
-55.82771286283294
 20
2.500000000000003
 30
0.0
 11
-54.66104619616626
 21
2.500000000000003
 31
0.0
 12
-55.24437952949959
 22
6.0
 32
0.0
 13
-55.24437952949959
 23
6.0
 33
0.0
  0
POINT
  5
1995
330
22C6
100
AcDbEntity
  8
DEFPOINTS
 62
     0
100
AcDbPoint
 10
-42.34699999999963
 20
-5.999999999998633
 30
0.0
  0
POINT
  5
1996
330
22C6
100
AcDbEntity
  8
DEFPOINTS
 62
     0
100
AcDbPoint
 10
-42.34699999999963
 20
6.0
 30
0.0
  0
POINT
  5
1997
330
22C6
100
AcDbEntity
  8
DEFPOINTS
 62
     0
100
AcDbPoint
 10
-55.24437952949959
 20
6.0
 30
0.0
  0
ENDBLK
  5
1904
330
22C6
100
AcDbEntity
  8
0
100
AcDbBlockEnd
  0
BLOCK
  5
22C9
330
22C8
100
AcDbEntity
  8
0
100
AcDbBlockBegin
  2
*U13
 70
     1
 10
0.0
 20
0.0
 30
0.0
  3
*U13
  1

  0
TEXT
  5
1A79
330
22C8
100
AcDbEntity
  8
SK2
100
AcDbText
 10
-56.22137771621806
 20
-4.122943178965763
 30
0.0
 40
3.5
  1
M12
 50
90.0
100
AcDbText
  0
ENDBLK
  5
1A7B
330
22C8
100
AcDbEntity
  8
0
100
AcDbBlockEnd
  0
BLOCK
  5
22CB
330
22CA
100
AcDbEntity
  8
0
100
AcDbBlockBegin
  2
*D14
 70
     1
 10
0.0
 20
0.0
 30
0.0
  3
*D14
  1

  0
LINE
  5
1959
330
22CA
100
AcDbEntity
  8
SK2
 62
     0
100
AcDbLine
 10
57.52149999999982
 20
-17.0
 30
0.0
 11
75.05248683719099
 21
-17.0
 31
0.0
  0
LINE
  5
195A
330
22CA
100
AcDbEntity
  8
SK2
 62
     0
100
AcDbLine
 10
57.52149999999982
 20
17.0
 30
0.0
 11
75.05248683719099
 21
17.0
 31
0.0
  0
LINE
  5
195B
330
22CA
100
AcDbEntity
  8
SK2
 62
     0
100
AcDbLine
 10
74.87248683719098
 20
-13.5
 30
0.0
 11
74.87248683719098
 21
13.5
 31
0.0
  0
INSERT
  5
195C
330
22CA
100
AcDbEntity
  8
0
100
AcDbBlockReference
  2
*U15
 10
0.0
 20
0.0
 30
0.0
  0
SOLID
  5
195D
330
22CA
100
AcDbEntity
  8
SK2
 62
     0
100
AcDbTrace
 10
74.28915350385766
 20
-13.5
 30
0.0
 11
75.45582017052431
 21
-13.5
 31
0.0
 12
74.87248683719098
 22
-17.0
 32
0.0
 13
74.87248683719098
 23
-17.0
 33
0.0
  0
SOLID
  5
195E
330
22CA
100
AcDbEntity
  8
SK2
 62
     0
100
AcDbTrace
 10
74.28915350385766
 20
13.5
 30
0.0
 11
75.45582017052431
 21
13.5
 31
0.0
 12
74.87248683719098
 22
17.0
 32
0.0
 13
74.87248683719098
 23
17.0
 33
0.0
  0
POINT
  5
195F
330
22CA
100
AcDbEntity
  8
DEFPOINTS
 62
     0
100
AcDbPoint
 10
57.45899999999982
 20
-17.0
 30
0.0
  0
POINT
  5
1960
330
22CA
100
AcDbEntity
  8
DEFPOINTS
 62
     0
100
AcDbPoint
 10
57.45899999999982
 20
17.0
 30
0.0
  0
POINT
  5
1961
330
22CA
100
AcDbEntity
  8
DEFPOINTS
 62
     0
100
AcDbPoint
 10
74.87248683719098
 20
17.0
 30
0.0
  0
ENDBLK
  5
1910
330
22CA
100
AcDbEntity
  8
0
100
AcDbBlockEnd
  0
BLOCK
  5
22CD
330
22CC
100
AcDbEntity
  8
0
100
AcDbBlockBegin
  2
*U15
 70
     1
 10
0.0
 20
0.0
 30
0.0
  3
*U15
  1

  0
TEXT
  5
1A65
330
22CC
100
AcDbEntity
  8
SK2
100
AcDbText
 10
74.20886536071794
 20
-5.288761393091768
 30
0.0
 40
3.5
  1
\U+220534
 50
90.0
100
AcDbText
  0
ENDBLK
  5
1A67
330
22CC
100
AcDbEntity
  8
0
100
AcDbBlockEnd
  0
BLOCK
  5
22CF
330
22CE
100
AcDbEntity
  8
0
100
AcDbBlockBegin
  2
_FILLED
 70
     0
 10
0.0
 20
0.0
 30
0.0
  3
_FILLED
  1

  0
SOLID
  5
1CC2
330
22CE
100
AcDbEntity
  8
0
  6
ByBlock
 62
     0
100
AcDbTrace
 10
0.0
 20
0.0
 30
0.0
 11
-1.0
 21
0.125
 31
0.0
 12
-1.0
 22
-0.125
 32
0.0
 13
-1.0
 23
-0.125
 33
0.0
  0
ENDBLK
  5
1CC3
330
22CE
100
AcDbEntity
  8
0
  6
ByBlock
 62
     0
100
AcDbBlockEnd
  0
BLOCK
  5
22D1
330
22D0
100
AcDbEntity
  8
1
  6
Continuous
 62
     2
100
AcDbBlockBegin
  2
*D17
 70
     1
 10
0.0
 20
0.0
 30
0.0
  3
*D17
  1

  0
INSERT
  5
1CC6
330
22D0
100
AcDbEntity
  8
0
100
AcDbBlockReference
  2
*U18
 10
0.0
 20
0.0
 30
0.0
  0
LINE
  5
1CC7
330
22D0
100
AcDbEntity
  8
1
  6
Continuous
 62
     2
100
AcDbLine
 10
159.2771196546
 20
21.8700504993
 30
0.0
 11
172.6488049651
 21
21.8700504993
 31
0.0
  0
LINE
  5
1CC8
330
22D0
100
AcDbEntity
  8
1
  6
Continuous
 62
     2
100
AcDbLine
 10
159.2771196546
 20
55.8700504993
 30
0.0
 11
172.6488049651
 21
55.8700504993
 31
0.0
  0
LINE
  5
1CC9
330
22D0
100
AcDbEntity
  8
1
  6
Continuous
 62
     2
100
AcDbLine
 10
171.1488049651
 20
21.8700504993
 30
0.0
 11
171.1488049651
 21
38.8700504993
 31
0.0
  0
LINE
  5
1CCA
330
22D0
100
AcDbEntity
  8
1
  6
Continuous
 62
     2
100
AcDbLine
 10
171.1488049651
 20
55.8700504993
 30
0.0
 11
171.1488049651
 21
38.8700504993
 31
0.0
  0
INSERT
  5
1CCB
330
22D0
100
AcDbEntity
  8
1
  6
Continuous
 62
     2
100
AcDbBlockReference
  2
_FILLED
 10
171.1488049651
 20
21.8700504993
 30
0.0
 41
3.5
 42
3.5
 43
3.5
 50
270.0
  0
INSERT
  5
1CCC
330
22D0
100
AcDbEntity
  8
1
  6
Continuous
 62
     2
100
AcDbBlockReference
  2
_FILLED
 10
171.1488049651
 20
55.8700504993
 30
0.0
 41
3.5
 42
3.5
 43
3.5
 50
90.0
  0
ENDBLK
  5
1CCD
330
22D0
100
AcDbEntity
  8
0
  6
ByBlock
 62
     0
100
AcDbBlockEnd
  0
BLOCK
  5
22D3
330
22D2
100
AcDbEntity
  8
0
100
AcDbBlockBegin
  2
*U18
 70
     1
 10
0.0
 20
0.0
 30
0.0
  3
*U18
  1

  0
TEXT
  5
2068
330
22D2
100
AcDbEntity
  8
1
 62
     2
100
AcDbText
 10
171.1071382984333
 20
35.9740995326
 30
0.0
 40
3.5
  1
n
 50
90.0
 41
0.72
  7
TEXTSTYLE_3
100
AcDbText
  0
TEXT
  5
2069
330
22D2
100
AcDbEntity
  8
1
 62
     2
100
AcDbText
 10
171.1071382984333
 20
38.8540995326
 30
0.0
 40
3.5
  1
34
 50
90.0
 41
0.72
  7
TEXTSTYLE_3
100
AcDbText
  0
ENDBLK
  5
206B
330
22D2
100
AcDbEntity
  8
0
100
AcDbBlockEnd
  0
BLOCK
  5
22D5
330
22D4
100
AcDbEntity
  8
1
  6
Continuous
 62
     2
100
AcDbBlockBegin
  2
*D19
 70
     1
 10
0.0
 20
0.0
 30
0.0
  3
*D19
  1

  0
INSERT
  5
1CD0
330
22D4
100
AcDbEntity
  8
0
100
AcDbBlockReference
  2
*U20
 10
0.0
 20
0.0
 30
0.0
  0
LINE
  5
1CD1
330
22D4
100
AcDbEntity
  8
1
  6
Continuous
 62
     2
100
AcDbLine
 10
23.5681196546
 20
52.64192667909998
 30
0.0
 11
23.5681196546
 21
88.6150206083
 31
0.0
  0
LINE
  5
1CD2
330
22D4
100
AcDbEntity
  8
1
  6
Continuous
 62
     2
100
AcDbLine
 10
91.81811965459999
 20
60.8637253979
 30
0.0
 11
91.81811965459999
 21
88.6150206083
 31
0.0
  0
LINE
  5
1CD3
330
22D4
100
AcDbEntity
  8
1
  6
Continuous
 62
     2
100
AcDbLine
 10
23.5681196546
 20
87.1150206083
 30
0.0
 11
57.6931196546
 21
87.1150206083
 31
0.0
  0
LINE
  5
1CD4
330
22D4
100
AcDbEntity
  8
1
  6
Continuous
 62
     2
100
AcDbLine
 10
91.81811965459999
 20
87.1150206083
 30
0.0
 11
57.6931196546
 21
87.1150206083
 31
0.0
  0
INSERT
  5
1CD5
330
22D4
100
AcDbEntity
  8
1
  6
Continuous
 62
     2
100
AcDbBlockReference
  2
_FILLED
 10
23.5681196546
 20
87.1150206083
 30
0.0
 41
3.5
 42
3.5
 43
3.5
 50
180.0
  0
INSERT
  5
1CD6
330
22D4
100
AcDbEntity
  8
1
  6
Continuous
 62
     2
100
AcDbBlockReference
  2
_FILLED
 10
91.81811965459999
 20
87.1150206083
 30
0.0
 41
3.5
 42
3.5
 43
3.5
  0
ENDBLK
  5
1CD7
330
22D4
100
AcDbEntity
  8
0
  6
ByBlock
 62
     0
100
AcDbBlockEnd
  0
BLOCK
  5
22D7
330
22D6
100
AcDbEntity
  8
0
100
AcDbBlockBegin
  2
*U20
 70
     1
 10
0.0
 20
0.0
 30
0.0
  3
*U20
  1

  0
TEXT
  5
206D
330
22D6
100
AcDbEntity
  8
1
 62
     2
100
AcDbText
 10
55.56593971339999
 20
87.9900206083
 30
0.0
 40
3.5
  1
68.25
 41
0.72
  7
TEXTSTYLE_2
100
AcDbText
  0
ENDBLK
  5
206F
330
22D6
100
AcDbEntity
  8
0
100
AcDbBlockEnd
  0
BLOCK
  5
22D9
330
22D8
100
AcDbEntity
  8
1
  6
Continuous
 62
     2
100
AcDbBlockBegin
  2
*D21
 70
     1
 10
0.0
 20
0.0
 30
0.0
  3
*D21
  1

  0
INSERT
  5
1CDA
330
22D8
100
AcDbEntity
  8
0
100
AcDbBlockReference
  2
*U22
 10
0.0
 20
0.0
 30
0.0
  0
LINE
  5
1CDB
330
22D8
100
AcDbEntity
  8
1
  6
Continuous
 62
     2
100
AcDbLine
 10
91.81811965459999
 20
60.8637253979
 30
0.0
 11
91.81811965459999
 21
88.6150206083
 31
0.0
  0
LINE
  5
1CDC
330
22D8
100
AcDbEntity
  8
1
  6
Continuous
 62
     2
100
AcDbLine
 10
161.8181196546
 20
50.3700504993
 30
0.0
 11
161.8181196546
 21
88.6150206083
 31
0.0
  0
LINE
  5
1CDD
330
22D8
100
AcDbEntity
  8
1
  6
Continuous
 62
     2
100
AcDbLine
 10
91.81811965459999
 20
87.1150206083
 30
0.0
 11
126.8181196546
 21
87.1150206083
 31
0.0
  0
LINE
  5
1CDE
330
22D8
100
AcDbEntity
  8
1
  6
Continuous
 62
     2
100
AcDbLine
 10
161.8181196546
 20
87.1150206083
 30
0.0
 11
126.8181196546
 21
87.1150206083
 31
0.0
  0
INSERT
  5
1CDF
330
22D8
100
AcDbEntity
  8
1
  6
Continuous
 62
     2
100
AcDbBlockReference
  2
_FILLED
 10
91.81811965459999
 20
87.1150206083
 30
0.0
 41
3.5
 42
3.5
 43
3.5
 50
180.0
  0
INSERT
  5
1CE0
330
22D8
100
AcDbEntity
  8
1
  6
Continuous
 62
     2
100
AcDbBlockReference
  2
_FILLED
 10
161.8181196546
 20
87.1150206083
 30
0.0
 41
3.5
 42
3.5
 43
3.5
  0
ENDBLK
  5
1CE1
330
22D8
100
AcDbEntity
  8
0
  6
ByBlock
 62
     0
100
AcDbBlockEnd
  0
BLOCK
  5
22DB
330
22DA
100
AcDbEntity
  8
0
100
AcDbBlockBegin
  2
*U22
 70
     1
 10
0.0
 20
0.0
 30
0.0
  3
*U22
  1

  0
TEXT
  5
2071
330
22DA
100
AcDbEntity
  8
1
 62
     2
100
AcDbText
 10
129.6244217324
 20
87.9900206083
 30
0.0
 40
3.5
  1
70
 41
0.72
  7
TEXTSTYLE_2
100
AcDbText
  0
ENDBLK
  5
2073
330
22DA
100
AcDbEntity
  8
0
100
AcDbBlockEnd
  0
BLOCK
  5
22DD
330
22DC
100
AcDbEntity
  8
1
  6
Continuous
 62
     2
100
AcDbBlockBegin
  2
*D23
 70
     1
 10
0.0
 20
0.0
 30
0.0
  3
*D23
  1

  0
INSERT
  5
1CE4
330
22DC
100
AcDbEntity
  8
0
100
AcDbBlockReference
  2
*U24
 10
0.0
 20
0.0
 30
0.0
  0
LINE
  5
1CE5
330
22DC
100
AcDbEntity
  8
1
  6
Continuous
 62
     2
100
AcDbLine
 10
110.9181196546
 20
71.3950504993
 30
0.0
 11
110.9181196546
 21
81.47330810949998
 31
0.0
  0
LINE
  5
1CE6
330
22DC
100
AcDbEntity
  8
1
  6
Continuous
 62
     2
100
AcDbLine
 10
91.81811965459999
 20
61.25373062680001
 30
0.0
 11
91.81811965459999
 21
81.47330810949998
 31
0.0
  0
LINE
  5
1CE7
330
22DC
100
AcDbEntity
  8
1
  6
Continuous
 62
     2
100
AcDbLine
 10
110.9181196546
 20
79.97330810949998
 30
0.0
 11
101.3681196546
 21
79.97330810949998
 31
0.0
  0
LINE
  5
1CE8
330
22DC
100
AcDbEntity
  8
1
  6
Continuous
 62
     2
100
AcDbLine
 10
91.81811965459999
 20
79.97330810949998
 30
0.0
 11
101.3681196546
 21
79.97330810949998
 31
0.0
  0
INSERT
  5
1CE9
330
22DC
100
AcDbEntity
  8
1
  6
Continuous
 62
     2
100
AcDbBlockReference
  2
_FILLED
 10
110.9181196546
 20
79.97330810949998
 30
0.0
 41
3.5
 42
3.5
 43
3.5
  0
INSERT
  5
1CEA
330
22DC
100
AcDbEntity
  8
1
  6
Continuous
 62
     2
100
AcDbBlockReference
  2
_FILLED
 10
91.81811965459999
 20
79.97330810949998
 30
0.0
 41
3.5
 42
3.5
 43
3.5
 50
180.0
  0
ENDBLK
  5
1CEB
330
22DC
100
AcDbEntity
  8
0
  6
ByBlock
 62
     0
100
AcDbBlockEnd
  0
BLOCK
  5
22DF
330
22DE
100
AcDbEntity
  8
0
100
AcDbBlockBegin
  2
*U24
 70
     1
 10
0.0
 20
0.0
 30
0.0
  3
*U24
  1

  0
TEXT
  5
2075
330
22DE
100
AcDbEntity
  8
1
 62
     2
100
AcDbText
 10
99.67396509700002
 20
80.84830810949998
 30
0.0
 40
3.5
  1
19.1
 41
0.72
  7
TEXTSTYLE_2
100
AcDbText
  0
ENDBLK
  5
2077
330
22DE
100
AcDbEntity
  8
0
100
AcDbBlockEnd
  0
BLOCK
  5
22E1
330
22E0
100
AcDbEntity
  8
1
  6
Continuous
 62
     2
100
AcDbBlockBegin
  2
*D25
 70
     1
 10
0.0
 20
0.0
 30
0.0
  3
*D25
  1

  0
INSERT
  5
1CEE
330
22E0
100
AcDbEntity
  8
0
100
AcDbBlockReference
  2
*U26
 10
0.0
 20
0.0
 30
0.0
  0
LINE
  5
1CEF
330
22E0
100
AcDbEntity
  8
1
  6
Continuous
 62
     2
100
AcDbLine
 10
90.31811965459999
 20
16.6450504993
 30
0.0
 11
7.718148293899997
 21
16.6450504993
 31
0.0
  0
LINE
  5
1CF0
330
22E0
100
AcDbEntity
  8
1
  6
Continuous
 62
     2
100
AcDbLine
 10
90.31811965459999
 20
61.0950504993
 30
0.0
 11
7.718148293899997
 21
61.0950504993
 31
0.0
  0
LINE
  5
1CF1
330
22E0
100
AcDbEntity
  8
1
  6
Continuous
 62
     2
100
AcDbLine
 10
9.2181482939
 20
16.6450504993
 30
0.0
 11
9.2181482939
 21
38.8700504993
 31
0.0
  0
LINE
  5
1CF2
330
22E0
100
AcDbEntity
  8
1
  6
Continuous
 62
     2
100
AcDbLine
 10
9.2181482939
 20
61.0950504993
 30
0.0
 11
9.2181482939
 21
38.8700504993
 31
0.0
  0
INSERT
  5
1CF3
330
22E0
100
AcDbEntity
  8
1
  6
Continuous
 62
     2
100
AcDbBlockReference
  2
_FILLED
 10
9.2181482939
 20
16.6450504993
 30
0.0
 41
3.5
 42
3.5
 43
3.5
 50
270.0
  0
INSERT
  5
1CF4
330
22E0
100
AcDbEntity
  8
1
  6
Continuous
 62
     2
100
AcDbBlockReference
  2
_FILLED
 10
9.2181482939
 20
61.0950504993
 30
0.0
 41
3.5
 42
3.5
 43
3.5
 50
90.0
  0
ENDBLK
  5
1CF5
330
22E0
100
AcDbEntity
  8
0
  6
ByBlock
 62
     0
100
AcDbBlockEnd
  0
BLOCK
  5
22E3
330
22E2
100
AcDbEntity
  8
0
100
AcDbBlockBegin
  2
*U26
 70
     1
 10
0.0
 20
0.0
 30
0.0
  3
*U26
  1

  0
TEXT
  5
2079
330
22E2
100
AcDbEntity
  8
1
 62
     2
100
AcDbText
 10
9.176481627233327
 20
33.44589077030001
 30
0.0
 40
3.5
  1
n
 50
90.0
 41
0.72
  7
TEXTSTYLE_3
100
AcDbText
  0
TEXT
  5
207A
330
22E2
100
AcDbEntity
  8
1
 62
     2
100
AcDbText
 10
9.176481627233327
 20
36.32589077030001
 30
0.0
 40
3.5
  1
44,45
 50
90.0
 41
0.72
  7
TEXTSTYLE_3
100
AcDbText
  0
ENDBLK
  5
207C
330
22E2
100
AcDbEntity
  8
0
100
AcDbBlockEnd
  0
BLOCK
  5
22E5
330
22E4
100
AcDbEntity
  8
1
  6
Continuous
 62
     2
100
AcDbBlockBegin
  2
*D27
 70
     1
 10
0.0
 20
0.0
 30
0.0
  3
*D27
  1

  0
INSERT
  5
1CF8
330
22E4
100
AcDbEntity
  8
0
100
AcDbBlockReference
  2
*U28
 10
0.0
 20
0.0
 30
0.0
  0
LINE
  5
1CF9
330
22E4
100
AcDbEntity
  8
1
  6
Continuous
 62
     2
100
AcDbLine
 10
27.4106196546
 20
46.8075504993
 30
0.0
 11
14.3629973065
 21
46.8075504993
 31
0.0
  0
LINE
  5
1CFA
330
22E4
100
AcDbEntity
  8
1
  6
Continuous
 62
     2
100
AcDbLine
 10
27.4106196546
 20
30.9325504993
 30
0.0
 11
14.3629973065
 21
30.9325504993
 31
0.0
  0
LINE
  5
1CFB
330
22E4
100
AcDbEntity
  8
1
  6
Continuous
 62
     2
100
AcDbLine
 10
15.8629973065
 20
46.8075504993
 30
0.0
 11
15.8629973065
 21
38.8700504993
 31
0.0
  0
LINE
  5
1CFC
330
22E4
100
AcDbEntity
  8
1
  6
Continuous
 62
     2
100
AcDbLine
 10
15.8629973065
 20
30.9325504993
 30
0.0
 11
15.8629973065
 21
38.8700504993
 31
0.0
  0
INSERT
  5
1CFD
330
22E4
100
AcDbEntity
  8
1
  6
Continuous
 62
     2
100
AcDbBlockReference
  2
_FILLED
 10
15.8629973065
 20
46.8075504993
 30
0.0
 41
3.5
 42
3.5
 43
3.5
 50
90.0
  0
INSERT
  5
1CFE
330
22E4
100
AcDbEntity
  8
1
  6
Continuous
 62
     2
100
AcDbBlockReference
  2
_FILLED
 10
15.8629973065
 20
30.9325504993
 30
0.0
 41
3.5
 42
3.5
 43
3.5
 50
270.0
  0
ENDBLK
  5
1CFF
330
22E4
100
AcDbEntity
  8
0
  6
ByBlock
 62
     0
100
AcDbBlockEnd
  0
BLOCK
  5
22E7
330
22E6
100
AcDbEntity
  8
0
100
AcDbBlockBegin
  2
*U28
 70
     1
 10
0.0
 20
0.0
 30
0.0
  3
*U28
  1

  0
TEXT
  5
207E
330
22E6
100
AcDbEntity
  8
1
 62
     2
100
AcDbText
 10
14.9879973065
 20
20.8364427782
 30
0.0
 40
3.5
  1
5/8-11UNC 2B
 50
90.0
  7
TEXTSTYLE_4
100
AcDbText
  0
ENDBLK
  5
2080
330
22E6
100
AcDbEntity
  8
0
100
AcDbBlockEnd
  0
BLOCK
  5
22E9
330
22E8
100
AcDbEntity
  8
1
  6
Continuous
 62
     2
100
AcDbBlockBegin
  2
*D29
 70
     1
 10
0.0
 20
0.0
 30
0.0
  3
*D29
  1

  0
INSERT
  5
1D02
330
22E8
100
AcDbEntity
  8
0
100
AcDbBlockReference
  2
*U30
 10
0.0
 20
0.0
 30
0.0
  0
LINE
  5
1D03
330
22E8
100
AcDbEntity
  8
1
  6
Continuous
 62
     2
100
AcDbLine
 10
94.2931196546
 20
70.6450504993
 30
0.0
 11
0.0
 21
70.6450504993
 31
0.0
  0
LINE
  5
1D04
330
22E8
100
AcDbEntity
  8
1
  6
Continuous
 62
     2
100
AcDbLine
 10
94.2931196546
 20
7.095050499299999
 30
0.0
 11
0.0
 21
7.095050499299999
 31
0.0
  0
LINE
  5
1D05
330
22E8
100
AcDbEntity
  8
1
  6
Continuous
 62
     2
100
AcDbLine
 10
1.5
 20
70.6450504993
 30
0.0
 11
1.5
 21
38.8700504993
 31
0.0
  0
LINE
  5
1D06
330
22E8
100
AcDbEntity
  8
1
  6
Continuous
 62
     2
100
AcDbLine
 10
1.5
 20
7.095050499299999
 30
0.0
 11
1.5
 21
38.8700504993
 31
0.0
  0
INSERT
  5
1D07
330
22E8
100
AcDbEntity
  8
1
  6
Continuous
 62
     2
100
AcDbBlockReference
  2
_FILLED
 10
1.5
 20
70.6450504993
 30
0.0
 41
3.5
 42
3.5
 43
3.5
 50
90.0
  0
INSERT
  5
1D08
330
22E8
100
AcDbEntity
  8
1
  6
Continuous
 62
     2
100
AcDbBlockReference
  2
_FILLED
 10
1.5
 20
7.095050499299999
 30
0.0
 41
3.5
 42
3.5
 43
3.5
 50
270.0
  0
ENDBLK
  5
1D09
330
22E8
100
AcDbEntity
  8
0
  6
ByBlock
 62
     0
100
AcDbBlockEnd
  0
BLOCK
  5
22EB
330
22EA
100
AcDbEntity
  8
0
100
AcDbBlockBegin
  2
*U30
 70
     1
 10
0.0
 20
0.0
 30
0.0
  3
*U30
  1

  0
TEXT
  5
2082
330
22EA
100
AcDbEntity
  8
1
 62
     2
100
AcDbText
 10
1.458333333333333
 20
33.1828650242
 30
0.0
 40
3.5
  1
n
 50
90.0
 41
0.72
  7
TEXTSTYLE_3
100
AcDbText
  0
TEXT
  5
2083
330
22EA
100
AcDbEntity
  8
1
 62
     2
100
AcDbText
 10
1.458333333333333
 20
36.0628650242
 30
0.0
 40
3.5
  1
63.55
 50
90.0
 41
0.72
  7
TEXTSTYLE_3
100
AcDbText
  0
ENDBLK
  5
2085
330
22EA
100
AcDbEntity
  8
0
100
AcDbBlockEnd
  0
BLOCK
  5
22ED
330
22EC
100
AcDbEntity
  8
0
100
AcDbBlockBegin
  2
*D31
 70
     1
 10
0.0
 20
0.0
 30
0.0
  3
*D31
  1

  0
LINE
  5
1FC5
330
22EC
100
AcDbEntity
  8
SK2
  6
Continuous
 62
     0
100
AcDbLine
 10
269.9599418089634
 20
6.184511252080929
 30
0.0
 11
280.4114524279634
 21
6.184511252080929
 31
0.0
  0
LINE
  5
1FC6
330
22EC
100
AcDbEntity
  8
SK2
  6
Continuous
 62
     0
100
AcDbLine
 10
269.9599418089634
 20
40.18451125208093
 30
0.0
 11
280.4114524279634
 21
40.18451125208092
 31
0.0
  0
LINE
  5
1FC7
330
22EC
100
AcDbEntity
  8
SK2
  6
Continuous
 62
     0
100
AcDbLine
 10
280.2314524279634
 20
9.684511252080927
 30
0.0
 11
280.2314524279634
 21
36.68451125208092
 31
0.0
  0
INSERT
  5
1FC8
330
22EC
100
AcDbEntity
  8
SK2
  6
Continuous
 62
     0
100
AcDbBlockReference
  2
_FILLED
 10
280.2314524279634
 20
6.184511252080929
 30
0.0
 41
3.5
 42
3.5
 43
3.5
 50
270.0
  0
INSERT
  5
1FC9
330
22EC
100
AcDbEntity
  8
SK2
  6
Continuous
 62
     0
100
AcDbBlockReference
  2
_FILLED
 10
280.2314524279634
 20
40.18451125208092
 30
0.0
 41
3.5
 42
3.5
 43
3.5
 50
90.0
  0
INSERT
  5
1FCA
330
22EC
100
AcDbEntity
  8
0
100
AcDbBlockReference
  2
*U32
 10
0.0
 20
0.0
 30
0.0
  0
POINT
  5
1FCB
330
22EC
100
AcDbEntity
  8
DEFPOINTS
  6
Continuous
 62
     0
100
AcDbPoint
 10
269.8974418089634
 20
6.184511252080929
 30
0.0
  0
POINT
  5
1FCC
330
22EC
100
AcDbEntity
  8
DEFPOINTS
  6
Continuous
 62
     0
100
AcDbPoint
 10
269.8974418089634
 20
40.18451125208093
 30
0.0
  0
POINT
  5
1FCD
330
22EC
100
AcDbEntity
  8
DEFPOINTS
  6
Continuous
 62
     0
100
AcDbPoint
 10
280.2314524279634
 20
40.18451125208092
 30
0.0
  0
ENDBLK
  5
1E40
330
22EC
100
AcDbEntity
  8
0
100
AcDbBlockEnd
  0
BLOCK
  5
22EF
330
22EE
100
AcDbEntity
  8
0
100
AcDbBlockBegin
  2
*U32
 70
     1
 10
0.0
 20
0.0
 30
0.0
  3
*U32
  1

  0
TEXT
  5
209F
330
22EE
100
AcDbEntity
  8
SK2
 62
     0
100
AcDbText
 10
280.1414524279634
 20
18.50912838168092
 30
0.0
 40
3.5
  1
\U+220534
 50
90.0
 41
0.72
  7
TEXTSTYLE_2
100
AcDbText
  0
ENDBLK
  5
20A1
330
22EE
100
AcDbEntity
  8
0
100
AcDbBlockEnd
  0
BLOCK
  5
22F1
330
22F0
100
AcDbEntity
  8
0
100
AcDbBlockBegin
  2
*D33
 70
     1
 10
0.0
 20
0.0
 30
0.0
  3
*D33
  1

  0
LINE
  5
1FA9
330
22F0
100
AcDbEntity
  8
SK2
  6
Continuous
 62
     0
100
AcDbLine
 10
134.1884418089634
 20
37.01888743188095
 30
0.0
 11
134.1884418089634
 21
74.23448136108094
 31
0.0
  0
LINE
  5
1FAA
330
22F0
100
AcDbEntity
  8
SK2
  6
Continuous
 62
     0
100
AcDbLine
 10
202.4384418089634
 20
45.24068615068093
 30
0.0
 11
202.4384418089634
 21
74.23448136108094
 31
0.0
  0
LINE
  5
1FAB
330
22F0
100
AcDbEntity
  8
SK2
  6
Continuous
 62
     0
100
AcDbLine
 10
137.6884418089634
 20
74.05448136108095
 30
0.0
 11
198.9384418089634
 21
74.05448136108095
 31
0.0
  0
INSERT
  5
1FAC
330
22F0
100
AcDbEntity
  8
SK2
  6
Continuous
 62
     0
100
AcDbBlockReference
  2
_FILLED
 10
134.1884418089634
 20
74.05448136108095
 30
0.0
 41
3.5
 42
3.5
 43
3.5
 50
180.0
  0
INSERT
  5
1FAD
330
22F0
100
AcDbEntity
  8
SK2
  6
Continuous
 62
     0
100
AcDbBlockReference
  2
_FILLED
 10
202.4384418089634
 20
74.05448136108095
 30
0.0
 41
3.5
 42
3.5
 43
3.5
  0
INSERT
  5
1FAE
330
22F0
100
AcDbEntity
  8
0
100
AcDbBlockReference
  2
*U34
 10
0.0
 20
0.0
 30
0.0
  0
POINT
  5
1FAF
330
22F0
100
AcDbEntity
  8
DEFPOINTS
  6
Continuous
 62
     0
100
AcDbPoint
 10
134.1884418089634
 20
36.95638743188093
 30
0.0
  0
POINT
  5
1FB0
330
22F0
100
AcDbEntity
  8
DEFPOINTS
  6
Continuous
 62
     0
100
AcDbPoint
 10
202.4384418089634
 20
45.17818615068093
 30
0.0
  0
POINT
  5
1FB1
330
22F0
100
AcDbEntity
  8
DEFPOINTS
  6
Continuous
 62
     0
100
AcDbPoint
 10
202.4384418089634
 20
74.05448136108095
 30
0.0
  0
ENDBLK
  5
1E4C
330
22F0
100
AcDbEntity
  8
0
100
AcDbBlockEnd
  0
BLOCK
  5
22F3
330
22F2
100
AcDbEntity
  8
0
100
AcDbBlockBegin
  2
*U34
 70
     1
 10
0.0
 20
0.0
 30
0.0
  3
*U34
  1

  0
TEXT
  5
2097
330
22F2
100
AcDbEntity
  8
SK2
 62
     0
100
AcDbText
 10
159.8862618677634
 20
74.14448136108095
 30
0.0
 40
3.5
  1
68.25
 41
0.72
  7
TEXTSTYLE_2
100
AcDbText
  0
ENDBLK
  5
2099
330
22F2
100
AcDbEntity
  8
0
100
AcDbBlockEnd
  0
BLOCK
  5
22F5
330
22F4
100
AcDbEntity
  8
0
100
AcDbBlockBegin
  2
*D35
 70
     1
 10
0.0
 20
0.0
 30
0.0
  3
*D35
  1

  0
LINE
  5
1FE9
330
22F4
100
AcDbEntity
  8
2
  6
Continuous
 62
     0
100
AcDbLine
 10
202.4384418089634
 20
45.24068615068093
 30
0.0
 11
202.4384418089634
 21
74.23448136108094
 31
0.0
  0
LINE
  5
1FEA
330
22F4
100
AcDbEntity
  8
2
  6
Continuous
 62
     0
100
AcDbLine
 10
272.4384418089634
 20
34.74701125208093
 30
0.0
 11
272.4384418089634
 21
74.23448136108094
 31
0.0
  0
LINE
  5
1FEB
330
22F4
100
AcDbEntity
  8
2
  6
Continuous
 62
     0
100
AcDbLine
 10
205.9384418089634
 20
74.05448136108095
 30
0.0
 11
268.9384418089634
 21
74.05448136108095
 31
0.0
  0
INSERT
  5
1FEC
330
22F4
100
AcDbEntity
  8
2
  6
Continuous
 62
     0
100
AcDbBlockReference
  2
_FILLED
 10
202.4384418089634
 20
74.05448136108095
 30
0.0
 41
3.5
 42
3.5
 43
3.5
 50
180.0
  0
INSERT
  5
1FED
330
22F4
100
AcDbEntity
  8
2
  6
Continuous
 62
     0
100
AcDbBlockReference
  2
_FILLED
 10
272.4384418089634
 20
74.05448136108095
 30
0.0
 41
3.5
 42
3.5
 43
3.5
  0
INSERT
  5
1FEE
330
22F4
100
AcDbEntity
  8
0
100
AcDbBlockReference
  2
*U36
 10
0.0
 20
0.0
 30
0.0
  0
POINT
  5
1FEF
330
22F4
100
AcDbEntity
  8
DEFPOINTS
  6
Continuous
 62
     0
100
AcDbPoint
 10
202.4384418089634
 20
45.17818615068093
 30
0.0
  0
POINT
  5
1FF0
330
22F4
100
AcDbEntity
  8
DEFPOINTS
  6
Continuous
 62
     0
100
AcDbPoint
 10
272.4384418089634
 20
34.68451125208093
 30
0.0
  0
POINT
  5
1FF1
330
22F4
100
AcDbEntity
  8
DEFPOINTS
  6
Continuous
 62
     0
100
AcDbPoint
 10
272.4384418089634
 20
74.05448136108095
 30
0.0
  0
ENDBLK
  5
1E58
330
22F4
100
AcDbEntity
  8
0
100
AcDbBlockEnd
  0
BLOCK
  5
22F7
330
22F6
100
AcDbEntity
  8
0
100
AcDbBlockBegin
  2
*U36
 70
     1
 10
0.0
 20
0.0
 30
0.0
  3
*U36
  1

  0
TEXT
  5
20A7
330
22F6
100
AcDbEntity
  8
2
 62
     0
100
AcDbText
 10
237.7247438867634
 20
74.14448136108095
 30
0.0
 40
3.5
  1
70
 41
0.72
  7
TEXTSTYLE_2
100
AcDbText
  0
ENDBLK
  5
20A9
330
22F6
100
AcDbEntity
  8
0
100
AcDbBlockEnd
  0
BLOCK
  5
22F9
330
22F8
100
AcDbEntity
  8
0
100
AcDbBlockBegin
  2
*D37
 70
     1
 10
0.0
 20
0.0
 30
0.0
  3
*D37
  1

  0
LINE
  5
1FE0
330
22F8
100
AcDbEntity
  8
2
  6
Continuous
 62
     0
100
AcDbLine
 10
221.5384418089634
 20
55.77201125208093
 30
0.0
 11
221.5384418089634
 21
67.09276886228093
 31
0.0
  0
LINE
  5
1FE1
330
22F8
100
AcDbEntity
  8
2
  6
Continuous
 62
     0
100
AcDbLine
 10
202.4384418089634
 20
45.63069137958094
 30
0.0
 11
202.4384418089634
 21
67.09276886228093
 31
0.0
  0
LINE
  5
1FE2
330
22F8
100
AcDbEntity
  8
2
  6
Continuous
 62
     0
100
AcDbLine
 10
218.0384418089634
 20
66.9127688622809
 30
0.0
 11
205.9384418089634
 21
66.9127688622809
 31
0.0
  0
INSERT
  5
1FE3
330
22F8
100
AcDbEntity
  8
2
  6
Continuous
 62
     0
100
AcDbBlockReference
  2
_FILLED
 10
221.5384418089634
 20
66.9127688622809
 30
0.0
 41
3.5
 42
3.5
 43
3.5
  0
INSERT
  5
1FE4
330
22F8
100
AcDbEntity
  8
2
  6
Continuous
 62
     0
100
AcDbBlockReference
  2
_FILLED
 10
202.4384418089634
 20
66.9127688622809
 30
0.0
 41
3.5
 42
3.5
 43
3.5
 50
180.0
  0
INSERT
  5
1FE5
330
22F8
100
AcDbEntity
  8
0
100
AcDbBlockReference
  2
*U38
 10
0.0
 20
0.0
 30
0.0
  0
POINT
  5
1FE6
330
22F8
100
AcDbEntity
  8
DEFPOINTS
  6
Continuous
 62
     0
100
AcDbPoint
 10
221.5384418089634
 20
55.70951125208093
 30
0.0
  0
POINT
  5
1FE7
330
22F8
100
AcDbEntity
  8
DEFPOINTS
  6
Continuous
 62
     0
100
AcDbPoint
 10
202.4384418089634
 20
45.56819137958092
 30
0.0
  0
POINT
  5
1FE8
330
22F8
100
AcDbEntity
  8
DEFPOINTS
  6
Continuous
 62
     0
100
AcDbPoint
 10
202.4384418089634
 20
66.9127688622809
 30
0.0
  0
ENDBLK
  5
1E64
330
22F8
100
AcDbEntity
  8
0
100
AcDbBlockEnd
  0
BLOCK
  5
22FB
330
22FA
100
AcDbEntity
  8
0
100
AcDbBlockBegin
  2
*U38
 70
     1
 10
0.0
 20
0.0
 30
0.0
  3
*U38
  1

  0
TEXT
  5
20A3
330
22FA
100
AcDbEntity
  8
2
 62
     0
100
AcDbText
 10
205.2542872513634
 20
67.00276886228093
 30
0.0
 40
3.5
  1
19.1
 41
0.72
  7
TEXTSTYLE_2
100
AcDbText
  0
ENDBLK
  5
20A5
330
22FA
100
AcDbEntity
  8
0
100
AcDbBlockEnd
  0
BLOCK
  5
22FD
330
22FC
100
AcDbEntity
  8
0
100
AcDbBlockBegin
  2
*D39
 70
     1
 10
0.0
 20
0.0
 30
0.0
  3
*D39
  1

  0
LINE
  5
1FB2
330
22FC
100
AcDbEntity
  8
SK2
  6
Continuous
 62
     0
100
AcDbLine
 10
200.8759418089634
 20
0.9595112520809347
 30
0.0
 11
118.9676548911634
 21
0.959511252080958
 31
0.0
  0
LINE
  5
1FB3
330
22FC
100
AcDbEntity
  8
SK2
  6
Continuous
 62
     0
100
AcDbLine
 10
200.8759418089634
 20
45.40951125208091
 30
0.0
 11
118.9676548911634
 21
45.40951125208095
 31
0.0
  0
LINE
  5
1FB4
330
22FC
100
AcDbEntity
  8
SK2
  6
Continuous
 62
     0
100
AcDbLine
 10
119.1476548911634
 20
4.459511252080957
 30
0.0
 11
119.1476548911634
 21
41.90951125208095
 31
0.0
  0
INSERT
  5
1FB5
330
22FC
100
AcDbEntity
  8
SK2
  6
Continuous
 62
     0
100
AcDbBlockReference
  2
_FILLED
 10
119.1476548911634
 20
0.959511252080958
 30
0.0
 41
3.5
 42
3.5
 43
3.5
 50
270.0
  0
INSERT
  5
1FB6
330
22FC
100
AcDbEntity
  8
SK2
  6
Continuous
 62
     0
100
AcDbBlockReference
  2
_FILLED
 10
119.1476548911634
 20
45.40951125208095
 30
0.0
 41
3.5
 42
3.5
 43
3.5
 50
90.0
  0
INSERT
  5
1FB7
330
22FC
100
AcDbEntity
  8
0
100
AcDbBlockReference
  2
*U40
 10
0.0
 20
0.0
 30
0.0
  0
POINT
  5
1FB8
330
22FC
100
AcDbEntity
  8
DEFPOINTS
  6
Continuous
 62
     0
100
AcDbPoint
 10
200.9384418089634
 20
0.9595112520809347
 30
0.0
  0
POINT
  5
1FB9
330
22FC
100
AcDbEntity
  8
DEFPOINTS
  6
Continuous
 62
     0
100
AcDbPoint
 10
200.9384418089634
 20
45.40951125208091
 30
0.0
  0
POINT
  5
1FBA
330
22FC
100
AcDbEntity
  8
DEFPOINTS
  6
Continuous
 62
     0
100
AcDbPoint
 10
119.1476548911634
 20
45.40951125208095
 30
0.0
  0
ENDBLK
  5
1E70
330
22FC
100
AcDbEntity
  8
0
100
AcDbBlockEnd
  0
BLOCK
  5
22FF
330
22FE
100
AcDbEntity
  8
0
100
AcDbBlockBegin
  2
*U40
 70
     1
 10
0.0
 20
0.0
 30
0.0
  3
*U40
  1

  0
TEXT
  5
209B
330
22FE
100
AcDbEntity
  8
SK2
 62
     0
100
AcDbText
 10
118.3909882244967
 20
14.50126592518093
 30
0.0
 40
3.5
  1
\U+220544,45
 50
90.0
 41
0.72
  7
TEXTSTYLE_2
100
AcDbText
  0
ENDBLK
  5
209D
330
22FE
100
AcDbEntity
  8
0
100
AcDbBlockEnd
  0
BLOCK
  5
2301
330
2300
100
AcDbEntity
  8
0
100
AcDbBlockBegin
  2
*D41
 70
     1
 10
0.0
 20
0.0
 30
0.0
  3
*D41
  1

  0
LINE
  5
1FF2
330
2300
100
AcDbEntity
  8
SK2
  6
Continuous
 62
     0
100
AcDbLine
 10
137.9684418089634
 20
31.12201125208093
 30
0.0
 11
127.1210535754121
 21
31.12201125208093
 31
0.0
  0
LINE
  5
1FF3
330
2300
100
AcDbEntity
  8
SK2
  6
Continuous
 62
     0
100
AcDbLine
 10
137.9684418089634
 20
15.24701125208093
 30
0.0
 11
127.1210535754121
 21
15.24701125208093
 31
0.0
  0
LINE
  5
1FF4
330
2300
100
AcDbEntity
  8
SK2
  6
Continuous
 62
     0
100
AcDbLine
 10
127.3010535754121
 20
27.62201125208096
 30
0.0
 11
127.3010535754121
 21
18.74701125208092
 31
0.0
  0
INSERT
  5
1FF5
330
2300
100
AcDbEntity
  8
SK2
  6
Continuous
 62
     0
100
AcDbBlockReference
  2
_FILLED
 10
127.3010535754121
 20
31.12201125208093
 30
0.0
 41
3.5
 42
3.5
 43
3.5
 50
90.0
  0
INSERT
  5
1FF6
330
2300
100
AcDbEntity
  8
SK2
  6
Continuous
 62
     0
100
AcDbBlockReference
  2
_FILLED
 10
127.3010535754121
 20
15.24701125208093
 30
0.0
 41
3.5
 42
3.5
 43
3.5
 50
270.0
  0
INSERT
  5
1FF7
330
2300
100
AcDbEntity
  8
0
100
AcDbBlockReference
  2
*U42
 10
0.0
 20
0.0
 30
0.0
  0
POINT
  5
1FF8
330
2300
100
AcDbEntity
  8
DEFPOINTS
  6
Continuous
 62
     0
100
AcDbPoint
 10
138.0309418089634
 20
31.12201125208093
 30
0.0
  0
POINT
  5
1FF9
330
2300
100
AcDbEntity
  8
DEFPOINTS
  6
Continuous
 62
     0
100
AcDbPoint
 10
138.0309418089634
 20
15.24701125208093
 30
0.0
  0
POINT
  5
1FFA
330
2300
100
AcDbEntity
  8
DEFPOINTS
  6
Continuous
 62
     0
100
AcDbPoint
 10
127.3010535754121
 20
15.24701125208093
 30
0.0
  0
ENDBLK
  5
1E7C
330
2300
100
AcDbEntity
  8
0
100
AcDbBlockEnd
  0
BLOCK
  5
2303
330
2302
100
AcDbEntity
  8
0
100
AcDbBlockBegin
  2
*U42
 70
     1
 10
0.0
 20
0.0
 30
0.0
  3
*U42
  1

  0
TEXT
  5
20AB
330
2302
100
AcDbEntity
  8
SK2
 62
     0
100
AcDbText
 10
127.2110535754121
 20
3.934511252080951
 30
0.0
 40
3.5
  1
5/8-11UNC 2B
 50
90.0
  7
TEXTSTYLE_4
100
AcDbText
  0
ENDBLK
  5
20AD
330
2302
100
AcDbEntity
  8
0
100
AcDbBlockEnd
  0
BLOCK
  5
2305
330
2304
100
AcDbEntity
  8
0
100
AcDbBlockBegin
  2
*D43
 70
     1
 10
0.0
 20
0.0
 30
0.0
  3
*D43
  1

  0
LINE
  5
1FA0
330
2304
100
AcDbEntity
  8
SK2
  6
Continuous
 62
     0
100
AcDbLine
 10
204.8509418089634
 20
54.95951125208093
 30
0.0
 11
111.2495065973634
 21
54.95951125208097
 31
0.0
  0
LINE
  5
1FA1
330
2304
100
AcDbEntity
  8
SK2
  6
Continuous
 62
     0
100
AcDbLine
 10
204.8509418089634
 20
-8.590488747919067
 30
0.0
 11
111.2495065973634
 21
-8.590488747919041
 31
0.0
  0
LINE
  5
1FA2
330
2304
100
AcDbEntity
  8
SK2
  6
Continuous
 62
     0
100
AcDbLine
 10
111.4295065973634
 20
51.45951125208096
 30
0.0
 11
111.4295065973634
 21
-5.090488747919041
 31
0.0
  0
INSERT
  5
1FA3
330
2304
100
AcDbEntity
  8
SK2
  6
Continuous
 62
     0
100
AcDbBlockReference
  2
_FILLED
 10
111.4295065973634
 20
54.95951125208097
 30
0.0
 41
3.5
 42
3.5
 43
3.5
 50
90.0
  0
INSERT
  5
1FA4
330
2304
100
AcDbEntity
  8
SK2
  6
Continuous
 62
     0
100
AcDbBlockReference
  2
_FILLED
 10
111.4295065973634
 20
-8.590488747919041
 30
0.0
 41
3.5
 42
3.5
 43
3.5
 50
270.0
  0
INSERT
  5
1FA5
330
2304
100
AcDbEntity
  8
0
100
AcDbBlockReference
  2
*U44
 10
0.0
 20
0.0
 30
0.0
  0
POINT
  5
1FA6
330
2304
100
AcDbEntity
  8
DEFPOINTS
  6
Continuous
 62
     0
100
AcDbPoint
 10
204.9134418089634
 20
54.95951125208093
 30
0.0
  0
POINT
  5
1FA7
330
2304
100
AcDbEntity
  8
DEFPOINTS
  6
Continuous
 62
     0
100
AcDbPoint
 10
204.9134418089634
 20
-8.590488747919067
 30
0.0
  0
POINT
  5
1FA8
330
2304
100
AcDbEntity
  8
DEFPOINTS
  6
Continuous
 62
     0
100
AcDbPoint
 10
111.4295065973634
 20
-8.590488747919041
 30
0.0
  0
ENDBLK
  5
1E89
330
2304
100
AcDbEntity
  8
0
100
AcDbBlockEnd
  0
BLOCK
  5
2307
330
2306
100
AcDbEntity
  8
0
100
AcDbBlockBegin
  2
*U44
 70
     1
 10
0.0
 20
0.0
 30
0.0
  3
*U44
  1

  0
TEXT
  5
2093
330
2306
100
AcDbEntity
  8
SK2
 62
     0
100
AcDbText
 10
111.3395065973634
 20
14.02824017908093
 30
0.0
 40
3.5
  1
\U+220563.55
 50
90.0
 41
0.72
  7
TEXTSTYLE_2
100
AcDbText
  0
ENDBLK
  5
2095
330
2306
100
AcDbEntity
  8
0
100
AcDbBlockEnd
  0
BLOCK
  5
2309
330
2308
100
AcDbEntity
  8
0
100
AcDbBlockBegin
  2
*U45
 70
     1
 10
0.0
 20
0.0
 30
0.0
  3
*U45
  1

  0
TEXT
  5
2087
330
2308
100
AcDbEntity
  8
1
 62
     3
100
AcDbText
 10
50.32157549797977
 20
49.85980783690738
 30
0.0
 40
3.5
  1
ASME B5.50 CAT40
 41
0.72
  7
TEXTSTYLE_2
100
AcDbText
  0
ENDBLK
  5
2089
330
2308
100
AcDbEntity
  8
0
100
AcDbBlockEnd
  0
BLOCK
  5
230B
330
230A
100
AcDbEntity
  8
0
100
AcDbBlockBegin
  2
*U46
 70
     1
 10
0.0
 20
0.0
 30
0.0
  3
*U46
  1

  0
TEXT
  5
208B
330
230A
100
AcDbEntity
  8
1
 62
     3
100
AcDbText
 10
50.32157549797977
 20
49.85980783690738
 30
0.0
 40
3.5
  1
ASME B5.50 CAT40
 41
0.72
  7
TEXTSTYLE_2
100
AcDbText
  0
ENDBLK
  5
208D
330
230A
100
AcDbEntity
  8
0
100
AcDbBlockEnd
  0
BLOCK
  5
230D
330
230C
100
AcDbEntity
  8
0
100
AcDbBlockBegin
  2
*U47
 70
     1
 10
0.0
 20
0.0
 30
0.0
  3
*U47
  1

  0
TEXT
  5
208F
330
230C
100
AcDbEntity
  8
1
 62
     3
100
AcDbText
 10
35.50323024777978
 20
-0.0000000211926197
 30
0.0
 40
3.5
  1
AA3B14-40 20 070
 41
0.72
  7
TEXTSTYLE_2
100
AcDbText
  0
ENDBLK
  5
2091
330
230C
100
AcDbEntity
  8
0
100
AcDbBlockEnd
  0
BLOCK
  5
2312
330
2311
100
AcDbEntity
  8
0
100
AcDbBlockBegin
  2
*D48
 70
     1
 10
0.0
 20
0.0
 30
0.0
  3
*D48
  1

  0
LINE
  5
250D
330
2311
100
AcDbEntity
  8
SK2
  6
Continuous
 62
     0
370
    -2
100
AcDbLine
 10
2.4109418089634
 20
31.77951125208093
 30
0.0
 11
-91.19049340263657
 21
31.77951125208096
 31
0.0
  0
LINE
  5
250E
330
2311
100
AcDbEntity
  8
SK2
  6
Continuous
 62
     0
370
    -2
100
AcDbLine
 10
2.4109418089634
 20
-31.77048874791907
 30
0.0
 11
-91.19049340263661
 21
-31.77048874791904
 31
0.0
  0
LINE
  5
250F
330
2311
100
AcDbEntity
  8
SK2
  6
Continuous
 62
     0
370
    -2
100
AcDbLine
 10
-91.01049340263658
 20
28.27951125208096
 30
0.0
 11
-91.01049340263658
 21
3.66572755249623
 31
0.0
  0
LINE
  5
2510
330
2311
100
AcDbEntity
  8
SK2
  6
Continuous
 62
     0
370
    -2
100
AcDbLine
 10
-91.01049340263658
 20
-28.27048874791904
 30
0.0
 11
-91.01049340263658
 21
-9.609247194334352
 31
0.0
  0
MTEXT
  5
2511
330
2311
100
AcDbEntity
  8
SK2
  6
Continuous
 62
     5
100
AcDbMText
 10
-91.01049340263658
 20
-2.971759820919075
 30
0.0
 40
3.5
 41
0.0
 71
     5
 72
     1
  1
\A1;%%c63.55
 11
0.0000000000000001
 21
1.0
 31
0.0
 73
     1
 44
1.0
1001
ACAD
1000
MTEXTBEGIN
1070
    73
1070
     1
1070
    44
1040
1.0
1070
    74
1070
     0
1000
MTEXTEND
  0
SOLID
  5
2512
330
2311
100
AcDbEntity
  8
SK2
  6
Continuous
 62
     0
100
AcDbTrace
 10
-91.59382673596992
 20
28.27951125208096
 30
0.0
 11
-90.42716006930325
 21
28.27951125208096
 31
0.0
 12
-91.01049340263658
 22
31.77951125208096
 32
0.0
 13
-91.01049340263658
 23
31.77951125208096
 33
0.0
  0
SOLID
  5
2513
330
2311
100
AcDbEntity
  8
SK2
  6
Continuous
 62
     0
100
AcDbTrace
 10
-91.59382673596992
 20
-28.27048874791904
 30
0.0
 11
-90.42716006930325
 21
-28.27048874791904
 31
0.0
 12
-91.01049340263658
 22
-31.77048874791904
 32
0.0
 13
-91.01049340263658
 23
-31.77048874791904
 33
0.0
  0
POINT
  5
2514
330
2311
100
AcDbEntity
  8
DEFPOINTS
  6
Continuous
 62
     0
100
AcDbPoint
 10
2.4734418089634
 20
31.77951125208093
 30
0.0
  0
POINT
  5
2515
330
2311
100
AcDbEntity
  8
DEFPOINTS
  6
Continuous
 62
     0
100
AcDbPoint
 10
2.4734418089634
 20
-31.77048874791907
 30
0.0
  0
POINT
  5
2516
330
2311
100
AcDbEntity
  8
DEFPOINTS
  6
Continuous
 62
     0
100
AcDbPoint
 10
-91.01049340263658
 20
-31.77048874791904
 30
0.0
  0
ENDBLK
  5
2313
330
2311
100
AcDbEntity
  8
0
100
AcDbBlockEnd
  0
BLOCK
  5
231F
330
231E
100
AcDbEntity
  8
0
100
AcDbBlockBegin
  2
*D49
 70
     1
 10
0.0
 20
0.0
 30
0.0
  3
*D49
  1

  0
LINE
  5
24FA
330
231E
100
AcDbEntity
  8
SK2
  6
Continuous
 62
     0
370
    -2
100
AcDbLine
 10
-1.564058191036593
 20
-22.22048874791906
 30
0.0
 11
-83.47234510883659
 21
-22.22048874791904
 31
0.0
  0
LINE
  5
24FB
330
231E
100
AcDbEntity
  8
SK2
  6
Continuous
 62
     0
370
    -2
100
AcDbLine
 10
-1.564058191036593
 20
22.22951125208091
 30
0.0
 11
-83.47234510883659
 21
22.22951125208093
 31
0.0
  0
LINE
  5
24FC
330
231E
100
AcDbEntity
  8
SK2
  6
Continuous
 62
     0
370
    -2
100
AcDbLine
 10
-83.29234510883658
 20
-18.72048874791904
 30
0.0
 11
-83.29234510883658
 21
-9.74872144823435
 31
0.0
  0
LINE
  5
24FD
330
231E
100
AcDbEntity
  8
SK2
  6
Continuous
 62
     0
370
    -2
100
AcDbLine
 10
-83.29234510883658
 20
18.72951125208093
 30
0.0
 11
-83.29234510883658
 21
4.751253298596233
 31
0.0
  0
MTEXT
  5
24FE
330
231E
100
AcDbEntity
  8
SK2
  6
Continuous
 62
     5
100
AcDbMText
 10
-83.29234510883658
 20
-2.498734074819072
 30
0.0
 40
3.5
 41
0.0
 71
     5
 72
     1
  1
\A1;%%c44,45
 11
0.0000000000000001
 21
1.0
 31
0.0
 73
     1
 44
1.0
1001
ACAD
1000
MTEXTBEGIN
1070
    73
1070
     1
1070
    44
1040
1.0
1070
    74
1070
     0
1000
MTEXTEND
  0
SOLID
  5
24FF
330
231E
100
AcDbEntity
  8
SK2
  6
Continuous
 62
     0
100
AcDbTrace
 10
-83.87567844216992
 20
-18.72048874791904
 30
0.0
 11
-82.70901177550326
 21
-18.72048874791904
 31
0.0
 12
-83.29234510883658
 22
-22.22048874791904
 32
0.0
 13
-83.29234510883658
 23
-22.22048874791904
 33
0.0
  0
SOLID
  5
2500
330
231E
100
AcDbEntity
  8
SK2
  6
Continuous
 62
     0
100
AcDbTrace
 10
-83.87567844216992
 20
18.72951125208093
 30
0.0
 11
-82.70901177550326
 21
18.72951125208093
 31
0.0
 12
-83.29234510883658
 22
22.22951125208093
 32
0.0
 13
-83.29234510883658
 23
22.22951125208093
 33
0.0
  0
POINT
  5
2501
330
231E
100
AcDbEntity
  8
DEFPOINTS
  6
Continuous
 62
     0
100
AcDbPoint
 10
-1.501558191036593
 20
-22.22048874791906
 30
0.0
  0
POINT
  5
2502
330
231E
100
AcDbEntity
  8
DEFPOINTS
  6
Continuous
 62
     0
100
AcDbPoint
 10
-1.501558191036593
 20
22.22951125208091
 30
0.0
  0
POINT
  5
2503
330
231E
100
AcDbEntity
  8
DEFPOINTS
  6
Continuous
 62
     0
100
AcDbPoint
 10
-83.29234510883658
 20
22.22951125208093
 30
0.0
  0
ENDBLK
  5
2320
330
231E
100
AcDbEntity
  8
0
100
AcDbBlockEnd
  0
BLOCK
  5
232C
330
232B
100
AcDbEntity
  8
0
100
AcDbBlockBegin
  2
*D50
 70
     1
 10
0.0
 20
0.0
 30
0.0
  3
*D50
  1

  0
LINE
  5
2504
330
232B
100
AcDbEntity
  8
SK2
  6
Continuous
 62
     0
370
    -2
100
AcDbLine
 10
-64.47155819103659
 20
7.942011252080931
 30
0.0
 11
-75.31894642458789
 21
7.942011252080934
 31
0.0
  0
LINE
  5
2505
330
232B
100
AcDbEntity
  8
SK2
  6
Continuous
 62
     0
370
    -2
100
AcDbLine
 10
-64.47155819103659
 20
-7.93298874791907
 30
0.0
 11
-75.31894642458789
 21
-7.932988747919067
 31
0.0
  0
LINE
  5
2506
330
232B
100
AcDbEntity
  8
SK2
  6
Continuous
 62
     0
370
    -2
100
AcDbLine
 10
-75.1389464245879
 20
4.442011252080934
 30
0.0
 11
-75.1389464245879
 21
-4.432988747919067
 31
0.0
  0
MTEXT
  5
2507
330
232B
100
AcDbEntity
  8
SK2
  6
Continuous
 62
     5
100
AcDbMText
 10
-77.7485752837149
 20
-0.0186295953831
 30
0.0
 40
3.5
 41
0.0
 71
     5
 72
     1
  1
\A1;5/8-11UNC 2B
 11
0.0000000000000001
 21
1.0
 31
0.0
 73
     1
 44
1.0
1001
ACAD
1000
MTEXTBEGIN
1070
    73
1070
     1
1070
    44
1040
1.0
1070
    74
1070
     0
1000
MTEXTEND
  0
SOLID
  5
2508
330
232B
100
AcDbEntity
  8
SK2
  6
Continuous
 62
     0
100
AcDbTrace
 10
-75.72227975792123
 20
4.442011252080934
 30
0.0
 11
-74.55561309125457
 21
4.442011252080934
 31
0.0
 12
-75.1389464245879
 22
7.942011252080934
 32
0.0
 13
-75.1389464245879
 23
7.942011252080934
 33
0.0
  0
SOLID
  5
2509
330
232B
100
AcDbEntity
  8
SK2
  6
Continuous
 62
     0
100
AcDbTrace
 10
-75.72227975792123
 20
-4.432988747919067
 30
0.0
 11
-74.55561309125457
 21
-4.432988747919067
 31
0.0
 12
-75.1389464245879
 22
-7.932988747919067
 32
0.0
 13
-75.1389464245879
 23
-7.932988747919067
 33
0.0
  0
POINT
  5
250A
330
232B
100
AcDbEntity
  8
DEFPOINTS
  6
Continuous
 62
     0
100
AcDbPoint
 10
-64.40905819103659
 20
7.942011252080931
 30
0.0
  0
POINT
  5
250B
330
232B
100
AcDbEntity
  8
DEFPOINTS
  6
Continuous
 62
     0
100
AcDbPoint
 10
-64.40905819103659
 20
-7.93298874791907
 30
0.0
  0
POINT
  5
250C
330
232B
100
AcDbEntity
  8
DEFPOINTS
  6
Continuous
 62
     0
100
AcDbPoint
 10
-75.1389464245879
 20
-7.932988747919067
 30
0.0
  0
ENDBLK
  5
232D
330
232B
100
AcDbEntity
  8
0
100
AcDbBlockEnd
  0
BLOCK
  5
2338
330
2337
100
AcDbEntity
  8
0
100
AcDbBlockBegin
  2
*D51
 70
     1
 10
0.0
 20
0.0
 30
0.0
  3
*D51
  1

  0
LINE
  5
24DC
330
2337
100
AcDbEntity
  8
SK2
  6
Continuous
 62
     0
370
    -2
100
AcDbLine
 10
-68.2515581910366
 20
13.83888743188093
 30
0.0
 11
-68.2515581910366
 21
51.05448136108094
 31
0.0
  0
LINE
  5
24DD
330
2337
100
AcDbEntity
  8
SK2
  6
Continuous
 62
     0
370
    -2
100
AcDbLine
 10
-0.0015581910365938
 20
22.06068615068094
 30
0.0
 11
-0.001558191036592
 21
51.05448136108094
 31
0.0
  0
LINE
  5
24DE
330
2337
100
AcDbEntity
  8
SK2
  6
Continuous
 62
     0
370
    -2
100
AcDbLine
 10
-64.75155819103659
 20
50.87448136108094
 30
0.0
 11
-42.6809499151007
 21
50.87448136108094
 31
0.0
  0
LINE
  5
24DF
330
2337
100
AcDbEntity
  8
SK2
  6
Continuous
 62
     0
370
    -2
100
AcDbLine
 10
-3.501558191036592
 20
50.87448136108094
 30
0.0
 11
-32.34652634937249
 21
50.87448136108094
 31
0.0
  0
MTEXT
  5
24E0
330
2337
100
AcDbEntity
  8
SK2
  6
Continuous
 62
     5
100
AcDbMText
 10
-37.5137381322366
 20
50.87448136108094
 30
0.0
 40
3.5
 41
0.0
 71
     5
 72
     1
  1
\A1;68.25
 73
     1
 44
1.0
1001
ACAD
1000
MTEXTBEGIN
1070
    73
1070
     1
1070
    44
1040
1.0
1070
    74
1070
     0
1000
MTEXTEND
  0
SOLID
  5
24E1
330
2337
100
AcDbEntity
  8
SK2
  6
Continuous
 62
     0
100
AcDbTrace
 10
-64.75155819103659
 20
51.45781469441428
 30
0.0
 11
-64.75155819103659
 21
50.29114802774761
 31
0.0
 12
-68.2515581910366
 22
50.87448136108094
 32
0.0
 13
-68.2515581910366
 23
50.87448136108094
 33
0.0
  0
SOLID
  5
24E2
330
2337
100
AcDbEntity
  8
SK2
  6
Continuous
 62
     0
100
AcDbTrace
 10
-3.501558191036592
 20
51.45781469441428
 30
0.0
 11
-3.501558191036592
 21
50.29114802774761
 31
0.0
 12
-0.0015581910365921
 22
50.87448136108094
 32
0.0
 13
-0.0015581910365921
 23
50.87448136108094
 33
0.0
  0
POINT
  5
24E3
330
2337
100
AcDbEntity
  8
DEFPOINTS
  6
Continuous
 62
     0
100
AcDbPoint
 10
-68.2515581910366
 20
13.77638743188093
 30
0.0
  0
POINT
  5
24E4
330
2337
100
AcDbEntity
  8
DEFPOINTS
  6
Continuous
 62
     0
100
AcDbPoint
 10
-0.0015581910365938
 20
21.99818615068094
 30
0.0
  0
POINT
  5
24E5
330
2337
100
AcDbEntity
  8
DEFPOINTS
  6
Continuous
 62
     0
100
AcDbPoint
 10
-0.0015581910365921
 20
50.87448136108094
 30
0.0
  0
ENDBLK
  5
2339
330
2337
100
AcDbEntity
  8
0
100
AcDbBlockEnd
  0
BLOCK
  5
2345
330
2344
100
AcDbEntity
  8
0
100
AcDbBlockBegin
  2
*D52
 70
     1
 10
0.0
 20
0.0
 30
0.0
  3
*D52
  1

  0
LINE
  5
24F0
330
2344
100
AcDbEntity
  8
2
  6
Continuous
 62
     0
370
    -2
100
AcDbLine
 10
19.0984418089634
 20
32.59201125208093
 30
0.0
 11
19.0984418089634
 21
43.9127688622809
 31
0.0
  0
LINE
  5
24F1
330
2344
100
AcDbEntity
  8
2
  6
Continuous
 62
     0
370
    -2
100
AcDbLine
 10
-0.0015581910365938
 20
22.45069137958092
 30
0.0
 11
-0.0015581910365925
 21
43.9127688622809
 31
0.0
  0
LINE
  5
24F2
330
2344
100
AcDbEntity
  8
2
  6
Continuous
 62
     0
370
    -2
100
AcDbLine
 10
15.5984418089634
 20
43.73276886228089
 30
0.0
 11
11.44283994411506
 21
43.73276886228089
 31
0.0
  0
LINE
  5
24F3
330
2344
100
AcDbEntity
  8
2
  6
Continuous
 62
     0
370
    -2
100
AcDbLine
 10
3.498441808963407
 20
43.73276886228089
 30
0.0
 11
5.300609787385099
 21
43.73276886228089
 31
0.0
  0
MTEXT
  5
24F4
330
2344
100
AcDbEntity
  8
2
  6
Continuous
 62
     5
100
AcDbMText
 10
8.371724865750081
 20
45.15916529323006
 30
0.0
 40
3.5
 41
0.0
 71
     5
 72
     1
  1
\A1;19.1
 73
     1
 44
1.0
1001
ACAD
1000
MTEXTBEGIN
1070
    73
1070
     1
1070
    44
1040
1.0
1070
    74
1070
     0
1000
MTEXTEND
  0
SOLID
  5
24F5
330
2344
100
AcDbEntity
  8
2
  6
Continuous
 62
     0
100
AcDbTrace
 10
15.5984418089634
 20
44.31610219561423
 30
0.0
 11
15.5984418089634
 21
43.14943552894756
 31
0.0
 12
19.0984418089634
 22
43.73276886228089
 32
0.0
 13
19.0984418089634
 23
43.73276886228089
 33
0.0
  0
SOLID
  5
24F6
330
2344
100
AcDbEntity
  8
2
  6
Continuous
 62
     0
100
AcDbTrace
 10
3.498441808963407
 20
44.31610219561423
 30
0.0
 11
3.498441808963407
 21
43.14943552894756
 31
0.0
 12
-0.0015581910365925
 22
43.73276886228089
 32
0.0
 13
-0.0015581910365925
 23
43.73276886228089
 33
0.0
  0
POINT
  5
24F7
330
2344
100
AcDbEntity
  8
DEFPOINTS
  6
Continuous
 62
     0
100
AcDbPoint
 10
19.0984418089634
 20
32.52951125208093
 30
0.0
  0
POINT
  5
24F8
330
2344
100
AcDbEntity
  8
DEFPOINTS
  6
Continuous
 62
     0
100
AcDbPoint
 10
-0.0015581910365938
 20
22.38819137958092
 30
0.0
  0
POINT
  5
24F9
330
2344
100
AcDbEntity
  8
DEFPOINTS
  6
Continuous
 62
     0
100
AcDbPoint
 10
-0.0015581910365925
 20
43.73276886228089
 30
0.0
  0
ENDBLK
  5
2346
330
2344
100
AcDbEntity
  8
0
100
AcDbBlockEnd
  0
BLOCK
  5
2352
330
2351
100
AcDbEntity
  8
0
100
AcDbBlockBegin
  2
*D53
 70
     1
 10
0.0
 20
0.0
 30
0.0
  3
*D53
  1

  0
LINE
  5
24E6
330
2351
100
AcDbEntity
  8
2
  6
Continuous
 62
     0
370
    -2
100
AcDbLine
 10
-0.0015581910365938
 20
22.06068615068094
 30
0.0
 11
-0.001558191036592
 21
51.05448136108094
 31
0.0
  0
LINE
  5
24E7
330
2351
100
AcDbEntity
  8
2
  6
Continuous
 62
     0
370
    -2
100
AcDbLine
 10
69.99844180896338
 20
11.56701125208093
 30
0.0
 11
69.99844180896338
 21
51.05448136108094
 31
0.0
  0
LINE
  5
24E8
330
2351
100
AcDbEntity
  8
2
  6
Continuous
 62
     0
370
    -2
100
AcDbLine
 10
3.498441808963407
 20
50.87448136108094
 30
0.0
 11
35.30836593400753
 21
50.87448136108094
 31
0.0
  0
LINE
  5
24E9
330
2351
100
AcDbEntity
  8
2
  6
Continuous
 62
     0
370
    -2
100
AcDbLine
 10
66.49844180896337
 20
50.87448136108094
 30
0.0
 11
39.34112183951933
 21
50.87448136108094
 31
0.0
  0
MTEXT
  5
24EA
330
2351
100
AcDbEntity
  8
2
  6
Continuous
 62
     5
100
AcDbMText
 10
37.32474388676343
 20
50.87448136108094
 30
0.0
 40
3.5
 41
0.0
 71
     5
 72
     1
  1
\A1;70
 73
     1
 44
1.0
1001
ACAD
1000
MTEXTBEGIN
1070
    73
1070
     1
1070
    44
1040
1.0
1070
    74
1070
     0
1000
MTEXTEND
  0
SOLID
  5
24EB
330
2351
100
AcDbEntity
  8
2
  6
Continuous
 62
     0
100
AcDbTrace
 10
3.498441808963407
 20
51.45781469441428
 30
0.0
 11
3.498441808963407
 21
50.29114802774761
 31
0.0
 12
-0.0015581910365921
 22
50.87448136108094
 32
0.0
 13
-0.0015581910365921
 23
50.87448136108094
 33
0.0
  0
SOLID
  5
24EC
330
2351
100
AcDbEntity
  8
2
  6
Continuous
 62
     0
100
AcDbTrace
 10
66.49844180896337
 20
51.45781469441428
 30
0.0
 11
66.49844180896337
 21
50.29114802774761
 31
0.0
 12
69.99844180896338
 22
50.87448136108094
 32
0.0
 13
69.99844180896338
 23
50.87448136108094
 33
0.0
  0
POINT
  5
24ED
330
2351
100
AcDbEntity
  8
DEFPOINTS
  6
Continuous
 62
     0
100
AcDbPoint
 10
-0.0015581910365938
 20
21.99818615068094
 30
0.0
  0
POINT
  5
24EE
330
2351
100
AcDbEntity
  8
DEFPOINTS
  6
Continuous
 62
     0
100
AcDbPoint
 10
69.99844180896338
 20
11.50451125208093
 30
0.0
  0
POINT
  5
24EF
330
2351
100
AcDbEntity
  8
DEFPOINTS
  6
Continuous
 62
     0
100
AcDbPoint
 10
69.99844180896338
 20
50.87448136108094
 30
0.0
  0
ENDBLK
  5
2353
330
2351
100
AcDbEntity
  8
0
100
AcDbBlockEnd
  0
BLOCK
  5
235F
330
235E
100
AcDbEntity
  8
0
100
AcDbBlockBegin
  2
*D54
 70
     1
 10
0.0
 20
0.0
 30
0.0
  3
*D54
  1

  0
LINE
  5
24D2
330
235E
100
AcDbEntity
  8
SK2
  6
Continuous
 62
     0
370
    -2
100
AcDbLine
 10
67.51994180896338
 20
-16.99548874791907
 30
0.0
 11
77.97145242796341
 21
-16.99548874791907
 31
0.0
  0
LINE
  5
24D3
330
235E
100
AcDbEntity
  8
SK2
  6
Continuous
 62
     0
370
    -2
100
AcDbLine
 10
67.51994180896338
 20
17.00451125208093
 30
0.0
 11
77.97145242796341
 21
17.00451125208093
 31
0.0
  0
LINE
  5
24D4
330
235E
100
AcDbEntity
  8
SK2
  6
Continuous
 62
     0
370
    -2
100
AcDbLine
 10
77.79145242796341
 20
-13.49548874791907
 30
0.0
 11
77.79145242796341
 21
-5.195871618319078
 31
0.0
  0
LINE
  5
24D5
330
235E
100
AcDbEntity
  8
SK2
  6
Continuous
 62
     0
370
    -2
100
AcDbLine
 10
77.79145242796341
 20
13.50451125208093
 30
0.0
 11
77.79145242796341
 21
2.33412838168092
 31
0.0
  0
MTEXT
  5
24D6
330
235E
100
AcDbEntity
  8
SK2
  6
Continuous
 62
     5
100
AcDbMText
 10
77.79145242796341
 20
-1.430871618319066
 30
0.0
 40
3.5
 41
0.0
 71
     5
 72
     1
  1
\A1;%%c34
 11
0.0000000000000001
 21
1.0
 31
0.0
 73
     1
 44
1.0
1001
ACAD
1000
MTEXTBEGIN
1070
    73
1070
     1
1070
    44
1040
1.0
1070
    74
1070
     0
1000
MTEXTEND
  0
SOLID
  5
24D7
330
235E
100
AcDbEntity
  8
SK2
  6
Continuous
 62
     0
100
AcDbTrace
 10
77.20811909463008
 20
-13.49548874791907
 30
0.0
 11
78.37478576129673
 21
-13.49548874791907
 31
0.0
 12
77.79145242796341
 22
-16.99548874791907
 32
0.0
 13
77.79145242796341
 23
-16.99548874791907
 33
0.0
  0
SOLID
  5
24D8
330
235E
100
AcDbEntity
  8
SK2
  6
Continuous
 62
     0
100
AcDbTrace
 10
77.20811909463008
 20
13.50451125208093
 30
0.0
 11
78.37478576129673
 21
13.50451125208093
 31
0.0
 12
77.79145242796341
 22
17.00451125208093
 32
0.0
 13
77.79145242796341
 23
17.00451125208093
 33
0.0
  0
POINT
  5
24D9
330
235E
100
AcDbEntity
  8
DEFPOINTS
  6
Continuous
 62
     0
100
AcDbPoint
 10
67.45744180896338
 20
-16.99548874791907
 30
0.0
  0
POINT
  5
24DA
330
235E
100
AcDbEntity
  8
DEFPOINTS
  6
Continuous
 62
     0
100
AcDbPoint
 10
67.45744180896338
 20
17.00451125208093
 30
0.0
  0
POINT
  5
24DB
330
235E
100
AcDbEntity
  8
DEFPOINTS
  6
Continuous
 62
     0
100
AcDbPoint
 10
77.79145242796341
 20
17.00451125208093
 30
0.0
  0
ENDBLK
  5
2360
330
235E
100
AcDbEntity
  8
0
100
AcDbBlockEnd
  0
BLOCK
  5
2376
330
2375
100
AcDbEntity
  8
0
100
AcDbBlockBegin
  2
*D55
 70
     1
 10
0.0
 20
0.0
 30
0.0
  3
*D55
  1

  0
LINE
  5
2517
330
2375
100
AcDbEntity
  8
2
 62
     0
370
    -2
100
AcDbLine
 10
58.83844180896341
 20
-0.0579887479190688
 30
0.0
 11
58.83844180896341
 21
-41.79968197303387
 31
0.0
  0
LINE
  5
2518
330
2375
100
AcDbEntity
  8
2
 62
     0
370
    -2
100
AcDbLine
 10
-0.0015581910365938
 20
-0.0579887479190688
 30
0.0
 11
-0.0015581910365964
 21
-41.79968197303387
 31
0.0
  0
LINE
  5
2519
330
2375
100
AcDbEntity
  8
2
 62
     0
370
    -2
100
AcDbLine
 10
55.33844180896341
 20
-41.61968197303386
 30
0.0
 11
3.498441808963403
 21
-41.61968197303386
 31
0.0
  0
SOLID
  5
251A
330
2375
100
AcDbEntity
  8
2
 62
     0
100
AcDbTrace
 10
55.33844180896341
 20
-41.03634863970053
 30
0.0
 11
55.33844180896341
 21
-42.2030153063672
 31
0.0
 12
58.83844180896341
 22
-41.61968197303386
 32
0.0
 13
58.83844180896341
 23
-41.61968197303386
 33
0.0
  0
SOLID
  5
251B
330
2375
100
AcDbEntity
  8
2
 62
     0
100
AcDbTrace
 10
3.498441808963403
 20
-41.03634863970053
 30
0.0
 11
3.498441808963403
 21
-42.2030153063672
 31
0.0
 12
-0.0015581910365964
 22
-41.61968197303386
 32
0.0
 13
-0.0015581910365964
 23
-41.61968197303386
 33
0.0
  0
MTEXT
  5
251C
330
2375
100
AcDbEntity
  8
2
 62
     5
100
AcDbMText
 10
29.41844180896341
 20
-39.77968197303387
 30
0.0
 40
3.5
 41
0.0
 71
     5
 72
     1
  1
\A1;58.84
 73
     1
 44
1.0
1001
ACAD
1000
MTEXTBEGIN
1070
    73
1070
     1
1070
    44
1040
1.0
1070
    74
1070
     0
1000
MTEXTEND
  0
POINT
  5
251D
330
2375
100
AcDbEntity
  8
DEFPOINTS
 62
     0
100
AcDbPoint
 10
58.83844180896341
 20
0.0045112520809312
 30
0.0
  0
POINT
  5
251E
330
2375
100
AcDbEntity
  8
DEFPOINTS
 62
     0
100
AcDbPoint
 10
-0.0015581910365938
 20
0.0045112520809312
 30
0.0
  0
POINT
  5
251F
330
2375
100
AcDbEntity
  8
DEFPOINTS
 62
     0
100
AcDbPoint
 10
-0.0015581910365964
 20
-41.61968197303386
 30
0.0
  0
ENDBLK
  5
2377
330
2375
100
AcDbEntity
  8
0
100
AcDbBlockEnd
  0
ENDSEC
  0
SECTION
  2
ENTITIES
  0
DIMENSION
  5
1DA9
330
2277
100
AcDbEntity
  8
SK2
  6
Continuous
 62
     7
100
AcDbDimension
  2
*D54
 10
77.79145242796341
 20
17.00451125208093
 30
0.0
 11
77.79145242796341
 21
-1.430871618319066
 31
0.0
 70
   160
  1
%%c34
 71
     5
 42
34.0
  3
STANDARD
100
AcDbAlignedDimension
 13
67.45744180896338
 23
-16.99548874791907
 33
0.0
 14
67.45744180896338
 24
17.00451125208093
 34
0.0
 50
90.0
100
AcDbRotatedDimension
  0
DIMENSION
  5
1DAA
330
2277
100
AcDbEntity
  8
SK2
  6
Continuous
 62
     7
100
AcDbDimension
  2
*D51
 10
-0.0015581910365921
 20
50.87448136108094
 30
0.0
 11
-37.5137381322366
 21
50.87448136108094
 31
0.0
 70
   160
  1
68.25
 71
     5
 42
68.25
  3
STANDARD
100
AcDbAlignedDimension
 13
-68.2515581910366
 23
13.77638743188093
 33
0.0
 14
-0.0015581910365938
 24
21.99818615068094
 34
0.0
100
AcDbRotatedDimension
  0
DIMENSION
  5
1DAB
330
2277
100
AcDbEntity
  8
2
  6
Continuous
 62
     7
100
AcDbDimension
  2
*D53
 10
69.99844180896338
 20
50.87448136108094
 30
0.0
 11
37.32474388676343
 21
50.87448136108094
 31
0.0
 70
   160
  1
70
 71
     5
 42
69.99999999999997
  3
STANDARD
100
AcDbAlignedDimension
 13
-0.0015581910365938
 23
21.99818615068094
 33
0.0
 14
69.99844180896338
 24
11.50451125208093
 34
0.0
100
AcDbRotatedDimension
  0
DIMENSION
  5
1DAC
330
2277
100
AcDbEntity
  8
2
  6
Continuous
 62
     7
100
AcDbDimension
  2
*D52
 10
-0.0015581910365925
 20
43.73276886228089
 30
0.0
 11
8.371724865750081
 21
45.15916529323006
 31
0.0
 70
   160
  1
19.1
 71
     5
 42
19.09999999999999
  3
STANDARD
100
AcDbAlignedDimension
 13
19.0984418089634
 23
32.52951125208093
 33
0.0
 14
-0.0015581910365938
 24
22.38819137958092
 34
0.0
 50
180.0
100
AcDbRotatedDimension
  0
DIMENSION
  5
1DAD
330
2277
100
AcDbEntity
  8
SK2
  6
Continuous
 62
     7
100
AcDbDimension
  2
*D49
 10
-83.29234510883658
 20
22.22951125208093
 30
0.0
 11
-83.29234510883658
 21
-2.498734074819072
 31
0.0
 70
   160
  1
%%c44,45
 71
     5
 42
44.44999999999997
  3
STANDARD
100
AcDbAlignedDimension
 13
-1.501558191036593
 23
-22.22048874791906
 33
0.0
 14
-1.501558191036593
 24
22.22951125208091
 34
0.0
 50
90.0
100
AcDbRotatedDimension
  0
DIMENSION
  5
1DAE
330
2277
100
AcDbEntity
  8
SK2
  6
Continuous
 62
     7
100
AcDbDimension
  2
*D50
 10
-75.1389464245879
 20
-7.932988747919067
 30
0.0
 11
-77.7485752837149
 21
-0.0186295953831
 31
0.0
 70
   160
  1
5/8-11UNC 2B
 71
     5
 42
15.875
  3
STANDARD
100
AcDbAlignedDimension
 13
-64.40905819103659
 23
7.942011252080931
 33
0.0
 14
-64.40905819103659
 24
-7.93298874791907
 34
0.0
 50
270.0
100
AcDbRotatedDimension
  0
DIMENSION
  5
1DAF
330
2277
100
AcDbEntity
  8
SK2
  6
Continuous
 62
     7
100
AcDbDimension
  2
*D48
 10
-91.01049340263658
 20
-31.77048874791904
 30
0.0
 11
-91.01049340263658
 21
-2.971759820919075
 31
0.0
 70
   160
  1
%%c63.55
 71
     5
 42
63.55
  3
STANDARD
100
AcDbAlignedDimension
 13
2.4734418089634
 23
31.77951125208093
 33
0.0
 14
2.4734418089634
 24
-31.77048874791907
 34
0.0
 50
270.0
100
AcDbRotatedDimension
  0
LINE
  5
1DB4
330
2277
100
AcDbEntity
  8
1
  6
Continuous
100
AcDbLine
 10
-68.2515581910366
 20
-12.26736492771907
 30
0.0
 11
-68.2515581910366
 21
12.27638743188093
 31
0.0
  0
LINE
  5
1DB5
330
2277
100
AcDbEntity
  8
SK3
  6
DASHED
100
AcDbLine
 10
-67.15155819103657
 20
-7.49548874791907
 30
0.0
 11
-67.15155819103657
 21
7.504511252080931
 31
0.0
  0
LINE
  5
1DB6
330
2277
100
AcDbEntity
  8
SK3
  6
DASHED
100
AcDbLine
 10
-63.47155819103659
 20
-7.136488747919081
 30
0.0
 11
-63.47155819103659
 21
7.14551125208094
 31
0.0
  0
LINE
  5
1DB7
330
2277
100
AcDbEntity
  8
SK3
  6
DASHED
100
AcDbLine
 10
-61.90155819103657
 20
-6.925488747919079
 30
0.0
 11
-61.90155819103657
 21
6.934511252080941
 31
0.0
  0
LINE
  5
1DB9
330
2277
100
AcDbEntity
  8
1
  6
Continuous
100
AcDbLine
 10
3.9734418089634
 20
-31.77048874791907
 30
0.0
 11
7.562171410163415
 21
-31.77048874791907
 31
0.0
  0
LINE
  5
1DBA
330
2277
100
AcDbEntity
  8
1
  6
Continuous
100
AcDbLine
 10
14.63471220776341
 20
-31.77048874791907
 30
0.0
 11
18.3484418089634
 21
-31.77048874791907
 31
0.0
  0
LINE
  5
1DBB
330
2277
100
AcDbEntity
  8
SK3
  6
DASHED
100
AcDbLine
 10
-63.29582225973658
 20
8.32877532078093
 30
0.0
 11
-61.90155819103657
 21
6.934511252080941
 31
0.0
  0
LINE
  5
1DBC
330
2277
100
AcDbEntity
  8
SK3
  6
DASHED
100
AcDbLine
 10
-61.90155819103657
 20
-6.925488747919079
 30
0.0
 11
-63.29582225973658
 21
-8.319752816619068
 31
0.0
  0
LINE
  5
1DBD
330
2277
100
AcDbEntity
  8
1
  6
Continuous
100
AcDbLine
 10
-0.5236329510366034
 20
-22.14435285441907
 30
0.0
 11
0.3712752614634098
 21
-21.90456292161907
 31
0.0
  0
LINE
  5
1DBE
330
2277
100
AcDbEntity
  8
1
  6
Continuous
100
AcDbLine
 10
13.01594180896333
 20
-28.29548874791907
 30
0.0
 11
9.180941808963382
 21
-28.29548874791907
 31
0.0
  0
LINE
  5
1DBF
330
2277
100
AcDbEntity
  8
SK3
  6
DASHED
100
AcDbLine
 10
-68.05155819103657
 20
9.024126494380929
 30
0.0
 11
-67.2443785141366
 21
8.55810109058093
 31
0.0
  0
LINE
  5
1DC0
330
2277
100
AcDbEntity
  8
SK3
  6
DASHED
100
AcDbLine
 10
-33.2515581910366
 20
-7.93298874791907
 30
0.0
 11
-33.2515581910366
 21
7.942011252080931
 31
0.0
  0
LINE
  5
1DC1
330
2277
100
AcDbEntity
  8
1
  6
Continuous
100
AcDbLine
 10
-0.6236329510365977
 20
-22.14435285441907
 30
0.0
 11
-0.5236329510366034
 21
-22.14435285441907
 31
0.0
  0
LINE
  5
1DC2
330
2277
100
AcDbEntity
  8
1
  6
Continuous
100
AcDbLine
 10
0.6300943065634215
 20
-21.87048874791907
 30
0.0
 11
2.2234418089634
 21
-21.87048874791907
 31
0.0
  0
LINE
  5
1DC3
330
2277
100
AcDbEntity
  8
1
  6
Continuous
100
AcDbLine
 10
38.08422824656341
 20
-16.99548874791907
 30
0.0
 11
24.29844180896334
 21
-16.99548874791907
 31
0.0
  0
LINE
  5
1DC4
330
2277
100
AcDbEntity
  8
1
  6
Continuous
100
AcDbLine
 10
51.49844180896341
 20
-16.99548874791907
 30
0.0
 11
65.95744180896338
 21
-16.99548874791907
 31
0.0
  0
LINE
  5
1DC5
330
2277
100
AcDbEntity
  8
1
  6
Continuous
100
AcDbLine
 10
-68.2515581910366
 20
-12.26736492771907
 30
0.0
 11
-0.5236329510366034
 21
-22.14435285441907
 31
0.0
  0
LINE
  5
1DC6
330
2277
100
AcDbEntity
  8
SK3
  6
DASHED
100
AcDbLine
 10
-25.49981880683657
 20
-6.925488747919079
 30
0.0
 11
-25.49981880683657
 21
6.934511252080941
 31
0.0
  0
LINE
  5
1DC7
330
2277
100
AcDbEntity
  8
SK3
  6
DASHED
100
AcDbLine
 10
-25.25155819103659
 20
-6.495488747919068
 30
0.0
 11
-25.25155819103659
 21
6.504511252080931
 31
0.0
  0
LINE
  5
1DC8
330
2277
100
AcDbEntity
  8
SK3
  6
DASHED
100
AcDbLine
 10
-68.05155819103657
 20
-9.015103990219071
 30
0.0
 11
-67.2443785141366
 21
-8.549078586419069
 31
0.0
  0
LINE
  5
1DC9
330
2277
100
AcDbEntity
  8
1
  6
Continuous
100
AcDbLine
 10
51.99844180896341
 20
-15.49548874791907
 30
0.0
 11
66.82344180896342
 21
-15.49548874791907
 31
0.0
  0
LINE
  5
1DCA
330
2277
100
AcDbEntity
  8
1
  6
Continuous
100
AcDbLine
 10
60.49844180896338
 20
-12.89748874791907
 30
0.0
 11
67.6894418089634
 21
-12.89748874791907
 31
0.0
  0
LINE
  5
1DCB
330
2277
100
AcDbEntity
  8
1
  6
Continuous
100
AcDbLine
 10
49.9984418089634
 20
-12.49548874791907
 30
0.0
 11
43.41265537126338
 21
-12.49548874791907
 31
0.0
  0
LINE
  5
1DCC
330
2277
100
AcDbEntity
  8
1
  6
Continuous
100
AcDbLine
 10
51.99844180896341
 20
-12.49548874791907
 30
0.0
 11
67.6894418089634
 21
-12.49548874791907
 31
0.0
  0
LINE
  5
1DCD
330
2277
100
AcDbEntity
  8
1
  6
Continuous
100
AcDbLine
 10
44.49844180896341
 20
-11.69548874791907
 30
0.0
 11
49.9984418089634
 21
-11.69548874791907
 31
0.0
  0
LINE
  5
1DCE
330
2277
100
AcDbEntity
  8
SK3
  6
DASHED
100
AcDbLine
 10
-25.25155819103659
 20
6.504511252080931
 30
0.0
 11
-25.49981880683657
 21
6.934511252080941
 31
0.0
  0
LINE
  5
1DCF
330
2277
100
AcDbEntity
  8
SK3
  6
DASHED
100
AcDbLine
 10
-67.04437851413661
 20
-8.49548874791907
 30
0.0
 11
-63.72008632853658
 21
-8.49548874791907
 31
0.0
  0
LINE
  5
1DD0
330
2277
100
AcDbEntity
  8
1
  6
Continuous
100
AcDbLine
 10
19.0984418089634
 20
-8.18748874791907
 30
0.0
 11
4.2234418089634
 21
-8.18748874791907
 31
0.0
  0
LINE
  5
1DD1
330
2277
100
AcDbEntity
  8
SK3
  6
DASHED
100
AcDbLine
 10
-62.90905819103659
 20
-7.93298874791907
 30
0.0
 11
-33.2515581910366
 21
-7.93298874791907
 31
0.0
  0
LINE
  5
1DD2
330
2277
100
AcDbEntity
  8
SK3
  6
DASHED
100
AcDbLine
 10
-61.90155819103657
 20
-6.925488747919079
 30
0.0
 11
-25.49981880683657
 21
-6.925488747919079
 31
0.0
  0
LINE
  5
1DD3
330
2277
100
AcDbEntity
  8
SK3
  6
DASHED
100
AcDbLine
 10
28.4984418089634
 20
-6.745488747919068
 30
0.0
 11
35.37444180896339
 21
-6.745488747919068
 31
0.0
  0
LINE
  5
1DD4
330
2277
100
AcDbEntity
  8
SK3
  6
DASHED
100
AcDbLine
 10
28.3544418089634
 20
-6.495488747919068
 30
0.0
 11
-25.25155819103659
 21
-6.495488747919068
 31
0.0
  0
LINE
  5
1DD5
330
2277
100
AcDbEntity
  8
SK3
  6
DASHED
100
AcDbLine
 10
-25.25155819103659
 20
-6.495488747919068
 30
0.0
 11
-25.49981880683657
 21
-6.925488747919079
 31
0.0
  0
LINE
  5
1DD6
330
2277
100
AcDbEntity
  8
SK3
  6
DASHED
100
AcDbLine
 10
35.37444180896339
 20
6.754511252080931
 30
0.0
 11
58.49844180896337
 21
10.00440447258093
 31
0.0
  0
LINE
  5
1DD7
330
2277
100
AcDbEntity
  8
1
  6
Continuous
100
AcDbLine
 10
51.99844180896341
 20
-2.995488747919068
 30
0.0
 11
67.6894418089634
 21
-2.995488747919068
 31
0.0
  0
LINE
  5
1DD9
330
2277
100
AcDbEntity
  8
SK3
  6
DASHED
100
AcDbLine
 10
35.37444180896339
 20
-6.745488747919068
 30
0.0
 11
58.49844180896337
 21
-9.995381968419069
 31
0.0
  0
LINE
  5
1DDA
330
2277
100
AcDbEntity
  8
1
  6
Continuous
100
AcDbLine
 10
67.6894418089634
 20
3.004511252080931
 30
0.0
 11
51.99844180896341
 21
3.004511252080931
 31
0.0
  0
LINE
  5
1DDB
330
2277
100
AcDbEntity
  8
SK3
  6
DASHED
100
AcDbLine
 10
-25.25155819103659
 20
6.504511252080931
 30
0.0
 11
28.3544418089634
 21
6.504511252080931
 31
0.0
  0
LINE
  5
1DDC
330
2277
100
AcDbEntity
  8
SK3
  6
DASHED
100
AcDbLine
 10
28.4984418089634
 20
6.754511252080931
 30
0.0
 11
35.37444180896339
 21
6.754511252080931
 31
0.0
  0
LINE
  5
1DDD
330
2277
100
AcDbEntity
  8
SK3
  6
DASHED
100
AcDbLine
 10
-25.49981880683657
 20
6.934511252080941
 30
0.0
 11
-61.90155819103657
 21
6.934511252080941
 31
0.0
  0
LINE
  5
1DDE
330
2277
100
AcDbEntity
  8
1
  6
Continuous
100
AcDbLine
 10
14.63471220776341
 20
-31.77048874791907
 30
0.0
 11
13.01594180896333
 21
-28.96669617141906
 31
0.0
  0
LINE
  5
1DDF
330
2277
100
AcDbEntity
  8
1
  6
Continuous
100
AcDbLine
 10
-0.5236329510366034
 20
-22.14435285441907
 30
0.0
 11
-0.5236329510366034
 21
22.15337535858093
 31
0.0
  0
LINE
  5
1DE0
330
2277
100
AcDbEntity
  8
SK4
  6
CENTER
100
AcDbLine
 10
-0.0015581910365938
 20
-23.23106648171906
 30
0.0
 11
-0.0015581910365938
 21
23.24008898588094
 31
0.0
  0
LINE
  5
1DE1
330
2277
100
AcDbEntity
  8
1
  6
Continuous
100
AcDbLine
 10
0.4984418089634062
 20
-20.87048874791907
 30
0.0
 11
0.4984418089634062
 21
20.8795112520809
 31
0.0
  0
LINE
  5
1DE2
330
2277
100
AcDbEntity
  8
1
  6
Continuous
100
AcDbLine
 10
13.01594180896333
 20
28.97571867558093
 30
0.0
 11
14.63471220776341
 21
31.77951125208093
 31
0.0
  0
LINE
  5
1DE3
330
2277
100
AcDbEntity
  8
SK3
  6
DASHED
100
AcDbLine
 10
-33.2515581910366
 20
7.942011252080931
 30
0.0
 11
-62.90905819103659
 21
7.942011252080931
 31
0.0
  0
LINE
  5
1DE4
330
2277
100
AcDbEntity
  8
1
  6
Continuous
100
AcDbLine
 10
19.0984418089634
 20
8.196511252080931
 30
0.0
 11
4.2234418089634
 21
8.196511252080931
 31
0.0
  0
LINE
  5
1DE5
330
2277
100
AcDbEntity
  8
SK3
  6
DASHED
100
AcDbLine
 10
-63.72008632853658
 20
8.504511252080931
 30
0.0
 11
-67.04437851413661
 21
8.504511252080931
 31
0.0
  0
LINE
  5
1DE6
330
2277
100
AcDbEntity
  8
1
  6
Continuous
100
AcDbLine
 10
44.49844180896341
 20
11.70451125208094
 30
0.0
 11
49.9984418089634
 21
11.70451125208094
 31
0.0
  0
LINE
  5
1DE7
330
2277
100
AcDbEntity
  8
1
  6
Continuous
100
AcDbLine
 10
49.9984418089634
 20
12.50451125208093
 30
0.0
 11
43.41244180896339
 21
12.50451125208093
 31
0.0
  0
LINE
  5
1DE8
330
2277
100
AcDbEntity
  8
1
  6
Continuous
100
AcDbLine
 10
51.99844180896341
 20
12.50451125208093
 30
0.0
 11
67.6894418089634
 21
12.50451125208093
 31
0.0
  0
LINE
  5
1DE9
330
2277
100
AcDbEntity
  8
1
  6
Continuous
100
AcDbLine
 10
60.49844180896338
 20
12.90651125208093
 30
0.0
 11
67.6894418089634
 21
12.90651125208093
 31
0.0
  0
LINE
  5
1DEA
330
2277
100
AcDbEntity
  8
1
  6
Continuous
100
AcDbLine
 10
3.2234418089634
 20
31.02951125208093
 30
0.0
 11
3.2234418089634
 21
-31.02048874791907
 31
0.0
  0
LINE
  5
1DEB
330
2277
100
AcDbEntity
  8
1
  6
Continuous
100
AcDbLine
 10
51.99844180896341
 20
15.50451125208093
 30
0.0
 11
66.82344180896342
 21
15.50451125208093
 31
0.0
  0
LINE
  5
1DEC
330
2277
100
AcDbEntity
  8
1
  6
Continuous
100
AcDbLine
 10
65.95744180896338
 20
17.00451125208093
 30
0.0
 11
51.49844180896341
 21
17.00451125208093
 31
0.0
  0
LINE
  5
1DED
330
2277
100
AcDbEntity
  8
1
  6
Continuous
100
AcDbLine
 10
38.08444180896339
 20
17.00451125208093
 30
0.0
 11
24.29844180896334
 21
17.00451125208093
 31
0.0
  0
LINE
  5
1DEE
330
2277
100
AcDbEntity
  8
1
  6
Continuous
100
AcDbLine
 10
3.2234418089634
 20
9.196511252080931
 30
0.0
 11
4.2234418089634
 21
8.196511252080931
 31
0.0
  0
LINE
  5
1DEF
330
2277
100
AcDbEntity
  8
1
  6
Continuous
100
AcDbLine
 10
7.562171410163415
 20
8.196511252080931
 30
0.0
 11
7.562171410163415
 21
31.77951125208093
 31
0.0
  0
LINE
  5
1DF0
330
2277
100
AcDbEntity
  8
1
  6
Continuous
100
AcDbLine
 10
7.572275039863399
 20
-8.18748874791907
 30
0.0
 11
7.572275039863399
 21
-31.77048874791907
 31
0.0
  0
LINE
  5
1DF1
330
2277
100
AcDbEntity
  8
1
  6
Continuous
100
AcDbLine
 10
9.180941808963382
 20
28.97571867558093
 30
0.0
 11
9.180941808963382
 21
8.196511252080931
 31
0.0
  0
LINE
  5
1DF2
330
2277
100
AcDbEntity
  8
1
  6
Continuous
100
AcDbLine
 10
9.180941808963382
 20
-8.18748874791907
 30
0.0
 11
9.180941808963382
 21
-28.96669617141906
 31
0.0
  0
LINE
  5
1DF3
330
2277
100
AcDbEntity
  8
SK4
  6
CENTER
100
AcDbLine
 10
11.0984418089634
 20
36.85451125208091
 30
0.0
 11
11.0984418089634
 21
28.54851125208094
 31
0.0
  0
LINE
  5
1DF4
330
2277
100
AcDbEntity
  8
SK4
  6
CENTER
100
AcDbLine
 10
11.0984418089634
 20
28.30451125208094
 30
0.0
 11
11.0984418089634
 21
-36.54548874791906
 31
0.0
  0
LINE
  5
1DF5
330
2277
100
AcDbEntity
  8
1
  6
Continuous
100
AcDbLine
 10
13.01594180896333
 20
28.97571867558093
 30
0.0
 11
13.01594180896333
 21
8.196511252080931
 31
0.0
  0
LINE
  5
1DF6
330
2277
100
AcDbEntity
  8
1
  6
Continuous
100
AcDbLine
 10
13.01594180896333
 20
-8.18748874791907
 30
0.0
 11
13.01594180896333
 21
-28.96669617141906
 31
0.0
  0
LINE
  5
1DF7
330
2277
100
AcDbEntity
  8
1
  6
Continuous
100
AcDbLine
 10
3.2234418089634
 20
-9.18748874791907
 30
0.0
 11
4.2234418089634
 21
-8.18748874791907
 31
0.0
  0
LINE
  5
1DF8
330
2277
100
AcDbEntity
  8
1
  6
Continuous
100
AcDbLine
 10
-68.2515581910366
 20
12.27638743188093
 30
0.0
 11
-0.5236329510366034
 21
22.15337535858093
 31
0.0
  0
LINE
  5
1DF9
330
2277
100
AcDbEntity
  8
1
  6
Continuous
100
AcDbLine
 10
2.2234418089634
 20
21.87951125208091
 30
0.0
 11
0.6300943065634215
 21
21.87951125208091
 31
0.0
  0
LINE
  5
1DFA
330
2277
100
AcDbEntity
  8
1
  6
Continuous
100
AcDbLine
 10
-0.5236329510366034
 20
22.15337535858093
 30
0.0
 11
-0.6236329510365977
 21
22.15337535858093
 31
0.0
  0
LINE
  5
1DFB
330
2277
100
AcDbEntity
  8
1
  6
Continuous
100
AcDbLine
 10
0.3712752614634098
 20
21.91358542578094
 30
0.0
 11
-0.5236329510366034
 21
22.15337535858093
 31
0.0
  0
LINE
  5
1DFC
330
2277
100
AcDbEntity
  8
1
  6
Continuous
100
AcDbLine
 10
14.62460857796341
 20
-8.18748874791907
 30
0.0
 11
14.62460857796341
 21
-31.77048874791907
 31
0.0
  0
LINE
  5
1DFD
330
2277
100
AcDbEntity
  8
1
  6
Continuous
100
AcDbLine
 10
14.63471220776341
 20
8.196511252080931
 30
0.0
 11
14.63471220776341
 21
31.77951125208093
 31
0.0
  0
LINE
  5
1DFE
330
2277
100
AcDbEntity
  8
1
  6
Continuous
100
AcDbLine
 10
19.0984418089634
 20
-31.02048874791907
 30
0.0
 11
19.0984418089634
 21
31.02951125208093
 31
0.0
  0
LINE
  5
1DFF
330
2277
100
AcDbEntity
  8
1
  6
Continuous
100
AcDbLine
 10
9.180941808963382
 20
28.30451125208094
 30
0.0
 11
13.01594180896333
 21
28.30451125208094
 31
0.0
  0
LINE
  5
1E00
330
2277
100
AcDbEntity
  8
1
  6
Continuous
100
AcDbLine
 10
18.3484418089634
 20
31.77951125208093
 30
0.0
 11
14.63471220776341
 21
31.77951125208093
 31
0.0
  0
LINE
  5
1E01
330
2277
100
AcDbEntity
  8
1
  6
Continuous
100
AcDbLine
 10
7.562171410163415
 20
31.77951125208093
 30
0.0
 11
3.9734418089634
 21
31.77951125208093
 31
0.0
  0
LINE
  5
1E02
330
2277
100
AcDbEntity
  8
1
  6
Continuous
100
AcDbLine
 10
9.180941808963382
 20
28.97571867558093
 30
0.0
 11
7.562171410163415
 21
31.77951125208093
 31
0.0
  0
LINE
  5
1E03
330
2277
100
AcDbEntity
  8
SK3
  6
DASHED
100
AcDbLine
 10
28.3544418089634
 20
-6.495488747919068
 30
0.0
 11
28.4984418089634
 21
-6.745488747919068
 31
0.0
  0
LINE
  5
1E04
330
2277
100
AcDbEntity
  8
SK3
  6
DASHED
100
AcDbLine
 10
28.3544418089634
 20
6.504511252080931
 30
0.0
 11
28.4984418089634
 21
6.754511252080931
 31
0.0
  0
LINE
  5
1E05
330
2277
100
AcDbEntity
  8
1
  6
Continuous
100
AcDbLine
 10
7.562171410163415
 20
-31.77048874791907
 30
0.0
 11
9.180941808963382
 21
-28.96669617141906
 31
0.0
  0
LINE
  5
1E06
330
2277
100
AcDbEntity
  8
SK3
  6
DASHED
100
AcDbLine
 10
28.3544418089634
 20
-6.495488747919068
 30
0.0
 11
28.3544418089634
 21
6.504511252080931
 31
0.0
  0
LINE
  5
1E07
330
2277
100
AcDbEntity
  8
SK3
  6
DASHED
100
AcDbLine
 10
28.4984418089634
 20
-6.745488747919068
 30
0.0
 11
28.4984418089634
 21
6.754511252080931
 31
0.0
  0
LINE
  5
1E08
330
2277
100
AcDbEntity
  8
SK3
  6
DASHED
100
AcDbLine
 10
35.37444180896339
 20
-6.745488747919068
 30
0.0
 11
35.37444180896339
 21
6.754511252080931
 31
0.0
  0
LINE
  5
1E09
330
2277
100
AcDbEntity
  8
1
  6
Continuous
100
AcDbLine
 10
42.70544180896339
 20
12.79751125208093
 30
0.0
 11
38.79144180896338
 21
16.71151125208093
 31
0.0
  0
LINE
  5
1E0A
330
2277
100
AcDbEntity
  8
1
  6
Continuous
100
AcDbLine
 10
38.49861872916341
 20
-15.69557720331907
 30
0.0
 11
38.49861872916341
 21
15.60442279668095
 31
0.0
  0
LINE
  5
1E0B
330
2277
100
AcDbEntity
  8
1
  6
Continuous
100
AcDbLine
 10
42.9982648887634
 20
-11.69540029251907
 30
0.0
 11
42.9982648887634
 21
11.60459970748094
 31
0.0
  0
LINE
  5
1E0C
330
2277
100
AcDbEntity
  8
1
  6
Continuous
100
AcDbLine
 10
38.79133502776341
 20
-16.70259552911906
 30
0.0
 11
42.70554859016343
 21
-12.78838196671908
 31
0.0
  0
LINE
  5
1E0E
330
2277
100
AcDbEntity
  8
1
  6
Continuous
100
AcDbLine
 10
44.49844180896341
 20
-12.49548874791907
 30
0.0
 11
44.49844180896341
 21
12.50451125208093
 31
0.0
  0
LINE
  5
1E0F
330
2277
100
AcDbEntity
  8
1
  6
Continuous
100
AcDbLine
 10
49.9984418089634
 20
15.50451125208093
 30
0.0
 11
49.9984418089634
 21
-15.49548874791907
 31
0.0
  0
LINE
  5
1E10
330
2277
100
AcDbEntity
  8
1
  6
Continuous
100
AcDbLine
 10
51.99844180896341
 20
15.50451125208093
 30
0.0
 11
51.99844180896341
 21
12.50451125208093
 31
0.0
  0
LINE
  5
1E11
330
2277
100
AcDbEntity
  8
1
  6
Continuous
100
AcDbLine
 10
51.99844180896341
 20
3.004511252080931
 30
0.0
 11
51.99844180896341
 21
-2.995488747919068
 31
0.0
  0
LINE
  5
1E12
330
2277
100
AcDbEntity
  8
1
  6
Continuous
100
AcDbLine
 10
51.99844180896341
 20
-15.49548874791907
 30
0.0
 11
51.99844180896341
 21
-12.49548874791907
 31
0.0
  0
LINE
  5
1E13
330
2277
100
AcDbEntity
  8
SK3
  6
DASHED
100
AcDbLine
 10
58.49844180896337
 20
17.00451125208093
 30
0.0
 11
58.49844180896337
 21
11.00551125208094
 31
0.0
  0
LINE
  5
1E14
330
2277
100
AcDbEntity
  8
SK3
  6
DASHED
100
AcDbLine
 10
58.49844180896337
 20
10.32165930968091
 30
0.0
 11
58.49844180896337
 21
-16.99548874791907
 31
0.0
  0
LINE
  5
1E15
330
2277
100
AcDbEntity
  8
SK3
  6
Continuous
100
AcDbLine
 10
58.49844180896337
 20
10.32165930968091
 30
0.0
 11
58.49844180896337
 21
11.00551125208094
 31
0.0
  0
LINE
  5
1E16
330
2277
100
AcDbEntity
  8
1
  6
Continuous
100
AcDbLine
 10
69.99844180896338
 20
10.00451125208093
 30
0.0
 11
65.95744180896338
 21
17.00451125208093
 31
0.0
  0
LINE
  5
1E17
330
2277
100
AcDbEntity
  8
1
  6
Continuous
100
AcDbLine
 10
65.95744180896338
 20
17.00451125208093
 30
0.0
 11
65.95744180896338
 21
15.50451125208093
 31
0.0
  0
LINE
  5
1E18
330
2277
100
AcDbEntity
  8
1
  6
Continuous
100
AcDbLine
 10
65.95744180896338
 20
12.50451125208093
 30
0.0
 11
65.95744180896338
 21
3.004511252080931
 31
0.0
  0
LINE
  5
1E19
330
2277
100
AcDbEntity
  8
1
  6
Continuous
100
AcDbLine
 10
65.95744180896338
 20
-2.995488747919068
 30
0.0
 11
65.95744180896338
 21
-12.49548874791907
 31
0.0
  0
LINE
  5
1E1A
330
2277
100
AcDbEntity
  8
1
  6
Continuous
100
AcDbLine
 10
65.95744180896338
 20
-15.49548874791907
 30
0.0
 11
65.95744180896338
 21
-16.99548874791907
 31
0.0
  0
LINE
  5
1E1B
330
2277
100
AcDbEntity
  8
1
  6
Continuous
100
AcDbLine
 10
67.6894418089634
 20
-12.49548874791907
 30
0.0
 11
67.6894418089634
 21
-13.99548874791907
 31
0.0
  0
LINE
  5
1E1C
330
2277
100
AcDbEntity
  8
1
  6
Continuous
100
AcDbLine
 10
67.6894418089634
 20
-2.995488747919068
 30
0.0
 11
67.6894418089634
 21
3.004511252080931
 31
0.0
  0
LINE
  5
1E1D
330
2277
100
AcDbEntity
  8
1
  6
Continuous
100
AcDbLine
 10
67.6894418089634
 20
12.50451125208093
 30
0.0
 11
67.6894418089634
 21
14.00451125208093
 31
0.0
  0
LINE
  5
1E1E
330
2277
100
AcDbEntity
  8
1
  6
Continuous
100
AcDbLine
 10
69.99844180896338
 20
-9.99548874791907
 30
0.0
 11
69.99844180896338
 21
10.00451125208093
 31
0.0
  0
LINE
  5
1E1F
330
2277
100
AcDbEntity
  8
1
  6
Continuous
100
AcDbLine
 10
65.95744180896338
 20
-16.99548874791907
 30
0.0
 11
69.99844180896338
 21
-9.99548874791907
 31
0.0
  0
ARC
  5
1E21
330
2277
100
AcDbEntity
  8
1
  6
Continuous
100
AcDbCircle
 10
60.55244180896341
 20
-28.27930140691907
 30
0.0
 40
15.3813569606
100
AcDbArc
 50
90.20123499790036
 51
123.7876149978996
  0
ARC
  5
1E22
330
2277
100
AcDbEntity
  8
1
  6
Continuous
100
AcDbCircle
 10
60.55244180896341
 20
28.28832391108093
 30
0.0
 40
15.3813568679
100
AcDbArc
 50
236.2123931319004
 51
269.7987731317998
  0
CIRCLE
  5
1E23
330
2277
100
AcDbEntity
  8
1
  6
Continuous
100
AcDbCircle
 10
11.0984418089634
 20
0.0045112520809312
 30
0.0
 40
5.25
  0
ARC
  5
1E24
330
2277
100
AcDbEntity
  8
1
  6
Continuous
100
AcDbCircle
 10
24.29844180896334
 20
22.20451125208093
 30
0.0
 40
5.2
100
AcDbArc
 50
180.0
 51
270.0
  0
ARC
  5
1E25
330
2277
100
AcDbEntity
  8
1
  6
Continuous
100
AcDbCircle
 10
24.29844180896334
 20
-22.19548874791907
 30
0.0
 40
5.2
100
AcDbArc
 50
90.0
 51
180.0
  0
CIRCLE
  5
1E26
330
2277
100
AcDbEntity
  8
1
  6
Continuous
100
AcDbCircle
 10
11.0984418089634
 20
0.0045112520809312
 30
0.0
 40
5.0
  0
CIRCLE
  5
1E27
330
2277
100
AcDbEntity
  8
1
  6
Continuous
100
AcDbCircle
 10
11.0984418089634
 20
0.0045112520809312
 30
0.0
 40
3.0
  0
ARC
  5
1E28
330
2277
100
AcDbEntity
  8
1
  6
Continuous
100
AcDbCircle
 10
-66.25155819103659
 20
10.54689859638092
 30
0.0
 40
2.0
100
AcDbArc
 50
98.29714399999957
 51
180.0
  0
ARC
  5
1E29
330
2277
100
AcDbEntity
  8
1
  6
Continuous
100
AcDbCircle
 10
-66.25155819103659
 20
-10.53787609221907
 30
0.0
 40
2.0
100
AcDbArc
 50
180.0
 51
261.7028559999988
  0
ARC
  5
1E2A
330
2277
100
AcDbEntity
  8
1
  6
Continuous
100
AcDbCircle
 10
51.49844180896341
 20
-15.49548874791907
 30
0.0
 40
1.5
100
AcDbArc
 50
179.9999849999999
 51
269.9999689999988
  0
ARC
  5
1E2B
330
2277
100
AcDbEntity
  8
1
  6
Continuous
100
AcDbCircle
 10
51.49844180896341
 20
15.50451125208093
 30
0.0
 40
1.5
100
AcDbArc
 50
90.0
 51
180.0
  0
ARC
  5
1E2C
330
2277
100
AcDbEntity
  8
1
  6
Continuous
100
AcDbCircle
 10
43.4126553779634
 20
13.50451122928093
 30
0.0
 40
1.0
100
AcDbArc
 50
224.9913464894996
 51
269.9877633946989
  0
ARC
  5
1E2D
330
2277
100
AcDbEntity
  8
1
  6
Continuous
100
AcDbCircle
 10
38.08422823986339
 20
16.00451127488092
 30
0.0
 40
1.0
100
AcDbArc
 50
44.99134648949961
 51
89.98776339479993
  0
ARC
  5
1E2E
330
2277
100
AcDbEntity
  8
1
  6
Continuous
100
AcDbCircle
 10
0.6300943065634215
 20
-22.87048874791906
 30
0.0
 40
1.0
100
AcDbArc
 50
90.0
 51
104.9999999999995
  0
ARC
  5
1E2F
330
2277
100
AcDbEntity
  8
1
  6
Continuous
100
AcDbCircle
 10
0.6300943065634215
 20
22.87951125208092
 30
0.0
 40
1.0
100
AcDbArc
 50
255.0000000000004
 51
270.0
  0
ARC
  5
1E30
330
2277
100
AcDbEntity
  8
1
  6
Continuous
100
AcDbCircle
 10
2.2234418089634
 20
-22.87048874791906
 30
0.0
 40
1.0
100
AcDbArc
 50
0.0
 51
90.0
  0
ARC
  5
1E31
330
2277
100
AcDbEntity
  8
1
  6
Continuous
100
AcDbCircle
 10
2.2234418089634
 20
22.87951125208092
 30
0.0
 40
1.0
100
AcDbArc
 50
270.0
 51
0.0
  0
ARC
  5
1E32
330
2277
100
AcDbEntity
  8
1
  6
Continuous
100
AcDbCircle
 10
38.08422824656341
 20
-15.99548874791907
 30
0.0
 40
1.0
100
AcDbArc
 50
270.0
 51
315.0000000000003
  0
ARC
  5
1E33
330
2277
100
AcDbEntity
  8
1
  6
Continuous
100
AcDbCircle
 10
43.41265537126338
 20
-13.49548874791907
 30
0.0
 40
1.0
100
AcDbArc
 50
90.0
 51
134.9999999998996
  0
ARC
  5
1E34
330
2277
100
AcDbEntity
  8
1
  6
Continuous
100
AcDbCircle
 10
18.3484418089634
 20
31.02951125208093
 30
0.0
 40
0.75
100
AcDbArc
 50
0.0
 51
90.0
  0
ARC
  5
1E35
330
2277
100
AcDbEntity
  8
1
  6
Continuous
100
AcDbCircle
 10
3.9734418089634
 20
31.02951125208093
 30
0.0
 40
0.75
100
AcDbArc
 50
90.0
 51
180.0
  0
ARC
  5
1E36
330
2277
100
AcDbEntity
  8
1
  6
Continuous
100
AcDbCircle
 10
18.3484418089634
 20
-31.02048874791907
 30
0.0
 40
0.75
100
AcDbArc
 50
270.0
 51
0.0
  0
ARC
  5
1E37
330
2277
100
AcDbEntity
  8
1
  6
Continuous
100
AcDbCircle
 10
3.9734418089634
 20
-31.02048874791907
 30
0.0
 40
0.75
100
AcDbArc
 50
180.0
 51
270.0
  0
ARC
  5
1E38
330
2277
100
AcDbEntity
  8
SK3
  6
DASHED
100
AcDbCircle
 10
-63.72008632853658
 20
7.90451125208094
 30
0.0
 40
0.6
100
AcDbArc
 50
45.00000000010037
 51
90.00000000009931
  0
ARC
  5
1E39
330
2277
100
AcDbEntity
  8
SK3
  6
DASHED
100
AcDbCircle
 10
-63.72008632853658
 20
-7.89548874791907
 30
0.0
 40
0.6
100
AcDbArc
 50
269.999999999899
 51
314.9999999998997
  0
ARC
  5
1E3A
330
2277
100
AcDbEntity
  8
SK3
  6
DASHED
100
AcDbCircle
 10
-67.85155819103659
 20
9.370536655880925
 30
0.0
 40
0.4
100
AcDbArc
 50
180.0
 51
239.9999999999999
  0
ARC
  5
1E3B
330
2277
100
AcDbEntity
  8
SK3
  6
DASHED
100
AcDbCircle
 10
-67.04437851413661
 20
8.904511252080929
 30
0.0
 40
0.4
100
AcDbArc
 50
239.9999999999999
 51
269.999999999899
  0
ARC
  5
1E3C
330
2277
100
AcDbEntity
  8
SK3
  6
DASHED
100
AcDbCircle
 10
-67.04437851413661
 20
-8.89548874791907
 30
0.0
 40
0.4
100
AcDbArc
 50
90.00000000009931
 51
120.0
  0
ARC
  5
1E3D
330
2277
100
AcDbEntity
  8
SK3
  6
DASHED
100
AcDbCircle
 10
-67.85155819103659
 20
-9.361514151719068
 30
0.0
 40
0.4
100
AcDbArc
 50
120.0
 51
180.0
  0
TEXT
  5
1ED8
330
2277
100
AcDbEntity
  8
SK6
100
AcDbText
 10
-44.37310256340509
 20
10.9942686064751
 30
0.0
 40
3.5
  1
ASME B5.50 CAT 40
 41
0.72
  7
TEXTSTYLE_2
100
AcDbText
  0
TEXT
  5
1EDE
330
2277
100
AcDbEntity
  8
SK6
100
AcDbText
 10
-59.47102831854408
 20
-37.10246957110988
 30
0.0
 40
3.5
  1
AA3B14-40 20 070
 41
0.72
  7
TEXTSTYLE_2
100
AcDbText
  0
LINE
  5
2001
330
2277
100
AcDbEntity
  8
SK4
100
AcDbLine
 10
-72.25155819103659
 20
0.0045112520809312
 30
0.0
 11
72.63479232486338
 21
0.0045112520809312
 31
0.0
  0
LINE
  5
2002
330
2277
100
AcDbEntity
  8
4
100
AcDbLine
 10
72.63479232486338
 20
0.0045112520809312
 30
0.0
 11
-72.25155819103659
 21
0.0045112520809312
 31
0.0
  0
POINT
  5
200B
330
2277
100
AcDbEntity
  8
81
  6
CENTER
100
AcDbPoint
 10
69.99844180896338
 20
0.0045112520809312
 30
0.0
1001
ACDBBLOCKREPETAG
1070
     1
1071
      156
1005
200B
  0
LINE
  5
200C
330
2277
100
AcDbEntity
  8
81
100
AcDbLine
 10
58.83844180896341
 20
0.0045112520809312
 30
0.0
 11
68.83844180896341
 21
0.0045112520809312
 31
0.0
1001
ACDBBLOCKREPETAG
1070
     1
1071
      157
1005
200C
  0
POINT
  5
200D
330
2277
100
AcDbEntity
  8
80
  6
CENTER
100
AcDbPoint
 10
-0.0015581910365938
 20
0.0045112520809312
 30
0.0
1001
ACDBBLOCKREPETAG
1070
     1
1071
      158
1005
200D
  0
LINE
  5
200E
330
2277
100
AcDbEntity
  8
80
100
AcDbLine
 10
-0.0015581910365938
 20
0.0045112520809312
 30
0.0
 11
-10.00154723359969
 21
0.0045112520809312
 31
0.0
1001
ACDBBLOCKREPETAG
1070
     1
1071
      159
1005
200E
  0
DIMENSION
  5
2374
330
2277
100
AcDbEntity
  8
2
 62
     7
100
AcDbDimension
  2
*D55
 10
-0.0015581910365964
 20
-41.61968197303386
 30
0.0
 11
29.41844180896341
 21
-39.77968197303387
 31
0.0
 70
    32
 71
     5
 42
58.84
  3
STANDARD
100
AcDbAlignedDimension
 13
58.83844180896341
 23
0.0045112520809312
 33
0.0
 14
-0.0015581910365938
 24
0.0045112520809312
 34
0.0
100
AcDbRotatedDimension
1001
ACAD
1000
DSTYLE
1002
{
1070
   147
1040
0.09
1070
    72
1070
     0
1070
    71
1070
     0
1002
}
  0
VIEWPORT
  5
19A4
102
{ACAD_XDICTIONARY
360
2524
102
}
330
2273
100
AcDbEntity
 67
     1
  8
0
100
AcDbViewport
 10
5.656249879852054
 20
3.940416471226006
 30
0.0
 40
20.37689369710756
 41
8.742606248029574
 68
     1
 69
     1
 12
5.656249879852054
 22
3.940416471226006
 13
0.0
 23
0.0
 14
10.0
 24
10.0
 15
10.0
 25
10.0
 16
0.0
 26
0.0
 36
1.0
 17
0.0
 27
0.0
 37
0.0
 42
50.0
 43
0.0
 44
0.0
 45
8.742606248029574
 50
0.0
 51
0.0
 72
   100
 90
   819232
  1

281
     0
 71
     0
 74
     0
110
0.0
120
0.0
130
0.0
111
1.0
121
0.0
131
0.0
112
0.0
122
1.0
132
0.0
 79
     0
146
0.0
  0
VIEWPORT
  5
19A9
102
{ACAD_XDICTIONARY
360
2526
102
}
330
2273
100
AcDbEntity
 67
     1
  8
0
100
AcDbViewport
 10
5.655416503665952
 20
3.942916900154171
 30
0.0
 40
9.048666405865523
 41
6.308667040246676
 68
     2
 69
     2
 12
-0.1538021399398133
 22
7.989341809812112
 13
0.0
 23
0.0
 14
10.0
 24
10.0
 15
10.0
 25
10.0
 16
0.0
 26
0.0
 36
1.0
 17
0.0
 27
0.0
 37
0.0
 42
50.0
 43
0.0
 44
0.0
 45
106.374553117978
 50
0.0
 51
0.0
 72
   100
 90
   819232
  1

281
     0
 71
     0
 74
     0
110
0.0
120
0.0
130
0.0
111
1.0
121
0.0
131
0.0
112
0.0
122
1.0
132
0.0
 79
     0
146
0.0
  0
ENDSEC
  0
SECTION
  2
OBJECTS
  0
DICTIONARY
  5
220D
330
0
100
AcDbDictionary
281
     1
  3
ACAD_COLOR
350
226E
  3
ACAD_GROUP
350
220E
  3
ACAD_LAYOUT
350
226D
  3
ACAD_MATERIAL
350
2211
  3
ACAD_MLEADERSTYLE
350
2271
  3
ACAD_MLINESTYLE
350
226A
  3
ACAD_PLOTSETTINGS
350
226C
  3
ACAD_PLOTSTYLENAME
350
220F
  3
ACAD_SCALELIST
350
223E
  3
ACAD_TABLESTYLE
350
226F
  3
ACAD_VISUALSTYLE
350
222A
  3
ACDB_RECOMPOSE_DATA
350
2522
  3
AcDbVariableDictionary
350
23BB
  3
DWGPROPS
350
2523
  0
DICTIONARY
  5
23A5
330
2260
100
AcDbDictionary
280
     1
281
     1
  3
ADSK_XREC_LAYER_RECONCILED
360
23A6
  0
DICTIONARY
  5
23A7
330
227F
100
AcDbDictionary
280
     1
281
     1
  3
ADSK_XREC_LAYER_RECONCILED
360
23A8
  0
DICTIONARY
  5
23A9
330
2281
100
AcDbDictionary
280
     1
281
     1
  3
ADSK_XREC_LAYER_RECONCILED
360
23AA
  0
DICTIONARY
  5
23AB
330
2282
100
AcDbDictionary
280
     1
281
     1
  3
ADSK_XREC_LAYER_RECONCILED
360
23AC
  0
DICTIONARY
  5
23AD
330
2283
100
AcDbDictionary
280
     1
281
     1
  3
ADSK_XREC_LAYER_RECONCILED
360
23AE
  0
DICTIONARY
  5
23AF
330
2284
100
AcDbDictionary
280
     1
281
     1
  3
ADSK_XREC_LAYER_RECONCILED
360
23B0
  0
DICTIONARY
  5
23B1
330
2285
100
AcDbDictionary
280
     1
281
     1
  3
ADSK_XREC_LAYER_RECONCILED
360
23B2
  0
DICTIONARY
  5
23B3
330
2286
100
AcDbDictionary
280
     1
281
     1
  3
ADSK_XREC_LAYER_RECONCILED
360
23B4
  0
DICTIONARY
  5
23B5
330
2287
100
AcDbDictionary
280
     1
281
     1
  3
ADSK_XREC_LAYER_RECONCILED
360
23B6
  0
DICTIONARY
  5
23B7
330
2288
100
AcDbDictionary
280
     1
281
     1
  3
ADSK_XREC_LAYER_RECONCILED
360
23B8
  0
DICTIONARY
  5
23B9
330
2289
100
AcDbDictionary
280
     1
281
     1
  3
ADSK_XREC_LAYER_RECONCILED
360
23BA
  0
DICTIONARY
  5
2524
330
19A4
100
AcDbDictionary
280
     1
281
     1
  3
ACAD_XREC_ROUNDTRIP
360
2525
  0
DICTIONARY
  5
2526
330
19A9
100
AcDbDictionary
280
     1
281
     1
  3
ACAD_XREC_ROUNDTRIP
360
2527
  0
DICTIONARY
  5
226E
102
{ACAD_REACTORS
330
220D
102
}
330
220D
100
AcDbDictionary
281
     1
  0
DICTIONARY
  5
220E
102
{ACAD_REACTORS
330
220D
102
}
330
220D
100
AcDbDictionary
281
     1
  0
DICTIONARY
  5
226D
102
{ACAD_REACTORS
330
220D
102
}
330
220D
100
AcDbDictionary
281
     1
  3
Layout1
350
2276
  3
Model
350
227A
  0
DICTIONARY
  5
2211
102
{ACAD_REACTORS
330
220D
102
}
330
220D
100
AcDbDictionary
281
     1
  3
ByBlock
350
221A
  3
ByLayer
350
2212
  3
Global
350
2222
  0
DICTIONARY
  5
2271
102
{ACAD_REACTORS
330
220D
102
}
330
220D
100
AcDbDictionary
281
     1
  3
Standard
350
2272
  0
DICTIONARY
  5
226A
102
{ACAD_REACTORS
330
220D
102
}
330
220D
100
AcDbDictionary
281
     1
  3
Standard
350
226B
  0
DICTIONARY
  5
226C
102
{ACAD_REACTORS
330
220D
102
}
330
220D
100
AcDbDictionary
281
     1
  0
ACDBDICTIONARYWDFLT
  5
220F
102
{ACAD_REACTORS
330
220D
102
}
330
220D
100
AcDbDictionary
281
     1
  3
Normal
350
2210
100
AcDbDictionaryWithDefault
340
2210
  0
DICTIONARY
  5
223E
102
{ACAD_REACTORS
330
220D
102
}
330
220D
100
AcDbDictionary
281
     1
  3
A0
350
223F
  3
A1
350
2240
  3
A2
350
2241
  3
A3
350
2242
  3
A4
350
2243
  3
A5
350
2244
  3
A6
350
2245
  3
A7
350
2246
  3
A8
350
2247
  3
A9
350
2248
  3
B0
350
2249
  3
B1
350
224A
  3
B2
350
224B
  3
B3
350
224C
  3
B4
350
224D
  3
B5
350
224E
  3
B6
350
224F
  3
B7
350
2250
  3
B8
350
2251
  3
B9
350
2252
  3
C0
350
2253
  3
C1
350
2254
  3
C2
350
2255
  3
C3
350
2256
  3
C4
350
2257
  3
C5
350
2258
  3
C6
350
2259
  3
C7
350
225A
  3
C8
350
225B
  3
C9
350
225C
  3
D0
350
225D
  3
D1
350
225E
  3
D2
350
225F
  0
DICTIONARY
  5
226F
102
{ACAD_REACTORS
330
220D
102
}
330
220D
100
AcDbDictionary
281
     1
  3
Standard
350
2270
  0
DICTIONARY
  5
222A
102
{ACAD_REACTORS
330
220D
102
}
330
220D
100
AcDbDictionary
281
     1
  3
2dWireframe
350
2230
  3
3D Hidden
350
2232
  3
3dWireframe
350
2231
  3
Basic
350
222F
  3
Brighten
350
2236
  3
ColorChange
350
223A
  3
Conceptual
350
2233
  3
Dim
350
2235
  3
EdgeColorOff
350
223D
  3
Facepattern
350
2239
  3
Flat
350
222B
  3
FlatWithEdges
350
222C
  3
Gouraud
350
222D
  3
GouraudWithEdges
350
222E
  3
JitterOff
350
223B
  3
Linepattern
350
2238
  3
OverhangOff
350
223C
  3
Realistic
350
2234
  3
Thicken
350
2237
  0
XRECORD
  5
2522
102
{ACAD_REACTORS
330
220D
102
}
330
220D
100
AcDbXrecord
280
     1
 90
        1
330
2270
  0
DICTIONARY
  5
23BB
102
{ACAD_REACTORS
330
220D
102
}
330
220D
100
AcDbDictionary
281
     1
  3
CANNOSCALE
350
23BE
  3
CMLEADERSTYLE
350
23BD
  3
CTABLESTYLE
350
23BC
  3
DIMASSOC
350
23C1
  3
INDEXCTL
350
23C0
  3
SORTENTS
350
23BF
  3
XCLIPFRAME
350
2520
  0
XRECORD
  5
2523
102
{ACAD_REACTORS
330
220D
102
}
330
220D
100
AcDbXrecord
280
     1
  1
DWGPROPS COOKIE
  2

  3

  4

  6

  7

  8
Konstruktion
  9

300
=
301
=
302
=
303
=
304
=
305
=
306
=
307
=
308
=
309
=
 40
0.168856875
 41
2455672.497120949
 42
2457718.715807292
  1

 90
        0
  0
XRECORD
  5
23A6
102
{ACAD_REACTORS
330
23A5
102
}
330
23A5
100
AcDbXrecord
280
     1
290
     1
  0
XRECORD
  5
23A8
102
{ACAD_REACTORS
330
23A7
102
}
330
23A7
100
AcDbXrecord
280
     1
290
     1
  0
XRECORD
  5
23AA
102
{ACAD_REACTORS
330
23A9
102
}
330
23A9
100
AcDbXrecord
280
     1
290
     1
  0
XRECORD
  5
23AC
102
{ACAD_REACTORS
330
23AB
102
}
330
23AB
100
AcDbXrecord
280
     1
290
     1
  0
XRECORD
  5
23AE
102
{ACAD_REACTORS
330
23AD
102
}
330
23AD
100
AcDbXrecord
280
     1
290
     1
  0
XRECORD
  5
23B0
102
{ACAD_REACTORS
330
23AF
102
}
330
23AF
100
AcDbXrecord
280
     1
290
     1
  0
XRECORD
  5
23B2
102
{ACAD_REACTORS
330
23B1
102
}
330
23B1
100
AcDbXrecord
280
     1
290
     1
  0
XRECORD
  5
23B4
102
{ACAD_REACTORS
330
23B3
102
}
330
23B3
100
AcDbXrecord
280
     1
290
     1
  0
XRECORD
  5
23B6
102
{ACAD_REACTORS
330
23B5
102
}
330
23B5
100
AcDbXrecord
280
     1
290
     1
  0
XRECORD
  5
23B8
102
{ACAD_REACTORS
330
23B7
102
}
330
23B7
100
AcDbXrecord
280
     1
290
     1
  0
XRECORD
  5
23BA
102
{ACAD_REACTORS
330
23B9
102
}
330
23B9
100
AcDbXrecord
280
     1
290
     1
  0
XRECORD
  5
2525
102
{ACAD_REACTORS
330
2524
102
}
330
2524
100
AcDbXrecord
280
     1
102
SHADEPLOT
 70
     0
  0
XRECORD
  5
2527
102
{ACAD_REACTORS
330
2526
102
}
330
2526
100
AcDbXrecord
280
     1
102
SHADEPLOT
 70
     0
  0
LAYOUT
  5
2276
102
{ACAD_XDICTIONARY
360
254F
102
}
102
{ACAD_REACTORS
330
226D
102
}
330
226D
100
AcDbPlotSettings
  1

  2
HP Color LaserJet 5550 PCL 6
  4

  6

 40
0.0
 41
0.0
 42
0.0
 43
0.0
 44
0.0
 45
0.0
 46
0.0
 47
0.0
 48
0.0
 49
0.0
140
0.0
141
0.0
142
1.0
143
1.0
 70
   688
 72
     0
 73
     0
 74
     5
  7

 75
    16
147
1.0
148
0.0
149
0.0
100
AcDbLayout
  1
Layout1
 70
     1
 71
     1
 10
-0.1912502979669045
 20
-0.1912499975970411
 11
11.503750057671
 21
8.072082940049059
 12
0.0
 22
0.0
 32
0.0
 14
1.131083300733189
 24
0.7885833800308344
 34
0.0
 15
10.17974970659872
 25
7.097250420277513
 35
0.0
146
0.0
 13
0.0
 23
0.0
 33
0.0
 16
1.0
 26
0.0
 36
0.0
 17
0.0
 27
1.0
 37
0.0
 76
     0
330
2273
331
19A4
  0
LAYOUT
  5
227A
102
{ACAD_XDICTIONARY
360
2551
102
}
102
{ACAD_REACTORS
330
226D
102
}
330
226D
100
AcDbPlotSettings
  1

  2
HP Color LaserJet 5550 PCL 6
  4

  6

 40
0.0
 41
0.0
 42
0.0
 43
0.0
 44
0.0
 45
0.0
 46
0.0
 47
0.0
 48
0.0
 49
0.0
140
0.0
141
0.0
142
1.0
143
1.0
 70
  1712
 72
     0
 73
     0
 74
     0
  7

 75
     0
147
1.0
148
0.0
149
0.0
100
AcDbLayout
  1
Model
 70
     1
 71
     0
 10
0.0
 20
0.0
 11
12.0
 21
9.0
 12
0.0
 22
0.0
 32
0.0
 14
0.0
 24
0.0
 34
0.0
 15
0.0
 25
0.0
 35
0.0
146
0.0
 13
0.0
 23
0.0
 33
0.0
 16
1.0
 26
0.0
 36
0.0
 17
0.0
 27
1.0
 37
0.0
 76
     0
330
2277
331
227B
  0
MATERIAL
  5
221A
102
{ACAD_XDICTIONARY
360
221B
102
}
102
{ACAD_REACTORS
330
2211
102
}
330
2211
100
AcDbMaterial
  1
ByBlock
 72
     0
 43
0.0208333333333333
 43
0.0
 43
0.0
 43
0.0
 43
0.0
 43
0.0208333333333333
 43
0.0
 43
0.0
 43
0.0
 43
0.0
 43
1.0
 43
0.0
 43
0.0
 43
0.0
 43
0.0
 43
1.0
 77
     0
 47
0.0208333333333333
 47
0.0
 47
0.0
 47
0.0
 47
0.0
 47
0.0208333333333333
 47
0.0
 47
0.0
 47
0.0
 47
0.0
 47
1.0
 47
0.0
 47
0.0
 47
0.0
 47
0.0
 47
1.0
171
     0
 49
0.0208333333333333
 49
0.0
 49
0.0
 49
0.0
 49
0.0
 49
0.0208333333333333
 49
0.0
 49
0.0
 49
0.0
 49
0.0
 49
1.0
 49
0.0
 49
0.0
 49
0.0
 49
0.0
 49
1.0
175
     0
142
0.0208333333333333
142
0.0
142
0.0
142
0.0
142
0.0
142
0.0208333333333333
142
0.0
142
0.0
142
0.0
142
0.0
142
1.0
142
0.0
142
0.0
142
0.0
142
0.0
142
1.0
179
     0
144
0.0208333333333333
144
0.0
144
0.0
144
0.0
144
0.0
144
0.0208333333333333
144
0.0
144
0.0
144
0.0
144
0.0
144
1.0
144
0.0
144
0.0
144
0.0
144
0.0
144
1.0
147
0.0208333333333333
147
0.0
147
0.0
147
0.0
147
0.0
147
0.0208333333333333
147
0.0
147
0.0
147
0.0
147
0.0
147
1.0
147
0.0
147
0.0
147
0.0
147
0.0
147
1.0
  0
MATERIAL
  5
2212
102
{ACAD_XDICTIONARY
360
2213
102
}
102
{ACAD_REACTORS
330
2211
102
}
330
2211
100
AcDbMaterial
  1
ByLayer
 72
     0
 43
0.0208333333333333
 43
0.0
 43
0.0
 43
0.0
 43
0.0
 43
0.0208333333333333
 43
0.0
 43
0.0
 43
0.0
 43
0.0
 43
1.0
 43
0.0
 43
0.0
 43
0.0
 43
0.0
 43
1.0
 77
     0
 47
0.0208333333333333
 47
0.0
 47
0.0
 47
0.0
 47
0.0
 47
0.0208333333333333
 47
0.0
 47
0.0
 47
0.0
 47
0.0
 47
1.0
 47
0.0
 47
0.0
 47
0.0
 47
0.0
 47
1.0
171
     0
 49
0.0208333333333333
 49
0.0
 49
0.0
 49
0.0
 49
0.0
 49
0.0208333333333333
 49
0.0
 49
0.0
 49
0.0
 49
0.0
 49
1.0
 49
0.0
 49
0.0
 49
0.0
 49
0.0
 49
1.0
175
     0
142
0.0208333333333333
142
0.0
142
0.0
142
0.0
142
0.0
142
0.0208333333333333
142
0.0
142
0.0
142
0.0
142
0.0
142
1.0
142
0.0
142
0.0
142
0.0
142
0.0
142
1.0
179
     0
144
0.0208333333333333
144
0.0
144
0.0
144
0.0
144
0.0
144
0.0208333333333333
144
0.0
144
0.0
144
0.0
144
0.0
144
1.0
144
0.0
144
0.0
144
0.0
144
0.0
144
1.0
147
0.0208333333333333
147
0.0
147
0.0
147
0.0
147
0.0
147
0.0208333333333333
147
0.0
147
0.0
147
0.0
147
0.0
147
1.0
147
0.0
147
0.0
147
0.0
147
0.0
147
1.0
  0
MATERIAL
  5
2222
102
{ACAD_XDICTIONARY
360
2223
102
}
102
{ACAD_REACTORS
330
2211
102
}
330
2211
100
AcDbMaterial
  1
Global
 72
     0
 43
0.0208333333333333
 43
0.0
 43
0.0
 43
0.0
 43
0.0
 43
0.0208333333333333
 43
0.0
 43
0.0
 43
0.0
 43
0.0
 43
1.0
 43
0.0
 43
0.0
 43
0.0
 43
0.0
 43
1.0
 77
     0
 47
0.0208333333333333
 47
0.0
 47
0.0
 47
0.0
 47
0.0
 47
0.0208333333333333
 47
0.0
 47
0.0
 47
0.0
 47
0.0
 47
1.0
 47
0.0
 47
0.0
 47
0.0
 47
0.0
 47
1.0
171
     0
 49
0.0208333333333333
 49
0.0
 49
0.0
 49
0.0
 49
0.0
 49
0.0208333333333333
 49
0.0
 49
0.0
 49
0.0
 49
0.0
 49
1.0
 49
0.0
 49
0.0
 49
0.0
 49
0.0
 49
1.0
175
     0
142
0.0208333333333333
142
0.0
142
0.0
142
0.0
142
0.0
142
0.0208333333333333
142
0.0
142
0.0
142
0.0
142
0.0
142
1.0
142
0.0
142
0.0
142
0.0
142
0.0
142
1.0
179
     0
144
0.0208333333333333
144
0.0
144
0.0
144
0.0
144
0.0
144
0.0208333333333333
144
0.0
144
0.0
144
0.0
144
0.0
144
1.0
144
0.0
144
0.0
144
0.0
144
0.0
144
1.0
147
0.0208333333333333
147
0.0
147
0.0
147
0.0
147
0.0
147
0.0208333333333333
147
0.0
147
0.0
147
0.0
147
0.0
147
1.0
147
0.0
147
0.0
147
0.0
147
0.0
147
1.0
  0
MLEADERSTYLE
  5
2272
102
{ACAD_REACTORS
330
2271
102
}
330
2271
100
AcDbMLeaderStyle
170
     2
171
     1
172
     0
 90
        2
 40
0.0
 41
0.0
173
     1
 91
-1056964608
340
2266
 92
       -2
290
     1
 42
0.09
291
     1
 43
0.36
  3
Standard
 44
0.18
300

342
2261
174
     1
178
     6
175
     1
176
     0
 93
-1056964608
 45
0.18
292
     0
297
     0
 46
0.18
 94
-1056964608
 47
1.0
 49
1.0
140
1.0
293
     1
141
0.0
294
     1
177
     0
142
1.0
295
     0
296
     0
143
0.125
1001
ACAD_MLEADERVER
1070
     2
  0
MLINESTYLE
  5
226B
102
{ACAD_REACTORS
330
226A
102
}
330
226A
100
AcDbMlineStyle
  2
STANDARD
 70
     0
  3

 62
   256
 51
90.0
 52
90.0
 71
     2
 49
0.5
 62
   256
  6
BYLAYER
 49
-0.5
 62
   256
  6
BYLAYER
  0
ACDBPLACEHOLDER
  5
2210
102
{ACAD_REACTORS
330
220F
102
}
330
220F
  0
SCALE
  5
223F
102
{ACAD_REACTORS
330
223E
102
}
330
223E
100
AcDbScale
 70
     0
300
1:1
140
1.0
141
1.0
290
     1
  0
SCALE
  5
2240
102
{ACAD_REACTORS
330
223E
102
}
330
223E
100
AcDbScale
 70
     0
300
1:2
140
1.0
141
2.0
290
     0
  0
SCALE
  5
2241
102
{ACAD_REACTORS
330
223E
102
}
330
223E
100
AcDbScale
 70
     0
300
1:4
140
1.0
141
4.0
290
     0
  0
SCALE
  5
2242
102
{ACAD_REACTORS
330
223E
102
}
330
223E
100
AcDbScale
 70
     0
300
1:5
140
1.0
141
5.0
290
     0
  0
SCALE
  5
2243
102
{ACAD_REACTORS
330
223E
102
}
330
223E
100
AcDbScale
 70
     0
300
1:8
140
1.0
141
8.0
290
     0
  0
SCALE
  5
2244
102
{ACAD_REACTORS
330
223E
102
}
330
223E
100
AcDbScale
 70
     0
300
1:10
140
1.0
141
10.0
290
     0
  0
SCALE
  5
2245
102
{ACAD_REACTORS
330
223E
102
}
330
223E
100
AcDbScale
 70
     0
300
1:16
140
1.0
141
16.0
290
     0
  0
SCALE
  5
2246
102
{ACAD_REACTORS
330
223E
102
}
330
223E
100
AcDbScale
 70
     0
300
1:20
140
1.0
141
20.0
290
     0
  0
SCALE
  5
2247
102
{ACAD_REACTORS
330
223E
102
}
330
223E
100
AcDbScale
 70
     0
300
1:30
140
1.0
141
30.0
290
     0
  0
SCALE
  5
2248
102
{ACAD_REACTORS
330
223E
102
}
330
223E
100
AcDbScale
 70
     0
300
1:40
140
1.0
141
40.0
290
     0
  0
SCALE
  5
2249
102
{ACAD_REACTORS
330
223E
102
}
330
223E
100
AcDbScale
 70
     0
300
1:50
140
1.0
141
50.0
290
     0
  0
SCALE
  5
224A
102
{ACAD_REACTORS
330
223E
102
}
330
223E
100
AcDbScale
 70
     0
300
1:100
140
1.0
141
100.0
290
     0
  0
SCALE
  5
224B
102
{ACAD_REACTORS
330
223E
102
}
330
223E
100
AcDbScale
 70
     0
300
2:1
140
2.0
141
1.0
290
     0
  0
SCALE
  5
224C
102
{ACAD_REACTORS
330
223E
102
}
330
223E
100
AcDbScale
 70
     0
300
4:1
140
4.0
141
1.0
290
     0
  0
SCALE
  5
224D
102
{ACAD_REACTORS
330
223E
102
}
330
223E
100
AcDbScale
 70
     0
300
8:1
140
8.0
141
1.0
290
     0
  0
SCALE
  5
224E
102
{ACAD_REACTORS
330
223E
102
}
330
223E
100
AcDbScale
 70
     0
300
10:1
140
10.0
141
1.0
290
     0
  0
SCALE
  5
224F
102
{ACAD_REACTORS
330
223E
102
}
330
223E
100
AcDbScale
 70
     0
300
100:1
140
100.0
141
1.0
290
     0
  0
SCALE
  5
2250
102
{ACAD_REACTORS
330
223E
102
}
330
223E
100
AcDbScale
 70
     0
300
1/128" = 1'-0"
140
0.0078125
141
12.0
290
     0
  0
SCALE
  5
2251
102
{ACAD_REACTORS
330
223E
102
}
330
223E
100
AcDbScale
 70
     0
300
1/64" = 1'-0"
140
0.015625
141
12.0
290
     0
  0
SCALE
  5
2252
102
{ACAD_REACTORS
330
223E
102
}
330
223E
100
AcDbScale
 70
     0
300
1/32" = 1'-0"
140
0.03125
141
12.0
290
     0
  0
SCALE
  5
2253
102
{ACAD_REACTORS
330
223E
102
}
330
223E
100
AcDbScale
 70
     0
300
1/16" = 1'-0"
140
0.0625
141
12.0
290
     0
  0
SCALE
  5
2254
102
{ACAD_REACTORS
330
223E
102
}
330
223E
100
AcDbScale
 70
     0
300
3/32" = 1'-0"
140
0.09375
141
12.0
290
     0
  0
SCALE
  5
2255
102
{ACAD_REACTORS
330
223E
102
}
330
223E
100
AcDbScale
 70
     0
300
1/8" = 1'-0"
140
0.125
141
12.0
290
     0
  0
SCALE
  5
2256
102
{ACAD_REACTORS
330
223E
102
}
330
223E
100
AcDbScale
 70
     0
300
3/16" = 1'-0"
140
0.1875
141
12.0
290
     0
  0
SCALE
  5
2257
102
{ACAD_REACTORS
330
223E
102
}
330
223E
100
AcDbScale
 70
     0
300
1/4" = 1'-0"
140
0.25
141
12.0
290
     0
  0
SCALE
  5
2258
102
{ACAD_REACTORS
330
223E
102
}
330
223E
100
AcDbScale
 70
     0
300
3/8" = 1'-0"
140
0.375
141
12.0
290
     0
  0
SCALE
  5
2259
102
{ACAD_REACTORS
330
223E
102
}
330
223E
100
AcDbScale
 70
     0
300
1/2" = 1'-0"
140
0.5
141
12.0
290
     0
  0
SCALE
  5
225A
102
{ACAD_REACTORS
330
223E
102
}
330
223E
100
AcDbScale
 70
     0
300
3/4" = 1'-0"
140
0.75
141
12.0
290
     0
  0
SCALE
  5
225B
102
{ACAD_REACTORS
330
223E
102
}
330
223E
100
AcDbScale
 70
     0
300
1" = 1'-0"
140
1.0
141
12.0
290
     0
  0
SCALE
  5
225C
102
{ACAD_REACTORS
330
223E
102
}
330
223E
100
AcDbScale
 70
     0
300
1-1/2" = 1'-0"
140
1.5
141
12.0
290
     0
  0
SCALE
  5
225D
102
{ACAD_REACTORS
330
223E
102
}
330
223E
100
AcDbScale
 70
     0
300
3" = 1'-0"
140
3.0
141
12.0
290
     0
  0
SCALE
  5
225E
102
{ACAD_REACTORS
330
223E
102
}
330
223E
100
AcDbScale
 70
     0
300
6" = 1'-0"
140
6.0
141
12.0
290
     0
  0
SCALE
  5
225F
102
{ACAD_REACTORS
330
223E
102
}
330
223E
100
AcDbScale
 70
     0
300
1'-0" = 1'-0"
140
12.0
141
12.0
290
     0
  0
TABLESTYLE
  5
2270
102
{ACAD_XDICTIONARY
360
23C3
102
}
102
{ACAD_REACTORS
330
226F
102
}
330
226F
100
AcDbTableStyle
  3
Standard
 70
     0
 71
     0
 40
0.06
 41
0.06
280
     0
281
     0
  7
STANDARD
140
0.18
170
     2
 62
     0
 63
     7
283
     0
274
    -2
284
     1
 64
     0
275
    -2
285
     1
 65
     0
276
    -2
286
     1
 66
     0
277
    -2
287
     1
 67
     0
278
    -2
288
     1
 68
     0
279
    -2
289
     1
 69
     0
  7
STANDARD
140
0.25
170
     5
 62
     0
 63
     7
283
     0
274
    -2
284
     1
 64
     0
275
    -2
285
     1
 65
     0
276
    -2
286
     1
 66
     0
277
    -2
287
     1
 67
     0
278
    -2
288
     1
 68
     0
279
    -2
289
     1
 69
     0
  7
STANDARD
140
0.18
170
     5
 62
     0
 63
     7
283
     0
274
    -2
284
     1
 64
     0
275
    -2
285
     1
 65
     0
276
    -2
286
     1
 66
     0
277
    -2
287
     1
 67
     0
278
    -2
288
     1
 68
     0
279
    -2
289
     1
 69
     0
  0
VISUALSTYLE
  5
2230
102
{ACAD_XDICTIONARY
360
2532
102
}
102
{ACAD_REACTORS
330
222A
102
}
330
222A
100
AcDbVisualStyle
  2

 70
     4
 71
     0
 72
     2
 73
     0
 90
        0
 40
-0.6
 41
-30.0
 62
     5
 63
     7
 74
     1
 91
        4
 64
     7
 65
   257
 75
     1
175
     1
 42
1.0
 92
        0
 66
   257
 43
1.0
 76
     1
 77
     6
 78
     2
 67
     7
 79
     5
170
     0
171
     0
290
     0
174
     0
 93
        1
 44
0.0
173
     0
291
     0
 45
0.0
1001
ACAD
1000
AcDbSavedByObjectVersion
1070
     0
  0
VISUALSTYLE
  5
2232
102
{ACAD_XDICTIONARY
360
2536
102
}
102
{ACAD_REACTORS
330
222A
102
}
330
222A
100
AcDbVisualStyle
  2

 70
     6
 71
     1
 72
     2
 73
     2
 90
        0
 40
-0.6
 41
-30.0
 62
     5
 63
     7
 74
     2
 91
        2
 64
     7
 65
   257
 75
     2
175
     1
 42
179.0
 92
        0
 66
   257
 43
1.0
 76
     1
 77
     6
 78
     2
 67
     7
 79
     3
170
     0
171
     0
290
     0
174
     0
 93
        1
 44
0.0
173
     0
291
     0
 45
0.0
1001
ACAD
1000
AcDbSavedByObjectVersion
1070
     0
  0
VISUALSTYLE
  5
2231
102
{ACAD_XDICTIONARY
360
2534
102
}
102
{ACAD_REACTORS
330
222A
102
}
330
222A
100
AcDbVisualStyle
  2

 70
     5
 71
     0
 72
     2
 73
     0
 90
        0
 40
-0.6
 41
-30.0
 62
     5
 63
     7
 74
     1
 91
        4
 64
     7
 65
   257
 75
     1
175
     1
 42
1.0
 92
        0
 66
   257
 43
1.0
 76
     1
 77
     6
 78
     2
 67
     7
 79
     5
170
     0
171
     0
290
     0
174
     0
 93
        1
 44
0.0
173
     0
291
     0
 45
0.0
1001
ACAD
1000
AcDbSavedByObjectVersion
1070
     0
  0
VISUALSTYLE
  5
222F
102
{ACAD_XDICTIONARY
360
2530
102
}
102
{ACAD_REACTORS
330
222A
102
}
330
222A
100
AcDbVisualStyle
  2

 70
     7
 71
     1
 72
     0
 73
     1
 90
        0
 40
-0.6
 41
-30.0
 62
     5
 63
     7
 74
     0
 91
        4
 64
     7
 65
   257
 75
     1
175
     1
 42
1.0
 92
        8
 66
     7
 43
1.0
 76
     1
 77
     6
 78
     2
 67
     7
 79
     5
170
     0
171
     0
290
     0
174
     0
 93
        1
 44
0.0
173
     0
291
     1
 45
0.0
1001
ACAD
1000
AcDbSavedByObjectVersion
1070
     0
  0
VISUALSTYLE
  5
2236
102
{ACAD_XDICTIONARY
360
253E
102
}
102
{ACAD_REACTORS
330
222A
102
}
330
222A
100
AcDbVisualStyle
  2

 70
    12
 71
     2
 72
     2
 73
     0
 90
        0
 40
-0.6
 41
-30.0
 62
     5
 63
     7
 74
     1
 91
        4
 64
     7
 65
   257
 75
     1
175
     1
 42
1.0
 92
        8
 66
     7
 43
1.0
 76
     1
 77
     6
 78
     2
 67
     7
 79
     5
170
     0
171
     0
290
     0
174
     0
 93
        1
 44
50.0
173
     0
291
     1
 45
0.0
1001
ACAD
1000
AcDbSavedByObjectVersion
1070
     0
  0
VISUALSTYLE
  5
223A
102
{ACAD_XDICTIONARY
360
2546
102
}
102
{ACAD_REACTORS
330
222A
102
}
330
222A
100
AcDbVisualStyle
  2

 70
    16
 71
     2
 72
     2
 73
     3
 90
        0
 40
-0.6
 41
-30.0
 62
     5
 63
     8
 74
     1
 91
        4
 64
     7
 65
   257
 75
     1
175
     1
 42
1.0
 92
        8
 66
     8
 43
1.0
 76
     1
 77
     6
 78
     2
 67
     7
 79
     5
170
     0
171
     0
290
     0
174
     0
 93
        1
 44
0.0
173
     0
291
     1
 45
0.0
1001
ACAD
1000
AcDbSavedByObjectVersion
1070
     0
  0
VISUALSTYLE
  5
2233
102
{ACAD_XDICTIONARY
360
2538
102
}
102
{ACAD_REACTORS
330
222A
102
}
330
222A
100
AcDbVisualStyle
  2

 70
     9
 71
     3
 72
     2
 73
     0
 90
        0
 40
-0.6
 41
-30.0
 62
     5
 63
     7
 74
     2
 91
        2
 64
     7
 65
   257
 75
     1
175
     1
 42
179.0
 92
        8
 66
     7
 43
1.0
 76
     1
 77
     6
 78
     2
 67
     7
 79
     3
170
     0
171
     0
290
     0
174
     0
 93
        1
 44
0.0
173
     0
291
     0
 45
0.0
1001
ACAD
1000
AcDbSavedByObjectVersion
1070
     0
  0
VISUALSTYLE
  5
2235
102
{ACAD_XDICTIONARY
360
253C
102
}
102
{ACAD_REACTORS
330
222A
102
}
330
222A
100
AcDbVisualStyle
  2

 70
    11
 71
     2
 72
     2
 73
     0
 90
        0
 40
-0.6
 41
-30.0
 62
     5
 63
     7
 74
     1
 91
        4
 64
     7
 65
   257
 75
     1
175
     1
 42
1.0
 92
        8
 66
     7
 43
1.0
 76
     1
 77
     6
 78
     2
 67
     7
 79
     5
170
     0
171
     0
290
     0
174
     0
 93
        1
 44
-50.0
173
     0
291
     1
 45
0.0
1001
ACAD
1000
AcDbSavedByObjectVersion
1070
     0
  0
VISUALSTYLE
  5
223D
102
{ACAD_XDICTIONARY
360
254C
102
}
102
{ACAD_REACTORS
330
222A
102
}
330
222A
100
AcDbVisualStyle
  2

 70
    22
 71
     2
 72
     2
 73
     0
 90
        0
 40
-0.6
 41
-30.0
 62
     5
 63
     7
 74
     1
 91
        4
 64
     7
 65
   257
 75
     1
175
     1
 42
1.0
 92
        8
 66
     7
 43
1.0
 76
     1
 77
     6
 78
     2
 67
     7
 79
     5
170
     0
171
     0
290
     0
174
     0
 93
        1
 44
0.0
173
     0
291
     1
 45
0.0
1001
ACAD
1000
AcDbSavedByObjectVersion
1070
     0
  0
VISUALSTYLE
  5
2239
102
{ACAD_XDICTIONARY
360
2544
102
}
102
{ACAD_REACTORS
330
222A
102
}
330
222A
100
AcDbVisualStyle
  2

 70
    15
 71
     2
 72
     2
 73
     0
 90
        0
 40
-0.6
 41
-30.0
 62
     5
 63
     7
 74
     1
 91
        4
 64
     7
 65
   257
 75
     1
175
     1
 42
1.0
 92
        8
 66
     7
 43
1.0
 76
     1
 77
     6
 78
     2
 67
     7
 79
     5
170
     0
171
     0
290
     0
174
     0
 93
        1
 44
0.0
173
     0
291
     1
 45
0.0
1001
ACAD
1000
AcDbSavedByObjectVersion
1070
     0
  0
VISUALSTYLE
  5
222B
102
{ACAD_XDICTIONARY
360
2528
102
}
102
{ACAD_REACTORS
330
222A
102
}
330
222A
100
AcDbVisualStyle
  2

 70
     0
 71
     2
 72
     1
 73
     1
 90
        2
 40
-0.6
 41
30.0
 62
     5
 63
     7
 74
     0
 91
        4
 64
     7
 65
   257
 75
     1
175
     1
 42
1.0
 92
        8
 66
     7
 43
1.0
 76
     1
 77
     6
 78
     2
 67
     7
 79
     5
170
     0
171
     0
290
     0
174
     0
 93
       13
 44
0.0
173
     0
291
     1
 45
0.0
1001
ACAD
1000
AcDbSavedByObjectVersion
1070
     0
  0
VISUALSTYLE
  5
222C
102
{ACAD_XDICTIONARY
360
252A
102
}
102
{ACAD_REACTORS
330
222A
102
}
330
222A
100
AcDbVisualStyle
  2

 70
     1
 71
     2
 72
     1
 73
     1
 90
        2
 40
-0.6
 41
30.0
 62
     5
 63
     7
 74
     1
 91
        4
 64
     7
 65
   257
 75
     1
175
     1
 42
1.0
 92
        0
 66
   257
 43
1.0
 76
     1
 77
     6
 78
     2
 67
     7
 79
     5
170
     0
171
     0
290
     0
174
     0
 93
       13
 44
0.0
173
     0
291
     1
 45
0.0
1001
ACAD
1000
AcDbSavedByObjectVersion
1070
     0
  0
VISUALSTYLE
  5
222D
102
{ACAD_XDICTIONARY
360
252C
102
}
102
{ACAD_REACTORS
330
222A
102
}
330
222A
100
AcDbVisualStyle
  2

 70
     2
 71
     2
 72
     2
 73
     1
 90
        2
 40
-0.6
 41
30.0
 62
     5
 63
     7
 74
     0
 91
        4
 64
     7
 65
   257
 75
     1
175
     1
 42
1.0
 92
        0
 66
     7
 43
1.0
 76
     1
 77
     6
 78
     2
 67
     7
 79
     5
170
     0
171
     0
290
     0
174
     0
 93
       13
 44
0.0
173
     0
291
     1
 45
0.0
1001
ACAD
1000
AcDbSavedByObjectVersion
1070
     0
  0
VISUALSTYLE
  5
222E
102
{ACAD_XDICTIONARY
360
252E
102
}
102
{ACAD_REACTORS
330
222A
102
}
330
222A
100
AcDbVisualStyle
  2

 70
     3
 71
     2
 72
     2
 73
     1
 90
        2
 40
-0.6
 41
30.0
 62
     5
 63
     7
 74
     1
 91
        4
 64
     7
 65
   257
 75
     1
175
     1
 42
1.0
 92
        0
 66
   257
 43
1.0
 76
     1
 77
     6
 78
     2
 67
     7
 79
     5
170
     0
171
     0
290
     0
174
     0
 93
       13
 44
0.0
173
     0
291
     1
 45
0.0
1001
ACAD
1000
AcDbSavedByObjectVersion
1070
     0
  0
VISUALSTYLE
  5
223B
102
{ACAD_XDICTIONARY
360
2548
102
}
102
{ACAD_REACTORS
330
222A
102
}
330
222A
100
AcDbVisualStyle
  2

 70
    20
 71
     2
 72
     2
 73
     0
 90
        0
 40
-0.6
 41
-30.0
 62
     5
 63
     7
 74
     1
 91
        4
 64
     7
 65
   257
 75
     1
175
     1
 42
1.0
 92
       10
 66
     7
 43
1.0
 76
     1
 77
     6
 78
     2
 67
     7
 79
     5
170
     0
171
     0
290
     0
174
     0
 93
        1
 44
0.0
173
     0
291
     1
 45
0.0
1001
ACAD
1000
AcDbSavedByObjectVersion
1070
     0
  0
VISUALSTYLE
  5
2238
102
{ACAD_XDICTIONARY
360
2542
102
}
102
{ACAD_REACTORS
330
222A
102
}
330
222A
100
AcDbVisualStyle
  2

 70
    14
 71
     2
 72
     2
 73
     0
 90
        0
 40
-0.6
 41
-30.0
 62
     5
 63
     7
 74
     1
 91
        4
 64
     7
 65
   257
 75
     7
175
     7
 42
1.0
 92
        8
 66
     7
 43
1.0
 76
     1
 77
     6
 78
     2
 67
     7
 79
     5
170
     0
171
     0
290
     0
174
     0
 93
        1
 44
0.0
173
     0
291
     1
 45
0.0
1001
ACAD
1000
AcDbSavedByObjectVersion
1070
     0
  0
VISUALSTYLE
  5
223C
102
{ACAD_XDICTIONARY
360
254A
102
}
102
{ACAD_REACTORS
330
222A
102
}
330
222A
100
AcDbVisualStyle
  2

 70
    21
 71
     2
 72
     2
 73
     0
 90
        0
 40
-0.6
 41
-30.0
 62
     5
 63
     7
 74
     1
 91
        4
 64
     7
 65
   257
 75
     1
175
     1
 42
1.0
 92
        9
 66
     7
 43
1.0
 76
     1
 77
     6
 78
     2
 67
     7
 79
     5
170
     0
171
     0
290
     0
174
     0
 93
        1
 44
0.0
173
     0
291
     1
 45
0.0
1001
ACAD
1000
AcDbSavedByObjectVersion
1070
     0
  0
VISUALSTYLE
  5
2234
102
{ACAD_XDICTIONARY
360
253A
102
}
102
{ACAD_REACTORS
330
222A
102
}
330
222A
100
AcDbVisualStyle
  2

 70
     8
 71
     2
 72
     2
 73
     0
 90
        0
 40
-0.6
 41
-30.0
 62
     5
 63
     7
 74
     1
 91
        0
 64
     7
 65
   257
 75
     1
175
     1
 42
1.0
 92
        8
 66
     8
 43
1.0
 76
     1
 77
     6
 78
     2
 67
     7
 79
     5
170
     0
171
     0
290
     0
174
     0
 93
       13
 44
0.0
173
     0
291
     0
 45
0.0
1001
ACAD
1000
AcDbSavedByObjectVersion
1070
     0
  0
VISUALSTYLE
  5
2237
102
{ACAD_XDICTIONARY
360
2540
102
}
102
{ACAD_REACTORS
330
222A
102
}
330
222A
100
AcDbVisualStyle
  2

 70
    13
 71
     2
 72
     2
 73
     0
 90
        0
 40
-0.6
 41
-30.0
 62
     5
 63
     7
 74
     1
 91
        4
 64
     7
 65
   257
 75
     1
175
     1
 42
1.0
 92
       12
 66
     7
 43
1.0
 76
     1
 77
     6
 78
     2
 67
     7
 79
     5
170
     0
171
     0
290
     0
174
     0
 93
        1
 44
0.0
173
     0
291
     1
 45
0.0
1001
ACAD
1000
AcDbSavedByObjectVersion
1070
     0
  0
DICTIONARYVAR
  5
23BE
102
{ACAD_REACTORS
330
23BB
102
}
330
23BB
100
DictionaryVariables
280
     0
  1
1:1
  0
DICTIONARYVAR
  5
23BD
102
{ACAD_REACTORS
330
23BB
102
}
330
23BB
100
DictionaryVariables
280
     0
  1
STANDARD
  0
DICTIONARYVAR
  5
23BC
102
{ACAD_REACTORS
330
23BB
102
}
330
23BB
100
DictionaryVariables
280
     0
  1
STANDARD
  0
DICTIONARYVAR
  5
23C1
102
{ACAD_REACTORS
330
23BB
102
}
330
23BB
100
DictionaryVariables
280
     0
  1
1
  0
DICTIONARYVAR
  5
23C0
102
{ACAD_REACTORS
330
23BB
102
}
330
23BB
100
DictionaryVariables
280
     0
  1
0
  0
DICTIONARYVAR
  5
23BF
102
{ACAD_REACTORS
330
23BB
102
}
330
23BB
100
DictionaryVariables
280
     0
  1
127
  0
DICTIONARYVAR
  5
2520
102
{ACAD_REACTORS
330
23BB
102
}
330
23BB
100
DictionaryVariables
280
     0
  1
2
  0
DICTIONARY
  5
254F
330
2276
100
AcDbDictionary
280
     1
281
     1
  3
ACAD_XREC_ROUNDTRIP
360
2550
  0
DICTIONARY
  5
2551
330
227A
100
AcDbDictionary
280
     1
281
     1
  3
ACAD_XREC_ROUNDTRIP
360
2552
  0
DICTIONARY
  5
221B
330
221A
100
AcDbDictionary
280
     1
281
     1
  3
ACAD_XREC_ROUNDTRIP
360
23CC
  3
BUMPTILE
360
221D
  3
DIFFUSETILE
360
221C
  3
OPACITYTILE
360
2220
  3
REFLECTIONTILE
360
221F
  3
REFRACTIONTILE
360
2221
  3
SPECULARTILE
360
221E
  0
DICTIONARY
  5
2213
330
2212
100
AcDbDictionary
280
     1
281
     1
  3
ACAD_XREC_ROUNDTRIP
360
23CB
  3
BUMPTILE
360
2215
  3
DIFFUSETILE
360
2214
  3
OPACITYTILE
360
2218
  3
REFLECTIONTILE
360
2217
  3
REFRACTIONTILE
360
2219
  3
SPECULARTILE
360
2216
  0
DICTIONARY
  5
2223
330
2222
100
AcDbDictionary
280
     1
281
     1
  3
ACAD_XREC_ROUNDTRIP
360
23CD
  3
BUMPTILE
360
2225
  3
DIFFUSETILE
360
2224
  3
OPACITYTILE
360
2228
  3
REFLECTIONTILE
360
2227
  3
REFRACTIONTILE
360
2229
  3
SPECULARTILE
360
2226
  0
DICTIONARY
  5
23C3
330
2270
100
AcDbDictionary
280
     1
281
     1
  3
ACAD_ROUNDTRIP_2008_TABLESTYLE_CELLSTYLEMAP
360
2521
  3
ACAD_XREC_ROUNDTRIP
360
254E
  0
DICTIONARY
  5
2532
330
2230
100
AcDbDictionary
280
     1
281
     1
  3
ACAD_XREC_ROUNDTRIP
360
2533
  0
DICTIONARY
  5
2536
330
2232
100
AcDbDictionary
280
     1
281
     1
  3
ACAD_XREC_ROUNDTRIP
360
2537
  0
DICTIONARY
  5
2534
330
2231
100
AcDbDictionary
280
     1
281
     1
  3
ACAD_XREC_ROUNDTRIP
360
2535
  0
DICTIONARY
  5
2530
330
222F
100
AcDbDictionary
280
     1
281
     1
  3
ACAD_XREC_ROUNDTRIP
360
2531
  0
DICTIONARY
  5
253E
330
2236
100
AcDbDictionary
280
     1
281
     1
  3
ACAD_XREC_ROUNDTRIP
360
253F
  0
DICTIONARY
  5
2546
330
223A
100
AcDbDictionary
280
     1
281
     1
  3
ACAD_XREC_ROUNDTRIP
360
2547
  0
DICTIONARY
  5
2538
330
2233
100
AcDbDictionary
280
     1
281
     1
  3
ACAD_XREC_ROUNDTRIP
360
2539
  0
DICTIONARY
  5
253C
330
2235
100
AcDbDictionary
280
     1
281
     1
  3
ACAD_XREC_ROUNDTRIP
360
253D
  0
DICTIONARY
  5
254C
330
223D
100
AcDbDictionary
280
     1
281
     1
  3
ACAD_XREC_ROUNDTRIP
360
254D
  0
DICTIONARY
  5
2544
330
2239
100
AcDbDictionary
280
     1
281
     1
  3
ACAD_XREC_ROUNDTRIP
360
2545
  0
DICTIONARY
  5
2528
330
222B
100
AcDbDictionary
280
     1
281
     1
  3
ACAD_XREC_ROUNDTRIP
360
2529
  0
DICTIONARY
  5
252A
330
222C
100
AcDbDictionary
280
     1
281
     1
  3
ACAD_XREC_ROUNDTRIP
360
252B
  0
DICTIONARY
  5
252C
330
222D
100
AcDbDictionary
280
     1
281
     1
  3
ACAD_XREC_ROUNDTRIP
360
252D
  0
DICTIONARY
  5
252E
330
222E
100
AcDbDictionary
280
     1
281
     1
  3
ACAD_XREC_ROUNDTRIP
360
252F
  0
DICTIONARY
  5
2548
330
223B
100
AcDbDictionary
280
     1
281
     1
  3
ACAD_XREC_ROUNDTRIP
360
2549
  0
DICTIONARY
  5
2542
330
2238
100
AcDbDictionary
280
     1
281
     1
  3
ACAD_XREC_ROUNDTRIP
360
2543
  0
DICTIONARY
  5
254A
330
223C
100
AcDbDictionary
280
     1
281
     1
  3
ACAD_XREC_ROUNDTRIP
360
254B
  0
DICTIONARY
  5
253A
330
2234
100
AcDbDictionary
280
     1
281
     1
  3
ACAD_XREC_ROUNDTRIP
360
253B
  0
DICTIONARY
  5
2540
330
2237
100
AcDbDictionary
280
     1
281
     1
  3
ACAD_XREC_ROUNDTRIP
360
2541
  0
XRECORD
  5
2550
102
{ACAD_REACTORS
330
254F
102
}
330
254F
100
AcDbXrecord
280
     1
102
SHADEPLOT
 70
     0
102
SHADEPLOTRESLEVEL
 70
     2
102
SHADEPLOTCUSTOMDPI
 70
   300
  0
XRECORD
  5
2552
102
{ACAD_REACTORS
330
2551
102
}
330
2551
100
AcDbXrecord
280
     1
102
SHADEPLOT
 70
     0
102
SHADEPLOTRESLEVEL
 70
     2
102
SHADEPLOTCUSTOMDPI
 70
   300
  0
XRECORD
  5
23CC
102
{ACAD_REACTORS
330
221B
102
}
330
221B
100
AcDbXrecord
280
     1
102
MATERIAL
148
0.0
149
0.0
149
0.0
 93
        0
 94
      127
282
     0
 72
     0
 77
     0
171
     0
175
     0
179
     0
273
     0
  0
XRECORD
  5
221D
102
{ACAD_REACTORS
330
221B
102
}
330
221B
100
AcDbXrecord
280
     1
270
     1
271
     1
  0
XRECORD
  5
221C
102
{ACAD_REACTORS
330
221B
102
}
330
221B
100
AcDbXrecord
280
     1
270
     1
271
     1
  0
XRECORD
  5
2220
102
{ACAD_REACTORS
330
221B
102
}
330
221B
100
AcDbXrecord
280
     1
270
     1
271
     1
  0
XRECORD
  5
221F
102
{ACAD_REACTORS
330
221B
102
}
330
221B
100
AcDbXrecord
280
     1
270
     1
271
     1
  0
XRECORD
  5
2221
102
{ACAD_REACTORS
330
221B
102
}
330
221B
100
AcDbXrecord
280
     1
270
     1
271
     1
  0
XRECORD
  5
221E
102
{ACAD_REACTORS
330
221B
102
}
330
221B
100
AcDbXrecord
280
     1
270
     1
271
     1
  0
XRECORD
  5
23CB
102
{ACAD_REACTORS
330
2213
102
}
330
2213
100
AcDbXrecord
280
     1
102
MATERIAL
148
0.0
149
0.0
149
0.0
 93
        0
 94
      127
282
     0
 72
     0
 77
     0
171
     0
175
     0
179
     0
273
     0
  0
XRECORD
  5
2215
102
{ACAD_REACTORS
330
2213
102
}
330
2213
100
AcDbXrecord
280
     1
270
     1
271
     1
  0
XRECORD
  5
2214
102
{ACAD_REACTORS
330
2213
102
}
330
2213
100
AcDbXrecord
280
     1
270
     1
271
     1
  0
XRECORD
  5
2218
102
{ACAD_REACTORS
330
2213
102
}
330
2213
100
AcDbXrecord
280
     1
270
     1
271
     1
  0
XRECORD
  5
2217
102
{ACAD_REACTORS
330
2213
102
}
330
2213
100
AcDbXrecord
280
     1
270
     1
271
     1
  0
XRECORD
  5
2219
102
{ACAD_REACTORS
330
2213
102
}
330
2213
100
AcDbXrecord
280
     1
270
     1
271
     1
  0
XRECORD
  5
2216
102
{ACAD_REACTORS
330
2213
102
}
330
2213
100
AcDbXrecord
280
     1
270
     1
271
     1
  0
XRECORD
  5
23CD
102
{ACAD_REACTORS
330
2223
102
}
330
2223
100
AcDbXrecord
280
     1
102
MATERIAL
148
0.0
149
0.0
149
0.0
 93
        0
 94
      127
282
     0
 72
     0
 77
     0
171
     0
175
     0
179
     0
273
     0
  0
XRECORD
  5
2225
102
{ACAD_REACTORS
330
2223
102
}
330
2223
100
AcDbXrecord
280
     1
270
     1
271
     1
  0
XRECORD
  5
2224
102
{ACAD_REACTORS
330
2223
102
}
330
2223
100
AcDbXrecord
280
     1
270
     1
271
     1
  0
XRECORD
  5
2228
102
{ACAD_REACTORS
330
2223
102
}
330
2223
100
AcDbXrecord
280
     1
270
     1
271
     1
  0
XRECORD
  5
2227
102
{ACAD_REACTORS
330
2223
102
}
330
2223
100
AcDbXrecord
280
     1
270
     1
271
     1
  0
XRECORD
  5
2229
102
{ACAD_REACTORS
330
2223
102
}
330
2223
100
AcDbXrecord
280
     1
270
     1
271
     1
  0
XRECORD
  5
2226
102
{ACAD_REACTORS
330
2223
102
}
330
2223
100
AcDbXrecord
280
     1
270
     1
271
     1
  0
CELLSTYLEMAP
  5
2521
102
{ACAD_REACTORS
330
23C3
102
}
330
23C3
100
AcDbCellStyleMap
 90
        3
300
CELLSTYLE
  1
TABLEFORMAT_BEGIN
 90
        5
170
     1
 91
        0
 92
    32768
 62
   257
 93
        1
300
CONTENTFORMAT
  1
CONTENTFORMAT_BEGIN
 90
        0
 91
        0
 92
      512
 93
        0
300

 40
0.0
140
1.0
 94
        5
 62
     0
340
2261
144
0.25
309
CONTENTFORMAT_END
171
     1
301
MARGIN
  1
CELLMARGIN_BEGIN
 40
0.06
 40
0.06
 40
0.06
 40
0.06
 40
0.18
 40
0.18
309
CELLMARGIN_END
 94
        6
 95
        1
302
GRIDFORMAT
  1
GRIDFORMAT_BEGIN
 90
        0
 91
        1
 62
     0
 92
       -2
340
0
 93
        0
 40
0.045
309
GRIDFORMAT_END
 95
        2
302
GRIDFORMAT
  1
GRIDFORMAT_BEGIN
 90
        0
 91
        1
 62
     0
 92
       -2
340
0
 93
        0
 40
0.045
309
GRIDFORMAT_END
 95
        4
302
GRIDFORMAT
  1
GRIDFORMAT_BEGIN
 90
        0
 91
        1
 62
     0
 92
       -2
340
0
 93
        0
 40
0.045
309
GRIDFORMAT_END
 95
        8
302
GRIDFORMAT
  1
GRIDFORMAT_BEGIN
 90
        0
 91
        1
 62
     0
 92
       -2
340
0
 93
        0
 40
0.045
309
GRIDFORMAT_END
 95
       16
302
GRIDFORMAT
  1
GRIDFORMAT_BEGIN
 90
        0
 91
        1
 62
     0
 92
       -2
340
0
 93
        0
 40
0.045
309
GRIDFORMAT_END
 95
       32
302
GRIDFORMAT
  1
GRIDFORMAT_BEGIN
 90
        0
 91
        1
 62
     0
 92
       -2
340
0
 93
        0
 40
0.045
309
GRIDFORMAT_END
309
TABLEFORMAT_END
  1
CELLSTYLE_BEGIN
 90
        1
 91
        1
300
_TITLE
309
CELLSTYLE_END
300
CELLSTYLE
  1
TABLEFORMAT_BEGIN
 90
        5
170
     1
 91
        0
 92
        0
 62
   257
 93
        1
300
CONTENTFORMAT
  1
CONTENTFORMAT_BEGIN
 90
        0
 91
        0
 92
      512
 93
        0
300

 40
0.0
140
1.0
 94
        5
 62
     0
340
2261
144
0.18
309
CONTENTFORMAT_END
171
     1
301
MARGIN
  1
CELLMARGIN_BEGIN
 40
0.06
 40
0.06
 40
0.06
 40
0.06
 40
0.18
 40
0.18
309
CELLMARGIN_END
 94
        6
 95
        1
302
GRIDFORMAT
  1
GRIDFORMAT_BEGIN
 90
        0
 91
        1
 62
     0
 92
       -2
340
0
 93
        0
 40
0.045
309
GRIDFORMAT_END
 95
        2
302
GRIDFORMAT
  1
GRIDFORMAT_BEGIN
 90
        0
 91
        1
 62
     0
 92
       -2
340
0
 93
        0
 40
0.045
309
GRIDFORMAT_END
 95
        4
302
GRIDFORMAT
  1
GRIDFORMAT_BEGIN
 90
        0
 91
        1
 62
     0
 92
       -2
340
0
 93
        0
 40
0.045
309
GRIDFORMAT_END
 95
        8
302
GRIDFORMAT
  1
GRIDFORMAT_BEGIN
 90
        0
 91
        1
 62
     0
 92
       -2
340
0
 93
        0
 40
0.045
309
GRIDFORMAT_END
 95
       16
302
GRIDFORMAT
  1
GRIDFORMAT_BEGIN
 90
        0
 91
        1
 62
     0
 92
       -2
340
0
 93
        0
 40
0.045
309
GRIDFORMAT_END
 95
       32
302
GRIDFORMAT
  1
GRIDFORMAT_BEGIN
 90
        0
 91
        1
 62
     0
 92
       -2
340
0
 93
        0
 40
0.045
309
GRIDFORMAT_END
309
TABLEFORMAT_END
  1
CELLSTYLE_BEGIN
 90
        2
 91
        1
300
_HEADER
309
CELLSTYLE_END
300
CELLSTYLE
  1
TABLEFORMAT_BEGIN
 90
        5
170
     1
 91
        0
 92
        0
 62
   257
 93
        1
300
CONTENTFORMAT
  1
CONTENTFORMAT_BEGIN
 90
        0
 91
        0
 92
      512
 93
        0
300

 40
0.0
140
1.0
 94
        2
 62
     0
340
2261
144
0.18
309
CONTENTFORMAT_END
171
     1
301
MARGIN
  1
CELLMARGIN_BEGIN
 40
0.06
 40
0.06
 40
0.06
 40
0.06
 40
0.18
 40
0.18
309
CELLMARGIN_END
 94
        6
 95
        1
302
GRIDFORMAT
  1
GRIDFORMAT_BEGIN
 90
        0
 91
        1
 62
     0
 92
       -2
340
0
 93
        0
 40
0.045
309
GRIDFORMAT_END
 95
        2
302
GRIDFORMAT
  1
GRIDFORMAT_BEGIN
 90
        0
 91
        1
 62
     0
 92
       -2
340
0
 93
        0
 40
0.045
309
GRIDFORMAT_END
 95
        4
302
GRIDFORMAT
  1
GRIDFORMAT_BEGIN
 90
        0
 91
        1
 62
     0
 92
       -2
340
0
 93
        0
 40
0.045
309
GRIDFORMAT_END
 95
        8
302
GRIDFORMAT
  1
GRIDFORMAT_BEGIN
 90
        0
 91
        1
 62
     0
 92
       -2
340
0
 93
        0
 40
0.045
309
GRIDFORMAT_END
 95
       16
302
GRIDFORMAT
  1
GRIDFORMAT_BEGIN
 90
        0
 91
        1
 62
     0
 92
       -2
340
0
 93
        0
 40
0.045
309
GRIDFORMAT_END
 95
       32
302
GRIDFORMAT
  1
GRIDFORMAT_BEGIN
 90
        0
 91
        1
 62
     0
 92
       -2
340
0
 93
        0
 40
0.045
309
GRIDFORMAT_END
309
TABLEFORMAT_END
  1
CELLSTYLE_BEGIN
 90
        3
 91
        2
300
_DATA
309
CELLSTYLE_END
  0
XRECORD
  5
254E
102
{ACAD_REACTORS
330
23C3
102
}
330
23C3
100
AcDbXrecord
280
     1
102
ACAD_ROUNDTRIP_PRE2007_TABLESTYLE
 90
      512
 91
        0
  1

 92
      512
 93
        0
  2

 94
      512
 95
        0
  3

  0
XRECORD
  5
2533
102
{ACAD_REACTORS
330
2532
102
}
330
2532
100
AcDbXrecord
280
     1
102
RTVSPropertyOp0
 70
     1
102
RTVSPropertyOp1
 70
     1
102
RTVSPropertyOp2
 70
     1
102
RTVSPropertyOp3
 70
     1
102
RTVSPropertyOp4
 70
     1
102
RTVSPropertyOp5
 70
     1
102
RTVSPropertyOp6
 70
     1
102
RTVSPropertyOp7
 70
     1
102
RTVSPropertyOp8
 70
     1
102
RTVSPropertyOp9
 70
     1
102
RTVSPropertyOp10
 70
     1
102
RTVSPropertyOp11
 70
     1
102
RTVSPropertyOp12
 70
     1
102
RTVSPropertyOp13
 70
     1
102
RTVSPropertyOp14
 70
     1
102
RTVSPropertyOp15
 70
     1
102
RTVSPropertyOp16
 70
     1
102
RTVSPropertyOp17
 70
     1
102
RTVSPropertyOp18
 70
     1
102
RTVSPropertyOp19
 70
     1
102
RTVSPropertyOp20
 70
     1
102
RTVSPropertyOp21
 70
     1
102
RTVSPropertyOp22
 70
     1
102
RTVSPropertyOp23
 70
     1
102
RTVSPropertyOp24
 70
     1
102
RTVSPropertyOp25
 70
     1
102
RTVSPropertyOp26
 70
     1
102
RTVSPropertyOp27
 70
     1
  0
XRECORD
  5
2537
102
{ACAD_REACTORS
330
2536
102
}
330
2536
100
AcDbXrecord
280
     1
102
RTVSPropertyOp0
 70
     1
102
RTVSPropertyOp1
 70
     1
102
RTVSPropertyOp2
 70
     1
102
RTVSPropertyOp3
 70
     1
102
RTVSPropertyOp4
 70
     1
102
RTVSPropertyOp5
 70
     1
102
RTVSPropertyOp6
 70
     1
102
RTVSPropertyOp7
 70
     1
102
RTVSPropertyOp8
 70
     1
102
RTVSPropertyOp9
 70
     1
102
RTVSPropertyOp10
 70
     1
102
RTVSPropertyOp11
 70
     1
102
RTVSPropertyOp12
 70
     1
102
RTVSPropertyOp13
 70
     1
102
RTVSPropertyOp14
 70
     1
102
RTVSPropertyOp15
 70
     1
102
RTVSPropertyOp16
 70
     1
102
RTVSPropertyOp17
 70
     1
102
RTVSPropertyOp18
 70
     1
102
RTVSPropertyOp19
 70
     1
102
RTVSPropertyOp20
 70
     1
102
RTVSPropertyOp21
 70
     1
102
RTVSPropertyOp22
 70
     1
102
RTVSPropertyOp23
 70
     1
102
RTVSPropertyOp24
 70
     1
102
RTVSPropertyOp25
 70
     1
102
RTVSPropertyOp26
 70
     1
102
RTVSPropertyOp27
 70
     1
  0
XRECORD
  5
2535
102
{ACAD_REACTORS
330
2534
102
}
330
2534
100
AcDbXrecord
280
     1
102
RTVSPropertyOp0
 70
     1
102
RTVSPropertyOp1
 70
     1
102
RTVSPropertyOp2
 70
     1
102
RTVSPropertyOp3
 70
     1
102
RTVSPropertyOp4
 70
     1
102
RTVSPropertyOp5
 70
     1
102
RTVSPropertyOp6
 70
     1
102
RTVSPropertyOp7
 70
     1
102
RTVSPropertyOp8
 70
     1
102
RTVSPropertyOp9
 70
     1
102
RTVSPropertyOp10
 70
     1
102
RTVSPropertyOp11
 70
     1
102
RTVSPropertyOp12
 70
     1
102
RTVSPropertyOp13
 70
     1
102
RTVSPropertyOp14
 70
     1
102
RTVSPropertyOp15
 70
     1
102
RTVSPropertyOp16
 70
     1
102
RTVSPropertyOp17
 70
     1
102
RTVSPropertyOp18
 70
     1
102
RTVSPropertyOp19
 70
     1
102
RTVSPropertyOp20
 70
     1
102
RTVSPropertyOp21
 70
     1
102
RTVSPropertyOp22
 70
     1
102
RTVSPropertyOp23
 70
     1
102
RTVSPropertyOp24
 70
     1
102
RTVSPropertyOp25
 70
     1
102
RTVSPropertyOp26
 70
     1
102
RTVSPropertyOp27
 70
     1
  0
XRECORD
  5
2531
102
{ACAD_REACTORS
330
2530
102
}
330
2530
100
AcDbXrecord
280
     1
102
RTVSPropertyOp0
 70
     1
102
RTVSPropertyOp1
 70
     1
102
RTVSPropertyOp2
 70
     1
102
RTVSPropertyOp3
 70
     1
102
RTVSPropertyOp4
 70
     1
102
RTVSPropertyOp5
 70
     1
102
RTVSPropertyOp6
 70
     1
102
RTVSPropertyOp7
 70
     1
102
RTVSPropertyOp8
 70
     1
102
RTVSPropertyOp9
 70
     1
102
RTVSPropertyOp10
 70
     1
102
RTVSPropertyOp11
 70
     1
102
RTVSPropertyOp12
 70
     1
102
RTVSPropertyOp13
 70
     1
102
RTVSPropertyOp14
 70
     1
102
RTVSPropertyOp15
 70
     1
102
RTVSPropertyOp16
 70
     1
102
RTVSPropertyOp17
 70
     1
102
RTVSPropertyOp18
 70
     1
102
RTVSPropertyOp19
 70
     1
102
RTVSPropertyOp20
 70
     1
102
RTVSPropertyOp21
 70
     1
102
RTVSPropertyOp22
 70
     1
102
RTVSPropertyOp23
 70
     1
102
RTVSPropertyOp24
 70
     1
102
RTVSPropertyOp25
 70
     1
102
RTVSPropertyOp26
 70
     1
102
RTVSPropertyOp27
 70
     1
  0
XRECORD
  5
253F
102
{ACAD_REACTORS
330
253E
102
}
330
253E
100
AcDbXrecord
280
     1
102
RTVSPropertyOp0
 70
     1
102
RTVSPropertyOp1
 70
     1
102
RTVSPropertyOp2
 70
     1
102
RTVSPropertyOp3
 70
     1
102
RTVSPropertyOp4
 70
     1
102
RTVSPropertyOp5
 70
     1
102
RTVSPropertyOp6
 70
     1
102
RTVSPropertyOp7
 70
     1
102
RTVSPropertyOp8
 70
     1
102
RTVSPropertyOp9
 70
     1
102
RTVSPropertyOp10
 70
     1
102
RTVSPropertyOp11
 70
     1
102
RTVSPropertyOp12
 70
     1
102
RTVSPropertyOp13
 70
     1
102
RTVSPropertyOp14
 70
     1
102
RTVSPropertyOp15
 70
     1
102
RTVSPropertyOp16
 70
     1
102
RTVSPropertyOp17
 70
     1
102
RTVSPropertyOp18
 70
     1
102
RTVSPropertyOp19
 70
     1
102
RTVSPropertyOp20
 70
     1
102
RTVSPropertyOp21
 70
     1
102
RTVSPropertyOp22
 70
     1
102
RTVSPropertyOp23
 70
     1
102
RTVSPropertyOp24
 70
     1
102
RTVSPropertyOp25
 70
     1
102
RTVSPropertyOp26
 70
     1
102
RTVSPropertyOp27
 70
     1
  0
XRECORD
  5
2547
102
{ACAD_REACTORS
330
2546
102
}
330
2546
100
AcDbXrecord
280
     1
102
RTVSPropertyOp0
 70
     1
102
RTVSPropertyOp1
 70
     1
102
RTVSPropertyOp2
 70
     1
102
RTVSPropertyOp3
 70
     1
102
RTVSPropertyOp4
 70
     1
102
RTVSPropertyOp5
 70
     1
102
RTVSPropertyOp6
 70
     1
102
RTVSPropertyOp7
 70
     1
102
RTVSPropertyOp8
 70
     1
102
RTVSPropertyOp9
 70
     1
102
RTVSPropertyOp10
 70
     1
102
RTVSPropertyOp11
 70
     1
102
RTVSPropertyOp12
 70
     1
102
RTVSPropertyOp13
 70
     1
102
RTVSPropertyOp14
 70
     1
102
RTVSPropertyOp15
 70
     1
102
RTVSPropertyOp16
 70
     1
102
RTVSPropertyOp17
 70
     1
102
RTVSPropertyOp18
 70
     1
102
RTVSPropertyOp19
 70
     1
102
RTVSPropertyOp20
 70
     1
102
RTVSPropertyOp21
 70
     1
102
RTVSPropertyOp22
 70
     1
102
RTVSPropertyOp23
 70
     1
102
RTVSPropertyOp24
 70
     1
102
RTVSPropertyOp25
 70
     1
102
RTVSPropertyOp26
 70
     1
102
RTVSPropertyOp27
 70
     1
  0
XRECORD
  5
2539
102
{ACAD_REACTORS
330
2538
102
}
330
2538
100
AcDbXrecord
280
     1
102
RTVSPropertyOp0
 70
     1
102
RTVSPropertyOp1
 70
     1
102
RTVSPropertyOp2
 70
     1
102
RTVSPropertyOp3
 70
     1
102
RTVSPropertyOp4
 70
     1
102
RTVSPropertyOp5
 70
     1
102
RTVSPropertyOp6
 70
     1
102
RTVSPropertyOp7
 70
     1
102
RTVSPropertyOp8
 70
     1
102
RTVSPropertyOp9
 70
     1
102
RTVSPropertyOp10
 70
     1
102
RTVSPropertyOp11
 70
     1
102
RTVSPropertyOp12
 70
     1
102
RTVSPropertyOp13
 70
     1
102
RTVSPropertyOp14
 70
     1
102
RTVSPropertyOp15
 70
     1
102
RTVSPropertyOp16
 70
     1
102
RTVSPropertyOp17
 70
     1
102
RTVSPropertyOp18
 70
     1
102
RTVSPropertyOp19
 70
     1
102
RTVSPropertyOp20
 70
     1
102
RTVSPropertyOp21
 70
     1
102
RTVSPropertyOp22
 70
     1
102
RTVSPropertyOp23
 70
     1
102
RTVSPropertyOp24
 70
     1
102
RTVSPropertyOp25
 70
     1
102
RTVSPropertyOp26
 70
     1
102
RTVSPropertyOp27
 70
     1
  0
XRECORD
  5
253D
102
{ACAD_REACTORS
330
253C
102
}
330
253C
100
AcDbXrecord
280
     1
102
RTVSPropertyOp0
 70
     1
102
RTVSPropertyOp1
 70
     1
102
RTVSPropertyOp2
 70
     1
102
RTVSPropertyOp3
 70
     1
102
RTVSPropertyOp4
 70
     1
102
RTVSPropertyOp5
 70
     1
102
RTVSPropertyOp6
 70
     1
102
RTVSPropertyOp7
 70
     1
102
RTVSPropertyOp8
 70
     1
102
RTVSPropertyOp9
 70
     1
102
RTVSPropertyOp10
 70
     1
102
RTVSPropertyOp11
 70
     1
102
RTVSPropertyOp12
 70
     1
102
RTVSPropertyOp13
 70
     1
102
RTVSPropertyOp14
 70
     1
102
RTVSPropertyOp15
 70
     1
102
RTVSPropertyOp16
 70
     1
102
RTVSPropertyOp17
 70
     1
102
RTVSPropertyOp18
 70
     1
102
RTVSPropertyOp19
 70
     1
102
RTVSPropertyOp20
 70
     1
102
RTVSPropertyOp21
 70
     1
102
RTVSPropertyOp22
 70
     1
102
RTVSPropertyOp23
 70
     1
102
RTVSPropertyOp24
 70
     1
102
RTVSPropertyOp25
 70
     1
102
RTVSPropertyOp26
 70
     1
102
RTVSPropertyOp27
 70
     1
  0
XRECORD
  5
254D
102
{ACAD_REACTORS
330
254C
102
}
330
254C
100
AcDbXrecord
280
     1
102
RTVSPropertyOp0
 70
     0
102
RTVSPropertyOp1
 70
     0
102
RTVSPropertyOp2
 70
     0
102
RTVSPropertyOp3
 70
     0
102
RTVSPropertyOp4
 70
     0
102
RTVSPropertyOp5
 70
     0
102
RTVSPropertyOp6
 70
     0
102
RTVSPropertyOp7
 70
     0
102
RTVSPropertyOp8
 70
     0
102
RTVSPropertyOp9
 70
     0
102
RTVSPropertyOp10
 70
     0
102
RTVSPropertyOp11
 70
     0
102
RTVSPropertyOp12
 70
     0
102
RTVSPropertyOp13
 70
     0
102
RTVSPropertyOp14
 70
     2
102
RTVSPropertyOp15
 70
     0
102
RTVSPropertyOp16
 70
     0
102
RTVSPropertyOp17
 70
     0
102
RTVSPropertyOp18
 70
     0
102
RTVSPropertyOp19
 70
     0
102
RTVSPropertyOp20
 70
     0
102
RTVSPropertyOp21
 70
     0
102
RTVSPropertyOp22
 70
     0
102
RTVSPropertyOp23
 70
     0
102
RTVSPropertyOp24
 70
     0
102
RTVSPropertyOp25
 70
     0
102
RTVSPropertyOp26
 70
     0
102
RTVSPropertyOp27
 70
     0
  0
XRECORD
  5
2545
102
{ACAD_REACTORS
330
2544
102
}
330
2544
100
AcDbXrecord
280
     1
102
RTVSPropertyOp0
 70
     1
102
RTVSPropertyOp1
 70
     1
102
RTVSPropertyOp2
 70
     1
102
RTVSPropertyOp3
 70
     1
102
RTVSPropertyOp4
 70
     1
102
RTVSPropertyOp5
 70
     1
102
RTVSPropertyOp6
 70
     1
102
RTVSPropertyOp7
 70
     1
102
RTVSPropertyOp8
 70
     1
102
RTVSPropertyOp9
 70
     1
102
RTVSPropertyOp10
 70
     1
102
RTVSPropertyOp11
 70
     1
102
RTVSPropertyOp12
 70
     1
102
RTVSPropertyOp13
 70
     1
102
RTVSPropertyOp14
 70
     1
102
RTVSPropertyOp15
 70
     1
102
RTVSPropertyOp16
 70
     1
102
RTVSPropertyOp17
 70
     1
102
RTVSPropertyOp18
 70
     1
102
RTVSPropertyOp19
 70
     1
102
RTVSPropertyOp20
 70
     1
102
RTVSPropertyOp21
 70
     1
102
RTVSPropertyOp22
 70
     1
102
RTVSPropertyOp23
 70
     1
102
RTVSPropertyOp24
 70
     1
102
RTVSPropertyOp25
 70
     1
102
RTVSPropertyOp26
 70
     1
102
RTVSPropertyOp27
 70
     1
  0
XRECORD
  5
2529
102
{ACAD_REACTORS
330
2528
102
}
330
2528
100
AcDbXrecord
280
     1
102
RTVSPropertyOp0
 70
     1
102
RTVSPropertyOp1
 70
     1
102
RTVSPropertyOp2
 70
     1
102
RTVSPropertyOp3
 70
     1
102
RTVSPropertyOp4
 70
     1
102
RTVSPropertyOp5
 70
     1
102
RTVSPropertyOp6
 70
     1
102
RTVSPropertyOp7
 70
     1
102
RTVSPropertyOp8
 70
     1
102
RTVSPropertyOp9
 70
     1
102
RTVSPropertyOp10
 70
     1
102
RTVSPropertyOp11
 70
     1
102
RTVSPropertyOp12
 70
     1
102
RTVSPropertyOp13
 70
     1
102
RTVSPropertyOp14
 70
     1
102
RTVSPropertyOp15
 70
     1
102
RTVSPropertyOp16
 70
     1
102
RTVSPropertyOp17
 70
     1
102
RTVSPropertyOp18
 70
     1
102
RTVSPropertyOp19
 70
     1
102
RTVSPropertyOp20
 70
     1
102
RTVSPropertyOp21
 70
     1
102
RTVSPropertyOp22
 70
     1
102
RTVSPropertyOp23
 70
     1
102
RTVSPropertyOp24
 70
     1
102
RTVSPropertyOp25
 70
     1
102
RTVSPropertyOp26
 70
     1
102
RTVSPropertyOp27
 70
     1
  0
XRECORD
  5
252B
102
{ACAD_REACTORS
330
252A
102
}
330
252A
100
AcDbXrecord
280
     1
102
RTVSPropertyOp0
 70
     1
102
RTVSPropertyOp1
 70
     1
102
RTVSPropertyOp2
 70
     1
102
RTVSPropertyOp3
 70
     1
102
RTVSPropertyOp4
 70
     1
102
RTVSPropertyOp5
 70
     1
102
RTVSPropertyOp6
 70
     1
102
RTVSPropertyOp7
 70
     1
102
RTVSPropertyOp8
 70
     1
102
RTVSPropertyOp9
 70
     1
102
RTVSPropertyOp10
 70
     1
102
RTVSPropertyOp11
 70
     1
102
RTVSPropertyOp12
 70
     1
102
RTVSPropertyOp13
 70
     1
102
RTVSPropertyOp14
 70
     1
102
RTVSPropertyOp15
 70
     1
102
RTVSPropertyOp16
 70
     1
102
RTVSPropertyOp17
 70
     1
102
RTVSPropertyOp18
 70
     1
102
RTVSPropertyOp19
 70
     1
102
RTVSPropertyOp20
 70
     1
102
RTVSPropertyOp21
 70
     1
102
RTVSPropertyOp22
 70
     1
102
RTVSPropertyOp23
 70
     1
102
RTVSPropertyOp24
 70
     1
102
RTVSPropertyOp25
 70
     1
102
RTVSPropertyOp26
 70
     1
102
RTVSPropertyOp27
 70
     1
  0
XRECORD
  5
252D
102
{ACAD_REACTORS
330
252C
102
}
330
252C
100
AcDbXrecord
280
     1
102
RTVSPropertyOp0
 70
     1
102
RTVSPropertyOp1
 70
     1
102
RTVSPropertyOp2
 70
     1
102
RTVSPropertyOp3
 70
     1
102
RTVSPropertyOp4
 70
     1
102
RTVSPropertyOp5
 70
     1
102
RTVSPropertyOp6
 70
     1
102
RTVSPropertyOp7
 70
     1
102
RTVSPropertyOp8
 70
     1
102
RTVSPropertyOp9
 70
     1
102
RTVSPropertyOp10
 70
     1
102
RTVSPropertyOp11
 70
     1
102
RTVSPropertyOp12
 70
     1
102
RTVSPropertyOp13
 70
     1
102
RTVSPropertyOp14
 70
     1
102
RTVSPropertyOp15
 70
     1
102
RTVSPropertyOp16
 70
     1
102
RTVSPropertyOp17
 70
     1
102
RTVSPropertyOp18
 70
     1
102
RTVSPropertyOp19
 70
     1
102
RTVSPropertyOp20
 70
     1
102
RTVSPropertyOp21
 70
     1
102
RTVSPropertyOp22
 70
     1
102
RTVSPropertyOp23
 70
     1
102
RTVSPropertyOp24
 70
     1
102
RTVSPropertyOp25
 70
     1
102
RTVSPropertyOp26
 70
     1
102
RTVSPropertyOp27
 70
     1
  0
XRECORD
  5
252F
102
{ACAD_REACTORS
330
252E
102
}
330
252E
100
AcDbXrecord
280
     1
102
RTVSPropertyOp0
 70
     1
102
RTVSPropertyOp1
 70
     1
102
RTVSPropertyOp2
 70
     1
102
RTVSPropertyOp3
 70
     1
102
RTVSPropertyOp4
 70
     1
102
RTVSPropertyOp5
 70
     1
102
RTVSPropertyOp6
 70
     1
102
RTVSPropertyOp7
 70
     1
102
RTVSPropertyOp8
 70
     1
102
RTVSPropertyOp9
 70
     1
102
RTVSPropertyOp10
 70
     1
102
RTVSPropertyOp11
 70
     1
102
RTVSPropertyOp12
 70
     1
102
RTVSPropertyOp13
 70
     1
102
RTVSPropertyOp14
 70
     1
102
RTVSPropertyOp15
 70
     1
102
RTVSPropertyOp16
 70
     1
102
RTVSPropertyOp17
 70
     1
102
RTVSPropertyOp18
 70
     1
102
RTVSPropertyOp19
 70
     1
102
RTVSPropertyOp20
 70
     1
102
RTVSPropertyOp21
 70
     1
102
RTVSPropertyOp22
 70
     1
102
RTVSPropertyOp23
 70
     1
102
RTVSPropertyOp24
 70
     1
102
RTVSPropertyOp25
 70
     1
102
RTVSPropertyOp26
 70
     1
102
RTVSPropertyOp27
 70
     1
  0
XRECORD
  5
2549
102
{ACAD_REACTORS
330
2548
102
}
330
2548
100
AcDbXrecord
280
     1
102
RTVSPropertyOp0
 70
     0
102
RTVSPropertyOp1
 70
     0
102
RTVSPropertyOp2
 70
     0
102
RTVSPropertyOp3
 70
     0
102
RTVSPropertyOp4
 70
     0
102
RTVSPropertyOp5
 70
     0
102
RTVSPropertyOp6
 70
     0
102
RTVSPropertyOp7
 70
     0
102
RTVSPropertyOp8
 70
     0
102
RTVSPropertyOp9
 70
     0
102
RTVSPropertyOp10
 70
     0
102
RTVSPropertyOp11
 70
     0
102
RTVSPropertyOp12
 70
     0
102
RTVSPropertyOp13
 70
     0
102
RTVSPropertyOp14
 70
     2
102
RTVSPropertyOp15
 70
     0
102
RTVSPropertyOp16
 70
     0
102
RTVSPropertyOp17
 70
     0
102
RTVSPropertyOp18
 70
     0
102
RTVSPropertyOp19
 70
     0
102
RTVSPropertyOp20
 70
     0
102
RTVSPropertyOp21
 70
     0
102
RTVSPropertyOp22
 70
     0
102
RTVSPropertyOp23
 70
     0
102
RTVSPropertyOp24
 70
     0
102
RTVSPropertyOp25
 70
     0
102
RTVSPropertyOp26
 70
     0
102
RTVSPropertyOp27
 70
     0
  0
XRECORD
  5
2543
102
{ACAD_REACTORS
330
2542
102
}
330
2542
100
AcDbXrecord
280
     1
102
RTVSPropertyOp0
 70
     1
102
RTVSPropertyOp1
 70
     1
102
RTVSPropertyOp2
 70
     1
102
RTVSPropertyOp3
 70
     1
102
RTVSPropertyOp4
 70
     1
102
RTVSPropertyOp5
 70
     1
102
RTVSPropertyOp6
 70
     1
102
RTVSPropertyOp7
 70
     1
102
RTVSPropertyOp8
 70
     1
102
RTVSPropertyOp9
 70
     1
102
RTVSPropertyOp10
 70
     1
102
RTVSPropertyOp11
 70
     1
102
RTVSPropertyOp12
 70
     1
102
RTVSPropertyOp13
 70
     1
102
RTVSPropertyOp14
 70
     1
102
RTVSPropertyOp15
 70
     1
102
RTVSPropertyOp16
 70
     1
102
RTVSPropertyOp17
 70
     1
102
RTVSPropertyOp18
 70
     1
102
RTVSPropertyOp19
 70
     1
102
RTVSPropertyOp20
 70
     1
102
RTVSPropertyOp21
 70
     1
102
RTVSPropertyOp22
 70
     1
102
RTVSPropertyOp23
 70
     1
102
RTVSPropertyOp24
 70
     1
102
RTVSPropertyOp25
 70
     1
102
RTVSPropertyOp26
 70
     1
102
RTVSPropertyOp27
 70
     1
  0
XRECORD
  5
254B
102
{ACAD_REACTORS
330
254A
102
}
330
254A
100
AcDbXrecord
280
     1
102
RTVSPropertyOp0
 70
     0
102
RTVSPropertyOp1
 70
     0
102
RTVSPropertyOp2
 70
     0
102
RTVSPropertyOp3
 70
     0
102
RTVSPropertyOp4
 70
     0
102
RTVSPropertyOp5
 70
     0
102
RTVSPropertyOp6
 70
     0
102
RTVSPropertyOp7
 70
     0
102
RTVSPropertyOp8
 70
     0
102
RTVSPropertyOp9
 70
     0
102
RTVSPropertyOp10
 70
     0
102
RTVSPropertyOp11
 70
     0
102
RTVSPropertyOp12
 70
     0
102
RTVSPropertyOp13
 70
     0
102
RTVSPropertyOp14
 70
     2
102
RTVSPropertyOp15
 70
     0
102
RTVSPropertyOp16
 70
     0
102
RTVSPropertyOp17
 70
     0
102
RTVSPropertyOp18
 70
     0
102
RTVSPropertyOp19
 70
     0
102
RTVSPropertyOp20
 70
     0
102
RTVSPropertyOp21
 70
     0
102
RTVSPropertyOp22
 70
     0
102
RTVSPropertyOp23
 70
     0
102
RTVSPropertyOp24
 70
     0
102
RTVSPropertyOp25
 70
     0
102
RTVSPropertyOp26
 70
     0
102
RTVSPropertyOp27
 70
     0
  0
XRECORD
  5
253B
102
{ACAD_REACTORS
330
253A
102
}
330
253A
100
AcDbXrecord
280
     1
102
RTVSPropertyOp0
 70
     1
102
RTVSPropertyOp1
 70
     1
102
RTVSPropertyOp2
 70
     1
102
RTVSPropertyOp3
 70
     1
102
RTVSPropertyOp4
 70
     1
102
RTVSPropertyOp5
 70
     1
102
RTVSPropertyOp6
 70
     1
102
RTVSPropertyOp7
 70
     1
102
RTVSPropertyOp8
 70
     1
102
RTVSPropertyOp9
 70
     1
102
RTVSPropertyOp10
 70
     1
102
RTVSPropertyOp11
 70
     1
102
RTVSPropertyOp12
 70
     1
102
RTVSPropertyOp13
 70
     1
102
RTVSPropertyOp14
 70
     1
102
RTVSPropertyOp15
 70
     1
102
RTVSPropertyOp16
 70
     1
102
RTVSPropertyOp17
 70
     1
102
RTVSPropertyOp18
 70
     1
102
RTVSPropertyOp19
 70
     1
102
RTVSPropertyOp20
 70
     1
102
RTVSPropertyOp21
 70
     1
102
RTVSPropertyOp22
 70
     1
102
RTVSPropertyOp23
 70
     1
102
RTVSPropertyOp24
 70
     1
102
RTVSPropertyOp25
 70
     1
102
RTVSPropertyOp26
 70
     1
102
RTVSPropertyOp27
 70
     1
  0
XRECORD
  5
2541
102
{ACAD_REACTORS
330
2540
102
}
330
2540
100
AcDbXrecord
280
     1
102
RTVSPropertyOp0
 70
     1
102
RTVSPropertyOp1
 70
     1
102
RTVSPropertyOp2
 70
     1
102
RTVSPropertyOp3
 70
     1
102
RTVSPropertyOp4
 70
     1
102
RTVSPropertyOp5
 70
     1
102
RTVSPropertyOp6
 70
     1
102
RTVSPropertyOp7
 70
     1
102
RTVSPropertyOp8
 70
     1
102
RTVSPropertyOp9
 70
     1
102
RTVSPropertyOp10
 70
     1
102
RTVSPropertyOp11
 70
     1
102
RTVSPropertyOp12
 70
     1
102
RTVSPropertyOp13
 70
     1
102
RTVSPropertyOp14
 70
     1
102
RTVSPropertyOp15
 70
     1
102
RTVSPropertyOp16
 70
     1
102
RTVSPropertyOp17
 70
     1
102
RTVSPropertyOp18
 70
     1
102
RTVSPropertyOp19
 70
     1
102
RTVSPropertyOp20
 70
     1
102
RTVSPropertyOp21
 70
     1
102
RTVSPropertyOp22
 70
     1
102
RTVSPropertyOp23
 70
     1
102
RTVSPropertyOp24
 70
     1
102
RTVSPropertyOp25
 70
     1
102
RTVSPropertyOp26
 70
     1
102
RTVSPropertyOp27
 70
     1
  0
ENDSEC
  0
EOF
