0
SECTION
2
HEADER
9
$ACADVER
1
AC1015
9
$DWGCODEPAGE
3
ANSI_1252
9
$HANDSEED
5
1c0
9
$ANGBASE
50
0
9
$ANGDIR
70
0
9
$ATTMODE
70
1
9
$AUNITS
70
0
9
$AUPREC
70
0
9
$CECOLOR
62
256
9
$CELTSCALE
40
1
9
$CELTYPE
6
ByLayer
9
$CELWEIGHT
370
18
9
$CLAYER
8
0
9
$CMLJUST
70
0
9
$CMLSCALE
40
1
9
$CMLSTYLE
2
Standard
9
$DIMSTYLE
2
Standard
9
$TEXTSIZE
40
0.2
9
$TEXTSTYLE
7
Standard
9
$LUNITS
70
2
9
$LUPREC
70
4
9
$EXTNAMES
290
1
9
$INSUNITS
70
4
9
$LTSCALE
40
1
9
$LWDISPLAY
290
1
9
$PDMODE
70
0
9
$PDSIZE
40
0
9
$PLINEGEN
70
0
0
ENDSEC
0
SECTION
2
CLASSES
0
CLASS
1
RASTERVARIABLES
2
AcDbRasterVariables
3
ISM
90
0
280
0
281
0
0
ENDSEC
0
SECTION
2
TABLES
0
TABLE
2
VPORT
5
1b6
100
AcDbSymbolTable
0
VPORT
5
1
100
AcDbSymbolTableRecord
100
AcDbViewportTableRecord
2
*Active
70
0
10
0
20
0
11
1
21
1
12
-1
22
1
13
0
23
0
14
0.5
24
0.5
15
10
25
10
16
0
26
0
36
1
17
0
27
0
37
0
0
ENDTAB
0
TABLE
2
LTYPE
5
1b7
100
AcDbSymbolTable
0
LTYPE
5
14
100
AcDbSymbolTableRecord
100
AcDbLinetypeTableRecord
70
0
2
ByBlock
3

72
65
73
0
40
0
0
LTYPE
5
15
100
AcDbSymbolTableRecord
100
AcDbLinetypeTableRecord
70
0
2
ByLayer
3

72
65
73
0
40
0
0
LTYPE
5
16
100
AcDbSymbolTableRecord
100
AcDbLinetypeTableRecord
70
0
2
CONTINUOUS
3
Solid line
72
65
73
0
40
0
0
LTYPE
5
6A
100
AcDbSymbolTableRecord
100
AcDbLinetypeTableRecord
70
0
2
CENTER
3
____ _ ____ _ ____ _ ____
72
65
73
4
40
47.5
49
22
74
0
49
-8.5
74
0
49
8.5
74
0
49
-8.5
74
0
0
LTYPE
5
6B
100
AcDbSymbolTableRecord
100
AcDbLinetypeTableRecord
70
0
2
DASHED
3
__ __ __ __ __ __ __ __ __
72
65
73
2
40
25.72
49
12.86
74
0
49
-12.86
74
0
0
ENDTAB
0
TABLE
2
LAYER
5
1b8
100
AcDbSymbolTable
0
LAYER
5
10
100
AcDbSymbolTableRecord
100
AcDbLayerTableRecord
2
0
70
0
62
7
6
CONTINUOUS
290
1
370
-3
390
0
0
LAYER
5
6D
100
AcDbSymbolTableRecord
100
AcDbLayerTableRecord
2
80
70
0
62
-6
6
CONTINUOUS
290
1
370
-3
390
0
0
LAYER
5
6F
100
AcDbSymbolTableRecord
100
AcDbLayerTableRecord
2
81
70
0
62
-3
6
CONTINUOUS
290
1
370
-3
390
0
0
LAYER
5
72
100
AcDbSymbolTableRecord
100
AcDbLayerTableRecord
2
4
70
0
62
-2
6
CENTER
290
1
370
-3
390
0
0
LAYER
5
7F
100
AcDbSymbolTableRecord
100
AcDbLayerTableRecord
2
1
70
0
62
4
6
CONTINUOUS
290
1
370
-3
390
0
0
LAYER
5
12A
100
AcDbSymbolTableRecord
100
AcDbLayerTableRecord
2
2
70
0
62
7
6
CONTINUOUS
290
1
370
-3
390
0
0
LAYER
5
1a2
100
AcDbSymbolTableRecord
100
AcDbLayerTableRecord
2
SK4
70
0
62
2
6
CENTER
290
1
370
-3
390
0
0
LAYER
5
1a3
100
AcDbSymbolTableRecord
100
AcDbLayerTableRecord
2
SK1
70
0
62
4
6
CONTINUOUS
290
1
370
-3
390
0
0
LAYER
5
1a4
100
AcDbSymbolTableRecord
100
AcDbLayerTableRecord
2
SK6
70
0
62
5
6
CONTINUOUS
290
1
370
-3
390
0
0
LAYER
5
1a5
100
AcDbSymbolTableRecord
100
AcDbLayerTableRecord
2
SK2
70
0
62
7
6
CONTINUOUS
290
1
370
-3
390
0
0
ENDTAB
0
TABLE
2
STYLE
5
1b9
100
AcDbSymbolTable
0
STYLE
5
11
100
AcDbSymbolTableRecord
100
AcDbTextStyleTableRecord
2
Standard
3
txt
70
0
71
0
40
0
41
1
42
0
50
0
0
STYLE
5
125
100
AcDbSymbolTableRecord
100
AcDbTextStyleTableRecord
2
iso_b_vert
3
simplex.shx
70
0
71
0
40
0
41
1
42
0
50
0
0
STYLE
5
126
100
AcDbSymbolTableRecord
100
AcDbTextStyleTableRecord
2
DWGDirectTextStyle
3
simplex
70
0
71
0
40
0
41
1
42
0
50
0
0
ENDTAB
0
TABLE
2
DIMSTYLE
5
1ba
100
AcDbSymbolTable
100
AcDbDimStyleTable
0
DIMSTYLE
105
27
100
AcDbSymbolTableRecord
100
AcDbDimStyleTableRecord
2
Standard
70
0
3
<>
41
0.18
42
0.0625
44
0.18
140
0.18
147
0.09
73
0
74
0
77
1
271
2
275
0
278
52
280
0
340
11
0
ENDTAB
0
TABLE
2
VIEW
5
1bb
100
AcDbSymbolTable
0
ENDTAB
0
TABLE
2
UCS
5
1bc
100
AcDbSymbolTable
0
ENDTAB
0
TABLE
2
APPID
5
1bd
100
AcDbSymbolTable
0
APPID
5
12
100
AcDbSymbolTableRecord
100
AcDbRegAppTableRecord
2
ACAD
70
0
0
ENDTAB
0
TABLE
2
BLOCK_RECORD
5
1be
100
AcDbSymbolTable
0
BLOCK_RECORD
5
1F
100
AcDbSymbolTableRecord
100
AcDbBlockTableRecord
2
*Model_Space
340
0
70
0
0
BLOCK_RECORD
5
1B
100
AcDbSymbolTableRecord
100
AcDbBlockTableRecord
2
*Paper_Space
340
0
70
0
0
BLOCK_RECORD
5
23
100
AcDbSymbolTableRecord
100
AcDbBlockTableRecord
2
*Paper_Space0
340
0
70
0
0
BLOCK_RECORD
5
128
100
AcDbSymbolTableRecord
100
AcDbBlockTableRecord
2
DimnDraft3D1
340
0
70
0
0
BLOCK_RECORD
5
133
100
AcDbSymbolTableRecord
100
AcDbBlockTableRecord
2
DimnDraft3D2
340
0
70
0
0
BLOCK_RECORD
5
13F
100
AcDbSymbolTableRecord
100
AcDbBlockTableRecord
2
DimnDraft3D3
340
0
70
0
0
ENDTAB
0
ENDSEC
0
SECTION
2
BLOCKS
0
BLOCK
5
20
100
AcDbEntity
8
0
100
AcDbBlockBegin
2
*Model_Space
70
0
10
0
20
0
30
0
3
*Model_Space
0
ENDBLK
5
21
100
AcDbEntity
8
0
100
AcDbBlockEnd
0
BLOCK
5
1C
100
AcDbEntity
8
0
100
AcDbBlockBegin
2
*Paper_Space
70
0
10
0
20
0
30
0
3
*Paper_Space
0
ENDBLK
5
1D
100
AcDbEntity
8
0
100
AcDbBlockEnd
0
BLOCK
5
24
100
AcDbEntity
8
0
100
AcDbBlockBegin
2
*Paper_Space0
70
0
10
0
20
0
30
0
3
*Paper_Space0
0
ENDBLK
5
25
100
AcDbEntity
8
0
100
AcDbBlockEnd
0
BLOCK
5
130
100
AcDbEntity
8
0
100
AcDbBlockBegin
2
DimnDraft3D1
70
0
10
0
20
0
30
0
3
DimnDraft3D1
0
MTEXT
5
129
100
AcDbEntity
8
2
62
256
6
ByLayer
370
13
48
1
60
0
100
AcDbMText
10
114.543553
20
22.101999
30
0
210
0
220
0
230
1
1
\W0.7411;234
40
3.175
41
0
44
1.084337
50
0
71
7
72
5
7
iso_b_vert
0
LINE
5
12B
100
AcDbEntity
8
2
62
256
6
ByLayer
370
13
48
1
60
0
100
AcDbLine
10
0
20
1.5875
30
0
11
0
21
24.483249
31
0
39
0
210
0
220
0
230
1
0
LINE
5
12C
100
AcDbEntity
8
2
62
256
6
ByLayer
370
13
48
1
60
0
100
AcDbLine
10
234
20
1.5875
30
0
11
234
21
24.483249
31
0
39
0
210
0
220
0
230
1
0
LINE
5
12D
100
AcDbEntity
8
2
62
256
6
ByLayer
370
13
48
1
60
0
100
AcDbLine
10
0
20
21.308249
30
0
11
234
21
21.308249
31
0
39
0
210
0
220
0
230
1
0
SOLID
5
12E
100
AcDbEntity
8
2
62
256
6
ByLayer
370
13
48
1
60
0
100
AcDbTrace
10
0
20
21.308249
30
0
11
3.174998
21
21.726246
31
0
12
3.175002
22
20.890252
32
0
13
0
23
21.308249
33
0
39
0
210
0
220
0
230
1
0
SOLID
5
12F
100
AcDbEntity
8
2
62
256
6
ByLayer
370
13
48
1
60
0
100
AcDbTrace
10
234
20
21.308249
30
0
11
230.825002
21
20.890252
31
0
12
230.824998
22
21.726246
32
0
13
234
23
21.308249
33
0
39
0
210
0
220
0
230
1
0
ENDBLK
5
131
100
AcDbEntity
8
0
100
AcDbBlockEnd
0
BLOCK
5
13C
100
AcDbEntity
8
0
100
AcDbBlockBegin
2
DimnDraft3D2
70
0
10
0
20
0
30
0
3
DimnDraft3D2
0
MTEXT
5
134
100
AcDbEntity
8
SK2
62
256
6
ByLayer
370
13
48
1
60
0
100
AcDbMText
10
-119.42755
20
-6.166445
30
0
210
0
220
0
230
1
1
%%c
40
3.175
41
0
44
1.084337
50
90
71
7
72
5
7
iso_b_vert
0
MTEXT
5
136
100
AcDbEntity
8
SK2
62
256
6
ByLayer
370
13
48
1
60
0
100
AcDbMText
10
-119.42755
20
1.74625
30
0
210
0
220
0
230
1
1
\W0.7383;25,4
40
3.175
41
0
44
1.084337
50
90
71
7
72
5
7
iso_b_vert
0
LINE
5
137
100
AcDbEntity
8
SK2
62
256
6
ByLayer
370
13
48
1
60
0
100
AcDbLine
10
-102.1875
20
12.7
30
0
11
-121.01505
21
12.7
31
0
39
0
210
0
220
0
230
1
0
LINE
5
138
100
AcDbEntity
8
SK2
62
256
6
ByLayer
370
13
48
1
60
0
100
AcDbLine
10
-102.1875
20
-12.7
30
0
11
-121.01505
21
-12.7
31
0
39
0
210
0
220
0
230
1
0
LINE
5
139
100
AcDbEntity
8
SK2
62
256
6
ByLayer
370
13
48
1
60
0
100
AcDbLine
10
-117.84005
20
12.7
30
0
11
-117.84005
21
-12.7
31
0
39
0
210
0
220
0
230
1
0
SOLID
5
13A
100
AcDbEntity
8
SK2
62
256
6
ByLayer
370
13
48
1
60
0
100
AcDbTrace
10
-117.84005
20
12.7
30
0
11
-117.422054
21
9.525002
31
0
12
-118.258047
22
9.524998
32
0
13
-117.84005
23
12.7
33
0
39
0
210
0
220
0
230
1
0
SOLID
5
13B
100
AcDbEntity
8
SK2
62
256
6
ByLayer
370
13
48
1
60
0
100
AcDbTrace
10
-117.84005
20
-12.7
30
0
11
-118.258047
21
-9.525002
31
0
12
-117.422054
22
-9.524998
32
0
13
-117.84005
23
-12.7
33
0
39
0
210
0
220
0
230
1
0
ENDBLK
5
13D
100
AcDbEntity
8
0
100
AcDbBlockEnd
0
BLOCK
5
146
100
AcDbEntity
8
0
100
AcDbBlockBegin
2
DimnDraft3D3
70
0
10
0
20
0
30
0
3
DimnDraft3D3
0
MTEXT
5
140
100
AcDbEntity
8
SK2
62
256
6
ByLayer
370
13
48
1
60
0
100
AcDbMText
10
62.164408
20
31.090554
30
0
210
0
220
0
230
1
1
\W0.7317;335,6
40
3.175
41
0
44
1.084337
50
0
71
7
72
5
7
iso_b_vert
0
LINE
5
141
100
AcDbEntity
8
SK2
62
256
6
ByLayer
370
13
48
1
60
0
100
AcDbLine
10
-101.6
20
13.2875
30
0
11
-101.6
21
33.471804
31
0
39
0
210
0
220
0
230
1
0
LINE
5
142
100
AcDbEntity
8
SK2
62
256
6
ByLayer
370
13
48
1
60
0
100
AcDbLine
10
234
20
1.5875
30
0
11
234
21
33.471804
31
0
39
0
210
0
220
0
230
1
0
LINE
5
143
100
AcDbEntity
8
SK2
62
256
6
ByLayer
370
13
48
1
60
0
100
AcDbLine
10
-101.6
20
30.296804
30
0
11
234
21
30.296804
31
0
39
0
210
0
220
0
230
1
0
SOLID
5
144
100
AcDbEntity
8
SK2
62
256
6
ByLayer
370
13
48
1
60
0
100
AcDbTrace
10
-101.6
20
30.296804
30
0
11
-98.425002
21
30.7148
31
0
12
-98.424998
22
29.878807
32
0
13
-101.6
23
30.296804
33
0
39
0
210
0
220
0
230
1
0
SOLID
5
145
100
AcDbEntity
8
SK2
62
256
6
ByLayer
370
13
48
1
60
0
100
AcDbTrace
10
234
20
30.296804
30
0
11
230.825002
21
29.878807
31
0
12
230.824998
22
30.7148
32
0
13
234
23
30.296804
33
0
39
0
210
0
220
0
230
1
0
ENDBLK
5
147
100
AcDbEntity
8
0
100
AcDbBlockEnd
0
ENDSEC
0
SECTION
2
ENTITIES
0
ARC
5
D5
100
AcDbEntity
8
1
62
256
6
ByLayer
370
18
48
1
60
0
100
AcDbCircle
39
0
10
231.8
20
-12.5
30
0
40
0.2
210
0
220
0
230
1
100
AcDbArc
50
270
51
0
0
ARC
5
D6
100
AcDbEntity
8
1
62
256
6
ByLayer
370
18
48
1
60
0
100
AcDbCircle
39
0
10
231.8
20
12.5
30
0
40
0.2
210
0
220
0
230
1
100
AcDbArc
50
0
51
90
0
CIRCLE
5
D4
100
AcDbEntity
8
1
62
256
6
ByLayer
370
18
48
1
60
0
100
AcDbCircle
10
225
20
0
30
0
40
1
39
0
210
0
220
0
230
1
0
POINT
5
6C
100
AcDbEntity
8
80
62
256
6
ByLayer
370
18
48
1
60
0
100
AcDbPoint
10
0
20
0
30
0
39
0
210
0
220
0
230
1
50
360
0
POINT
5
6E
100
AcDbEntity
8
81
62
256
6
ByLayer
370
18
48
1
60
0
100
AcDbPoint
10
234
20
0
30
0
39
0
210
0
220
0
230
1
50
360
0
SPLINE
5
D7
100
AcDbEntity
8
1
62
256
6
ByLayer
370
18
48
1
60
0
100
AcDbSpline
70
4
71
3
72
12
73
8
40
0
40
0
40
0
40
0
40
0.212342452400196
40
0.43018627050085
40
0.64300452486121
40
0.863231433304369
40
1
40
1
40
1
40
1
41
1
10
233.73225
20
-1.90922439219867
30
0
41
1
10
233.826753702741
20
-1.65090671110619
30
0
41
1
10
233.978480160896
20
-1.11795267676481
30
0
41
1
10
234.095601023944
20
-0.282073899951039
30
0
41
1
10
234.070949494927
20
0.573348961441313
30
0
41
1
10
233.928477638973
20
1.30481517728399
30
0
41
1
10
233.792216135792
20
1.74346016747607
30
0
41
1
10
233.73225
20
1.90922439219892
30
0
0
SPLINE
5
D8
100
AcDbEntity
8
1
62
256
6
ByLayer
370
18
48
1
60
0
100
AcDbSpline
70
4
71
3
72
18
73
14
40
0
40
0
40
0
40
0
40
0.0326643682768725
40
0.0593649449702358
40
0.088932846136275
40
0.101313097894629
40
0.113818430716121
40
0.124828248460275
40
0.138148255483375
40
0.161630793566825
40
0.236717502519949
40
0.584403938979362
40
1
40
1
40
1
40
1
41
1
10
233.73225
20
1.90922439219888
30
0
41
1
10
233.729825978513
20
1.91629660101585
30
0
41
1
10
233.72491949756
20
1.92877369274701
30
0
41
1
10
233.71653399294
20
1.9467034853714
30
0
41
1
10
233.708528173341
20
1.95936805768575
30
0
41
1
10
233.7005689347
20
1.96649344454265
30
0
41
1
10
233.694603797344
20
1.96878348560476
30
0
41
1
10
233.688626539386
20
1.9675294909742
30
0
41
1
10
233.682162081733
20
1.96203219793266
30
0
41
1
10
233.671375770537
20
1.94258304084086
30
0
41
1
10
233.649963108624
20
1.84677148708303
30
0
41
1
10
233.643724627709
20
1.6544307355053
30
0
41
1
10
233.638559455426
20
1.48044491159348
30
0
41
1
10
233.641035411417
20
1.38405979442034
30
0
0
SPLINE
5
D9
100
AcDbEntity
8
1
62
256
6
ByLayer
370
18
48
1
60
0
100
AcDbSpline
70
4
71
1
72
4
73
2
40
0
40
0
40
1
40
1
41
1
10
233.521
20
12.6111062163476
30
0
41
1
10
233.891512701892
20
12.2379024769035
30
0
0
SPLINE
5
DA
100
AcDbEntity
8
1
62
256
6
ByLayer
370
18
48
1
60
0
100
AcDbSpline
70
4
71
1
72
4
73
2
40
0
40
0
40
1
40
1
41
1
10
233.891512701892
20
12.2379024769035
30
0
41
1
10
234.271
20
11.8257010440132
30
0
0
SPLINE
5
DB
100
AcDbEntity
8
1
62
256
6
ByLayer
370
18
48
1
60
0
100
AcDbSpline
70
4
71
1
72
4
73
2
40
0
40
0
40
1
40
1
41
1
10
234.271
20
11.7761595346382
30
0
41
1
10
233.73225
20
12.2671979300879
30
0
0
SPLINE
5
DC
100
AcDbEntity
8
1
62
256
6
ByLayer
370
18
48
1
60
0
100
AcDbSpline
70
4
71
3
72
12
73
8
40
0
40
0
40
0
40
0
40
0.291868687794672
40
0.548525342365448
40
0.764411483698259
40
0.980869856428249
40
1
40
1
40
1
40
1
41
1
10
233.73225
20
12.2671979300879
30
0
41
1
10
233.717994187605
20
12.2802369521578
30
0
41
1
10
233.693643502483
20
12.3013544644717
30
0
41
1
10
233.663816740764
20
12.3242694216095
30
0
41
1
10
233.645689491118
20
12.3341218075645
30
0
41
1
10
233.641164191505
20
12.3324048076893
30
0
41
1
10
233.640999249745
20
12.329342277456
30
0
41
1
10
233.641000005089
20
12.3290788129304
30
0
0
SPLINE
5
DD
100
AcDbEntity
8
1
62
256
6
ByLayer
370
18
48
1
60
0
100
AcDbSpline
70
4
71
1
72
4
73
2
40
0
40
0
40
1
40
1
41
1
10
233.73225
20
12.2026082742194
30
0
41
1
10
234.271
20
11.5752737526196
30
0
0
SPLINE
5
DE
100
AcDbEntity
8
1
62
256
6
ByLayer
370
18
48
1
60
0
100
AcDbSpline
70
4
71
1
72
4
73
2
40
0
40
0
40
1
40
1
41
1
10
234.271
20
11.4907865753194
30
0
41
1
10
233.73225
20
11.9610521755584
30
0
0
SPLINE
5
DF
100
AcDbEntity
8
1
62
256
6
ByLayer
370
18
48
1
60
0
100
AcDbSpline
70
4
71
3
72
12
73
8
40
0
40
0
40
0
40
0
40
0.263337640223789
40
0.508820376553219
40
0.756142588002206
40
0.965447857107636
40
1
40
1
40
1
40
1
41
1
10
233.73225
20
11.9610521755584
30
0
41
1
10
233.719391081884
20
11.9723697934582
30
0
41
1
10
233.696468575438
20
11.991026913115
30
0
41
1
10
233.665739404482
20
12.0118561802877
30
0
41
1
10
233.646251013103
20
12.0185761994731
30
0
41
1
10
233.641282428938
20
12.013407254214
30
0
41
1
10
233.640995808139
20
12.0087410730217
30
0
41
1
10
233.641000052969
20
12.0080329697587
30
0
0
SPLINE
5
E0
100
AcDbEntity
8
1
62
256
6
ByLayer
370
18
48
1
60
0
100
AcDbSpline
70
4
71
1
72
4
73
2
40
0
40
0
40
1
40
1
41
1
10
233.73225
20
11.8615355078324
30
0
41
1
10
234.271
20
11.1804167951733
30
0
0
SPLINE
5
E1
100
AcDbEntity
8
1
62
256
6
ByLayer
370
18
48
1
60
0
100
AcDbSpline
70
4
71
1
72
4
73
2
40
0
40
0
40
1
40
1
41
1
10
234.271
20
11.057731180212
30
0
41
1
10
233.73225
20
11.5119239589613
30
0
0
SPLINE
5
E2
100
AcDbEntity
8
1
62
256
6
ByLayer
370
18
48
1
60
0
100
AcDbSpline
70
4
71
3
72
11
73
7
40
0
40
0
40
0
40
0
40
0.260010317940303
40
0.518017347519798
40
0.777835544276787
40
1
40
1
40
1
40
1
41
1
10
233.73225
20
11.5119239589612
30
0
41
1
10
233.720795170614
20
11.521703794028
30
0
41
1
10
233.69942856974
20
11.538187585994
30
0
41
1
10
233.669741980686
20
11.5561838542452
30
0
41
1
10
233.649372254718
20
11.5605273308232
30
0
41
1
10
233.643384713857
20
11.5550387266169
30
0
41
1
10
233.641984983739
20
11.5507841334704
30
0
0
SPLINE
5
E3
100
AcDbEntity
8
1
62
256
6
ByLayer
370
18
48
1
60
0
100
AcDbSpline
70
4
71
1
72
4
73
2
40
0
40
0
40
1
40
1
41
1
10
233.641984983739
20
11.5507841334703
30
0
41
1
10
233.641000839633
20
11.543432879025
30
0
0
SPLINE
5
E4
100
AcDbEntity
8
1
62
256
6
ByLayer
370
18
48
1
60
0
100
AcDbSpline
70
4
71
1
72
4
73
2
40
0
40
0
40
1
40
1
41
1
10
233.73225
20
11.3738032563032
30
0
41
1
10
234.271
20
10.6250400930773
30
0
0
SPLINE
5
E5
100
AcDbEntity
8
1
62
256
6
ByLayer
370
18
48
1
60
0
100
AcDbSpline
70
4
71
1
72
4
73
2
40
0
40
0
40
1
40
1
41
1
10
234.271
20
10.458664426595
30
0
41
1
10
233.73225
20
10.9021565448027
30
0
0
SPLINE
5
E6
100
AcDbEntity
8
1
62
256
6
ByLayer
370
18
48
1
60
0
100
AcDbSpline
70
4
71
3
72
11
73
7
40
0
40
0
40
0
40
0
40
0.246491366220829
40
0.508691579468068
40
0.772648502752108
40
1
40
1
40
1
40
1
41
1
10
233.73225
20
10.9021565448025
30
0
41
1
10
233.722233855704
20
10.9105386735914
30
0
41
1
10
233.702595120767
20
10.9251035548159
30
0
41
1
10
233.674264809101
20
10.9407264088759
30
0
41
1
10
233.653295691018
20
10.9432700868974
30
0
41
1
10
233.646022642936
20
10.9371462800134
30
0
41
1
10
233.643851910072
20
10.9326501369195
30
0
0
SPLINE
5
E7
100
AcDbEntity
8
1
62
256
6
ByLayer
370
18
48
1
60
0
100
AcDbSpline
70
4
71
1
72
4
73
2
40
0
40
0
40
1
40
1
41
1
10
233.643851910072
20
10.9326501369195
30
0
41
1
10
233.641001186725
20
10.9172177276487
30
0
0
SPLINE
5
E8
100
AcDbEntity
8
1
62
256
6
ByLayer
370
18
48
1
60
0
100
AcDbSpline
70
4
71
1
72
4
73
2
40
0
40
0
40
1
40
1
41
1
10
233.73225
20
10.7194111975713
30
0
41
1
10
234.271
20
9.8821168908898
30
0
0
SPLINE
5
E9
100
AcDbEntity
8
1
62
256
6
ByLayer
370
18
48
1
60
0
100
AcDbSpline
70
4
71
1
72
4
73
2
40
0
40
0
40
1
40
1
41
1
10
234.271
20
9.66275862900524
30
0
41
1
10
233.73225
20
10.1027046585486
30
0
0
SPLINE
5
EA
100
AcDbEntity
8
1
62
256
6
ByLayer
370
18
48
1
60
0
100
AcDbSpline
70
4
71
3
72
13
73
9
40
0
40
0
40
0
40
0
40
0.170622138806058
40
0.367593923944583
40
0.56587837701409
40
0.736793323095309
40
0.977647065975986
40
1
40
1
40
1
40
1
41
1
10
233.732250000001
20
10.1027046585483
30
0
41
1
10
233.723740041421
20
10.1097905894076
30
0
41
1
10
233.706057183666
20
10.1226600744143
30
0
41
1
10
233.679479031852
20
10.1363735916442
30
0
41
1
10
233.658256449653
20
10.1378270462332
30
0
41
1
10
233.644331783672
20
10.1266455750499
30
0
41
1
10
233.641137564145
20
10.111249553224
30
0
41
1
10
233.640996416795
20
10.1005645775965
30
0
41
1
10
233.641000159986
20
10.0996421302452
30
0
0
SPLINE
5
EB
100
AcDbEntity
8
1
62
256
6
ByLayer
370
18
48
1
60
0
100
AcDbSpline
70
4
71
1
72
4
73
2
40
0
40
0
40
1
40
1
41
1
10
233.73225
20
9.86524973490991
30
0
41
1
10
234.271
20
8.90482967332436
30
0
0
SPLINE
5
EC
100
AcDbEntity
8
1
62
256
6
ByLayer
370
18
48
1
60
0
100
AcDbSpline
70
4
71
1
72
4
73
2
40
0
40
0
40
1
40
1
41
1
10
234.271
20
8.61563387434184
30
0
41
1
10
233.73225
20
9.0635128679964
30
0
0
SPLINE
5
ED
100
AcDbEntity
8
1
62
256
6
ByLayer
370
18
48
1
60
0
100
AcDbSpline
70
4
71
3
72
13
73
9
40
0
40
0
40
0
40
0
40
0.134568478843514
40
0.332742749472269
40
0.506712838892151
40
0.654336490959321
40
0.886020121414417
40
1
40
1
40
1
40
1
41
1
10
233.732250000002
20
9.06351286799572
30
0
41
1
10
233.725346555785
20
9.06938292899118
30
0
41
1
10
233.708675736118
20
9.08166681073369
30
0
41
1
10
233.682987834669
20
9.09424134855201
30
0
41
1
10
233.661836464173
20
9.09313390033246
30
0
41
1
10
233.647214157717
20
9.07996703075885
30
0
41
1
10
233.641756340031
20
9.05951922974132
30
0
41
1
10
233.640887229619
20
9.04306765750714
30
0
41
1
10
233.641004207857
20
9.03726202558076
30
0
0
SPLINE
5
EE
100
AcDbEntity
8
1
62
256
6
ByLayer
370
18
48
1
60
0
100
AcDbSpline
70
4
71
1
72
4
73
2
40
0
40
0
40
1
40
1
41
1
10
233.73225
20
8.75302966073253
30
0
41
1
10
234.271
20
7.60333800226102
30
0
0
SPLINE
5
EF
100
AcDbEntity
8
1
62
256
6
ByLayer
370
18
48
1
60
0
100
AcDbSpline
70
4
71
1
72
4
73
2
40
0
40
0
40
1
40
1
41
1
10
234.271
20
7.20863300432184
30
0
41
1
10
233.73225
20
7.68797044731657
30
0
0
SPLINE
5
F0
100
AcDbEntity
8
1
62
256
6
ByLayer
370
18
48
1
60
0
100
AcDbSpline
70
4
71
3
72
14
73
10
40
0
40
0
40
0
40
0
40
0.0964692380690888
40
0.254189780891203
40
0.372894232367577
40
0.4914452842146
40
0.663456992915501
40
0.957187884507325
40
1
40
1
40
1
40
1
41
1
10
233.732250000005
20
7.68797044731405
30
0
41
1
10
233.727148129272
20
7.69259818563388
30
0
41
1
10
233.713757475291
20
7.70319365391012
30
0
41
1
10
233.693190968887
20
7.71436725261483
30
0
41
1
10
233.673728756758
20
7.71572926996128
30
0
41
1
10
233.658098232838
20
7.70747045522907
30
0
41
1
10
233.644515425087
20
7.6834603429068
30
0
41
1
10
233.641228298424
20
7.65448388373703
30
0
41
1
10
233.640984691784
20
7.63432966801061
30
0
41
1
10
233.641001174382
20
7.63172823041744
30
0
0
SPLINE
5
F1
100
AcDbEntity
8
1
62
256
6
ByLayer
370
18
48
1
60
0
100
AcDbSpline
70
4
71
2
72
6
73
3
40
0
40
0
40
0
40
1
40
1
40
1
41
1
10
233.73225
20
7.26518438521602
30
0
41
1
10
234.025892766766
20
6.52518347357885
30
0
41
1
10
234.271
20
5.76198802865254
30
0
0
SPLINE
5
F2
100
AcDbEntity
8
1
62
256
6
ByLayer
370
18
48
1
60
0
100
AcDbSpline
70
4
71
1
72
4
73
2
40
0
40
0
40
1
40
1
41
1
10
234.271
20
5.15505892549148
30
0
41
1
10
233.73225
20
5.73912133425402
30
0
0
SPLINE
5
F3
100
AcDbEntity
8
1
62
256
6
ByLayer
370
18
48
1
60
0
100
AcDbSpline
70
4
71
3
72
14
73
10
40
0
40
0
40
0
40
0
40
0.114792264512277
40
0.195036414522181
40
0.275793051430295
40
0.349569313876831
40
0.466060762003407
40
0.683925762881846
40
1
40
1
40
1
40
1
41
1
10
233.73225000002
20
5.73912133423936
30
0
41
1
10
233.725431113286
20
5.74676968885651
30
0
41
1
10
233.713573081171
20
5.75697163474248
30
0
41
1
10
233.695460398367
20
5.76629236584051
30
0
41
1
10
233.680760027397
20
5.76677090520941
30
0
41
1
10
233.666975020482
20
5.75906857213385
30
0
41
1
10
233.652693822933
20
5.73711342486764
30
0
41
1
10
233.642593405833
20
5.68962233092924
30
0
41
1
10
233.639718723722
20
5.64800481852039
30
0
41
1
10
233.64105031946
20
5.62104933530478
30
0
0
SPLINE
5
F4
100
AcDbEntity
8
1
62
256
6
ByLayer
370
18
48
1
60
0
100
AcDbSpline
70
4
71
3
72
11
73
7
40
0
40
0
40
0
40
0
40
0.249092836537031
40
0.498523764454331
40
0.749058579156515
40
1
40
1
40
1
40
1
41
1
10
233.73225
20
5.08185793393618
30
0
41
1
10
233.791936387741
20
4.85827379493223
30
0
41
1
10
233.904071562251
20
4.4085851740999
30
0
41
1
10
234.051080111182
20
3.72596266872164
30
0
41
1
10
234.175265048005
20
3.03550560974937
30
0
41
1
10
234.241763767162
20
2.57108559271087
30
0
41
1
10
234.271
20
2.33779026177365
30
0
0
SPLINE
5
F5
100
AcDbEntity
8
1
62
256
6
ByLayer
370
18
48
1
60
0
100
AcDbSpline
70
4
71
3
72
11
73
7
40
0
40
0
40
0
40
0
40
0.249024108519608
40
0.498456979013144
40
0.749050823343062
40
1
40
1
40
1
40
1
41
1
10
234.271
20
-2.33779026177365
30
0
41
1
10
234.241988753464
20
-2.56930139888628
30
0
41
1
10
234.175952279304
20
-3.03093781647747
30
0
41
1
10
234.052310636326
20
-3.7197417575437
30
0
41
1
10
233.905143316457
20
-4.4041770514807
30
0
41
1
10
233.792383103968
20
-4.85660635795744
30
0
41
1
10
233.73225
20
-5.08185793393618
30
0
0
SPLINE
5
F6
100
AcDbEntity
8
1
62
256
6
ByLayer
370
18
48
1
60
0
100
AcDbSpline
70
4
71
3
72
10
73
6
40
0
40
0
40
0
40
0
40
0.573635224452813
40
0.912288385484674
40
1
40
1
40
1
40
1
41
1
10
233.73225
20
-5.08185793393619
30
0
41
1
10
233.702543570718
20
-5.18842318990013
30
0
41
1
10
233.667567680334
20
-5.35501024553584
30
0
41
1
10
233.643375244372
20
-5.53689602453832
30
0
41
1
10
233.641208661346
20
-5.61112215905744
30
0
41
1
10
233.641007948308
20
-5.62631086390284
30
0
0
SPLINE
5
F7
100
AcDbEntity
8
1
62
256
6
ByLayer
370
18
48
1
60
0
100
AcDbSpline
70
4
71
1
72
4
73
2
40
0
40
0
40
1
40
1
41
1
10
233.73225
20
-5.73912133424634
30
0
41
1
10
234.271
20
-5.15505892549149
30
0
0
SPLINE
5
F8
100
AcDbEntity
8
1
62
256
6
ByLayer
370
18
48
1
60
0
100
AcDbSpline
70
4
71
2
72
6
73
3
40
0
40
0
40
0
40
1
40
1
40
1
41
1
10
234.271
20
-5.76198802865254
30
0
41
1
10
234.025893881554
20
-6.52518315559715
30
0
41
1
10
233.73225
20
-7.26518438521602
30
0
0
SPLINE
5
F9
100
AcDbEntity
8
1
62
256
6
ByLayer
370
18
48
1
60
0
100
AcDbSpline
70
4
71
2
72
6
73
3
40
0
40
0
40
0
40
1
40
1
40
1
41
1
10
233.73225
20
-7.26518438521603
30
0
41
1
10
233.647831049236
20
-7.46234608469078
30
0
41
1
10
233.641000846597
20
-7.63185827378845
30
0
0
SPLINE
5
FA
100
AcDbEntity
8
1
62
256
6
ByLayer
370
18
48
1
60
0
100
AcDbSpline
70
4
71
1
72
4
73
2
40
0
40
0
40
1
40
1
41
1
10
233.73225
20
-7.68797044731657
30
0
41
1
10
234.271
20
-7.20863300432184
30
0
0
SPLINE
5
FB
100
AcDbEntity
8
1
62
256
6
ByLayer
370
18
48
1
60
0
100
AcDbSpline
70
4
71
1
72
4
73
2
40
0
40
0
40
1
40
1
41
1
10
234.271
20
-7.60333800226102
30
0
41
1
10
233.73225
20
-8.75302966073253
30
0
0
SPLINE
5
FC
100
AcDbEntity
8
1
62
256
6
ByLayer
370
18
48
1
60
0
100
AcDbSpline
70
4
71
3
72
10
73
6
40
0
40
0
40
0
40
0
40
0.632037975297457
40
0.95978674440297
40
1
40
1
40
1
40
1
41
1
10
233.73225
20
-8.75302966073253
30
0
41
1
10
233.698302366017
20
-8.81852111641375
30
0
41
1
10
233.662394720467
20
-8.91123693419944
30
0
41
1
10
233.641844495259
20
-9.00485840689396
30
0
41
1
10
233.641033680903
20
-9.03463128742776
30
0
41
1
10
233.641001098734
20
-9.03785315501413
30
0
0
SPLINE
5
FD
100
AcDbEntity
8
1
62
256
6
ByLayer
370
18
48
1
60
0
100
AcDbSpline
70
4
71
1
72
4
73
2
40
0
40
0
40
1
40
1
41
1
10
233.73225
20
-9.0635128679964
30
0
41
1
10
234.271
20
-8.61563387434184
30
0
0
SPLINE
5
FE
100
AcDbEntity
8
1
62
256
6
ByLayer
370
18
48
1
60
0
100
AcDbSpline
70
4
71
1
72
4
73
2
40
0
40
0
40
1
40
1
41
1
10
234.271
20
-8.90482967332436
30
0
41
1
10
233.73225
20
-9.86524973490991
30
0
0
SPLINE
5
FF
100
AcDbEntity
8
1
62
256
6
ByLayer
370
18
48
1
60
0
100
AcDbSpline
70
4
71
3
72
10
73
6
40
0
40
0
40
0
40
0
40
0.552520515315962
40
0.825972592911381
40
1
40
1
40
1
40
1
41
1
10
233.73225
20
-9.86524973490991
30
0
41
1
10
233.703700110458
20
-9.91306481046192
30
0
41
1
10
233.671123120581
20
-9.98016276001743
30
0
41
1
10
233.645165790702
20
-10.058170825945
30
0
41
1
10
233.641499012251
20
-10.0877113082803
30
0
41
1
10
233.641006710244
20
-10.0986510915491
30
0
0
SPLINE
5
100
100
AcDbEntity
8
1
62
256
6
ByLayer
370
18
48
1
60
0
100
AcDbSpline
70
4
71
1
72
4
73
2
40
0
40
0
40
1
40
1
41
1
10
233.73225
20
-10.1027046585486
30
0
41
1
10
234.271
20
-9.66275862900524
30
0
0
SPLINE
5
101
100
AcDbEntity
8
1
62
256
6
ByLayer
370
18
48
1
60
0
100
AcDbSpline
70
4
71
1
72
4
73
2
40
0
40
0
40
1
40
1
41
1
10
234.271
20
-9.8821168908898
30
0
41
1
10
233.73225
20
-10.7194111975713
30
0
0
SPLINE
5
102
100
AcDbEntity
8
1
62
256
6
ByLayer
370
18
48
1
60
0
100
AcDbSpline
70
4
71
3
72
10
73
6
40
0
40
0
40
0
40
0
40
0.522670114708286
40
0.805639224289027
40
1
40
1
40
1
40
1
41
1
10
233.73225
20
-10.7194111975713
30
0
41
1
10
233.705320107117
20
-10.7592999609885
30
0
41
1
10
233.673032566681
20
-10.8160934268213
30
0
41
1
10
233.64555966647
20
-10.8827920897846
30
0
41
1
10
233.641494035087
20
-10.9079217314736
30
0
41
1
10
233.64100035416
20
-10.9173896479616
30
0
0
SPLINE
5
103
100
AcDbEntity
8
1
62
256
6
ByLayer
370
18
48
1
60
0
100
AcDbSpline
70
4
71
1
72
4
73
2
40
0
40
0
40
1
40
1
41
1
10
233.73225
20
-10.9021565448026
30
0
41
1
10
234.271
20
-10.458664426595
30
0
0
SPLINE
5
104
100
AcDbEntity
8
1
62
256
6
ByLayer
370
18
48
1
60
0
100
AcDbSpline
70
4
71
1
72
4
73
2
40
0
40
0
40
1
40
1
41
1
10
234.271
20
-10.6250400930773
30
0
41
1
10
233.73225
20
-11.3738032563032
30
0
0
SPLINE
5
105
100
AcDbEntity
8
1
62
256
6
ByLayer
370
18
48
1
60
0
100
AcDbSpline
70
4
71
3
72
11
73
7
40
0
40
0
40
0
40
0
40
0.477958696544596
40
0.768658571327939
40
0.994569126203493
40
1
40
1
40
1
40
1
41
1
10
233.73225
20
-11.3738032563032
30
0
41
1
10
233.707912117623
20
-11.4064245886518
30
0
41
1
10
233.676292209852
20
-11.4546654289693
30
0
41
1
10
233.647278539336
20
-11.5119668103304
30
0
41
1
10
233.641068070187
20
-11.5355254249533
30
0
41
1
10
233.641000369948
20
-11.5434549344775
30
0
41
1
10
233.64100001643
20
-11.5436400321235
30
0
0
SPLINE
5
106
100
AcDbEntity
8
1
62
256
6
ByLayer
370
18
48
1
60
0
100
AcDbSpline
70
4
71
1
72
4
73
2
40
0
40
0
40
1
40
1
41
1
10
233.73225
20
-11.5119239589613
30
0
41
1
10
234.271
20
-11.057731180212
30
0
0
SPLINE
5
107
100
AcDbEntity
8
1
62
256
6
ByLayer
370
18
48
1
60
0
100
AcDbSpline
70
4
71
1
72
4
73
2
40
0
40
0
40
1
40
1
41
1
10
234.271
20
-11.1804167951733
30
0
41
1
10
233.73225
20
-11.8615355078324
30
0
0
SPLINE
5
108
100
AcDbEntity
8
1
62
256
6
ByLayer
370
18
48
1
60
0
100
AcDbSpline
70
4
71
3
72
11
73
7
40
0
40
0
40
0
40
0
40
0.441184376125643
40
0.732255295431185
40
0.959612034007037
40
1
40
1
40
1
40
1
41
1
10
233.73225
20
-11.8615355078325
30
0
41
1
10
233.710051945947
20
-11.8888480533457
30
0
41
1
10
233.679496068309
20
-11.9301329856619
30
0
41
1
10
233.649703275679
20
-11.9788399386226
30
0
41
1
10
233.64154459302
20
-12.0000416276337
30
0
41
1
10
233.641014852395
20
-12.0069851610598
30
0
41
1
10
233.641000290319
20
-12.0079744816655
30
0
0
SPLINE
5
109
100
AcDbEntity
8
1
62
256
6
ByLayer
370
18
48
1
60
0
100
AcDbSpline
70
4
71
1
72
4
73
2
40
0
40
0
40
1
40
1
41
1
10
233.73225
20
-11.9610521755584
30
0
41
1
10
234.271
20
-11.4907865753194
30
0
0
SPLINE
5
10A
100
AcDbEntity
8
1
62
256
6
ByLayer
370
18
48
1
60
0
100
AcDbSpline
70
4
71
1
72
4
73
2
40
0
40
0
40
1
40
1
41
1
10
234.271
20
-11.5752737526196
30
0
41
1
10
233.73225
20
-12.2026082742194
30
0
0
SPLINE
5
10B
100
AcDbEntity
8
1
62
256
6
ByLayer
370
18
48
1
60
0
100
AcDbSpline
70
4
71
3
72
11
73
7
40
0
40
0
40
0
40
0
40
0.333664511202131
40
0.644629436142114
40
0.882461098189486
40
1
40
1
40
1
40
1
41
1
10
233.73225
20
-12.2026082742194
30
0
41
1
10
233.715867498697
20
-12.2213438528627
30
0
41
1
10
233.687903086979
20
-12.2548958931332
30
0
41
1
10
233.656639124828
20
-12.2965396961767
30
0
41
1
10
233.642938264733
20
-12.3198809750707
30
0
41
1
10
233.641099790131
20
-12.3271133555303
30
0
41
1
10
233.641000144196
20
-12.3290408888959
30
0
0
SPLINE
5
10C
100
AcDbEntity
8
1
62
256
6
ByLayer
370
18
48
1
60
0
100
AcDbSpline
70
4
71
1
72
4
73
2
40
0
40
0
40
1
40
1
41
1
10
233.73225
20
-12.2671979300879
30
0
41
1
10
234.271
20
-11.7761595346382
30
0
0
SPLINE
5
10D
100
AcDbEntity
8
1
62
256
6
ByLayer
370
18
48
1
60
0
100
AcDbSpline
70
4
71
1
72
4
73
2
40
0
40
0
40
1
40
1
41
1
10
234.271
20
-11.8257010440132
30
0
41
1
10
233.891512701876
20
-12.23790247692
30
0
0
SPLINE
5
10E
100
AcDbEntity
8
1
62
256
6
ByLayer
370
18
48
1
60
0
100
AcDbSpline
70
4
71
1
72
4
73
2
40
0
40
0
40
1
40
1
41
1
10
233.891512701876
20
-12.23790247692
30
0
41
1
10
233.521
20
-12.6111062163476
30
0
0
SPLINE
5
10F
100
AcDbEntity
8
1
62
256
6
ByLayer
370
18
48
1
60
0
100
AcDbSpline
70
4
71
3
72
13
73
9
40
0
40
0
40
0
40
0
40
0.112414701155463
40
0.32941394647478
40
0.545870183884285
40
0.761020560376529
40
0.974688448531271
40
1
40
1
40
1
40
1
41
1
10
232
20
12.4096736459909
30
0
41
1
10
232.000021410495
20
12.4216118313884
30
0
41
1
10
232.002972833154
20
12.455787454056
30
0
41
1
10
232.022570691588
20
12.5109167188127
30
0
41
1
10
232.066174047069
20
12.5645538761159
30
0
41
1
10
232.12481447442
20
12.6005289016795
30
0
41
1
10
232.172373842714
20
12.6106113874856
30
0
41
1
10
232.197345666632
20
12.6111059866826
30
0
41
1
10
232.2
20
12.6111062163476
30
0
0
SPLINE
5
110
100
AcDbEntity
8
1
62
256
6
ByLayer
370
18
48
1
60
0
100
AcDbSpline
70
4
71
3
72
13
73
9
40
0
40
0
40
0
40
0
40
0.147389999527597
40
0.278252761047938
40
0.492394684359425
40
0.706492761943099
40
0.92167702208671
40
1
40
1
40
1
40
1
41
1
10
232.2
20
-12.6111062163485
30
0
41
1
10
232.184267238549
20
-12.6110584025368
30
0
41
1
10
232.155422894919
20
-12.6076865922757
30
0
41
1
10
232.106303874887
20
-12.5905169060982
30
0
41
1
10
232.057373167059
20
-12.5563055462488
30
0
41
1
10
232.017276194228
20
-12.5006738614902
30
0
41
1
10
232.001844163353
20
-12.448516571716
30
0
41
1
10
232.000006371151
20
-12.4179466649958
30
0
41
1
10
231.999999999996
20
-12.4096736459914
30
0
0
SPLINE
5
111
100
AcDbEntity
8
1
62
256
6
ByLayer
370
18
48
1
60
0
100
AcDbSpline
70
4
71
3
72
16
73
12
40
0
40
0
40
0
40
0
40
0.661198069523037
40
0.803993588829984
40
0.832339785836856
40
0.846858827800167
40
0.861522136911077
40
0.87408204613862
40
0.891983535516234
40
0.925836799882283
40
1
40
1
40
1
40
1
41
1
10
233.641333093954
20
-1.5077896706749
30
0
41
1
10
233.62967245121
20
-1.63893075338856
30
0
41
1
10
233.64479097828
20
-1.78214596420684
30
0
41
1
10
233.667458701382
20
-1.93568579132436
30
0
41
1
10
233.68225000456
20
-1.96208484539083
30
0
41
1
10
233.688602661878
20
-1.96748542943588
30
0
41
1
10
233.694165042473
20
-1.96875922738907
30
0
41
1
10
233.700291114022
20
-1.96669923740582
30
0
41
1
10
233.708127522865
20
-1.95990212400851
30
0
41
1
10
233.72006197839
20
-1.94083314782237
30
0
41
1
10
233.728152332031
20
-1.92307736414052
30
0
41
1
10
233.73225
20
-1.90922439219824
30
0
0
SPLINE
5
112
100
AcDbEntity
8
1
62
256
6
ByLayer
370
18
48
1
60
0
100
AcDbSpline
70
4
71
3
72
13
73
9
40
0
40
0
40
0
40
0
40
0.0656988157525318
40
0.23096084721795
40
0.456410627274027
40
0.683103326781043
40
0.907382136680975
40
1
40
1
40
1
40
1
41
1
10
233.641035411417
20
1.38405979442034
30
0
41
1
10
233.640770862839
20
1.32083042018976
30
0
41
1
10
233.640231145325
20
1.09837845136889
30
0
41
1
10
233.654174120065
20
0.656813371154998
30
0
41
1
10
233.639908661431
20
0.0592208055783095
30
0
41
1
10
233.615800824001
20
-0.593284570647279
30
0
41
1
10
233.589087768841
20
-1.12552450360739
30
0
41
1
10
233.627509457219
20
-1.42178885044526
30
0
41
1
10
233.641333093954
20
-1.5077896706749
30
0
0
SPLINE
5
113
100
AcDbEntity
8
1
62
256
6
ByLayer
370
18
48
1
60
0
100
AcDbSpline
70
4
71
3
72
15
73
11
40
0
40
0
40
0
40
0
40
0.229637129468718
40
0.432619275021282
40
0.588408374854634
40
0.678725778350727
40
0.769902697076455
40
0.847228744277114
40
0.956374404503277
40
1
40
1
40
1
40
1
41
1
10
233.641007948308
20
-5.62631086390284
30
0
41
1
10
233.640573739586
20
-5.64501211443234
30
0
41
1
10
233.64214350717
20
-5.67865704893728
30
0
41
1
10
233.648581550894
20
-5.72211140628959
30
0
41
1
10
233.659816659667
20
-5.75032957682026
30
0
41
1
10
233.673932363494
20
-5.76440842401637
30
0
41
1
10
233.688763565641
20
-5.76758368962739
30
0
41
1
10
233.706520862099
20
-5.76167542775077
30
0
41
1
10
233.720910880538
20
-5.75056200203593
30
0
41
1
10
233.729761944781
20
-5.741803104647
30
0
41
1
10
233.732250000012
20
-5.73912133424496
30
0
0
SPLINE
5
114
100
AcDbEntity
8
1
62
256
6
ByLayer
370
18
48
1
60
0
100
AcDbSpline
70
4
71
2
72
6
73
3
40
0
40
0
40
0
40
1
40
1
40
1
41
1
10
233.64105031946
20
5.62104933530478
30
0
41
1
10
233.649451059452
20
5.36158880553776
30
0
41
1
10
233.73225
20
5.08185793393619
30
0
0
SPLINE
5
115
100
AcDbEntity
8
1
62
256
6
ByLayer
370
18
48
1
60
0
100
AcDbSpline
70
4
71
3
72
12
73
8
40
0
40
0
40
0
40
0
40
0.0703617374105171
40
0.472307631443024
40
0.728284975986557
40
0.925286117409519
40
1
40
1
40
1
40
1
41
1
10
233.641000846597
20
-7.63185827378845
30
0
41
1
10
233.640984277376
20
-7.6346814323594
30
0
41
1
10
233.641235752026
20
-7.65335001823833
30
0
41
1
10
233.644261116191
20
-7.68070987454235
30
0
41
1
10
233.656096740851
20
-7.70518520537741
30
0
41
1
10
233.668684538246
20
-7.71359797579055
30
0
41
1
10
233.676641943795
20
-7.71473310502671
30
0
41
1
10
233.678946537034
20
-7.71483941218764
30
0
0
SPLINE
5
116
100
AcDbEntity
8
1
62
256
6
ByLayer
370
18
48
1
60
0
100
AcDbSpline
70
4
71
3
72
10
73
6
40
0
40
0
40
0
40
0
40
0.241474366984906
40
0.588845130561537
40
1
40
1
40
1
40
1
41
1
10
233.678946537034
20
-7.71483941218764
30
0
41
1
10
233.682854678241
20
-7.7149180087071
30
0
41
1
10
233.692636152593
20
-7.71375448288351
30
0
41
1
10
233.711167544249
20
-7.70497733182345
30
0
41
1
10
233.724784465141
20
-7.69480551152441
30
0
41
1
10
233.73225
20
-7.68797044731657
30
0
0
SPLINE
5
117
100
AcDbEntity
8
1
62
256
6
ByLayer
370
18
48
1
60
0
100
AcDbSpline
70
4
71
2
72
6
73
3
40
0
40
0
40
0
40
1
40
1
40
1
41
1
10
233.641001174382
20
7.63172823041744
30
0
41
1
10
233.650240775862
20
7.4599533097244
30
0
41
1
10
233.73225
20
7.26518438521602
30
0
0
SPLINE
5
118
100
AcDbEntity
8
1
62
256
6
ByLayer
370
18
48
1
60
0
100
AcDbSpline
70
4
71
3
72
13
73
9
40
0
40
0
40
0
40
0
40
0.183370311410538
40
0.392310974816621
40
0.548118552849022
40
0.704437780198142
40
0.853051206432684
40
1
40
1
40
1
40
1
41
1
10
233.641001098734
20
-9.03785315501413
30
0
41
1
10
233.640734577588
20
-9.04732726343117
30
0
41
1
10
233.642536193924
20
-9.06521657020734
30
0
41
1
10
233.650926834327
20
-9.08553056076341
30
0
41
1
10
233.667187993751
20
-9.09451441625003
30
0
41
1
10
233.687337391111
20
-9.09215544453854
30
0
41
1
10
233.709931732592
20
-9.08067971947522
30
0
41
1
10
233.724736464807
20
-9.06989474183732
30
0
41
1
10
233.73225
20
-9.0635128679964
30
0
0
SPLINE
5
119
100
AcDbEntity
8
1
62
256
6
ByLayer
370
18
48
1
60
0
100
AcDbSpline
70
4
71
3
72
10
73
6
40
0
40
0
40
0
40
0
40
0.174761963898993
40
0.639881015080391
40
1
40
1
40
1
40
1
41
1
10
233.641004207857
20
9.03726202558076
30
0
41
1
10
233.641598263354
20
9.02283033923453
30
0
41
1
10
233.646800129865
20
8.96862383933484
30
0
41
1
10
233.678827778709
20
8.86989427665399
30
0
41
1
10
233.714058378618
20
8.789182030346
30
0
41
1
10
233.73225
20
8.75302966073253
30
0
0
SPLINE
5
11A
100
AcDbEntity
8
1
62
256
6
ByLayer
370
18
48
1
60
0
100
AcDbSpline
70
4
71
3
72
10
73
6
40
0
40
0
40
0
40
0
40
0.241322519301498
40
0.680778462131176
40
1
40
1
40
1
40
1
41
1
10
233.641000159986
20
10.0996421302452
30
0
41
1
10
233.641947370806
20
10.0840705603192
30
0
41
1
10
233.648929077862
20
10.0379496470169
30
0
41
1
10
233.6832653558
20
9.95497205231674
30
0
41
1
10
233.716264282323
20
9.89238109857297
30
0
41
1
10
233.73225
20
9.86524973490991
30
0
0
SPLINE
5
11B
100
AcDbEntity
8
1
62
256
6
ByLayer
370
18
48
1
60
0
100
AcDbSpline
70
4
71
3
72
13
73
9
40
0
40
0
40
0
40
0
40
0.149326919562693
40
0.343172337667692
40
0.538407738940085
40
0.711130832633497
40
0.931667581690679
40
1
40
1
40
1
40
1
41
1
10
233.641006710244
20
-10.0986510915491
30
0
41
1
10
233.640813332584
20
-10.1050970190926
30
0
41
1
10
233.642130091236
20
-10.1181012050028
30
0
41
1
10
233.649759345028
20
-10.133621072548
30
0
41
1
10
233.666879937673
20
-10.1386599339097
30
0
41
1
10
233.692033968298
20
-10.1310721181607
30
0
41
1
10
233.714738720706
20
-10.1165405564226
30
0
41
1
10
233.728875171062
20
-10.1054792099281
30
0
41
1
10
233.732250000001
20
-10.1027046585482
30
0
0
SPLINE
5
11C
100
AcDbEntity
8
1
62
256
6
ByLayer
370
18
48
1
60
0
100
AcDbSpline
70
4
71
3
72
13
73
9
40
0
40
0
40
0
40
0
40
0.0429961407633462
40
0.25816167744931
40
0.474801924338961
40
0.663024942085102
40
0.907097581471279
40
1
40
1
40
1
40
1
41
1
10
233.64100035416
20
-10.9173896479616
30
0
41
1
10
233.640988422321
20
-10.918857695756
30
0
41
1
10
233.641297971245
20
-10.9272886775111
30
0
41
1
10
233.645556331974
20
-10.9396111752834
30
0
41
1
10
233.661675382403
20
-10.9436909234808
30
0
41
1
10
233.687089836773
20
-10.9347175920474
30
0
41
1
10
233.711736173882
20
-10.9185011369276
30
0
41
1
10
233.727758422707
20
-10.9058775861497
30
0
41
1
10
233.732250000005
20
-10.9021565448011
30
0
0
SPLINE
5
11D
100
AcDbEntity
8
1
62
256
6
ByLayer
370
18
48
1
60
0
100
AcDbSpline
70
4
71
3
72
11
73
7
40
0
40
0
40
0
40
0
40
0.0536824821099361
40
0.328164967328278
40
0.76660177419825
40
1
40
1
40
1
40
1
41
1
10
233.641001186725
20
10.9172177276487
30
0
41
1
10
233.641043878072
20
10.914722012521
30
0
41
1
10
233.641962953309
20
10.8989748552664
30
0
41
1
10
233.655955132237
20
10.8523207678208
30
0
41
1
10
233.690583376299
20
10.7851133960031
30
0
41
1
10
233.720791468701
20
10.7366210989428
30
0
41
1
10
233.732249999997
20
10.7194111975714
30
0
0
SPLINE
5
11E
100
AcDbEntity
8
1
62
256
6
ByLayer
370
18
48
1
60
0
100
AcDbSpline
70
4
71
3
72
12
73
8
40
0
40
0
40
0
40
0
40
0.210786617762755
40
0.429443488117024
40
0.626335927953794
40
0.892164212394246
40
1
40
1
40
1
40
1
41
1
10
233.64100001643
20
-11.5436400321235
30
0
41
1
10
233.640896454171
20
-11.5496551592683
30
0
41
1
10
233.643946844612
20
-11.5581293336254
30
0
41
1
10
233.65862393013
20
-11.5597698217116
30
0
41
1
10
233.683681642695
20
-11.5486639041474
30
0
41
1
10
233.709611902392
20
-11.530479962519
30
0
41
1
10
233.727090939734
20
-11.516292031618
30
0
41
1
10
233.732250000006
20
-11.511923958959
30
0
0
SPLINE
5
11F
100
AcDbEntity
8
1
62
256
6
ByLayer
370
18
48
1
60
0
100
AcDbSpline
70
4
71
3
72
11
73
7
40
0
40
0
40
0
40
0
40
0.119030497020844
40
0.40237881997519
40
0.832341253880407
40
1
40
1
40
1
40
1
41
1
10
233.641000839633
20
11.543432879025
30
0
41
1
10
233.641168925893
20
11.5391839210095
30
0
41
1
10
233.643395074858
20
11.5235312089074
30
0
41
1
10
233.662392765079
20
11.4789370934546
30
0
41
1
10
233.696794205842
20
11.4233498047663
30
0
41
1
10
233.724130410022
20
11.3848102909779
30
0
41
1
10
233.73225
20
11.3738032563032
30
0
0
SPLINE
5
120
100
AcDbEntity
8
1
62
256
6
ByLayer
370
18
48
1
60
0
100
AcDbSpline
70
4
71
3
72
11
73
7
40
0
40
0
40
0
40
0
40
0.146666212188052
40
0.419080632964085
40
0.816081915151465
40
1
40
1
40
1
40
1
41
1
10
233.641000052969
20
12.0080329697587
30
0
41
1
10
233.641204516891
20
12.0042366282612
30
0
41
1
10
233.643902110553
20
11.9916220374701
30
0
41
1
10
233.663514150071
20
11.954246594244
30
0
41
1
10
233.696982164703
20
11.906397183826
30
0
41
1
10
233.723369634092
20
11.8725413096946
30
0
41
1
10
233.73225
20
11.8615355078321
30
0
0
SPLINE
5
121
100
AcDbEntity
8
1
62
256
6
ByLayer
370
18
48
1
60
0
100
AcDbSpline
70
4
71
3
72
12
73
8
40
0
40
0
40
0
40
0
40
0.168682722072907
40
0.385362931080433
40
0.587824969912181
40
0.870525546607203
40
1
40
1
40
1
40
1
41
1
10
233.641000290319
20
-12.0079744816655
30
0
41
1
10
233.640954274258
20
-12.0115537254027
30
0
41
1
10
233.643234000309
20
-12.017066320071
30
0
41
1
10
233.655597300012
20
-12.0162392961058
30
0
41
1
10
233.679822850816
20
-12.0030816910785
30
0
41
1
10
233.706990176349
20
-11.9825726722285
30
0
41
1
10
233.726070005468
20
-11.9664579484183
30
0
41
1
10
233.732250000011
20
-11.9610521755537
30
0
0
SPLINE
5
122
100
AcDbEntity
8
1
62
256
6
ByLayer
370
18
48
1
60
0
100
AcDbSpline
70
4
71
3
72
12
73
8
40
0
40
0
40
0
40
0
40
0.0870588192499878
40
0.305256705562264
40
0.510389550563989
40
0.794861656663754
40
1
40
1
40
1
40
1
41
1
10
233.641000144196
20
-12.3290408888959
30
0
41
1
10
233.640988585486
20
-12.3302609259646
30
0
41
1
10
233.641959640597
20
-12.333459938665
30
0
41
1
10
233.649896014955
20
-12.3324118557116
30
0
41
1
10
233.671279109001
20
-12.3189884733847
30
0
41
1
10
233.700197638279
20
-12.2957327529664
30
0
41
1
10
233.722390003512
20
-12.2761929094587
30
0
41
1
10
233.73225
20
-12.2671979300879
30
0
0
SPLINE
5
123
100
AcDbEntity
8
1
62
256
6
ByLayer
370
18
48
1
60
0
100
AcDbSpline
70
4
71
3
72
11
73
7
40
0
40
0
40
0
40
0
40
0.167054778195488
40
0.427051077794402
40
0.793312460321829
40
1
40
1
40
1
40
1
41
1
10
233.641000005089
20
12.3290788129304
30
0
41
1
10
233.641228297118
20
12.3262277993749
30
0
41
1
10
233.644263190244
20
12.3167428703475
30
0
41
1
10
233.663880915418
20
12.2860439410501
30
0
41
1
10
233.696486458174
20
12.2444443577277
30
0
41
1
10
233.722290058591
20
12.2140244970003
30
0
41
1
10
233.73225
20
12.2026082742166
30
0
0
LINE
5
70
100
AcDbEntity
8
81
62
256
6
ByLayer
370
18
48
1
60
0
100
AcDbLine
10
234
20
0
30
0
11
257.4
21
0
31
0
39
0
210
0
220
0
230
1
0
LINE
5
71
100
AcDbEntity
8
4
62
256
6
ByLayer
370
18
48
0.05
60
0
100
AcDbLine
10
0
20
0
30
0
11
234
21
0
31
0
39
0
210
0
220
0
230
1
0
LINE
5
73
100
AcDbEntity
8
SK4
62
256
6
ByLayer
370
18
48
0.05
60
0
100
AcDbLine
10
-105
20
0
30
0
11
239
21
0
31
0
39
0
210
0
220
0
230
1
0
LINE
5
75
100
AcDbEntity
8
80
62
256
6
ByLayer
370
18
48
1
60
0
100
AcDbLine
10
0
20
0
30
0
11
-23.4
21
0
31
0
39
0
210
0
220
0
230
1
0
LINE
5
76
100
AcDbEntity
8
SK1
62
256
6
ByLayer
370
18
48
1
60
0
100
AcDbLine
10
242.1
20
-2.256854
30
0
11
238
21
-2.256854
31
0
39
0
210
0
220
0
230
1
0
LINE
5
78
100
AcDbEntity
8
SK1
62
256
6
ByLayer
370
18
48
1
60
0
100
AcDbLine
10
238
20
-9.056854
30
0
11
242.1
21
-9.056854
31
0
39
0
210
0
220
0
230
1
0
LINE
5
79
100
AcDbEntity
8
SK1
62
256
6
ByLayer
370
18
48
1
60
0
100
AcDbLine
10
238
20
-3.573854
30
0
11
234.271
21
-3.573854
31
0
39
0
210
0
220
0
230
1
0
LINE
5
7A
100
AcDbEntity
8
SK1
62
256
6
ByLayer
370
18
48
1
60
0
100
AcDbLine
10
234.271
20
-7.739854
30
0
11
238
21
-7.739854
31
0
39
0
210
0
220
0
230
1
0
LINE
5
7B
100
AcDbEntity
8
SK1
62
256
6
ByLayer
370
18
48
1
60
0
100
AcDbLine
10
-100.6
20
12.7
30
0
11
-101.6
21
11.7
31
0
39
0
210
0
220
0
230
1
0
LINE
5
7C
100
AcDbEntity
8
SK1
62
256
6
ByLayer
370
18
48
1
60
0
100
AcDbLine
10
-101.6
20
-11.7
30
0
11
-100.6
21
-12.7
31
0
39
0
210
0
220
0
230
1
0
LINE
5
7D
100
AcDbEntity
8
SK1
62
256
6
ByLayer
370
18
48
1
60
0
100
AcDbLine
10
-100.6
20
-12.7
30
0
11
0
21
-12.7
31
0
39
0
210
0
220
0
230
1
0
LINE
5
7E
100
AcDbEntity
8
1
62
256
6
ByLayer
370
18
48
1
60
0
100
AcDbLine
10
231.8
20
12.7
30
0
11
0
21
12.7
31
0
39
0
210
0
220
0
230
1
0
LINE
5
80
100
AcDbEntity
8
SK1
62
256
6
ByLayer
370
18
48
1
60
0
100
AcDbLine
10
-25
20
-0.210802
30
0
11
0
21
-0.210802
31
0
39
0
210
0
220
0
230
1
0
LINE
5
81
100
AcDbEntity
8
1
62
256
6
ByLayer
370
18
48
1
60
0
100
AcDbLine
10
102
20
0.210802
30
0
11
0
21
0.210802
31
0
39
0
210
0
220
0
230
1
0
LINE
5
82
100
AcDbEntity
8
SK1
62
256
6
ByLayer
370
18
48
1
60
0
100
AcDbLine
10
242.1
20
9.056854
30
0
11
238
21
9.056854
31
0
39
0
210
0
220
0
230
1
0
LINE
5
83
100
AcDbEntity
8
SK1
62
256
6
ByLayer
370
18
48
1
60
0
100
AcDbLine
10
238
20
2.256854
30
0
11
242.1
21
2.256854
31
0
39
0
210
0
220
0
230
1
0
LINE
5
84
100
AcDbEntity
8
SK1
62
256
6
ByLayer
370
18
48
1
60
0
100
AcDbLine
10
238
20
7.739854
30
0
11
234.271
21
7.739854
31
0
39
0
210
0
220
0
230
1
0
LINE
5
85
100
AcDbEntity
8
SK1
62
256
6
ByLayer
370
18
48
1
60
0
100
AcDbLine
10
234.271
20
3.573854
30
0
11
238
21
3.573854
31
0
39
0
210
0
220
0
230
1
0
LINE
5
86
100
AcDbEntity
8
1
62
256
6
ByLayer
370
18
48
1
60
0
100
AcDbLine
10
232.2
20
12.611106
30
0
11
233.521
21
12.611106
31
0
39
0
210
0
220
0
230
1
0
LINE
5
87
100
AcDbEntity
8
1
62
256
6
ByLayer
370
18
48
1
60
0
100
AcDbLine
10
233.521
20
-12.611106
30
0
11
232.2
21
-12.611106
31
0
39
0
210
0
220
0
230
1
0
LINE
5
88
100
AcDbEntity
8
1
62
256
6
ByLayer
370
18
48
1
60
0
100
AcDbLine
10
233.73225
20
1.909224
30
0
11
233.73225
21
-1.909224
31
0
39
0
210
0
220
0
230
1
0
LINE
5
89
100
AcDbEntity
8
1
62
256
6
ByLayer
370
18
48
1
60
0
100
AcDbLine
10
233.73225
20
5.739121
30
0
11
233.73225
21
5.081858
31
0
39
0
210
0
220
0
230
1
0
LINE
5
8A
100
AcDbEntity
8
1
62
256
6
ByLayer
370
18
48
1
60
0
100
AcDbLine
10
233.73225
20
-5.081858
30
0
11
233.73225
21
-5.739121
31
0
39
0
210
0
220
0
230
1
0
LINE
5
8B
100
AcDbEntity
8
1
62
256
6
ByLayer
370
18
48
1
60
0
100
AcDbLine
10
234.271
20
5.155059
30
0
11
234.271
21
2.33779
31
0
39
0
210
0
220
0
230
1
0
LINE
5
8C
100
AcDbEntity
8
1
62
256
6
ByLayer
370
18
48
1
60
0
100
AcDbLine
10
234.271
20
-2.33779
30
0
11
234.271
21
-5.155059
31
0
39
0
210
0
220
0
230
1
0
LINE
5
8D
100
AcDbEntity
8
1
62
256
6
ByLayer
370
18
48
1
60
0
100
AcDbLine
10
233.73225
20
7.68797
30
0
11
233.73225
21
7.265184
31
0
39
0
210
0
220
0
230
1
0
LINE
5
8E
100
AcDbEntity
8
1
62
256
6
ByLayer
370
18
48
1
60
0
100
AcDbLine
10
233.73225
20
-7.265184
30
0
11
233.73225
21
-7.68797
31
0
39
0
210
0
220
0
230
1
0
LINE
5
8F
100
AcDbEntity
8
1
62
256
6
ByLayer
370
18
48
1
60
0
100
AcDbLine
10
234.271
20
7.208633
30
0
11
234.271
21
5.761988
31
0
39
0
210
0
220
0
230
1
0
LINE
5
90
100
AcDbEntity
8
1
62
256
6
ByLayer
370
18
48
1
60
0
100
AcDbLine
10
234.271
20
-5.761988
30
0
11
234.271
21
-7.208633
31
0
39
0
210
0
220
0
230
1
0
LINE
5
91
100
AcDbEntity
8
1
62
256
6
ByLayer
370
18
48
1
60
0
100
AcDbLine
10
233.73225
20
9.063513
30
0
11
233.73225
21
8.75303
31
0
39
0
210
0
220
0
230
1
0
LINE
5
92
100
AcDbEntity
8
1
62
256
6
ByLayer
370
18
48
1
60
0
100
AcDbLine
10
233.73225
20
-8.75303
30
0
11
233.73225
21
-9.063513
31
0
39
0
210
0
220
0
230
1
0
LINE
5
93
100
AcDbEntity
8
1
62
256
6
ByLayer
370
18
48
1
60
0
100
AcDbLine
10
234.271
20
8.615634
30
0
11
234.271
21
7.603338
31
0
39
0
210
0
220
0
230
1
0
LINE
5
94
100
AcDbEntity
8
1
62
256
6
ByLayer
370
18
48
1
60
0
100
AcDbLine
10
234.271
20
-7.603338
30
0
11
234.271
21
-8.615634
31
0
39
0
210
0
220
0
230
1
0
LINE
5
95
100
AcDbEntity
8
1
62
256
6
ByLayer
370
18
48
1
60
0
100
AcDbLine
10
233.73225
20
10.102705
30
0
11
233.73225
21
9.86525
31
0
39
0
210
0
220
0
230
1
0
LINE
5
96
100
AcDbEntity
8
1
62
256
6
ByLayer
370
18
48
1
60
0
100
AcDbLine
10
233.73225
20
-9.86525
30
0
11
233.73225
21
-10.102705
31
0
39
0
210
0
220
0
230
1
0
LINE
5
97
100
AcDbEntity
8
1
62
256
6
ByLayer
370
18
48
1
60
0
100
AcDbLine
10
234.271
20
-8.90483
30
0
11
234.271
21
-9.662759
31
0
39
0
210
0
220
0
230
1
0
LINE
5
98
100
AcDbEntity
8
1
62
256
6
ByLayer
370
18
48
1
60
0
100
AcDbLine
10
234.271
20
9.662759
30
0
11
234.271
21
8.90483
31
0
39
0
210
0
220
0
230
1
0
LINE
5
99
100
AcDbEntity
8
1
62
256
6
ByLayer
370
18
48
1
60
0
100
AcDbLine
10
233.73225
20
-10.719411
30
0
11
233.73225
21
-10.902157
31
0
39
0
210
0
220
0
230
1
0
LINE
5
9A
100
AcDbEntity
8
1
62
256
6
ByLayer
370
18
48
1
60
0
100
AcDbLine
10
233.73225
20
10.902157
30
0
11
233.73225
21
10.719411
31
0
39
0
210
0
220
0
230
1
0
LINE
5
9B
100
AcDbEntity
8
1
62
256
6
ByLayer
370
18
48
1
60
0
100
AcDbLine
10
234.271
20
10.458664
30
0
11
234.271
21
9.882117
31
0
39
0
210
0
220
0
230
1
0
LINE
5
9C
100
AcDbEntity
8
1
62
256
6
ByLayer
370
18
48
1
60
0
100
AcDbLine
10
234.271
20
-9.882117
30
0
11
234.271
21
-10.458664
31
0
39
0
210
0
220
0
230
1
0
LINE
5
9D
100
AcDbEntity
8
1
62
256
6
ByLayer
370
18
48
1
60
0
100
AcDbLine
10
233.73225
20
-11.373803
30
0
11
233.73225
21
-11.511924
31
0
39
0
210
0
220
0
230
1
0
LINE
5
9E
100
AcDbEntity
8
1
62
256
6
ByLayer
370
18
48
1
60
0
100
AcDbLine
10
233.73225
20
11.511924
30
0
11
233.73225
21
11.373803
31
0
39
0
210
0
220
0
230
1
0
LINE
5
9F
100
AcDbEntity
8
1
62
256
6
ByLayer
370
18
48
1
60
0
100
AcDbLine
10
234.271
20
11.057731
30
0
11
234.271
21
10.62504
31
0
39
0
210
0
220
0
230
1
0
LINE
5
A0
100
AcDbEntity
8
1
62
256
6
ByLayer
370
18
48
1
60
0
100
AcDbLine
10
234.271
20
-10.62504
30
0
11
234.271
21
-11.057731
31
0
39
0
210
0
220
0
230
1
0
LINE
5
A1
100
AcDbEntity
8
1
62
256
6
ByLayer
370
18
48
1
60
0
100
AcDbLine
10
233.73225
20
11.961052
30
0
11
233.73225
21
11.861536
31
0
39
0
210
0
220
0
230
1
0
LINE
5
A2
100
AcDbEntity
8
1
62
256
6
ByLayer
370
18
48
1
60
0
100
AcDbLine
10
233.73225
20
-11.861536
30
0
11
233.73225
21
-11.961052
31
0
39
0
210
0
220
0
230
1
0
LINE
5
A3
100
AcDbEntity
8
1
62
256
6
ByLayer
370
18
48
1
60
0
100
AcDbLine
10
234.271
20
-11.180417
30
0
11
234.271
21
-11.490787
31
0
39
0
210
0
220
0
230
1
0
LINE
5
A4
100
AcDbEntity
8
1
62
256
6
ByLayer
370
18
48
1
60
0
100
AcDbLine
10
234.271
20
11.490787
30
0
11
234.271
21
11.180417
31
0
39
0
210
0
220
0
230
1
0
LINE
5
A5
100
AcDbEntity
8
1
62
256
6
ByLayer
370
18
48
1
60
0
100
AcDbLine
10
233.73225
20
-12.202608
30
0
11
233.73225
21
-12.267198
31
0
39
0
210
0
220
0
230
1
0
LINE
5
A6
100
AcDbEntity
8
1
62
256
6
ByLayer
370
18
48
1
60
0
100
AcDbLine
10
233.73225
20
12.267198
30
0
11
233.73225
21
12.202608
31
0
39
0
210
0
220
0
230
1
0
LINE
5
A7
100
AcDbEntity
8
1
62
256
6
ByLayer
370
18
48
1
60
0
100
AcDbLine
10
234.271
20
11.77616
30
0
11
234.271
21
11.575274
31
0
39
0
210
0
220
0
230
1
0
LINE
5
A8
100
AcDbEntity
8
1
62
256
6
ByLayer
370
18
48
1
60
0
100
AcDbLine
10
234.271
20
-11.575274
30
0
11
234.271
21
-11.77616
31
0
39
0
210
0
220
0
230
1
0
LINE
5
A9
100
AcDbEntity
8
SK1
62
256
6
ByLayer
370
18
48
1
60
0
100
AcDbLine
10
238
20
-2.256854
30
0
11
238
21
-9.056854
31
0
39
0
210
0
220
0
230
1
0
LINE
5
AA
100
AcDbEntity
8
SK1
62
256
6
ByLayer
370
18
48
1
60
0
100
AcDbLine
10
242.1
20
-2.256854
30
0
11
242.1
21
-9.056854
31
0
39
0
210
0
220
0
230
1
0
LINE
5
AB
100
AcDbEntity
8
SK1
62
256
6
ByLayer
370
18
48
1
60
0
100
AcDbLine
10
-100.6
20
-12.7
30
0
11
-100.6
21
0
31
0
39
0
210
0
220
0
230
1
0
LINE
5
AC
100
AcDbEntity
8
SK1
62
256
6
ByLayer
370
18
48
1
60
0
100
AcDbLine
10
-101.6
20
-11.7
30
0
11
-101.6
21
0
31
0
39
0
210
0
220
0
230
1
0
LINE
5
AD
100
AcDbEntity
8
SK1
62
256
6
ByLayer
370
18
48
1
60
0
100
AcDbLine
10
-100.6
20
0
30
0
11
-100.6
21
12.7
31
0
39
0
210
0
220
0
230
1
0
LINE
5
AE
100
AcDbEntity
8
SK1
62
256
6
ByLayer
370
18
48
1
60
0
100
AcDbLine
10
-101.6
20
0
30
0
11
-101.6
21
11.7
31
0
39
0
210
0
220
0
230
1
0
LINE
5
AF
100
AcDbEntity
8
1
62
256
6
ByLayer
370
18
48
1
60
0
100
AcDbLine
10
231.8
20
-12.7
30
0
11
231.8
21
0
31
0
39
0
210
0
220
0
230
1
0
LINE
5
B0
100
AcDbEntity
8
1
62
256
6
ByLayer
370
18
48
1
60
0
100
AcDbLine
10
102
20
-0.210802
30
0
11
102
21
0.210802
31
0
39
0
210
0
220
0
230
1
0
LINE
5
B1
100
AcDbEntity
8
SK1
62
256
6
ByLayer
370
18
48
1
60
0
100
AcDbLine
10
-25
20
0.210802
30
0
11
-25
21
-0.210802
31
0
39
0
210
0
220
0
230
1
0
LINE
5
B2
100
AcDbEntity
8
1
62
256
6
ByLayer
370
18
48
1
60
0
100
AcDbLine
10
231.8
20
0
30
0
11
231.8
21
12.7
31
0
39
0
210
0
220
0
230
1
0
LINE
5
B3
100
AcDbEntity
8
1
62
256
6
ByLayer
370
18
48
1
60
0
100
AcDbLine
10
232
20
12.5
30
0
11
232
21
12.425064
31
0
39
0
210
0
220
0
230
1
0
LINE
5
B4
100
AcDbEntity
8
1
62
256
6
ByLayer
370
18
48
1
60
0
100
AcDbLine
10
232
20
12.425064
30
0
11
232
21
12.409674
31
0
39
0
210
0
220
0
230
1
0
LINE
5
B5
100
AcDbEntity
8
1
62
256
6
ByLayer
370
18
48
1
60
0
100
AcDbLine
10
232
20
12.409674
30
0
11
232
21
0
31
0
39
0
210
0
220
0
230
1
0
LINE
5
B6
100
AcDbEntity
8
1
62
256
6
ByLayer
370
18
48
1
60
0
100
AcDbLine
10
232
20
0
30
0
11
232
21
-12.409674
31
0
39
0
210
0
220
0
230
1
0
LINE
5
B7
100
AcDbEntity
8
1
62
256
6
ByLayer
370
18
48
1
60
0
100
AcDbLine
10
232
20
-12.409674
30
0
11
232
21
-12.434907
31
0
39
0
210
0
220
0
230
1
0
LINE
5
B8
100
AcDbEntity
8
1
62
256
6
ByLayer
370
18
48
1
60
0
100
AcDbLine
10
232
20
-12.434907
30
0
11
232
21
-12.5
31
0
39
0
210
0
220
0
230
1
0
LINE
5
B9
100
AcDbEntity
8
SK1
62
256
6
ByLayer
370
18
48
1
60
0
100
AcDbLine
10
238
20
9.056854
30
0
11
238
21
2.256854
31
0
39
0
210
0
220
0
230
1
0
LINE
5
BA
100
AcDbEntity
8
SK1
62
256
6
ByLayer
370
18
48
1
60
0
100
AcDbLine
10
242.1
20
9.056854
30
0
11
242.1
21
2.256854
31
0
39
0
210
0
220
0
230
1
0
LINE
5
BB
100
AcDbEntity
8
1
62
256
6
ByLayer
370
18
48
1
60
0
100
AcDbLine
10
233.521
20
12.611106
30
0
11
233.521
21
-12.611106
31
0
39
0
210
0
220
0
230
1
0
LINE
5
BC
100
AcDbEntity
8
1
62
256
6
ByLayer
370
18
48
1
60
0
100
AcDbLine
10
234.271
20
11.825701
30
0
11
234.271
21
11.77616
31
0
39
0
210
0
220
0
230
1
0
LINE
5
BD
100
AcDbEntity
8
1
62
256
6
ByLayer
370
18
48
1
60
0
100
AcDbLine
10
234.271
20
11.575274
30
0
11
234.271
21
11.490787
31
0
39
0
210
0
220
0
230
1
0
LINE
5
BE
100
AcDbEntity
8
1
62
256
6
ByLayer
370
18
48
1
60
0
100
AcDbLine
10
234.271
20
11.180417
30
0
11
234.271
21
11.057731
31
0
39
0
210
0
220
0
230
1
0
LINE
5
BF
100
AcDbEntity
8
1
62
256
6
ByLayer
370
18
48
1
60
0
100
AcDbLine
10
234.271
20
10.62504
30
0
11
234.271
21
10.458664
31
0
39
0
210
0
220
0
230
1
0
LINE
5
C0
100
AcDbEntity
8
1
62
256
6
ByLayer
370
18
48
1
60
0
100
AcDbLine
10
234.271
20
9.882117
30
0
11
234.271
21
9.662759
31
0
39
0
210
0
220
0
230
1
0
LINE
5
C1
100
AcDbEntity
8
1
62
256
6
ByLayer
370
18
48
1
60
0
100
AcDbLine
10
234.271
20
8.90483
30
0
11
234.271
21
8.615634
31
0
39
0
210
0
220
0
230
1
0
LINE
5
C2
100
AcDbEntity
8
1
62
256
6
ByLayer
370
18
48
1
60
0
100
AcDbLine
10
234.271
20
7.603338
30
0
11
234.271
21
7.208633
31
0
39
0
210
0
220
0
230
1
0
LINE
5
C3
100
AcDbEntity
8
1
62
256
6
ByLayer
370
18
48
1
60
0
100
AcDbLine
10
234.271
20
5.761988
30
0
11
234.271
21
5.155059
31
0
39
0
210
0
220
0
230
1
0
LINE
5
C4
100
AcDbEntity
8
1
62
256
6
ByLayer
370
18
48
1
60
0
100
AcDbLine
10
234.271
20
2.33779
30
0
11
234.271
21
-2.33779
31
0
39
0
210
0
220
0
230
1
0
LINE
5
C5
100
AcDbEntity
8
1
62
256
6
ByLayer
370
18
48
1
60
0
100
AcDbLine
10
234.271
20
-5.155059
30
0
11
234.271
21
-5.761988
31
0
39
0
210
0
220
0
230
1
0
LINE
5
C6
100
AcDbEntity
8
1
62
256
6
ByLayer
370
18
48
1
60
0
100
AcDbLine
10
234.271
20
-7.208633
30
0
11
234.271
21
-7.603338
31
0
39
0
210
0
220
0
230
1
0
LINE
5
C7
100
AcDbEntity
8
1
62
256
6
ByLayer
370
18
48
1
60
0
100
AcDbLine
10
234.271
20
-8.615634
30
0
11
234.271
21
-8.90483
31
0
39
0
210
0
220
0
230
1
0
LINE
5
C8
100
AcDbEntity
8
1
62
256
6
ByLayer
370
18
48
1
60
0
100
AcDbLine
10
234.271
20
-9.662759
30
0
11
234.271
21
-9.882117
31
0
39
0
210
0
220
0
230
1
0
LINE
5
C9
100
AcDbEntity
8
1
62
256
6
ByLayer
370
18
48
1
60
0
100
AcDbLine
10
234.271
20
-10.458664
30
0
11
234.271
21
-10.62504
31
0
39
0
210
0
220
0
230
1
0
LINE
5
CA
100
AcDbEntity
8
1
62
256
6
ByLayer
370
18
48
1
60
0
100
AcDbLine
10
234.271
20
-11.057731
30
0
11
234.271
21
-11.180417
31
0
39
0
210
0
220
0
230
1
0
LINE
5
CB
100
AcDbEntity
8
1
62
256
6
ByLayer
370
18
48
1
60
0
100
AcDbLine
10
234.271
20
-11.490787
30
0
11
234.271
21
-11.575274
31
0
39
0
210
0
220
0
230
1
0
LINE
5
CC
100
AcDbEntity
8
1
62
256
6
ByLayer
370
18
48
1
60
0
100
AcDbLine
10
234.271
20
-11.77616
30
0
11
234.271
21
-11.825701
31
0
39
0
210
0
220
0
230
1
0
LINE
5
CD
100
AcDbEntity
8
1
62
256
6
ByLayer
370
18
48
1
60
0
100
AcDbLine
10
232
20
-12.409674
30
0
11
232
21
0
31
0
39
0
210
0
220
0
230
1
0
LINE
5
CE
100
AcDbEntity
8
1
62
256
6
ByLayer
370
18
48
1
60
0
100
AcDbLine
10
232
20
0
30
0
11
232
21
12.409674
31
0
39
0
210
0
220
0
230
1
0
LINE
5
CF
100
AcDbEntity
8
1
62
256
6
ByLayer
370
18
48
1
60
0
100
AcDbLine
10
232.2
20
12.611106
30
0
11
232.2
21
-12.611106
31
0
39
0
210
0
220
0
230
1
0
LINE
5
D0
100
AcDbEntity
8
SK1
62
256
6
ByLayer
370
18
48
1
60
0
100
AcDbLine
10
0
20
12.7
30
0
11
-100.6
21
12.7
31
0
39
0
210
0
220
0
230
1
0
LINE
5
D1
100
AcDbEntity
8
SK1
62
256
6
ByLayer
370
18
48
1
60
0
100
AcDbLine
10
0
20
0.210802
30
0
11
-25
21
0.210802
31
0
39
0
210
0
220
0
230
1
0
LINE
5
D2
100
AcDbEntity
8
1
62
256
6
ByLayer
370
18
48
1
60
0
100
AcDbLine
10
0
20
-0.210802
30
0
11
102
21
-0.210802
31
0
39
0
210
0
220
0
230
1
0
LINE
5
D3
100
AcDbEntity
8
1
62
256
6
ByLayer
370
18
48
1
60
0
100
AcDbLine
10
0
20
-12.7
30
0
11
231.8
21
-12.7
31
0
39
0
210
0
220
0
230
1
0
MTEXT
5
124
100
AcDbEntity
8
SK6
62
256
6
ByLayer
370
13
48
1
60
0
100
AcDbMText
10
2.123569
20
48.220163
30
0
210
0
220
0
230
1
1
\W0.7142;A570-3C D16 13-25
40
3.175
41
0
44
1.084337
50
0
71
7
72
5
7
iso_b_vert
0
DIMENSION
5
132
100
AcDbEntity
8
2
62
256
6
ByLayer
370
13
48
1
60
0
100
AcDbDimension
2
DimnDraft3D1
10
234
20
21.308249
30
0
11
113.749803
21
21.308249
31
0
70
32
71
5
72
1
41
1
210
0
220
0
230
1
3
Standard
100
AcDbAlignedDimension
13
0
23
1.5875
33
0
14
234
24
1.5875
34
0
50
0
100
AcDbRotatedDimension
1001
ACAD
1000
DSTYLE
1002
{
1070
   279
1070
     0
1070
   173
1070
     1
1070
   340
1005
125
1070
   271
1070
     1
1070
   272
1070
     2
1070
    77
1070
     1
1070
    73
1070
     0
1070
   171
1070
     3
1070
   274
1070
     4
1070
   177
1070
     7
1070
   176
1070
     7
1070
   178
1070
     7
1070
    78
1070
     8
1070
    48
1040
-0.005
1070
    41
1041
3.175
1070
   147
1041
1.5875
1070
    42
1041
1.5875
1070
    44
1041
3.175
1070
   140
1041
3.175
1070
   343
1005
0
1070
   344
1005
0
1002
}
0
DIMENSION
5
13E
100
AcDbEntity
8
SK2
62
256
6
ByLayer
370
13
48
1
60
0
100
AcDbDimension
2
DimnDraft3D2
10
-117.84005
20
-12.7
30
0
11
-117.84005
21
-8.5725
31
0
70
32
71
5
72
1
41
1
210
0
220
0
230
1
3
Standard
100
AcDbAlignedDimension
13
-102.1875
23
12.7
33
0
14
-102.1875
24
-12.7
34
0
50
90
100
AcDbRotatedDimension
1001
ACAD
1000
DSTYLE
1002
{
1070
    74
1070
     0
1070
   279
1070
     0
1070
   173
1070
     1
1070
   340
1005
125
1070
   271
1070
     1
1070
   272
1070
     2
1070
    77
1070
     1
1070
    73
1070
     0
1070
   171
1070
     3
1070
   274
1070
     4
1070
   177
1070
     7
1070
   176
1070
     7
1070
   178
1070
     7
1070
    78
1070
     8
1070
    48
1040
-0.005
1070
    41
1041
3.175
1070
   147
1041
1.5875
1070
    42
1041
1.5875
1070
    44
1041
3.175
1070
   140
1041
3.175
1070
   343
1005
0
1070
   344
1005
0
1002
}
0
DIMENSION
5
148
100
AcDbEntity
8
SK2
62
256
6
ByLayer
370
13
48
1
60
0
100
AcDbDimension
2
DimnDraft3D3
10
234
20
30.296804
30
0
11
61.370658
21
30.296804
31
0
70
32
71
5
72
1
41
1
210
0
220
0
230
1
3
Standard
100
AcDbAlignedDimension
13
-101.6
23
13.2875
33
0
14
234
24
1.5875
34
0
50
0
100
AcDbRotatedDimension
1001
ACAD
1000
DSTYLE
1002
{
1070
   279
1070
     0
1070
   173
1070
     1
1070
   340
1005
125
1070
   271
1070
     1
1070
   272
1070
     2
1070
    77
1070
     1
1070
    73
1070
     0
1070
   171
1070
     3
1070
   274
1070
     4
1070
   177
1070
     7
1070
   176
1070
     7
1070
   178
1070
     7
1070
    78
1070
     8
1070
    48
1040
-0.005
1070
    41
1041
3.175
1070
   147
1041
1.5875
1070
    42
1041
1.5875
1070
    44
1041
3.175
1070
   140
1041
3.175
1070
   343
1005
0
1070
   344
1005
0
1002
}
0
ENDSEC
0
SECTION
2
OBJECTS
0
DICTIONARY
5
1b3
330
0
100
AcDbDictionary
280
0
281
1
3
ACAD_GROUP
350
1b4
3
ACAD_MLINESTYLE
350
1b5
0
DICTIONARY
5
1b4
330
0
100
AcDbDictionary
280
0
281
1
0
DICTIONARY
5
1b5
330
0
100
AcDbDictionary
280
0
281
1
3
Standard
350
18
0
MLINESTYLE
5
18
330
1b5
100
AcDbMlineStyle
2
Standard
70
0
3

62
256
51
90
52
90
71
2
49
-0.5
62
256
6
ByLayer
49
0.5
62
256
6
ByLayer
0
RASTERVARIABLES
5
1a1
330

100
AcDbRasterVariables
90
0
70
1
71
1
72
1
0
ENDSEC
0
EOF
