0
SECTION
2
HEADER
9
$ACADVER
1
AC1015
9
$DWGCODEPAGE
3
ANSI_1252
9
$HANDSEED
5
2c7
9
$ANGBASE
50
0
9
$ANGDIR
70
0
9
$ATTMODE
70
1
9
$AUNITS
70
0
9
$AUPREC
70
0
9
$CECOLOR
62
256
9
$CELTSCALE
40
1
9
$CELTYPE
6
ByLayer
9
$CELWEIGHT
370
18
9
$CLAYER
8
0
9
$CMLJUST
70
0
9
$CMLSCALE
40
1
9
$CMLSTYLE
2
Standard
9
$DIMSTYLE
2
Standard
9
$TEXTSIZE
40
0.2
9
$TEXTSTYLE
7
Standard
9
$LUNITS
70
2
9
$LUPREC
70
4
9
$EXTNAMES
290
1
9
$INSUNITS
70
4
9
$LTSCALE
40
1
9
$LWDISPLAY
290
1
9
$PDMODE
70
0
9
$PDSIZE
40
0
9
$PLINEGEN
70
0
0
ENDSEC
0
SECTION
2
CLASSES
0
CLASS
1
RASTERVARIABLES
2
AcDbRasterVariables
3
ISM
90
0
280
0
281
0
0
ENDSEC
0
SECTION
2
TABLES
0
TABLE
2
VPORT
5
2bd
100
AcDbSymbolTable
0
VPORT
5
1
100
AcDbSymbolTableRecord
100
AcDbViewportTableRecord
2
*Active
70
0
10
0
20
0
11
1
21
1
12
-1
22
1
13
0
23
0
14
0.5
24
0.5
15
10
25
10
16
0
26
0
36
1
17
0
27
0
37
0
0
ENDTAB
0
TABLE
2
LTYPE
5
2be
100
AcDbSymbolTable
0
LTYPE
5
14
100
AcDbSymbolTableRecord
100
AcDbLinetypeTableRecord
70
0
2
ByBlock
3

72
65
73
0
40
0
0
LTYPE
5
15
100
AcDbSymbolTableRecord
100
AcDbLinetypeTableRecord
70
0
2
ByLayer
3

72
65
73
0
40
0
0
LTYPE
5
16
100
AcDbSymbolTableRecord
100
AcDbLinetypeTableRecord
70
0
2
Continuous
3
Solid line
72
65
73
0
40
0
0
LTYPE
5
6E
100
AcDbSymbolTableRecord
100
AcDbLinetypeTableRecord
70
0
2
CENTER
3
____ _ ____ _ ____ _ ____
72
65
73
4
40
47.5
49
22
74
0
49
-8.5
74
0
49
8.5
74
0
49
-8.5
74
0
0
LTYPE
5
6F
100
AcDbSymbolTableRecord
100
AcDbLinetypeTableRecord
70
0
2
DASHED
3
__ __ __ __ __ __ __ __ __
72
65
73
2
40
25.72
49
12.86
74
0
49
-12.86
74
0
0
ENDTAB
0
TABLE
2
LAYER
5
2bf
100
AcDbSymbolTable
0
LAYER
5
10
100
AcDbSymbolTableRecord
100
AcDbLayerTableRecord
2
0
70
0
62
7
6
Continuous
290
1
370
-3
390
0
0
LAYER
5
71
100
AcDbSymbolTableRecord
100
AcDbLayerTableRecord
2
81
70
0
62
-3
6
Continuous
290
1
370
-3
390
0
0
LAYER
5
73
100
AcDbSymbolTableRecord
100
AcDbLayerTableRecord
2
80
70
0
62
-6
6
Continuous
290
1
370
-3
390
0
0
LAYER
5
75
100
AcDbSymbolTableRecord
100
AcDbLayerTableRecord
2
1
70
0
62
4
6
Continuous
290
1
370
-3
390
0
0
LAYER
5
C1
100
AcDbSymbolTableRecord
100
AcDbLayerTableRecord
2
4
70
0
62
-2
6
CENTER
290
1
370
-3
390
0
0
LAYER
5
19E
100
AcDbSymbolTableRecord
100
AcDbLayerTableRecord
2
Defpoints
70
0
62
7
6
Continuous
290
0
370
-3
390
0
0
LAYER
5
1AC
100
AcDbSymbolTableRecord
100
AcDbLayerTableRecord
2
2
70
0
62
7
6
Continuous
290
1
370
-3
390
0
0
LAYER
5
2a9
100
AcDbSymbolTableRecord
100
AcDbLayerTableRecord
2
SK1
70
0
62
4
6
Continuous
290
1
370
-3
390
0
0
LAYER
5
2aa
100
AcDbSymbolTableRecord
100
AcDbLayerTableRecord
2
SK4
70
0
62
2
6
CENTER
290
1
370
-3
390
0
0
LAYER
5
2ab
100
AcDbSymbolTableRecord
100
AcDbLayerTableRecord
2
SK2
70
0
62
7
6
Continuous
290
1
370
-3
390
0
0
LAYER
5
2ac
100
AcDbSymbolTableRecord
100
AcDbLayerTableRecord
2
SK6
70
0
62
5
6
Continuous
290
1
370
-3
390
0
0
ENDTAB
0
TABLE
2
STYLE
5
2c0
100
AcDbSymbolTable
0
STYLE
5
11
100
AcDbSymbolTableRecord
100
AcDbTextStyleTableRecord
2
Standard
3
txt
70
0
71
0
40
0
41
1
42
0
50
0
0
STYLE
5
18F
100
AcDbSymbolTableRecord
100
AcDbTextStyleTableRecord
2
iso_b_vert
3
simplex.shx
70
0
71
0
40
0
41
1
42
0
50
0
0
STYLE
5
190
100
AcDbSymbolTableRecord
100
AcDbTextStyleTableRecord
2
DWGDirectTextStyle
3
simplex
70
0
71
0
40
0
41
1
42
0
50
0
0
ENDTAB
0
TABLE
2
DIMSTYLE
5
2c1
100
AcDbSymbolTable
100
AcDbDimStyleTable
0
DIMSTYLE
105
27
100
AcDbSymbolTableRecord
100
AcDbDimStyleTableRecord
2
Standard
70
0
3
<>
41
0.18
42
0.0625
44
0.18
140
0.18
147
0.09
73
0
74
0
77
1
271
2
275
0
278
52
280
0
340
11
0
ENDTAB
0
TABLE
2
VIEW
5
2c2
100
AcDbSymbolTable
0
ENDTAB
0
TABLE
2
UCS
5
2c3
100
AcDbSymbolTable
0
ENDTAB
0
TABLE
2
APPID
5
2c4
100
AcDbSymbolTable
0
APPID
5
12
100
AcDbSymbolTableRecord
100
AcDbRegAppTableRecord
2
ACAD
70
0
0
APPID
5
193
100
AcDbSymbolTableRecord
100
AcDbRegAppTableRecord
2
ACAD_DSTYLE_DIMBREAK
70
0
0
APPID
5
268
100
AcDbSymbolTableRecord
100
AcDbRegAppTableRecord
2
ACAD_DSTYLE_DIM_LINETYPE
70
0
0
APPID
5
269
100
AcDbSymbolTableRecord
100
AcDbRegAppTableRecord
2
ACAD_DSTYLE_DIM_EXT1_LINETYPE
70
0
0
APPID
5
26A
100
AcDbSymbolTableRecord
100
AcDbRegAppTableRecord
2
ACAD_DSTYLE_DIM_EXT2_LINETYPE
70
0
0
APPID
5
2A5
100
AcDbSymbolTableRecord
100
AcDbRegAppTableRecord
2
ACAD_MLEADERVER
70
0
0
ENDTAB
0
TABLE
2
BLOCK_RECORD
5
2c5
100
AcDbSymbolTable
0
BLOCK_RECORD
5
1F
100
AcDbSymbolTableRecord
100
AcDbBlockTableRecord
2
*Model_Space
340
0
70
0
0
BLOCK_RECORD
5
1B
100
AcDbSymbolTableRecord
100
AcDbBlockTableRecord
2
*Paper_Space
340
0
70
0
0
BLOCK_RECORD
5
23
100
AcDbSymbolTableRecord
100
AcDbBlockTableRecord
2
*Paper_Space0
340
0
70
0
0
BLOCK_RECORD
5
195
100
AcDbSymbolTableRecord
100
AcDbBlockTableRecord
2
_Closed
340
0
70
0
0
BLOCK_RECORD
5
19F
100
AcDbSymbolTableRecord
100
AcDbBlockTableRecord
2
*D2
340
0
70
0
0
BLOCK_RECORD
5
1AD
100
AcDbSymbolTableRecord
100
AcDbBlockTableRecord
2
_U0
340
0
70
0
0
BLOCK_RECORD
5
1BE
100
AcDbSymbolTableRecord
100
AcDbBlockTableRecord
2
*D4
340
0
70
0
0
BLOCK_RECORD
5
1CA
100
AcDbSymbolTableRecord
100
AcDbBlockTableRecord
2
_U1
340
0
70
0
0
BLOCK_RECORD
5
1DA
100
AcDbSymbolTableRecord
100
AcDbBlockTableRecord
2
*D6
340
0
70
0
0
BLOCK_RECORD
5
1E6
100
AcDbSymbolTableRecord
100
AcDbBlockTableRecord
2
_U2
340
0
70
0
0
BLOCK_RECORD
5
1F6
100
AcDbSymbolTableRecord
100
AcDbBlockTableRecord
2
*D8
340
0
70
0
0
BLOCK_RECORD
5
202
100
AcDbSymbolTableRecord
100
AcDbBlockTableRecord
2
_U3
340
0
70
0
0
BLOCK_RECORD
5
212
100
AcDbSymbolTableRecord
100
AcDbBlockTableRecord
2
*D10
340
0
70
0
0
BLOCK_RECORD
5
21E
100
AcDbSymbolTableRecord
100
AcDbBlockTableRecord
2
_U4
340
0
70
0
0
BLOCK_RECORD
5
22F
100
AcDbSymbolTableRecord
100
AcDbBlockTableRecord
2
*D12
340
0
70
0
0
BLOCK_RECORD
5
23C
100
AcDbSymbolTableRecord
100
AcDbBlockTableRecord
2
_U5
340
0
70
0
0
ENDTAB
0
ENDSEC
0
SECTION
2
BLOCKS
0
BLOCK
5
20
100
AcDbEntity
8
0
100
AcDbBlockBegin
2
*Model_Space
70
0
10
0
20
0
30
0
3
*Model_Space
0
ENDBLK
5
21
100
AcDbEntity
8
0
100
AcDbBlockEnd
0
BLOCK
5
1C
100
AcDbEntity
8
0
100
AcDbBlockBegin
2
*Paper_Space
70
0
10
0
20
0
30
0
3
*Paper_Space
0
ENDBLK
5
1D
100
AcDbEntity
8
0
100
AcDbBlockEnd
0
BLOCK
5
24
100
AcDbEntity
8
0
100
AcDbBlockBegin
2
*Paper_Space0
70
0
10
0
20
0
30
0
3
*Paper_Space0
0
ENDBLK
5
25
100
AcDbEntity
8
0
100
AcDbBlockEnd
0
BLOCK
5
196
100
AcDbEntity
8
0
100
AcDbBlockBegin
2
_Closed
70
0
10
0
20
0
30
0
3
_Closed
0
LINE
5
198
100
AcDbEntity
8
0
62
256
6
ByLayer
370
-2
48
1
60
0
100
AcDbLine
10
-1
20
0.166667
30
0
11
0
21
0
31
0
39
0
210
0
220
0
230
1
0
LINE
5
199
100
AcDbEntity
8
0
62
256
6
ByLayer
370
-2
48
1
60
0
100
AcDbLine
10
0
20
0
30
0
11
-1
21
-0.166667
31
0
39
0
210
0
220
0
230
1
0
LINE
5
19A
100
AcDbEntity
8
0
62
256
6
ByLayer
370
-2
48
1
60
0
100
AcDbLine
10
-1
20
0.166667
30
0
11
-1
21
-0.166667
31
0
39
0
210
0
220
0
230
1
0
LINE
5
19B
100
AcDbEntity
8
0
62
256
6
ByLayer
370
-2
48
1
60
0
100
AcDbLine
10
0
20
0
30
0
11
-1
21
0
31
0
39
0
210
0
220
0
230
1
0
ENDBLK
5
197
100
AcDbEntity
8
0
100
AcDbBlockEnd
0
BLOCK
5
1A0
100
AcDbEntity
8
0
100
AcDbBlockBegin
2
*D2
70
1
10
0
20
0
30
0
3
*D2
0
LINE
5
1A2
100
AcDbEntity
8
0
62
256
6
ByLayer
370
-2
48
1
60
0
100
AcDbLine
10
38.8962
20
-12.954
30
0
11
65.380575
21
-12.954
31
0
39
0
210
0
220
0
230
1
0
LINE
5
1A3
100
AcDbEntity
8
0
62
256
6
ByLayer
370
-2
48
1
60
0
100
AcDbLine
10
38.8962
20
12.954
30
0
11
65.380575
21
12.954
31
0
39
0
210
0
220
0
230
1
0
LINE
5
1A4
100
AcDbEntity
8
0
62
256
6
ByLayer
370
-2
48
1
60
0
100
AcDbLine
10
62.205575
20
12.954
30
0
11
62.205575
21
51.839427
31
0
39
0
210
0
220
0
230
1
0
LINE
5
1A5
100
AcDbEntity
8
0
62
256
6
ByLayer
370
-2
48
1
60
0
100
AcDbLine
10
62.205575
20
-9.779
30
0
11
62.205575
21
9.779
31
0
39
0
210
0
220
0
230
1
0
SOLID
5
1A6
100
AcDbEntity
8
0
62
256
6
ByLayer
370
-1
48
1
60
0
100
AcDbTrace
10
61.676408
20
-9.779
30
0
11
62.734742
21
-9.779
31
0
12
62.205575
22
-12.954
32
0
13
62.205575
23
-12.954
33
0
39
0
210
0
220
0
230
1
0
SOLID
5
1A7
100
AcDbEntity
8
0
62
256
6
ByLayer
370
-1
48
1
60
0
100
AcDbTrace
10
62.734742
20
9.779
30
0
11
61.676408
21
9.779
31
0
12
62.205575
22
12.954
32
0
13
62.205575
23
12.954
33
0
39
0
210
0
220
0
230
1
0
MTEXT
5
1A8
100
AcDbEntity
8
0
62
256
6
ByLayer
370
18
48
1
60
0
100
AcDbMText
10
52.811825
20
36.338534
30
0
210
0
220
0
230
1
1
\A1;25.91
40
4.5
41
0
44
1
50
90
71
5
72
5
7
iso_b_vert
0
POINT
5
1A9
100
AcDbEntity
8
Defpoints
62
0
6
ByLayer
370
-1
48
1
60
0
100
AcDbPoint
10
37.3087
20
-12.954
30
0
39
0
210
0
220
0
230
1
50
360
0
POINT
5
1AA
100
AcDbEntity
8
Defpoints
62
0
6
ByLayer
370
-1
48
1
60
0
100
AcDbPoint
10
37.3087
20
12.954
30
0
39
0
210
0
220
0
230
1
50
360
0
POINT
5
1AB
100
AcDbEntity
8
Defpoints
62
0
6
ByLayer
370
-1
48
1
60
0
100
AcDbPoint
10
62.205575
20
12.954
30
0
39
0
210
0
220
0
230
1
50
360
0
ENDBLK
5
1A1
100
AcDbEntity
8
0
100
AcDbBlockEnd
0
BLOCK
5
1B9
100
AcDbEntity
8
0
100
AcDbBlockBegin
2
_U0
70
0
10
0
20
0
30
0
3
_U0
0
MTEXT
5
1AE
100
AcDbEntity
8
2
62
256
6
ByLayer
370
18
48
1
60
0
100
AcDbMText
10
60.123729
20
24.209375
30
0
210
0
220
0
230
1
1
%%c
40
3.175
41
0
44
1.084337
50
90
71
7
72
5
7
iso_b_vert
0
MTEXT
5
1AF
100
AcDbEntity
8
2
62
256
6
ByLayer
370
18
48
1
60
0
100
AcDbMText
10
60.525153
20
33.794
30
0
210
0
220
0
230
1
1
\W0.8628;25.91
40
4.5
41
0
44
1.084337
50
90
71
7
72
5
7
iso_b_vert
0
LINE
5
1B0
100
AcDbEntity
8
2
62
256
6
ByLayer
370
13
48
1
60
0
100
AcDbLine
10
38.8962
20
-12.954
30
0
11
65.380575
21
-12.954
31
0
39
0
210
0
220
0
230
1
0
LINE
5
1B1
100
AcDbEntity
8
2
62
256
6
ByLayer
370
13
48
1
60
0
100
AcDbLine
10
38.8962
20
12.954
30
0
11
65.380575
21
12.954
31
0
39
0
210
0
220
0
230
1
0
LINE
5
1B2
100
AcDbEntity
8
2
62
256
6
ByLayer
370
13
48
1
60
0
100
AcDbLine
10
62.205575
20
-12.954
30
0
11
62.205575
21
48.610568
31
0
39
0
210
0
220
0
230
1
0
LINE
5
1B3
100
AcDbEntity
8
2
62
256
6
ByLayer
370
13
48
1
60
0
100
AcDbLine
10
62.205575
20
-12.954
30
0
11
61.787578
21
-9.779002
31
0
39
0
210
0
220
0
230
1
0
LINE
5
1B4
100
AcDbEntity
8
2
62
256
6
ByLayer
370
13
48
1
60
0
100
AcDbLine
10
62.205575
20
-12.954
30
0
11
62.623572
21
-9.778998
31
0
39
0
210
0
220
0
230
1
0
LINE
5
1B5
100
AcDbEntity
8
2
62
256
6
ByLayer
370
13
48
1
60
0
100
AcDbLine
10
61.787578
20
-9.779002
30
0
11
62.623572
21
-9.778998
31
0
39
0
210
0
220
0
230
1
0
LINE
5
1B6
100
AcDbEntity
8
2
62
256
6
ByLayer
370
13
48
1
60
0
100
AcDbLine
10
62.205575
20
12.954
30
0
11
62.623572
21
9.779002
31
0
39
0
210
0
220
0
230
1
0
LINE
5
1B7
100
AcDbEntity
8
2
62
256
6
ByLayer
370
13
48
1
60
0
100
AcDbLine
10
62.205575
20
12.954
30
0
11
61.787578
21
9.778998
31
0
39
0
210
0
220
0
230
1
0
LINE
5
1B8
100
AcDbEntity
8
2
62
256
6
ByLayer
370
13
48
1
60
0
100
AcDbLine
10
62.623572
20
9.779002
30
0
11
61.787578
21
9.778998
31
0
39
0
210
0
220
0
230
1
0
ENDBLK
5
1BA
100
AcDbEntity
8
0
100
AcDbBlockEnd
0
BLOCK
5
1BF
100
AcDbEntity
8
0
100
AcDbBlockBegin
2
*D4
70
1
10
0
20
0
30
0
3
*D4
0
LINE
5
1C1
100
AcDbEntity
8
0
62
256
6
ByLayer
370
-2
48
1
60
0
100
AcDbLine
10
37.3087
20
-14.5415
30
0
11
37.3087
21
-40.629
31
0
39
0
210
0
220
0
230
1
0
LINE
5
1C2
100
AcDbEntity
8
0
62
256
6
ByLayer
370
-2
48
1
60
0
100
AcDbLine
10
-0.0013
20
-1.5875
30
0
11
-0.0013
21
-40.629
31
0
39
0
210
0
220
0
230
1
0
LINE
5
1C3
100
AcDbEntity
8
0
62
256
6
ByLayer
370
-2
48
1
60
0
100
AcDbLine
10
34.1337
20
-37.454
30
0
11
3.1737
21
-37.454
31
0
39
0
210
0
220
0
230
1
0
SOLID
5
1C4
100
AcDbEntity
8
0
62
256
6
ByLayer
370
-1
48
1
60
0
100
AcDbTrace
10
34.1337
20
-37.983167
30
0
11
34.1337
21
-36.924833
31
0
12
37.3087
22
-37.454
32
0
13
37.3087
23
-37.454
33
0
39
0
210
0
220
0
230
1
0
SOLID
5
1C5
100
AcDbEntity
8
0
62
256
6
ByLayer
370
-1
48
1
60
0
100
AcDbTrace
10
3.1737
20
-36.924833
30
0
11
3.1737
21
-37.983167
31
0
12
-0.0013
22
-37.454
32
0
13
-0.0013
23
-37.454
33
0
39
0
210
0
220
0
230
1
0
MTEXT
5
1C6
100
AcDbEntity
8
0
62
256
6
ByLayer
370
18
48
1
60
0
100
AcDbMText
10
18.6537
20
-28.06025
30
0
210
0
220
0
230
1
1
\A1;37.31
40
4.5
41
0
44
1
50
0
71
5
72
5
7
iso_b_vert
0
POINT
5
1C7
100
AcDbEntity
8
Defpoints
62
0
6
ByLayer
370
-1
48
1
60
0
100
AcDbPoint
10
37.3087
20
-12.954
30
0
39
0
210
0
220
0
230
1
50
360
0
POINT
5
1C8
100
AcDbEntity
8
Defpoints
62
0
6
ByLayer
370
-1
48
1
60
0
100
AcDbPoint
10
-0.0013
20
0
30
0
39
0
210
0
220
0
230
1
50
360
0
POINT
5
1C9
100
AcDbEntity
8
Defpoints
62
0
6
ByLayer
370
-1
48
1
60
0
100
AcDbPoint
10
-0.0013
20
-37.454
30
0
39
0
210
0
220
0
230
1
50
360
0
ENDBLK
5
1C0
100
AcDbEntity
8
0
100
AcDbBlockEnd
0
BLOCK
5
1D5
100
AcDbEntity
8
0
100
AcDbBlockBegin
2
_U1
70
0
10
0
20
0
30
0
3
_U1
0
MTEXT
5
1CB
100
AcDbEntity
8
SK2
62
256
6
ByLayer
370
18
48
1
60
0
100
AcDbMText
10
11.382666
20
-36.126328
30
0
210
0
220
0
230
1
1
\W0.8628;37.31
40
4.5
41
0
44
1.084337
50
0
71
7
72
5
7
iso_b_vert
0
LINE
5
1CC
100
AcDbEntity
8
SK2
62
256
6
ByLayer
370
13
48
1
60
0
100
AcDbLine
10
37.3087
20
-14.5415
30
0
11
37.3087
21
-40.629
31
0
39
0
210
0
220
0
230
1
0
LINE
5
1CD
100
AcDbEntity
8
SK2
62
256
6
ByLayer
370
13
48
1
60
0
100
AcDbLine
10
-0.0013
20
-1.5875
30
0
11
-0.0013
21
-40.629
31
0
39
0
210
0
220
0
230
1
0
LINE
5
1CE
100
AcDbEntity
8
SK2
62
256
6
ByLayer
370
13
48
1
60
0
100
AcDbLine
10
37.3087
20
-37.454
30
0
11
-0.0013
21
-37.454
31
0
39
0
210
0
220
0
230
1
0
LINE
5
1CF
100
AcDbEntity
8
SK2
62
256
6
ByLayer
370
13
48
1
60
0
100
AcDbLine
10
37.3087
20
-37.454
30
0
11
34.133702
21
-37.871997
31
0
39
0
210
0
220
0
230
1
0
LINE
5
1D0
100
AcDbEntity
8
SK2
62
256
6
ByLayer
370
13
48
1
60
0
100
AcDbLine
10
37.3087
20
-37.454
30
0
11
34.133698
21
-37.036003
31
0
39
0
210
0
220
0
230
1
0
LINE
5
1D1
100
AcDbEntity
8
SK2
62
256
6
ByLayer
370
13
48
1
60
0
100
AcDbLine
10
34.133702
20
-37.871997
30
0
11
34.133698
21
-37.036003
31
0
39
0
210
0
220
0
230
1
0
LINE
5
1D2
100
AcDbEntity
8
SK2
62
256
6
ByLayer
370
13
48
1
60
0
100
AcDbLine
10
-0.0013
20
-37.454
30
0
11
3.173698
21
-37.036003
31
0
39
0
210
0
220
0
230
1
0
LINE
5
1D3
100
AcDbEntity
8
SK2
62
256
6
ByLayer
370
13
48
1
60
0
100
AcDbLine
10
-0.0013
20
-37.454
30
0
11
3.173702
21
-37.871997
31
0
39
0
210
0
220
0
230
1
0
LINE
5
1D4
100
AcDbEntity
8
SK2
62
256
6
ByLayer
370
13
48
1
60
0
100
AcDbLine
10
3.173698
20
-37.036003
30
0
11
3.173702
21
-37.871997
31
0
39
0
210
0
220
0
230
1
0
ENDBLK
5
1D6
100
AcDbEntity
8
0
100
AcDbBlockEnd
0
BLOCK
5
1DB
100
AcDbEntity
8
0
100
AcDbBlockBegin
2
*D6
70
1
10
0
20
0
30
0
3
*D6
0
LINE
5
1DD
100
AcDbEntity
8
0
62
256
6
ByLayer
370
-2
48
1
60
0
100
AcDbLine
10
-57.94
20
14.28425
30
0
11
-57.94
21
36.629
31
0
39
0
210
0
220
0
230
1
0
LINE
5
1DE
100
AcDbEntity
8
0
62
256
6
ByLayer
370
-2
48
1
60
0
100
AcDbLine
10
37.3087
20
14.5415
30
0
11
37.3087
21
36.629
31
0
39
0
210
0
220
0
230
1
0
LINE
5
1DF
100
AcDbEntity
8
0
62
256
6
ByLayer
370
-2
48
1
60
0
100
AcDbLine
10
-54.765
20
33.454
30
0
11
34.1337
21
33.454
31
0
39
0
210
0
220
0
230
1
0
SOLID
5
1E0
100
AcDbEntity
8
0
62
256
6
ByLayer
370
-1
48
1
60
0
100
AcDbTrace
10
-54.765
20
33.983167
30
0
11
-54.765
21
32.924833
31
0
12
-57.94
22
33.454
32
0
13
-57.94
23
33.454
33
0
39
0
210
0
220
0
230
1
0
SOLID
5
1E1
100
AcDbEntity
8
0
62
256
6
ByLayer
370
-1
48
1
60
0
100
AcDbTrace
10
34.1337
20
32.924833
30
0
11
34.1337
21
33.983167
31
0
12
37.3087
22
33.454
32
0
13
37.3087
23
33.454
33
0
39
0
210
0
220
0
230
1
0
MTEXT
5
1E2
100
AcDbEntity
8
0
62
256
6
ByLayer
370
18
48
1
60
0
100
AcDbMText
10
-10.31565
20
42.84775
30
0
210
0
220
0
230
1
1
\A1;95.25
40
4.5
41
0
44
1
50
0
71
5
72
5
7
iso_b_vert
0
POINT
5
1E3
100
AcDbEntity
8
Defpoints
62
0
6
ByLayer
370
-1
48
1
60
0
100
AcDbPoint
10
-57.94
20
12.69675
30
0
39
0
210
0
220
0
230
1
50
360
0
POINT
5
1E4
100
AcDbEntity
8
Defpoints
62
0
6
ByLayer
370
-1
48
1
60
0
100
AcDbPoint
10
37.3087
20
12.954
30
0
39
0
210
0
220
0
230
1
50
360
0
POINT
5
1E5
100
AcDbEntity
8
Defpoints
62
0
6
ByLayer
370
-1
48
1
60
0
100
AcDbPoint
10
37.3087
20
33.454
30
0
39
0
210
0
220
0
230
1
50
360
0
ENDBLK
5
1DC
100
AcDbEntity
8
0
100
AcDbBlockEnd
0
BLOCK
5
1F1
100
AcDbEntity
8
0
100
AcDbBlockBegin
2
_U2
70
0
10
0
20
0
30
0
3
_U2
0
MTEXT
5
1E7
100
AcDbEntity
8
2
62
256
6
ByLayer
370
18
48
1
60
0
100
AcDbMText
10
-18.317822
20
34.781672
30
0
210
0
220
0
230
1
1
\W0.8825;95.25
40
4.5
41
0
44
1.084337
50
0
71
7
72
5
7
iso_b_vert
0
LINE
5
1E8
100
AcDbEntity
8
2
62
256
6
ByLayer
370
13
48
1
60
0
100
AcDbLine
10
-57.94
20
14.28425
30
0
11
-57.94
21
36.629
31
0
39
0
210
0
220
0
230
1
0
LINE
5
1E9
100
AcDbEntity
8
2
62
256
6
ByLayer
370
13
48
1
60
0
100
AcDbLine
10
37.3087
20
14.5415
30
0
11
37.3087
21
36.629
31
0
39
0
210
0
220
0
230
1
0
LINE
5
1EA
100
AcDbEntity
8
2
62
256
6
ByLayer
370
13
48
1
60
0
100
AcDbLine
10
-57.94
20
33.454
30
0
11
37.3087
21
33.454
31
0
39
0
210
0
220
0
230
1
0
LINE
5
1EB
100
AcDbEntity
8
2
62
256
6
ByLayer
370
13
48
1
60
0
100
AcDbLine
10
-57.94
20
33.454
30
0
11
-54.765002
21
33.871997
31
0
39
0
210
0
220
0
230
1
0
LINE
5
1EC
100
AcDbEntity
8
2
62
256
6
ByLayer
370
13
48
1
60
0
100
AcDbLine
10
-57.94
20
33.454
30
0
11
-54.764998
21
33.036003
31
0
39
0
210
0
220
0
230
1
0
LINE
5
1ED
100
AcDbEntity
8
2
62
256
6
ByLayer
370
13
48
1
60
0
100
AcDbLine
10
-54.765002
20
33.871997
30
0
11
-54.764998
21
33.036003
31
0
39
0
210
0
220
0
230
1
0
LINE
5
1EE
100
AcDbEntity
8
2
62
256
6
ByLayer
370
13
48
1
60
0
100
AcDbLine
10
37.3087
20
33.454
30
0
11
34.133702
21
33.036003
31
0
39
0
210
0
220
0
230
1
0
LINE
5
1EF
100
AcDbEntity
8
2
62
256
6
ByLayer
370
13
48
1
60
0
100
AcDbLine
10
37.3087
20
33.454
30
0
11
34.133698
21
33.871997
31
0
39
0
210
0
220
0
230
1
0
LINE
5
1F0
100
AcDbEntity
8
2
62
256
6
ByLayer
370
13
48
1
60
0
100
AcDbLine
10
34.133702
20
33.036003
30
0
11
34.133698
21
33.871997
31
0
39
0
210
0
220
0
230
1
0
ENDBLK
5
1F2
100
AcDbEntity
8
0
100
AcDbBlockEnd
0
BLOCK
5
1F7
100
AcDbEntity
8
0
100
AcDbBlockBegin
2
*D8
70
1
10
0
20
0
30
0
3
*D8
0
LINE
5
1F9
100
AcDbEntity
8
0
62
256
6
ByLayer
370
-2
48
1
60
0
100
AcDbLine
10
-57.94
20
14.28425
30
0
11
-57.94
21
26.629
31
0
39
0
210
0
220
0
230
1
0
LINE
5
1FA
100
AcDbEntity
8
0
62
256
6
ByLayer
370
-2
48
1
60
0
100
AcDbLine
10
0.0725
20
16.6125
30
0
11
0.0725
21
26.629
31
0
39
0
210
0
220
0
230
1
0
LINE
5
1FB
100
AcDbEntity
8
0
62
256
6
ByLayer
370
-2
48
1
60
0
100
AcDbLine
10
-54.765
20
23.454
30
0
11
-3.1025
21
23.454
31
0
39
0
210
0
220
0
230
1
0
SOLID
5
1FC
100
AcDbEntity
8
0
62
256
6
ByLayer
370
-1
48
1
60
0
100
AcDbTrace
10
-54.765
20
23.983167
30
0
11
-54.765
21
22.924833
31
0
12
-57.94
22
23.454
32
0
13
-57.94
23
23.454
33
0
39
0
210
0
220
0
230
1
0
SOLID
5
1FD
100
AcDbEntity
8
0
62
256
6
ByLayer
370
-1
48
1
60
0
100
AcDbTrace
10
-3.1025
20
22.924833
30
0
11
-3.1025
21
23.983167
31
0
12
0.0725
22
23.454
32
0
13
0.0725
23
23.454
33
0
39
0
210
0
220
0
230
1
0
MTEXT
5
1FE
100
AcDbEntity
8
0
62
256
6
ByLayer
370
18
48
1
60
0
100
AcDbMText
10
-28.93375
20
32.84775
30
0
210
0
220
0
230
1
1
\A1;58.01
40
4.5
41
0
44
1
50
0
71
5
72
5
7
iso_b_vert
0
POINT
5
1FF
100
AcDbEntity
8
Defpoints
62
0
6
ByLayer
370
-1
48
1
60
0
100
AcDbPoint
10
-57.94
20
12.69675
30
0
39
0
210
0
220
0
230
1
50
360
0
POINT
5
200
100
AcDbEntity
8
Defpoints
62
0
6
ByLayer
370
-1
48
1
60
0
100
AcDbPoint
10
0.0725
20
15.025
30
0
39
0
210
0
220
0
230
1
50
360
0
POINT
5
201
100
AcDbEntity
8
Defpoints
62
0
6
ByLayer
370
-1
48
1
60
0
100
AcDbPoint
10
0.0725
20
23.454
30
0
39
0
210
0
220
0
230
1
50
360
0
ENDBLK
5
1F8
100
AcDbEntity
8
0
100
AcDbBlockEnd
0
BLOCK
5
20D
100
AcDbEntity
8
0
100
AcDbBlockBegin
2
_U3
70
0
10
0
20
0
30
0
3
_U3
0
MTEXT
5
203
100
AcDbEntity
8
SK2
62
256
6
ByLayer
370
18
48
1
60
0
100
AcDbMText
10
-36.204784
20
24.781672
30
0
210
0
220
0
230
1
1
\W0.8628;58.01
40
4.5
41
0
44
1.084337
50
0
71
7
72
5
7
iso_b_vert
0
LINE
5
204
100
AcDbEntity
8
SK2
62
256
6
ByLayer
370
13
48
1
60
0
100
AcDbLine
10
-57.94
20
14.28425
30
0
11
-57.94
21
26.629
31
0
39
0
210
0
220
0
230
1
0
LINE
5
205
100
AcDbEntity
8
SK2
62
256
6
ByLayer
370
13
48
1
60
0
100
AcDbLine
10
0.0725
20
16.6125
30
0
11
0.0725
21
26.629
31
0
39
0
210
0
220
0
230
1
0
LINE
5
206
100
AcDbEntity
8
SK2
62
256
6
ByLayer
370
13
48
1
60
0
100
AcDbLine
10
-57.94
20
23.454
30
0
11
0.0725
21
23.454
31
0
39
0
210
0
220
0
230
1
0
LINE
5
207
100
AcDbEntity
8
SK2
62
256
6
ByLayer
370
13
48
1
60
0
100
AcDbLine
10
-57.94
20
23.454
30
0
11
-54.765002
21
23.871997
31
0
39
0
210
0
220
0
230
1
0
LINE
5
208
100
AcDbEntity
8
SK2
62
256
6
ByLayer
370
13
48
1
60
0
100
AcDbLine
10
-57.94
20
23.454
30
0
11
-54.764998
21
23.036003
31
0
39
0
210
0
220
0
230
1
0
LINE
5
209
100
AcDbEntity
8
SK2
62
256
6
ByLayer
370
13
48
1
60
0
100
AcDbLine
10
-54.765002
20
23.871997
30
0
11
-54.764998
21
23.036003
31
0
39
0
210
0
220
0
230
1
0
LINE
5
20A
100
AcDbEntity
8
SK2
62
256
6
ByLayer
370
13
48
1
60
0
100
AcDbLine
10
0.0725
20
23.454
30
0
11
-3.102498
21
23.036003
31
0
39
0
210
0
220
0
230
1
0
LINE
5
20B
100
AcDbEntity
8
SK2
62
256
6
ByLayer
370
13
48
1
60
0
100
AcDbLine
10
0.0725
20
23.454
30
0
11
-3.102502
21
23.871997
31
0
39
0
210
0
220
0
230
1
0
LINE
5
20C
100
AcDbEntity
8
SK2
62
256
6
ByLayer
370
13
48
1
60
0
100
AcDbLine
10
-3.102498
20
23.036003
30
0
11
-3.102502
21
23.871997
31
0
39
0
210
0
220
0
230
1
0
ENDBLK
5
20E
100
AcDbEntity
8
0
100
AcDbBlockEnd
0
BLOCK
5
213
100
AcDbEntity
8
0
100
AcDbBlockBegin
2
*D10
70
1
10
0
20
0
30
0
3
*D10
0
LINE
5
215
100
AcDbEntity
8
0
62
256
6
ByLayer
370
-2
48
1
60
0
100
AcDbLine
10
1.66
20
-15.025
30
0
11
76.2337
21
-15.025
31
0
39
0
210
0
220
0
230
1
0
LINE
5
216
100
AcDbEntity
8
0
62
256
6
ByLayer
370
-2
48
1
60
0
100
AcDbLine
10
1.66
20
15.025
30
0
11
76.2337
21
15.025
31
0
39
0
210
0
220
0
230
1
0
LINE
5
217
100
AcDbEntity
8
0
62
256
6
ByLayer
370
-2
48
1
60
0
100
AcDbLine
10
73.0587
20
-11.85
30
0
11
73.0587
21
11.85
31
0
39
0
210
0
220
0
230
1
0
SOLID
5
218
100
AcDbEntity
8
0
62
256
6
ByLayer
370
-1
48
1
60
0
100
AcDbTrace
10
72.529533
20
-11.85
30
0
11
73.587867
21
-11.85
31
0
12
73.0587
22
-15.025
32
0
13
73.0587
23
-15.025
33
0
39
0
210
0
220
0
230
1
0
SOLID
5
219
100
AcDbEntity
8
0
62
256
6
ByLayer
370
-1
48
1
60
0
100
AcDbTrace
10
73.587867
20
11.85
30
0
11
72.529533
21
11.85
31
0
12
73.0587
22
15.025
32
0
13
73.0587
23
15.025
33
0
39
0
210
0
220
0
230
1
0
MTEXT
5
21A
100
AcDbEntity
8
0
62
256
6
ByLayer
370
18
48
1
60
0
100
AcDbMText
10
63.66495
20
0
30
0
210
0
220
0
230
1
1
\A1;30.05
40
4.5
41
0
44
1
50
90
71
5
72
5
7
iso_b_vert
0
POINT
5
21B
100
AcDbEntity
8
Defpoints
62
0
6
ByLayer
370
-1
48
1
60
0
100
AcDbPoint
10
0.0725
20
-15.025
30
0
39
0
210
0
220
0
230
1
50
360
0
POINT
5
21C
100
AcDbEntity
8
Defpoints
62
0
6
ByLayer
370
-1
48
1
60
0
100
AcDbPoint
10
0.0725
20
15.025
30
0
39
0
210
0
220
0
230
1
50
360
0
POINT
5
21D
100
AcDbEntity
8
Defpoints
62
0
6
ByLayer
370
-1
48
1
60
0
100
AcDbPoint
10
73.0587
20
15.025
30
0
39
0
210
0
220
0
230
1
50
360
0
ENDBLK
5
214
100
AcDbEntity
8
0
100
AcDbBlockEnd
0
BLOCK
5
22A
100
AcDbEntity
8
0
100
AcDbBlockBegin
2
_U4
70
0
10
0
20
0
30
0
3
_U4
0
MTEXT
5
21F
100
AcDbEntity
8
SK2
62
256
6
ByLayer
370
18
48
1
60
0
100
AcDbMText
10
70.976854
20
-12.860297
30
0
210
0
220
0
230
1
1
%%c
40
3.175
41
0
44
1.084337
50
90
71
7
72
5
7
iso_b_vert
0
MTEXT
5
220
100
AcDbEntity
8
SK2
62
256
6
ByLayer
370
18
48
1
60
0
100
AcDbMText
10
71.378278
20
-3.275672
30
0
210
0
220
0
230
1
1
\W0.8825;30.05
40
4.5
41
0
44
1.084337
50
90
71
7
72
5
7
iso_b_vert
0
LINE
5
221
100
AcDbEntity
8
SK2
62
256
6
ByLayer
370
13
48
1
60
0
100
AcDbLine
10
1.66
20
-15.025
30
0
11
76.2337
21
-15.025
31
0
39
0
210
0
220
0
230
1
0
LINE
5
222
100
AcDbEntity
8
SK2
62
256
6
ByLayer
370
13
48
1
60
0
100
AcDbLine
10
1.66
20
15.025
30
0
11
76.2337
21
15.025
31
0
39
0
210
0
220
0
230
1
0
LINE
5
223
100
AcDbEntity
8
SK2
62
256
6
ByLayer
370
13
48
1
60
0
100
AcDbLine
10
73.0587
20
-26.275
30
0
11
73.0587
21
26.275
31
0
39
0
210
0
220
0
230
1
0
LINE
5
224
100
AcDbEntity
8
SK2
62
256
6
ByLayer
370
13
48
1
60
0
100
AcDbLine
10
73.0587
20
-15.025
30
0
11
73.476697
21
-18.199998
31
0
39
0
210
0
220
0
230
1
0
LINE
5
225
100
AcDbEntity
8
SK2
62
256
6
ByLayer
370
13
48
1
60
0
100
AcDbLine
10
73.0587
20
-15.025
30
0
11
72.640703
21
-18.200002
31
0
39
0
210
0
220
0
230
1
0
LINE
5
226
100
AcDbEntity
8
SK2
62
256
6
ByLayer
370
13
48
1
60
0
100
AcDbLine
10
73.476697
20
-18.199998
30
0
11
72.640703
21
-18.200002
31
0
39
0
210
0
220
0
230
1
0
LINE
5
227
100
AcDbEntity
8
SK2
62
256
6
ByLayer
370
13
48
1
60
0
100
AcDbLine
10
73.0587
20
15.025
30
0
11
72.640703
21
18.199998
31
0
39
0
210
0
220
0
230
1
0
LINE
5
228
100
AcDbEntity
8
SK2
62
256
6
ByLayer
370
13
48
1
60
0
100
AcDbLine
10
73.0587
20
15.025
30
0
11
73.476697
21
18.200002
31
0
39
0
210
0
220
0
230
1
0
LINE
5
229
100
AcDbEntity
8
SK2
62
256
6
ByLayer
370
13
48
1
60
0
100
AcDbLine
10
72.640703
20
18.199998
30
0
11
73.476697
21
18.200002
31
0
39
0
210
0
220
0
230
1
0
ENDBLK
5
22B
100
AcDbEntity
8
0
100
AcDbBlockEnd
0
BLOCK
5
230
100
AcDbEntity
8
0
100
AcDbBlockBegin
2
*D12
70
1
10
0
20
0
30
0
3
*D12
0
LINE
5
232
100
AcDbEntity
8
0
62
256
6
ByLayer
370
-2
48
1
60
0
100
AcDbLine
10
-59.5275
20
12.69675
30
0
11
-86.218125
21
12.69675
31
0
39
0
210
0
220
0
230
1
0
LINE
5
233
100
AcDbEntity
8
0
62
256
6
ByLayer
370
-2
48
1
60
0
100
AcDbLine
10
-59.5275
20
-12.69675
30
0
11
-86.218125
21
-12.69675
31
0
39
0
210
0
220
0
230
1
0
LINE
5
234
100
AcDbEntity
8
0
62
256
6
ByLayer
370
-2
48
1
60
0
100
AcDbLine
10
-83.043125
20
12.69675
30
0
11
-83.043125
21
52.849029
31
0
39
0
210
0
220
0
230
1
0
LINE
5
235
100
AcDbEntity
8
0
62
256
6
ByLayer
370
-2
48
1
60
0
100
AcDbLine
10
-83.043125
20
9.52175
30
0
11
-83.043125
21
-9.52175
31
0
39
0
210
0
220
0
230
1
0
SOLID
5
236
100
AcDbEntity
8
0
62
256
6
ByLayer
370
-1
48
1
60
0
100
AcDbTrace
10
-82.513958
20
9.52175
30
0
11
-83.572292
21
9.52175
31
0
12
-83.043125
22
12.69675
32
0
13
-83.043125
23
12.69675
33
0
39
0
210
0
220
0
230
1
0
SOLID
5
237
100
AcDbEntity
8
0
62
256
6
ByLayer
370
-1
48
1
60
0
100
AcDbTrace
10
-83.572292
20
-9.52175
30
0
11
-82.513958
21
-9.52175
31
0
12
-83.043125
22
-12.69675
32
0
13
-83.043125
23
-12.69675
33
0
39
0
210
0
220
0
230
1
0
MTEXT
5
238
100
AcDbEntity
8
0
62
256
6
ByLayer
370
18
48
1
60
0
100
AcDbMText
10
-92.436875
20
36.812422
30
0
210
0
220
0
230
1
1
\A1;25.39
40
4.5
41
0
44
1
50
90
71
5
72
5
7
iso_b_vert
0
POINT
5
239
100
AcDbEntity
8
Defpoints
62
0
6
ByLayer
370
-1
48
1
60
0
100
AcDbPoint
10
-57.94
20
12.69675
30
0
39
0
210
0
220
0
230
1
50
360
0
POINT
5
23A
100
AcDbEntity
8
Defpoints
62
0
6
ByLayer
370
-1
48
1
60
0
100
AcDbPoint
10
-57.94
20
-12.69675
30
0
39
0
210
0
220
0
230
1
50
360
0
POINT
5
23B
100
AcDbEntity
8
Defpoints
62
0
6
ByLayer
370
-1
48
1
60
0
100
AcDbPoint
10
-83.043125
20
-12.69675
30
0
39
0
210
0
220
0
230
1
50
360
0
ENDBLK
5
231
100
AcDbEntity
8
0
100
AcDbBlockEnd
0
BLOCK
5
248
100
AcDbEntity
8
0
100
AcDbBlockBegin
2
_U5
70
0
10
0
20
0
30
0
3
_U5
0
MTEXT
5
23D
100
AcDbEntity
8
SK2
62
256
6
ByLayer
370
18
48
1
60
0
100
AcDbMText
10
-85.124971
20
23.952125
30
0
210
0
220
0
230
1
1
%%c
40
3.175
41
0
44
1.084337
50
90
71
7
72
5
7
iso_b_vert
0
MTEXT
5
23E
100
AcDbEntity
8
SK2
62
256
6
ByLayer
370
18
48
1
60
0
100
AcDbMText
10
-84.723547
20
33.53675
30
0
210
0
220
0
230
1
1
\W0.8928;25.39
40
4.5
41
0
44
1.084337
50
90
71
7
72
5
7
iso_b_vert
0
LINE
5
23F
100
AcDbEntity
8
SK2
62
256
6
ByLayer
370
13
48
1
60
0
100
AcDbLine
10
-59.5275
20
12.69675
30
0
11
-86.218125
21
12.69675
31
0
39
0
210
0
220
0
230
1
0
LINE
5
240
100
AcDbEntity
8
SK2
62
256
6
ByLayer
370
13
48
1
60
0
100
AcDbLine
10
-59.5275
20
-12.69675
30
0
11
-86.218125
21
-12.69675
31
0
39
0
210
0
220
0
230
1
0
LINE
5
241
100
AcDbEntity
8
SK2
62
256
6
ByLayer
370
13
48
1
60
0
100
AcDbLine
10
-83.043125
20
-12.69675
30
0
11
-83.043125
21
49.815594
31
0
39
0
210
0
220
0
230
1
0
LINE
5
242
100
AcDbEntity
8
SK2
62
256
6
ByLayer
370
13
48
1
60
0
100
AcDbLine
10
-83.043125
20
12.69675
30
0
11
-82.625128
21
9.521752
31
0
39
0
210
0
220
0
230
1
0
LINE
5
243
100
AcDbEntity
8
SK2
62
256
6
ByLayer
370
13
48
1
60
0
100
AcDbLine
10
-83.043125
20
12.69675
30
0
11
-83.461122
21
9.521748
31
0
39
0
210
0
220
0
230
1
0
LINE
5
244
100
AcDbEntity
8
SK2
62
256
6
ByLayer
370
13
48
1
60
0
100
AcDbLine
10
-82.625128
20
9.521752
30
0
11
-83.461122
21
9.521748
31
0
39
0
210
0
220
0
230
1
0
LINE
5
245
100
AcDbEntity
8
SK2
62
256
6
ByLayer
370
13
48
1
60
0
100
AcDbLine
10
-83.043125
20
-12.69675
30
0
11
-83.461122
21
-9.521752
31
0
39
0
210
0
220
0
230
1
0
LINE
5
246
100
AcDbEntity
8
SK2
62
256
6
ByLayer
370
13
48
1
60
0
100
AcDbLine
10
-83.043125
20
-12.69675
30
0
11
-82.625128
21
-9.521748
31
0
39
0
210
0
220
0
230
1
0
LINE
5
247
100
AcDbEntity
8
SK2
62
256
6
ByLayer
370
13
48
1
60
0
100
AcDbLine
10
-83.461122
20
-9.521752
30
0
11
-82.625128
21
-9.521748
31
0
39
0
210
0
220
0
230
1
0
ENDBLK
5
249
100
AcDbEntity
8
0
100
AcDbBlockEnd
0
ENDSEC
0
SECTION
2
ENTITIES
0
ARC
5
CB
100
AcDbEntity
8
1
62
256
6
ByLayer
370
18
48
1
60
0
100
AcDbCircle
39
0
10
31.977144
20
9.723843
30
0
40
1.28905
210
0
220
0
230
1
100
AcDbArc
50
255
51
315
0
ARC
5
CC
100
AcDbEntity
8
1
62
256
6
ByLayer
370
18
48
1
60
0
100
AcDbCircle
39
0
10
31.977144
20
9.723843
30
0
40
1.28905
210
0
220
0
230
1
100
AcDbArc
50
315
51
15
0
ARC
5
CD
100
AcDbEntity
8
1
62
256
6
ByLayer
370
18
48
1
60
0
100
AcDbCircle
39
0
10
31.977144
20
9.723843
30
0
40
1.28905
210
0
220
0
230
1
100
AcDbArc
50
135
51
195
0
ARC
5
CE
100
AcDbEntity
8
1
62
256
6
ByLayer
370
18
48
1
60
0
100
AcDbCircle
39
0
10
31.977144
20
9.723843
30
0
40
1.28905
210
0
220
0
230
1
100
AcDbArc
50
195
51
255
0
ARC
5
CF
100
AcDbEntity
8
1
62
256
6
ByLayer
370
18
48
1
60
0
100
AcDbCircle
39
0
10
31.977144
20
9.723843
30
0
40
1.28905
210
0
220
0
230
1
100
AcDbArc
50
15
51
75
0
ARC
5
D0
100
AcDbEntity
8
1
62
256
6
ByLayer
370
18
48
1
60
0
100
AcDbCircle
39
0
10
31.977144
20
9.723843
30
0
40
1.28905
210
0
220
0
230
1
100
AcDbArc
50
75
51
135
0
ARC
5
D1
100
AcDbEntity
8
1
62
256
6
ByLayer
370
18
48
1
60
0
100
AcDbCircle
39
0
10
31.977144
20
9.723843
30
0
40
0.9944
210
0
220
0
230
1
100
AcDbArc
50
45
51
105
0
ARC
5
D2
100
AcDbEntity
8
1
62
256
6
ByLayer
370
18
48
1
60
0
100
AcDbCircle
39
0
10
31.977144
20
9.723843
30
0
40
0.9944
210
0
220
0
230
1
100
AcDbArc
50
105
51
165
0
ARC
5
D3
100
AcDbEntity
8
1
62
256
6
ByLayer
370
18
48
1
60
0
100
AcDbCircle
39
0
10
31.977144
20
9.723843
30
0
40
0.9944
210
0
220
0
230
1
100
AcDbArc
50
285
51
345
0
ARC
5
D4
100
AcDbEntity
8
1
62
256
6
ByLayer
370
18
48
1
60
0
100
AcDbCircle
39
0
10
31.977144
20
9.723843
30
0
40
0.9944
210
0
220
0
230
1
100
AcDbArc
50
165
51
225
0
ARC
5
D5
100
AcDbEntity
8
1
62
256
6
ByLayer
370
18
48
1
60
0
100
AcDbCircle
39
0
10
31.977144
20
9.723843
30
0
40
0.9944
210
0
220
0
230
1
100
AcDbArc
50
345
51
45
0
ARC
5
D6
100
AcDbEntity
8
1
62
256
6
ByLayer
370
18
48
1
60
0
100
AcDbCircle
39
0
10
31.977144
20
9.723843
30
0
40
0.9944
210
0
220
0
230
1
100
AcDbArc
50
225
51
285
0
ARC
5
DC
100
AcDbEntity
8
1
62
256
6
ByLayer
370
13
48
1
60
0
100
AcDbCircle
39
0
10
27.311102
20
7.764749
30
0
40
1.5
210
0
220
0
230
1
100
AcDbArc
50
120
51
186.704587
0
ARC
5
DD
100
AcDbEntity
8
1
62
256
6
ByLayer
370
13
48
1
60
0
100
AcDbCircle
39
0
10
28.468852
20
11.699163
30
0
40
1
210
0
220
0
230
1
100
AcDbArc
50
112.399728
51
217.392066
0
ARC
5
DE
100
AcDbEntity
8
1
62
256
6
ByLayer
370
13
48
1
60
0
100
AcDbCircle
39
0
10
31.977144
20
16.723843
30
0
40
12
210
0
220
0
230
1
100
AcDbArc
50
199.097889
51
221.90732
0
ARC
5
DF
100
AcDbEntity
8
1
62
256
6
ByLayer
370
13
48
1
60
0
100
AcDbCircle
39
0
10
28.280287
20
-12.80741
30
0
40
2
210
0
220
0
230
1
100
AcDbArc
50
236.309932
51
253.947036
0
ARC
5
E0
100
AcDbEntity
8
1
62
256
6
ByLayer
370
13
48
1
60
0
100
AcDbCircle
39
0
10
24.37196
20
-13.80741
30
0
40
1
210
0
220
0
230
1
100
AcDbArc
50
56.309932
51
90
0
ARC
5
E1
100
AcDbEntity
8
1
62
256
6
ByLayer
370
13
48
1
60
0
100
AcDbCircle
39
0
10
16.511751
20
12.30741
30
0
40
0.5
210
0
220
0
230
1
100
AcDbArc
50
90
51
128.860113
0
ARC
5
E2
100
AcDbEntity
8
1
62
256
6
ByLayer
370
13
48
1
60
0
100
AcDbCircle
39
0
10
16.511751
20
-12.30741
30
0
40
0.5
210
0
220
0
230
1
100
AcDbArc
50
231.139887
51
270
0
ARC
5
E3
100
AcDbEntity
8
SK2
62
256
6
ByLayer
370
13
48
1
60
0
100
AcDbCircle
39
0
10
37.3087
20
12.954
30
0
40
22.3225388514958
210
0
220
0
230
1
100
AcDbArc
50
90
51
165
0
CIRCLE
5
D7
100
AcDbEntity
8
1
62
256
6
ByLayer
370
18
48
1
60
0
100
AcDbCircle
10
31.977144
20
9.723843
30
0
40
1.4
39
0
210
0
220
0
230
1
0
CIRCLE
5
D8
100
AcDbEntity
8
1
62
256
6
ByLayer
370
18
48
1
60
0
100
AcDbCircle
10
31.977144
20
9.723843
30
0
40
2.1
39
0
210
0
220
0
230
1
0
CIRCLE
5
D9
100
AcDbEntity
8
1
62
256
6
ByLayer
370
18
48
1
60
0
100
AcDbCircle
10
31.977144
20
9.723843
30
0
40
2.15037854103613
39
0
210
0
220
0
230
1
0
CIRCLE
5
DA
100
AcDbEntity
8
1
62
256
6
ByLayer
370
18
48
1
60
0
100
AcDbCircle
10
31.977144
20
9.723843
30
0
40
2.26175520142507
39
0
210
0
220
0
230
1
0
CIRCLE
5
DB
100
AcDbEntity
8
1
62
256
6
ByLayer
370
18
48
1
60
0
100
AcDbCircle
10
31.977144
20
9.723843
30
0
40
2.30803925391311
39
0
210
0
220
0
230
1
0
ELLIPSE
5
E4
100
AcDbEntity
8
1
62
256
6
ByLayer
370
18
48
1
60
0
100
AcDbEllipse
10
31.977144
20
1.181878
30
0
11
-1.2
21
1.21276686609884E-15
31
0
210
0
220
0
230
1
40
0.5
41
0
42
0.261832530393089
0
ELLIPSE
5
E5
100
AcDbEntity
8
1
62
256
6
ByLayer
370
18
48
1
60
0
100
AcDbEllipse
10
31.977144
20
1.181878
30
0
11
-1.2
21
1.21276686609884E-15
31
0
210
0
220
0
230
1
40
0.5
41
-2.91166687505428
42
-3.70074341541719E-16
0
ELLIPSE
5
E6
100
AcDbEntity
8
1
62
256
6
ByLayer
370
18
48
1
60
0
100
AcDbEllipse
10
31.977144
20
0.922071
30
0
11
1.5
21
0
31
0
210
0
220
0
230
1
40
0.5
41
2.52613472716426
42
2.78276406327187
0
ELLIPSE
5
E7
100
AcDbEntity
8
SK1
62
256
6
ByLayer
370
13
48
1
60
0
100
AcDbEllipse
10
-56.029946
20
0
30
0
11
12.9203066667187
21
1.51355625567789E-14
31
0
210
0
220
0
230
1
40
0.982697
41
-0.582453993601119
42
0.582453993601122
0
ELLIPSE
5
E8
100
AcDbEntity
8
SK1
62
256
6
ByLayer
370
13
48
1
60
0
100
AcDbEllipse
10
-24.730054
20
0
30
0
11
12.9203066667189
21
1.51355625567792E-14
31
0
210
0
220
0
230
1
40
0.982697
41
2.55913865998868
42
-2.55913865998868
0
ELLIPSE
5
E9
100
AcDbEntity
8
SK1
62
256
6
ByLayer
370
13
48
1
60
0
100
AcDbEllipse
10
-33.204946
20
0
30
0
11
12.9203066667187
21
1.51355625567789E-14
31
0
210
0
220
0
230
1
40
0.982697
41
-0.582453993601119
42
0.582453993601122
0
ELLIPSE
5
EA
100
AcDbEntity
8
1
62
256
6
ByLayer
370
13
48
1
60
0
100
AcDbEllipse
10
29.978044
20
-2.720215
30
0
11
2.58029065557311
21
10.456109817416
31
0
210
0
220
0
230
1
40
0.042644
41
1.94455982996552
42
1.96439585304717
0
ELLIPSE
5
EB
100
AcDbEntity
8
1
62
256
6
ByLayer
370
13
48
1
60
0
100
AcDbEllipse
10
29.602546
20
-5.512176
30
0
11
1.02066967536642
21
-0.721618606874439
31
0
210
0
220
0
230
1
40
0.281012
41
2.97052653690381
42
3.02357982462389
0
ELLIPSE
5
EC
100
AcDbEntity
8
1
62
256
6
ByLayer
370
13
48
1
60
0
100
AcDbEllipse
10
31.803939
20
1.518724
30
0
11
1.4
21
0
31
0
210
0
220
0
230
1
40
0.5
41
0
42
6.28318530717959
0
ELLIPSE
5
ED
100
AcDbEntity
8
1
62
256
6
ByLayer
370
13
48
1
60
0
100
AcDbEllipse
10
-320.554951
20
-50.983738
30
0
11
393.217669578688
21
52.8585607347548
31
0
210
0
220
0
230
1
40
0.057421
41
0.445435304749383
42
0.455210713473598
0
ELLIPSE
5
EE
100
AcDbEntity
8
1
62
256
6
ByLayer
370
13
48
1
60
0
100
AcDbEllipse
10
26.870297
20
0.530675
30
0
11
2.16375265984268
21
-15.2396547237073
31
0
210
0
220
0
230
1
40
0.227979
41
1.55190982760375
42
1.76128604975564
0
ELLIPSE
5
EF
100
AcDbEntity
8
1
62
256
6
ByLayer
370
13
48
1
60
0
100
AcDbEllipse
10
29.623787
20
-5.482132
30
0
11
1.02066967536642
21
-0.721618606874439
31
0
210
0
220
0
230
1
40
0.281012
41
2.99371546581695
42
3.02169175220333
0
ELLIPSE
5
F0
100
AcDbEntity
8
1
62
256
6
ByLayer
370
13
48
1
60
0
100
AcDbEllipse
10
31.803939
20
1.518724
30
0
11
1.5
21
0
31
0
210
0
220
0
230
1
40
0.5
41
1.83259571459405
42
-2.87979326579064
0
ELLIPSE
5
F1
100
AcDbEntity
8
1
62
256
6
ByLayer
370
13
48
1
60
0
100
AcDbEllipse
10
31.127879
20
5.830203
30
0
11
5.405844390077
21
31.3674522701565
31
0
210
0
220
0
230
1
40
0.01324
41
1.9308837797635
42
1.97483144327652
0
ELLIPSE
5
F2
100
AcDbEntity
8
1
62
256
6
ByLayer
370
13
48
1
60
0
100
AcDbEllipse
10
31.41571
20
2.676181
30
0
11
-0.0663940880480589
21
0.495572219835078
31
0
210
0
220
0
230
1
40
0.224144
41
1.0320572075614
42
2.60285353435632
0
ELLIPSE
5
F3
100
AcDbEntity
8
1
62
256
6
ByLayer
370
13
48
1
60
0
100
AcDbEllipse
10
29.602546
20
-5.512176
30
0
11
1.23884783184462
21
-0.166601469182878
31
0
210
0
220
0
230
1
40
0.468957
41
2.50514896345209
42
2.87177474722626
0
ELLIPSE
5
F4
100
AcDbEntity
8
1
62
256
6
ByLayer
370
13
48
1
60
0
100
AcDbEllipse
10
29.388325
20
-7.105116
30
0
11
1.25875969541407
21
0.00310563417005957
31
0
210
0
220
0
230
1
40
0.496765
41
2.27034301333057
42
2.91020958238729
0
ELLIPSE
5
F5
100
AcDbEntity
8
1
62
256
6
ByLayer
370
13
48
1
60
0
100
AcDbEllipse
10
21.133868
20
6.153743
30
0
11
25.0809974624322
21
-16.2069433380809
31
0
210
0
220
0
230
1
40
0.147305
41
-1.12659535240902
42
-1.12295648472742
0
ELLIPSE
5
F6
100
AcDbEntity
8
1
62
256
6
ByLayer
370
13
48
1
60
0
100
AcDbEllipse
10
29.623787
20
15.013166
30
0
11
0.323523806378151
21
1.20740728286133
31
0
210
0
220
0
230
1
40
0.819152
41
2.20295564398837
42
2.23093193037411
0
ELLIPSE
5
F7
100
AcDbEntity
8
1
62
256
6
ByLayer
370
13
48
1
60
0
100
AcDbEllipse
10
27.311102
20
7.764749
30
0
11
-0.75
21
1.29903810567666
31
0
210
0
220
0
230
1
40
0.707107
41
-0.553697627124473
42
0
0
ELLIPSE
5
F8
100
AcDbEntity
8
1
62
256
6
ByLayer
370
13
48
1
60
0
100
AcDbEllipse
10
29.602546
20
15.018858
30
0
11
0.323523806378151
21
1.20740728286133
31
0
210
0
220
0
230
1
40
0.992546
41
2.1672724906199
42
2.38696186920471
0
ELLIPSE
5
F9
100
AcDbEntity
8
1
62
256
6
ByLayer
370
13
48
1
60
0
100
AcDbEllipse
10
29.388325
20
15.076258
30
0
11
1.21647470081336
21
-0.325953413695838
31
0
210
0
220
0
230
1
40
0.992546
41
-2.65150021229713
42
-2.0913670144295
0
ELLIPSE
5
FA
100
AcDbEntity
8
1
62
256
6
ByLayer
370
13
48
1
60
0
100
AcDbEllipse
10
31.977144
20
-10.253356
30
0
11
13.8793852415719
21
0
31
0
210
0
220
0
230
1
40
0.5
41
2.47561492634721
42
2.84141239639854
0
ELLIPSE
5
FB
100
AcDbEntity
8
1
62
256
6
ByLayer
370
13
48
1
60
0
100
AcDbEllipse
10
31.803939
20
1.085711
30
0
11
1.3175
21
0
31
0
210
0
220
0
230
1
40
0.5
41
1.84764798269653
42
2.90911401433793
0
ELLIPSE
5
FC
100
AcDbEntity
8
1
62
256
6
ByLayer
370
13
48
1
60
0
100
AcDbEllipse
10
31.803939
20
1.085711
30
0
11
1.3175
21
0
31
0
210
0
220
0
230
1
40
0.5
41
0
42
0.491951841651785
0
ELLIPSE
5
FD
100
AcDbEntity
8
1
62
256
6
ByLayer
370
13
48
1
60
0
100
AcDbEllipse
10
31.803939
20
1.085711
30
0
11
1.4
21
0
31
0
210
0
220
0
230
1
40
0.5
41
1.46447145100326
42
2.82723570311802
0
ELLIPSE
5
FE
100
AcDbEntity
8
1
62
256
6
ByLayer
370
13
48
1
60
0
100
AcDbEllipse
10
31.803939
20
1.951737
30
0
11
-2
21
2.02127811016473E-15
31
0
210
0
220
0
230
1
40
0.5
41
-1.30899693899574
42
-0.569667305285602
0
ELLIPSE
5
FF
100
AcDbEntity
8
1
62
256
6
ByLayer
370
13
48
1
60
0
100
AcDbEllipse
10
30.35505
20
1.757622
30
0
11
-0.440706208327689
21
-0.236173745241574
31
0
210
0
220
0
230
1
40
0.836516
41
1.03906889089779
42
1.14936723277601
0
POINT
5
70
100
AcDbEntity
8
81
62
256
6
ByLayer
370
18
48
1
60
0
100
AcDbPoint
10
37.3087
20
12.954
30
0
39
0
210
0
220
0
230
1
50
360
0
POINT
5
72
100
AcDbEntity
8
80
62
256
6
ByLayer
370
18
48
1
60
0
100
AcDbPoint
10
0
20
0
30
0
39
0
210
0
220
0
230
1
50
360
0
POINT
5
74
100
AcDbEntity
8
1
62
256
6
ByLayer
370
18
48
1
60
1
100
AcDbPoint
10
37.3087
20
-12.954
30
0
39
0
210
0
220
0
230
1
50
360
0
POINT
5
76
100
AcDbEntity
8
1
62
256
6
ByLayer
370
18
48
1
60
1
100
AcDbPoint
10
37.3087
20
12.954
30
0
39
0
210
0
220
0
230
1
50
360
0
POINT
5
77
100
AcDbEntity
8
1
62
256
6
ByLayer
370
18
48
1
60
1
100
AcDbPoint
10
37.3087
20
-12.954
30
0
39
0
210
0
220
0
230
1
50
360
0
POINT
5
78
100
AcDbEntity
8
1
62
256
6
ByLayer
370
18
48
1
60
1
100
AcDbPoint
10
-0.0013
20
0
30
0
39
0
210
0
220
0
230
1
50
360
0
POINT
5
79
100
AcDbEntity
8
1
62
256
6
ByLayer
370
18
48
1
60
1
100
AcDbPoint
10
-57.94
20
12.69675
30
0
39
0
210
0
220
0
230
1
50
360
0
POINT
5
7A
100
AcDbEntity
8
1
62
256
6
ByLayer
370
18
48
1
60
1
100
AcDbPoint
10
37.3087
20
12.954
30
0
39
0
210
0
220
0
230
1
50
360
0
POINT
5
7B
100
AcDbEntity
8
1
62
256
6
ByLayer
370
18
48
1
60
1
100
AcDbPoint
10
-57.94
20
12.69675
30
0
39
0
210
0
220
0
230
1
50
360
0
POINT
5
7C
100
AcDbEntity
8
1
62
256
6
ByLayer
370
18
48
1
60
1
100
AcDbPoint
10
0.0725
20
15.025
30
0
39
0
210
0
220
0
230
1
50
360
0
POINT
5
7D
100
AcDbEntity
8
1
62
256
6
ByLayer
370
18
48
1
60
1
100
AcDbPoint
10
0.0725
20
-15.025
30
0
39
0
210
0
220
0
230
1
50
360
0
POINT
5
7E
100
AcDbEntity
8
1
62
256
6
ByLayer
370
18
48
1
60
1
100
AcDbPoint
10
0.0725
20
15.025
30
0
39
0
210
0
220
0
230
1
50
360
0
POINT
5
7F
100
AcDbEntity
8
1
62
256
6
ByLayer
370
18
48
1
60
1
100
AcDbPoint
10
-57.94
20
12.69675
30
0
39
0
210
0
220
0
230
1
50
360
0
POINT
5
80
100
AcDbEntity
8
1
62
256
6
ByLayer
370
18
48
1
60
1
100
AcDbPoint
10
-57.94
20
-12.69675
30
0
39
0
210
0
220
0
230
1
50
360
0
SPLINE
5
100
100
AcDbEntity
8
1
62
256
6
ByLayer
370
18
48
1
60
0
100
AcDbSpline
70
4
71
3
72
8
73
4
40
0
40
0
40
0
40
0
40
1
40
1
40
1
40
1
41
1
10
29.5679041215392
20
-7.51407000220391
30
0
41
1
10
30.7592126406304
20
-7.3544649243905
30
0
41
1
10
31.9505211596896
20
-7.19485984658141
30
0
41
1
10
33.1418296788124
20
-7.03525476876376
30
0
0
SPLINE
5
101
100
AcDbEntity
8
1
62
256
6
ByLayer
370
18
48
1
60
0
100
AcDbSpline
70
4
71
3
72
8
73
4
40
0
40
0
40
0
40
0
40
1
40
1
40
1
40
1
41
1
10
36.7157552360801
20
-6.55643953532288
30
0
41
1
10
36.4774842623534
20
-5.53214193440357
30
0
41
1
10
36.2392132886276
20
-4.50784433348412
30
0
41
1
10
36.000942314902
20
-3.48354673256466
30
0
0
SPLINE
5
102
100
AcDbEntity
8
1
62
256
6
ByLayer
370
18
48
1
60
0
100
AcDbSpline
70
4
71
3
72
8
73
4
40
0
40
0
40
0
40
0
40
1
40
1
40
1
40
1
41
1
10
33.1418296788124
20
-7.03525476876376
30
0
41
1
10
34.3331381979353
20
-6.87564969094612
30
0
41
1
10
35.5244467169945
20
-6.716044613137
30
0
41
1
10
36.7157552360857
20
-6.55643953532359
30
0
0
SPLINE
5
103
100
AcDbEntity
8
1
62
256
6
ByLayer
370
18
48
1
60
0
100
AcDbSpline
70
4
71
3
72
8
73
4
40
0
40
0
40
0
40
0
40
1
40
1
40
1
40
1
41
1
10
29.9806015540087
20
-4.29011945508529
30
0
41
1
10
29.8430357431888
20
-5.36476963745719
30
0
41
1
10
29.7054699323688
20
-6.43941981982908
30
0
41
1
10
29.5679041215477
20
-7.51407000220112
30
0
0
SPLINE
5
104
100
AcDbEntity
8
1
62
256
6
ByLayer
370
18
48
1
60
0
100
AcDbSpline
70
4
71
3
72
8
73
4
40
0
40
0
40
0
40
0
40
1
40
1
40
1
40
1
41
1
10
36.0009423149029
20
-3.48354673256645
30
0
41
1
10
34.9975521880907
20
-3.61797551965282
30
0
41
1
10
33.9941620612855
20
-3.75240430673821
30
0
41
1
10
32.9907719344545
20
-3.88683309382708
30
0
0
SPLINE
5
105
100
AcDbEntity
8
1
62
256
6
ByLayer
370
18
48
1
60
0
100
AcDbSpline
70
4
71
1
72
4
73
2
40
0
40
0
40
1
40
1
41
1
10
33.1418296788124
20
-7.03525476876376
30
0
41
1
10
32.9907719344545
20
-3.88683309382708
30
0
0
SPLINE
5
106
100
AcDbEntity
8
1
62
256
6
ByLayer
370
18
48
1
60
0
100
AcDbSpline
70
4
71
3
72
17
73
13
40
0
40
0
40
0
40
0
40
0.0625
40
0.125
40
0.25
40
0.375
40
0.5
40
0.625
40
0.75
40
0.875
40
0.9375
40
1
40
1
40
1
40
1
41
1
10
28.5881082040994
20
-7.23122744854649
30
0
41
1
10
28.5948840708399
20
-7.243871388017
30
0
41
1
10
28.6109208713671
20
-7.2688262424594
30
0
41
1
10
28.652620053221
20
-7.31692494895495
30
0
41
1
10
28.7220747925816
20
-7.37277397380387
30
0
41
1
10
28.8299718394937
20
-7.43037425272411
30
0
41
1
10
28.9582702130918
20
-7.47634297307297
30
0
41
1
10
29.1020393772262
20
-7.50891333403067
30
0
41
1
10
29.2557547703115
20
-7.52683466967932
30
0
41
1
10
29.3872156301698
20
-7.52898445563002
30
0
41
1
10
29.4913747495418
20
-7.52299164206343
30
0
41
1
10
29.5426162222716
20
-7.517458094391
30
0
41
1
10
29.5679041012127
20
-7.5140701610207
30
0
0
SPLINE
5
107
100
AcDbEntity
8
1
62
256
6
ByLayer
370
18
48
1
60
0
100
AcDbSpline
70
4
71
3
72
17
73
13
40
0
40
0
40
0
40
0
40
0.0625
40
0.125
40
0.25
40
0.375
40
0.5
40
0.625
40
0.75
40
0.875
40
0.9375
40
1
40
1
40
1
40
1
41
1
10
36.5666277398524
20
-2.99364878400843
30
0
41
1
10
36.5734033883504
20
-3.00629231623287
30
0
41
1
10
36.5844583101133
20
-3.03191367061839
30
0
41
1
10
36.596410929246
20
-3.08399335007971
30
0
41
1
10
36.5920997799282
20
-3.14972031923801
30
0
41
1
10
36.5562968219875
20
-3.2265795781891
30
0
41
1
10
36.4911805248066
20
-3.29846782284045
30
0
41
1
10
36.3992245625589
20
-3.36260845050472
30
0
41
1
10
36.2840011517513
20
-3.41654014400749
30
0
41
1
10
36.1723151510776
20
-3.45127104168876
30
0
41
1
10
36.0761339184729
20
-3.47213478819211
30
0
41
1
10
36.0262293793505
20
-3.48015890831755
30
0
41
1
10
36.0009423149018
20
-3.48354673256657
30
0
0
SPLINE
5
108
100
AcDbEntity
8
1
62
256
6
ByLayer
370
18
48
1
60
0
100
AcDbSpline
70
4
71
3
72
8
73
4
40
0
40
0
40
0
40
0
40
1
40
1
40
1
40
1
41
1
10
32.9907719344545
20
-3.88683309382708
30
0
41
1
10
31.9873818076242
20
-4.02126188091586
30
0
41
1
10
30.9839916808197
20
-4.15569066800117
30
0
41
1
10
29.9806015540081
20
-4.29011945508745
30
0
0
SPLINE
5
109
100
AcDbEntity
8
1
62
256
6
ByLayer
370
18
48
1
60
0
100
AcDbSpline
70
4
71
3
72
8
73
4
40
0
40
0
40
0
40
0
40
1
40
1
40
1
40
1
41
1
10
35.7600550173315
20
-7.22165176683808
30
0
41
1
10
36.0289125915091
20
-7.72334683025326
30
0
41
1
10
36.2977701656797
20
-8.22504189365552
30
0
41
1
10
36.5666277398523
20
-8.72673695706132
30
0
0
SPLINE
5
10A
100
AcDbEntity
8
1
62
256
6
ByLayer
370
18
48
1
60
0
100
AcDbSpline
70
4
71
3
72
8
73
4
40
0
40
0
40
0
40
0
40
1
40
1
40
1
40
1
41
1
10
30.9754205658142
20
10.3034305506229
30
0
41
1
10
30.9800578934723
20
10.2986413057163
30
0
41
1
10
30.9846959553641
20
10.2938513025227
30
0
41
1
10
30.989334788873
20
10.2890605024343
30
0
0
SPLINE
5
10B
100
AcDbEntity
8
1
62
256
6
ByLayer
370
18
48
1
60
0
100
AcDbSpline
70
4
71
3
72
8
73
4
40
0
40
0
40
0
40
0
40
1
40
1
40
1
40
1
41
1
10
32.9799429469679
20
10.3015676241859
30
0
41
1
10
32.9734766753848
20
10.2999462030815
30
0
41
1
10
32.9670093799891
20
10.2983245252556
30
0
41
1
10
32.9605410086535
20
10.2967025776373
30
0
0
SPLINE
5
10C
100
AcDbEntity
8
1
62
256
6
ByLayer
370
18
48
1
60
0
100
AcDbSpline
70
4
71
3
72
8
73
4
40
0
40
0
40
0
40
0
40
1
40
1
40
1
40
1
41
1
10
32.978867385888
20
9.14425608783009
30
0
41
1
10
32.9742300582299
20
9.14904533273671
30
0
41
1
10
32.9695919963381
20
9.15383533593024
30
0
41
1
10
32.9649531628292
20
9.15862613601871
30
0
0
SPLINE
5
10D
100
AcDbEntity
8
1
62
256
6
ByLayer
370
18
48
1
60
0
100
AcDbSpline
70
4
71
3
72
16
73
12
40
0
40
0
40
0
40
0
40
0.125
40
0.125
40
0.25
40
0.25
40
0.5
40
0.5
40
0.75
40
0.75
40
1
40
1
40
1
40
1
41
1
10
33.1344555122068
20
9.7249188803064
30
0
41
1
10
33.1490491315503
20
9.72404542501749
30
0
41
1
10
33.1636170533542
20
9.7273742929452
30
0
41
1
10
33.1893138421929
20
9.74244204127251
30
0
41
1
10
33.2002849063209
20
9.75399654738609
30
0
41
1
10
33.2261296777398
20
9.79389660860497
30
0
41
1
10
33.2348053887713
20
9.8265636694598
30
0
41
1
10
33.2434029919014
20
9.89211910722787
30
0
41
1
10
33.2432317155132
20
9.92572745124664
30
0
41
1
10
33.2370230232406
20
9.99218559983538
30
0
41
1
10
33.2309261477364
20
10.0251712976383
30
0
41
1
10
33.2222706622291
20
10.0574740093159
30
0
0
SPLINE
5
10E
100
AcDbEntity
8
1
62
256
6
ByLayer
370
18
48
1
60
0
100
AcDbSpline
70
4
71
3
72
8
73
4
40
0
40
0
40
0
40
0
40
1
40
1
40
1
40
1
41
1
10
31.978219536931
20
10.8811548555823
30
0
41
1
10
31.976390593006
20
10.8747441895713
30
0
41
1
10
31.9745613595021
20
10.8683325085519
30
0
41
1
10
31.9727318216755
20
10.8619197608451
30
0
0
SPLINE
5
10F
100
AcDbEntity
8
1
62
256
6
ByLayer
370
18
48
1
60
0
100
AcDbSpline
70
4
71
3
72
8
73
4
40
0
40
0
40
0
40
0
40
1
40
1
40
1
40
1
41
1
10
32.5500032342619
20
10.707240352029
30
0
41
1
10
32.5516251818802
20
10.7137087233644
30
0
41
1
10
32.5532468597061
20
10.7201760187602
30
0
41
1
10
32.5548682808105
20
10.7266422903433
30
0
0
SPLINE
5
110
100
AcDbEntity
8
1
62
256
6
ByLayer
370
18
48
1
60
0
100
AcDbSpline
70
4
71
3
72
8
73
4
40
0
40
0
40
0
40
0
40
1
40
1
40
1
40
1
41
1
10
33.1152204174697
20
9.71943116505085
30
0
41
1
10
33.1216331651765
20
9.72126070287749
30
0
41
1
10
33.1280448461959
20
9.7230899363814
30
0
41
1
10
33.1344555122068
20
9.7249188803064
30
0
0
SPLINE
5
111
100
AcDbEntity
8
1
62
256
6
ByLayer
370
18
48
1
60
0
100
AcDbSpline
70
4
71
3
72
16
73
12
40
0
40
0
40
0
40
0
40
0.125
40
0.125
40
0.25
40
0.25
40
0.5
40
0.5
40
0.75
40
0.75
40
1
40
1
40
1
40
1
41
1
10
32.5567312072475
20
8.72211990918956
30
0
41
1
10
32.5632715824499
20
8.70904473646056
30
0
41
1
10
32.5734384275431
20
8.69809298006186
30
0
41
1
10
32.5993358747918
20
8.68337278229549
30
0
41
1
10
32.6148279026784
20
8.67964881511088
30
0
41
1
10
32.6623047550158
20
8.67721661711659
30
0
41
1
10
32.6949331150989
20
8.68603676139483
30
0
41
1
10
32.7560045911273
20
8.71136873755654
30
0
41
1
10
32.7850246326325
20
8.72832123926915
30
0
41
1
10
32.8394747314626
20
8.76692719879588
30
0
41
1
10
32.8649927459694
20
8.78870009676771
30
0
41
1
10
32.8886399721396
20
8.81234732293797
30
0
0
SPLINE
5
112
100
AcDbEntity
8
1
62
256
6
ByLayer
370
18
48
1
60
0
100
AcDbSpline
70
4
71
3
72
18
73
14
40
0
40
0
40
0
40
0
40
0.25
40
0.25
40
0.5
40
0.5
40
0.625
40
0.625
40
0.75
40
0.75
40
0.875
40
0.875
40
1
40
1
40
1
40
1
41
1
10
32.8886399721396
20
8.81234732293797
30
0
41
1
10
32.9122759688889
20
8.83598331968724
30
0
41
1
10
32.9340249912548
20
8.8614685378347
30
0
41
1
10
32.9726412490362
20
8.91592219673672
30
0
41
1
10
32.9895588753918
20
8.94485823462961
30
0
41
1
10
33.0086024298203
20
8.99074021033977
30
0
41
1
10
33.0138326914921
20
9.00636358578308
30
0
41
1
10
33.0209831773731
20
9.03801251532974
30
0
41
1
10
33.0229468354914
20
9.05435875611872
30
0
41
1
10
33.0213693283433
20
9.08595805865627
30
0
41
1
10
33.0177244327942
20
9.10140797932317
30
0
41
1
10
33.002910495848
20
9.12757003378201
30
0
41
1
10
32.9919486006731
20
9.13771269031088
30
0
41
1
10
32.978867385888
20
9.14425608783009
30
0
0
SPLINE
5
113
100
AcDbEntity
8
1
62
256
6
ByLayer
370
18
48
1
60
0
100
AcDbSpline
70
4
71
3
72
8
73
4
40
0
40
0
40
0
40
0
40
1
40
1
40
1
40
1
41
1
10
31.4119267926433
20
10.7116525062046
30
0
41
1
10
31.4071359925549
20
10.7162913397135
30
0
41
1
10
31.4023459893613
20
10.7209294016053
30
0
41
1
10
31.3975567444547
20
10.7255667292634
30
0
0
SPLINE
5
114
100
AcDbEntity
8
1
62
256
6
ByLayer
370
18
48
1
60
0
100
AcDbSpline
70
4
71
3
72
8
73
4
40
0
40
0
40
0
40
0
40
1
40
1
40
1
40
1
41
1
10
30.9743450047343
20
9.14611901426713
30
0
41
1
10
30.9808112763174
20
9.14774043537147
30
0
41
1
10
30.9872785717132
20
9.14936211319733
30
0
41
1
10
30.9937469430487
20
9.15098406081572
30
0
0
SPLINE
5
115
100
AcDbEntity
8
1
62
256
6
ByLayer
370
18
48
1
60
0
100
AcDbSpline
70
4
71
3
72
18
73
14
40
0
40
0
40
0
40
0
40
0.25
40
0.25
40
0.5
40
0.5
40
0.625
40
0.625
40
0.75
40
0.75
40
0.875
40
0.875
40
1
40
1
40
1
40
1
41
1
10
33.2222706622291
20
10.0574740093159
30
0
41
1
10
33.213619286975
20
10.0897613813192
30
0
41
1
10
33.2024229518213
20
10.1213391962692
30
0
41
1
10
33.1745728287738
20
10.1820086859581
30
0
41
1
10
33.1579722980515
20
10.2111277991002
30
0
41
1
10
33.127759118725
20
10.2505609888686
30
0
41
1
10
33.1168440095341
20
10.2629022160666
30
0
41
1
10
33.0930104754846
20
10.2849191832623
30
0
41
1
10
33.0798360447641
20
10.2947928814715
30
0
41
1
10
33.0516814924506
20
10.3092263714754
30
0
41
1
10
33.0364790208921
20
10.3137947596692
30
0
41
1
10
33.0064150486425
20
10.3140465411732
30
0
41
1
10
32.9921503028392
20
10.3096245897425
30
0
41
1
10
32.9799429469679
20
10.3015676241859
30
0
0
SPLINE
5
116
100
AcDbEntity
8
1
62
256
6
ByLayer
370
18
48
1
60
0
100
AcDbSpline
70
4
71
3
72
18
73
14
40
0
40
0
40
0
40
0
40
0.125
40
0.125
40
0.249999999999999
40
0.249999999999999
40
0.5
40
0.5
40
0.75
40
0.75
40
0.875
40
0.875
40
1
40
1
40
1
40
1
41
1
10
32.9605410086535
20
10.2967025776373
30
0
41
1
10
32.9367156587498
20
10.2907283582351
30
0
41
1
10
32.911194099452
20
10.2930344179952
30
0
41
1
10
32.8608834769598
20
10.3053361020793
30
0
41
1
10
32.8361061342085
20
10.3155146181236
30
0
41
1
10
32.7643804509694
20
10.3530964802249
30
0
41
1
10
32.7198006184674
20
10.3874827135414
30
0
41
1
10
32.6408043087587
20
10.4664748828383
30
0
41
1
10
32.6064115895658
20
10.5110667795537
30
0
41
1
10
32.5688451926154
20
10.5827411053342
30
0
41
1
10
32.5586650749551
20
10.6074887964776
30
0
41
1
10
32.5463298281941
20
10.6578931579417
30
0
41
1
10
32.5440321831351
20
10.683427637294
30
0
41
1
10
32.5500032342619
20
10.707240352029
30
0
0
SPLINE
5
117
100
AcDbEntity
8
1
62
256
6
ByLayer
370
18
48
1
60
0
100
AcDbSpline
70
4
71
3
72
16
73
12
40
0
40
0
40
0
40
0
40
0.125
40
0.125
40
0.25
40
0.25
40
0.5
40
0.5
40
0.75
40
0.75
40
1
40
1
40
1
40
1
41
1
10
32.5548682808105
20
10.7266422903433
30
0
41
1
10
32.5629215249514
20
10.7388440077834
30
0
41
1
10
32.5673226016622
20
10.7531246321098
30
0
41
1
10
32.5671219432522
20
10.7829125782035
30
0
41
1
10
32.5626009794937
20
10.7981910515017
30
0
41
1
10
32.540968898575
20
10.8405233107149
30
0
41
1
10
32.5170162495235
20
10.8643702272915
30
0
41
1
10
32.4645423766252
20
10.9045936888978
30
0
41
1
10
32.4353510587317
20
10.921249531204
30
0
41
1
10
32.3746922676291
20
10.949101720266
30
0
41
1
10
32.3430773776182
20
10.9603145200971
30
0
41
1
10
32.3107746659405
20
10.9689700056044
30
0
0
SPLINE
5
118
100
AcDbEntity
8
1
62
256
6
ByLayer
370
18
48
1
60
0
100
AcDbSpline
70
4
71
3
72
18
73
14
40
0
40
0
40
0
40
0
40
0.25
40
0.25
40
0.5
40
0.5
40
0.625
40
0.625
40
0.75
40
0.75
40
0.875
40
0.875
40
1
40
1
40
1
40
1
41
1
10
32.3107746659405
20
10.9689700056044
30
0
41
1
10
32.2784872939373
20
10.9776213808584
30
0
41
1
10
32.2455419364176
20
10.983713977661
30
0
41
1
10
32.1790755555887
20
10.9899298084478
30
0
41
1
10
32.1455573985109
20
10.990112883697
30
0
41
1
10
32.0963006647558
20
10.9836640977553
30
0
41
1
10
32.0801552938931
20
10.98038194951
30
0
41
1
10
32.0491712739626
20
10.970749987159
30
0
41
1
10
32.0340331851238
20
10.9642774445793
30
0
41
1
10
32.0074561399584
20
10.9471116320456
30
0
41
1
10
31.995898563949
20
10.9362300995725
30
0
41
1
10
31.9806485286456
20
10.9103198266176
30
0
41
1
10
31.9773456780172
20
10.8957552186581
30
0
41
1
10
31.978219536931
20
10.8811548555823
30
0
0
SPLINE
5
119
100
AcDbEntity
8
1
62
256
6
ByLayer
370
18
48
1
60
0
100
AcDbSpline
70
4
71
3
72
16
73
12
40
0
40
0
40
0
40
0
40
0.125
40
0.125
40
0.25
40
0.25
40
0.5
40
0.5
40
0.75
40
0.75
40
1
40
1
40
1
40
1
41
1
10
30.8198324394954
20
9.7227677581466
30
0
41
1
10
30.8052388201519
20
9.72364121343549
30
0
41
1
10
30.790670898348
20
9.72031234550778
30
0
41
1
10
30.7649741095093
20
9.7052445971805
30
0
41
1
10
30.7540030453813
20
9.69369009106688
30
0
41
1
10
30.7281582739624
20
9.65379002984801
30
0
41
1
10
30.7194825629309
20
9.62112296899318
30
0
41
1
10
30.7108849598008
20
9.55556753122514
30
0
41
1
10
30.711056236189
20
9.52195918720636
30
0
41
1
10
30.7172649284616
20
9.4555010386176
30
0
41
1
10
30.7233618039658
20
9.42251534081473
30
0
41
1
10
30.7320172894732
20
9.3902126291371
30
0
0
SPLINE
5
11A
100
AcDbEntity
8
1
62
256
6
ByLayer
370
18
48
1
60
0
100
AcDbSpline
70
4
71
3
72
18
73
14
40
0
40
0
40
0
40
0
40
0.25
40
0.25
40
0.5
40
0.5
40
0.625
40
0.625
40
0.75
40
0.75
40
0.875
40
0.875
40
1
40
1
40
1
40
1
41
1
10
30.7320172894732
20
9.3902126291371
30
0
41
1
10
30.7406686647272
20
9.35792525713381
30
0
41
1
10
30.7518649998809
20
9.32634744218379
30
0
41
1
10
30.7797151229284
20
9.26567795249494
30
0
41
1
10
30.7963156536507
20
9.23655883935282
30
0
41
1
10
30.8265288329773
20
9.19712564958436
30
0
41
1
10
30.8374439421681
20
9.18478442238643
30
0
41
1
10
30.8612774762177
20
9.16276745519073
30
0
41
1
10
30.8744519069381
20
9.15289375698148
30
0
41
1
10
30.9026064592516
20
9.1384602669776
30
0
41
1
10
30.9178089308101
20
9.13389187878383
30
0
41
1
10
30.9478729030597
20
9.13364009727982
30
0
41
1
10
30.962137648863
20
9.13806204871051
30
0
41
1
10
30.9743450047343
20
9.14611901426713
30
0
0
SPLINE
5
11B
100
AcDbEntity
8
1
62
256
6
ByLayer
370
18
48
1
60
0
100
AcDbSpline
70
4
71
3
72
8
73
4
40
0
40
0
40
0
40
0
40
1
40
1
40
1
40
1
41
1
10
32.5423611590589
20
8.73603413224839
30
0
41
1
10
32.5471519591474
20
8.73139529873953
30
0
41
1
10
32.5519419623409
20
8.7267572368477
30
0
41
1
10
32.5567312072475
20
8.72211990918956
30
0
0
SPLINE
5
11C
100
AcDbEntity
8
1
62
256
6
ByLayer
370
18
48
1
60
0
100
AcDbSpline
70
4
71
3
72
8
73
4
40
0
40
0
40
0
40
0
40
1
40
1
40
1
40
1
41
1
10
30.8390675342325
20
9.72825547340213
30
0
41
1
10
30.8326547865257
20
9.72642593557549
30
0
41
1
10
30.8262431055063
20
9.72459670207158
30
0
41
1
10
30.8198324394954
20
9.7227677581466
30
0
0
SPLINE
5
11D
100
AcDbEntity
8
1
62
256
6
ByLayer
370
18
48
1
60
0
100
AcDbSpline
70
4
71
3
72
18
73
14
40
0
40
0
40
0
40
0
40
0.125
40
0.125
40
0.250000000000001
40
0.250000000000001
40
0.500000000000001
40
0.500000000000001
40
0.75
40
0.75
40
0.875
40
0.875
40
1
40
1
40
1
40
1
41
1
10
31.9727318216755
20
10.861919760845
30
0
41
1
10
31.9659929724937
20
10.8382992928732
30
0
41
1
10
31.9512350865098
20
10.8173500040572
30
0
41
1
10
31.9154262043377
20
10.7799305689408
30
0
41
1
10
31.8942226794948
20
10.7635620187021
30
0
41
1
10
31.825812990574
20
10.7202366859639
30
0
41
1
10
31.7737437227304
20
10.6988225351789
30
0
41
1
10
31.6658363425649
20
10.6699058088144
30
0
41
1
10
31.61002226761
20
10.6624167886458
30
0
41
1
10
31.5291672822097
20
10.6657204974484
30
0
41
1
10
31.5026450941645
20
10.6692781025128
30
0
41
1
10
31.4528260132945
20
10.6837976461878
30
0
41
1
10
31.4295636829735
20
10.694575066874
30
0
41
1
10
31.4119267926433
20
10.7116525062046
30
0
0
SPLINE
5
11E
100
AcDbEntity
8
1
62
256
6
ByLayer
370
18
48
1
60
0
100
AcDbSpline
70
4
71
3
72
16
73
12
40
0
40
0
40
0
40
0
40
0.125
40
0.125
40
0.25
40
0.25
40
0.5
40
0.5
40
0.75
40
0.75
40
1
40
1
40
1
40
1
41
1
10
31.3975567444547
20
10.7255667292634
30
0
41
1
10
31.3910163692523
20
10.7386419019924
30
0
41
1
10
31.3808495241591
20
10.7495936583911
30
0
41
1
10
31.3549520769104
20
10.7643138561575
30
0
41
1
10
31.3394600490238
20
10.7680378233421
30
0
41
1
10
31.2919831966864
20
10.7704700213364
30
0
41
1
10
31.2593548366033
20
10.7616498770582
30
0
41
1
10
31.1982833605749
20
10.7363179008964
30
0
41
1
10
31.1692633190697
20
10.7193653991838
30
0
41
1
10
31.1148132202396
20
10.6807594396571
30
0
41
1
10
31.0892952057329
20
10.6589865416853
30
0
41
1
10
31.0656479795626
20
10.635339315515
30
0
0
SPLINE
5
11F
100
AcDbEntity
8
1
62
256
6
ByLayer
370
18
48
1
60
0
100
AcDbSpline
70
4
71
3
72
18
73
14
40
0
40
0
40
0
40
0
40
0.25
40
0.25
40
0.5
40
0.5
40
0.625
40
0.625
40
0.75
40
0.75
40
0.875
40
0.875
40
1
40
1
40
1
40
1
41
1
10
31.0656479795626
20
10.635339315515
30
0
41
1
10
31.0420119828133
20
10.6117033187657
30
0
41
1
10
31.0202629604474
20
10.5862181006183
30
0
41
1
10
30.981646702666
20
10.5317644417163
30
0
41
1
10
30.9647290763104
20
10.5028284038234
30
0
41
1
10
30.945685521882
20
10.4569464281132
30
0
41
1
10
30.9404552602101
20
10.4413230526699
30
0
41
1
10
30.9333047743291
20
10.4096741231232
30
0
41
1
10
30.9313411162108
20
10.3933278823343
30
0
41
1
10
30.9329186233589
20
10.3617285797967
30
0
41
1
10
30.936563518908
20
10.3462786591298
30
0
41
1
10
30.9513774558542
20
10.320116604671
30
0
41
1
10
30.9623393510291
20
10.3099739481421
30
0
41
1
10
30.9754205658142
20
10.3034305506229
30
0
0
SPLINE
5
120
100
AcDbEntity
8
1
62
256
6
ByLayer
370
18
48
1
60
0
100
AcDbSpline
70
4
71
3
72
18
73
14
40
0
40
0
40
0
40
0
40
0.125000000000001
40
0.125000000000001
40
0.250000000000001
40
0.250000000000001
40
0.5
40
0.5
40
0.75
40
0.75
40
0.875
40
0.875
40
1
40
1
40
1
40
1
41
1
10
32.9649531628292
20
9.15862613601871
30
0
41
1
10
32.9478666621072
20
9.17627238458834
30
0
41
1
10
32.9371029887932
20
9.19952773316453
30
0
41
1
10
32.9226012484733
20
9.24924885236496
30
0
41
1
10
32.9190274305648
20
9.27579591864796
30
0
41
1
10
32.9157114362465
20
9.3567031134875
30
0
41
1
10
32.9232008715881
20
9.41250349758894
30
0
41
1
10
32.9521119420449
20
9.52041239325038
30
0
41
1
10
32.9735332978069
20
9.57249331013438
30
0
41
1
10
33.0168218862568
20
9.64086392711235
30
0
41
1
10
33.0331639566418
20
9.66205401319132
30
0
41
1
10
33.0706477907507
20
9.69793883098032
30
0
41
1
10
33.0916124760128
20
9.71269588964643
30
0
41
1
10
33.1152204174697
20
9.71943116505085
30
0
0
SPLINE
5
121
100
AcDbEntity
8
1
62
256
6
ByLayer
370
18
48
1
60
0
100
AcDbSpline
70
4
71
3
72
18
73
14
40
0
40
0
40
0
40
0
40
0.125000000000001
40
0.125000000000001
40
0.250000000000001
40
0.250000000000001
40
0.500000000000001
40
0.500000000000001
40
0.75
40
0.75
40
0.875
40
0.875
40
1
40
1
40
1
40
1
41
1
10
30.989334788873
20
10.2890605024343
30
0
41
1
10
31.006421289595
20
10.2714142538646
30
0
41
1
10
31.017184962909
20
10.2481589052885
30
0
41
1
10
31.031686703229
20
10.198437786088
30
0
41
1
10
31.0352605211374
20
10.171890719805
30
0
41
1
10
31.0385765154557
20
10.0909835249655
30
0
41
1
10
31.0310870801142
20
10.035183140864
30
0
41
1
10
31.0021760096573
20
9.9272742452026
30
0
41
1
10
30.9807546538954
20
9.8751933283186
30
0
41
1
10
30.9374660654454
20
9.80682271134063
30
0
41
1
10
30.9211239950604
20
9.78563262526166
30
0
41
1
10
30.8836401609515
20
9.74974780747266
30
0
41
1
10
30.8626754756895
20
9.73499074880655
30
0
41
1
10
30.8390675342325
20
9.72825547340213
30
0
0
SPLINE
5
122
100
AcDbEntity
8
1
62
256
6
ByLayer
370
18
48
1
60
0
100
AcDbSpline
70
4
71
3
72
16
73
12
40
0
40
0
40
0
40
0
40
0.124999999999999
40
0.124999999999999
40
0.249999999999998
40
0.249999999999998
40
0.499999999999998
40
0.499999999999998
40
0.749999999999999
40
0.749999999999999
40
1
40
1
40
1
40
1
41
1
10
31.9760684147712
20
8.56653178287073
30
0
41
1
10
31.9769418700601
20
8.55193816352732
30
0
41
1
10
31.9736130021324
20
8.53737024172341
30
0
41
1
10
31.9585452538051
20
8.51167345288471
30
0
41
1
10
31.9469907476915
20
8.50070238875668
30
0
41
1
10
31.9070906864727
20
8.47485761733782
30
0
41
1
10
31.8744236256178
20
8.4661819063063
30
0
41
1
10
31.8088681878497
20
8.45758430317622
30
0
41
1
10
31.775259843831
20
8.45775557956438
30
0
41
1
10
31.7088016952422
20
8.46396427183697
30
0
41
1
10
31.6758159974393
20
8.47006114734123
30
0
41
1
10
31.6435132857617
20
8.47871663284857
30
0
0
SPLINE
5
123
100
AcDbEntity
8
1
62
256
6
ByLayer
370
18
48
1
60
0
100
AcDbSpline
70
4
71
3
72
8
73
4
40
0
40
0
40
0
40
0
40
1
40
1
40
1
40
1
41
1
10
31.3994196708917
20
8.72104434810967
30
0
41
1
10
31.401041091996
20
8.72751061969282
30
0
41
1
10
31.4026627698219
20
8.73397791508853
30
0
41
1
10
31.4042847174403
20
8.74044628642403
30
0
0
SPLINE
5
124
100
AcDbEntity
8
1
62
256
6
ByLayer
370
18
48
1
60
0
100
AcDbSpline
70
4
71
3
72
16
73
12
40
0
40
0
40
0
40
0
40
0.25
40
0.25
40
0.5
40
0.5
40
0.749999999999999
40
0.749999999999999
40
0.875
40
0.875
40
1
40
1
40
1
40
1
41
1
10
31.6435132857617
20
8.47871663284857
30
0
41
1
10
31.6112144772755
20
8.48737107249892
30
0
41
1
10
31.5796257521749
20
8.49857221232082
30
0
41
1
10
31.5189364875972
20
8.5264361936662
30
0
41
1
10
31.4898088276857
20
8.54304539938207
30
0
41
1
10
31.4372208458752
20
8.58335445925837
30
0
41
1
10
31.4134494095355
20
8.60692103554618
30
0
41
1
10
31.3916385448526
20
8.64958396034609
30
0
41
1
10
31.3871687679203
20
8.66482750498977
30
0
41
1
10
31.3869628148652
20
8.69447577651138
30
0
41
1
10
31.3913693771886
20
8.70884710096851
30
0
41
1
10
31.3994196708917
20
8.72104434810967
30
0
0
SPLINE
5
125
100
AcDbEntity
8
1
62
256
6
ByLayer
370
18
48
1
60
0
100
AcDbSpline
70
4
71
3
72
18
73
14
40
0
40
0
40
0
40
0
40
0.125
40
0.125
40
0.25
40
0.25
40
0.499999999999999
40
0.499999999999999
40
0.749999999999999
40
0.749999999999999
40
0.874999999999999
40
0.874999999999999
40
1
40
1
40
1
40
1
41
1
10
32.5423611590589
20
8.73603413224839
30
0
41
1
10
32.5246125784374
20
8.7532197189982
30
0
41
1
10
32.5010775206921
20
8.76402624805539
30
0
41
1
10
32.4515850379877
20
8.77839994171455
30
0
41
1
10
32.4249027644179
20
8.78198020779857
30
0
41
1
10
32.3444556506731
20
8.78525173760266
30
0
41
1
10
32.2889024900475
20
8.77786427151565
30
0
41
1
10
32.1808651712882
20
8.74898722634023
30
0
41
1
10
32.1287091983577
20
8.72756362799012
30
0
41
1
10
32.0602403864911
20
8.68425274861136
30
0
41
1
10
32.0390199294814
20
8.6679006951729
30
0
41
1
10
32.0030797190205
20
8.63038526071992
30
0
41
1
10
31.9882987802121
20
8.60940066854911
30
0
41
1
10
31.9815561300267
20
8.58576687760794
30
0
0
SPLINE
5
126
100
AcDbEntity
8
1
62
256
6
ByLayer
370
18
48
1
60
0
100
AcDbSpline
70
4
71
3
72
8
73
4
40
0
40
0
40
0
40
0
40
1
40
1
40
1
40
1
41
1
10
31.9815561300267
20
8.58576687760794
30
0
41
1
10
31.9797265922001
20
8.57935412990108
30
0
41
1
10
31.9778973586962
20
8.57294244888169
30
0
41
1
10
31.9760684147712
20
8.56653178287073
30
0
0
SPLINE
5
127
100
AcDbEntity
8
1
62
256
6
ByLayer
370
18
48
1
60
0
100
AcDbSpline
70
4
71
3
72
20
73
16
40
0
40
0
40
0
40
0
40
0.125
40
0.125
40
0.25
40
0.25
40
0.5
40
0.5
40
0.625
40
0.625
40
0.75
40
0.75
40
0.875
40
0.875
40
1
40
1
40
1
40
1
41
1
10
31.4042847174403
20
8.74044628642403
30
0
41
1
10
31.4102651351139
20
8.76429635520319
30
0
41
1
10
31.4079488687767
20
8.78984563206373
30
0
41
1
10
31.3956168849306
20
8.84020797322165
30
0
41
1
10
31.3854098377067
20
8.86503451915968
30
0
41
1
10
31.3476747794452
20
8.9369518383858
30
0
41
1
10
31.3131846225036
20
8.98157852030337
30
0
41
1
10
31.2538187565577
20
9.04083914678068
30
0
41
1
10
31.2330179341099
20
9.05898586301421
30
0
41
1
10
31.1893198967907
20
9.09199505962837
30
0
41
1
10
31.1661753372319
20
9.10700747826317
30
0
41
1
10
31.1184384780727
20
9.13205492123552
30
0
41
1
10
31.0938312984542
20
9.14220493671093
30
0
41
1
10
31.0433929044545
20
9.15461974340744
30
0
41
1
10
31.0176647493857
20
9.15698146371864
30
0
41
1
10
30.9937469430487
20
9.15098406081572
30
0
0
SPLINE
5
128
100
AcDbEntity
8
1
62
256
6
ByLayer
370
18
48
1
60
0
100
AcDbSpline
70
4
71
3
72
10
73
6
40
0
40
0
40
0
40
0
40
0.375000000000405
40
0.750000000000811
40
1
40
1
40
1
40
1
41
1
10
31.2423915272709
20
6.98170985018325
30
0
41
1
10
31.4269543704511
20
6.93225638539883
30
0
41
1
10
31.8043470546178
20
6.8642142513074
30
0
41
1
10
32.3131113657681
20
6.85851422508804
30
0
41
1
10
32.6252964303362
20
6.89895096533445
30
0
41
1
10
32.7483399414239
20
6.92195470428476
30
0
0
SPLINE
5
129
100
AcDbEntity
8
1
62
256
6
ByLayer
370
18
48
1
60
0
100
AcDbSpline
70
4
71
3
72
8
73
4
40
0
40
0
40
0
40
0
40
1
40
1
40
1
40
1
41
1
10
29.5679041215429
20
15.0281400044066
30
0
41
1
10
30.1139187511208
20
14.1940039809937
30
0
41
1
10
30.6599333806988
20
13.3598679575808
30
0
41
1
10
31.2059480102766
20
12.5257319341679
30
0
0
SPLINE
5
12A
100
AcDbEntity
8
1
62
256
6
ByLayer
370
18
48
1
60
0
100
AcDbSpline
70
4
71
3
72
8
73
4
40
0
40
0
40
0
40
0
40
1
40
1
40
1
40
1
41
1
10
36.3238101941519
20
8.55915761626511
30
0
41
1
10
35.7889659443994
20
8.70246870105885
30
0
41
1
10
35.2541216946469
20
8.84577978585259
30
0
41
1
10
34.7192774448943
20
8.98909087064632
30
0
0
SPLINE
5
12B
100
AcDbEntity
8
1
62
256
6
ByLayer
370
18
48
1
60
0
100
AcDbSpline
70
4
71
3
72
10
73
6
40
0
40
0
40
0
40
0
40
0.375000000000406
40
0.750000000000812
40
1
40
1
40
1
40
1
41
1
10
32.7118964244313
20
12.4659767882697
30
0
41
1
10
32.5273335812511
20
12.5154302530542
30
0
41
1
10
32.1499408970844
20
12.5834723871456
30
0
41
1
10
31.6411765859342
20
12.589172413365
30
0
41
1
10
31.328991521366
20
12.5487356731186
30
0
41
1
10
31.2059480102782
20
12.5257319341682
30
0
0
SPLINE
5
12C
100
AcDbEntity
8
1
62
256
6
ByLayer
370
18
48
1
60
0
100
AcDbSpline
70
4
71
3
72
10
73
6
40
0
40
0
40
0
40
0
40
0.249999999999985
40
0.624999999999992
40
1
40
1
40
1
40
1
41
1
10
29.908324370889
20
7.68293458291384
30
0
41
1
10
30.0033813077858
20
7.60149100505481
30
0
41
1
10
30.2535231342577
20
7.41037922846482
30
0
41
1
10
30.6969759653667
20
7.16093344040655
30
0
41
1
10
31.0578286841007
20
7.03116331496301
30
0
41
1
10
31.2423915272818
20
6.98170985018035
30
0
0
SPLINE
5
12D
100
AcDbEntity
8
1
62
256
6
ByLayer
370
18
48
1
60
0
100
AcDbSpline
70
4
71
3
72
8
73
4
40
0
40
0
40
0
40
0
40
1
40
1
40
1
40
1
41
1
10
36.7157552360857
20
13.1128790706469
30
0
41
1
10
35.8258246843281
20
12.6635033989443
30
0
41
1
10
34.9358941325707
20
12.2141277272417
30
0
41
1
10
34.0459635808132
20
11.7647520555391
30
0
0
SPLINE
5
12E
100
AcDbEntity
8
1
62
256
6
ByLayer
370
18
48
1
60
0
100
AcDbSpline
70
4
71
3
72
17
73
13
40
0
40
0
40
0
40
0
40
0.0625
40
0.125
40
0.25
40
0.375
40
0.5
40
0.625
40
0.75
40
0.875
40
0.9375
40
1
40
1
40
1
40
1
41
1
10
36.715755271295
20
13.1128790909782
30
0
41
1
10
36.741043150236
20
13.1061032242376
30
0
41
1
10
36.7909528591209
20
13.0900664237105
30
0
41
1
10
36.887150272112
20
13.0483672418566
30
0
41
1
10
36.99884832181
20
12.9789125024959
30
0
41
1
10
37.1140488796505
20
12.8710154555839
30
0
41
1
10
37.2059863203483
20
12.7427170819858
30
0
41
1
10
37.2711270422639
20
12.5989479178513
30
0
41
1
10
37.3069697135612
20
12.4452325247661
30
0
41
1
10
37.3112692854627
20
12.3137716649078
30
0
41
1
10
37.2992836583296
20
12.2096125455357
30
0
41
1
10
37.2882165629847
20
12.158371072806
30
0
41
1
10
37.2814406962441
20
12.1330831938649
30
0
0
SPLINE
5
12F
100
AcDbEntity
8
1
62
256
6
ByLayer
370
18
48
1
60
0
100
AcDbSpline
70
4
71
3
72
8
73
4
40
0
40
0
40
0
40
0
40
1
40
1
40
1
40
1
41
1
10
29.5679041215392
20
15.0281400044076
30
0
41
1
10
30.7592126406304
20
14.7089298487808
30
0
41
1
10
31.9505211596896
20
14.3897196931626
30
0
41
1
10
33.1418296788125
20
14.0705095375273
30
0
0
SPLINE
5
130
100
AcDbEntity
8
1
62
256
6
ByLayer
370
18
48
1
60
0
100
AcDbSpline
70
4
71
3
72
8
73
4
40
0
40
0
40
0
40
0
40
1
40
1
40
1
40
1
41
1
10
27.6304777575503
20
10.8885290221879
30
0
41
1
10
27.9496879131856
20
12.0798375413107
30
0
41
1
10
28.2688980688038
20
13.2711460603699
30
0
41
1
10
28.5881082244306
20
14.4624545794611
30
0
0
SPLINE
5
131
100
AcDbEntity
8
1
62
256
6
ByLayer
370
18
48
1
60
0
100
AcDbSpline
70
4
71
3
72
8
73
4
40
0
40
0
40
0
40
0
40
1
40
1
40
1
40
1
41
1
10
32.7118964244313
20
12.4659767882697
30
0
41
1
10
32.855207509225
20
13.0008210380223
30
0
41
1
10
32.9985185940187
20
13.5356652877748
30
0
41
1
10
33.1418296788125
20
14.0705095375273
30
0
0
SPLINE
5
132
100
AcDbEntity
8
1
62
256
6
ByLayer
370
18
48
1
60
0
100
AcDbSpline
70
4
71
3
72
8
73
4
40
0
40
0
40
0
40
0
40
1
40
1
40
1
40
1
41
1
10
33.1418296788125
20
14.0705095375273
30
0
41
1
10
34.3331381979353
20
13.751299381892
30
0
41
1
10
35.5244467169945
20
13.4320892262738
30
0
41
1
10
36.7157552360857
20
13.1128790706469
30
0
0
SPLINE
5
133
100
AcDbEntity
8
1
62
256
6
ByLayer
370
18
48
1
60
0
100
AcDbSpline
70
4
71
3
72
10
73
6
40
0
40
0
40
0
40
0
40
0.375000000000406
40
0.750000000000812
40
1
40
1
40
1
40
1
41
1
10
29.2350105068079
20
10.4585957678067
30
0
41
1
10
29.1855570420235
20
10.2740329246265
30
0
41
1
10
29.117514907932
20
9.89664024045979
30
0
41
1
10
29.1118148817126
20
9.38787592930956
30
0
41
1
10
29.1522516219591
20
9.07569086474138
30
0
41
1
10
29.1752553609094
20
8.95264735365365
30
0
0
SPLINE
5
134
100
AcDbEntity
8
1
62
256
6
ByLayer
370
18
48
1
60
0
100
AcDbSpline
70
4
71
3
72
10
73
6
40
0
40
0
40
0
40
0
40
0.375000000000406
40
0.750000000000812
40
1
40
1
40
1
40
1
41
1
10
34.7192774448943
20
8.98909087064632
30
0
41
1
10
34.7687309096788
20
9.17365371382644
30
0
41
1
10
34.8367730437702
20
9.55104639799319
30
0
41
1
10
34.8424730699896
20
10.0598107091434
30
0
41
1
10
34.8020363297432
20
10.3719957737116
30
0
41
1
10
34.7790325907928
20
10.4950392847993
30
0
0
SPLINE
5
135
100
AcDbEntity
8
1
62
256
6
ByLayer
370
18
48
1
60
0
100
AcDbSpline
70
4
71
3
72
8
73
4
40
0
40
0
40
0
40
0
40
1
40
1
40
1
40
1
41
1
10
37.2814406610312
20
12.1330831735347
30
0
41
1
10
36.4473046376183
20
11.5870685439568
30
0
41
1
10
35.6131686142054
20
11.0410539143788
30
0
41
1
10
34.7790325907926
20
10.4950392848009
30
0
0
SPLINE
5
136
100
AcDbEntity
8
1
62
256
6
ByLayer
370
18
48
1
60
0
100
AcDbSpline
70
4
71
3
72
10
73
6
40
0
40
0
40
0
40
0
40
0.249999999999984
40
0.624999999999992
40
1
40
1
40
1
40
1
41
1
10
29.9362352395385
20
11.7926629241885
30
0
41
1
10
29.8547916616794
20
11.6976059872917
30
0
41
1
10
29.6636798850894
20
11.44746416082
30
0
41
1
10
29.4142340970312
20
11.0040113297109
30
0
41
1
10
29.2844639715876
20
10.6431586109768
30
0
41
1
10
29.2350105068049
20
10.4585957677958
30
0
0
SPLINE
5
137
100
AcDbEntity
8
1
62
256
6
ByLayer
370
18
48
1
60
0
100
AcDbSpline
70
4
71
3
72
29
73
25
40
0
40
0
40
0
40
0
40
0.125000000000944
40
0.171875000000893
40
0.218750000000841
40
0.242187500000815
40
0.265625000000789
40
0.277343750000776
40
0.289062500000763
40
0.312500000000737
40
0.359375000000686
40
0.406250000000634
40
0.50000000000053
40
0.593750000000427
40
0.640625000000375
40
0.687500000000323
40
0.710937500000298
40
0.722656250000285
40
0.734375000000272
40
0.757812500000246
40
0.78125000000022
40
0.828125000000168
40
0.875000000000116
40
1
40
1
40
1
40
1
41
1
10
32.748339941424
20
6.92195470428476
30
0
41
1
10
32.8098616969686
20
6.93345657376005
30
0
41
1
10
32.8938248714007
20
6.95161912776891
30
0
41
1
10
32.9993141101848
20
6.97877978550875
30
0
41
1
10
33.0553965013843
20
6.99449697768478
30
0
41
1
10
33.0999907118222
20
7.00777394983479
30
0
41
1
10
33.127743045654
20
7.01635460282111
30
0
41
1
10
33.1498681774447
20
7.02337557509819
30
0
41
1
10
33.1719682444976
20
7.03060152879982
30
0
41
1
10
33.2106004905841
20
7.04394124174701
30
0
41
1
10
33.2655541784138
20
7.06494315944855
30
0
41
1
10
33.3525459837671
20
7.1027372661066
30
0
41
1
10
33.4587017178121
20
7.15771000925272
30
0
41
1
10
33.5593873525735
20
7.22215723250039
30
0
41
1
10
33.6356138990566
20
7.27859730012145
30
0
41
1
10
33.6812789633056
20
7.31568761584492
30
0
41
1
10
33.7121476458955
20
7.34247425556711
30
0
41
1
10
33.7294555443627
20
7.35800049671812
30
0
41
1
10
33.7465984494862
20
7.37365093709221
30
0
41
1
10
33.7679056798334
20
7.39339483671918
30
0
41
1
10
33.8017009807451
20
7.42537606959263
30
0
41
1
10
33.8433536638701
20
7.46608624903902
30
0
41
1
10
33.9196201028482
20
7.54386228078107
30
0
41
1
10
33.9773309232342
20
7.60749524581604
30
0
41
1
10
34.0180527121638
20
7.65502371426444
30
0
0
SPLINE
5
138
100
AcDbEntity
8
1
62
256
6
ByLayer
370
18
48
1
60
0
100
AcDbSpline
70
4
71
3
72
29
73
25
40
0
40
0
40
0
40
0
40
0.125000000000946
40
0.171875000000894
40
0.218750000000842
40
0.242187500000817
40
0.265625000000791
40
0.277343750000778
40
0.289062500000765
40
0.312500000000739
40
0.359375000000687
40
0.406250000000635
40
0.500000000000532
40
0.593750000000428
40
0.640625000000376
40
0.687500000000324
40
0.710937500000298
40
0.722656250000285
40
0.734375000000272
40
0.757812500000247
40
0.781250000000221
40
0.828125000000169
40
0.875000000000117
40
1
40
1
40
1
40
1
41
1
10
29.1752553609094
20
8.95264735365365
30
0
41
1
10
29.1867572303847
20
8.89112559810897
30
0
41
1
10
29.2049197843935
20
8.80716242367689
30
0
41
1
10
29.2320804421333
20
8.7016731848928
30
0
41
1
10
29.2477976343094
20
8.64559079369326
30
0
41
1
10
29.2610746064594
20
8.60099658325538
30
0
41
1
10
29.2696552594457
20
8.5732442494236
30
0
41
1
10
29.2766762317228
20
8.55111911763294
30
0
41
1
10
29.2839021854244
20
8.52901905058002
30
0
41
1
10
29.2972418983716
20
8.49038680449348
30
0
41
1
10
29.3182438160732
20
8.43543311666386
30
0
41
1
10
29.3560379227312
20
8.34844131131052
30
0
41
1
10
29.4110106658773
20
8.24228557726545
30
0
41
1
10
29.475457889125
20
8.14159994250406
30
0
41
1
10
29.531897956746
20
8.06537339602102
30
0
41
1
10
29.5689882724695
20
8.01970833177197
30
0
41
1
10
29.5957749121917
20
7.98883964918207
30
0
41
1
10
29.6113011533427
20
7.97153175071489
30
0
41
1
10
29.6269515937168
20
7.95438884559138
30
0
41
1
10
29.6466954933438
20
7.93308161524419
30
0
41
1
10
29.6786767262173
20
7.8992863143325
30
0
41
1
10
29.7193869056637
20
7.85763363120751
30
0
41
1
10
29.7971629374057
20
7.7813671922294
30
0
41
1
10
29.8607959024407
20
7.72365637184336
30
0
41
1
10
29.908324370889
20
7.68293458291384
30
0
0
SPLINE
5
139
100
AcDbEntity
8
1
62
256
6
ByLayer
370
18
48
1
60
0
100
AcDbSpline
70
4
71
3
72
29
73
25
40
0
40
0
40
0
40
0
40
0.125000000000945
40
0.171875000000894
40
0.218750000000842
40
0.242187500000816
40
0.26562500000079
40
0.277343750000777
40
0.289062500000764
40
0.312500000000738
40
0.359375000000687
40
0.406250000000635
40
0.500000000000531
40
0.593750000000427
40
0.640625000000376
40
0.687500000000324
40
0.710937500000298
40
0.722656250000285
40
0.734375000000272
40
0.757812500000246
40
0.78125000000022
40
0.828125000000168
40
0.875000000000117
40
1
40
1
40
1
40
1
41
1
10
31.2059480102782
20
12.5257319341683
30
0
41
1
10
31.1444262547336
20
12.5142300646929
30
0
41
1
10
31.0604630803015
20
12.4960675106841
30
0
41
1
10
30.9549738415174
20
12.4689068529442
30
0
41
1
10
30.8988914503179
20
12.4531896607682
30
0
41
1
10
30.85429723988
20
12.4399126886182
30
0
41
1
10
30.8265449060482
20
12.4313320356319
30
0
41
1
10
30.8044197742576
20
12.4243110633548
30
0
41
1
10
30.7823197072046
20
12.4170851096532
30
0
41
1
10
30.7436874611181
20
12.403745396706
30
0
41
1
10
30.6887337732885
20
12.3827434790045
30
0
41
1
10
30.6017419679351
20
12.3449493723464
30
0
41
1
10
30.49558623389
20
12.2899766292003
30
0
41
1
10
30.3949005991287
20
12.2255294059526
30
0
41
1
10
30.3186740526456
20
12.1690893383315
30
0
41
1
10
30.2730089883966
20
12.1319990226081
30
0
41
1
10
30.2421403058067
20
12.1052123828859
30
0
41
1
10
30.2248324073395
20
12.0896861417349
30
0
41
1
10
30.207689502216
20
12.0740357013608
30
0
41
1
10
30.1863822718688
20
12.0542918017338
30
0
41
1
10
30.1525869709571
20
12.0223105688604
30
0
41
1
10
30.1109342878321
20
11.981600389414
30
0
41
1
10
30.034667848854
20
11.9038243576719
30
0
41
1
10
29.976957028468
20
11.840191392637
30
0
41
1
10
29.9362352395385
20
11.7926629241885
30
0
0
SPLINE
5
13A
100
AcDbEntity
8
1
62
256
6
ByLayer
370
18
48
1
60
0
100
AcDbSpline
70
4
71
3
72
8
73
4
40
0
40
0
40
0
40
0
40
1
40
1
40
1
40
1
41
1
10
27.6304777575503
20
10.8885290221879
30
0
41
1
10
28.1653220073029
20
10.7452179373941
30
0
41
1
10
28.7001662570553
20
10.6019068526004
30
0
41
1
10
29.2350105068079
20
10.4585957678067
30
0
0
SPLINE
5
13B
100
AcDbEntity
8
1
62
256
6
ByLayer
370
18
48
1
60
0
100
AcDbSpline
70
4
71
3
72
29
73
25
40
0
40
0
40
0
40
0
40
0.125000000000945
40
0.171875000000893
40
0.218750000000841
40
0.242187500000815
40
0.26562500000079
40
0.277343750000777
40
0.289062500000764
40
0.312500000000738
40
0.359375000000686
40
0.406250000000634
40
0.50000000000053
40
0.593750000000427
40
0.640625000000375
40
0.687500000000323
40
0.710937500000297
40
0.722656250000284
40
0.734375000000271
40
0.757812500000245
40
0.781250000000219
40
0.828125000000168
40
0.875000000000116
40
1
40
1
40
1
40
1
41
1
10
34.7790325907928
20
10.4950392847993
30
0
41
1
10
34.7675307213175
20
10.556561040344
30
0
41
1
10
34.7493681673087
20
10.6405242147761
30
0
41
1
10
34.7222075095688
20
10.7460134535602
30
0
41
1
10
34.7064903173928
20
10.8020958447597
30
0
41
1
10
34.6932133452428
20
10.8466900551976
30
0
41
1
10
34.6846326922565
20
10.8744423890294
30
0
41
1
10
34.6776117199794
20
10.89656752082
30
0
41
1
10
34.6703857662778
20
10.918667587873
30
0
41
1
10
34.6570460533306
20
10.9572998339595
30
0
41
1
10
34.636044135629
20
11.0122535217891
30
0
41
1
10
34.598250028971
20
11.0992453271425
30
0
41
1
10
34.5432772858249
20
11.2054010611875
30
0
41
1
10
34.4788300625772
20
11.3060866959489
30
0
41
1
10
34.4223899949562
20
11.382313242432
30
0
41
1
10
34.3852996792327
20
11.427978306681
30
0
41
1
10
34.3585130395105
20
11.4588469892709
30
0
41
1
10
34.3429867983595
20
11.4761548877381
30
0
41
1
10
34.3273363579854
20
11.4932977928616
30
0
41
1
10
34.3075924583584
20
11.5146050232088
30
0
41
1
10
34.275611225485
20
11.5484003241205
30
0
41
1
10
34.2349010460385
20
11.5900530072455
30
0
41
1
10
34.1571250142965
20
11.6663194462236
30
0
41
1
10
34.0934920492616
20
11.7240302666096
30
0
41
1
10
34.0459635808132
20
11.7647520555392
30
0
0
SPLINE
5
13C
100
AcDbEntity
8
1
62
256
6
ByLayer
370
18
48
1
60
0
100
AcDbSpline
70
4
71
3
72
10
73
6
40
0
40
0
40
0
40
0
40
0.249999999999984
40
0.624999999999992
40
1
40
1
40
1
40
1
41
1
10
34.0459635808132
20
11.7647520555391
30
0
41
1
10
33.9509066439164
20
11.8461956333982
30
0
41
1
10
33.7007648174446
20
12.0373074099882
30
0
41
1
10
33.2573119863355
20
12.2867531980464
30
0
41
1
10
32.8964592676015
20
12.41652332349
30
0
41
1
10
32.7118964244204
20
12.4659767882727
30
0
0
SPLINE
5
13D
100
AcDbEntity
8
1
62
256
6
ByLayer
370
18
48
1
60
0
100
AcDbSpline
70
4
71
3
72
10
73
6
40
0
40
0
40
0
40
0
40
0.249999999999985
40
0.624999999999992
40
1
40
1
40
1
40
1
41
1
10
34.0180527121638
20
7.65502371426444
30
0
41
1
10
34.0994962900228
20
7.75008065116123
30
0
41
1
10
34.2906080666128
20
8.00022247763303
30
0
41
1
10
34.540053854671
20
8.44367530874206
30
0
41
1
10
34.6698239801146
20
8.80452802747612
30
0
41
1
10
34.7192774448973
20
8.98909087065721
30
0
0
SPLINE
5
13E
100
AcDbEntity
8
1
62
256
6
ByLayer
370
18
48
1
60
0
100
AcDbSpline
70
4
71
3
72
17
73
13
40
0
40
0
40
0
40
0
40
0.0625
40
0.125
40
0.25
40
0.375
40
0.5
40
0.625
40
0.75
40
0.875
40
0.9375
40
1
40
1
40
1
40
1
41
1
10
28.5881082040994
20
14.4624546146704
30
0
41
1
10
28.5948840708399
20
14.4877424936114
30
0
41
1
10
28.6109208713671
20
14.5376522024963
30
0
41
1
10
28.652620053221
20
14.6338496154874
30
0
41
1
10
28.7220747925817
20
14.7455476651854
30
0
41
1
10
28.8299718394937
20
14.8607482230259
30
0
41
1
10
28.9582702130919
20
14.9526856637237
30
0
41
1
10
29.1020393772263
20
15.0178263856392
30
0
41
1
10
29.2557547703115
20
15.0536690569366
30
0
41
1
10
29.3872156301698
20
15.0579686288381
30
0
41
1
10
29.4913747495419
20
15.045983001705
30
0
41
1
10
29.5426162222717
20
15.0349159063601
30
0
41
1
10
29.5679041012127
20
15.0281400396195
30
0
0
SPLINE
5
13F
100
AcDbEntity
8
1
62
256
6
ByLayer
370
18
48
1
60
0
100
AcDbSpline
70
4
71
3
72
8
73
4
40
0
40
0
40
0
40
0
40
1
40
1
40
1
40
1
41
1
10
28.5881082244306
20
14.4624545794611
30
0
41
1
10
29.0374838961333
20
13.5725240277036
30
0
41
1
10
29.4868595678358
20
12.682593475946
30
0
41
1
10
29.9362352395385
20
11.7926629241886
30
0
0
SPLINE
5
140
100
AcDbEntity
8
1
62
256
6
ByLayer
370
18
48
1
60
0
100
AcDbSpline
70
4
71
3
72
8
73
4
40
0
40
0
40
0
40
0
40
1
40
1
40
1
40
1
41
1
10
37.2814406610322
20
12.1330831735384
30
0
41
1
10
36.9622305054054
20
10.9417746544472
30
0
41
1
10
36.6430203497872
20
9.75046613538797
30
0
41
1
10
36.3238101941519
20
8.55915761626514
30
0
0
SPLINE
5
141
100
AcDbEntity
8
1
62
256
6
ByLayer
370
18
48
1
60
0
100
AcDbSpline
70
4
71
3
72
8
73
4
40
0
40
0
40
0
40
0
40
1
40
1
40
1
40
1
41
1
10
33.0680146037887
20
6.43359388535305
30
0
41
1
10
32.961456383001
20
6.59638082499705
30
0
41
1
10
32.8548981622133
20
6.75916776464106
30
0
41
1
10
32.7483399414255
20
6.92195470428507
30
0
0
SPLINE
5
142
100
AcDbEntity
8
1
62
256
6
ByLayer
370
18
48
1
60
0
100
AcDbSpline
70
4
71
3
72
8
73
4
40
0
40
0
40
0
40
0
40
1
40
1
40
1
40
1
41
1
10
31.1533616580523
20
6.64944585482428
30
0
41
1
10
31.1830382811288
20
6.76020051994297
30
0
41
1
10
31.2127149042053
20
6.87095518506166
30
0
41
1
10
31.2423915272818
20
6.98170985018035
30
0
0
SPLINE
5
143
100
AcDbEntity
8
1
62
256
6
ByLayer
370
18
48
1
60
0
100
AcDbSpline
70
4
71
3
72
8
73
4
40
0
40
0
40
0
40
0
40
1
40
1
40
1
40
1
41
1
10
28.8070353911239
20
7.12683222858601
30
0
41
1
10
29.1741317177123
20
7.31219968002861
30
0
41
1
10
29.5412280443006
20
7.49756713147124
30
0
41
1
10
29.908324370889
20
7.68293458291387
30
0
0
SPLINE
5
144
100
AcDbEntity
8
1
62
256
6
ByLayer
370
18
48
1
60
0
100
AcDbSpline
70
4
71
3
72
8
73
4
40
0
40
0
40
0
40
0
40
1
40
1
40
1
40
1
41
1
10
36.3238101941519
20
8.55915761626511
30
0
41
1
10
36.1010164307509
20
7.72767997164286
30
0
41
1
10
35.8782226673581
20
6.89620232705161
30
0
41
1
10
35.6554289039649
20
6.06472468245889
30
0
0
SPLINE
5
145
100
AcDbEntity
8
1
62
256
6
ByLayer
370
18
48
1
60
0
100
AcDbSpline
70
4
71
3
72
8
73
4
40
0
40
0
40
0
40
0
40
1
40
1
40
1
40
1
41
1
10
34.756362766073
20
6.19289588888788
30
0
41
1
10
34.51025941477
20
6.68027183068006
30
0
41
1
10
34.2641560634668
20
7.16764777247226
30
0
41
1
10
34.0180527121637
20
7.65502371426444
30
0
0
SPLINE
5
146
100
AcDbEntity
8
1
62
256
6
ByLayer
370
18
48
1
60
0
100
AcDbSpline
70
4
71
3
72
8
73
4
40
0
40
0
40
0
40
0
40
1
40
1
40
1
40
1
41
1
10
26.7167186717301
20
7.4783336880293
30
0
41
1
10
27.0213050336695
20
8.61506546607959
30
0
41
1
10
27.3258913956021
20
9.75179724410475
30
0
41
1
10
27.6304777575503
20
10.8885290221879
30
0
0
SPLINE
5
147
100
AcDbEntity
8
1
62
256
6
ByLayer
370
18
48
1
60
0
100
AcDbSpline
70
4
71
3
72
8
73
4
40
0
40
0
40
0
40
0
40
1
40
1
40
1
40
1
41
1
10
26.8934113242362
20
7.45898182253026
30
0
41
1
10
27.6540260031273
20
7.95687033290417
30
0
41
1
10
28.4146406820184
20
8.45475884327811
30
0
41
1
10
29.1752553609097
20
8.95264735365205
30
0
0
SPLINE
5
148
100
AcDbEntity
8
1
62
256
6
ByLayer
370
18
48
1
60
0
100
AcDbSpline
70
4
71
3
72
15
73
11
40
0
40
0
40
0
40
0
40
0.0748223224140935
40
0.149644644828187
40
0.299289289656374
40
0.448933934484561
40
0.598578579312748
40
0.748223224140935
40
0.897867868969123
40
1
40
1
40
1
40
1
41
1
10
36.715755271295
20
-6.5564396867004
30
0
41
1
10
36.741043150236
20
-6.55305175333012
30
0
41
1
10
36.7909528591208
20
-6.54503335306651
30
0
41
1
10
36.887150272112
20
-6.52418376213956
30
0
41
1
10
36.9988483218099
20
-6.4894563924592
30
0
41
1
10
37.1140488796504
20
-6.43550786900312
30
0
41
1
10
37.2059863203483
20
-6.371358682204
30
0
41
1
10
37.2711270422638
20
-6.29947410013673
30
0
41
1
10
37.3031763371114
20
-6.2307505678595
30
0
41
1
10
37.3088017551981
20
-6.18669378924568
30
0
41
1
10
37.3086927581424
20
-6.16882608283981
30
0
0
SPLINE
5
149
100
AcDbEntity
8
1
62
256
6
ByLayer
370
18
48
1
60
0
100
AcDbSpline
70
4
71
3
72
8
73
4
40
0
40
0
40
0
40
0
40
1
40
1
40
1
40
1
41
1
10
28.3497182247636
20
-6.78638549434399
30
0
41
1
10
28.4291815579857
20
-6.93466609280571
30
0
41
1
10
28.5086448912078
20
-7.08294669126767
30
0
41
1
10
28.5881082244306
20
-7.23122728973064
30
0
0
SPLINE
5
14A
100
AcDbEntity
8
1
62
256
6
ByLayer
370
18
48
1
60
0
100
AcDbSpline
70
4
71
3
72
8
73
4
40
0
40
0
40
0
40
0
40
1
40
1
40
1
40
1
41
1
10
36.2086983990313
20
-2.32574354127669
30
0
41
1
10
36.3280081793051
20
-2.54837862218753
30
0
41
1
10
36.4473179595785
20
-2.77101370309762
30
0
41
1
10
36.5666277398523
20
-2.9936487840084
30
0
0
SPLINE
5
14B
100
AcDbEntity
8
1
62
256
6
ByLayer
370
18
48
1
60
0
100
AcDbSpline
70
4
71
3
72
15
73
11
40
0
40
0
40
0
40
0
40
0.0803658515921891
40
0.160731703184378
40
0.321463406368756
40
0.482195109553135
40
0.642926812737513
40
0.803658515921891
40
0.964390219106269
40
1
40
1
40
1
40
1
41
1
10
29.9806015540074
20
-4.29011945508719
30
0
41
1
10
29.9553144895585
20
-4.29350727933621
30
0
41
1
10
29.9040717807875
20
-4.29903474021768
30
0
41
1
10
29.7999124218649
20
-4.30501104978407
30
0
41
1
10
29.6684584835484
20
-4.30285547512526
30
0
41
1
10
29.5147399656464
20
-4.28495399615491
30
0
41
1
10
29.3709634763437
20
-4.25239584756449
30
0
41
1
10
29.2426822210152
20
-4.20641786644069
30
0
41
1
10
29.1628076585737
20
-4.1637554775765
30
0
41
1
10
29.1249829205319
20
-4.13795926887215
30
0
41
1
10
29.1183290311809
20
-4.13320845568825
30
0
0
SPLINE
5
14C
100
AcDbEntity
8
1
62
256
6
ByLayer
370
18
48
1
60
0
100
AcDbSpline
70
4
71
3
72
8
73
4
40
0
40
0
40
0
40
0
40
1
40
1
40
1
40
1
41
1
10
28.5881082244294
20
-7.23122728972658
30
0
41
1
10
28.7162078085597
20
-6.23052631158302
30
0
41
1
10
28.84430739269
20
-5.22982533344
30
0
41
1
10
28.9724069768207
20
-4.22912435529705
30
0
0
SPLINE
5
14D
100
AcDbEntity
8
1
62
256
6
ByLayer
370
18
48
1
60
0
100
AcDbSpline
70
4
71
3
72
8
73
4
40
0
40
0
40
0
40
0
40
1
40
1
40
1
40
1
41
1
10
36.5666277398517
20
-8.72673695706285
30
0
41
1
10
36.7776129452913
20
-7.94154988211881
30
0
41
1
10
36.9885981507309
20
-7.15636280717476
30
0
41
1
10
37.1995833561708
20
-6.37117573223105
30
0
0
SPLINE
5
14E
100
AcDbEntity
8
1
62
256
6
ByLayer
370
18
48
1
60
0
100
AcDbSpline
70
4
71
1
72
4
73
2
40
0
40
0
40
1
40
1
41
1
10
35.8657062666553
20
-6.67028887658128
30
0
41
1
10
35.7600550173315
20
-7.22165176683808
30
0
0
SPLINE
5
14F
100
AcDbEntity
8
1
62
256
6
ByLayer
370
18
48
1
60
0
100
AcDbSpline
70
4
71
3
72
15
73
11
40
0
40
0
40
0
40
0
40
0.0767318922216355
40
0.153463784443271
40
0.306927568886542
40
0.460391353329813
40
0.613855137773084
40
0.767318922216355
40
0.920782706659626
40
1
40
1
40
1
40
1
41
1
10
36.5666277398524
20
-8.72673695706197
30
0
41
1
10
36.5734033883504
20
-8.73938048928642
30
0
41
1
10
36.5844583101132
20
-8.76500184367188
30
0
41
1
10
36.596410929246
20
-8.81708152313311
30
0
41
1
10
36.5920997799282
20
-8.88280849229133
30
0
41
1
10
36.5562968219875
20
-8.95966775124231
30
0
41
1
10
36.4911805248066
20
-9.0315559958936
30
0
41
1
10
36.3992245625589
20
-9.09569662355781
30
0
41
1
10
36.3025830253758
20
-9.14093084919352
30
0
41
1
10
36.2371463140367
20
-9.16349259288839
30
0
41
1
10
36.2141509205986
20
-9.17059322682775
30
0
0
SPLINE
5
150
100
AcDbEntity
8
1
62
256
6
ByLayer
370
18
48
1
60
0
100
AcDbSpline
70
4
71
3
72
8
73
4
40
0
40
0
40
0
40
0
40
1
40
1
40
1
40
1
41
1
10
35.4914664255555
20
-6.72045863141742
30
0
41
1
10
35.5809959561469
20
-6.88752300988992
30
0
41
1
10
35.6705254867388
20
-7.05458738836327
30
0
41
1
10
35.7600550173315
20
-7.22165176683805
30
0
0
SPLINE
5
151
100
AcDbEntity
8
SK1
62
256
6
ByLayer
370
13
48
1
60
0
100
AcDbSpline
70
4
71
3
72
12
73
8
40
0
40
0
40
0
40
0
40
0.25
40
0.25
40
0.5
40
0.5
40
1
40
1
40
1
40
1
41
1
10
-57.94
20
3.59698484845305
30
0
41
1
10
-57.8447387518345
20
3.89351553327259
30
0
41
1
10
-57.7393491692555
20
4.18843255828637
30
0
41
1
10
-57.5140793690439
20
4.76746202862148
30
0
41
1
10
-57.3938892422298
20
5.05263510329377
30
0
41
1
10
-57.0143204259999
20
5.89723675179442
30
0
41
1
10
-56.7361151127433
20
6.44584648296663
30
0
41
1
10
-56.44
20
6.98416423060064
30
0
0
SPLINE
5
152
100
AcDbEntity
8
SK1
62
256
6
ByLayer
370
13
48
1
60
0
100
AcDbSpline
70
4
71
3
72
12
73
8
40
0
40
0
40
0
40
0
40
0.499999999999999
40
0.499999999999999
40
0.75
40
0.75
40
1
40
1
40
1
40
1
41
1
10
-56.44
20
-6.98416423060041
30
0
41
1
10
-56.7378437721229
20
-6.44270389421089
30
0
41
1
10
-57.0168098517854
20
-5.89213294411073
30
0
41
1
10
-57.3961432461675
20
-5.04739877411666
30
0
41
1
10
-57.5160290129515
20
-4.7626554066419
30
0
41
1
10
-57.740330543508
20
-4.18570265211193
30
0
41
1
10
-57.8449123384713
20
-3.89297519010796
30
0
41
1
10
-57.94
20
-3.59698484845285
30
0
0
SPLINE
5
153
100
AcDbEntity
8
1
62
256
6
ByLayer
370
13
48
1
60
0
100
AcDbSpline
70
4
71
3
72
12
73
8
40
0
40
0
40
0
40
0
40
0.5
40
0.5
40
0.75
40
0.75
40
1
40
1
40
1
40
1
41
1
10
24.3719596780563
20
12.7976462416286
30
0
41
1
10
24.4694486814093
20
12.7976462416286
30
0
41
1
10
24.5681339152455
20
12.8121562284006
30
0
41
1
10
24.7094766291345
20
12.8550836178581
30
0
41
1
10
24.7555038902449
20
12.8728956035868
30
0
41
1
10
24.8436197608758
20
12.9146082471471
30
0
41
1
10
24.8859906240365
20
12.9385894345599
30
0
41
1
10
24.9266598742815
20
12.9657224206113
30
0
0
SPLINE
5
154
100
AcDbEntity
8
1
62
256
6
ByLayer
370
13
48
1
60
0
100
AcDbSpline
70
4
71
3
72
12
73
8
40
0
40
0
40
0
40
0
40
0.499999999999998
40
0.499999999999998
40
0.749999999999999
40
0.749999999999999
40
1
40
1
40
1
40
1
41
1
10
35.7252800754513
20
-3.40844868625413
30
0
41
1
10
35.825680229825
20
-3.39498625661358
30
0
41
1
10
35.921455186784
20
-3.37107044619566
30
0
41
1
10
36.0448125924017
20
-3.32331627044263
30
0
41
1
10
36.0833533071108
20
-3.30513460351256
30
0
41
1
10
36.1520579092812
20
-3.26581606603329
30
0
41
1
10
36.1823612657004
20
-3.24470831693998
30
0
41
1
10
36.2087
20
-3.22218225326748
30
0
0
SPLINE
5
155
100
AcDbEntity
8
1
62
256
6
ByLayer
370
13
48
1
60
0
100
AcDbSpline
70
4
71
3
72
8
73
4
40
0
40
0
40
0
40
0
40
1
40
1
40
1
40
1
41
1
10
28.2802865912479
20
-6.12829788188333
30
0
41
1
10
28.3257640549476
20
-5.82159363805599
30
0
41
1
10
28.3744117494036
20
-5.51091508566918
30
0
41
1
10
28.4293456570379
20
-5.19674248619063
30
0
0
SPLINE
5
156
100
AcDbEntity
8
1
62
256
6
ByLayer
370
13
48
1
60
0
100
AcDbSpline
70
4
71
3
72
10
73
6
40
0
40
0
40
0
40
0
40
0.5
40
0.5
40
1
40
1
40
1
40
1
41
1
10
28.798196916604
20
-14.7724084933365
30
0
41
1
10
29.3242004564592
20
-14.6340994008043
30
0
41
1
10
29.8519942457569
20
-14.4950820294172
30
0
41
1
10
30.9115599829879
20
-14.2178542517211
30
0
41
1
10
31.4433331589929
20
-14.0796445826653
30
0
41
1
10
31.9771439758512
20
-13.9420082101373
30
0
0
SPLINE
5
157
100
AcDbEntity
8
1
62
256
6
ByLayer
370
13
48
1
60
0
100
AcDbSpline
70
4
71
3
72
8
73
4
40
0
40
0
40
0
40
0
40
1
40
1
40
1
40
1
41
1
10
28.6615164986771
20
14.50357826806
30
0
41
1
10
28.6523068248828
20
14.507016798975
30
0
41
1
10
28.6433615742614
20
14.5103287634126
30
0
41
1
10
28.6347011384643
20
14.5135254294648
30
0
0
SPLINE
5
158
100
AcDbEntity
8
1
62
256
6
ByLayer
370
13
48
1
60
0
100
AcDbSpline
70
4
71
3
72
20
73
16
40
0
40
0
40
0
40
0
40
0.125
40
0.125
40
0.25
40
0.25
40
0.375
40
0.375
40
0.499999999999999
40
0.499999999999999
40
0.75
40
0.75
40
0.875
40
0.875
40
1
40
1
40
1
40
1
41
1
10
28.798196916604
20
-4.39791245536793
30
0
41
1
10
28.8248832703166
20
-4.36062029115669
30
0
41
1
10
28.8545810159185
20
-4.32560716099994
30
0
41
1
10
28.9201998001108
20
-4.26030192400478
30
0
41
1
10
28.956097332547
20
-4.23017812181044
30
0
41
1
10
29.0312891887504
20
-4.17732762024588
30
0
41
1
10
29.0709202797611
20
-4.15423707497197
30
0
41
1
10
29.1544515431751
20
-4.11503781789855
30
0
41
1
10
29.197721377043
20
-4.09929945946061
30
0
41
1
10
29.3288377908197
20
-4.06457354325525
30
0
41
1
10
29.4206146155363
20
-4.0577739107768
30
0
41
1
10
29.5519542767112
20
-4.07303346768549
30
0
41
1
10
29.5954967540898
20
-4.08239473515431
30
0
41
1
10
29.6789227576256
20
-4.10904560173279
30
0
41
1
10
29.7186418399305
20
-4.12617324562359
30
0
41
1
10
29.7564088865914
20
-4.14698712946736
30
0
0
SPLINE
5
159
100
AcDbEntity
8
1
62
256
6
ByLayer
370
13
48
1
60
0
100
AcDbSpline
70
4
71
3
72
24
73
20
40
0
40
0
40
0
40
0
40
0.25
40
0.25
40
0.3125
40
0.3125
40
0.375
40
0.375
40
0.5
40
0.5
40
0.625
40
0.625
40
0.6875
40
0.6875
40
0.75
40
0.75
40
0.875
40
0.875
40
1
40
1
40
1
40
1
41
1
10
18.7184003732488
20
-8.20134160800893
30
0
41
1
10
18.871189902774
20
-8.91780767793145
30
0
41
1
10
19.0776786506867
20
-9.54801395669088
30
0
41
1
10
19.4428585481344
20
-10.2330254789776
30
0
41
1
10
19.5213124299347
20
-10.3648557104714
30
0
41
1
10
19.690352890733
20
-10.6181781109624
30
0
41
1
10
19.7800895001258
20
-10.7383625384003
30
0
41
1
10
20.0650571538908
20
-11.0795807216784
30
0
41
1
10
20.2763410773218
20
-11.2817592653915
30
0
41
1
10
20.7459969210101
20
-11.64097010475
30
0
41
1
10
21.0043578140431
20
-11.7979877403567
30
0
41
1
10
21.4309010147858
20
-12.0033580719666
30
0
41
1
10
21.5785642890268
20
-12.0662650097134
30
0
41
1
10
21.8829865058926
20
-12.1814293250642
30
0
41
1
10
22.0400294359528
20
-12.2338244548367
30
0
41
1
10
22.5256015902944
20
-12.3772391845382
30
0
41
1
10
22.8685549123756
20
-12.4545307684187
30
0
41
1
10
23.5930671746723
20
-12.580767522524
30
0
41
1
10
23.9755670481057
20
-12.6297061381693
30
0
41
1
10
24.3719596780564
20
-12.6676115682656
30
0
0
SPLINE
5
15A
100
AcDbEntity
8
1
62
256
6
ByLayer
370
13
48
1
60
0
100
AcDbSpline
70
4
71
3
72
10
73
6
40
0
40
0
40
0
40
0
40
0.5
40
0.5
40
1
40
1
40
1
40
1
41
1
10
28.7981969166045
20
7.12892802474835
30
0
41
1
10
29.3242004564597
20
6.97861915852303
30
0
41
1
10
29.8519942457572
20
6.85440118428536
30
0
41
1
10
30.911559982988
20
6.6568065393748
30
0
41
1
10
31.4433331589929
20
6.58344410053004
30
0
41
1
10
31.9771439758511
20
6.53564348998967
30
0
0
SPLINE
5
15B
100
AcDbEntity
8
1
62
256
6
ByLayer
370
13
48
1
60
0
100
AcDbSpline
70
4
71
3
72
10
73
6
40
0
40
0
40
0
40
0
40
0.5
40
0.5
40
1
40
1
40
1
40
1
41
1
10
28.7981969166045
20
-4.39791245536844
30
0
41
1
10
28.7656236170724
20
-4.44343118183576
30
0
41
1
10
28.7373926221351
20
-4.49108939859064
30
0
41
1
10
28.6908214760542
20
-4.59175939283057
30
0
41
1
10
28.6732269297009
20
-4.6432548979206
30
0
41
1
10
28.6615164986771
20
-4.69569738769056
30
0
0
SPLINE
5
15C
100
AcDbEntity
8
1
62
256
6
ByLayer
370
13
48
1
60
0
100
AcDbSpline
70
4
71
3
72
12
73
8
40
0
40
0
40
0
40
0
40
0.5
40
0.5
40
0.75
40
0.75
40
1
40
1
40
1
40
1
41
1
10
28.6526812536328
20
-5.032901950508
30
0
41
1
10
28.6222405491376
20
-4.9908335384483
30
0
41
1
10
28.6058916618805
20
-4.94493268453272
30
0
41
1
10
28.6008855064048
20
-4.87326526907847
30
0
41
1
10
28.6025682083136
20
-4.84862268333166
30
0
41
1
10
28.6123217521795
20
-4.80004941306186
30
0
41
1
10
28.6203276512817
20
-4.77600060356926
30
0
41
1
10
28.6312942456263
20
-4.75226407874473
30
0
0
SPLINE
5
15D
100
AcDbEntity
8
1
62
256
6
ByLayer
370
13
48
1
60
0
100
AcDbSpline
70
4
71
3
72
12
73
8
40
0
40
0
40
0
40
0
40
0.499999999999991
40
0.499999999999991
40
0.749999999999995
40
0.749999999999995
40
1
40
1
40
1
40
1
41
1
10
28.1627576919303
20
14.7955075916083
30
0
41
1
10
27.9849657003998
20
14.7850356821059
30
0
41
1
10
27.8124845323158
20
14.7514488686497
30
0
41
1
10
27.5615098179016
20
14.6673503306868
30
0
41
1
10
27.478666011096
20
14.6333190839616
30
0
41
1
10
27.3201098197956
20
14.5554858299379
30
0
41
1
10
27.2439595223686
20
14.5116149388375
30
0
41
1
10
27.1708861987975
20
14.4628702867119
30
0
0
SPLINE
5
15E
100
AcDbEntity
8
1
62
256
6
ByLayer
370
13
48
1
60
0
100
AcDbSpline
70
4
71
3
72
10
73
6
40
0
40
0
40
0
40
0
40
0.5
40
0.5
40
1
40
1
40
1
40
1
41
1
10
24.3719596780564
20
-12.6676115682656
30
0
41
1
10
24.4715639723788
20
-12.6771363256159
30
0
41
1
10
24.5677715461407
20
-12.7006832884075
30
0
41
1
10
24.7536708844422
20
-12.7736450217756
30
0
41
1
10
24.8437748535317
20
-12.8236475234407
30
0
41
1
10
24.9266598742818
20
-12.8860849138516
30
0
0
SPLINE
5
15F
100
AcDbEntity
8
1
62
256
6
ByLayer
370
13
48
1
60
0
100
AcDbSpline
70
4
71
3
72
8
73
4
40
0
40
0
40
0
40
0
40
1
40
1
40
1
40
1
41
1
10
28.6347011384644
20
-4.73138624048798
30
0
41
1
10
28.6273941533318
20
-4.74153798863026
30
0
41
1
10
28.6201109801809
20
-4.75167817576838
30
0
41
1
10
28.6128506764326
20
-4.76180673505436
30
0
0
SPLINE
5
160
100
AcDbEntity
8
1
62
256
6
ByLayer
370
13
48
1
60
0
100
AcDbSpline
70
4
71
3
72
12
73
8
40
0
40
0
40
0
40
0
40
0.499999999999999
40
0.499999999999999
40
0.75
40
0.75
40
1
40
1
40
1
40
1
41
1
10
28.2802865912481
20
-14.806355698388
30
0
41
1
10
28.0781793714981
20
-14.8069903180562
30
0
41
1
10
27.8838014092399
20
-14.7775077909353
30
0
41
1
10
27.6027163077221
20
-14.6916714394945
30
0
41
1
10
27.5108909727454
20
-14.6558926093514
30
0
41
1
10
27.3356261778098
20
-14.5722105108035
30
0
41
1
10
27.2515208422282
20
-14.5241324572889
30
0
41
1
10
27.1708861987976
20
-14.4697825716413
30
0
0
SPLINE
5
161
100
AcDbEntity
8
1
62
256
6
ByLayer
370
13
48
1
60
0
100
AcDbSpline
70
4
71
3
72
8
73
4
40
0
40
0
40
0
40
0
40
1
40
1
40
1
40
1
41
1
10
28.6128506764326
20
-4.76180673505436
30
0
41
1
10
28.5887212138181
20
-4.79546878296611
30
0
41
1
10
28.5668791188751
20
-4.83000015026974
30
0
41
1
10
28.5471904161455
20
-4.86546002143641
30
0
0
SPLINE
5
162
100
AcDbEntity
8
1
62
256
6
ByLayer
370
13
48
1
60
0
100
AcDbSpline
70
4
71
3
72
8
73
4
40
0
40
0
40
0
40
0
40
1
40
1
40
1
40
1
41
1
10
28.2802865912479
20
14.7379450506998
30
0
41
1
10
28.2383065343519
20
14.7680343708203
30
0
41
1
10
28.199417968792
20
14.7871181714974
30
0
41
1
10
28.162757691947
20
14.7955075916094
30
0
0
SPLINE
5
163
100
AcDbEntity
8
1
62
256
6
ByLayer
370
13
48
1
60
0
100
AcDbSpline
70
4
71
3
72
13
73
9
40
0
40
0
40
0
40
0
40
0.25
40
0.25
40
0.5
40
0.75
40
0.75
40
1
40
1
40
1
40
1
41
1
10
28.1627576919474
20
-6.96474109391207
30
0
41
1
10
28.0749953618678
20
-6.96215650286757
30
0
41
1
10
27.9865367365649
20
-6.95660864652788
30
0
41
1
10
27.8127956269657
20
-6.939758867043
30
0
41
1
10
27.6428307802938
20
-6.91731663297361
30
0
41
1
10
27.4802165650349
20
-6.88398848520197
30
0
41
1
10
27.321371665927
20
-6.84507817067057
30
0
41
1
10
27.2440441405731
20
-6.82282299044479
30
0
41
1
10
27.170886198798
20
-6.79842244146349
30
0
0
SPLINE
5
164
100
AcDbEntity
8
1
62
256
6
ByLayer
370
13
48
1
60
0
100
AcDbSpline
70
4
71
3
72
8
73
4
40
0
40
0
40
0
40
0
40
1
40
1
40
1
40
1
41
1
10
35.3466560214221
20
-6.86039194837738
30
0
41
1
10
35.628234603579
20
-7.39764783004117
30
0
41
1
10
35.9170933641522
20
-7.93396042112963
30
0
41
1
10
36.2087
20
-8.46991697082728
30
0
0
SPLINE
5
165
100
AcDbEntity
8
1
62
256
6
ByLayer
370
13
48
1
60
0
100
AcDbSpline
70
4
71
3
72
8
73
4
40
0
40
0
40
0
40
0
40
1
40
1
40
1
40
1
41
1
10
35.3466560214221
20
-8.63550351632253
30
0
41
1
10
35.632207847674
20
-9.65242376588785
30
0
41
1
10
35.9200240206241
20
-10.66875988269
30
0
41
1
10
36.2087
20
-11.6848741955151
30
0
0
SPLINE
5
166
100
AcDbEntity
8
1
62
256
6
ByLayer
370
13
48
1
60
0
100
AcDbSpline
70
4
71
3
72
8
73
4
40
0
40
0
40
0
40
0
40
1
40
1
40
1
40
1
41
1
10
32.9860725592929
20
-13.6818204146543
30
0
41
1
10
32.6497671171916
20
-13.7685650437741
30
0
41
1
10
32.3134575106489
20
-13.8552940157077
30
0
41
1
10
31.9771439758512
20
-13.9420082101373
30
0
0
SPLINE
5
167
100
AcDbEntity
8
1
62
256
6
ByLayer
370
13
48
1
60
0
100
AcDbSpline
70
4
71
3
72
8
73
4
40
0
40
0
40
0
40
0
40
1
40
1
40
1
40
1
41
1
10
28.280286591248
20
7.25015821442739
30
0
41
1
10
28.369038043465
20
7.22979476260008
30
0
41
1
10
28.4580062255093
20
7.2101516890225
30
0
41
1
10
28.5471904161459
20
7.19123220922256
30
0
0
SPLINE
5
168
100
AcDbEntity
8
1
62
256
6
ByLayer
370
13
48
1
60
0
100
AcDbSpline
70
4
71
3
72
12
73
8
40
0
40
0
40
0
40
0
40
0.499999999999984
40
0.499999999999984
40
0.749999999999992
40
0.749999999999992
40
1
40
1
40
1
40
1
41
1
10
24.3719596780564
20
-5.96581041892171
30
0
41
1
10
24.4706144953074
20
-5.96581041892171
30
0
41
1
10
24.5677688554094
20
-5.9730474845762
30
0
41
1
10
24.7086134290412
20
-5.99437947897295
30
0
41
1
10
24.7550471857293
20
-6.00333491131804
30
0
41
1
10
24.8435501653349
20
-6.02426708615042
30
0
41
1
10
24.8860009536004
20
-6.03628546113458
30
0
41
1
10
24.9266598742816
20
-6.04984850841305
30
0
0
SPLINE
5
169
100
AcDbEntity
8
1
62
256
6
ByLayer
370
13
48
1
60
0
100
AcDbSpline
70
4
71
3
72
8
73
4
40
0
40
0
40
0
40
0
40
1
40
1
40
1
40
1
41
1
10
35.7252800754513
20
-3.40844868625408
30
0
41
1
10
33.7648275967881
20
-3.67132132546755
30
0
41
1
10
31.8038461952852
20
-3.93320396921845
30
0
41
1
10
29.8424942777853
20
-4.19439311076368
30
0
0
SPLINE
5
16A
100
AcDbEntity
8
1
62
256
6
ByLayer
370
13
48
1
60
0
100
AcDbSpline
70
4
71
3
72
12
73
8
40
0
40
0
40
0
40
0
40
0.499999999999999
40
0.499999999999999
40
0.75
40
0.75
40
1
40
1
40
1
40
1
41
1
10
28.280286591248
20
7.25015821442733
30
0
41
1
10
28.078179371498
20
7.29653042052104
30
0
41
1
10
27.8838014092399
20
7.33473937925788
30
0
41
1
10
27.602716307722
20
7.3802393868261
30
0
41
1
10
27.5108909727452
20
7.39334139798726
30
0
41
1
10
27.3356261778097
20
7.4145831413756
30
0
41
1
10
27.2515208422282
20
7.42283808738662
30
0
41
1
10
27.1708861987975
20
7.42855838355865
30
0
0
SPLINE
5
16B
100
AcDbEntity
8
1
62
256
6
ByLayer
370
13
48
1
60
0
100
AcDbSpline
70
4
71
3
72
8
73
4
40
0
40
0
40
0
40
0
40
1
40
1
40
1
40
1
41
1
10
28.6441349230661
20
-4.72612895662076
30
0
41
1
10
28.6494267901095
20
-4.71593031108307
30
0
41
1
10
28.6552210741722
20
-4.70578594514677
30
0
41
1
10
28.6615164986772
20
-4.69569738769059
30
0
0
SPLINE
5
16C
100
AcDbEntity
8
1
62
256
6
ByLayer
370
13
48
1
60
0
100
AcDbSpline
70
4
71
3
72
20
73
16
40
0
40
0
40
0
40
0
40
0.125000000000005
40
0.125000000000005
40
0.250000000000009
40
0.250000000000009
40
0.375000000000014
40
0.375000000000014
40
0.500000000000018
40
0.500000000000018
40
0.750000000000009
40
0.750000000000009
40
0.875000000000005
40
0.875000000000005
40
1
40
1
40
1
40
1
41
1
10
30.9405206285276
20
0.232106982688975
30
0
41
1
10
30.9069254528013
20
0.227028861863801
30
0
41
1
10
30.8720815180968
20
0.226201093446036
30
0
41
1
10
30.8042296978388
20
0.23313631693469
30
0
41
1
10
30.7707699100523
20
0.240804183654319
30
0
41
1
10
30.7056734088747
20
0.264173461388452
30
0
41
1
10
30.6749349296661
20
0.27950973980262
30
0
41
1
10
30.6167341554678
20
0.316824592932022
30
0
41
1
10
30.5893204534176
20
0.338897912751321
30
0
41
1
10
30.5149565035038
20
0.411799066859032
30
0
41
1
10
30.4743761710143
20
0.470679146606187
30
0
41
1
10
30.4293677238869
20
0.565861883947576
30
0
41
1
10
30.4167630443628
20
0.599240781342928
30
0
41
1
10
30.3969534493939
20
0.666870889558112
30
0
41
1
10
30.3896557749497
20
0.701216202448506
30
0
41
1
10
30.3848601286271
20
0.736070466985865
30
0
0
SPLINE
5
16D
100
AcDbEntity
8
1
62
256
6
ByLayer
370
13
48
1
60
0
100
AcDbSpline
70
4
71
3
72
8
73
4
40
0
40
0
40
0
40
0
40
1
40
1
40
1
40
1
41
1
10
30.9405206285276
20
0.232106982689032
30
0
41
1
10
32.5378596849571
20
0.473554766544197
30
0
41
1
10
34.1331027084072
20
0.718403656848295
30
0
41
1
10
35.7252800754513
20
0.968227003124468
30
0
0
SPLINE
5
16E
100
AcDbEntity
8
1
62
256
6
ByLayer
370
13
48
1
60
0
100
AcDbSpline
70
4
71
3
72
8
73
4
40
0
40
0
40
0
40
0
40
1
40
1
40
1
40
1
41
1
10
35.7743853992739
20
6.48941302402076
30
0
41
1
10
35.9123291930279
20
6.4524510958835
30
0
41
1
10
36.0579798460478
20
6.41342412102975
30
0
41
1
10
36.2087
20
6.3730387774952
30
0
0
SPLINE
5
16F
100
AcDbEntity
8
1
62
256
6
ByLayer
370
13
48
1
60
0
100
AcDbSpline
70
4
71
3
72
8
73
4
40
0
40
0
40
0
40
0
40
1
40
1
40
1
40
1
41
1
10
28.6128506764326
20
14.5213527823739
30
0
41
1
10
28.5889159948313
20
14.5296660055886
30
0
41
1
10
28.5670347737583
20
14.5371934555432
30
0
41
1
10
28.5471904161377
20
14.5442953882385
30
0
0
SPLINE
5
170
100
AcDbEntity
8
1
62
256
6
ByLayer
370
13
48
1
60
0
100
AcDbSpline
70
4
71
3
72
8
73
4
40
0
40
0
40
0
40
0
40
1
40
1
40
1
40
1
41
1
10
28.2802865912481
20
-14.806355698388
30
0
41
1
10
28.3690380434653
20
-14.8060770175115
30
0
41
1
10
28.4580062255097
20
-14.8057533952943
30
0
41
1
10
28.5471904161464
20
-14.8053964902295
30
0
0
SPLINE
5
171
100
AcDbEntity
8
1
62
256
6
ByLayer
370
13
48
1
60
0
100
AcDbSpline
70
4
71
3
72
8
73
4
40
0
40
0
40
0
40
0
40
1
40
1
40
1
40
1
41
1
10
24.9266598742816
20
-6.04984850841305
30
0
41
1
10
25.6747176061263
20
-6.29938642565369
30
0
41
1
10
26.4227948809644
20
-6.54890969684001
30
0
41
1
10
27.1708861987978
20
-6.79842244146343
30
0
0
SPLINE
5
172
100
AcDbEntity
8
1
62
256
6
ByLayer
370
13
48
1
60
0
100
AcDbSpline
70
4
71
3
72
29
73
25
40
0
40
0
40
0
40
0
40
0.0625000000000013
40
0.0625000000000013
40
0.125000000000002
40
0.125000000000002
40
0.250000000000005
40
0.250000000000005
40
0.375000000000007
40
0.375000000000007
40
0.437500000000007
40
0.437500000000007
40
0.500000000000006
40
0.562500000000005
40
0.562500000000005
40
0.625000000000004
40
0.625000000000004
40
0.750000000000003
40
0.750000000000003
40
0.812500000000002
40
0.812500000000002
40
0.875000000000001
40
0.875000000000001
40
1
40
1
40
1
40
1
41
1
10
20.6376123934682
20
12.7976462416286
30
0
41
1
10
20.5558983709474
20
12.7976462416286
30
0
41
1
10
20.4734775638548
20
12.7978245290276
30
0
41
1
10
20.30968286977
20
12.7985139188119
30
0
41
1
10
20.2289869539742
20
12.7990201556064
30
0
41
1
10
19.9904189332494
20
12.8008870758788
30
0
41
1
10
19.8355389518124
20
12.8026279502692
30
0
41
1
10
19.5377818475253
20
12.8058102011198
30
0
41
1
10
19.3999147119218
20
12.8071848098722
30
0
41
1
10
19.209834048397
20
12.8074858249451
30
0
41
1
10
19.1491443680851
20
12.8072867469046
30
0
41
1
10
19.0344362823162
20
12.8059742807631
30
0
41
1
10
18.9283978279339
20
12.803769461976
30
0
41
1
10
18.8394283649021
20
12.7992783174069
30
0
41
1
10
18.7592478142543
20
12.7933581144572
30
0
41
1
10
18.7233376744229
20
12.7896499463213
30
0
41
1
10
18.6314137671668
20
12.776120028586
30
0
41
1
10
18.5914810971201
20
12.7640683108527
30
0
41
1
10
18.5635225165111
20
12.7405977292623
30
0
41
1
10
18.5596819367813
20
12.7318313434816
30
0
41
1
10
18.5630247674426
20
12.7129764216988
30
0
41
1
10
18.5700979068303
20
12.7028342782137
30
0
41
1
10
18.6070653945943
20
12.6703537623236
30
0
41
1
10
18.6532355221556
20
12.6457654918349
30
0
41
1
10
18.7184003732485
20
12.6198144737613
30
0
0
SPLINE
5
173
100
AcDbEntity
8
1
62
256
6
ByLayer
370
13
48
1
60
0
100
AcDbSpline
70
4
71
3
72
10
73
6
40
0
40
0
40
0
40
0
40
0.5
40
0.5
40
1
40
1
40
1
40
1
41
1
10
28.4293456570374
20
14.6062829040877
30
0
41
1
10
28.4394380130937
20
14.596157939218
30
0
41
1
10
28.4543693106025
20
14.5858974989582
30
0
41
1
10
28.4936311854071
20
14.5651963468809
30
0
41
1
10
28.5180955960768
20
14.5547078922765
30
0
41
1
10
28.5471904161377
20
14.5442953882385
30
0
0
SPLINE
5
174
100
AcDbEntity
8
1
62
256
6
ByLayer
370
13
48
1
60
0
100
AcDbSpline
70
4
71
3
72
8
73
4
40
0
40
0
40
0
40
0
40
1
40
1
40
1
40
1
41
1
10
24.9266598742815
20
12.9657224206113
30
0
41
1
10
25.6747176002069
20
13.4647982511434
30
0
41
1
10
26.4227948748563
20
13.9638447933908
30
0
41
1
10
27.1708861987975
20
14.4628702867119
30
0
0
SPLINE
5
175
100
AcDbEntity
8
1
62
256
6
ByLayer
370
13
48
1
60
0
100
AcDbSpline
70
4
71
3
72
8
73
4
40
0
40
0
40
0
40
0
40
1
40
1
40
1
40
1
41
1
10
28.4293456570379
20
-5.19674248619066
30
0
41
1
10
28.4496015168226
20
-5.0808971659273
30
0
41
1
10
28.4891026341147
20
-4.97007764380837
30
0
41
1
10
28.5471904161454
20
-4.86546002143635
30
0
0
SPLINE
5
176
100
AcDbEntity
8
1
62
256
6
ByLayer
370
13
48
1
60
0
100
AcDbSpline
70
4
71
3
72
32
73
28
40
0
40
0
40
0
40
0
40
0.124999999999995
40
0.124999999999995
40
0.187499999999994
40
0.187499999999994
40
0.249999999999994
40
0.249999999999994
40
0.312499999999994
40
0.312499999999994
40
0.374999999999994
40
0.374999999999994
40
0.499999999999997
40
0.499999999999997
40
0.562499999999997
40
0.562499999999997
40
0.624999999999997
40
0.624999999999997
40
0.687499999999998
40
0.687499999999998
40
0.749999999999998
40
0.749999999999998
40
0.812499999999998
40
0.812499999999998
40
0.874999999999998
40
0.874999999999998
40
1
40
1
40
1
40
1
41
1
10
20.6376123934681
20
-5.96581041892171
30
0
41
1
10
20.4739985080606
20
-5.96581041892171
30
0
41
1
10
20.3118378269045
20
-5.98148874809041
30
0
41
1
10
20.0708474750941
20
-6.02912765725569
30
0
41
1
10
19.9911045482603
20
-6.04908842311963
30
0
41
1
10
19.8364489394638
20
-6.09615274483861
30
0
41
1
10
19.7610234944531
20
-6.12334612206794
30
0
41
1
10
19.6140005324818
20
-6.18501216643878
30
0
41
1
10
19.542402208062
20
-6.21948359977375
30
0
41
1
10
19.403227471779
20
-6.29596560478072
30
0
41
1
10
19.3356776788359
20
-6.33805661220418
30
0
41
1
10
19.1450259897265
20
-6.47219532471442
30
0
41
1
10
19.0316882478921
20
-6.57301971103948
30
0
41
1
10
18.8838363361236
20
-6.74175702347384
30
0
41
1
10
18.8384751821016
20
-6.80088291850859
30
0
41
1
10
18.758285330335
20
-6.92133062628133
30
0
41
1
10
18.7230496583396
20
-6.98308912328037
30
0
41
1
10
18.6623792943549
20
-7.10958215138274
30
0
41
1
10
18.6369423648802
20
-7.17431621653861
30
0
41
1
10
18.5964115437978
20
-7.30682782368143
30
0
41
1
10
18.5817793790897
20
-7.37314054441816
30
0
41
1
10
18.5634216970817
20
-7.50536213881912
30
0
41
1
10
18.5596747240578
20
-7.57134704853547
30
0
41
1
10
18.5630421710968
20
-7.70303782339644
30
0
41
1
10
18.5702866167226
20
-7.76917394244524
30
0
41
1
10
18.6077721813791
20
-7.96208185542605
30
0
41
1
10
18.6532728183236
20
-8.08452342890993
30
0
41
1
10
18.7184003732488
20
-8.20134160800893
30
0
0
SPLINE
5
177
100
AcDbEntity
8
1
62
256
6
ByLayer
370
13
48
1
60
0
100
AcDbSpline
70
4
71
3
72
20
73
16
40
0
40
0
40
0
40
0
40
0.249999999999999
40
0.249999999999999
40
0.374999999999999
40
0.374999999999999
40
0.499999999999999
40
0.499999999999999
40
0.624999999999999
40
0.624999999999999
40
0.75
40
0.75
40
0.875
40
0.875
40
1
40
1
40
1
40
1
41
1
10
35.7743853992739
20
3.51895189154655
30
0
41
1
10
35.7607465480639
20
3.46035652776456
30
0
41
1
10
35.7497580587356
20
3.39678174411665
30
0
41
1
10
35.7379434776427
20
3.29731279864464
30
0
41
1
10
35.7348823032063
20
3.26426982514113
30
0
41
1
10
35.7304796014324
20
3.19840260484736
30
0
41
1
10
35.7291382276431
20
3.16522367573083
30
0
41
1
10
35.7283393033375
20
3.10110049377937
30
0
41
1
10
35.7288576565497
20
3.07021339978894
30
0
41
1
10
35.7317325487465
20
3.01079722490334
30
0
41
1
10
35.7341310161128
20
2.98209216543063
30
0
41
1
10
35.7406166164396
20
2.92960262057522
30
0
41
1
10
35.744704424319
20
2.90550249412206
30
0
41
1
10
35.7546026368057
20
2.86173449336209
30
0
41
1
10
35.7603789725151
20
2.84235486519961
30
0
41
1
10
35.7667617750899
20
2.82609877258005
30
0
0
SPLINE
5
178
100
AcDbEntity
8
1
62
256
6
ByLayer
370
13
48
1
60
0
100
AcDbSpline
70
4
71
3
72
8
73
4
40
0
40
0
40
0
40
0
40
1
40
1
40
1
40
1
41
1
10
36.2087
20
1.77237983836508
30
0
41
1
10
36.0535014893784
20
2.12302641343606
30
0
41
1
10
35.9049424005624
20
2.47417232340885
30
0
41
1
10
35.7667617750899
20
2.82609877258005
30
0
0
SPLINE
5
179
100
AcDbEntity
8
1
62
256
6
ByLayer
370
13
48
1
60
0
100
AcDbSpline
70
4
71
3
72
8
73
4
40
0
40
0
40
0
40
0
40
1
40
1
40
1
40
1
41
1
10
24.9266598742816
20
7.75893763170433
30
0
41
1
10
25.6353336022336
20
7.59898034464501
30
0
41
1
10
26.3869664323637
20
7.48417037672104
30
0
41
1
10
27.1708861987975
20
7.42855838355865
30
0
0
SPLINE
5
17A
100
AcDbEntity
8
1
62
256
6
ByLayer
370
13
48
1
60
0
100
AcDbSpline
70
4
71
3
72
8
73
4
40
0
40
0
40
0
40
0
40
1
40
1
40
1
40
1
41
1
10
28.7981969166045
20
7.12892802474832
30
0
41
1
10
28.715341077218
20
7.1526046092857
30
0
41
1
10
28.6316565801811
20
7.17331360870787
30
0
41
1
10
28.5471904161456
20
7.19123220922265
30
0
0
SPLINE
5
17B
100
AcDbEntity
8
1
62
256
6
ByLayer
370
13
48
1
60
0
100
AcDbSpline
70
4
71
3
72
32
73
28
40
0
40
0
40
0
40
0
40
0.0625000000000002
40
0.0625000000000002
40
0.125
40
0.125
40
0.1875
40
0.1875
40
0.250000000000001
40
0.250000000000001
40
0.375
40
0.375
40
0.4375
40
0.4375
40
0.5
40
0.5
40
0.5625
40
0.5625
40
0.625000000000001
40
0.625000000000001
40
0.750000000000001
40
0.750000000000001
40
0.812500000000001
40
0.812500000000001
40
0.875000000000001
40
0.875000000000001
40
1
40
1
40
1
40
1
41
1
10
31.2863008048892
20
6.419093958454
30
0
41
1
10
31.2144318866074
20
6.4178827372634
30
0
41
1
10
31.1432365360766
20
6.41212469696919
30
0
41
1
10
31.0022509367222
20
6.39090910724255
30
0
41
1
10
30.9326441902268
20
6.37536966602661
30
0
41
1
10
30.7995597967546
20
6.33539116271049
30
0
41
1
10
30.735467458318
20
6.31087988302565
30
0
41
1
10
30.6120902920679
20
6.25280401572667
30
0
41
1
10
30.5524250979585
20
6.21896994771367
30
0
41
1
10
30.3836017363666
20
6.10528833128356
30
0
41
1
10
30.2857814899833
20
6.0146759483564
30
0
41
1
10
30.1585489855495
20
5.85817252073656
30
0
41
1
10
30.1197879255892
20
5.8029240592208
30
0
41
1
10
30.0499797700701
20
5.688352400311
30
0
41
1
10
30.0187321966418
20
5.62878242793698
30
0
41
1
10
29.9629246719569
20
5.50535137778158
30
0
41
1
10
29.9382679281269
20
5.44115392470738
30
0
41
1
10
29.8958021604137
20
5.31045767877697
30
0
41
1
10
29.877977605486
20
5.2440712719816
30
0
41
1
10
29.8335308326117
20
5.04206320745669
30
0
41
1
10
29.8158630914097
20
4.90361029394015
30
0
41
1
10
29.8044630789054
20
4.69085671541745
30
0
41
1
10
29.8032163423728
20
4.61883811241111
30
0
41
1
10
29.8054555293
20
4.4751559488659
30
0
41
1
10
29.8089152162102
20
4.40332795820717
30
0
41
1
10
29.8256383295621
20
4.18785015250364
30
0
41
1
10
29.8452015847317
20
4.04420401358325
30
0
41
1
10
29.8720872425161
20
3.90051515676788
30
0
0
SPLINE
5
17C
100
AcDbEntity
8
1
62
256
6
ByLayer
370
13
48
1
60
0
100
AcDbSpline
70
4
71
3
72
8
73
4
40
0
40
0
40
0
40
0
40
1
40
1
40
1
40
1
41
1
10
28.6312942456262
20
-4.75226407874473
30
0
41
1
10
28.6352309569456
20
-4.74374330711566
30
0
41
1
10
28.6395114453011
20
-4.73503946221163
30
0
41
1
10
28.6441349230661
20
-4.72612895662076
30
0
0
SPLINE
5
17D
100
AcDbEntity
8
1
62
256
6
ByLayer
370
13
48
1
60
0
100
AcDbSpline
70
4
71
3
72
14
73
10
40
0
40
0
40
0
40
0
40
0.25
40
0.25
40
0.5
40
0.5
40
0.75
40
0.75
40
1
40
1
40
1
40
1
41
1
10
36.2087000000011
20
1.1874377104499
30
0
41
1
10
36.1840636612767
20
1.16249412155528
30
0
41
1
10
36.1551968850014
20
1.13835759770836
30
0
41
1
10
36.0889224456444
20
1.09289297237183
30
0
41
1
10
36.0521189504602
20
1.0719305366913
30
0
41
1
10
35.970512844868
20
1.0338671999952
30
0
41
1
10
35.9250650417976
20
1.0166109064582
30
0
41
1
10
35.8292573275101
20
0.988078660448025
30
0
41
1
10
35.778718900589
20
0.97661191450004
30
0
41
1
10
35.7252800754513
20
0.968227003124412
30
0
0
SPLINE
5
17E
100
AcDbEntity
8
1
62
256
6
ByLayer
370
13
48
1
60
0
100
AcDbSpline
70
4
71
3
72
8
73
4
40
0
40
0
40
0
40
0
40
1
40
1
40
1
40
1
41
1
10
28.798196916604
20
-14.7724084933365
30
0
41
1
10
28.7153410772179
20
-14.794194878956
30
0
41
1
10
28.6316565801811
20
-14.8050584661747
30
0
41
1
10
28.5471904161459
20
-14.8053964902295
30
0
0
SPLINE
5
17F
100
AcDbEntity
8
1
62
256
6
ByLayer
370
13
48
1
60
0
100
AcDbSpline
70
4
71
3
72
10
73
6
40
0
40
0
40
0
40
0
40
0.5
40
0.5
40
1
40
1
40
1
40
1
41
1
10
28.8344388220439
20
-5.15532853682191
30
0
41
1
10
28.7938869730258
20
-5.14230108064856
30
0
41
1
10
28.7584700023822
20
-5.12550148670275
30
0
41
1
10
28.6983051726921
20
-5.08501624887293
30
0
41
1
10
28.6732132149749
20
-5.06127668836152
30
0
41
1
10
28.6526812536328
20
-5.032901950508
30
0
0
SPLINE
5
180
100
AcDbEntity
8
1
62
256
6
ByLayer
370
13
48
1
60
0
100
AcDbSpline
70
4
71
3
72
8
73
4
40
0
40
0
40
0
40
0
40
1
40
1
40
1
40
1
41
1
10
28.6615164986772
20
-4.69569738769059
30
0
41
1
10
28.6523307831279
20
-4.70741631531041
30
0
41
1
10
28.6433922960663
20
-4.71931143241898
30
0
41
1
10
28.6347011384643
20
-4.73138624048812
30
0
0
SPLINE
5
181
100
AcDbEntity
8
1
62
256
6
ByLayer
370
13
48
1
60
0
100
AcDbSpline
70
4
71
3
72
8
73
4
40
0
40
0
40
0
40
0
40
1
40
1
40
1
40
1
41
1
10
32.9860725592914
20
6.44528121691624
30
0
41
1
10
32.6497671206517
20
6.47540731014422
30
0
41
1
10
32.3134575147466
20
6.50552796594164
30
0
41
1
10
31.9771439758511
20
6.53564348998967
30
0
0
SPLINE
5
182
100
AcDbEntity
8
1
62
256
6
ByLayer
370
13
48
1
60
0
100
AcDbSpline
70
4
71
3
72
20
73
16
40
0
40
0
40
0
40
0
40
0.124999999999999
40
0.124999999999999
40
0.249999999999998
40
0.249999999999998
40
0.374999999999997
40
0.374999999999997
40
0.499999999999996
40
0.499999999999996
40
0.749999999999995
40
0.749999999999995
40
0.874999999999997
40
0.874999999999997
40
1
40
1
40
1
40
1
41
1
10
35.7743853992739
20
-10.0083649155664
30
0
41
1
10
35.7676335871946
20
-9.98116685814881
30
0
41
1
10
35.7613892557134
20
-9.95519596109747
30
0
41
1
10
35.7505086538629
20
-9.90806489220779
30
0
41
1
10
35.7458232690515
20
-9.88672370693249
30
0
41
1
10
35.7379914907445
20
-9.84850274835694
30
0
41
1
10
35.7348685228783
20
-9.83169274713603
30
0
41
1
10
35.7304717115748
20
-9.80403720973939
30
0
41
1
10
35.7291490231555
20
-9.79296410480273
30
0
41
1
10
35.7279287921589
20
-9.76835371073759
30
0
41
1
10
35.7308254989578
20
-9.7641678742786
30
0
41
1
10
35.740628939948
20
-9.77700939726111
30
0
41
1
10
35.7447302105984
20
-9.78437712723797
30
0
41
1
10
35.7545519650398
20
-9.80519980457467
30
0
41
1
10
35.7603543874293
20
-9.81887392340289
30
0
41
1
10
35.76676177509
20
-9.83519263074842
30
0
0
SPLINE
5
183
100
AcDbEntity
8
1
62
256
6
ByLayer
370
13
48
1
60
0
100
AcDbSpline
70
4
71
3
72
8
73
4
40
0
40
0
40
0
40
0
40
1
40
1
40
1
40
1
41
1
10
24.9266598742819
20
-12.8860849138517
30
0
41
1
10
25.6353336022337
20
-13.4199297247187
30
0
41
1
10
26.3869664323639
20
-13.9413998833842
30
0
41
1
10
27.1708861987976
20
-14.4697825716413
30
0
0
SPLINE
5
184
100
AcDbEntity
8
1
62
256
6
ByLayer
370
13
48
1
60
0
100
AcDbSpline
70
4
71
3
72
8
73
4
40
0
40
0
40
0
40
0
40
1
40
1
40
1
40
1
41
1
10
28.2802865912479
20
-6.12829788188324
30
0
41
1
10
28.2383313653557
20
-6.41124782642905
30
0
41
1
10
28.1994392947967
20
-6.69005961901408
30
0
41
1
10
28.162757691947
20
-6.96474109391241
30
0
0
SPLINE
5
185
100
AcDbEntity
8
1
62
256
6
ByLayer
370
13
48
1
60
0
100
AcDbSpline
70
4
71
3
72
8
73
4
40
0
40
0
40
0
40
0
40
1
40
1
40
1
40
1
41
1
10
35.3086999999999
20
-8.35959419059461
30
0
41
1
10
35.3086999999999
20
-8.45222087460999
30
0
41
1
10
35.3212539510938
20
-8.54504049937455
30
0
41
1
10
35.3466560214221
20
-8.63550351632253
30
0
0
SPLINE
5
186
100
AcDbEntity
8
1
62
256
6
ByLayer
370
13
48
1
60
0
100
AcDbSpline
70
4
71
3
72
8
73
4
40
0
40
0
40
0
40
0
40
1
40
1
40
1
40
1
41
1
10
28.2802865912479
20
14.7379450506998
30
0
41
1
10
28.3257640549475
20
14.7053489547271
30
0
41
1
10
28.3744117494035
20
14.661394305414
30
0
41
1
10
28.4293456570379
20
14.6062829040876
30
0
0
SPLINE
5
187
100
AcDbEntity
8
1
62
256
6
ByLayer
370
13
48
1
60
0
100
AcDbSpline
70
4
71
3
72
8
73
4
40
0
40
0
40
0
40
0
40
1
40
1
40
1
40
1
41
1
10
35.7743853992739
20
3.51895189154655
30
0
41
1
10
35.9123383388447
20
4.11162663772021
30
0
41
1
10
36.0579885512143
20
4.70383615955092
30
0
41
1
10
36.2086999999999
20
5.29573977948002
30
0
0
SPLINE
5
188
100
AcDbEntity
8
1
62
256
6
ByLayer
370
13
48
1
60
0
100
AcDbSpline
70
4
71
3
72
24
73
20
40
0
40
0
40
0
40
0
40
0.250000000000001
40
0.250000000000001
40
0.312500000000001
40
0.312500000000001
40
0.375000000000001
40
0.375000000000001
40
0.5
40
0.5
40
0.625
40
0.625
40
0.6875
40
0.6875
40
0.750000000000001
40
0.750000000000001
40
0.875
40
0.875
40
1
40
1
40
1
40
1
41
1
10
18.7184003732488
20
12.6198144737613
30
0
41
1
10
18.8711899027741
20
12.4607434916378
30
0
41
1
10
19.0776786506868
20
12.2066253874237
30
0
41
1
10
19.4428585481345
20
11.7890975028038
30
0
41
1
10
19.5213124299347
20
11.7005728592599
30
0
41
1
10
19.690352890733
20
11.5138944449003
30
0
41
1
10
19.7800895001258
20
11.4166924575812
30
0
41
1
10
20.0650571538908
20
11.1158183919199
30
0
41
1
10
20.2763410773219
20
10.9025548251218
30
0
41
1
10
20.7459969210101
20
10.4583354367141
30
0
41
1
10
21.0043578140431
20
10.2273595485173
30
0
41
1
10
21.4309010147858
20
9.87318573423011
30
0
41
1
10
21.5785642890267
20
9.75471600347461
30
0
41
1
10
21.8829865058926
20
9.51939252717764
30
0
41
1
10
22.0400294359528
20
9.40230097024894
30
0
41
1
10
22.5256015902944
20
9.05402109724426
30
0
41
1
10
22.8685549123755
20
8.82584164352582
30
0
41
1
10
23.5930671746722
20
8.38378230901958
30
0
41
1
10
23.9755670481057
20
8.16953285019224
30
0
41
1
10
24.3719596780563
20
7.96813282027043
30
0
0
SPLINE
5
189
100
AcDbEntity
8
1
62
256
6
ByLayer
370
13
48
1
60
0
100
AcDbSpline
70
4
71
3
72
10
73
6
40
0
40
0
40
0
40
0
40
0.500000000000001
40
0.500000000000001
40
1
40
1
40
1
40
1
41
1
10
24.3719596780563
20
7.96813282027043
30
0
41
1
10
24.4715639723787
20
7.91752565368577
30
0
41
1
10
24.5677715461404
20
7.87513461789032
30
0
41
1
10
24.7536708844418
20
7.80517971643064
30
0
41
1
10
24.8437748535316
20
7.77764590680204
30
0
41
1
10
24.9266598742816
20
7.75893763170436
30
0
0
SPLINE
5
18A
100
AcDbEntity
8
1
62
256
6
ByLayer
370
13
48
1
60
0
100
AcDbSpline
70
4
71
3
72
8
73
4
40
0
40
0
40
0
40
0
40
1
40
1
40
1
40
1
41
1
10
36.2087
20
-10.8889115649634
30
0
41
1
10
36.0535795374447
20
-10.5384413271974
30
0
41
1
10
35.9050229607948
20
-10.1873242554022
30
0
41
1
10
35.76676177509
20
-9.83519263074842
30
0
0
SPLINE
5
18B
100
AcDbEntity
8
1
62
256
6
ByLayer
370
13
48
1
60
0
100
AcDbSpline
70
4
71
3
72
26
73
22
40
0
40
0
40
0
40
0
40
0.0264907211091748
40
0.0264907211091748
40
0.132170241674273
40
0.132170241674273
40
0.237849762239372
40
0.237849762239372
40
0.34352928280447
40
0.34352928280447
40
0.449208803369568
40
0.449208803369568
40
0.554888323934667
40
0.554888323934667
40
0.660567844499765
40
0.660567844499765
40
0.871926885629969
40
0.871926885629969
40
0.977606406195067
40
0.977606406195067
40
1
40
1
40
1
40
1
41
1
10
22.7354147329275
20
-5.97346300820999
30
0
41
1
10
22.7229490429475
20
-5.98500598559997
30
0
41
1
10
22.7103375617909
20
-5.99629011912364
30
0
41
1
10
22.6467122531764
20
-6.05130209866775
30
0
41
1
10
22.5942106239518
20
-6.09052443681688
30
0
41
1
10
22.4876913953507
20
-6.15902452874849
30
0
41
1
10
22.4334516362895
20
-6.18849125989055
30
0
41
1
10
22.3231483069305
20
-6.23795955017664
30
0
41
1
10
22.2672574452458
20
-6.25779353867131
30
0
41
1
10
22.1570144611694
20
-6.28701868323259
30
0
41
1
10
22.1022546657313
20
-6.29660471641751
30
0
41
1
10
21.9934690449796
20
-6.30581292448372
30
0
41
1
10
21.9390715235538
20
-6.3053571206502
30
0
41
1
10
21.8337478674415
20
-6.2943562014753
30
0
41
1
10
21.7826236675763
20
-6.2839021497044
30
0
41
1
10
21.6336505368789
20
-6.23791291063534
30
0
41
1
10
21.5392553592629
20
-6.18678553147151
30
0
41
1
10
21.4137337708257
20
-6.08415341138135
30
0
41
1
10
21.3742664689945
20
-6.04557057408218
30
0
41
1
10
21.3292579198384
20
-5.99337730956077
30
0
41
1
10
21.3214884903844
20
-5.98404042062816
30
0
41
1
10
21.3138264388583
20
-5.97450075462598
30
0
0
SPLINE
5
18C
100
AcDbEntity
8
1
62
256
6
ByLayer
370
18
48
1
60
0
100
AcDbSpline
70
4
71
1
72
4
73
2
40
0
40
0
40
1
40
1
41
1
10
37.3086930045994
20
-6.16886717512401
30
0
41
1
10
36.593835395505
20
-3.09598294771377
30
0
0
SPLINE
5
18D
100
AcDbEntity
8
1
62
256
6
ByLayer
370
18
48
1
60
0
100
AcDbSpline
70
4
71
1
72
4
73
2
40
0
40
0
40
1
40
1
41
1
10
36.586799874613
20
-8.88320869732337
30
0
41
1
10
37.3016638302452
20
-6.22300384902778
30
0
0
LINE
5
81
100
AcDbEntity
8
SK1
62
256
6
ByLayer
370
13
48
1
60
0
100
AcDbLine
10
-57.94
20
-3.596985
30
0
11
-57.94
21
3.596985
31
0
39
0
210
0
220
0
230
1
0
LINE
5
83
100
AcDbEntity
8
SK1
62
256
6
ByLayer
370
13
48
1
60
0
100
AcDbLine
10
-22.415
20
-6.984164
30
0
11
-22.415
21
6.984164
31
0
39
0
210
0
220
0
230
1
0
LINE
5
84
100
AcDbEntity
8
SK1
62
256
6
ByLayer
370
13
48
1
60
0
100
AcDbLine
10
-22.415
20
-6.984164
30
0
11
-35.52
21
-6.984164
31
0
39
0
210
0
220
0
230
1
0
LINE
5
85
100
AcDbEntity
8
SK1
62
256
6
ByLayer
370
13
48
1
60
0
100
AcDbLine
10
-35.52
20
-6.984164
30
0
11
-35.52
21
6.984164
31
0
39
0
210
0
220
0
230
1
0
LINE
5
86
100
AcDbEntity
8
SK1
62
256
6
ByLayer
370
13
48
1
60
0
100
AcDbLine
10
-35.52
20
6.984164
30
0
11
-22.415
21
6.984164
31
0
39
0
210
0
220
0
230
1
0
LINE
5
87
100
AcDbEntity
8
SK1
62
256
6
ByLayer
370
13
48
1
60
0
100
AcDbLine
10
-45.24
20
-6.984164
30
0
11
-45.24
21
6.984164
31
0
39
0
210
0
220
0
230
1
0
LINE
5
88
100
AcDbEntity
8
SK1
62
256
6
ByLayer
370
13
48
1
60
0
100
AcDbLine
10
-45.24
20
-6.984164
30
0
11
-56.44
21
-6.984164
31
0
39
0
210
0
220
0
230
1
0
LINE
5
89
100
AcDbEntity
8
SK1
62
256
6
ByLayer
370
13
48
1
60
0
100
AcDbLine
10
-56.44
20
6.984164
30
0
11
-45.24
21
6.984164
31
0
39
0
210
0
220
0
230
1
0
LINE
5
8A
100
AcDbEntity
8
1
62
256
6
ByLayer
370
13
48
1
60
0
100
AcDbLine
10
28.54719
20
-4.86546
30
0
11
28.54719
21
7.191232
31
0
39
0
210
0
220
0
230
1
0
LINE
5
8B
100
AcDbEntity
8
1
62
256
6
ByLayer
370
13
48
1
60
0
100
AcDbLine
10
36.2087
20
-10.888912
30
0
11
36.2087
21
-11.473854
31
0
39
0
210
0
220
0
230
1
0
LINE
5
8C
100
AcDbEntity
8
1
62
256
6
ByLayer
370
13
48
1
60
0
100
AcDbLine
10
36.2087
20
-8.469917
30
0
11
36.2087
21
-10.888912
31
0
39
0
210
0
220
0
230
1
0
LINE
5
8D
100
AcDbEntity
8
1
62
256
6
ByLayer
370
13
48
1
60
0
100
AcDbLine
10
35.72528
20
-3.408449
30
0
11
35.72528
21
0.968227
31
0
39
0
210
0
220
0
230
1
0
LINE
5
8E
100
AcDbEntity
8
1
62
256
6
ByLayer
370
13
48
1
60
0
100
AcDbLine
10
36.2087
20
5.985822
30
0
11
36.2087
21
5.29574
31
0
39
0
210
0
220
0
230
1
0
LINE
5
8F
100
AcDbEntity
8
1
62
256
6
ByLayer
370
13
48
1
60
0
100
AcDbLine
10
24.92666
20
7.758938
30
0
11
24.92666
21
-6.049849
31
0
39
0
210
0
220
0
230
1
0
LINE
5
90
100
AcDbEntity
8
1
62
256
6
ByLayer
370
13
48
1
60
0
100
AcDbLine
10
28.280287
20
7.250158
30
0
11
28.280287
21
-6.128298
31
0
39
0
210
0
220
0
230
1
0
LINE
5
91
100
AcDbEntity
8
1
62
256
6
ByLayer
370
13
48
1
60
0
100
AcDbLine
10
24.37196
20
-5.96581
30
0
11
24.37196
21
7.968133
31
0
39
0
210
0
220
0
230
1
0
LINE
5
92
100
AcDbEntity
8
1
62
256
6
ByLayer
370
13
48
1
60
0
100
AcDbLine
10
31.41571
20
2.243168
30
0
11
35.766762
21
2.826099
31
0
39
0
210
0
220
0
230
1
0
LINE
5
93
100
AcDbEntity
8
1
62
256
6
ByLayer
370
13
48
1
60
0
100
AcDbLine
10
31.286301
20
6.419094
30
0
11
31.286301
21
2.917663
31
0
39
0
210
0
220
0
230
1
0
LINE
5
94
100
AcDbEntity
8
1
62
256
6
ByLayer
370
13
48
1
60
0
100
AcDbLine
10
36.2087
20
-3.222182
30
0
11
36.2087
21
1.187438
31
0
39
0
210
0
220
0
230
1
0
LINE
5
95
100
AcDbEntity
8
1
62
256
6
ByLayer
370
13
48
1
60
0
100
AcDbLine
10
32.986073
20
-13.68182
30
0
11
36.2087
21
-12.358861
31
0
39
0
210
0
220
0
230
1
0
LINE
5
96
100
AcDbEntity
8
1
62
256
6
ByLayer
370
13
48
1
60
0
100
AcDbLine
10
20.637612
20
12.797646
30
0
11
24.37196
21
12.797646
31
0
39
0
210
0
220
0
230
1
0
LINE
5
97
100
AcDbEntity
8
1
62
256
6
ByLayer
370
13
48
1
60
0
100
AcDbLine
10
27.170886
20
-6.798422
30
0
11
27.170886
21
7.428558
31
0
39
0
210
0
220
0
230
1
0
LINE
5
98
100
AcDbEntity
8
1
62
256
6
ByLayer
370
13
48
1
60
0
100
AcDbLine
10
28.798197
20
7.128928
30
0
11
28.798197
21
-4.397912
31
0
39
0
210
0
220
0
230
1
0
LINE
5
99
100
AcDbEntity
8
1
62
256
6
ByLayer
370
13
48
1
60
0
100
AcDbLine
10
20.637612
20
-5.96581
30
0
11
24.37196
21
-5.96581
31
0
39
0
210
0
220
0
230
1
0
LINE
5
9A
100
AcDbEntity
8
1
62
256
6
ByLayer
370
13
48
1
60
0
100
AcDbLine
10
36.2087
20
1.77238
30
0
11
36.2087
21
1.187438
31
0
39
0
210
0
220
0
230
1
0
LINE
5
9B
100
AcDbEntity
8
1
62
256
6
ByLayer
370
13
48
1
60
0
100
AcDbLine
10
36.2087
20
5.985822
30
0
11
32.986073
21
6.445281
31
0
39
0
210
0
220
0
230
1
0
LINE
5
9C
100
AcDbEntity
8
1
62
256
6
ByLayer
370
13
48
1
60
0
100
AcDbLine
10
35.774385
20
3.518952
30
0
11
31.286301
21
2.917663
31
0
39
0
210
0
220
0
230
1
0
LINE
5
9D
100
AcDbEntity
8
1
62
256
6
ByLayer
370
13
48
1
60
0
100
AcDbLine
10
36.2087
20
-12.358861
30
0
11
36.2087
21
-11.684874
31
0
39
0
210
0
220
0
230
1
0
LINE
5
9E
100
AcDbEntity
8
1
62
256
6
ByLayer
370
13
48
1
60
0
100
AcDbLine
10
36.2087
20
-11.668779
30
0
11
36.2087
21
-11.684874
31
0
39
0
210
0
220
0
230
1
0
LINE
5
9F
100
AcDbEntity
8
1
62
256
6
ByLayer
370
13
48
1
60
0
100
AcDbLine
10
30.940521
20
0.232107
30
0
11
30.35505
21
1.32461
31
0
39
0
210
0
220
0
230
1
0
LINE
5
A0
100
AcDbEntity
8
1
62
256
6
ByLayer
370
13
48
1
60
0
100
AcDbLine
10
0.005
20
-12.69675
30
0
11
0.005
21
12.69675
31
0
39
0
210
0
220
0
230
1
0
LINE
5
A1
100
AcDbEntity
8
SK1
62
256
6
ByLayer
370
13
48
1
60
0
100
AcDbLine
10
0.005
20
-12.69675
30
0
11
0.005
21
12.69675
31
0
39
0
210
0
220
0
230
1
0
LINE
5
A2
100
AcDbEntity
8
1
62
256
6
ByLayer
370
13
48
1
60
0
100
AcDbLine
10
36.2087
20
6.373039
30
0
11
36.2087
21
5.985824
31
0
39
0
210
0
220
0
230
1
0
LINE
5
A3
100
AcDbEntity
8
1
62
256
6
ByLayer
370
13
48
1
60
0
100
AcDbLine
10
35.73678
20
-9.839209
30
0
11
35.766762
21
-9.835193
31
0
39
0
210
0
220
0
230
1
0
LINE
5
A4
100
AcDbEntity
8
1
62
256
6
ByLayer
370
13
48
1
60
0
100
AcDbLine
10
26.561102
20
9.063788
30
0
11
27.247763
21
9.460232
31
0
39
0
210
0
220
0
230
1
0
LINE
5
A5
100
AcDbEntity
8
1
62
256
6
ByLayer
370
13
48
1
60
0
100
AcDbLine
10
35.346656
20
-6.860392
30
0
11
35.346656
21
-8.646351
31
0
39
0
210
0
220
0
230
1
0
LINE
5
A6
100
AcDbEntity
8
1
62
256
6
ByLayer
370
13
48
1
60
0
100
AcDbLine
10
35.3087
20
-6.744896
30
0
11
35.3087
21
-8.359594
31
0
39
0
210
0
220
0
230
1
0
LINE
5
A7
100
AcDbEntity
8
1
62
256
6
ByLayer
370
13
48
1
60
0
100
AcDbLine
10
27.170886
20
-14.471511
30
0
11
27.170886
21
-14.469783
31
0
39
0
210
0
220
0
230
1
0
LINE
5
A8
100
AcDbEntity
8
1
62
256
6
ByLayer
370
13
48
1
60
0
100
AcDbLine
10
24.92666
20
-12.97536
30
0
11
24.92666
21
-12.886085
31
0
39
0
210
0
220
0
230
1
0
LINE
5
A9
100
AcDbEntity
8
1
62
256
6
ByLayer
370
13
48
1
60
0
100
AcDbLine
10
31.977144
20
-13.942008
30
0
11
31.977144
21
-7.191349
31
0
39
0
210
0
220
0
230
1
0
LINE
5
AA
100
AcDbEntity
8
SK1
62
256
6
ByLayer
370
13
48
1
60
0
100
AcDbLine
10
-57.94
20
-3.596985
30
0
11
-57.94
21
-11.19675
31
0
39
0
210
0
220
0
230
1
0
LINE
5
AB
100
AcDbEntity
8
SK1
62
256
6
ByLayer
370
13
48
1
60
0
100
AcDbLine
10
-57.94
20
11.19675
30
0
11
-57.94
21
3.596985
31
0
39
0
210
0
220
0
230
1
0
LINE
5
AC
100
AcDbEntity
8
SK1
62
256
6
ByLayer
370
13
48
1
60
0
100
AcDbLine
10
-56.44
20
-6.984164
30
0
11
-56.44
21
-12.69675
31
0
39
0
210
0
220
0
230
1
0
LINE
5
AD
100
AcDbEntity
8
SK1
62
256
6
ByLayer
370
13
48
1
60
0
100
AcDbLine
10
-56.44
20
12.69675
30
0
11
-56.44
21
6.984164
31
0
39
0
210
0
220
0
230
1
0
LINE
5
AE
100
AcDbEntity
8
1
62
256
6
ByLayer
370
13
48
1
60
0
100
AcDbLine
10
16.19804
20
12.69675
30
0
11
16.19804
21
-12.69675
31
0
39
0
210
0
220
0
230
1
0
LINE
5
AF
100
AcDbEntity
8
1
62
256
6
ByLayer
370
13
48
1
60
0
100
AcDbLine
10
24.37196
20
-12.667612
30
0
11
24.37196
21
-12.80741
31
0
39
0
210
0
220
0
230
1
0
LINE
5
B0
100
AcDbEntity
8
1
62
256
6
ByLayer
370
13
48
1
60
0
100
AcDbLine
10
16.511751
20
-12.80741
30
0
11
16.511751
21
12.80741
31
0
39
0
210
0
220
0
230
1
0
LINE
5
B1
100
AcDbEntity
8
1
62
256
6
ByLayer
370
13
48
1
60
0
100
AcDbLine
10
28.834439
20
-5.155329
30
0
11
28.626942
21
-4.768135
31
0
39
0
210
0
220
0
230
1
0
LINE
5
B2
100
AcDbEntity
8
81
62
256
6
ByLayer
370
18
48
1
60
0
100
AcDbLine
10
37.3087
20
12.954
30
0
11
42.3087
21
12.954
31
0
39
0
210
0
220
0
230
1
0
LINE
5
B3
100
AcDbEntity
8
SK4
62
256
6
ByLayer
370
18
48
0.05
60
0
100
AcDbLine
10
-62.94
20
0
30
0
11
42.3087
21
0
31
0
39
0
210
0
220
0
230
1
0
LINE
5
B5
100
AcDbEntity
8
80
62
256
6
ByLayer
370
18
48
1
60
0
100
AcDbLine
10
0
20
0
30
0
11
-5
21
0
31
0
39
0
210
0
220
0
230
1
0
LINE
5
B6
100
AcDbEntity
8
1
62
256
6
ByLayer
370
13
48
1
60
0
100
AcDbLine
10
0.005
20
-12.69675
30
0
11
16.19804
21
-12.69675
31
0
39
0
210
0
220
0
230
1
0
LINE
5
B7
100
AcDbEntity
8
1
62
256
6
ByLayer
370
13
48
1
60
0
100
AcDbLine
10
16.19804
20
12.69675
30
0
11
0.005
21
12.69675
31
0
39
0
210
0
220
0
230
1
0
LINE
5
B8
100
AcDbEntity
8
1
62
256
6
ByLayer
370
18
48
1
60
0
100
AcDbLine
10
30.997348
20
1.528288
30
0
11
30.752399
21
1.355083
31
0
39
0
210
0
220
0
230
1
0
LINE
5
B9
100
AcDbEntity
8
1
62
256
6
ByLayer
370
13
48
1
60
0
100
AcDbLine
10
24.92666
20
-12.97536
30
0
11
27.170886
21
-14.471511
31
0
39
0
210
0
220
0
230
1
0
LINE
5
BA
100
AcDbEntity
8
SK1
62
256
6
ByLayer
370
13
48
1
60
0
100
AcDbLine
10
-57.94
20
-11.19675
30
0
11
-56.44
21
-12.69675
31
0
39
0
210
0
220
0
230
1
0
LINE
5
BB
100
AcDbEntity
8
SK1
62
256
6
ByLayer
370
13
48
1
60
0
100
AcDbLine
10
-56.44
20
12.69675
30
0
11
-57.94
21
11.19675
31
0
39
0
210
0
220
0
230
1
0
LINE
5
BC
100
AcDbEntity
8
SK1
62
256
6
ByLayer
370
13
48
1
60
0
100
AcDbLine
10
-56.44
20
-12.69675
30
0
11
0.005
21
-12.69675
31
0
39
0
210
0
220
0
230
1
0
LINE
5
BD
100
AcDbEntity
8
SK1
62
256
6
ByLayer
370
13
48
1
60
0
100
AcDbLine
10
0.005
20
12.69675
30
0
11
-56.44
21
12.69675
31
0
39
0
210
0
220
0
230
1
0
LINE
5
BE
100
AcDbEntity
8
1
62
256
6
ByLayer
370
13
48
1
60
0
100
AcDbLine
10
16.511751
20
-12.80741
30
0
11
24.37196
21
-12.80741
31
0
39
0
210
0
220
0
230
1
0
LINE
5
BF
100
AcDbEntity
8
1
62
256
6
ByLayer
370
13
48
1
60
0
100
AcDbLine
10
19.287361
20
12.80741
30
0
11
16.511751
21
12.80741
31
0
39
0
210
0
220
0
230
1
0
LINE
5
C0
100
AcDbEntity
8
4
62
256
6
ByLayer
370
18
48
0.05
60
0
100
AcDbLine
10
0
20
0
30
0
11
42.3087
21
0
31
0
39
0
210
0
220
0
230
1
0
LINE
5
C2
100
AcDbEntity
8
SK2
62
256
6
ByLayer
370
13
48
1
60
0
100
AcDbLine
10
28.627442
20
15.280136
30
0
11
12.679969
21
19.553249
31
0
39
0
210
0
220
0
230
1
0
LINE
5
C4
100
AcDbEntity
8
SK2
62
256
6
ByLayer
370
13
48
1
60
0
100
AcDbLine
10
37.3087
20
14.5415
30
0
11
37.3087
21
38.451539
31
0
39
0
210
0
220
0
230
1
0
LINE
5
C5
100
AcDbEntity
8
1
62
256
6
ByLayer
370
13
48
1
60
0
100
AcDbLine
10
15.746783
20
18.731498
30
0
11
16.2772
21
21.889661
31
0
39
0
210
0
220
0
230
1
0
LINE
5
C6
100
AcDbEntity
8
1
62
256
6
ByLayer
370
13
48
1
60
0
100
AcDbLine
10
15.746783
20
18.731498
30
0
11
17.076521
21
21.64477
31
0
39
0
210
0
220
0
230
1
0
LINE
5
C7
100
AcDbEntity
8
1
62
256
6
ByLayer
370
13
48
1
60
0
100
AcDbLine
10
16.2772
20
21.889661
30
0
11
17.076521
21
21.64477
31
0
39
0
210
0
220
0
230
1
0
LINE
5
C8
100
AcDbEntity
8
1
62
256
6
ByLayer
370
13
48
1
60
0
100
AcDbLine
10
37.3087
20
35.276539
30
0
11
34.150537
21
34.746122
31
0
39
0
210
0
220
0
230
1
0
LINE
5
C9
100
AcDbEntity
8
1
62
256
6
ByLayer
370
13
48
1
60
0
100
AcDbLine
10
37.3087
20
35.276539
30
0
11
34.120864
21
35.581588
31
0
39
0
210
0
220
0
230
1
0
LINE
5
CA
100
AcDbEntity
8
1
62
256
6
ByLayer
370
13
48
1
60
0
100
AcDbLine
10
34.150537
20
34.746122
30
0
11
34.120864
21
35.581588
31
0
39
0
210
0
220
0
230
1
0
MTEXT
5
18E
100
AcDbEntity
8
SK2
62
256
6
ByLayer
370
18
48
1
60
0
100
AcDbMText
10
19.527921
20
28.885014
30
0
210
0
220
0
230
1
1
\W0.9771;75%%d
40
4.5
41
0
44
1.084337
50
37.4999999999999
71
7
72
5
7
iso_b_vert
0
MTEXT
5
191
100
AcDbEntity
8
SK6
62
256
6
ByLayer
370
18
48
1
60
0
100
AcDbMText
10
-109.103803
20
-19.757337
30
0
210
0
220
0
230
1
1
\W0.7784;A495-026M25-7509H
40
4
41
0
44
1.084337
50
89.9999999999998
71
7
72
5
7
iso_b_vert
0
DIMENSION
5
194
100
AcDbEntity
8
2
62
256
6
ByLayer
370
18
48
1
60
0
100
AcDbDimension
2
_U0
10
62.205575
20
12.954
30
0
11
62.205575
21
36.338534
31
0
70
32
71
1
72
1
41
1
210
0
220
0
230
1
3
Standard
100
AcDbAlignedDimension
13
37.3087
23
-12.954
33
0
14
37.3087
24
12.954
34
0
50
90
100
AcDbRotatedDimension
1001
ACAD
1000
DSTYLE
1002
{
1070
   371
1070
    13
1070
   372
1070
    13
1070
   170
1070
     0
1070
   144
1040
1.0
1070
   277
1070
     2
1070
   284
1070
     8
1070
   278
1070
    46
1070
   146
1040
0.777778
1070
   345
1005
16
1070
   347
1005
16
1070
   346
1005
16
1070
   344
1005
195
1070
   343
1005
195
1070
   172
1070
     1
1070
    76
1070
     0
1070
    75
1070
     0
1070
   282
1070
     0
1070
   281
1070
     0
1070
    71
1070
     0
1070
    74
1070
     0
1070
   279
1070
     0
1070
   173
1070
     1
1070
   340
1005
18F
1070
   271
1070
     2
1070
   272
1070
     2
1070
    77
1070
     1
1070
    73
1070
     0
1070
   171
1070
     3
1070
   274
1070
     4
1070
   177
1070
   150
1070
   176
1070
     9
1070
   178
1070
    43
1070
    78
1070
     8
1070
    48
1040
-0.1
1070
    41
1040
3.175
1070
   147
1040
2.25
1070
    42
1040
1.5875
1070
    44
1040
3.175
1070
   140
1040
4.5
1002
}
1001
ACAD_DSTYLE_DIM_LINETYPE
1070
   380
1005
16
1001
ACAD_DSTYLE_DIM_EXT1_LINETYPE
1070
   381
1005
16
1001
ACAD_DSTYLE_DIM_EXT2_LINETYPE
1070
   382
1005
16
0
DIMENSION
5
1BB
100
AcDbEntity
8
SK2
62
256
6
ByLayer
370
18
48
1
60
0
100
AcDbDimension
2
_U1
10
-0.0013
20
-37.454
30
0
11
18.6537
21
-37.454
31
0
70
32
71
1
72
1
41
1
210
0
220
0
230
1
3
Standard
100
AcDbAlignedDimension
13
37.3087
23
-12.954
33
0
14
-0.0013
24
0
34
0
50
0
100
AcDbRotatedDimension
1001
ACAD
1000
DSTYLE
1002
{
1070
   371
1070
    13
1070
   372
1070
    13
1070
   170
1070
     0
1070
   144
1040
1.0
1070
   277
1070
     2
1070
   284
1070
     8
1070
   278
1070
    46
1070
   146
1040
0.777778
1070
   345
1005
16
1070
   347
1005
16
1070
   346
1005
16
1070
   344
1005
195
1070
   343
1005
195
1070
   172
1070
     1
1070
    76
1070
     0
1070
    75
1070
     0
1070
   282
1070
     0
1070
   281
1070
     0
1070
    71
1070
     0
1070
    74
1070
     0
1070
   279
1070
     0
1070
   173
1070
     1
1070
   340
1005
18F
1070
   271
1070
     2
1070
   272
1070
     2
1070
    77
1070
     1
1070
    73
1070
     1
1070
   171
1070
     3
1070
   274
1070
     4
1070
   177
1070
   150
1070
   176
1070
     9
1070
   178
1070
    43
1070
    78
1070
     8
1070
    48
1040
-0.1
1070
    41
1040
3.175
1070
   147
1040
2.25
1070
    42
1040
1.5875
1070
    44
1040
3.175
1070
   140
1040
4.5
1002
}
1001
ACAD_DSTYLE_DIM_LINETYPE
1070
   380
1005
16
1001
ACAD_DSTYLE_DIM_EXT1_LINETYPE
1070
   381
1005
16
1001
ACAD_DSTYLE_DIM_EXT2_LINETYPE
1070
   382
1005
16
0
DIMENSION
5
1D7
100
AcDbEntity
8
2
62
256
6
ByLayer
370
18
48
1
60
0
100
AcDbDimension
2
_U2
10
37.3087
20
33.454
30
0
11
-10.31565
21
33.454
31
0
70
32
71
1
72
1
41
1
210
0
220
0
230
1
3
Standard
100
AcDbAlignedDimension
13
-57.94
23
12.69675
33
0
14
37.3087
24
12.954
34
0
50
0
100
AcDbRotatedDimension
1001
ACAD
1000
DSTYLE
1002
{
1070
   371
1070
    13
1070
   372
1070
    13
1070
   170
1070
     0
1070
   144
1040
1.0
1070
   277
1070
     2
1070
   284
1070
     8
1070
   278
1070
    46
1070
   146
1040
0.777778
1070
   345
1005
16
1070
   347
1005
16
1070
   346
1005
16
1070
   344
1005
195
1070
   343
1005
195
1070
   172
1070
     1
1070
    76
1070
     0
1070
    75
1070
     0
1070
   282
1070
     0
1070
   281
1070
     0
1070
    71
1070
     0
1070
    74
1070
     0
1070
   279
1070
     0
1070
   173
1070
     1
1070
   340
1005
18F
1070
   271
1070
     2
1070
   272
1070
     2
1070
    77
1070
     1
1070
    73
1070
     1
1070
   171
1070
     3
1070
   274
1070
     4
1070
   177
1070
   150
1070
   176
1070
     9
1070
   178
1070
    43
1070
    78
1070
     8
1070
    48
1040
-0.1
1070
    41
1040
3.175
1070
   147
1040
2.25
1070
    42
1040
1.5875
1070
    44
1040
3.175
1070
   140
1040
4.5
1002
}
1001
ACAD_DSTYLE_DIM_LINETYPE
1070
   380
1005
16
1001
ACAD_DSTYLE_DIM_EXT1_LINETYPE
1070
   381
1005
16
1001
ACAD_DSTYLE_DIM_EXT2_LINETYPE
1070
   382
1005
16
0
DIMENSION
5
1F3
100
AcDbEntity
8
SK2
62
256
6
ByLayer
370
18
48
1
60
0
100
AcDbDimension
2
_U3
10
0.0725
20
23.454
30
0
11
-28.93375
21
23.454
31
0
70
32
71
1
72
1
41
1
210
0
220
0
230
1
3
Standard
100
AcDbAlignedDimension
13
-57.94
23
12.69675
33
0
14
0.0725
24
15.025
34
0
50
0
100
AcDbRotatedDimension
1001
ACAD
1000
DSTYLE
1002
{
1070
   371
1070
    13
1070
   372
1070
    13
1070
   170
1070
     0
1070
   144
1040
1.0
1070
   277
1070
     2
1070
   284
1070
     8
1070
   278
1070
    46
1070
   146
1040
0.777778
1070
   345
1005
16
1070
   347
1005
16
1070
   346
1005
16
1070
   344
1005
195
1070
   343
1005
195
1070
   172
1070
     1
1070
    76
1070
     0
1070
    75
1070
     0
1070
   282
1070
     0
1070
   281
1070
     0
1070
    71
1070
     0
1070
    74
1070
     0
1070
   279
1070
     0
1070
   173
1070
     1
1070
   340
1005
18F
1070
   271
1070
     2
1070
   272
1070
     2
1070
    77
1070
     1
1070
    73
1070
     1
1070
   171
1070
     3
1070
   274
1070
     4
1070
   177
1070
   150
1070
   176
1070
     9
1070
   178
1070
    43
1070
    78
1070
     8
1070
    48
1040
-0.1
1070
    41
1040
3.175
1070
   147
1040
2.25
1070
    42
1040
1.5875
1070
    44
1040
3.175
1070
   140
1040
4.5
1002
}
1001
ACAD_DSTYLE_DIM_LINETYPE
1070
   380
1005
16
1001
ACAD_DSTYLE_DIM_EXT1_LINETYPE
1070
   381
1005
16
1001
ACAD_DSTYLE_DIM_EXT2_LINETYPE
1070
   382
1005
16
0
DIMENSION
5
20F
100
AcDbEntity
8
SK2
62
256
6
ByLayer
370
18
48
1
60
0
100
AcDbDimension
2
_U4
10
73.0587
20
15.025
30
0
11
73.0587
21
0
31
0
70
32
71
1
72
1
41
1
210
0
220
0
230
1
3
Standard
100
AcDbAlignedDimension
13
0.0725
23
-15.025
33
0
14
0.0725
24
15.025
34
0
50
90
100
AcDbRotatedDimension
1001
ACAD
1000
DSTYLE
1002
{
1070
   371
1070
    13
1070
   372
1070
    13
1070
   170
1070
     0
1070
   144
1040
1.0
1070
   277
1070
     2
1070
   284
1070
     8
1070
   278
1070
    46
1070
   146
1040
0.777778
1070
   345
1005
16
1070
   347
1005
16
1070
   346
1005
16
1070
   344
1005
195
1070
   343
1005
195
1070
   172
1070
     1
1070
    76
1070
     0
1070
    75
1070
     0
1070
   282
1070
     0
1070
   281
1070
     0
1070
    71
1070
     0
1070
    74
1070
     0
1070
   279
1070
     0
1070
   173
1070
     1
1070
   340
1005
18F
1070
   271
1070
     2
1070
   272
1070
     2
1070
    77
1070
     1
1070
    73
1070
     0
1070
   171
1070
     3
1070
   274
1070
     4
1070
   177
1070
   150
1070
   176
1070
     9
1070
   178
1070
    43
1070
    78
1070
     8
1070
    48
1040
-0.1
1070
    41
1040
3.175
1070
   147
1040
2.25
1070
    42
1040
1.5875
1070
    44
1040
3.175
1070
   140
1040
4.5
1002
}
1001
ACAD_DSTYLE_DIM_LINETYPE
1070
   380
1005
16
1001
ACAD_DSTYLE_DIM_EXT1_LINETYPE
1070
   381
1005
16
1001
ACAD_DSTYLE_DIM_EXT2_LINETYPE
1070
   382
1005
16
0
DIMENSION
5
22C
100
AcDbEntity
8
SK2
62
256
6
ByLayer
370
18
48
1
60
0
100
AcDbDimension
2
_U5
10
-83.043125
20
-12.69675
30
0
11
-83.043125
21
36.812422
31
0
70
32
71
1
72
1
41
1
210
0
220
0
230
1
3
Standard
100
AcDbAlignedDimension
13
-57.94
23
12.69675
33
0
14
-57.94
24
-12.69675
34
0
50
90
100
AcDbRotatedDimension
1001
ACAD
1000
DSTYLE
1002
{
1070
   371
1070
    13
1070
   372
1070
    13
1070
   170
1070
     0
1070
   144
1040
1.0
1070
   277
1070
     2
1070
   284
1070
     8
1070
   278
1070
    46
1070
   146
1040
0.777778
1070
   345
1005
16
1070
   347
1005
16
1070
   346
1005
16
1070
   344
1005
195
1070
   343
1005
195
1070
   172
1070
     1
1070
    76
1070
     0
1070
    75
1070
     0
1070
   282
1070
     0
1070
   281
1070
     0
1070
    71
1070
     0
1070
    74
1070
     0
1070
   279
1070
     0
1070
   173
1070
     1
1070
   340
1005
18F
1070
   271
1070
     2
1070
   272
1070
     2
1070
    77
1070
     1
1070
    73
1070
     0
1070
   171
1070
     3
1070
   274
1070
     4
1070
   177
1070
   150
1070
   176
1070
     9
1070
   178
1070
    43
1070
    78
1070
     8
1070
    48
1040
-0.1
1070
    41
1040
3.175
1070
   147
1040
2.25
1070
    42
1040
1.5875
1070
    44
1040
3.175
1070
   140
1040
4.5
1002
}
1001
ACAD_DSTYLE_DIM_LINETYPE
1070
   380
1005
16
1001
ACAD_DSTYLE_DIM_EXT1_LINETYPE
1070
   381
1005
16
1001
ACAD_DSTYLE_DIM_EXT2_LINETYPE
1070
   382
1005
16
0
ENDSEC
0
SECTION
2
OBJECTS
0
DICTIONARY
5
2ba
330
0
100
AcDbDictionary
280
0
281
1
3
ACAD_GROUP
350
2bb
3
ACAD_MLINESTYLE
350
2bc
0
DICTIONARY
5
2bb
330
0
100
AcDbDictionary
280
0
281
1
0
DICTIONARY
5
2bc
330
0
100
AcDbDictionary
280
0
281
1
3
Standard
350
18
0
MLINESTYLE
5
18
330
2bc
100
AcDbMlineStyle
2
Standard
70
0
3

62
256
51
90
52
90
71
2
49
-0.5
62
256
6
ByLayer
49
0.5
62
256
6
ByLayer
0
RASTERVARIABLES
5
2a8
330

100
AcDbRasterVariables
90
0
70
1
71
1
72
1
0
ENDSEC
0
EOF
