0
SECTION
2
HEADER
9
$ACADVER
1
AC1015
9
$DWGCODEPAGE
3
ANSI_1252
9
$HANDSEED
5
31b
9
$ANGBASE
50
0
9
$ANGDIR
70
0
9
$ATTMODE
70
1
9
$AUNITS
70
0
9
$AUPREC
70
0
9
$CECOLOR
62
256
9
$CELTSCALE
40
1
9
$CELTYPE
6
ByLayer
9
$CELWEIGHT
370
18
9
$CLAYER
8
0
9
$CMLJUST
70
0
9
$CMLSCALE
40
1
9
$CMLSTYLE
2
Standard
9
$DIMSTYLE
2
Standard
9
$TEXTSIZE
40
0.2
9
$TEXTSTYLE
7
Standard
9
$LUNITS
70
2
9
$LUPREC
70
4
9
$EXTNAMES
290
1
9
$INSUNITS
70
4
9
$LTSCALE
40
1
9
$LWDISPLAY
290
1
9
$PDMODE
70
0
9
$PDSIZE
40
0
9
$PLINEGEN
70
0
0
ENDSEC
0
SECTION
2
CLASSES
0
CLASS
1
RASTERVARIABLES
2
AcDbRasterVariables
3
ISM
90
0
280
0
281
0
0
ENDSEC
0
SECTION
2
TABLES
0
TABLE
2
VPORT
5
311
100
AcDbSymbolTable
0
VPORT
5
1
100
AcDbSymbolTableRecord
100
AcDbViewportTableRecord
2
*Active
70
0
10
0
20
0
11
1
21
1
12
-1
22
1
13
0
23
0
14
0.5
24
0.5
15
10
25
10
16
0
26
0
36
1
17
0
27
0
37
0
0
ENDTAB
0
TABLE
2
LTYPE
5
312
100
AcDbSymbolTable
0
LTYPE
5
14
100
AcDbSymbolTableRecord
100
AcDbLinetypeTableRecord
70
0
2
ByBlock
3

72
65
73
0
40
0
0
LTYPE
5
15
100
AcDbSymbolTableRecord
100
AcDbLinetypeTableRecord
70
0
2
ByLayer
3

72
65
73
0
40
0
0
LTYPE
5
16
100
AcDbSymbolTableRecord
100
AcDbLinetypeTableRecord
70
0
2
Continuous
3
Solid line
72
65
73
0
40
0
0
LTYPE
5
6E
100
AcDbSymbolTableRecord
100
AcDbLinetypeTableRecord
70
0
2
CENTER
3
____ _ ____ _ ____ _ ____
72
65
73
4
40
47.5
49
22
74
0
49
-8.5
74
0
49
8.5
74
0
49
-8.5
74
0
0
LTYPE
5
6F
100
AcDbSymbolTableRecord
100
AcDbLinetypeTableRecord
70
0
2
DASHED
3
__ __ __ __ __ __ __ __ __
72
65
73
2
40
25.72
49
12.86
74
0
49
-12.86
74
0
0
ENDTAB
0
TABLE
2
LAYER
5
313
100
AcDbSymbolTable
0
LAYER
5
10
100
AcDbSymbolTableRecord
100
AcDbLayerTableRecord
2
0
70
0
62
7
6
Continuous
290
1
370
-3
390
0
0
LAYER
5
71
100
AcDbSymbolTableRecord
100
AcDbLayerTableRecord
2
81
70
0
62
-3
6
Continuous
290
1
370
-3
390
0
0
LAYER
5
73
100
AcDbSymbolTableRecord
100
AcDbLayerTableRecord
2
80
70
0
62
-6
6
Continuous
290
1
370
-3
390
0
0
LAYER
5
75
100
AcDbSymbolTableRecord
100
AcDbLayerTableRecord
2
1
70
0
62
4
6
Continuous
290
1
370
-3
390
0
0
LAYER
5
D5
100
AcDbSymbolTableRecord
100
AcDbLayerTableRecord
2
4
70
0
62
-2
6
CENTER
290
1
370
-3
390
0
0
LAYER
5
1F2
100
AcDbSymbolTableRecord
100
AcDbLayerTableRecord
2
Defpoints
70
0
62
7
6
Continuous
290
0
370
-3
390
0
0
LAYER
5
200
100
AcDbSymbolTableRecord
100
AcDbLayerTableRecord
2
2
70
0
62
7
6
Continuous
290
1
370
-3
390
0
0
LAYER
5
2fd
100
AcDbSymbolTableRecord
100
AcDbLayerTableRecord
2
SK1
70
0
62
4
6
Continuous
290
1
370
-3
390
0
0
LAYER
5
2fe
100
AcDbSymbolTableRecord
100
AcDbLayerTableRecord
2
SK4
70
0
62
2
6
CENTER
290
1
370
-3
390
0
0
LAYER
5
2ff
100
AcDbSymbolTableRecord
100
AcDbLayerTableRecord
2
SK2
70
0
62
7
6
Continuous
290
1
370
-3
390
0
0
LAYER
5
300
100
AcDbSymbolTableRecord
100
AcDbLayerTableRecord
2
SK6
70
0
62
5
6
Continuous
290
1
370
-3
390
0
0
ENDTAB
0
TABLE
2
STYLE
5
314
100
AcDbSymbolTable
0
STYLE
5
11
100
AcDbSymbolTableRecord
100
AcDbTextStyleTableRecord
2
Standard
3
txt
70
0
71
0
40
0
41
1
42
0
50
0
0
STYLE
5
1E3
100
AcDbSymbolTableRecord
100
AcDbTextStyleTableRecord
2
iso_b_vert
3
simplex.shx
70
0
71
0
40
0
41
1
42
0
50
0
0
STYLE
5
1E4
100
AcDbSymbolTableRecord
100
AcDbTextStyleTableRecord
2
DWGDirectTextStyle
3
simplex
70
0
71
0
40
0
41
1
42
0
50
0
0
ENDTAB
0
TABLE
2
DIMSTYLE
5
315
100
AcDbSymbolTable
100
AcDbDimStyleTable
0
DIMSTYLE
105
27
100
AcDbSymbolTableRecord
100
AcDbDimStyleTableRecord
2
Standard
70
0
3
<>
41
0.18
42
0.0625
44
0.18
140
0.18
147
0.09
73
0
74
0
77
1
271
2
275
0
278
52
280
0
340
11
0
ENDTAB
0
TABLE
2
VIEW
5
316
100
AcDbSymbolTable
0
ENDTAB
0
TABLE
2
UCS
5
317
100
AcDbSymbolTable
0
ENDTAB
0
TABLE
2
APPID
5
318
100
AcDbSymbolTable
0
APPID
5
12
100
AcDbSymbolTableRecord
100
AcDbRegAppTableRecord
2
ACAD
70
0
0
APPID
5
1E7
100
AcDbSymbolTableRecord
100
AcDbRegAppTableRecord
2
ACAD_DSTYLE_DIMBREAK
70
0
0
APPID
5
2BC
100
AcDbSymbolTableRecord
100
AcDbRegAppTableRecord
2
ACAD_DSTYLE_DIM_LINETYPE
70
0
0
APPID
5
2BD
100
AcDbSymbolTableRecord
100
AcDbRegAppTableRecord
2
ACAD_DSTYLE_DIM_EXT1_LINETYPE
70
0
0
APPID
5
2BE
100
AcDbSymbolTableRecord
100
AcDbRegAppTableRecord
2
ACAD_DSTYLE_DIM_EXT2_LINETYPE
70
0
0
APPID
5
2F9
100
AcDbSymbolTableRecord
100
AcDbRegAppTableRecord
2
ACAD_MLEADERVER
70
0
0
ENDTAB
0
TABLE
2
BLOCK_RECORD
5
319
100
AcDbSymbolTable
0
BLOCK_RECORD
5
1F
100
AcDbSymbolTableRecord
100
AcDbBlockTableRecord
2
*Model_Space
340
0
70
0
0
BLOCK_RECORD
5
1B
100
AcDbSymbolTableRecord
100
AcDbBlockTableRecord
2
*Paper_Space
340
0
70
0
0
BLOCK_RECORD
5
23
100
AcDbSymbolTableRecord
100
AcDbBlockTableRecord
2
*Paper_Space0
340
0
70
0
0
BLOCK_RECORD
5
1E9
100
AcDbSymbolTableRecord
100
AcDbBlockTableRecord
2
_Closed
340
0
70
0
0
BLOCK_RECORD
5
1F3
100
AcDbSymbolTableRecord
100
AcDbBlockTableRecord
2
*D2
340
0
70
0
0
BLOCK_RECORD
5
201
100
AcDbSymbolTableRecord
100
AcDbBlockTableRecord
2
_U0
340
0
70
0
0
BLOCK_RECORD
5
212
100
AcDbSymbolTableRecord
100
AcDbBlockTableRecord
2
*D4
340
0
70
0
0
BLOCK_RECORD
5
21E
100
AcDbSymbolTableRecord
100
AcDbBlockTableRecord
2
_U1
340
0
70
0
0
BLOCK_RECORD
5
22E
100
AcDbSymbolTableRecord
100
AcDbBlockTableRecord
2
*D6
340
0
70
0
0
BLOCK_RECORD
5
23A
100
AcDbSymbolTableRecord
100
AcDbBlockTableRecord
2
_U2
340
0
70
0
0
BLOCK_RECORD
5
24A
100
AcDbSymbolTableRecord
100
AcDbBlockTableRecord
2
*D8
340
0
70
0
0
BLOCK_RECORD
5
256
100
AcDbSymbolTableRecord
100
AcDbBlockTableRecord
2
_U3
340
0
70
0
0
BLOCK_RECORD
5
266
100
AcDbSymbolTableRecord
100
AcDbBlockTableRecord
2
*D10
340
0
70
0
0
BLOCK_RECORD
5
272
100
AcDbSymbolTableRecord
100
AcDbBlockTableRecord
2
_U4
340
0
70
0
0
BLOCK_RECORD
5
283
100
AcDbSymbolTableRecord
100
AcDbBlockTableRecord
2
*D12
340
0
70
0
0
BLOCK_RECORD
5
290
100
AcDbSymbolTableRecord
100
AcDbBlockTableRecord
2
_U5
340
0
70
0
0
ENDTAB
0
ENDSEC
0
SECTION
2
BLOCKS
0
BLOCK
5
20
100
AcDbEntity
8
0
100
AcDbBlockBegin
2
*Model_Space
70
0
10
0
20
0
30
0
3
*Model_Space
0
ENDBLK
5
21
100
AcDbEntity
8
0
100
AcDbBlockEnd
0
BLOCK
5
1C
100
AcDbEntity
8
0
100
AcDbBlockBegin
2
*Paper_Space
70
0
10
0
20
0
30
0
3
*Paper_Space
0
ENDBLK
5
1D
100
AcDbEntity
8
0
100
AcDbBlockEnd
0
BLOCK
5
24
100
AcDbEntity
8
0
100
AcDbBlockBegin
2
*Paper_Space0
70
0
10
0
20
0
30
0
3
*Paper_Space0
0
ENDBLK
5
25
100
AcDbEntity
8
0
100
AcDbBlockEnd
0
BLOCK
5
1EA
100
AcDbEntity
8
0
100
AcDbBlockBegin
2
_Closed
70
0
10
0
20
0
30
0
3
_Closed
0
LINE
5
1EC
100
AcDbEntity
8
0
62
256
6
ByLayer
370
-2
48
1
60
0
100
AcDbLine
10
-1
20
0.166667
30
0
11
0
21
0
31
0
39
0
210
0
220
0
230
1
0
LINE
5
1ED
100
AcDbEntity
8
0
62
256
6
ByLayer
370
-2
48
1
60
0
100
AcDbLine
10
0
20
0
30
0
11
-1
21
-0.166667
31
0
39
0
210
0
220
0
230
1
0
LINE
5
1EE
100
AcDbEntity
8
0
62
256
6
ByLayer
370
-2
48
1
60
0
100
AcDbLine
10
-1
20
0.166667
30
0
11
-1
21
-0.166667
31
0
39
0
210
0
220
0
230
1
0
LINE
5
1EF
100
AcDbEntity
8
0
62
256
6
ByLayer
370
-2
48
1
60
0
100
AcDbLine
10
0
20
0
30
0
11
-1
21
0
31
0
39
0
210
0
220
0
230
1
0
ENDBLK
5
1EB
100
AcDbEntity
8
0
100
AcDbBlockEnd
0
BLOCK
5
1F4
100
AcDbEntity
8
0
100
AcDbBlockBegin
2
*D2
70
1
10
0
20
0
30
0
3
*D2
0
LINE
5
1F6
100
AcDbEntity
8
0
62
256
6
ByLayer
370
-2
48
1
60
0
100
AcDbLine
10
38.8962
20
-12.954
30
0
11
65.380575
21
-12.954
31
0
39
0
210
0
220
0
230
1
0
LINE
5
1F7
100
AcDbEntity
8
0
62
256
6
ByLayer
370
-2
48
1
60
0
100
AcDbLine
10
38.8962
20
12.954
30
0
11
65.380575
21
12.954
31
0
39
0
210
0
220
0
230
1
0
LINE
5
1F8
100
AcDbEntity
8
0
62
256
6
ByLayer
370
-2
48
1
60
0
100
AcDbLine
10
62.205575
20
12.954
30
0
11
62.205575
21
51.839427
31
0
39
0
210
0
220
0
230
1
0
LINE
5
1F9
100
AcDbEntity
8
0
62
256
6
ByLayer
370
-2
48
1
60
0
100
AcDbLine
10
62.205575
20
-9.779
30
0
11
62.205575
21
9.779
31
0
39
0
210
0
220
0
230
1
0
SOLID
5
1FA
100
AcDbEntity
8
0
62
256
6
ByLayer
370
-1
48
1
60
0
100
AcDbTrace
10
61.676408
20
-9.779
30
0
11
62.734742
21
-9.779
31
0
12
62.205575
22
-12.954
32
0
13
62.205575
23
-12.954
33
0
39
0
210
0
220
0
230
1
0
SOLID
5
1FB
100
AcDbEntity
8
0
62
256
6
ByLayer
370
-1
48
1
60
0
100
AcDbTrace
10
62.734742
20
9.779
30
0
11
61.676408
21
9.779
31
0
12
62.205575
22
12.954
32
0
13
62.205575
23
12.954
33
0
39
0
210
0
220
0
230
1
0
MTEXT
5
1FC
100
AcDbEntity
8
0
62
256
6
ByLayer
370
18
48
1
60
0
100
AcDbMText
10
52.811825
20
36.338534
30
0
210
0
220
0
230
1
1
\A1;25.91
40
4.5
41
0
44
1
50
90
71
5
72
5
7
iso_b_vert
0
POINT
5
1FD
100
AcDbEntity
8
Defpoints
62
0
6
ByLayer
370
-1
48
1
60
0
100
AcDbPoint
10
37.3087
20
-12.954
30
0
39
0
210
0
220
0
230
1
50
360
0
POINT
5
1FE
100
AcDbEntity
8
Defpoints
62
0
6
ByLayer
370
-1
48
1
60
0
100
AcDbPoint
10
37.3087
20
12.954
30
0
39
0
210
0
220
0
230
1
50
360
0
POINT
5
1FF
100
AcDbEntity
8
Defpoints
62
0
6
ByLayer
370
-1
48
1
60
0
100
AcDbPoint
10
62.205575
20
12.954
30
0
39
0
210
0
220
0
230
1
50
360
0
ENDBLK
5
1F5
100
AcDbEntity
8
0
100
AcDbBlockEnd
0
BLOCK
5
20D
100
AcDbEntity
8
0
100
AcDbBlockBegin
2
_U0
70
0
10
0
20
0
30
0
3
_U0
0
MTEXT
5
202
100
AcDbEntity
8
2
62
256
6
ByLayer
370
18
48
1
60
0
100
AcDbMText
10
60.123729
20
24.209375
30
0
210
0
220
0
230
1
1
%%c
40
3.175
41
0
44
1.084337
50
90
71
7
72
5
7
iso_b_vert
0
MTEXT
5
203
100
AcDbEntity
8
2
62
256
6
ByLayer
370
18
48
1
60
0
100
AcDbMText
10
60.525153
20
33.794
30
0
210
0
220
0
230
1
1
\W0.8628;25.91
40
4.5
41
0
44
1.084337
50
90
71
7
72
5
7
iso_b_vert
0
LINE
5
204
100
AcDbEntity
8
2
62
256
6
ByLayer
370
13
48
1
60
0
100
AcDbLine
10
38.8962
20
-12.954
30
0
11
65.380575
21
-12.954
31
0
39
0
210
0
220
0
230
1
0
LINE
5
205
100
AcDbEntity
8
2
62
256
6
ByLayer
370
13
48
1
60
0
100
AcDbLine
10
38.8962
20
12.954
30
0
11
65.380575
21
12.954
31
0
39
0
210
0
220
0
230
1
0
LINE
5
206
100
AcDbEntity
8
2
62
256
6
ByLayer
370
13
48
1
60
0
100
AcDbLine
10
62.205575
20
-12.954
30
0
11
62.205575
21
48.610568
31
0
39
0
210
0
220
0
230
1
0
LINE
5
207
100
AcDbEntity
8
2
62
256
6
ByLayer
370
13
48
1
60
0
100
AcDbLine
10
62.205575
20
-12.954
30
0
11
61.787578
21
-9.779002
31
0
39
0
210
0
220
0
230
1
0
LINE
5
208
100
AcDbEntity
8
2
62
256
6
ByLayer
370
13
48
1
60
0
100
AcDbLine
10
62.205575
20
-12.954
30
0
11
62.623572
21
-9.778998
31
0
39
0
210
0
220
0
230
1
0
LINE
5
209
100
AcDbEntity
8
2
62
256
6
ByLayer
370
13
48
1
60
0
100
AcDbLine
10
61.787578
20
-9.779002
30
0
11
62.623572
21
-9.778998
31
0
39
0
210
0
220
0
230
1
0
LINE
5
20A
100
AcDbEntity
8
2
62
256
6
ByLayer
370
13
48
1
60
0
100
AcDbLine
10
62.205575
20
12.954
30
0
11
62.623572
21
9.779002
31
0
39
0
210
0
220
0
230
1
0
LINE
5
20B
100
AcDbEntity
8
2
62
256
6
ByLayer
370
13
48
1
60
0
100
AcDbLine
10
62.205575
20
12.954
30
0
11
61.787578
21
9.778998
31
0
39
0
210
0
220
0
230
1
0
LINE
5
20C
100
AcDbEntity
8
2
62
256
6
ByLayer
370
13
48
1
60
0
100
AcDbLine
10
62.623572
20
9.779002
30
0
11
61.787578
21
9.778998
31
0
39
0
210
0
220
0
230
1
0
ENDBLK
5
20E
100
AcDbEntity
8
0
100
AcDbBlockEnd
0
BLOCK
5
213
100
AcDbEntity
8
0
100
AcDbBlockBegin
2
*D4
70
1
10
0
20
0
30
0
3
*D4
0
LINE
5
215
100
AcDbEntity
8
0
62
256
6
ByLayer
370
-2
48
1
60
0
100
AcDbLine
10
37.3087
20
-14.5415
30
0
11
37.3087
21
-40.629
31
0
39
0
210
0
220
0
230
1
0
LINE
5
216
100
AcDbEntity
8
0
62
256
6
ByLayer
370
-2
48
1
60
0
100
AcDbLine
10
-0.0013
20
-1.5875
30
0
11
-0.0013
21
-40.629
31
0
39
0
210
0
220
0
230
1
0
LINE
5
217
100
AcDbEntity
8
0
62
256
6
ByLayer
370
-2
48
1
60
0
100
AcDbLine
10
34.1337
20
-37.454
30
0
11
3.1737
21
-37.454
31
0
39
0
210
0
220
0
230
1
0
SOLID
5
218
100
AcDbEntity
8
0
62
256
6
ByLayer
370
-1
48
1
60
0
100
AcDbTrace
10
34.1337
20
-37.983167
30
0
11
34.1337
21
-36.924833
31
0
12
37.3087
22
-37.454
32
0
13
37.3087
23
-37.454
33
0
39
0
210
0
220
0
230
1
0
SOLID
5
219
100
AcDbEntity
8
0
62
256
6
ByLayer
370
-1
48
1
60
0
100
AcDbTrace
10
3.1737
20
-36.924833
30
0
11
3.1737
21
-37.983167
31
0
12
-0.0013
22
-37.454
32
0
13
-0.0013
23
-37.454
33
0
39
0
210
0
220
0
230
1
0
MTEXT
5
21A
100
AcDbEntity
8
0
62
256
6
ByLayer
370
18
48
1
60
0
100
AcDbMText
10
18.6537
20
-28.06025
30
0
210
0
220
0
230
1
1
\A1;37.31
40
4.5
41
0
44
1
50
0
71
5
72
5
7
iso_b_vert
0
POINT
5
21B
100
AcDbEntity
8
Defpoints
62
0
6
ByLayer
370
-1
48
1
60
0
100
AcDbPoint
10
37.3087
20
-12.954
30
0
39
0
210
0
220
0
230
1
50
360
0
POINT
5
21C
100
AcDbEntity
8
Defpoints
62
0
6
ByLayer
370
-1
48
1
60
0
100
AcDbPoint
10
-0.0013
20
0
30
0
39
0
210
0
220
0
230
1
50
360
0
POINT
5
21D
100
AcDbEntity
8
Defpoints
62
0
6
ByLayer
370
-1
48
1
60
0
100
AcDbPoint
10
-0.0013
20
-37.454
30
0
39
0
210
0
220
0
230
1
50
360
0
ENDBLK
5
214
100
AcDbEntity
8
0
100
AcDbBlockEnd
0
BLOCK
5
229
100
AcDbEntity
8
0
100
AcDbBlockBegin
2
_U1
70
0
10
0
20
0
30
0
3
_U1
0
MTEXT
5
21F
100
AcDbEntity
8
SK2
62
256
6
ByLayer
370
18
48
1
60
0
100
AcDbMText
10
11.382666
20
-36.126328
30
0
210
0
220
0
230
1
1
\W0.8628;37.31
40
4.5
41
0
44
1.084337
50
0
71
7
72
5
7
iso_b_vert
0
LINE
5
220
100
AcDbEntity
8
SK2
62
256
6
ByLayer
370
13
48
1
60
0
100
AcDbLine
10
37.3087
20
-14.5415
30
0
11
37.3087
21
-40.629
31
0
39
0
210
0
220
0
230
1
0
LINE
5
221
100
AcDbEntity
8
SK2
62
256
6
ByLayer
370
13
48
1
60
0
100
AcDbLine
10
-0.0013
20
-1.5875
30
0
11
-0.0013
21
-40.629
31
0
39
0
210
0
220
0
230
1
0
LINE
5
222
100
AcDbEntity
8
SK2
62
256
6
ByLayer
370
13
48
1
60
0
100
AcDbLine
10
37.3087
20
-37.454
30
0
11
-0.0013
21
-37.454
31
0
39
0
210
0
220
0
230
1
0
LINE
5
223
100
AcDbEntity
8
SK2
62
256
6
ByLayer
370
13
48
1
60
0
100
AcDbLine
10
37.3087
20
-37.454
30
0
11
34.133702
21
-37.871997
31
0
39
0
210
0
220
0
230
1
0
LINE
5
224
100
AcDbEntity
8
SK2
62
256
6
ByLayer
370
13
48
1
60
0
100
AcDbLine
10
37.3087
20
-37.454
30
0
11
34.133698
21
-37.036003
31
0
39
0
210
0
220
0
230
1
0
LINE
5
225
100
AcDbEntity
8
SK2
62
256
6
ByLayer
370
13
48
1
60
0
100
AcDbLine
10
34.133702
20
-37.871997
30
0
11
34.133698
21
-37.036003
31
0
39
0
210
0
220
0
230
1
0
LINE
5
226
100
AcDbEntity
8
SK2
62
256
6
ByLayer
370
13
48
1
60
0
100
AcDbLine
10
-0.0013
20
-37.454
30
0
11
3.173698
21
-37.036003
31
0
39
0
210
0
220
0
230
1
0
LINE
5
227
100
AcDbEntity
8
SK2
62
256
6
ByLayer
370
13
48
1
60
0
100
AcDbLine
10
-0.0013
20
-37.454
30
0
11
3.173702
21
-37.871997
31
0
39
0
210
0
220
0
230
1
0
LINE
5
228
100
AcDbEntity
8
SK2
62
256
6
ByLayer
370
13
48
1
60
0
100
AcDbLine
10
3.173698
20
-37.036003
30
0
11
3.173702
21
-37.871997
31
0
39
0
210
0
220
0
230
1
0
ENDBLK
5
22A
100
AcDbEntity
8
0
100
AcDbBlockEnd
0
BLOCK
5
22F
100
AcDbEntity
8
0
100
AcDbBlockBegin
2
*D6
70
1
10
0
20
0
30
0
3
*D6
0
LINE
5
231
100
AcDbEntity
8
0
62
256
6
ByLayer
370
-2
48
1
60
0
100
AcDbLine
10
-57.94
20
14.28425
30
0
11
-57.94
21
36.629
31
0
39
0
210
0
220
0
230
1
0
LINE
5
232
100
AcDbEntity
8
0
62
256
6
ByLayer
370
-2
48
1
60
0
100
AcDbLine
10
37.3087
20
14.5415
30
0
11
37.3087
21
36.629
31
0
39
0
210
0
220
0
230
1
0
LINE
5
233
100
AcDbEntity
8
0
62
256
6
ByLayer
370
-2
48
1
60
0
100
AcDbLine
10
-54.765
20
33.454
30
0
11
34.1337
21
33.454
31
0
39
0
210
0
220
0
230
1
0
SOLID
5
234
100
AcDbEntity
8
0
62
256
6
ByLayer
370
-1
48
1
60
0
100
AcDbTrace
10
-54.765
20
33.983167
30
0
11
-54.765
21
32.924833
31
0
12
-57.94
22
33.454
32
0
13
-57.94
23
33.454
33
0
39
0
210
0
220
0
230
1
0
SOLID
5
235
100
AcDbEntity
8
0
62
256
6
ByLayer
370
-1
48
1
60
0
100
AcDbTrace
10
34.1337
20
32.924833
30
0
11
34.1337
21
33.983167
31
0
12
37.3087
22
33.454
32
0
13
37.3087
23
33.454
33
0
39
0
210
0
220
0
230
1
0
MTEXT
5
236
100
AcDbEntity
8
0
62
256
6
ByLayer
370
18
48
1
60
0
100
AcDbMText
10
-10.31565
20
42.84775
30
0
210
0
220
0
230
1
1
\A1;95.25
40
4.5
41
0
44
1
50
0
71
5
72
5
7
iso_b_vert
0
POINT
5
237
100
AcDbEntity
8
Defpoints
62
0
6
ByLayer
370
-1
48
1
60
0
100
AcDbPoint
10
-57.94
20
12.69675
30
0
39
0
210
0
220
0
230
1
50
360
0
POINT
5
238
100
AcDbEntity
8
Defpoints
62
0
6
ByLayer
370
-1
48
1
60
0
100
AcDbPoint
10
37.3087
20
12.954
30
0
39
0
210
0
220
0
230
1
50
360
0
POINT
5
239
100
AcDbEntity
8
Defpoints
62
0
6
ByLayer
370
-1
48
1
60
0
100
AcDbPoint
10
37.3087
20
33.454
30
0
39
0
210
0
220
0
230
1
50
360
0
ENDBLK
5
230
100
AcDbEntity
8
0
100
AcDbBlockEnd
0
BLOCK
5
245
100
AcDbEntity
8
0
100
AcDbBlockBegin
2
_U2
70
0
10
0
20
0
30
0
3
_U2
0
MTEXT
5
23B
100
AcDbEntity
8
2
62
256
6
ByLayer
370
18
48
1
60
0
100
AcDbMText
10
-18.317822
20
34.781672
30
0
210
0
220
0
230
1
1
\W0.8825;95.25
40
4.5
41
0
44
1.084337
50
0
71
7
72
5
7
iso_b_vert
0
LINE
5
23C
100
AcDbEntity
8
2
62
256
6
ByLayer
370
13
48
1
60
0
100
AcDbLine
10
-57.94
20
14.28425
30
0
11
-57.94
21
36.629
31
0
39
0
210
0
220
0
230
1
0
LINE
5
23D
100
AcDbEntity
8
2
62
256
6
ByLayer
370
13
48
1
60
0
100
AcDbLine
10
37.3087
20
14.5415
30
0
11
37.3087
21
36.629
31
0
39
0
210
0
220
0
230
1
0
LINE
5
23E
100
AcDbEntity
8
2
62
256
6
ByLayer
370
13
48
1
60
0
100
AcDbLine
10
-57.94
20
33.454
30
0
11
37.3087
21
33.454
31
0
39
0
210
0
220
0
230
1
0
LINE
5
23F
100
AcDbEntity
8
2
62
256
6
ByLayer
370
13
48
1
60
0
100
AcDbLine
10
-57.94
20
33.454
30
0
11
-54.765002
21
33.871997
31
0
39
0
210
0
220
0
230
1
0
LINE
5
240
100
AcDbEntity
8
2
62
256
6
ByLayer
370
13
48
1
60
0
100
AcDbLine
10
-57.94
20
33.454
30
0
11
-54.764998
21
33.036003
31
0
39
0
210
0
220
0
230
1
0
LINE
5
241
100
AcDbEntity
8
2
62
256
6
ByLayer
370
13
48
1
60
0
100
AcDbLine
10
-54.765002
20
33.871997
30
0
11
-54.764998
21
33.036003
31
0
39
0
210
0
220
0
230
1
0
LINE
5
242
100
AcDbEntity
8
2
62
256
6
ByLayer
370
13
48
1
60
0
100
AcDbLine
10
37.3087
20
33.454
30
0
11
34.133702
21
33.036003
31
0
39
0
210
0
220
0
230
1
0
LINE
5
243
100
AcDbEntity
8
2
62
256
6
ByLayer
370
13
48
1
60
0
100
AcDbLine
10
37.3087
20
33.454
30
0
11
34.133698
21
33.871997
31
0
39
0
210
0
220
0
230
1
0
LINE
5
244
100
AcDbEntity
8
2
62
256
6
ByLayer
370
13
48
1
60
0
100
AcDbLine
10
34.133702
20
33.036003
30
0
11
34.133698
21
33.871997
31
0
39
0
210
0
220
0
230
1
0
ENDBLK
5
246
100
AcDbEntity
8
0
100
AcDbBlockEnd
0
BLOCK
5
24B
100
AcDbEntity
8
0
100
AcDbBlockBegin
2
*D8
70
1
10
0
20
0
30
0
3
*D8
0
LINE
5
24D
100
AcDbEntity
8
0
62
256
6
ByLayer
370
-2
48
1
60
0
100
AcDbLine
10
-57.94
20
14.28425
30
0
11
-57.94
21
26.629
31
0
39
0
210
0
220
0
230
1
0
LINE
5
24E
100
AcDbEntity
8
0
62
256
6
ByLayer
370
-2
48
1
60
0
100
AcDbLine
10
30.0925
20
18.5775
30
0
11
30.0925
21
26.629
31
0
39
0
210
0
220
0
230
1
0
LINE
5
24F
100
AcDbEntity
8
0
62
256
6
ByLayer
370
-2
48
1
60
0
100
AcDbLine
10
-54.765
20
23.454
30
0
11
26.9175
21
23.454
31
0
39
0
210
0
220
0
230
1
0
SOLID
5
250
100
AcDbEntity
8
0
62
256
6
ByLayer
370
-1
48
1
60
0
100
AcDbTrace
10
-54.765
20
23.983167
30
0
11
-54.765
21
22.924833
31
0
12
-57.94
22
23.454
32
0
13
-57.94
23
23.454
33
0
39
0
210
0
220
0
230
1
0
SOLID
5
251
100
AcDbEntity
8
0
62
256
6
ByLayer
370
-1
48
1
60
0
100
AcDbTrace
10
26.9175
20
22.924833
30
0
11
26.9175
21
23.983167
31
0
12
30.0925
22
23.454
32
0
13
30.0925
23
23.454
33
0
39
0
210
0
220
0
230
1
0
MTEXT
5
252
100
AcDbEntity
8
0
62
256
6
ByLayer
370
18
48
1
60
0
100
AcDbMText
10
-13.92375
20
32.84775
30
0
210
0
220
0
230
1
1
\A1;88.03
40
4.5
41
0
44
1
50
0
71
5
72
5
7
iso_b_vert
0
POINT
5
253
100
AcDbEntity
8
Defpoints
62
0
6
ByLayer
370
-1
48
1
60
0
100
AcDbPoint
10
-57.94
20
12.69675
30
0
39
0
210
0
220
0
230
1
50
360
0
POINT
5
254
100
AcDbEntity
8
Defpoints
62
0
6
ByLayer
370
-1
48
1
60
0
100
AcDbPoint
10
30.0925
20
16.99
30
0
39
0
210
0
220
0
230
1
50
360
0
POINT
5
255
100
AcDbEntity
8
Defpoints
62
0
6
ByLayer
370
-1
48
1
60
0
100
AcDbPoint
10
30.0925
20
23.454
30
0
39
0
210
0
220
0
230
1
50
360
0
ENDBLK
5
24C
100
AcDbEntity
8
0
100
AcDbBlockEnd
0
BLOCK
5
261
100
AcDbEntity
8
0
100
AcDbBlockBegin
2
_U3
70
0
10
0
20
0
30
0
3
_U3
0
MTEXT
5
257
100
AcDbEntity
8
SK2
62
256
6
ByLayer
370
18
48
1
60
0
100
AcDbMText
10
-21.925922
20
24.781672
30
0
210
0
220
0
230
1
1
\W0.8825;88.03
40
4.5
41
0
44
1.084337
50
0
71
7
72
5
7
iso_b_vert
0
LINE
5
258
100
AcDbEntity
8
SK2
62
256
6
ByLayer
370
13
48
1
60
0
100
AcDbLine
10
-57.94
20
14.28425
30
0
11
-57.94
21
26.629
31
0
39
0
210
0
220
0
230
1
0
LINE
5
259
100
AcDbEntity
8
SK2
62
256
6
ByLayer
370
13
48
1
60
0
100
AcDbLine
10
30.0925
20
18.5775
30
0
11
30.0925
21
26.629
31
0
39
0
210
0
220
0
230
1
0
LINE
5
25A
100
AcDbEntity
8
SK2
62
256
6
ByLayer
370
13
48
1
60
0
100
AcDbLine
10
-57.94
20
23.454
30
0
11
30.0925
21
23.454
31
0
39
0
210
0
220
0
230
1
0
LINE
5
25B
100
AcDbEntity
8
SK2
62
256
6
ByLayer
370
13
48
1
60
0
100
AcDbLine
10
-57.94
20
23.454
30
0
11
-54.765002
21
23.871997
31
0
39
0
210
0
220
0
230
1
0
LINE
5
25C
100
AcDbEntity
8
SK2
62
256
6
ByLayer
370
13
48
1
60
0
100
AcDbLine
10
-57.94
20
23.454
30
0
11
-54.764998
21
23.036003
31
0
39
0
210
0
220
0
230
1
0
LINE
5
25D
100
AcDbEntity
8
SK2
62
256
6
ByLayer
370
13
48
1
60
0
100
AcDbLine
10
-54.765002
20
23.871997
30
0
11
-54.764998
21
23.036003
31
0
39
0
210
0
220
0
230
1
0
LINE
5
25E
100
AcDbEntity
8
SK2
62
256
6
ByLayer
370
13
48
1
60
0
100
AcDbLine
10
30.0925
20
23.454
30
0
11
26.917502
21
23.036003
31
0
39
0
210
0
220
0
230
1
0
LINE
5
25F
100
AcDbEntity
8
SK2
62
256
6
ByLayer
370
13
48
1
60
0
100
AcDbLine
10
30.0925
20
23.454
30
0
11
26.917498
21
23.871997
31
0
39
0
210
0
220
0
230
1
0
LINE
5
260
100
AcDbEntity
8
SK2
62
256
6
ByLayer
370
13
48
1
60
0
100
AcDbLine
10
26.917502
20
23.036003
30
0
11
26.917498
21
23.871997
31
0
39
0
210
0
220
0
230
1
0
ENDBLK
5
262
100
AcDbEntity
8
0
100
AcDbBlockEnd
0
BLOCK
5
267
100
AcDbEntity
8
0
100
AcDbBlockBegin
2
*D10
70
1
10
0
20
0
30
0
3
*D10
0
LINE
5
269
100
AcDbEntity
8
0
62
256
6
ByLayer
370
-2
48
1
60
0
100
AcDbLine
10
31.68
20
-16.99
30
0
11
76.2337
21
-16.99
31
0
39
0
210
0
220
0
230
1
0
LINE
5
26A
100
AcDbEntity
8
0
62
256
6
ByLayer
370
-2
48
1
60
0
100
AcDbLine
10
31.68
20
16.99
30
0
11
76.2337
21
16.99
31
0
39
0
210
0
220
0
230
1
0
LINE
5
26B
100
AcDbEntity
8
0
62
256
6
ByLayer
370
-2
48
1
60
0
100
AcDbLine
10
73.0587
20
-13.815
30
0
11
73.0587
21
13.815
31
0
39
0
210
0
220
0
230
1
0
SOLID
5
26C
100
AcDbEntity
8
0
62
256
6
ByLayer
370
-1
48
1
60
0
100
AcDbTrace
10
72.529533
20
-13.815
30
0
11
73.587867
21
-13.815
31
0
12
73.0587
22
-16.99
32
0
13
73.0587
23
-16.99
33
0
39
0
210
0
220
0
230
1
0
SOLID
5
26D
100
AcDbEntity
8
0
62
256
6
ByLayer
370
-1
48
1
60
0
100
AcDbTrace
10
73.587867
20
13.815
30
0
11
72.529533
21
13.815
31
0
12
73.0587
22
16.99
32
0
13
73.0587
23
16.99
33
0
39
0
210
0
220
0
230
1
0
MTEXT
5
26E
100
AcDbEntity
8
0
62
256
6
ByLayer
370
18
48
1
60
0
100
AcDbMText
10
63.66495
20
0
30
0
210
0
220
0
230
1
1
\A1;33.98
40
4.5
41
0
44
1
50
90
71
5
72
5
7
iso_b_vert
0
POINT
5
26F
100
AcDbEntity
8
Defpoints
62
0
6
ByLayer
370
-1
48
1
60
0
100
AcDbPoint
10
30.0925
20
-16.99
30
0
39
0
210
0
220
0
230
1
50
360
0
POINT
5
270
100
AcDbEntity
8
Defpoints
62
0
6
ByLayer
370
-1
48
1
60
0
100
AcDbPoint
10
30.0925
20
16.99
30
0
39
0
210
0
220
0
230
1
50
360
0
POINT
5
271
100
AcDbEntity
8
Defpoints
62
0
6
ByLayer
370
-1
48
1
60
0
100
AcDbPoint
10
73.0587
20
16.99
30
0
39
0
210
0
220
0
230
1
50
360
0
ENDBLK
5
268
100
AcDbEntity
8
0
100
AcDbBlockEnd
0
BLOCK
5
27E
100
AcDbEntity
8
0
100
AcDbBlockBegin
2
_U4
70
0
10
0
20
0
30
0
3
_U4
0
MTEXT
5
273
100
AcDbEntity
8
SK2
62
256
6
ByLayer
370
18
48
1
60
0
100
AcDbMText
10
70.976854
20
-12.860297
30
0
210
0
220
0
230
1
1
%%c
40
3.175
41
0
44
1.084337
50
90
71
7
72
5
7
iso_b_vert
0
MTEXT
5
274
100
AcDbEntity
8
SK2
62
256
6
ByLayer
370
18
48
1
60
0
100
AcDbMText
10
71.378278
20
-3.275672
30
0
210
0
220
0
230
1
1
\W0.8825;33.98
40
4.5
41
0
44
1.084337
50
90
71
7
72
5
7
iso_b_vert
0
LINE
5
275
100
AcDbEntity
8
SK2
62
256
6
ByLayer
370
13
48
1
60
0
100
AcDbLine
10
31.68
20
-16.99
30
0
11
76.2337
21
-16.99
31
0
39
0
210
0
220
0
230
1
0
LINE
5
276
100
AcDbEntity
8
SK2
62
256
6
ByLayer
370
13
48
1
60
0
100
AcDbLine
10
31.68
20
16.99
30
0
11
76.2337
21
16.99
31
0
39
0
210
0
220
0
230
1
0
LINE
5
277
100
AcDbEntity
8
SK2
62
256
6
ByLayer
370
13
48
1
60
0
100
AcDbLine
10
73.0587
20
-28.24
30
0
11
73.0587
21
28.24
31
0
39
0
210
0
220
0
230
1
0
LINE
5
278
100
AcDbEntity
8
SK2
62
256
6
ByLayer
370
13
48
1
60
0
100
AcDbLine
10
73.0587
20
-16.99
30
0
11
73.476697
21
-20.164998
31
0
39
0
210
0
220
0
230
1
0
LINE
5
279
100
AcDbEntity
8
SK2
62
256
6
ByLayer
370
13
48
1
60
0
100
AcDbLine
10
73.0587
20
-16.99
30
0
11
72.640703
21
-20.165002
31
0
39
0
210
0
220
0
230
1
0
LINE
5
27A
100
AcDbEntity
8
SK2
62
256
6
ByLayer
370
13
48
1
60
0
100
AcDbLine
10
73.476697
20
-20.164998
30
0
11
72.640703
21
-20.165002
31
0
39
0
210
0
220
0
230
1
0
LINE
5
27B
100
AcDbEntity
8
SK2
62
256
6
ByLayer
370
13
48
1
60
0
100
AcDbLine
10
73.0587
20
16.99
30
0
11
72.640703
21
20.164998
31
0
39
0
210
0
220
0
230
1
0
LINE
5
27C
100
AcDbEntity
8
SK2
62
256
6
ByLayer
370
13
48
1
60
0
100
AcDbLine
10
73.0587
20
16.99
30
0
11
73.476697
21
20.165002
31
0
39
0
210
0
220
0
230
1
0
LINE
5
27D
100
AcDbEntity
8
SK2
62
256
6
ByLayer
370
13
48
1
60
0
100
AcDbLine
10
72.640703
20
20.164998
30
0
11
73.476697
21
20.165002
31
0
39
0
210
0
220
0
230
1
0
ENDBLK
5
27F
100
AcDbEntity
8
0
100
AcDbBlockEnd
0
BLOCK
5
284
100
AcDbEntity
8
0
100
AcDbBlockBegin
2
*D12
70
1
10
0
20
0
30
0
3
*D12
0
LINE
5
286
100
AcDbEntity
8
0
62
256
6
ByLayer
370
-2
48
1
60
0
100
AcDbLine
10
-59.5275
20
12.69675
30
0
11
-86.218125
21
12.69675
31
0
39
0
210
0
220
0
230
1
0
LINE
5
287
100
AcDbEntity
8
0
62
256
6
ByLayer
370
-2
48
1
60
0
100
AcDbLine
10
-59.5275
20
-12.69675
30
0
11
-86.218125
21
-12.69675
31
0
39
0
210
0
220
0
230
1
0
LINE
5
288
100
AcDbEntity
8
0
62
256
6
ByLayer
370
-2
48
1
60
0
100
AcDbLine
10
-83.043125
20
12.69675
30
0
11
-83.043125
21
52.849029
31
0
39
0
210
0
220
0
230
1
0
LINE
5
289
100
AcDbEntity
8
0
62
256
6
ByLayer
370
-2
48
1
60
0
100
AcDbLine
10
-83.043125
20
9.52175
30
0
11
-83.043125
21
-9.52175
31
0
39
0
210
0
220
0
230
1
0
SOLID
5
28A
100
AcDbEntity
8
0
62
256
6
ByLayer
370
-1
48
1
60
0
100
AcDbTrace
10
-82.513958
20
9.52175
30
0
11
-83.572292
21
9.52175
31
0
12
-83.043125
22
12.69675
32
0
13
-83.043125
23
12.69675
33
0
39
0
210
0
220
0
230
1
0
SOLID
5
28B
100
AcDbEntity
8
0
62
256
6
ByLayer
370
-1
48
1
60
0
100
AcDbTrace
10
-83.572292
20
-9.52175
30
0
11
-82.513958
21
-9.52175
31
0
12
-83.043125
22
-12.69675
32
0
13
-83.043125
23
-12.69675
33
0
39
0
210
0
220
0
230
1
0
MTEXT
5
28C
100
AcDbEntity
8
0
62
256
6
ByLayer
370
18
48
1
60
0
100
AcDbMText
10
-92.436875
20
36.812422
30
0
210
0
220
0
230
1
1
\A1;25.39
40
4.5
41
0
44
1
50
90
71
5
72
5
7
iso_b_vert
0
POINT
5
28D
100
AcDbEntity
8
Defpoints
62
0
6
ByLayer
370
-1
48
1
60
0
100
AcDbPoint
10
-57.94
20
12.69675
30
0
39
0
210
0
220
0
230
1
50
360
0
POINT
5
28E
100
AcDbEntity
8
Defpoints
62
0
6
ByLayer
370
-1
48
1
60
0
100
AcDbPoint
10
-57.94
20
-12.69675
30
0
39
0
210
0
220
0
230
1
50
360
0
POINT
5
28F
100
AcDbEntity
8
Defpoints
62
0
6
ByLayer
370
-1
48
1
60
0
100
AcDbPoint
10
-83.043125
20
-12.69675
30
0
39
0
210
0
220
0
230
1
50
360
0
ENDBLK
5
285
100
AcDbEntity
8
0
100
AcDbBlockEnd
0
BLOCK
5
29C
100
AcDbEntity
8
0
100
AcDbBlockBegin
2
_U5
70
0
10
0
20
0
30
0
3
_U5
0
MTEXT
5
291
100
AcDbEntity
8
SK2
62
256
6
ByLayer
370
18
48
1
60
0
100
AcDbMText
10
-85.124971
20
23.952125
30
0
210
0
220
0
230
1
1
%%c
40
3.175
41
0
44
1.084337
50
90
71
7
72
5
7
iso_b_vert
0
MTEXT
5
292
100
AcDbEntity
8
SK2
62
256
6
ByLayer
370
18
48
1
60
0
100
AcDbMText
10
-84.723547
20
33.53675
30
0
210
0
220
0
230
1
1
\W0.8928;25.39
40
4.5
41
0
44
1.084337
50
90
71
7
72
5
7
iso_b_vert
0
LINE
5
293
100
AcDbEntity
8
SK2
62
256
6
ByLayer
370
13
48
1
60
0
100
AcDbLine
10
-59.5275
20
12.69675
30
0
11
-86.218125
21
12.69675
31
0
39
0
210
0
220
0
230
1
0
LINE
5
294
100
AcDbEntity
8
SK2
62
256
6
ByLayer
370
13
48
1
60
0
100
AcDbLine
10
-59.5275
20
-12.69675
30
0
11
-86.218125
21
-12.69675
31
0
39
0
210
0
220
0
230
1
0
LINE
5
295
100
AcDbEntity
8
SK2
62
256
6
ByLayer
370
13
48
1
60
0
100
AcDbLine
10
-83.043125
20
-12.69675
30
0
11
-83.043125
21
49.815594
31
0
39
0
210
0
220
0
230
1
0
LINE
5
296
100
AcDbEntity
8
SK2
62
256
6
ByLayer
370
13
48
1
60
0
100
AcDbLine
10
-83.043125
20
12.69675
30
0
11
-82.625128
21
9.521752
31
0
39
0
210
0
220
0
230
1
0
LINE
5
297
100
AcDbEntity
8
SK2
62
256
6
ByLayer
370
13
48
1
60
0
100
AcDbLine
10
-83.043125
20
12.69675
30
0
11
-83.461122
21
9.521748
31
0
39
0
210
0
220
0
230
1
0
LINE
5
298
100
AcDbEntity
8
SK2
62
256
6
ByLayer
370
13
48
1
60
0
100
AcDbLine
10
-82.625128
20
9.521752
30
0
11
-83.461122
21
9.521748
31
0
39
0
210
0
220
0
230
1
0
LINE
5
299
100
AcDbEntity
8
SK2
62
256
6
ByLayer
370
13
48
1
60
0
100
AcDbLine
10
-83.043125
20
-12.69675
30
0
11
-83.461122
21
-9.521752
31
0
39
0
210
0
220
0
230
1
0
LINE
5
29A
100
AcDbEntity
8
SK2
62
256
6
ByLayer
370
13
48
1
60
0
100
AcDbLine
10
-83.043125
20
-12.69675
30
0
11
-82.625128
21
-9.521748
31
0
39
0
210
0
220
0
230
1
0
LINE
5
29B
100
AcDbEntity
8
SK2
62
256
6
ByLayer
370
13
48
1
60
0
100
AcDbLine
10
-83.461122
20
-9.521752
30
0
11
-82.625128
21
-9.521748
31
0
39
0
210
0
220
0
230
1
0
ENDBLK
5
29D
100
AcDbEntity
8
0
100
AcDbBlockEnd
0
ENDSEC
0
SECTION
2
ENTITIES
0
ARC
5
E0
100
AcDbEntity
8
1
62
256
6
ByLayer
370
18
48
1
60
0
100
AcDbCircle
39
0
10
31.454406
20
11.137826
30
0
40
1.28905
210
0
220
0
230
1
100
AcDbArc
50
240
51
300
0
ARC
5
E1
100
AcDbEntity
8
1
62
256
6
ByLayer
370
18
48
1
60
0
100
AcDbCircle
39
0
10
31.454406
20
11.137826
30
0
40
1.28905
210
0
220
0
230
1
100
AcDbArc
50
300
51
0
0
ARC
5
E2
100
AcDbEntity
8
1
62
256
6
ByLayer
370
18
48
1
60
0
100
AcDbCircle
39
0
10
31.454406
20
11.137826
30
0
40
1.28905
210
0
220
0
230
1
100
AcDbArc
50
120
51
180
0
ARC
5
E3
100
AcDbEntity
8
1
62
256
6
ByLayer
370
18
48
1
60
0
100
AcDbCircle
39
0
10
31.454406
20
11.137826
30
0
40
1.28905
210
0
220
0
230
1
100
AcDbArc
50
180
51
240
0
ARC
5
E4
100
AcDbEntity
8
1
62
256
6
ByLayer
370
18
48
1
60
0
100
AcDbCircle
39
0
10
31.454406
20
11.137826
30
0
40
1.28905
210
0
220
0
230
1
100
AcDbArc
50
0
51
60
0
ARC
5
E5
100
AcDbEntity
8
1
62
256
6
ByLayer
370
18
48
1
60
0
100
AcDbCircle
39
0
10
31.454406
20
11.137826
30
0
40
1.28905
210
0
220
0
230
1
100
AcDbArc
50
60
51
120
0
ARC
5
E6
100
AcDbEntity
8
1
62
256
6
ByLayer
370
18
48
1
60
0
100
AcDbCircle
39
0
10
31.454406
20
11.137826
30
0
40
0.9944
210
0
220
0
230
1
100
AcDbArc
50
30
51
90
0
ARC
5
E7
100
AcDbEntity
8
1
62
256
6
ByLayer
370
18
48
1
60
0
100
AcDbCircle
39
0
10
31.454406
20
11.137826
30
0
40
0.9944
210
0
220
0
230
1
100
AcDbArc
50
90
51
150
0
ARC
5
E8
100
AcDbEntity
8
1
62
256
6
ByLayer
370
18
48
1
60
0
100
AcDbCircle
39
0
10
31.454406
20
11.137826
30
0
40
0.9944
210
0
220
0
230
1
100
AcDbArc
50
270
51
330
0
ARC
5
E9
100
AcDbEntity
8
1
62
256
6
ByLayer
370
18
48
1
60
0
100
AcDbCircle
39
0
10
31.454406
20
11.137826
30
0
40
0.9944
210
0
220
0
230
1
100
AcDbArc
50
150
51
210
0
ARC
5
EA
100
AcDbEntity
8
1
62
256
6
ByLayer
370
18
48
1
60
0
100
AcDbCircle
39
0
10
31.454406
20
11.137826
30
0
40
0.9944
210
0
220
0
230
1
100
AcDbArc
50
330
51
30
0
ARC
5
EB
100
AcDbEntity
8
1
62
256
6
ByLayer
370
18
48
1
60
0
100
AcDbCircle
39
0
10
31.454406
20
11.137826
30
0
40
0.9944
210
0
220
0
230
1
100
AcDbArc
50
210
51
270
0
ARC
5
F1
100
AcDbEntity
8
1
62
256
6
ByLayer
370
18
48
1
60
0
100
AcDbCircle
39
0
10
31.454406
20
-11.137826
30
0
40
1.5
210
0
220
0
230
1
100
AcDbArc
50
52.47003
51
97.537515
0
ARC
5
F2
100
AcDbEntity
8
1
62
256
6
ByLayer
370
13
48
1
60
0
100
AcDbCircle
39
0
10
31.50617
20
-10.944641
30
0
40
1.4
210
0
220
0
230
1
100
AcDbArc
50
123.551688
51
53.558433
0
ARC
5
F4
100
AcDbEntity
8
1
62
256
6
ByLayer
370
13
48
1
60
0
100
AcDbCircle
39
0
10
31.50617
20
-10.944641
30
0
40
1.40000000000081
210
0
220
0
230
1
100
AcDbArc
50
53.558433
51
92.118946
0
ARC
5
F5
100
AcDbEntity
8
1
62
256
6
ByLayer
370
13
48
1
60
0
100
AcDbCircle
39
0
10
31.50617
20
-10.944641
30
0
40
1.5
210
0
220
0
230
1
100
AcDbArc
50
30
51
48.662517
0
ARC
5
F6
100
AcDbEntity
8
1
62
256
6
ByLayer
370
13
48
1
60
0
100
AcDbCircle
39
0
10
28.638381
20
8.260327
30
0
40
1
210
0
220
0
230
1
100
AcDbArc
50
187.399728
51
205.945627
0
ARC
5
F7
100
AcDbEntity
8
1
62
256
6
ByLayer
370
13
48
1
60
0
100
AcDbCircle
39
0
10
36.917546
20
12.332312
30
0
40
1
210
0
220
0
230
1
100
AcDbArc
50
261.553872
51
266.626439
0
ARC
5
F8
100
AcDbEntity
8
1
62
256
6
ByLayer
370
13
48
1
60
0
100
AcDbCircle
39
0
10
31.454406
20
17.637826
30
0
40
12
210
0
220
0
230
1
100
AcDbArc
50
222.451889
51
242.58651
0
ARC
5
F9
100
AcDbEntity
8
1
62
256
6
ByLayer
370
13
48
1
60
0
100
AcDbCircle
39
0
10
3.352585
20
-10.051271
30
0
40
0.5
210
0
220
0
230
1
100
AcDbArc
50
90
51
135
0
ARC
5
FA
100
AcDbEntity
8
1
62
256
6
ByLayer
370
13
48
1
60
0
100
AcDbCircle
39
0
10
3.352585
20
10.051271
30
0
40
0.5
210
0
220
0
230
1
100
AcDbArc
50
225
51
270
0
ARC
5
FB
100
AcDbEntity
8
SK2
62
256
6
ByLayer
370
13
48
1
60
0
100
AcDbCircle
39
0
10
37.3087
20
12.954
30
0
40
12.3993355620865
210
0
220
0
230
1
100
AcDbArc
50
47.782332
51
192.217668
0
CIRCLE
5
DF
100
AcDbEntity
8
1
62
256
6
ByLayer
370
18
48
1
60
0
100
AcDbCircle
10
31.454406
20
-11.137826
30
0
40
1.2
39
0
210
0
220
0
230
1
0
CIRCLE
5
EC
100
AcDbEntity
8
1
62
256
6
ByLayer
370
18
48
1
60
0
100
AcDbCircle
10
31.454406
20
11.137826
30
0
40
1.4
39
0
210
0
220
0
230
1
0
CIRCLE
5
ED
100
AcDbEntity
8
1
62
256
6
ByLayer
370
18
48
1
60
0
100
AcDbCircle
10
31.454406
20
11.137826
30
0
40
2.1
39
0
210
0
220
0
230
1
0
CIRCLE
5
EE
100
AcDbEntity
8
1
62
256
6
ByLayer
370
18
48
1
60
0
100
AcDbCircle
10
31.454406
20
11.137826
30
0
40
2.15037854103613
39
0
210
0
220
0
230
1
0
CIRCLE
5
EF
100
AcDbEntity
8
1
62
256
6
ByLayer
370
18
48
1
60
0
100
AcDbCircle
10
31.454406
20
11.137826
30
0
40
2.26175520142507
39
0
210
0
220
0
230
1
0
CIRCLE
5
F0
100
AcDbEntity
8
1
62
256
6
ByLayer
370
18
48
1
60
0
100
AcDbCircle
10
31.454406
20
11.137826
30
0
40
2.30803925391311
39
0
210
0
220
0
230
1
0
CIRCLE
5
F3
100
AcDbEntity
8
1
62
256
6
ByLayer
370
13
48
1
60
0
100
AcDbCircle
10
31.50617
20
-10.944641
30
0
40
1.3175
39
0
210
0
220
0
230
1
0
ELLIPSE
5
FC
100
AcDbEntity
8
1
62
256
6
ByLayer
370
13
48
1
60
0
100
AcDbEllipse
10
23.706668
20
4E-06
30
0
11
3.70926290051371E-06
21
-19.036369479475
31
0
210
0
220
0
230
1
40
0.610714
41
1.9935431176686
42
2.01351030142437
0
ELLIPSE
5
FD
100
AcDbEntity
8
1
62
256
6
ByLayer
370
13
48
1
60
0
100
AcDbEllipse
10
25.736219
20
2.337635
30
0
11
1.17978476774542
21
-0.413047093920167
31
0
210
0
220
0
230
1
40
0.496732
41
1.52461061750363
42
1.69725103348939
0
ELLIPSE
5
FE
100
AcDbEntity
8
1
62
256
6
ByLayer
370
13
48
1
60
0
100
AcDbEllipse
10
25.736219
20
10.233635
30
0
11
-1.08253175473055
21
0.625000000000002
31
0
210
0
220
0
230
1
40
0.819152
41
2.05829151438806
42
2.2309319303741
0
ELLIPSE
5
FF
100
AcDbEntity
8
1
62
256
6
ByLayer
370
13
48
1
60
0
100
AcDbEllipse
10
33.207047
20
-10.890646
30
0
11
0.750122266871022
21
-1.03378014099811
31
0
210
0
220
0
230
1
40
0.379473
41
1.30210521821465
42
2.21549221898485
0
ELLIPSE
5
100
100
AcDbEntity
8
1
62
256
6
ByLayer
370
13
48
1
60
0
100
AcDbEllipse
10
25.725223
20
2.306229
30
0
11
1.17978476774542
21
-0.413047093920167
31
0
210
0
220
0
230
1
40
0.496732
41
1.50142168859046
42
1.73069896708107
0
ELLIPSE
5
101
100
AcDbEntity
8
1
62
256
6
ByLayer
370
13
48
1
60
0
100
AcDbEllipse
10
36.917546
20
3
30
0
11
6.12303176911189E-17
21
1
31
0
210
0
220
0
230
1
40
0.866025
41
0.355935013977004
42
0.924444600198697
0
ELLIPSE
5
102
100
AcDbEntity
8
1
62
256
6
ByLayer
370
13
48
1
60
0
100
AcDbEllipse
10
40.3323
20
0
30
0
11
16.6725624050671
21
1.95975807935203
31
0
210
0
220
0
230
1
40
0.560685
41
2.67460405343044
42
2.88256902785186
0
ELLIPSE
5
103
100
AcDbEntity
8
1
62
256
6
ByLayer
370
13
48
1
60
0
100
AcDbEllipse
10
33.207047
20
7.81
30
0
11
0.835181485900089
21
0.416365160565195
31
0
210
0
220
0
230
1
40
0.331472
41
-1.89740778932613
42
-0.984020788555768
0
ELLIPSE
5
104
100
AcDbEntity
8
1
62
256
6
ByLayer
370
13
48
1
60
0
100
AcDbEllipse
10
25.725223
20
10.21459
30
0
11
-1.08253175473055
21
0.625000000000002
31
0
210
0
220
0
230
1
40
0.819152
41
2.02484358079667
42
2.25412085928726
0
ELLIPSE
5
105
100
AcDbEntity
8
1
62
256
6
ByLayer
370
13
48
1
60
0
100
AcDbEllipse
10
40.3323
20
0
30
0
11
16.698782555244
21
9.49732881906216
31
0
210
0
220
0
230
1
40
0.060703
41
-2.98288989533176
42
-2.7749249208909
0
ELLIPSE
5
106
100
AcDbEntity
8
1
62
256
6
ByLayer
370
13
48
1
60
0
100
AcDbEllipse
10
40.3323
20
0
30
0
11
16.698782552595
21
-9.4973288175007
31
0
210
0
220
0
230
1
40
0.060703
41
2.77492492086126
42
2.98288989531933
0
ELLIPSE
5
107
100
AcDbEntity
8
1
62
256
6
ByLayer
370
13
48
1
60
0
100
AcDbEllipse
10
25.725223
20
2.306229
30
0
11
7.65378971138986E-17
21
1.25
31
0
210
0
220
0
230
1
40
0.5
41
1.28834384810471
42
1.44862327915529
0
ELLIPSE
5
108
100
AcDbEntity
8
1
62
256
6
ByLayer
370
13
48
1
60
0
100
AcDbEllipse
10
32.805208
20
7.81
30
0
11
3.06151588455594E-17
21
0.5
31
0
210
0
220
0
230
1
40
0.866025
41
3.14159265358979
42
-2.48418332756646
0
ELLIPSE
5
109
100
AcDbEntity
8
SK1
62
256
6
ByLayer
370
13
48
1
60
0
100
AcDbEllipse
10
-24.730054
20
0
30
0
11
12.9203066667188
21
1.51355625567791E-14
31
0
210
0
220
0
230
1
40
0.982697
41
2.55913865998868
42
-2.55913865998868
0
ELLIPSE
5
10A
100
AcDbEntity
8
SK1
62
256
6
ByLayer
370
13
48
1
60
0
100
AcDbEllipse
10
-33.204946
20
0
30
0
11
12.9203066667189
21
1.51355625567792E-14
31
0
210
0
220
0
230
1
40
0.982697
41
-0.582453993601119
42
0.582453993601116
0
ELLIPSE
5
10B
100
AcDbEntity
8
SK1
62
256
6
ByLayer
370
13
48
1
60
0
100
AcDbEllipse
10
-56.029946
20
0
30
0
11
12.9203066667187
21
1.5135562556779E-14
31
0
210
0
220
0
230
1
40
0.982697
41
-0.582453993601121
42
0.582453993601118
0
ELLIPSE
5
10C
100
AcDbEntity
8
1
62
256
6
ByLayer
370
13
48
1
60
0
100
AcDbEllipse
10
25.725223
20
10.21459
30
0
11
-1.08253175473055
21
0.625000000000002
31
0
210
0
220
0
230
1
40
0.992546
41
1.57079632679489
42
2.38419633824372
0
ELLIPSE
5
10D
100
AcDbEntity
8
1
62
256
6
ByLayer
370
13
48
1
60
0
100
AcDbEllipse
10
25.614335
20
10.022526
30
0
11
0.629693640911781
21
1.09066137926224
31
0
210
0
220
0
230
1
40
0.992546
41
3.14159265358979
42
-2.09136601126692
0
ELLIPSE
5
10E
100
AcDbEntity
8
1
62
256
6
ByLayer
370
13
48
1
60
0
100
AcDbEllipse
10
25.725223
20
2.306229
30
0
11
1.2476510053983
21
-0.0765961404289512
31
0
210
0
220
0
230
1
40
0.105542
41
1.204032940012
42
2.09764084704267
0
POINT
5
70
100
AcDbEntity
8
81
62
256
6
ByLayer
370
18
48
1
60
0
100
AcDbPoint
10
37.3087
20
12.954
30
0
39
0
210
0
220
0
230
1
50
360
0
POINT
5
72
100
AcDbEntity
8
80
62
256
6
ByLayer
370
18
48
1
60
0
100
AcDbPoint
10
0
20
0
30
0
39
0
210
0
220
0
230
1
50
360
0
POINT
5
74
100
AcDbEntity
8
1
62
256
6
ByLayer
370
18
48
1
60
1
100
AcDbPoint
10
37.3087
20
-12.954
30
0
39
0
210
0
220
0
230
1
50
360
0
POINT
5
76
100
AcDbEntity
8
1
62
256
6
ByLayer
370
18
48
1
60
1
100
AcDbPoint
10
37.3087
20
12.954
30
0
39
0
210
0
220
0
230
1
50
360
0
POINT
5
77
100
AcDbEntity
8
1
62
256
6
ByLayer
370
18
48
1
60
1
100
AcDbPoint
10
37.3087
20
-12.954
30
0
39
0
210
0
220
0
230
1
50
360
0
POINT
5
78
100
AcDbEntity
8
1
62
256
6
ByLayer
370
18
48
1
60
1
100
AcDbPoint
10
-0.0013
20
0
30
0
39
0
210
0
220
0
230
1
50
360
0
POINT
5
79
100
AcDbEntity
8
1
62
256
6
ByLayer
370
18
48
1
60
1
100
AcDbPoint
10
-57.94
20
12.69675
30
0
39
0
210
0
220
0
230
1
50
360
0
POINT
5
7A
100
AcDbEntity
8
1
62
256
6
ByLayer
370
18
48
1
60
1
100
AcDbPoint
10
37.3087
20
12.954
30
0
39
0
210
0
220
0
230
1
50
360
0
POINT
5
7B
100
AcDbEntity
8
1
62
256
6
ByLayer
370
18
48
1
60
1
100
AcDbPoint
10
-57.94
20
12.69675
30
0
39
0
210
0
220
0
230
1
50
360
0
POINT
5
7C
100
AcDbEntity
8
1
62
256
6
ByLayer
370
18
48
1
60
1
100
AcDbPoint
10
30.0925
20
16.99
30
0
39
0
210
0
220
0
230
1
50
360
0
POINT
5
7D
100
AcDbEntity
8
1
62
256
6
ByLayer
370
18
48
1
60
1
100
AcDbPoint
10
30.0925
20
-16.99
30
0
39
0
210
0
220
0
230
1
50
360
0
POINT
5
7E
100
AcDbEntity
8
1
62
256
6
ByLayer
370
18
48
1
60
1
100
AcDbPoint
10
30.0925
20
16.99
30
0
39
0
210
0
220
0
230
1
50
360
0
POINT
5
7F
100
AcDbEntity
8
1
62
256
6
ByLayer
370
18
48
1
60
1
100
AcDbPoint
10
-57.94
20
12.69675
30
0
39
0
210
0
220
0
230
1
50
360
0
POINT
5
80
100
AcDbEntity
8
1
62
256
6
ByLayer
370
18
48
1
60
1
100
AcDbPoint
10
-57.94
20
-12.69675
30
0
39
0
210
0
220
0
230
1
50
360
0
SPLINE
5
10F
100
AcDbEntity
8
1
62
256
6
ByLayer
370
18
48
1
60
0
100
AcDbSpline
70
4
71
3
72
8
73
4
40
0
40
0
40
0
40
0
40
1
40
1
40
1
40
1
41
1
10
25.7072916889657
20
-8.53E-14
30
0
41
1
10
26.323958355633
20
-8.53E-14
30
0
41
1
10
26.9406250222838
20
-8.53E-14
30
0
41
1
10
27.5572916889675
20
-8.53E-14
30
0
0
SPLINE
5
110
100
AcDbEntity
8
1
62
256
6
ByLayer
370
18
48
1
60
0
100
AcDbSpline
70
4
71
3
72
8
73
4
40
0
40
0
40
0
40
0
40
1
40
1
40
1
40
1
41
1
10
30.5001120119952
20
-1.137E-13
30
0
41
1
10
30.8116313551708
20
-0.0666666666667766
30
0
41
1
10
31.1231506983464
20
-0.133333333333439
30
0
41
1
10
31.434670041522
20
-0.200000000000102
30
0
0
SPLINE
5
111
100
AcDbEntity
8
1
62
256
6
ByLayer
370
18
48
1
60
0
100
AcDbSpline
70
4
71
3
72
8
73
4
40
0
40
0
40
0
40
0
40
1
40
1
40
1
40
1
41
1
10
29.4072916889669
20
1.4211E-12
30
0
41
1
10
29.4785009925574
20
1.10333333333492
30
0
41
1
10
29.5497102961484
20
2.20666666666841
30
0
41
1
10
29.6209195997395
20
3.31000000000191
30
0
0
SPLINE
5
112
100
AcDbEntity
8
1
62
256
6
ByLayer
370
18
48
1
60
0
100
AcDbSpline
70
4
71
3
72
10
73
6
40
0
40
0
40
0
40
0
40
0.375000000000406
40
0.750000000000812
40
1
40
1
40
1
40
1
41
1
10
32.8738387380117
20
-0.200000000000102
30
0
41
1
10
32.7083642197432
20
-0.200000000000102
30
0
41
1
10
32.3614414796263
20
-0.200000000000102
30
0
41
1
10
31.8714881673352
20
-0.200000000000102
30
0
41
1
10
31.5594747523895
20
-0.200000000000102
30
0
41
1
10
31.4346700415236
20
-0.200000000000102
30
0
0
SPLINE
5
113
100
AcDbEntity
8
1
62
256
6
ByLayer
370
18
48
1
60
0
100
AcDbSpline
70
4
71
3
72
8
73
4
40
0
40
0
40
0
40
0
40
1
40
1
40
1
40
1
41
1
10
28.0627407528125
20
3.30999999999992
30
0
41
1
10
27.5433478038294
20
3.30999999999992
30
0
41
1
10
27.0239548548598
20
3.30999999999992
30
0
41
1
10
26.5045619058864
20
3.30999999999992
30
0
0
SPLINE
5
114
100
AcDbEntity
8
1
62
256
6
ByLayer
370
18
48
1
60
0
100
AcDbSpline
70
4
71
3
72
8
73
4
40
0
40
0
40
0
40
0
40
1
40
1
40
1
40
1
41
1
10
26.5045619058871
20
3.31000000000208
30
0
41
1
10
26.2388051669151
20
2.20666666666861
30
0
41
1
10
25.973048427943
20
1.10333333333511
30
0
41
1
10
25.7072916889703
20
1.6485E-12
30
0
0
SPLINE
5
115
100
AcDbEntity
8
1
62
256
6
ByLayer
370
18
48
1
60
0
100
AcDbSpline
70
4
71
3
72
8
73
4
40
0
40
0
40
0
40
0
40
1
40
1
40
1
40
1
41
1
10
36.9087000000033
20
-1.137E-13
30
0
41
1
10
35.9327861142147
20
-0.0666666666667766
30
0
41
1
10
34.956872228426
20
-0.133333333333439
30
0
41
1
10
33.9809583426374
20
-0.200000000000102
30
0
0
SPLINE
5
116
100
AcDbEntity
8
1
62
256
6
ByLayer
370
18
48
1
60
0
100
AcDbSpline
70
4
71
3
72
8
73
4
40
0
40
0
40
0
40
0
40
1
40
1
40
1
40
1
41
1
10
29.6209195997396
20
3.30999999999989
30
0
41
1
10
29.1015266507659
20
3.30999999999992
30
0
41
1
10
28.5821337017959
20
3.30999999999992
30
0
41
1
10
28.0627407528125
20
3.30999999999992
30
0
0
SPLINE
5
117
100
AcDbEntity
8
1
62
256
6
ByLayer
370
18
48
1
60
0
100
AcDbSpline
70
4
71
3
72
8
73
4
40
0
40
0
40
0
40
0
40
1
40
1
40
1
40
1
41
1
10
30.5001120119918
20
-1.137E-13
30
0
41
1
10
31.5682100099938
20
-1.137E-13
30
0
41
1
10
32.6363080079672
20
-8.53E-14
30
0
41
1
10
33.7044060059975
20
-8.53E-14
30
0
0
SPLINE
5
118
100
AcDbEntity
8
1
62
256
6
ByLayer
370
18
48
1
60
0
100
AcDbSpline
70
4
71
3
72
8
73
4
40
0
40
0
40
0
40
0
40
1
40
1
40
1
40
1
41
1
10
27.5572916889675
20
-8.53E-14
30
0
41
1
10
28.1739583556513
20
-8.53E-14
30
0
41
1
10
28.7906250223021
20
-1.137E-13
30
0
41
1
10
29.4072916889695
20
-1.137E-13
30
0
0
SPLINE
5
119
100
AcDbEntity
8
1
62
256
6
ByLayer
370
18
48
1
60
0
100
AcDbSpline
70
4
71
3
72
8
73
4
40
0
40
0
40
0
40
0
40
1
40
1
40
1
40
1
41
1
10
25.7072916889676
20
-5.68E-14
30
0
41
1
10
26.6543242016595
20
-0.0666666666667481
30
0
41
1
10
27.6013567143515
20
-0.133333333333411
30
0
41
1
10
28.5483892270435
20
-0.200000000000074
30
0
0
SPLINE
5
11A
100
AcDbEntity
8
1
62
256
6
ByLayer
370
18
48
1
60
0
100
AcDbSpline
70
4
71
3
72
8
73
4
40
0
40
0
40
0
40
0
40
1
40
1
40
1
40
1
41
1
10
36.9086999999982
20
1.4211E-12
30
0
41
1
10
36.6429432610252
20
1.10333333333492
30
0
41
1
10
36.377186522053
20
2.20666666666841
30
0
41
1
10
36.111429783081
20
3.31000000000191
30
0
0
SPLINE
5
11B
100
AcDbEntity
8
1
62
256
6
ByLayer
370
18
48
1
60
0
100
AcDbSpline
70
4
71
3
72
8
73
4
40
0
40
0
40
0
40
0
40
1
40
1
40
1
40
1
41
1
10
32.8738387380117
20
-0.200000000000102
30
0
41
1
10
33.150694494007
20
-0.133333333333439
30
0
41
1
10
33.4275502500022
20
-0.0666666666667766
30
0
41
1
10
33.7044060059975
20
-8.53E-14
30
0
0
SPLINE
5
11C
100
AcDbEntity
8
1
62
256
6
ByLayer
370
18
48
1
60
0
100
AcDbSpline
70
4
71
3
72
8
73
4
40
0
40
0
40
0
40
0
40
1
40
1
40
1
40
1
41
1
10
33.7044060059975
20
-1.137E-13
30
0
41
1
10
34.772504004028
20
-1.137E-13
30
0
41
1
10
35.8406020020012
20
-1.137E-13
30
0
41
1
10
36.9087000000033
20
-8.53E-14
30
0
0
SPLINE
5
11D
100
AcDbEntity
8
1
62
256
6
ByLayer
370
18
48
1
60
0
100
AcDbSpline
70
4
71
3
72
10
73
6
40
0
40
0
40
0
40
0
40
0.375000000000406
40
0.750000000000812
40
1
40
1
40
1
40
1
41
1
10
28.9958763962453
20
-0.200000000000074
30
0
41
1
10
28.9003396385773
20
-0.200000000000074
30
0
41
1
10
28.7369395698378
20
-0.200000000000074
30
0
41
1
10
28.5997558741079
20
-0.200000000000074
30
0
41
1
10
28.558015325536
20
-0.200000000000074
30
0
41
1
10
28.5483892270435
20
-0.200000000000074
30
0
0
SPLINE
5
11E
100
AcDbEntity
8
1
62
256
6
ByLayer
370
18
48
1
60
0
100
AcDbSpline
70
4
71
3
72
10
73
6
40
0
40
0
40
0
40
0
40
0.249999999999984
40
0.624999999999992
40
1
40
1
40
1
40
1
41
1
10
30.0184894631398
20
-0.200000000000102
30
0
41
1
10
29.9152184622624
20
-0.200000000000102
30
0
41
1
10
29.6658771928785
20
-0.200000000000102
30
0
41
1
10
29.3101570256383
20
-0.200000000000074
30
0
41
1
10
29.0914131539063
20
-0.200000000000074
30
0
41
1
10
28.9958763962397
20
-0.200000000000074
30
0
0
SPLINE
5
11F
100
AcDbEntity
8
1
62
256
6
ByLayer
370
18
48
1
60
0
100
AcDbSpline
70
4
71
3
72
8
73
4
40
0
40
0
40
0
40
0
40
1
40
1
40
1
40
1
41
1
10
30.7137399227704
20
3.31000000000205
30
0
41
1
10
30.6425306191804
20
2.20666666666858
30
0
41
1
10
30.5713213155904
20
1.10333333333511
30
0
41
1
10
30.5001120119993
20
1.62E-12
30
0
0
SPLINE
5
120
100
AcDbEntity
8
1
62
256
6
ByLayer
370
18
48
1
60
0
100
AcDbSpline
70
4
71
3
72
29
73
25
40
0
40
0
40
0
40
0
40
0.125000000000945
40
0.171875000000894
40
0.218750000000842
40
0.242187500000816
40
0.26562500000079
40
0.277343750000777
40
0.289062500000764
40
0.312500000000738
40
0.359375000000687
40
0.406250000000635
40
0.500000000000531
40
0.593750000000427
40
0.640625000000376
40
0.687500000000324
40
0.710937500000298
40
0.722656250000285
40
0.734375000000272
40
0.757812500000246
40
0.78125000000022
40
0.828125000000168
40
0.875000000000117
40
1
40
1
40
1
40
1
41
1
10
31.4346700415236
20
-0.200000000000102
30
0
41
1
10
31.3722676860899
20
-0.200000000000102
30
0
41
1
10
31.2864646725635
20
-0.200000000000102
30
0
41
1
10
31.1775401969259
20
-0.200000000000102
30
0
41
1
10
31.1193008581955
20
-0.200000000000102
30
0
41
1
10
31.0727898253768
20
-0.200000000000102
30
0
41
1
10
31.0437622929766
20
-0.200000000000102
30
0
41
1
10
31.0205738954296
20
-0.200000000000102
30
0
41
1
10
30.9973566554634
20
-0.200000000000102
30
0
41
1
10
30.9565881994739
20
-0.200000000000102
30
0
41
1
10
30.8980713168646
20
-0.200000000000102
30
0
41
1
10
30.8042618508026
20
-0.200000000000102
30
0
41
1
10
30.6874952927921
20
-0.200000000000102
30
0
41
1
10
30.5735602690592
20
-0.200000000000102
30
0
41
1
10
30.4853233147552
20
-0.200000000000102
30
0
41
1
10
30.4316145697399
20
-0.200000000000102
30
0
41
1
10
30.3948648194883
20
-0.200000000000102
30
0
41
1
10
30.3741281864513
20
-0.200000000000102
30
0
41
1
10
30.3535187796219
20
-0.200000000000102
30
0
41
1
10
30.3278274782948
20
-0.200000000000102
30
0
41
1
10
30.2869063721835
20
-0.200000000000102
30
0
41
1
10
30.2361364000485
20
-0.200000000000102
30
0
41
1
10
30.1423387586931
20
-0.200000000000102
30
0
41
1
10
30.0701249635786
20
-0.200000000000074
30
0
41
1
10
30.0184894631398
20
-0.200000000000074
30
0
0
SPLINE
5
121
100
AcDbEntity
8
1
62
256
6
ByLayer
370
18
48
1
60
0
100
AcDbSpline
70
4
71
1
72
4
73
2
40
0
40
0
40
1
40
1
41
1
10
27.5572916889675
20
-8.53E-14
30
0
41
1
10
28.0627407528125
20
3.30999999999992
30
0
0
SPLINE
5
122
100
AcDbEntity
8
1
62
256
6
ByLayer
370
18
48
1
60
0
100
AcDbSpline
70
4
71
3
72
8
73
4
40
0
40
0
40
0
40
0
40
1
40
1
40
1
40
1
41
1
10
27.5572916889675
20
-8.53E-14
30
0
41
1
10
28.0368199247268
20
-0.0666666666667481
30
0
41
1
10
28.5163481604861
20
-0.133333333333411
30
0
41
1
10
28.9958763962453
20
-0.200000000000102
30
0
0
SPLINE
5
123
100
AcDbEntity
8
1
62
256
6
ByLayer
370
18
48
1
60
0
100
AcDbSpline
70
4
71
3
72
17
73
13
40
0
40
0
40
0
40
0
40
0.0625
40
0.125
40
0.25
40
0.375
40
0.5
40
0.625
40
0.75
40
0.875
40
0.9375
40
1
40
1
40
1
40
1
41
1
10
30.7137399227693
20
3.31000000000026
30
0
41
1
10
30.6910681610213
20
3.31000000000026
30
0
41
1
10
30.6444327295047
20
3.31000000000023
30
0
41
1
10
30.5469160801421
20
3.31000000000017
30
0
41
1
10
30.4188255186051
20
3.31000000000012
30
0
41
1
10
30.2610783447985
20
3.31000000000006
30
0
41
1
10
30.105347582711
20
3.31000000000003
30
0
41
1
10
29.95763745082
20
3.31
30
0
41
1
10
29.8236274064417
20
3.30999999999997
30
0
41
1
10
29.7276260003149
20
3.30999999999995
30
0
41
1
10
29.6624268023739
20
3.30999999999995
30
0
41
1
10
29.6340091474872
20
3.30999999999995
30
0
41
1
10
29.620919599739
20
3.30999999999995
30
0
0
SPLINE
5
124
100
AcDbEntity
8
1
62
256
6
ByLayer
370
18
48
1
60
0
100
AcDbSpline
70
4
71
3
72
8
73
4
40
0
40
0
40
0
40
0
40
1
40
1
40
1
40
1
41
1
10
36.1114297830818
20
3.30999999999992
30
0
41
1
10
35.2118148063664
20
3.30999999999992
30
0
41
1
10
34.3121998296573
20
3.30999999999992
30
0
41
1
10
33.4125848529251
20
3.30999999999989
30
0
0
SPLINE
5
125
100
AcDbEntity
8
1
62
256
6
ByLayer
370
18
48
1
60
0
100
AcDbSpline
70
4
71
1
72
4
73
2
40
0
40
0
40
1
40
1
41
1
10
33.7044060059975
20
-1.137E-13
30
0
41
1
10
33.4125848529251
20
3.30999999999989
30
0
0
SPLINE
5
126
100
AcDbEntity
8
1
62
256
6
ByLayer
370
18
48
1
60
0
100
AcDbSpline
70
4
71
3
72
10
73
6
40
0
40
0
40
0
40
0
40
0.249999999999984
40
0.624999999999992
40
1
40
1
40
1
40
1
41
1
10
33.9809583426374
20
-0.200000000000102
30
0
41
1
10
33.910219541372
20
-0.200000000000102
30
0
41
1
10
33.7180644584727
20
-0.200000000000102
30
0
41
1
10
33.3542832368336
20
-0.200000000000102
30
0
41
1
10
33.0393132562718
20
-0.200000000000102
30
0
41
1
10
32.873838738002
20
-0.200000000000102
30
0
0
SPLINE
5
127
100
AcDbEntity
8
1
62
256
6
ByLayer
370
18
48
1
60
0
100
AcDbSpline
70
4
71
3
72
17
73
13
40
0
40
0
40
0
40
0
40
0.0625
40
0.125
40
0.25
40
0.375
40
0.5
40
0.625
40
0.75
40
0.875
40
0.9375
40
1
40
1
40
1
40
1
41
1
10
29.4072916784439
20
-1.630567397E-07
30
0
41
1
10
29.4203816478043
20
-1.630567397E-07
30
0
41
1
10
29.4487895907994
20
-1.630567112E-07
30
0
41
1
10
29.5139656300589
20
-1.630566828E-07
30
0
41
1
10
29.6099633391282
20
-1.630566544E-07
30
0
41
1
10
29.7439999816965
20
-1.630565976E-07
30
0
41
1
10
29.8917218548363
20
-1.630565407E-07
30
0
41
1
10
30.0474518629412
20
-1.630564839E-07
30
0
41
1
10
30.2052062969795
20
-1.63056427E-07
30
0
41
1
10
30.3333005477567
20
-1.630563986E-07
30
0
41
1
10
30.4308084226321
20
-1.630563418E-07
30
0
41
1
10
30.4774395094697
20
-1.630563418E-07
30
0
41
1
10
30.5001120014715
20
-1.630563133E-07
30
0
0
SPLINE
5
128
100
AcDbEntity
8
1
62
256
6
ByLayer
370
18
48
1
60
0
100
AcDbSpline
70
4
71
3
72
8
73
4
40
0
40
0
40
0
40
0
40
1
40
1
40
1
40
1
41
1
10
29.4072916889695
20
-1.137E-13
30
0
41
1
10
29.6110242803596
20
-0.0666666666667766
30
0
41
1
10
29.8147568717498
20
-0.133333333333439
30
0
41
1
10
30.0184894631399
20
-0.200000000000102
30
0
0
SPLINE
5
129
100
AcDbEntity
8
1
62
256
6
ByLayer
370
18
48
1
60
0
100
AcDbSpline
70
4
71
3
72
8
73
4
40
0
40
0
40
0
40
0
40
1
40
1
40
1
40
1
41
1
10
33.4125848529251
20
3.30999999999989
30
0
41
1
10
32.5129698761933
20
3.30999999999989
30
0
41
1
10
31.6133548994848
20
3.30999999999989
30
0
41
1
10
30.71373992277
20
3.30999999999989
30
0
0
SPLINE
5
12A
100
AcDbEntity
8
1
62
256
6
ByLayer
370
18
48
1
60
0
100
AcDbSpline
70
4
71
3
72
8
73
4
40
0
40
0
40
0
40
0
40
1
40
1
40
1
40
1
41
1
10
25.7072916889657
20
-10.1835317966402
30
0
41
1
10
26.323958355633
20
-11.2516297946423
30
0
41
1
10
26.9406250222838
20
-12.3197277926156
30
0
41
1
10
27.5572916889675
20
-13.387825790646
30
0
0
SPLINE
5
12B
100
AcDbEntity
8
1
62
256
6
ByLayer
370
18
48
1
60
0
100
AcDbSpline
70
4
71
3
72
8
73
4
40
0
40
0
40
0
40
0
40
1
40
1
40
1
40
1
41
1
10
29.4072916889669
20
-16.5921197846467
30
0
41
1
10
29.4785009925573
20
-16.3263630456736
30
0
41
1
10
29.5497102961484
20
-16.0606063067014
30
0
41
1
10
29.6209195997395
20
-15.7948495677294
30
0
0
SPLINE
5
12C
100
AcDbEntity
8
1
62
256
6
ByLayer
370
18
48
1
60
0
100
AcDbSpline
70
4
71
3
72
8
73
4
40
0
40
0
40
0
40
0
40
1
40
1
40
1
40
1
41
1
10
28.0627407528125
20
-13.0960046375735
30
0
41
1
10
27.5433478038294
20
-12.1963896608418
30
0
41
1
10
27.0239548548597
20
-11.2967746841332
30
0
41
1
10
26.5045619058864
20
-10.3971597074183
30
0
0
SPLINE
5
12D
100
AcDbEntity
8
1
62
256
6
ByLayer
370
18
48
1
60
0
100
AcDbSpline
70
4
71
3
72
8
73
4
40
0
40
0
40
0
40
0
40
1
40
1
40
1
40
1
41
1
10
26.5045619058871
20
-10.3971597074188
30
0
41
1
10
26.238805166915
20
-10.3259504038288
30
0
41
1
10
25.973048427943
20
-10.2547411002388
30
0
41
1
10
25.7072916889703
20
-10.1835317966477
30
0
0
SPLINE
5
12E
100
AcDbEntity
8
1
62
256
6
ByLayer
370
18
48
1
60
0
100
AcDbSpline
70
4
71
3
72
17
73
13
40
0
40
0
40
0
40
0
40
0.0625
40
0.125
40
0.25
40
0.375
40
0.5
40
0.625
40
0.75
40
0.875
40
0.9375
40
1
40
1
40
1
40
1
41
1
10
36.9087000392749
20
-13.1849401181997
30
0
41
1
10
36.9313725312766
20
-13.1718501488393
30
0
41
1
10
36.9754309786721
20
-13.1434422058441
30
0
41
1
10
37.0575580018735
20
-13.0782661665846
30
0
41
1
10
37.1474738235037
20
-12.9822684575154
30
0
41
1
10
37.2308232068736
20
-12.8482318149471
30
0
41
1
10
37.2864218927037
20
-12.7005099418072
30
0
41
1
10
37.3121328005685
20
-12.5447799337024
30
0
41
1
10
37.306969691202
20
-12.3870254996641
30
0
41
1
10
37.2770981845267
20
-12.2589312488868
30
0
41
1
10
37.23856259392
20
-12.1614233740114
30
0
41
1
10
37.2146103316628
20
-12.1147922871739
30
0
41
1
10
37.2015203623024
20
-12.0921197951721
30
0
0
SPLINE
5
12F
100
AcDbEntity
8
1
62
256
6
ByLayer
370
18
48
1
60
0
100
AcDbSpline
70
4
71
3
72
8
73
4
40
0
40
0
40
0
40
0
40
1
40
1
40
1
40
1
41
1
10
29.6209195997395
20
-15.7948495677302
30
0
41
1
10
29.1015266507659
20
-14.8952345910148
30
0
41
1
10
28.5821337017959
20
-13.9956196143058
30
0
41
1
10
28.0627407528125
20
-13.0960046375735
30
0
0
SPLINE
5
130
100
AcDbEntity
8
1
62
256
6
ByLayer
370
18
48
1
60
0
100
AcDbSpline
70
4
71
3
72
8
73
4
40
0
40
0
40
0
40
0
40
1
40
1
40
1
40
1
41
1
10
30.5001120119918
20
-16.8849401076779
30
0
41
1
10
31.5682100099938
20
-16.2682734410105
30
0
41
1
10
32.6363080079672
20
-15.6516067743597
30
0
41
1
10
33.7044060059975
20
-15.034940107676
30
0
0
SPLINE
5
131
100
AcDbEntity
8
1
62
256
6
ByLayer
370
18
48
1
60
0
100
AcDbSpline
70
4
71
3
72
8
73
4
40
0
40
0
40
0
40
0
40
1
40
1
40
1
40
1
41
1
10
27.5572916889675
20
-13.387825790646
30
0
41
1
10
28.1739583556513
20
-14.4559237886764
30
0
41
1
10
28.7906250223021
20
-15.5240217866497
30
0
41
1
10
29.4072916889695
20
-16.5921197846517
30
0
0
SPLINE
5
132
100
AcDbEntity
8
1
62
256
6
ByLayer
370
18
48
1
60
0
100
AcDbSpline
70
4
71
3
72
8
73
4
40
0
40
0
40
0
40
0
40
1
40
1
40
1
40
1
41
1
10
36.9086999999982
20
-13.1849401076767
30
0
41
1
10
36.6429432610251
20
-13.1137308040862
30
0
41
1
10
36.377186522053
20
-13.0425215004951
30
0
41
1
10
36.1114297830809
20
-12.9713121969041
30
0
0
SPLINE
5
133
100
AcDbEntity
8
1
62
256
6
ByLayer
370
18
48
1
60
0
100
AcDbSpline
70
4
71
3
72
8
73
4
40
0
40
0
40
0
40
0
40
1
40
1
40
1
40
1
41
1
10
33.7044060059975
20
-15.034940107676
30
0
41
1
10
34.772504004028
20
-14.4182734409922
30
0
41
1
10
35.8406020020012
20
-13.8016067743414
30
0
41
1
10
36.9087000000033
20
-13.184940107674
30
0
0
SPLINE
5
134
100
AcDbEntity
8
1
62
256
6
ByLayer
370
18
48
1
60
0
100
AcDbSpline
70
4
71
3
72
8
73
4
40
0
40
0
40
0
40
0
40
1
40
1
40
1
40
1
41
1
10
30.7137399227704
20
-16.0876698907564
30
0
41
1
10
30.6425306191804
20
-16.3534266297285
30
0
41
1
10
30.5713213155904
20
-16.6191833687006
30
0
41
1
10
30.5001120119993
20
-16.8849401076732
30
0
0
SPLINE
5
135
100
AcDbEntity
8
1
62
256
6
ByLayer
370
18
48
1
60
0
100
AcDbSpline
70
4
71
1
72
4
73
2
40
0
40
0
40
1
40
1
41
1
10
27.5572916889675
20
-13.387825790646
30
0
41
1
10
28.0627407528125
20
-13.0960046375735
30
0
0
SPLINE
5
136
100
AcDbEntity
8
1
62
256
6
ByLayer
370
18
48
1
60
0
100
AcDbSpline
70
4
71
3
72
17
73
13
40
0
40
0
40
0
40
0
40
0.0625
40
0.125
40
0.25
40
0.375
40
0.5
40
0.625
40
0.75
40
0.875
40
0.9375
40
1
40
1
40
1
40
1
41
1
10
30.7137399227693
20
-16.0876698907575
30
0
41
1
10
30.6910681610213
20
-16.1007594385057
30
0
41
1
10
30.6444327295047
20
-16.1247002618966
30
0
41
1
10
30.5469160801421
20
-16.1632040312235
30
0
41
1
10
30.4188255186051
20
-16.1930625635466
30
0
41
1
10
30.2610783447985
20
-16.198264841832
30
0
41
1
10
30.1053475827109
20
-16.1725794223422
30
0
41
1
10
29.9576374508199
20
-16.1169584155346
30
0
41
1
10
29.8236274064417
20
-16.0335782460687
30
0
41
1
10
29.7276260003149
20
-15.9436758891298
30
0
41
1
10
29.6624268023739
20
-15.8615718224471
30
0
41
1
10
29.6340091474871
20
-15.8175213294771
30
0
41
1
10
29.620919599739
20
-15.7948495677292
30
0
0
SPLINE
5
137
100
AcDbEntity
8
1
62
256
6
ByLayer
370
18
48
1
60
0
100
AcDbSpline
70
4
71
3
72
8
73
4
40
0
40
0
40
0
40
0
40
1
40
1
40
1
40
1
41
1
10
36.1114297830818
20
-12.971312196904
30
0
41
1
10
35.2118148063664
20
-13.4907051458777
30
0
41
1
10
34.3121998296573
20
-14.0100980948477
30
0
41
1
10
33.412584852925
20
-14.529491043831
30
0
0
SPLINE
5
138
100
AcDbEntity
8
1
62
256
6
ByLayer
370
18
48
1
60
0
100
AcDbSpline
70
4
71
1
72
4
73
2
40
0
40
0
40
1
40
1
41
1
10
33.7044060059975
20
-15.034940107676
30
0
41
1
10
33.412584852925
20
-14.529491043831
30
0
0
SPLINE
5
139
100
AcDbEntity
8
1
62
256
6
ByLayer
370
18
48
1
60
0
100
AcDbSpline
70
4
71
3
72
17
73
13
40
0
40
0
40
0
40
0
40
0.0625
40
0.125
40
0.25
40
0.375
40
0.5
40
0.625
40
0.75
40
0.875
40
0.9375
40
1
40
1
40
1
40
1
41
1
10
29.4072916784439
20
-16.5921198239234
30
0
41
1
10
29.4203816478042
20
-16.6147923159251
30
0
41
1
10
29.4487895907994
20
-16.6588507633206
30
0
41
1
10
29.5139656300589
20
-16.7409777865219
30
0
41
1
10
29.6099633391281
20
-16.8308936081521
30
0
41
1
10
29.7439999816964
20
-16.9142429915221
30
0
41
1
10
29.8917218548363
20
-16.9698416773522
30
0
41
1
10
30.0474518629412
20
-16.995552585217
30
0
41
1
10
30.2052062969795
20
-16.9903894758504
30
0
41
1
10
30.3333005477567
20
-16.9605179691752
30
0
41
1
10
30.4308084226321
20
-16.9219823785684
30
0
41
1
10
30.4774395094697
20
-16.8980301163113
30
0
41
1
10
30.5001120014715
20
-16.8849401469508
30
0
0
SPLINE
5
13A
100
AcDbEntity
8
1
62
256
6
ByLayer
370
18
48
1
60
0
100
AcDbSpline
70
4
71
3
72
8
73
4
40
0
40
0
40
0
40
0
40
1
40
1
40
1
40
1
41
1
10
33.412584852925
20
-14.529491043831
30
0
41
1
10
32.5129698761933
20
-15.0488839928141
30
0
41
1
10
31.6133548994848
20
-15.5682769417838
30
0
41
1
10
30.7137399227699
20
-16.0876698907572
30
0
0
SPLINE
5
13B
100
AcDbEntity
8
1
62
256
6
ByLayer
370
18
48
1
60
0
100
AcDbSpline
70
4
71
3
72
8
73
4
40
0
40
0
40
0
40
0
40
1
40
1
40
1
40
1
41
1
10
30.6368237072282
20
11.9569291624817
30
0
41
1
10
30.6400634739846
20
11.9511028784216
30
0
41
1
10
30.6433037536973
20
11.945275671879
30
0
41
1
10
30.6465445724832
20
11.9394474958858
30
0
0
SPLINE
5
13C
100
AcDbEntity
8
1
62
256
6
ByLayer
370
18
48
1
60
0
100
AcDbSpline
70
4
71
3
72
8
73
4
40
0
40
0
40
0
40
0
40
1
40
1
40
1
40
1
41
1
10
32.5725614837176
20
11.4363211451468
30
0
41
1
10
32.5658958903337
20
11.4364285668634
30
0
41
1
10
32.5592292415783
20
11.4365360055882
30
0
41
1
10
32.5525614837175
20
11.4366434621871
30
0
0
SPLINE
5
13D
100
AcDbEntity
8
1
62
256
6
ByLayer
370
18
48
1
60
0
100
AcDbSpline
70
4
71
3
72
8
73
4
40
0
40
0
40
0
40
0
40
1
40
1
40
1
40
1
41
1
10
32.271988304767
20
10.3187224188102
30
0
41
1
10
32.2687485380105
20
10.3245487028702
30
0
41
1
10
32.2655082582978
20
10.3303759094128
30
0
41
1
10
32.262267439512
20
10.336204085406
30
0
0
SPLINE
5
13E
100
AcDbEntity
8
1
62
256
6
ByLayer
370
18
48
1
60
0
100
AcDbSpline
70
4
71
3
72
16
73
12
40
0
40
0
40
0
40
0
40
0.125
40
0.125
40
0.25
40
0.25
40
0.5
40
0.5
40
0.75
40
0.75
40
1
40
1
40
1
40
1
41
1
10
32.5725614837176
20
10.839330436145
30
0
41
1
10
32.5864317706765
20
10.8347096365003
30
0
41
1
10
32.6013648770006
20
10.8341546203935
30
0
41
1
10
32.6300858892266
20
10.8420581292975
30
0
41
1
10
32.6436736496486
20
10.8503794048213
30
0
41
1
10
32.6789646775808
20
10.8822307853635
30
0
41
1
10
32.6957996284244
20
10.9115393038674
30
0
41
1
10
32.7210712711363
20
10.972635770829
30
0
41
1
10
32.729604310356
20
11.0051432678867
30
0
41
1
10
32.7408078086994
20
11.0709438377813
30
0
41
1
10
32.7434560059976
20
11.1043835626834
30
0
41
1
10
32.7434560059976
20
11.1378257906459
30
0
0
SPLINE
5
13F
100
AcDbEntity
8
1
62
256
6
ByLayer
370
18
48
1
60
0
100
AcDbSpline
70
4
71
3
72
8
73
4
40
0
40
0
40
0
40
0
40
1
40
1
40
1
40
1
41
1
10
31.7549791849481
20
12.2554245169825
30
0
41
1
10
31.7515533583207
20
12.2497056546391
30
0
41
1
10
31.748126989278
20
12.2439858868213
30
0
41
1
10
31.7447000502032
20
12.238265167427
30
0
0
SPLINE
5
140
100
AcDbEntity
8
1
62
256
6
ByLayer
370
18
48
1
60
0
100
AcDbSpline
70
4
71
3
72
8
73
4
40
0
40
0
40
0
40
0
40
1
40
1
40
1
40
1
41
1
10
32.262267439512
20
11.9394474958858
30
0
41
1
10
32.2655082582978
20
11.945275671879
30
0
41
1
10
32.2687485380105
20
11.9511028784216
30
0
41
1
10
32.271988304767
20
11.9569291624817
30
0
0
SPLINE
5
141
100
AcDbEntity
8
1
62
256
6
ByLayer
370
18
48
1
60
0
100
AcDbSpline
70
4
71
3
72
8
73
4
40
0
40
0
40
0
40
0
40
1
40
1
40
1
40
1
41
1
10
32.5525614837175
20
10.8390081191047
30
0
41
1
10
32.5592292415783
20
10.8391155757037
30
0
41
1
10
32.5658958903337
20
10.8392230144284
30
0
41
1
10
32.5725614837176
20
10.839330436145
30
0
0
SPLINE
5
142
100
AcDbEntity
8
1
62
256
6
ByLayer
370
18
48
1
60
0
100
AcDbSpline
70
4
71
3
72
16
73
12
40
0
40
0
40
0
40
0
40
0.125
40
0.125
40
0.25
40
0.25
40
0.5
40
0.5
40
0.75
40
0.75
40
1
40
1
40
1
40
1
41
1
10
31.7549791849481
20
10.0202270643092
30
0
41
1
10
31.7579125985495
20
10.0059046436226
30
0
41
1
10
31.7648984936636
20
9.99269468613514
30
0
41
1
10
31.7861036392664
20
9.97177331437706
30
0
41
1
10
31.8001039554729
20
9.96416660643288
30
0
41
1
10
31.8453335741343
20
9.94952936998908
30
0
41
1
10
31.8791329711277
20
9.94960413413907
30
0
41
1
10
31.9446798849538
20
9.95826648303594
30
0
41
1
10
31.9770987228291
20
9.96713040282913
30
0
41
1
10
32.039685437113
20
9.99032817359972
30
0
41
1
10
32.0699691870229
20
10.0047546299163
30
0
41
1
10
32.0989310059975
20
10.0214757438976
30
0
0
SPLINE
5
143
100
AcDbEntity
8
1
62
256
6
ByLayer
370
18
48
1
60
0
100
AcDbSpline
70
4
71
3
72
18
73
14
40
0
40
0
40
0
40
0
40
0.25
40
0.25
40
0.5
40
0.5
40
0.625
40
0.625
40
0.75
40
0.75
40
0.875
40
0.875
40
1
40
1
40
1
40
1
41
1
10
32.0989310059975
20
10.0214757438976
30
0
41
1
10
32.1278790717965
20
10.0381889174791
30
0
41
1
10
32.1554830740213
20
10.0571766866757
30
0
41
1
10
32.2068771587265
20
10.0997802591806
30
0
41
1
10
32.2307075286393
20
10.1233517215931
30
0
41
1
10
32.2609773188268
20
10.1627414723202
30
0
41
1
10
32.2700729907675
20
10.1764788028231
30
0
41
1
10
32.2851711754742
20
10.205198639319
30
0
41
1
10
32.2912986419967
20
10.2204796633406
30
0
41
1
10
32.2979533884098
20
10.2514105346481
30
0
41
1
10
32.2984314233787
20
10.2672773804199
30
0
41
1
10
32.2908934970464
20
10.2963821135051
30
0
41
1
10
32.2829302320695
20
10.3090163146352
30
0
41
1
10
32.271988304767
20
10.3187224188102
30
0
0
SPLINE
5
144
100
AcDbEntity
8
1
62
256
6
ByLayer
370
18
48
1
60
0
100
AcDbSpline
70
4
71
3
72
8
73
4
40
0
40
0
40
0
40
0
40
1
40
1
40
1
40
1
41
1
10
31.164111961792
20
12.238265167427
30
0
41
1
10
31.1606850227171
20
12.2439858868213
30
0
41
1
10
31.1572586536744
20
12.2497056546391
30
0
41
1
10
31.153832827047
20
12.2554245169825
30
0
0
SPLINE
5
145
100
AcDbEntity
8
1
62
256
6
ByLayer
370
18
48
1
60
0
100
AcDbSpline
70
4
71
3
72
8
73
4
40
0
40
0
40
0
40
0
40
1
40
1
40
1
40
1
41
1
10
30.3362505282776
20
10.839330436145
30
0
41
1
10
30.3429161216615
20
10.8392230144284
30
0
41
1
10
30.3495827704168
20
10.8391155757037
30
0
41
1
10
30.3562505282776
20
10.8390081191047
30
0
0
SPLINE
5
146
100
AcDbEntity
8
1
62
256
6
ByLayer
370
18
48
1
60
0
100
AcDbSpline
70
4
71
3
72
18
73
14
40
0
40
0
40
0
40
0
40
0.25
40
0.25
40
0.5
40
0.5
40
0.625
40
0.625
40
0.75
40
0.75
40
0.875
40
0.875
40
1
40
1
40
1
40
1
41
1
10
32.7434560059976
20
11.1378257906459
30
0
41
1
10
32.7434560059976
20
11.171252137809
30
0
41
1
10
32.7408141166246
20
11.2046517895801
30
0
41
1
10
32.7296153828958
20
11.2704621587914
30
0
41
1
10
32.7211170825987
20
11.3028855957238
30
0
41
1
10
32.7021394529141
20
11.3487948783569
30
0
41
1
10
32.6947904116886
20
11.3635406265735
30
0
41
1
10
32.6774673960441
20
11.3909759563285
30
0
41
1
10
32.6672973743067
20
11.4039230100086
30
0
41
1
10
32.6438378271998
20
11.4251516251119
30
0
41
1
10
32.630335753168
20
11.4334990384247
30
0
41
1
10
32.6013613517797
20
11.4415233692717
30
0
41
1
10
32.5864381801561
20
11.4409440800696
30
0
41
1
10
32.5725614837176
20
11.4363211451468
30
0
0
SPLINE
5
147
100
AcDbEntity
8
1
62
256
6
ByLayer
370
18
48
1
60
0
100
AcDbSpline
70
4
71
3
72
18
73
14
40
0
40
0
40
0
40
0
40
0.125
40
0.125
40
0.249999999999999
40
0.249999999999999
40
0.5
40
0.5
40
0.75
40
0.75
40
0.875
40
0.875
40
1
40
1
40
1
40
1
41
1
10
32.5525614837175
20
11.4366434621871
30
0
41
1
10
32.5280017211642
20
11.4370392636859
30
0
41
1
10
32.5039466400963
20
11.4458722119722
30
0
41
1
10
32.4585342206222
20
11.4707760736077
30
0
41
1
10
32.4372355391551
20
11.4870206133193
30
0
41
1
10
32.3776807509685
20
11.5418858773683
30
0
41
1
10
32.3435197514948
20
11.5866385378765
30
0
41
1
10
32.2876598535936
20
11.6833848637204
30
0
41
1
10
32.265980270016
20
11.735358819141
30
0
41
1
10
32.2482445975579
20
11.814313800481
30
0
41
1
10
32.2448165327854
20
11.8408530428292
30
0
41
1
10
32.2459472080685
20
11.8927325141127
30
0
41
1
10
32.2503366629295
20
11.9179916014801
30
0
41
1
10
32.262267439512
20
11.9394474958858
30
0
0
SPLINE
5
148
100
AcDbEntity
8
1
62
256
6
ByLayer
370
18
48
1
60
0
100
AcDbSpline
70
4
71
3
72
16
73
12
40
0
40
0
40
0
40
0
40
0.125
40
0.125
40
0.25
40
0.25
40
0.5
40
0.5
40
0.75
40
0.75
40
1
40
1
40
1
40
1
41
1
10
32.271988304767
20
11.9569291624817
30
0
41
1
10
32.2829251781246
20
11.9666307835236
30
0
41
1
10
32.2908723893346
20
11.9792857249043
30
0
41
1
10
32.2983882559577
20
12.0081106055663
30
0
41
1
10
32.2979757001732
20
12.0240385890343
30
0
41
1
10
32.2880371094441
20
12.0705272060204
30
0
41
1
10
32.2710726632943
20
12.0997609603742
30
0
41
1
10
32.23079739218
20
12.152195078439
30
0
41
1
10
32.2069115935244
20
12.1758386557035
30
0
41
1
10
32.1555283775839
20
12.2184414548275
30
0
41
1
10
32.1278928249723
20
12.237454723413
30
0
41
1
10
32.0989310059975
20
12.2541758373942
30
0
0
SPLINE
5
149
100
AcDbEntity
8
1
62
256
6
ByLayer
370
18
48
1
60
0
100
AcDbSpline
70
4
71
3
72
18
73
14
40
0
40
0
40
0
40
0
40
0.25
40
0.25
40
0.5
40
0.5
40
0.625
40
0.625
40
0.75
40
0.75
40
0.875
40
0.875
40
1
40
1
40
1
40
1
41
1
10
32.0989310059975
20
12.2541758373942
30
0
41
1
10
32.0699829401987
20
12.2708890109757
30
0
41
1
10
32.0397370486008
20
12.2853008935503
30
0
41
1
10
31.977144230167
20
12.3085076902567
30
0
41
1
10
31.944815559957
20
12.3173596647766
30
0
41
1
10
31.8955681400848
20
12.3238791966826
30
0
41
1
10
31.8791234269188
20
12.3248876143962
30
0
41
1
10
31.8467022265675
20
12.3236031076554
30
0
41
1
10
31.8304047383077
20
12.3212691373139
30
0
41
1
10
31.8002904447876
20
12.3115668811097
30
0
41
1
10
31.7863103357869
20
12.3040474486507
30
0
41
1
10
31.7648738607309
20
12.2829670464125
30
0
41
1
10
31.7579139540842
20
12.2697535560804
30
0
41
1
10
31.7549791849481
20
12.2554245169825
30
0
0
SPLINE
5
14A
100
AcDbEntity
8
1
62
256
6
ByLayer
370
18
48
1
60
0
100
AcDbSpline
70
4
71
3
72
16
73
12
40
0
40
0
40
0
40
0
40
0.125
40
0.125
40
0.25
40
0.25
40
0.5
40
0.5
40
0.75
40
0.75
40
1
40
1
40
1
40
1
41
1
10
30.3362505282776
20
11.4363211451468
30
0
41
1
10
30.3223802413186
20
11.4409419447915
30
0
41
1
10
30.3074471349945
20
11.4414969608982
30
0
41
1
10
30.2787261227686
20
11.4335934519943
30
0
41
1
10
30.2651383623465
20
11.4252721764705
30
0
41
1
10
30.2298473344143
20
11.3934207959283
30
0
41
1
10
30.2130123835707
20
11.3641122774244
30
0
41
1
10
30.1877407408588
20
11.3030158104628
30
0
41
1
10
30.1792077016392
20
11.2705083134051
30
0
41
1
10
30.1680042032958
20
11.2047077435105
30
0
41
1
10
30.1653560059976
20
11.1712680186084
30
0
41
1
10
30.1653560059976
20
11.1378257906459
30
0
0
SPLINE
5
14B
100
AcDbEntity
8
1
62
256
6
ByLayer
370
18
48
1
60
0
100
AcDbSpline
70
4
71
3
72
18
73
14
40
0
40
0
40
0
40
0
40
0.25
40
0.25
40
0.5
40
0.5
40
0.625
40
0.625
40
0.75
40
0.75
40
0.875
40
0.875
40
1
40
1
40
1
40
1
41
1
10
30.1653560059976
20
11.1378257906459
30
0
41
1
10
30.1653560059976
20
11.1043994434829
30
0
41
1
10
30.1679978953706
20
11.0709997917117
30
0
41
1
10
30.1791966290993
20
11.0051894225004
30
0
41
1
10
30.1876949293964
20
10.972765985568
30
0
41
1
10
30.2066725590811
20
10.9268567029349
30
0
41
1
10
30.2140216003065
20
10.9121109547183
30
0
41
1
10
30.231344615951
20
10.8846756249633
30
0
41
1
10
30.2415146376884
20
10.8717285712832
30
0
41
1
10
30.2649741847953
20
10.8504999561799
30
0
41
1
10
30.2784762588271
20
10.842152542867
30
0
41
1
10
30.3074506602155
20
10.8341282120201
30
0
41
1
10
30.3223738318391
20
10.8347075012221
30
0
41
1
10
30.3362505282776
20
10.839330436145
30
0
0
SPLINE
5
14C
100
AcDbEntity
8
1
62
256
6
ByLayer
370
18
48
1
60
0
100
AcDbSpline
70
4
71
3
72
8
73
4
40
0
40
0
40
0
40
0
40
1
40
1
40
1
40
1
41
1
10
31.7447000502032
20
10.0373864138648
30
0
41
1
10
31.748126989278
20
10.0316656944706
30
0
41
1
10
31.7515533583207
20
10.0259459266527
30
0
41
1
10
31.7549791849481
20
10.0202270643092
30
0
0
SPLINE
5
14D
100
AcDbEntity
8
1
62
256
6
ByLayer
370
18
48
1
60
0
100
AcDbSpline
70
4
71
3
72
8
73
4
40
0
40
0
40
0
40
0
40
1
40
1
40
1
40
1
41
1
10
30.3562505282776
20
11.4366434621871
30
0
41
1
10
30.3495827704168
20
11.4365360055882
30
0
41
1
10
30.3429161216615
20
11.4364285668634
30
0
41
1
10
30.3362505282776
20
11.4363211451468
30
0
0
SPLINE
5
14E
100
AcDbEntity
8
1
62
256
6
ByLayer
370
18
48
1
60
0
100
AcDbSpline
70
4
71
3
72
18
73
14
40
0
40
0
40
0
40
0
40
0.125
40
0.125
40
0.250000000000001
40
0.250000000000001
40
0.500000000000001
40
0.500000000000001
40
0.75
40
0.75
40
0.875
40
0.875
40
1
40
1
40
1
40
1
41
1
10
31.7447000502032
20
12.238265167427
30
0
41
1
10
31.7320773947736
20
12.2171936898943
30
0
41
1
10
31.7124002966335
20
12.2007778527426
30
0
41
1
10
31.6681267100677
20
12.1739014746485
30
0
41
1
10
31.6434091852712
20
12.1635785452867
30
0
41
1
10
31.5661170787261
20
12.1394352178245
30
0
41
1
10
31.5102796381022
20
12.1322272547157
30
0
41
1
10
31.3985649132479
20
12.1322243270025
30
0
41
1
10
31.3427143557298
20
12.1394362345911
30
0
41
1
10
31.265469499905
20
12.1635541823591
30
0
41
1
10
31.240771809448
20
12.1738550123545
30
0
41
1
10
31.1964082070231
20
12.2007739415148
30
0
41
1
10
31.176727923117
20
12.2172048646169
30
0
41
1
10
31.164111961792
20
12.238265167427
30
0
0
SPLINE
5
14F
100
AcDbEntity
8
1
62
256
6
ByLayer
370
18
48
1
60
0
100
AcDbSpline
70
4
71
3
72
16
73
12
40
0
40
0
40
0
40
0
40
0.125
40
0.125
40
0.25
40
0.25
40
0.5
40
0.5
40
0.75
40
0.75
40
1
40
1
40
1
40
1
41
1
10
31.153832827047
20
12.2554245169825
30
0
41
1
10
31.1508994134456
20
12.2697469376692
30
0
41
1
10
31.1439135183315
20
12.2829568951566
30
0
41
1
10
31.1227083727287
20
12.3038782669148
30
0
41
1
10
31.1087080565222
20
12.3114849748589
30
0
41
1
10
31.0634784378609
20
12.3261222113027
30
0
41
1
10
31.0296790408675
20
12.3260474471527
30
0
41
1
10
30.9641321270413
20
12.3173850982559
30
0
41
1
10
30.931713289166
20
12.3085211784627
30
0
41
1
10
30.8691265748821
20
12.2853234076921
30
0
41
1
10
30.8388428249722
20
12.2708969513755
30
0
41
1
10
30.8098810059976
20
12.2541758373942
30
0
0
SPLINE
5
150
100
AcDbEntity
8
1
62
256
6
ByLayer
370
18
48
1
60
0
100
AcDbSpline
70
4
71
3
72
18
73
14
40
0
40
0
40
0
40
0
40
0.25
40
0.25
40
0.5
40
0.5
40
0.625
40
0.625
40
0.75
40
0.75
40
0.875
40
0.875
40
1
40
1
40
1
40
1
41
1
10
30.8098810059976
20
12.2541758373942
30
0
41
1
10
30.7809329401987
20
12.2374626638127
30
0
41
1
10
30.7533289379738
20
12.2184748946161
30
0
41
1
10
30.7019348532687
20
12.1758713221111
30
0
41
1
10
30.6781044833558
20
12.1522998596987
30
0
41
1
10
30.6478346931684
20
12.1129101089716
30
0
41
1
10
30.6387390212277
20
12.0991727784687
30
0
41
1
10
30.623640836521
20
12.0704529419729
30
0
41
1
10
30.6175133699985
20
12.0551719179512
30
0
41
1
10
30.6108586235853
20
12.0242410466437
30
0
41
1
10
30.6103805886164
20
12.0083742008719
30
0
41
1
10
30.6179185149488
20
11.9792694677867
30
0
41
1
10
30.6258817799257
20
11.9666352666566
30
0
41
1
10
30.6368237072282
20
11.9569291624817
30
0
0
SPLINE
5
151
100
AcDbEntity
8
1
62
256
6
ByLayer
370
18
48
1
60
0
100
AcDbSpline
70
4
71
3
72
18
73
14
40
0
40
0
40
0
40
0
40
0.125000000000001
40
0.125000000000001
40
0.250000000000001
40
0.250000000000001
40
0.5
40
0.5
40
0.75
40
0.75
40
0.875
40
0.875
40
1
40
1
40
1
40
1
41
1
10
32.262267439512
20
10.336204085406
30
0
41
1
10
32.2503303323881
20
10.3576713644375
30
0
41
1
10
32.2459523494604
20
10.3829201498755
30
0
41
1
10
32.2448135165521
20
10.4347003896051
30
0
41
1
10
32.2482323598816
20
10.4612678586785
30
0
41
1
10
32.2659696782399
20
10.5402764501897
30
0
41
1
10
32.2876461193902
20
10.5922370738067
30
0
41
1
10
32.3435009463432
20
10.6889863273639
30
0
41
1
10
32.3776719202838
20
10.7337483751958
30
0
41
1
10
32.4371811036505
20
10.7885854087677
30
0
41
1
10
32.458450729335
20
10.8048238211206
30
0
41
1
10
32.503945007043
20
10.8297843632438
30
0
41
1
10
32.5280147458101
20
10.8386125275091
30
0
41
1
10
32.5525614837175
20
10.8390081191047
30
0
0
SPLINE
5
152
100
AcDbEntity
8
1
62
256
6
ByLayer
370
18
48
1
60
0
100
AcDbSpline
70
4
71
3
72
18
73
14
40
0
40
0
40
0
40
0
40
0.125000000000001
40
0.125000000000001
40
0.250000000000001
40
0.250000000000001
40
0.500000000000001
40
0.500000000000001
40
0.75
40
0.75
40
0.875
40
0.875
40
1
40
1
40
1
40
1
41
1
10
30.6465445724832
20
11.9394474958858
30
0
41
1
10
30.658481679607
20
11.9179802168543
30
0
41
1
10
30.6628596625347
20
11.8927314314163
30
0
41
1
10
30.6639984954431
20
11.8409511916866
30
0
41
1
10
30.6605796521136
20
11.8143837226133
30
0
41
1
10
30.6428423337552
20
11.7353751311021
30
0
41
1
10
30.6211658926049
20
11.6834145074851
30
0
41
1
10
30.5653110656519
20
11.5866652539279
30
0
41
1
10
30.5311400917113
20
11.541903206096
30
0
41
1
10
30.4716309083447
20
11.4870661725241
30
0
41
1
10
30.4503612826601
20
11.4708277601712
30
0
41
1
10
30.4048670049522
20
11.4458672180479
30
0
41
1
10
30.3807972661851
20
11.4370390537827
30
0
41
1
10
30.3562505282776
20
11.4366434621871
30
0
0
SPLINE
5
153
100
AcDbEntity
8
1
62
256
6
ByLayer
370
18
48
1
60
0
100
AcDbSpline
70
4
71
3
72
16
73
12
40
0
40
0
40
0
40
0
40
0.124999999999999
40
0.124999999999999
40
0.249999999999998
40
0.249999999999998
40
0.499999999999998
40
0.499999999999998
40
0.749999999999999
40
0.749999999999999
40
1
40
1
40
1
40
1
41
1
10
31.153832827047
20
10.0202270643092
30
0
41
1
10
31.1508994134456
20
10.0059046436226
30
0
41
1
10
31.1439135183315
20
9.99269468613517
30
0
41
1
10
31.1227083727287
20
9.97177331437706
30
0
41
1
10
31.1087080565222
20
9.96416660643288
30
0
41
1
10
31.0634784378609
20
9.94952936998908
30
0
41
1
10
31.0296790408675
20
9.94960413413907
30
0
41
1
10
30.9641321270413
20
9.95826648303594
30
0
41
1
10
30.9317132891661
20
9.9671304028291
30
0
41
1
10
30.8691265748821
20
9.99032817359972
30
0
41
1
10
30.8388428249722
20
10.0047546299163
30
0
41
1
10
30.8098810059976
20
10.0214757438976
30
0
0
SPLINE
5
154
100
AcDbEntity
8
1
62
256
6
ByLayer
370
18
48
1
60
0
100
AcDbSpline
70
4
71
3
72
8
73
4
40
0
40
0
40
0
40
0
40
1
40
1
40
1
40
1
41
1
10
30.6368237072282
20
10.3187224188102
30
0
41
1
10
30.6400634739846
20
10.3245487028702
30
0
41
1
10
30.6433037536973
20
10.3303759094128
30
0
41
1
10
30.6465445724832
20
10.336204085406
30
0
0
SPLINE
5
155
100
AcDbEntity
8
1
62
256
6
ByLayer
370
18
48
1
60
0
100
AcDbSpline
70
4
71
3
72
16
73
12
40
0
40
0
40
0
40
0
40
0.25
40
0.25
40
0.5
40
0.5
40
0.749999999999999
40
0.749999999999999
40
0.875
40
0.875
40
1
40
1
40
1
40
1
41
1
10
30.8098810059976
20
10.0214757438976
30
0
41
1
10
30.7809226865286
20
10.0381948374382
30
0
41
1
10
30.7533093894472
20
10.0571900713426
30
0
41
1
10
30.7018997904576
20
10.0998121480534
30
0
41
1
10
30.6780634102531
20
10.1233942019328
30
0
41
1
10
30.637700072856
20
10.1759405351368
30
0
41
1
10
30.6208381073387
20
10.2048566002646
30
0
41
1
10
30.6108124073057
20
10.2517108883239
30
0
41
1
10
30.6104402539978
20
10.2675918851769
30
0
41
1
10
30.617914855947
20
10.2962832209175
30
0
41
1
10
30.6258908407732
20
10.3090243521159
30
0
41
1
10
30.6368237072282
20
10.3187224188102
30
0
0
SPLINE
5
156
100
AcDbEntity
8
1
62
256
6
ByLayer
370
18
48
1
60
0
100
AcDbSpline
70
4
71
3
72
18
73
14
40
0
40
0
40
0
40
0
40
0.125
40
0.125
40
0.25
40
0.25
40
0.499999999999999
40
0.499999999999999
40
0.749999999999999
40
0.749999999999999
40
0.874999999999999
40
0.874999999999999
40
1
40
1
40
1
40
1
41
1
10
31.7447000502032
20
10.0373864138648
30
0
41
1
10
31.732004194953
20
10.0585800866347
30
0
41
1
10
31.7120680103851
20
10.0751097133157
30
0
41
1
10
31.6679821288012
20
10.1018032323535
30
0
41
1
10
31.6431356727051
20
10.1121673843955
30
0
41
1
10
31.5662764621085
20
10.1361486846855
30
0
41
1
10
31.5107042126098
20
10.1433911563868
30
0
41
1
10
31.3988742469596
20
10.1434601883416
30
0
41
1
10
31.3429506104431
20
10.1362655405135
30
0
41
1
10
31.2656051363224
20
10.1121514760689
30
0
41
1
10
31.2408755259947
20
10.1018488637597
30
0
41
1
10
31.1964502395866
20
10.0749137476894
30
0
41
1
10
31.1767417369472
20
10.0584697766256
30
0
41
1
10
31.164111961792
20
10.0373864138648
30
0
0
SPLINE
5
157
100
AcDbEntity
8
1
62
256
6
ByLayer
370
18
48
1
60
0
100
AcDbSpline
70
4
71
3
72
8
73
4
40
0
40
0
40
0
40
0
40
1
40
1
40
1
40
1
41
1
10
31.164111961792
20
10.0373864138648
30
0
41
1
10
31.1606850227171
20
10.0316656944706
30
0
41
1
10
31.1572586536744
20
10.0259459266527
30
0
41
1
10
31.153832827047
20
10.0202270643092
30
0
0
SPLINE
5
158
100
AcDbEntity
8
1
62
256
6
ByLayer
370
18
48
1
60
0
100
AcDbSpline
70
4
71
3
72
20
73
16
40
0
40
0
40
0
40
0
40
0.125
40
0.125
40
0.25
40
0.25
40
0.5
40
0.5
40
0.625
40
0.625
40
0.75
40
0.75
40
0.875
40
0.875
40
1
40
1
40
1
40
1
41
1
10
30.6465445724832
20
10.336204085406
30
0
41
1
10
30.6584940643932
20
10.3576936368069
30
0
41
1
10
30.6628693623576
20
10.3829718370112
30
0
41
1
10
30.6639923137189
20
10.4348098752913
30
0
41
1
10
30.660558646108
20
10.4614322554061
30
0
41
1
10
30.6427229506652
20
10.5406656031503
30
0
41
1
10
30.6209582525225
20
10.5926983772411
30
0
41
1
10
30.5789530081624
20
10.6653047635734
30
0
41
1
10
30.5635576723194
20
10.688216794449
30
0
41
1
10
30.5298920182619
20
10.7314111142555
30
0
41
1
10
30.5114215903017
20
10.7519022499342
30
0
41
1
10
30.4717940804462
20
10.7884514302875
30
0
41
1
10
30.4506523874537
20
10.8046243991039
30
0
41
1
10
30.4051458284672
20
10.829670598492
30
0
41
1
10
30.3809055972192
20
10.8386107816622
30
0
41
1
10
30.3562505282776
20
10.8390081191047
30
0
0
SPLINE
5
159
100
AcDbEntity
8
1
62
256
6
ByLayer
370
18
48
1
60
0
100
AcDbSpline
70
4
71
3
72
10
73
6
40
0
40
0
40
0
40
0
40
0.375000000000405
40
0.750000000000811
40
1
40
1
40
1
40
1
41
1
10
30.0349732739834
20
8.67929618089366
30
0
41
1
10
30.2004477922519
20
8.58375942322562
30
0
41
1
10
30.5473705323689
20
8.42035935448615
30
0
41
1
10
31.0373238446599
20
8.28317565875622
30
0
41
1
10
31.3493372596057
20
8.24143511018434
30
0
41
1
10
31.4741419704715
20
8.23180901169189
30
0
0
SPLINE
5
15A
100
AcDbEntity
8
1
62
256
6
ByLayer
370
18
48
1
60
0
100
AcDbSpline
70
4
71
3
72
17
73
13
40
0
40
0
40
0
40
0
40
0.0625
40
0.125
40
0.25
40
0.375
40
0.5
40
0.625
40
0.75
40
0.875
40
0.9375
40
1
40
1
40
1
40
1
41
1
10
26.0001119727202
20
9.09071146309225
30
0
41
1
10
25.9774394807185
20
9.10380143245263
30
0
41
1
10
25.933381033323
20
9.13220937544776
30
0
41
1
10
25.8512540101216
20
9.19738541470724
30
0
41
1
10
25.7613381884914
20
9.29338312377652
30
0
41
1
10
25.6779888051215
20
9.4274197663448
30
0
41
1
10
25.6223901192914
20
9.57514163948466
30
0
41
1
10
25.5966792114266
20
9.73087164758957
30
0
41
1
10
25.6018423207931
20
9.88862608162788
30
0
41
1
10
25.6317138274684
20
10.0167203324051
30
0
41
1
10
25.6702494180751
20
10.1142282072805
30
0
41
1
10
25.6942016803323
20
10.1608592941181
30
0
41
1
10
25.7072916496927
20
10.1835317861198
30
0
0
SPLINE
5
15B
100
AcDbEntity
8
1
62
256
6
ByLayer
370
18
48
1
60
0
100
AcDbSpline
70
4
71
3
72
8
73
4
40
0
40
0
40
0
40
0
40
1
40
1
40
1
40
1
41
1
10
25.7072916889657
20
10.1835317966402
30
0
41
1
10
26.3239583556331
20
11.2516297946422
30
0
41
1
10
26.9406250222838
20
12.3197277926155
30
0
41
1
10
27.5572916889676
20
13.3878257906459
30
0
0
SPLINE
5
15C
100
AcDbEntity
8
1
62
256
6
ByLayer
370
18
48
1
60
0
100
AcDbSpline
70
4
71
3
72
8
73
4
40
0
40
0
40
0
40
0
40
1
40
1
40
1
40
1
41
1
10
30.5001120119952
20
16.8849401076759
30
0
41
1
10
30.8116313551708
20
15.9379075949839
30
0
41
1
10
31.1231506983464
20
14.990875082292
30
0
41
1
10
31.4346700415221
20
14.0438425696
30
0
0
SPLINE
5
15D
100
AcDbEntity
8
1
62
256
6
ByLayer
370
18
48
1
60
0
100
AcDbSpline
70
4
71
3
72
8
73
4
40
0
40
0
40
0
40
0
40
1
40
1
40
1
40
1
41
1
10
35.3515203230276
20
8.88782579064588
30
0
41
1
10
34.8719920872683
20
9.16468154664116
30
0
41
1
10
34.392463851509
20
9.44153730263648
30
0
41
1
10
33.9129356157498
20
9.71839305863176
30
0
0
SPLINE
5
15E
100
AcDbEntity
8
1
62
256
6
ByLayer
370
18
48
1
60
0
100
AcDbSpline
70
4
71
3
72
10
73
6
40
0
40
0
40
0
40
0
40
0.375000000000406
40
0.750000000000812
40
1
40
1
40
1
40
1
41
1
10
32.8738387380117
20
13.5963554003981
30
0
41
1
10
32.7083642197432
20
13.6918921580662
30
0
41
1
10
32.3614414796263
20
13.8552922268056
30
0
41
1
10
31.8714881673353
20
13.9924759225356
30
0
41
1
10
31.5594747523895
20
14.0342164711074
30
0
41
1
10
31.4346700415236
20
14.0438425695999
30
0
0
SPLINE
5
15F
100
AcDbEntity
8
1
62
256
6
ByLayer
370
18
48
1
60
0
100
AcDbSpline
70
4
71
3
72
10
73
6
40
0
40
0
40
0
40
0
40
0.249999999999985
40
0.624999999999992
40
1
40
1
40
1
40
1
41
1
10
28.9278536693578
20
9.70190924778817
30
0
41
1
10
28.9985924706231
20
9.59863824691075
30
0
41
1
10
29.1907475535224
20
9.34929697752685
30
0
41
1
10
29.5545287751615
20
8.9935768102867
30
0
41
1
10
29.8694987557233
20
8.77483293855462
30
0
41
1
10
30.0349732739932
20
8.67929618088803
30
0
0
SPLINE
5
160
100
AcDbEntity
8
1
62
256
6
ByLayer
370
18
48
1
60
0
100
AcDbSpline
70
4
71
3
72
8
73
4
40
0
40
0
40
0
40
0
40
1
40
1
40
1
40
1
41
1
10
36.9087000000033
20
13.184940107674
30
0
41
1
10
35.9327861142147
20
12.9812075162838
30
0
41
1
10
34.9568722284261
20
12.7774749248937
30
0
41
1
10
33.9809583426374
20
12.5737423335036
30
0
0
SPLINE
5
161
100
AcDbEntity
8
1
62
256
6
ByLayer
370
18
48
1
60
0
100
AcDbSpline
70
4
71
3
72
8
73
4
40
0
40
0
40
0
40
0
40
1
40
1
40
1
40
1
41
1
10
26.0001120119919
20
9.09071147361786
30
0
41
1
10
26.9760258977805
20
9.29444406500795
30
0
41
1
10
27.9519397835691
20
9.49817665639807
30
0
41
1
10
28.9278536693578
20
9.70190924778819
30
0
0
SPLINE
5
162
100
AcDbEntity
8
1
62
256
6
ByLayer
370
18
48
1
60
0
100
AcDbSpline
70
4
71
3
72
17
73
13
40
0
40
0
40
0
40
0
40
0.0625
40
0.125
40
0.25
40
0.375
40
0.5
40
0.625
40
0.75
40
0.875
40
0.9375
40
1
40
1
40
1
40
1
41
1
10
36.908700039275
20
13.1849401181996
30
0
41
1
10
36.9313725312767
20
13.1718501488392
30
0
41
1
10
36.9754309786721
20
13.143442205844
30
0
41
1
10
37.0575580018735
20
13.0782661665846
30
0
41
1
10
37.1474738235037
20
12.9822684575153
30
0
41
1
10
37.2308232068737
20
12.848231814947
30
0
41
1
10
37.2864218927037
20
12.7005099418072
30
0
41
1
10
37.3121328005686
20
12.5447799337022
30
0
41
1
10
37.306969691202
20
12.387025499664
30
0
41
1
10
37.2770981845267
20
12.2589312488867
30
0
41
1
10
37.2385625939201
20
12.1614233740113
30
0
41
1
10
37.2146103316629
20
12.1147922871737
30
0
41
1
10
37.2015203623024
20
12.092119795172
30
0
0
SPLINE
5
163
100
AcDbEntity
8
1
62
256
6
ByLayer
370
18
48
1
60
0
100
AcDbSpline
70
4
71
3
72
8
73
4
40
0
40
0
40
0
40
0
40
1
40
1
40
1
40
1
41
1
10
30.5001120119919
20
16.8849401076778
30
0
41
1
10
31.5682100099939
20
16.2682734410104
30
0
41
1
10
32.6363080079672
20
15.6516067743596
30
0
41
1
10
33.7044060059975
20
15.0349401076759
30
0
0
SPLINE
5
164
100
AcDbEntity
8
1
62
256
6
ByLayer
370
18
48
1
60
0
100
AcDbSpline
70
4
71
3
72
8
73
4
40
0
40
0
40
0
40
0
40
1
40
1
40
1
40
1
41
1
10
27.5572916889676
20
13.3878257906459
30
0
41
1
10
28.1739583556513
20
14.4559237886763
30
0
41
1
10
28.7906250223022
20
15.5240217866496
30
0
41
1
10
29.4072916889695
20
16.5921197846516
30
0
0
SPLINE
5
165
100
AcDbEntity
8
1
62
256
6
ByLayer
370
18
48
1
60
0
100
AcDbSpline
70
4
71
3
72
8
73
4
40
0
40
0
40
0
40
0
40
1
40
1
40
1
40
1
41
1
10
25.7072916889676
20
10.1835317966435
30
0
41
1
10
26.6543242016596
20
10.4950511398191
30
0
41
1
10
27.6013567143515
20
10.8065704829947
30
0
41
1
10
28.5483892270435
20
11.1180898261704
30
0
0
SPLINE
5
166
100
AcDbEntity
8
1
62
256
6
ByLayer
370
18
48
1
60
0
100
AcDbSpline
70
4
71
3
72
8
73
4
40
0
40
0
40
0
40
0
40
1
40
1
40
1
40
1
41
1
10
32.8738387380117
20
13.5963554003981
30
0
41
1
10
33.150694494007
20
14.0758836361574
30
0
41
1
10
33.4275502500023
20
14.5554118719166
30
0
41
1
10
33.7044060059975
20
15.0349401076759
30
0
0
SPLINE
5
167
100
AcDbEntity
8
1
62
256
6
ByLayer
370
18
48
1
60
0
100
AcDbSpline
70
4
71
3
72
8
73
4
40
0
40
0
40
0
40
0
40
1
40
1
40
1
40
1
41
1
10
33.7044060059975
20
15.0349401076759
30
0
41
1
10
34.772504004028
20
14.4182734409921
30
0
41
1
10
35.8406020020013
20
13.8016067743413
30
0
41
1
10
36.9087000000033
20
13.184940107674
30
0
0
SPLINE
5
168
100
AcDbEntity
8
1
62
256
6
ByLayer
370
18
48
1
60
0
100
AcDbSpline
70
4
71
3
72
10
73
6
40
0
40
0
40
0
40
0
40
0.375000000000406
40
0.750000000000812
40
1
40
1
40
1
40
1
41
1
10
28.9958763962453
20
12.55725852266
30
0
41
1
10
28.9003396385773
20
12.3917840043915
30
0
41
1
10
28.7369395698378
20
12.0448612642746
30
0
41
1
10
28.5997558741079
20
11.5549079519836
30
0
41
1
10
28.558015325536
20
11.2428945370378
30
0
41
1
10
28.5483892270436
20
11.118089826172
30
0
0
SPLINE
5
169
100
AcDbEntity
8
1
62
256
6
ByLayer
370
18
48
1
60
0
100
AcDbSpline
70
4
71
3
72
10
73
6
40
0
40
0
40
0
40
0
40
0.375000000000406
40
0.750000000000812
40
1
40
1
40
1
40
1
41
1
10
33.9129356157498
20
9.71839305863176
30
0
41
1
10
34.0084723734179
20
9.88386757690026
30
0
41
1
10
34.1718724421573
20
10.2307903170172
30
0
41
1
10
34.3090561378872
20
10.7207436293082
30
0
41
1
10
34.3507966864591
20
11.032757044254
30
0
41
1
10
34.3604227849516
20
11.1575617551198
30
0
0
SPLINE
5
16A
100
AcDbEntity
8
1
62
256
6
ByLayer
370
18
48
1
60
0
100
AcDbSpline
70
4
71
3
72
8
73
4
40
0
40
0
40
0
40
0
40
1
40
1
40
1
40
1
41
1
10
37.2015203230276
20
12.0921197846483
30
0
41
1
10
36.2544878103356
20
11.7806004414727
30
0
41
1
10
35.3074552976436
20
11.469081098297
30
0
41
1
10
34.3604227849517
20
11.1575617551214
30
0
0
SPLINE
5
16B
100
AcDbEntity
8
1
62
256
6
ByLayer
370
18
48
1
60
0
100
AcDbSpline
70
4
71
3
72
10
73
6
40
0
40
0
40
0
40
0
40
0.249999999999984
40
0.624999999999992
40
1
40
1
40
1
40
1
41
1
10
30.0184894631398
20
13.6643781272857
30
0
41
1
10
29.9152184622624
20
13.5936393260204
30
0
41
1
10
29.6658771928785
20
13.4014842431211
30
0
41
1
10
29.3101570256384
20
13.0377030214819
30
0
41
1
10
29.0914131539063
20
12.7227330409202
30
0
41
1
10
28.9958763962397
20
12.5572585226503
30
0
0
SPLINE
5
16C
100
AcDbEntity
8
1
62
256
6
ByLayer
370
18
48
1
60
0
100
AcDbSpline
70
4
71
3
72
29
73
25
40
0
40
0
40
0
40
0
40
0.125000000000944
40
0.171875000000893
40
0.218750000000841
40
0.242187500000815
40
0.265625000000789
40
0.277343750000776
40
0.289062500000763
40
0.312500000000737
40
0.359375000000686
40
0.406250000000634
40
0.50000000000053
40
0.593750000000427
40
0.640625000000375
40
0.687500000000323
40
0.710937500000298
40
0.722656250000285
40
0.734375000000272
40
0.757812500000246
40
0.78125000000022
40
0.828125000000168
40
0.875000000000116
40
1
40
1
40
1
40
1
41
1
10
31.4741419704715
20
8.23180901169187
30
0
41
1
10
31.5365443259052
20
8.22699596244559
30
0
41
1
10
31.6223473394316
20
8.22280837380382
30
0
41
1
10
31.7312718150692
20
8.22174093052305
30
0
41
1
10
31.7895111537997
20
8.22240738142526
30
0
41
1
10
31.8360221866183
20
8.22369012075725
30
0
41
1
10
31.8650497190185
20
8.22479556254146
30
0
41
1
10
31.8882381165656
20
8.22585089550674
30
0
41
1
10
31.9114553565317
20
8.22711071255537
30
0
41
1
10
31.9522238125212
20
8.22999712476405
30
0
41
1
10
32.0107406951305
20
8.23606035846464
30
0
41
1
10
32.1045501611925
20
8.25005152617388
30
0
41
1
10
32.2213167192031
20
8.27567599280297
30
0
41
1
10
32.3352517429359
20
8.31186787032604
30
0
41
1
10
32.4234886972399
20
8.34665590730651
30
0
41
1
10
32.4771974422553
20
8.37066341284554
30
0
41
1
10
32.5139471925068
20
8.38854791700123
30
0
41
1
10
32.5346838255438
20
8.39906550056017
30
0
41
1
10
32.5552932323732
20
8.40974575477594
30
0
41
1
10
32.5809845337004
20
8.42330218032507
30
0
41
1
10
32.6219056398116
20
8.44544681160318
30
0
41
1
10
32.6726756119466
20
8.47398931765093
30
0
41
1
10
32.766473253302
20
8.52937598846717
30
0
41
1
10
32.8386870484166
20
8.57590405337339
30
0
41
1
10
32.8903225488553
20
8.61127345400607
30
0
0
SPLINE
5
16D
100
AcDbEntity
8
1
62
256
6
ByLayer
370
18
48
1
60
0
100
AcDbSpline
70
4
71
3
72
29
73
25
40
0
40
0
40
0
40
0
40
0.125000000000946
40
0.171875000000894
40
0.218750000000842
40
0.242187500000817
40
0.265625000000791
40
0.277343750000778
40
0.289062500000765
40
0.312500000000739
40
0.359375000000687
40
0.406250000000635
40
0.500000000000532
40
0.593750000000428
40
0.640625000000376
40
0.687500000000324
40
0.710937500000298
40
0.722656250000285
40
0.734375000000272
40
0.757812500000247
40
0.781250000000221
40
0.828125000000169
40
0.875000000000117
40
1
40
1
40
1
40
1
41
1
10
28.5483892270436
20
11.118089826172
30
0
41
1
10
28.5435761777973
20
11.0556874707383
30
0
41
1
10
28.5393885891555
20
10.9698844572119
30
0
41
1
10
28.5383211458747
20
10.8609599815742
30
0
41
1
10
28.5389875967769
20
10.8027206428438
30
0
41
1
10
28.540270336109
20
10.7562096100252
30
0
41
1
10
28.5413757778932
20
10.727182077625
30
0
41
1
10
28.5424311108584
20
10.7039936800779
30
0
41
1
10
28.5436909279071
20
10.6807764401118
30
0
41
1
10
28.5465773401157
20
10.6400079841223
30
0
41
1
10
28.5526405738163
20
10.581491101513
30
0
41
1
10
28.5666317415256
20
10.487681635451
30
0
41
1
10
28.5922562081547
20
10.3709150774404
30
0
41
1
10
28.6284480856778
20
10.2569800537076
30
0
41
1
10
28.6632361226582
20
10.1687430994036
30
0
41
1
10
28.6872436281972
20
10.1150343543882
30
0
41
1
10
28.7051281323529
20
10.0782846041367
30
0
41
1
10
28.7156457159118
20
10.0575479710997
30
0
41
1
10
28.7263259701276
20
10.0369385642702
30
0
41
1
10
28.7398823956767
20
10.0112472629431
30
0
41
1
10
28.7620270269549
20
9.97032615683182
30
0
41
1
10
28.7905695330026
20
9.91955618469686
30
0
41
1
10
28.8459562038188
20
9.82575854334146
30
0
41
1
10
28.8924842687251
20
9.75354474822689
30
0
41
1
10
28.9278536693577
20
9.70190924778817
30
0
0
SPLINE
5
16E
100
AcDbEntity
8
1
62
256
6
ByLayer
370
18
48
1
60
0
100
AcDbSpline
70
4
71
3
72
29
73
25
40
0
40
0
40
0
40
0
40
0.125000000000945
40
0.171875000000894
40
0.218750000000842
40
0.242187500000816
40
0.26562500000079
40
0.277343750000777
40
0.289062500000764
40
0.312500000000738
40
0.359375000000687
40
0.406250000000635
40
0.500000000000531
40
0.593750000000427
40
0.640625000000376
40
0.687500000000324
40
0.710937500000298
40
0.722656250000285
40
0.734375000000272
40
0.757812500000246
40
0.78125000000022
40
0.828125000000168
40
0.875000000000117
40
1
40
1
40
1
40
1
41
1
10
31.4346700415236
20
14.0438425695999
30
0
41
1
10
31.3722676860899
20
14.0486556188462
30
0
41
1
10
31.2864646725636
20
14.052843207488
30
0
41
1
10
31.1775401969259
20
14.0539106507688
30
0
41
1
10
31.1193008581955
20
14.0532441998665
30
0
41
1
10
31.0727898253768
20
14.0519614605345
30
0
41
1
10
31.0437622929767
20
14.0508560187503
30
0
41
1
10
31.0205738954296
20
14.0498006857851
30
0
41
1
10
30.9973566554634
20
14.0485408687364
30
0
41
1
10
30.9565881994739
20
14.0456544565278
30
0
41
1
10
30.8980713168646
20
14.0395912228272
30
0
41
1
10
30.8042618508026
20
14.0256000551179
30
0
41
1
10
30.6874952927921
20
13.9999755884888
30
0
41
1
10
30.5735602690593
20
13.9637837109657
30
0
41
1
10
30.4853233147552
20
13.9289956739853
30
0
41
1
10
30.4316145697399
20
13.9049881684462
30
0
41
1
10
30.3948648194883
20
13.8871036642906
30
0
41
1
10
30.3741281864513
20
13.8765860807316
30
0
41
1
10
30.3535187796219
20
13.8659058265158
30
0
41
1
10
30.3278274782948
20
13.8523494009667
30
0
41
1
10
30.2869063721835
20
13.8302047696886
30
0
41
1
10
30.2361364000485
20
13.8016622636408
30
0
41
1
10
30.1423387586931
20
13.7462755928246
30
0
41
1
10
30.0701249635786
20
13.6997475279184
30
0
41
1
10
30.0184894631398
20
13.6643781272857
30
0
0
SPLINE
5
16F
100
AcDbEntity
8
1
62
256
6
ByLayer
370
18
48
1
60
0
100
AcDbSpline
70
4
71
3
72
8
73
4
40
0
40
0
40
0
40
0
40
1
40
1
40
1
40
1
41
1
10
27.5572916889676
20
13.3878257906459
30
0
41
1
10
28.0368199247268
20
13.1109700346506
30
0
41
1
10
28.5163481604861
20
12.8341142786553
30
0
41
1
10
28.9958763962453
20
12.55725852266
30
0
0
SPLINE
5
170
100
AcDbEntity
8
1
62
256
6
ByLayer
370
18
48
1
60
0
100
AcDbSpline
70
4
71
3
72
29
73
25
40
0
40
0
40
0
40
0
40
0.125000000000945
40
0.171875000000893
40
0.218750000000841
40
0.242187500000815
40
0.26562500000079
40
0.277343750000777
40
0.289062500000764
40
0.312500000000738
40
0.359375000000686
40
0.406250000000634
40
0.50000000000053
40
0.593750000000427
40
0.640625000000375
40
0.687500000000323
40
0.710937500000297
40
0.722656250000284
40
0.734375000000271
40
0.757812500000245
40
0.781250000000219
40
0.828125000000168
40
0.875000000000116
40
1
40
1
40
1
40
1
41
1
10
34.3604227849516
20
11.1575617551198
30
0
41
1
10
34.3652358341979
20
11.2199641105535
30
0
41
1
10
34.3694234228397
20
11.3057671240799
30
0
41
1
10
34.3704908661204
20
11.4146915997176
30
0
41
1
10
34.3698244152182
20
11.472930938448
30
0
41
1
10
34.3685416758862
20
11.5194419712666
30
0
41
1
10
34.367436234102
20
11.5484695036668
30
0
41
1
10
34.3663809011367
20
11.5716579012139
30
0
41
1
10
34.3651210840881
20
11.59487514118
30
0
41
1
10
34.3622346718794
20
11.6356435971695
30
0
41
1
10
34.3561714381788
20
11.6941604797788
30
0
41
1
10
34.3421802704696
20
11.7879699458408
30
0
41
1
10
34.3165558038405
20
11.9047365038514
30
0
41
1
10
34.2803639263174
20
12.0186715275842
30
0
41
1
10
34.245575889337
20
12.1069084818882
30
0
41
1
10
34.2215683837979
20
12.1606172269036
30
0
41
1
10
34.2036838796423
20
12.1973669771551
30
0
41
1
10
34.1931662960833
20
12.2181036101921
30
0
41
1
10
34.1824860418675
20
12.2387130170216
30
0
41
1
10
34.1689296163184
20
12.2644043183486
30
0
41
1
10
34.1467849850403
20
12.30532542446
30
0
41
1
10
34.1182424789926
20
12.3560953965949
30
0
41
1
10
34.0628558081763
20
12.4498930379503
30
0
41
1
10
34.0163277432701
20
12.5221068330649
30
0
41
1
10
33.9809583426374
20
12.5737423335036
30
0
0
SPLINE
5
171
100
AcDbEntity
8
1
62
256
6
ByLayer
370
18
48
1
60
0
100
AcDbSpline
70
4
71
3
72
10
73
6
40
0
40
0
40
0
40
0
40
0.249999999999984
40
0.624999999999992
40
1
40
1
40
1
40
1
41
1
10
33.9809583426374
20
12.5737423335036
30
0
41
1
10
33.910219541372
20
12.6770133343811
30
0
41
1
10
33.7180644584727
20
12.9263546037649
30
0
41
1
10
33.3542832368336
20
13.2820747710051
30
0
41
1
10
33.0393132562718
20
13.5008186427372
30
0
41
1
10
32.873838738002
20
13.5963554004038
30
0
0
SPLINE
5
172
100
AcDbEntity
8
1
62
256
6
ByLayer
370
18
48
1
60
0
100
AcDbSpline
70
4
71
3
72
10
73
6
40
0
40
0
40
0
40
0
40
0.249999999999985
40
0.624999999999992
40
1
40
1
40
1
40
1
41
1
10
32.8903225488553
20
8.61127345400607
30
0
41
1
10
32.9935935497327
20
8.68201225527142
30
0
41
1
10
33.2429348191166
20
8.87416733817076
30
0
41
1
10
33.5986549863568
20
9.23794855980989
30
0
41
1
10
33.8173988580888
20
9.55291854037165
30
0
41
1
10
33.9129356157554
20
9.71839305864151
30
0
0
SPLINE
5
173
100
AcDbEntity
8
1
62
256
6
ByLayer
370
18
48
1
60
0
100
AcDbSpline
70
4
71
3
72
17
73
13
40
0
40
0
40
0
40
0
40
0.0625
40
0.125
40
0.25
40
0.375
40
0.5
40
0.625
40
0.75
40
0.875
40
0.9375
40
1
40
1
40
1
40
1
41
1
10
29.4072916784439
20
16.5921198239233
30
0
41
1
10
29.4203816478043
20
16.614792315925
30
0
41
1
10
29.4487895907994
20
16.6588507633205
30
0
41
1
10
29.5139656300589
20
16.7409777865218
30
0
41
1
10
29.6099633391282
20
16.830893608152
30
0
41
1
10
29.7439999816965
20
16.914242991522
30
0
41
1
10
29.8917218548363
20
16.9698416773521
30
0
41
1
10
30.0474518629412
20
16.9955525852169
30
0
41
1
10
30.2052062969796
20
16.9903894758503
30
0
41
1
10
30.3333005477567
20
16.9605179691751
30
0
41
1
10
30.4308084226322
20
16.9219823785683
30
0
41
1
10
30.4774395094697
20
16.8980301163112
30
0
41
1
10
30.5001120014715
20
16.8849401469508
30
0
0
SPLINE
5
174
100
AcDbEntity
8
1
62
256
6
ByLayer
370
18
48
1
60
0
100
AcDbSpline
70
4
71
3
72
8
73
4
40
0
40
0
40
0
40
0
40
1
40
1
40
1
40
1
41
1
10
29.4072916889695
20
16.5921197846516
30
0
41
1
10
29.6110242803596
20
15.616205898863
30
0
41
1
10
29.8147568717498
20
14.6402920130743
30
0
41
1
10
30.0184894631399
20
13.6643781272857
30
0
0
SPLINE
5
175
100
AcDbEntity
8
1
62
256
6
ByLayer
370
18
48
1
60
0
100
AcDbSpline
70
4
71
3
72
8
73
4
40
0
40
0
40
0
40
0
40
1
40
1
40
1
40
1
41
1
10
37.2015203230295
20
12.0921197846516
30
0
41
1
10
36.5848536563621
20
11.0240217866496
30
0
41
1
10
35.9681869897113
20
9.95592378867627
30
0
41
1
10
35.3515203230276
20
8.88782579064591
30
0
0
SPLINE
5
176
100
AcDbEntity
8
1
62
256
6
ByLayer
370
18
48
1
60
0
100
AcDbSpline
70
4
71
3
72
16
73
12
40
0
40
0
40
0
40
0
40
0.0327483966208598
40
0.170927197103594
40
0.309105997586329
40
0.447284798069063
40
0.585463598551797
40
0.723642399034531
40
0.861821199517266
40
0.930910599758633
40
1
40
1
40
1
40
1
41
1
10
25.9011853122474
20
-9.15817354780094
30
0
41
1
10
25.8914849272742
20
-9.16591263707562
30
0
41
1
10
25.8417948711278
20
-9.20748436789162
30
0
41
1
10
25.7613381884914
20
-9.29338312377658
30
0
41
1
10
25.6779888051215
20
-9.42741976634485
30
0
41
1
10
25.6223901192914
20
-9.57514163948474
30
0
41
1
10
25.5966792114265
20
-9.73087164758962
30
0
41
1
10
25.6018423207931
20
-9.88862608162793
30
0
41
1
10
25.6317138274684
20
-10.0167203324051
30
0
41
1
10
25.6702494180751
20
-10.1142282072806
30
0
41
1
10
25.6942016803322
20
-10.1608592941181
30
0
41
1
10
25.7072916496927
20
-10.1835317861199
30
0
0
SPLINE
5
177
100
AcDbEntity
8
1
62
256
6
ByLayer
370
18
48
1
60
0
100
AcDbSpline
70
4
71
3
72
8
73
4
40
0
40
0
40
0
40
0
40
1
40
1
40
1
40
1
41
1
10
36.8586940594324
20
-1.42330029193855
30
0
41
1
10
36.9729694806298
20
-0.948866861292942
30
0
41
1
10
37.0872449018272
20
-0.474433430647338
30
0
41
1
10
37.2015203230247
20
-1.7621E-12
30
0
0
SPLINE
5
178
100
AcDbEntity
8
1
62
256
6
ByLayer
370
18
48
1
60
0
100
AcDbSpline
70
4
71
3
72
8
73
4
40
0
40
0
40
0
40
0
40
1
40
1
40
1
40
1
41
1
10
27.981467284599
20
7.94677547361783
30
0
41
1
10
27.3210155270608
20
8.32808747361932
30
0
41
1
10
26.6605637695318
20
8.70939947361543
30
0
41
1
10
26.0001120119919
20
9.09071147361786
30
0
0
SPLINE
5
179
100
AcDbEntity
8
1
62
256
6
ByLayer
370
18
48
1
60
0
100
AcDbSpline
70
4
71
3
72
8
73
4
40
0
40
0
40
0
40
0
40
1
40
1
40
1
40
1
41
1
10
31.7773768197297
20
7.30996172510018
30
0
41
1
10
31.6762985366441
20
7.61724415396404
30
0
41
1
10
31.5752202535586
20
7.92452658282789
30
0
41
1
10
31.4741419704731
20
8.23180901169178
30
0
0
SPLINE
5
17A
100
AcDbEntity
8
1
62
256
6
ByLayer
370
18
48
1
60
0
100
AcDbSpline
70
4
71
3
72
8
73
4
40
0
40
0
40
0
40
0
40
1
40
1
40
1
40
1
41
1
10
29.3773197739932
20
7.54020690511257
30
0
41
1
10
29.5965376073266
20
7.91990333037106
30
0
41
1
10
29.8157554406599
20
8.29959975562954
30
0
41
1
10
30.0349732739932
20
8.67929618088803
30
0
0
SPLINE
5
17B
100
AcDbEntity
8
1
62
256
6
ByLayer
370
18
48
1
60
0
100
AcDbSpline
70
4
71
3
72
8
73
4
40
0
40
0
40
0
40
0
40
1
40
1
40
1
40
1
41
1
10
35.3515203230276
20
8.88782579064588
30
0
41
1
10
35.1811276563587
20
8.59269703473834
30
0
41
1
10
35.0107349896924
20
8.29756827883512
30
0
41
1
10
34.8403423230276
20
8.00243952293445
30
0
0
SPLINE
5
17C
100
AcDbEntity
8
1
62
256
6
ByLayer
370
18
48
1
60
0
100
AcDbSpline
70
4
71
3
72
8
73
4
40
0
40
0
40
0
40
0
40
1
40
1
40
1
40
1
41
1
10
33.1340281006439
20
7.44388226533303
30
0
41
1
10
33.0527929167143
20
7.83301266155738
30
0
41
1
10
32.9715577327848
20
8.22214305778172
30
0
41
1
10
32.8903225488552
20
8.61127345400607
30
0
0
SPLINE
5
17D
100
AcDbEntity
8
1
62
256
6
ByLayer
370
18
48
1
60
0
100
AcDbSpline
70
4
71
3
72
11
73
7
40
0
40
0
40
0
40
0
40
0.195336590383295
40
0.39067318076659
40
0.78134636153318
40
1
40
1
40
1
40
1
41
1
10
26.5045619058861
20
3.31000000000029
30
0
41
1
10
26.4914723581379
20
3.31000000000026
30
0
41
1
10
26.467531534747
20
3.31000000000026
30
0
41
1
10
26.42902776542
20
3.3100000000002
30
0
41
1
10
26.4044281055426
20
3.31000000000014
30
0
41
1
10
26.3982178251147
20
3.31000000000014
30
0
41
1
10
26.3975959058861
20
3.31000000000014
30
0
0
SPLINE
5
17E
100
AcDbEntity
8
1
62
256
6
ByLayer
370
18
48
1
60
0
100
AcDbSpline
70
4
71
3
72
11
73
7
40
0
40
0
40
0
40
0
40
0.176754664629103
40
0.588377332314552
40
0.794188666157276
40
1
40
1
40
1
40
1
41
1
10
25.6009826496959
20
-1.63056427E-07
30
0
41
1
10
25.6020291747803
20
-1.63056427E-07
30
0
41
1
10
25.6086600805249
20
-1.630563702E-07
30
0
41
1
10
25.6317138274684
20
-1.630563702E-07
30
0
41
1
10
25.6702494180751
20
-1.630563133E-07
30
0
41
1
10
25.6942016803323
20
-1.630563133E-07
30
0
41
1
10
25.7072916496927
20
-1.630562849E-07
30
0
0
SPLINE
5
17F
100
AcDbEntity
8
1
62
256
6
ByLayer
370
18
48
1
60
0
100
AcDbSpline
70
4
71
3
72
14
73
10
40
0
40
0
40
0
40
0
40
0.0809188821488624
40
0.26473510571909
40
0.448551329289317
40
0.632367552859545
40
0.816183776429772
40
0.908091888214886
40
1
40
1
40
1
40
1
41
1
10
36.5112164376615
20
3.31000000000009
30
0
41
1
10
36.5117051550661
20
3.31000000000006
30
0
41
1
10
36.5100522967343
20
3.31000000000006
30
0
41
1
10
36.4891596376938
20
3.31000000000003
30
0
41
1
10
36.4335386308861
20
3.31
30
0
41
1
10
36.3501584614202
20
3.30999999999997
30
0
41
1
10
36.2602561044813
20
3.30999999999997
30
0
41
1
10
36.1781520377987
20
3.30999999999997
30
0
41
1
10
36.1341015448287
20
3.30999999999997
30
0
41
1
10
36.1114297830808
20
3.30999999999997
30
0
0
SPLINE
5
180
100
AcDbEntity
8
1
62
256
6
ByLayer
370
18
48
1
60
0
100
AcDbSpline
70
4
71
3
72
29
73
25
40
0
40
0
40
0
40
0
40
0.0006797725111316
40
0.0542147846980339
40
0.107749796884936
40
0.134517302978387
40
0.161284809071838
40
0.174668562118564
40
0.18805231516529
40
0.214819821258741
40
0.268354833445643
40
0.321889845632545
40
0.42895987000635
40
0.536029894380154
40
0.589564906567057
40
0.643099918753959
40
0.66986742484741
40
0.683251177894136
40
0.696634930940861
40
0.723402437034312
40
0.750169943127764
40
0.803704955314666
40
0.857239967501568
40
1
40
1
40
1
40
1
41
1
10
34.3695372396238
20
-0.200000000000102
30
0
41
1
10
34.3695433872757
20
-0.200000000000074
30
0
41
1
10
34.37003048598
20
-0.200000000000074
30
0
41
1
10
34.3704908661204
20
-0.200000000000074
30
0
41
1
10
34.3698244152182
20
-0.200000000000074
30
0
41
1
10
34.3685416758862
20
-0.200000000000074
30
0
41
1
10
34.367436234102
20
-0.200000000000074
30
0
41
1
10
34.3663809011367
20
-0.200000000000074
30
0
41
1
10
34.3651210840881
20
-0.200000000000074
30
0
41
1
10
34.3622346718794
20
-0.200000000000102
30
0
41
1
10
34.3561714381788
20
-0.200000000000102
30
0
41
1
10
34.3421802704696
20
-0.200000000000102
30
0
41
1
10
34.3165558038405
20
-0.200000000000102
30
0
41
1
10
34.2803639263174
20
-0.200000000000102
30
0
41
1
10
34.2455758893369
20
-0.200000000000102
30
0
41
1
10
34.2215683837979
20
-0.200000000000102
30
0
41
1
10
34.2036838796422
20
-0.200000000000102
30
0
41
1
10
34.1931662960833
20
-0.200000000000074
30
0
41
1
10
34.1824860418675
20
-0.200000000000074
30
0
41
1
10
34.1689296163184
20
-0.200000000000074
30
0
41
1
10
34.1467849850403
20
-0.200000000000074
30
0
41
1
10
34.1182424789925
20
-0.200000000000074
30
0
41
1
10
34.0628558081763
20
-0.200000000000074
30
0
41
1
10
34.01632774327
20
-0.200000000000074
30
0
41
1
10
33.9809583426374
20
-0.200000000000074
30
0
0
SPLINE
5
181
100
AcDbEntity
8
1
62
256
6
ByLayer
370
18
48
1
60
0
100
AcDbSpline
70
4
71
3
72
14
73
10
40
0
40
0
40
0
40
0
40
0.0897571869487952
40
0.17951437389759
40
0.359028747795181
40
0.538543121692771
40
0.718057495590361
40
0.897571869487952
40
1
40
1
40
1
40
1
41
1
10
36.9087000392749
20
-1.630567397E-07
30
0
41
1
10
36.9313725312766
20
-1.630567397E-07
30
0
41
1
10
36.9754309786721
20
-1.630567112E-07
30
0
41
1
10
37.0575580018735
20
-1.630566828E-07
30
0
41
1
10
37.1474738235037
20
-1.630566544E-07
30
0
41
1
10
37.2308232068737
20
-1.630565976E-07
30
0
41
1
10
37.2864218927037
20
-1.630565407E-07
30
0
41
1
10
37.3084525803197
20
-1.630564839E-07
30
0
41
1
10
37.3092199576969
20
-1.630564554E-07
30
0
41
1
10
37.3078294060518
20
-1.63056427E-07
30
0
0
SPLINE
5
182
100
AcDbEntity
8
1
62
256
6
ByLayer
370
18
48
1
60
0
100
AcDbSpline
70
4
71
3
72
8
73
4
40
0
40
0
40
0
40
0
40
1
40
1
40
1
40
1
41
1
10
36.7381444537856
20
-11.9679585946899
30
0
41
1
10
36.8926030768652
20
-12.0093456580078
30
0
41
1
10
37.0470616999448
20
-12.0507327213259
30
0
41
1
10
37.2015203230247
20
-12.0921197846442
30
0
0
SPLINE
5
183
100
AcDbEntity
8
1
62
256
6
ByLayer
370
18
48
1
60
0
100
AcDbSpline
70
4
71
3
72
8
73
4
40
0
40
0
40
0
40
0
40
1
40
1
40
1
40
1
41
1
10
37.2015203230294
20
-12.0921197846517
30
0
41
1
10
37.0872443230289
20
-11.8941879465652
30
0
41
1
10
36.972968323029
20
-11.6962561084796
30
0
41
1
10
36.8586923230294
20
-11.4983242703945
30
0
0
SPLINE
5
184
100
AcDbEntity
8
1
62
256
6
ByLayer
370
18
48
1
60
0
100
AcDbSpline
70
4
71
3
72
14
73
10
40
0
40
0
40
0
40
0
40
0.078483631881572
40
0.262786905505258
40
0.447090179128943
40
0.631393452752629
40
0.815696726376314
40
0.907848363188157
40
1
40
1
40
1
40
1
41
1
10
36.5112611390234
20
-12.2639668249818
30
0
41
1
10
36.5116710925179
20
-12.2862593347269
30
0
41
1
10
36.5099292069204
20
-12.3609582641856
30
0
41
1
10
36.4891596376937
20
-12.4868842139326
30
0
41
1
10
36.4335386308861
20
-12.6345943458236
30
0
41
1
10
36.3501584614202
20
-12.7686043902019
30
0
41
1
10
36.2602561044813
20
-12.8646057963286
30
0
41
1
10
36.1781520377987
20
-12.9298049942696
30
0
41
1
10
36.1341015448287
20
-12.9582226491564
30
0
41
1
10
36.1114297830808
20
-12.9713121969045
30
0
0
SPLINE
5
185
100
AcDbEntity
8
1
62
256
6
ByLayer
370
18
48
1
60
0
100
AcDbSpline
70
4
71
3
72
13
73
9
40
0
40
0
40
0
40
0
40
0.114903225620128
40
0.229806451240256
40
0.459612902480511
40
0.689419353720767
40
0.919225804961023
40
1
40
1
40
1
40
1
41
1
10
26.5045619058861
20
-10.3971597074177
30
0
41
1
10
26.4914723581379
20
-10.3744879456697
30
0
41
1
10
26.4675315347469
20
-10.3278525141532
30
0
41
1
10
26.42902776542
20
-10.2303358647905
30
0
41
1
10
26.399169233097
20
-10.1022453032535
30
0
41
1
10
26.3939669548115
20
-9.94449812944697
30
0
41
1
10
26.4140999394917
20
-9.82243179338485
30
0
41
1
10
26.4347841073652
20
-9.75471735111373
30
0
41
1
10
26.4407641788756
20
-9.7373127861236
30
0
0
SPLINE
5
186
100
AcDbEntity
8
1
62
256
6
ByLayer
370
13
48
1
60
0
100
AcDbSpline
70
4
71
3
72
8
73
4
40
0
40
0
40
0
40
0
40
1
40
1
40
1
40
1
41
1
10
25.7909621902994
20
2.97108496690271
30
0
41
1
10
25.8464439280452
20
2.99444536939481
30
0
41
1
10
25.9010035159831
20
3.01817957807683
30
0
41
1
10
25.9520001415482
20
3.04144843809473
30
0
0
SPLINE
5
187
100
AcDbEntity
8
1
62
256
6
ByLayer
370
13
48
1
60
0
100
AcDbSpline
70
4
71
3
72
8
73
4
40
0
40
0
40
0
40
0
40
1
40
1
40
1
40
1
41
1
10
26.673389308503
20
3.31000000000009
30
0
41
1
10
26.6621792561463
20
3.32994240129884
30
0
41
1
10
26.6510168648269
20
3.34988164335797
30
0
41
1
10
26.6399029407635
20
3.36981767273679
30
0
0
SPLINE
5
188
100
AcDbEntity
8
1
62
256
6
ByLayer
370
13
48
1
60
0
100
AcDbSpline
70
4
71
3
72
22
73
18
40
0
40
0
40
0
40
0
40
0.125
40
0.125
40
0.25
40
0.25
40
0.375
40
0.375
40
0.5
40
0.5
40
0.625
40
0.625
40
0.75
40
0.75
40
0.875
40
0.875
40
1
40
1
40
1
40
1
41
1
10
29.7014065584503
20
-15.5014044896704
30
0
41
1
10
29.7274665800146
20
-15.5465017520375
30
0
41
1
10
29.7579996681948
20
-15.5892976496294
30
0
41
1
10
29.825781683205
20
-15.6673431534294
30
0
41
1
10
29.8632817057013
20
-15.7030642299776
30
0
41
1
10
29.9458967753849
20
-15.7675398452829
30
0
41
1
10
29.9897901972932
20
-15.7953145611595
30
0
41
1
10
30.0820840363576
20
-15.8418776085852
30
0
41
1
10
30.1310795314257
20
-15.8608582067501
30
0
41
1
10
30.2315659738727
20
-15.8886155798388
30
0
41
1
10
30.2825393921611
20
-15.8973709972927
30
0
41
1
10
30.3859272995484
20
-15.9047708718925
30
0
41
1
10
30.4388038180443
20
-15.9032735584464
30
0
41
1
10
30.5416452342588
20
-15.8900293398166
30
0
41
1
10
30.592060978608
20
-15.8784001410872
30
0
41
1
10
30.690858096752
20
-15.8450057808275
30
0
41
1
10
30.738689451252
20
-15.8233107365594
30
0
41
1
10
30.7835001331342
20
-15.7974589225103
30
0
0
SPLINE
5
189
100
AcDbEntity
8
1
62
256
6
ByLayer
370
13
48
1
60
0
100
AcDbSpline
70
4
71
3
72
10
73
6
40
0
40
0
40
0
40
0
40
0.5
40
0.5
40
1
40
1
40
1
40
1
41
1
10
26.2693421810442
20
7.06831465973201
30
0
41
1
10
26.5752461789507
20
7.21601757355106
30
0
41
1
10
26.8890919721331
20
7.3702375157041
30
0
41
1
10
27.52706641127
20
7.69584180731172
30
0
41
1
10
27.8512342688481
20
7.86717583311284
30
0
41
1
10
28.178907365287
20
8.04805391913135
30
0
0
SPLINE
5
18A
100
AcDbEntity
8
1
62
256
6
ByLayer
370
13
48
1
60
0
100
AcDbSpline
70
4
71
3
72
8
73
4
40
0
40
0
40
0
40
0
40
1
40
1
40
1
40
1
41
1
10
28.1789073652874
20
-10.556235419646
30
0
41
1
10
28.1565775214889
20
-10.569127560974
30
0
41
1
10
28.13448011135
20
-10.5818855066662
30
0
41
1
10
28.1126212858815
20
-10.5945057054346
30
0
0
SPLINE
5
18B
100
AcDbEntity
8
1
62
256
6
ByLayer
370
13
48
1
60
0
100
AcDbSpline
70
4
71
3
72
10
73
6
40
0
40
0
40
0
40
0
40
0.5
40
0.5
40
1
40
1
40
1
40
1
41
1
10
36.8586999999999
20
-6.09632286325393
30
0
41
1
10
36.8587
20
-6.06258667486208
30
0
41
1
10
36.8498506379787
20
-6.02889290755138
30
0
41
1
10
36.8140670645287
20
-5.962374755056
30
0
41
1
10
36.7877376325964
20
-5.93054442208992
30
0
41
1
10
36.7531271909999
20
-5.90011630936803
30
0
0
SPLINE
5
18C
100
AcDbEntity
8
1
62
256
6
ByLayer
370
13
48
1
60
0
100
AcDbSpline
70
4
71
3
72
8
73
4
40
0
40
0
40
0
40
0
40
1
40
1
40
1
40
1
41
1
10
25.7399317968265
20
2.95055540850734
30
0
41
1
10
25.7571385812604
20
2.95717363813799
30
0
41
1
10
25.7741512140776
20
2.96400676086981
30
0
41
1
10
25.7909621902994
20
2.97108496690268
30
0
0
SPLINE
5
18D
100
AcDbEntity
8
1
62
256
6
ByLayer
370
13
48
1
60
0
100
AcDbSpline
70
4
71
3
72
14
73
10
40
0
40
0
40
0
40
0
40
0.25
40
0.25
40
0.5
40
0.5
40
0.75
40
0.75
40
1
40
1
40
1
40
1
41
1
10
33.069808206285
20
-10.0418735792748
30
0
41
1
10
33.0299261175815
20
-10.0105899039622
30
0
41
1
10
32.9879898231976
20
-9.9818622886732
30
0
41
1
10
32.899769942843
20
-9.92981641819094
30
0
41
1
10
32.8532350703558
20
-9.90637451793492
30
0
41
1
10
32.7562442106005
20
-9.86634576485139
30
0
41
1
10
32.7064165304469
20
-9.84992918550981
30
0
41
1
10
32.6034591206666
20
-9.82601334856579
30
0
41
1
10
32.5502504254188
20
-9.81839233056212
30
0
41
1
10
32.4969093258894
20
-9.81839233056212
30
0
0
SPLINE
5
18E
100
AcDbEntity
8
1
62
256
6
ByLayer
370
13
48
1
60
0
100
AcDbSpline
70
4
71
3
72
8
73
4
40
0
40
0
40
0
40
0
40
1
40
1
40
1
40
1
41
1
10
28.1994398988587
20
-11.1217312250511
30
0
41
1
10
28.6871411380761
20
-12.1094198168037
30
0
41
1
10
29.1900095498438
20
-13.0892339370417
30
0
41
1
10
29.7014065584503
20
-14.0646201922545
30
0
0
SPLINE
5
18F
100
AcDbEntity
8
1
62
256
6
ByLayer
370
13
48
1
60
0
100
AcDbSpline
70
4
71
3
72
8
73
4
40
0
40
0
40
0
40
0
40
1
40
1
40
1
40
1
41
1
10
36.3503830507821
20
7.63599690995846
30
0
41
1
10
35.637746432697
20
7.80922610096232
30
0
41
1
10
34.9248033451097
20
7.98222923067598
30
0
41
1
10
34.2116274663044
20
8.15506064645825
30
0
0
SPLINE
5
190
100
AcDbEntity
8
1
62
256
6
ByLayer
370
13
48
1
60
0
100
AcDbSpline
70
4
71
3
72
16
73
12
40
0
40
0
40
0
40
0
40
0.25
40
0.25
40
0.5
40
0.5
40
0.75
40
0.75
40
0.875
40
0.875
40
1
40
1
40
1
40
1
41
1
10
36.8586999999999
20
3.64085521032587
30
0
41
1
10
36.8586999999999
20
3.68817995131349
30
0
41
1
10
36.8544793322665
20
3.73230531113924
30
0
41
1
10
36.8355328619226
20
3.80829063444691
30
0
41
1
10
36.8207415087948
20
3.84112852813783
30
0
41
1
10
36.7790371306323
20
3.89394243918312
30
0
41
1
10
36.752996269139
20
3.91303691599248
30
0
41
1
10
36.7060857173152
20
3.93077988704533
30
0
41
1
10
36.6890931213553
20
3.93481429709132
30
0
41
1
10
36.6536643185935
20
3.93892563902463
30
0
41
1
10
36.6351000675175
20
3.93906373548737
30
0
41
1
10
36.6157645167424
20
3.93732107715104
30
0
0
SPLINE
5
191
100
AcDbEntity
8
1
62
256
6
ByLayer
370
13
48
1
60
0
100
AcDbSpline
70
4
71
3
72
8
73
4
40
0
40
0
40
0
40
0
40
1
40
1
40
1
40
1
41
1
10
25.952000141551
20
9.22339498380052
30
0
41
1
10
25.9644498201986
20
9.19492404382092
30
0
41
1
10
25.9790122993311
20
9.17046715696037
30
0
41
1
10
25.9956435304155
20
9.14991190621208
30
0
0
SPLINE
5
192
100
AcDbEntity
8
1
62
256
6
ByLayer
370
13
48
1
60
0
100
AcDbSpline
70
4
71
3
72
18
73
14
40
0
40
0
40
0
40
0
40
0.249999999999995
40
0.249999999999995
40
0.374999999999992
40
0.374999999999992
40
0.499999999999989
40
0.499999999999989
40
0.749999999999995
40
0.749999999999995
40
0.874999999999998
40
0.874999999999998
40
1
40
1
40
1
40
1
41
1
10
25.4084082634715
20
-6.38568057206919
30
0
41
1
10
25.4979735372533
20
-6.41761617917072
30
0
41
1
10
25.583874508752
20
-6.45870907628202
30
0
41
1
10
25.7079034555233
20
-6.53230729386294
30
0
41
1
10
25.7484285425191
20
-6.55886706721131
30
0
41
1
10
25.8278091251143
20
-6.6160918737919
30
0
41
1
10
25.8668363535832
20
-6.64693334316678
30
0
41
1
10
25.9784990041736
20
-6.74348696038155
30
0
41
1
10
26.0466451734158
20
-6.8136742335129
30
0
41
1
10
26.1390345014764
20
-6.9280690259165
30
0
41
1
10
26.168237169459
20
-6.96786697397926
30
0
41
1
10
26.2220687793395
20
-7.04925792574872
30
0
41
1
10
26.24683593514
20
-7.09099935260633
30
0
41
1
10
26.2693421810442
20
-7.13385103455244
30
0
0
SPLINE
5
193
100
AcDbEntity
8
1
62
256
6
ByLayer
370
13
48
1
60
0
100
AcDbSpline
70
4
71
3
72
8
73
4
40
0
40
0
40
0
40
0
40
1
40
1
40
1
40
1
41
1
10
28.1789073652865
20
8.04805391912791
30
0
41
1
10
28.1565667664939
20
7.96877564301329
30
0
41
1
10
28.1344695014243
20
7.88942490401129
30
0
41
1
10
28.1126212858815
20
7.81000000000009
30
0
0
SPLINE
5
194
100
AcDbEntity
8
1
62
256
6
ByLayer
370
13
48
1
60
0
100
AcDbSpline
70
4
71
3
72
16
73
12
40
0
40
0
40
0
40
0
40
0.125
40
0.125
40
0.25
40
0.25
40
0.5
40
0.5
40
0.75
40
0.75
40
1
40
1
40
1
40
1
41
1
10
35.3447893644246
20
3.31000000000006
30
0
41
1
10
35.3763820760369
20
3.35019431196233
30
0
41
1
10
35.4111442002333
20
3.38788331816181
30
0
41
1
10
35.4835853646853
20
3.45750956050597
30
0
41
1
10
35.5214200282738
20
3.48967128418232
30
0
41
1
10
35.6386647270359
20
3.58003523565179
30
0
41
1
10
35.7217589146165
20
3.63220879698636
30
0
41
1
10
35.8950572506131
20
3.72507573755257
30
0
41
1
10
35.9840362485322
20
3.76501638453462
30
0
41
1
10
36.1648880988631
20
3.83464494443879
30
0
41
1
10
36.256917667761
20
3.86436294708523
30
0
41
1
10
36.3503830507821
20
3.88967423078483
30
0
0
SPLINE
5
195
100
AcDbEntity
8
1
62
256
6
ByLayer
370
13
48
1
60
0
100
AcDbSpline
70
4
71
3
72
18
73
14
40
0
40
0
40
0
40
0
40
0.25
40
0.25
40
0.374999999999999
40
0.374999999999999
40
0.499999999999999
40
0.499999999999999
40
0.749999999999998
40
0.749999999999998
40
0.874999999999999
40
0.874999999999999
40
1
40
1
40
1
40
1
41
1
10
20.4734484748644
20
9.2588687734164
30
0
41
1
10
20.7455148903076
20
9.13336395346965
30
0
41
1
10
21.0543135760072
20
8.97643885845554
30
0
41
1
10
21.5758193503867
20
8.71368997841753
30
0
41
1
10
21.7593809471348
20
8.62149309843238
30
0
41
1
10
22.1465793113217
20
8.43072219091516
30
0
41
1
10
22.3512037676236
20
8.33170057552147
30
0
41
1
10
22.984097167141
20
8.03469963447151
30
0
41
1
10
23.4335706969545
20
7.83576221302394
30
0
41
1
10
24.1468050331569
20
7.54908690874916
30
0
41
1
10
24.3910677807646
20
7.45543892339848
30
0
41
1
10
24.8924195827076
20
7.27376464935472
30
0
41
1
10
25.1481952514048
20
7.18622164551715
30
0
41
1
10
25.4084082634715
20
7.10280711732449
30
0
0
SPLINE
5
196
100
AcDbEntity
8
1
62
256
6
ByLayer
370
13
48
1
60
0
100
AcDbSpline
70
4
71
3
72
8
73
4
40
0
40
0
40
0
40
0
40
1
40
1
40
1
40
1
41
1
10
35.964272809
20
-5.29442130109163
30
0
41
1
10
36.2249046959837
20
-5.79555268596064
30
0
41
1
10
36.4882696138191
20
-6.29553392229647
30
0
41
1
10
36.7531271910002
20
-6.79488699888947
30
0
0
SPLINE
5
197
100
AcDbEntity
8
1
62
256
6
ByLayer
370
13
48
1
60
0
100
AcDbSpline
70
4
71
3
72
8
73
4
40
0
40
0
40
0
40
0
40
1
40
1
40
1
40
1
41
1
10
24.9502188985355
20
-9.22942257430279
30
0
41
1
10
25.0009639066765
20
-9.21030175620362
30
0
41
1
10
25.0602775618467
20
-9.19226552691907
30
0
41
1
10
25.1249891785901
20
-9.17495426329597
30
0
0
SPLINE
5
198
100
AcDbEntity
8
1
62
256
6
ByLayer
370
13
48
1
60
0
100
AcDbSpline
70
4
71
3
72
36
73
32
40
0
40
0
40
0
40
0
40
0.124999999999996
40
0.124999999999996
40
0.249999999999992
40
0.249999999999992
40
0.312499999999992
40
0.312499999999992
40
0.374999999999992
40
0.374999999999992
40
0.437499999999993
40
0.437499999999993
40
0.499999999999993
40
0.499999999999993
40
0.562499999999993
40
0.562499999999993
40
0.624999999999993
40
0.624999999999993
40
0.656249999999993
40
0.656249999999993
40
0.687499999999993
40
0.687499999999993
40
0.749999999999995
40
0.749999999999995
40
0.812499999999996
40
0.812499999999996
40
0.874999999999997
40
0.874999999999997
40
0.937499999999999
40
0.937499999999999
40
1
40
1
40
1
40
1
41
1
10
22.6002736598345
20
0.500000000000142
30
0
41
1
10
22.4107963261671
20
0.500000000000142
30
0
41
1
10
22.2235616562284
20
0.485491891728998
30
0
41
1
10
21.8538203166418
20
0.425871841110308
30
0
41
1
10
21.6712985658909
20
0.380858344451639
30
0
41
1
10
21.401783856624
20
0.285667530632708
30
0
41
1
10
21.3133536112752
20
0.249462938291117
30
0
41
1
10
21.1421221356145
20
0.168485770232735
30
0
41
1
10
21.05893394165
20
0.123587859849948
30
0
41
1
10
20.897936795595
20
0.0240171738286961
30
0
41
1
10
20.8198490689755
20
-0.0308659297915028
30
0
41
1
10
20.6711487937454
20
-0.151100372782963
30
0
41
1
10
20.6015261037551
20
-0.215602924704001
30
0
41
1
10
20.4726376555093
20
-0.354201130768587
30
0
41
1
10
20.4133576881219
20
-0.428283688869101
30
0
41
1
10
20.3068610237957
20
-0.587607039348001
30
0
41
1
10
20.260973603189
20
-0.670965372513393
30
0
41
1
10
20.2043430078293
20
-0.800937625595765
30
0
41
1
10
20.1874761451551
20
-0.845133151713014
30
0
41
1
10
20.1579654326766
20
-0.935351347105893
30
0
41
1
10
20.1452696326713
20
-0.981652227381517
30
0
41
1
10
20.1144592981342
20
-1.12091713304696
30
0
41
1
10
20.1034234263037
20
-1.21428297470868
30
0
41
1
10
20.0998218687165
20
-1.4020046187967
30
0
41
1
10
20.1075198538485
20
-1.49734482649535
30
0
41
1
10
20.1404769040926
20
-1.68244137282161
30
0
41
1
10
20.1655088358818
20
-1.77253464299991
30
0
41
1
10
20.2311024534969
20
-1.94828321984772
30
0
41
1
10
20.271754264618
20
-2.03370791085118
30
0
41
1
10
20.3641820347857
20
-2.19510219226075
30
0
41
1
10
20.4162423445243
20
-2.27187939836489
30
0
41
1
10
20.4734484748644
20
-2.3452365234813
30
0
0
SPLINE
5
199
100
AcDbEntity
8
1
62
256
6
ByLayer
370
13
48
1
60
0
100
AcDbSpline
70
4
71
3
72
18
73
14
40
0
40
0
40
0
40
0
40
0.250000000000002
40
0.250000000000002
40
0.375000000000003
40
0.375000000000003
40
0.500000000000003
40
0.500000000000003
40
0.750000000000001
40
0.750000000000001
40
0.875000000000001
40
0.875000000000001
40
1
40
1
40
1
40
1
41
1
10
20.4734484748644
20
-2.3452365234813
30
0
41
1
10
20.7455148903076
20
-2.84072286214408
30
0
41
1
10
21.0543135760073
20
-3.29449396119586
30
0
41
1
10
21.5758193503867
20
-3.91780961837404
30
0
41
1
10
21.7593809471348
20
-4.11599680345168
30
0
41
1
10
22.1465793113217
20
-4.49382868742811
30
0
41
1
10
22.3512037676236
20
-4.67415024543476
30
0
41
1
10
22.984097167141
20
-5.17908349312256
30
0
41
1
10
23.4335706969545
20
-5.47076298536143
30
0
41
1
10
24.146805033157
20
-5.85350152517506
30
0
41
1
10
24.3910677807646
20
-5.9718980327271
30
0
41
1
10
24.8924195827076
20
-6.191888522867
30
0
41
1
10
25.1481952514165
20
-6.2928984014269
30
0
41
1
10
25.4084082634833
20
-6.38568057207365
30
0
0
SPLINE
5
19A
100
AcDbEntity
8
1
62
256
6
ByLayer
370
13
48
1
60
0
100
AcDbSpline
70
4
71
3
72
8
73
4
40
0
40
0
40
0
40
0
40
1
40
1
40
1
40
1
41
1
10
36.3503830507821
20
-10.5174949600327
30
0
41
1
10
35.6377455641162
20
-10.8889866117583
30
0
41
1
10
34.9248025515997
20
-11.2599929803034
30
0
41
1
10
34.2116274663044
20
-11.630630735142
30
0
0
SPLINE
5
19B
100
AcDbEntity
8
1
62
256
6
ByLayer
370
13
48
1
60
0
100
AcDbSpline
70
4
71
3
72
10
73
6
40
0
40
0
40
0
40
0
40
0.5
40
0.5
40
1
40
1
40
1
40
1
41
1
10
29.7014065584503
20
-15.5014044896704
30
0
41
1
10
29.1924946499412
20
-14.6207247172769
30
0
41
1
10
28.6849371882284
20
-13.7392421586977
30
0
41
1
10
27.6745951658401
20
-11.9736158199147
30
0
41
1
10
27.1717293876797
20
-11.0895098384711
30
0
41
1
10
26.673389308503
20
-10.2028657716778
30
0
0
SPLINE
5
19C
100
AcDbEntity
8
1
62
256
6
ByLayer
370
13
48
1
60
0
100
AcDbSpline
70
4
71
3
72
14
73
10
40
0
40
0
40
0
40
0
40
0.25
40
0.25
40
0.5
40
0.5
40
0.75
40
0.75
40
1
40
1
40
1
40
1
41
1
10
32.4969093258895
20
7.31000000000006
30
0
41
1
10
32.5504594854081
20
7.31000000000006
30
0
41
1
10
32.602911992133
20
7.31351363878969
30
0
41
1
10
32.7056918972567
20
7.32460845823283
30
0
41
1
10
32.7561239108644
20
7.3323545116898
30
0
41
1
10
32.8521311861784
20
7.35079792820008
30
0
41
1
10
32.8982054199929
20
7.36156607683981
30
0
41
1
10
32.9868820295233
20
7.38588511014115
30
0
41
1
10
33.0295821449928
20
7.39949738424414
30
0
41
1
10
33.0698082062851
20
7.4142110177288
30
0
0
SPLINE
5
19D
100
AcDbEntity
8
1
62
256
6
ByLayer
370
13
48
1
60
0
100
AcDbSpline
70
4
71
3
72
8
73
4
40
0
40
0
40
0
40
0
40
1
40
1
40
1
40
1
41
1
10
35.964272809
20
-5.20043766368639
30
0
41
1
10
36.2249032539886
20
-5.43411777330618
30
0
41
1
10
36.488268409631
20
-5.66726308695593
30
0
41
1
10
36.7531271909999
20
-5.90011630936809
30
0
0
SPLINE
5
19E
100
AcDbEntity
8
1
62
256
6
ByLayer
370
13
48
1
60
0
100
AcDbSpline
70
4
71
3
72
16
73
12
40
0
40
0
40
0
40
0
40
0.249999999999993
40
0.249999999999993
40
0.499999999999985
40
0.499999999999985
40
0.749999999999978
40
0.749999999999978
40
0.874999999999989
40
0.874999999999989
40
1
40
1
40
1
40
1
41
1
10
34.3089715451918
20
-11.799235625591
30
0
41
1
10
34.3261063508811
20
-11.8289139796227
30
0
41
1
10
34.3331494929494
20
-11.8636454886061
30
0
41
1
10
34.3263423000723
20
-11.9434994862583
30
0
41
1
10
34.3126448745722
20
-11.9865226235609
30
0
41
1
10
34.2626187755929
20
-12.0790731381982
30
0
41
1
10
34.2276184758615
20
-12.1260817367324
30
0
41
1
10
34.1590143615919
20
-12.1967572843294
30
0
41
1
10
34.1343044374489
20
-12.2194255301752
30
0
41
1
10
34.0812247303422
20
-12.2630327189461
30
0
41
1
10
34.0524018462794
20
-12.2842535443979
30
0
41
1
10
34.0228518290411
20
-12.3036617401709
30
0
0
SPLINE
5
19F
100
AcDbEntity
8
1
62
256
6
ByLayer
370
13
48
1
60
0
100
AcDbSpline
70
4
71
3
72
18
73
14
40
0
40
0
40
0
40
0
40
0.125000000000002
40
0.125000000000002
40
0.250000000000005
40
0.250000000000005
40
0.499999999999997
40
0.499999999999997
40
0.624999999999996
40
0.624999999999996
40
0.749999999999996
40
0.749999999999996
40
1
40
1
40
1
40
1
41
1
10
26.2693421810444
20
3.42115059990104
30
0
41
1
10
26.286369939674
20
3.43679632166135
30
0
41
1
10
26.3038548603309
20
3.45058429903193
30
0
41
1
10
26.3385711185391
20
3.47346906302275
30
0
41
1
10
26.3558412759702
20
3.48264136282131
30
0
41
1
10
26.4073947331003
20
3.50346639288261
30
0
41
1
10
26.4418547694301
20
3.50831451642887
30
0
41
1
10
26.4902322788299
20
3.50150773913288
30
0
41
1
10
26.5058975569302
20
3.49695668872414
30
0
41
1
10
26.5363219920191
20
3.48324883189321
30
0
41
1
10
26.5511628580721
20
3.47399691116755
30
0
41
1
10
26.5930902661915
20
3.44001193578436
30
0
41
1
10
26.6180310778785
20
3.40905116925467
30
0
41
1
10
26.6399029407635
20
3.36981767273679
30
0
0
SPLINE
5
1A0
100
AcDbEntity
8
1
62
256
6
ByLayer
370
13
48
1
60
0
100
AcDbSpline
70
4
71
3
72
32
73
28
40
0
40
0
40
0
40
0
40
0.125000000000001
40
0.125000000000001
40
0.187500000000001
40
0.187500000000001
40
0.250000000000001
40
0.250000000000001
40
0.312500000000001
40
0.312500000000001
40
0.375000000000001
40
0.375000000000001
40
0.4375
40
0.4375
40
0.5
40
0.5
40
0.625
40
0.625
40
0.6875
40
0.6875
40
0.75
40
0.75
40
0.875
40
0.875
40
0.9375
40
0.9375
40
1
40
1
40
1
40
1
41
1
10
23.3510235871592
20
-2.3452365234813
30
0
41
1
10
23.3341427182107
20
-2.46481564866687
30
0
41
1
10
23.3004557798064
20
-2.57381293323536
30
0
41
1
10
23.22453866087
20
-2.72075893189941
30
0
41
1
10
23.1951675020736
20
-2.76636077105701
30
0
41
1
10
23.1300352898442
20
-2.84896869109517
30
0
41
1
10
23.0941022830046
20
-2.88631893145313
30
0
41
1
10
23.0157180408809
20
-2.95312066807051
30
0
41
1
10
22.9731916529003
20
-2.98249296306253
30
0
41
1
10
22.8846254124189
20
-3.0316289474504
30
0
41
1
10
22.8382715639312
20
-3.05169207274497
30
0
41
1
10
22.7417211389989
20
-3.08308612730073
30
0
41
1
10
22.6912126508837
20
-3.09441347969803
30
0
41
1
10
22.5891258526889
20
-3.10792510527415
30
0
41
1
10
22.5373239391558
20
-3.11023616682064
30
0
41
1
10
22.3798941813417
20
-3.10440136139877
30
0
41
1
10
22.2715151914089
20
-3.08304042242762
30
0
41
1
10
22.1132617851936
20
-3.02793950566451
30
0
41
1
10
22.0609083126365
20
-3.00571960568357
30
0
41
1
10
21.9569945529782
20
-2.95359529487902
30
0
41
1
10
21.9052319959594
20
-2.92351209463465
30
0
41
1
10
21.7548292584578
20
-2.82391852950096
30
0
41
1
10
21.6598647011451
20
-2.74475113777942
30
0
41
1
10
21.5249801258249
20
-2.60689283771879
30
0
41
1
10
21.4814472686967
20
-2.5578272329121
30
0
41
1
10
21.3986576379186
20
-2.45522999334617
30
0
41
1
10
21.3591750574485
20
-2.4014758282714
30
0
41
1
10
21.3215846692644
20
-2.3452365234813
30
0
0
SPLINE
5
1A1
100
AcDbEntity
8
1
62
256
6
ByLayer
370
13
48
1
60
0
100
AcDbSpline
70
4
71
3
72
18
73
14
40
0
40
0
40
0
40
0
40
0.249999999999992
40
0.249999999999992
40
0.374999999999989
40
0.374999999999989
40
0.499999999999985
40
0.499999999999985
40
0.749999999999992
40
0.749999999999992
40
0.874999999999996
40
0.874999999999996
40
1
40
1
40
1
40
1
41
1
10
25.4084082634715
20
7.10280711732429
30
0
41
1
10
25.4979735372533
20
7.07409585113658
30
0
41
1
10
25.5838745087521
20
7.05262990853703
30
0
41
1
10
25.7079034555233
20
7.02971051768466
30
0
41
1
10
25.7484285425191
20
7.02364125888855
30
0
41
1
10
25.8278091251143
20
7.01461892879834
30
0
41
1
10
25.8668363535832
20
7.01167494568165
30
0
41
1
10
25.9784990041737
20
7.00769902085716
30
0
41
1
10
26.0466451734158
20
7.01130235413271
30
0
41
1
10
26.1390345014764
20
7.02586355527615
30
0
41
1
10
26.168237169459
20
7.0322960384693
30
0
41
1
10
26.2220687793395
20
7.04808280109356
30
0
41
1
10
26.24683593514
20
7.057447727224
30
0
41
1
10
26.2693421810442
20
7.06831465973201
30
0
0
SPLINE
5
1A2
100
AcDbEntity
8
1
62
256
6
ByLayer
370
13
48
1
60
0
100
AcDbSpline
70
4
71
3
72
10
73
6
40
0
40
0
40
0
40
0
40
0.5
40
0.5
40
1
40
1
40
1
40
1
41
1
10
26.2693421810442
20
-7.13385103455244
30
0
41
1
10
26.5752461789507
20
-7.71628938878271
30
0
41
1
10
26.8890919721332
20
-8.29209295729274
30
0
41
1
10
27.5270664112703
20
-9.43235766302337
30
0
41
1
10
27.8512342688485
20
-9.99681205861506
30
0
41
1
10
28.1789073652874
20
-10.556235419646
30
0
0
SPLINE
5
1A3
100
AcDbEntity
8
1
62
256
6
ByLayer
370
13
48
1
60
0
100
AcDbSpline
70
4
71
3
72
8
73
4
40
0
40
0
40
0
40
0
40
1
40
1
40
1
40
1
41
1
10
36.7531271909999
20
-0.499999999999886
30
0
41
1
10
36.4901063996082
20
-0.499999999999886
30
0
41
1
10
36.2271401562035
20
-0.499999999999886
30
0
41
1
10
35.964272809
20
-0.499999999999886
30
0
0
SPLINE
5
1A4
100
AcDbEntity
8
1
62
256
6
ByLayer
370
13
48
1
60
0
100
AcDbSpline
70
4
71
3
72
22
73
18
40
0
40
0
40
0
40
0
40
0.125
40
0.125
40
0.25
40
0.25
40
0.375
40
0.375
40
0.5
40
0.5
40
0.625
40
0.625
40
0.75
40
0.75
40
0.875
40
0.875
40
1
40
1
40
1
40
1
41
1
10
30.7835001331343
20
7.31000000000006
30
0
41
1
10
30.7390012925289
20
7.31000000000006
30
0
41
1
10
30.6909521675277
20
7.31000000000006
30
0
41
1
10
30.5909689993459
20
7.31000000000006
30
0
41
1
10
30.5397459357613
20
7.31000000000006
30
0
41
1
10
30.4348107024894
20
7.31000000000006
30
0
41
1
10
30.3806041029651
20
7.31000000000006
30
0
41
1
10
30.2750137651674
20
7.31000000000006
30
0
41
1
10
30.2230338474649
20
7.31000000000006
30
0
41
1
10
30.1207265420488
20
7.31000000000006
30
0
41
1
10
30.0721904889296
20
7.31000000000006
30
0
41
1
10
29.9801189132512
20
7.31000000000006
30
0
41
1
10
29.9362464295465
20
7.31000000000006
30
0
41
1
10
29.8565403219289
20
7.31000000000006
30
0
41
1
10
29.8203140740304
20
7.31000000000006
30
0
41
1
10
29.7547817260663
20
7.31000000000006
30
0
41
1
10
29.7260065499859
20
7.31000000000006
30
0
41
1
10
29.7014065584503
20
7.31000000000006
30
0
0
SPLINE
5
1A5
100
AcDbEntity
8
1
62
256
6
ByLayer
370
13
48
1
60
0
100
AcDbSpline
70
4
71
3
72
8
73
4
40
0
40
0
40
0
40
0
40
1
40
1
40
1
40
1
41
1
10
25.7399317968253
20
-9.14355037211951
30
0
41
1
10
25.7570816439068
20
-9.14775417096885
30
0
41
1
10
25.7740952700566
20
-9.15237953869004
30
0
41
1
10
25.7909621902993
20
-9.15741751649858
30
0
0
SPLINE
5
1A6
100
AcDbEntity
8
1
62
256
6
ByLayer
370
13
48
1
60
0
100
AcDbSpline
70
4
71
3
72
12
73
8
40
0
40
0
40
0
40
0
40
0.249999999999999
40
0.249999999999999
40
0.499999999999998
40
0.499999999999998
40
1
40
1
40
1
40
1
41
1
10
25.9520001415455
20
-9.22339498380359
30
0
41
1
10
25.9766858905006
20
-9.22751187347873
30
0
41
1
10
26.0028060559812
20
-9.23445707828719
30
0
41
1
10
26.0570386277217
20
-9.25529962597648
30
0
41
1
10
26.0850158724417
20
-9.26921318588759
30
0
41
1
10
26.1677578565163
20
-9.32212118903396
30
0
41
1
10
26.2230504516328
20
-9.37394053039898
30
0
41
1
10
26.2693421810444
20
-9.44185528828785
30
0
0
SPLINE
5
1A7
100
AcDbEntity
8
1
62
256
6
ByLayer
370
13
48
1
60
0
100
AcDbSpline
70
4
71
3
72
18
73
14
40
0
40
0
40
0
40
0
40
0.0624999999999956
40
0.0624999999999956
40
0.124999999999991
40
0.124999999999991
40
0.249999999999993
40
0.249999999999993
40
0.499999999999995
40
0.499999999999995
40
0.749999999999997
40
0.749999999999997
40
1
40
1
40
1
40
1
41
1
10
30.563677683716
20
7.31000000000006
30
0
41
1
10
30.5202145336626
20
7.31000000000006
30
0
41
1
10
30.4769970376201
20
7.31205700645137
30
0
41
1
10
30.3908150361337
20
7.31834746274475
30
0
41
1
10
30.3478577175175
20
7.32263931754036
30
0
41
1
10
30.2192602332901
20
7.33792513080712
30
0
41
1
10
30.1338898851741
20
7.35132755468956
30
0
41
1
10
29.8831854044666
20
7.39712200288099
30
0
41
1
10
29.7209797607181
20
7.43534098962135
30
0
41
1
10
29.4033147073448
20
7.52310674264456
30
0
41
1
10
29.2477824988216
20
7.57287698258622
30
0
41
1
10
28.9448606061048
20
7.6836452629573
30
0
41
1
10
28.7989556429012
20
7.74404756972129
30
0
41
1
10
28.6603351586845
20
7.81000000000009
30
0
0
SPLINE
5
1A8
100
AcDbEntity
8
1
62
256
6
ByLayer
370
13
48
1
60
0
100
AcDbSpline
70
4
71
3
72
12
73
8
40
0
40
0
40
0
40
0
40
0.500000000000006
40
0.500000000000006
40
0.750000000000003
40
0.750000000000003
40
1
40
1
40
1
40
1
41
1
10
35.8586999999999
20
-4.86273974531935
30
0
41
1
10
35.8586999999999
20
-4.93735249838019
30
0
41
1
10
35.8676156337738
20
-5.01162036528663
30
0
41
1
10
35.8939178476151
20
-5.11978544044683
30
0
41
1
10
35.9048583006288
20
-5.15544164537272
30
0
41
1
10
35.9312625800287
20
-5.22592387935481
30
0
41
1
10
35.9468077469054
20
-5.2608402575147
30
0
41
1
10
35.964272809
20
-5.29442130109163
30
0
0
SPLINE
5
1A9
100
AcDbEntity
8
1
62
256
6
ByLayer
370
13
48
1
60
0
100
AcDbSpline
70
4
71
3
72
18
73
14
40
0
40
0
40
0
40
0
40
0.249999999999995
40
0.249999999999995
40
0.374999999999995
40
0.374999999999995
40
0.499999999999994
40
0.499999999999994
40
0.749999999999992
40
0.749999999999992
40
0.874999999999996
40
0.874999999999996
40
1
40
1
40
1
40
1
41
1
10
36.3503830507821
20
7.63599690995846
30
0
41
1
10
36.4282944875419
20
7.61705803589933
30
0
41
1
10
36.4990926395517
20
7.59395017051398
30
0
41
1
10
36.5933186334404
20
7.55381037493888
30
0
41
1
10
36.6229940512529
20
7.5393642255095
30
0
41
1
10
36.6770360081771
20
7.50923008824455
30
0
41
1
10
36.7015074923116
20
7.49352684717394
30
0
41
1
10
36.7674770309361
20
7.44455940304098
30
0
41
1
10
36.8018076058406
20
7.40894202224109
30
0
41
1
10
36.8357861650521
20
7.35438587485081
30
0
41
1
10
36.8443132171233
20
7.33595819665155
30
0
41
1
10
36.8557736120947
20
7.29861864345557
30
0
41
1
10
36.8586999999999
20
7.27959641414503
30
0
41
1
10
36.8586999999999
20
7.26062037856147
30
0
0
SPLINE
5
1AA
100
AcDbEntity
8
1
62
256
6
ByLayer
370
13
48
1
60
0
100
AcDbSpline
70
4
71
3
72
22
73
18
40
0
40
0
40
0
40
0
40
0.125
40
0.125
40
0.25
40
0.25
40
0.375
40
0.375
40
0.5
40
0.5
40
0.625
40
0.625
40
0.75
40
0.75
40
0.875
40
0.875
40
1
40
1
40
1
40
1
41
1
10
30.7835001331342
20
-14.3902643620054
30
0
41
1
10
30.7388929954399
20
-14.41851526214
30
0
41
1
10
30.6917367401103
20
-14.4420903145133
30
0
41
1
10
30.5919267096424
20
-14.479156315909
30
0
41
1
10
30.5396739113543
20
-14.4923165691149
30
0
41
1
10
30.4349739197401
20
-14.506664723877
30
0
41
1
10
30.3814361307303
20
-14.5080655208292
30
0
41
1
10
30.274924314073
20
-14.4987977462087
30
0
41
1
10
30.2229972852438
20
-14.4883308181551
30
0
41
1
10
30.1216903004956
20
-14.4562167308321
30
0
41
1
10
30.0722155573153
20
-14.4343415809909
30
0
41
1
10
29.980183484911
20
-14.381619727823
30
0
41
1
10
29.9368231319698
20
-14.3504598827347
30
0
41
1
10
29.8564694660043
20
-14.2797432425393
30
0
41
1
10
29.8202717966431
20
-14.2409576518888
30
0
41
1
10
29.755147973515
20
-14.1571234832762
30
0
41
1
10
29.7260750616591
20
-14.111670367679
30
0
41
1
10
29.7014065584503
20
-14.0646201922545
30
0
0
SPLINE
5
1AB
100
AcDbEntity
8
1
62
256
6
ByLayer
370
13
48
1
60
0
100
AcDbSpline
70
4
71
3
72
8
73
4
40
0
40
0
40
0
40
0
40
1
40
1
40
1
40
1
41
1
10
28.1994398988587
20
7.31000000000009
30
0
41
1
10
28.6870781196593
20
7.31000000000006
30
0
41
1
10
29.1899547444649
20
7.31000000000006
30
0
41
1
10
29.7014065584504
20
7.31000000000006
30
0
0
SPLINE
5
1AC
100
AcDbEntity
8
1
62
256
6
ByLayer
370
13
48
1
60
0
100
AcDbSpline
70
4
71
3
72
10
73
6
40
0
40
0
40
0
40
0
40
0.5
40
0.5
40
1
40
1
40
1
40
1
41
1
10
36.6157645167425
20
3.9373210771478
30
0
41
1
10
36.5775475985424
20
3.93387669473199
30
0
41
1
10
36.5357088308405
20
3.92852537645311
30
0
41
1
10
36.4469897951557
20
3.91313529578591
30
0
41
1
10
36.3998853928128
20
3.90307991941987
30
0
41
1
10
36.3503830507821
20
3.88967423078483
30
0
0
SPLINE
5
1AD
100
AcDbEntity
8
1
62
256
6
ByLayer
370
13
48
1
60
0
100
AcDbSpline
70
4
71
3
72
8
73
4
40
0
40
0
40
0
40
0
40
1
40
1
40
1
40
1
41
1
10
25.9956435304154
20
2.9039766416966
30
0
41
1
10
25.9790122993309
20
2.95092844099361
30
0
41
1
10
25.9644498201981
20
2.99676486501161
30
0
41
1
10
25.9520001415503
20
3.04144843809328
30
0
0
SPLINE
5
1AE
100
AcDbEntity
8
1
62
256
6
ByLayer
370
13
48
1
60
0
100
AcDbSpline
70
4
71
3
72
56
73
52
40
0
40
0
40
0
40
0
40
0.0624999999999989
40
0.0624999999999989
40
0.124999999999998
40
0.124999999999998
40
0.156249999999997
40
0.156249999999997
40
0.187499999999997
40
0.187499999999997
40
0.218749999999996
40
0.218749999999996
40
0.249999999999996
40
0.249999999999996
40
0.312499999999997
40
0.312499999999997
40
0.343749999999998
40
0.343749999999998
40
0.375
40
0.375
40
0.406250000000001
40
0.406250000000001
40
0.437500000000003
40
0.437500000000003
40
0.500000000000003
40
0.500000000000003
40
0.562500000000003
40
0.562500000000003
40
0.625000000000003
40
0.625000000000003
40
0.687500000000003
40
0.687500000000003
40
0.718750000000003
40
0.718750000000003
40
0.750000000000003
40
0.750000000000003
40
0.781250000000002
40
0.781250000000002
40
0.812500000000002
40
0.812500000000002
40
0.843750000000002
40
0.843750000000002
40
0.875000000000001
40
0.875000000000001
40
0.906250000000001
40
0.906250000000001
40
0.937500000000001
40
0.937500000000001
40
0.96875
40
0.96875
40
1
40
1
40
1
40
1
41
1
10
21.3215846692644
20
-2.3452365234813
30
0
41
1
10
21.2374478572209
20
-2.23939131287858
30
0
41
1
10
21.1672066863977
20
-2.12453966260969
30
0
41
1
10
21.0629020897264
20
-1.87151056890451
30
0
41
1
10
21.031865210917
20
-1.74026685252096
30
0
41
1
10
21.0209702179892
20
-1.53624605754132
30
0
41
1
10
21.0235290490721
20
-1.46728981272014
30
0
41
1
10
21.0405355111727
20
-1.33318088724593
30
0
41
1
10
21.0549125023788
20
-1.26723514003359
30
0
41
1
10
21.0950405804651
20
-1.1375087680976
30
0
41
1
10
21.1206797704766
20
-1.07438909745437
30
0
41
1
10
21.1806379871901
20
-0.954349578571339
30
0
41
1
10
21.2151129311264
20
-0.896921884045042
30
0
41
1
10
21.330750168941
20
-0.731790242155938
30
0
41
1
10
21.4207738790077
20
-0.635532400484294
30
0
41
1
10
21.5691073147368
20
-0.507910181681808
30
0
41
1
10
21.621143456617
20
-0.467982454002623
30
0
41
1
10
21.7278074168388
20
-0.394491585788501
30
0
41
1
10
21.7823140614421
20
-0.360955609110619
30
0
41
1
10
21.8931402138299
20
-0.299807406568618
30
0
41
1
10
21.9494617343444
20
-0.272195817535135
30
0
41
1
10
22.0634705886741
20
-0.222815650510455
30
0
41
1
10
22.1213573558804
20
-0.201011404584193
30
0
41
1
10
22.292662259648
20
-0.145949352495649
30
0
41
1
10
22.4050107816449
20
-0.122160017831874
30
0
41
1
10
22.6196276705567
20
-0.105595531813805
30
0
41
1
10
22.7166447987036
20
-0.113274469743175
30
0
41
1
10
22.8885728593814
20
-0.165754700920644
30
0
41
1
10
22.9587873511197
20
-0.209126957584942
30
0
41
1
10
23.0773640976136
20
-0.33070882154226
30
0
41
1
10
23.1236089102434
20
-0.406538923339553
30
0
41
1
10
23.1815926853687
20
-0.542125073347279
30
0
41
1
10
23.1988044270127
20
-0.590681766742193
30
0
41
1
10
23.229610230623
20
-0.692889754652782
30
0
41
1
10
23.2432964831507
20
-0.746766368069984
30
0
41
1
10
23.2680358147465
20
-0.860246516716813
30
0
41
1
10
23.2791496766012
20
-0.920336593848674
30
0
41
1
10
23.2987163653814
20
-1.04321405923287
30
0
41
1
10
23.307233308034
20
-1.10617613547012
30
0
41
1
10
23.3222394101618
20
-1.23513689849986
30
0
41
1
10
23.3287260390012
20
-1.30113503137352
30
0
41
1
10
23.3399246093485
20
-1.4363213092945
30
0
41
1
10
23.3445292837266
20
-1.50429239629733
30
0
41
1
10
23.35193753893
20
-1.63940260100094
30
0
41
1
10
23.3547607951563
20
-1.70679504417467
30
0
41
1
10
23.3587417740912
20
-1.84124844157466
30
0
41
1
10
23.3598897929889
20
-1.90857047308867
30
0
41
1
10
23.3604343121052
20
-2.03916215691316
30
0
41
1
10
23.3598517366971
20
-2.10288271589283
30
0
41
1
10
23.3568540483452
20
-2.22727352225687
30
0
41
1
10
23.3544277798576
20
-2.28776863606387
30
0
41
1
10
23.3510235871588
20
-2.34523652348145
30
0
0
SPLINE
5
1AF
100
AcDbEntity
8
1
62
256
6
ByLayer
370
13
48
1
60
0
100
AcDbSpline
70
4
71
3
72
8
73
4
40
0
40
0
40
0
40
0
40
1
40
1
40
1
40
1
41
1
10
26.0116850042256
20
2.86222368109259
30
0
41
1
10
26.005957983426
20
2.87609476962569
30
0
41
1
10
26.0005883732678
20
2.89001680505072
30
0
41
1
10
25.9956435304154
20
2.9039766416966
30
0
0
SPLINE
5
1B0
100
AcDbEntity
8
1
62
256
6
ByLayer
370
13
48
1
60
0
100
AcDbSpline
70
4
71
3
72
12
73
8
40
0
40
0
40
0
40
0
40
0.499999999999988
40
0.499999999999988
40
0.749999999999994
40
0.749999999999994
40
1
40
1
40
1
40
1
41
1
10
31.4544060059975
20
-9.5455979140759
30
0
41
1
10
31.3232092992639
20
-9.55045211989577
30
0
41
1
10
31.1965638758515
20
-9.57325488307876
30
0
41
1
10
31.0129840387829
20
-9.63280738024463
30
0
41
1
10
30.9532497511173
20
-9.65689731207175
30
0
41
1
10
30.8393425540127
20
-9.7120235550718
30
0
41
1
10
30.7847348694127
20
-9.74319383181762
30
0
41
1
10
30.7324051738594
20
-9.7778980316285
30
0
0
SPLINE
5
1B1
100
AcDbEntity
8
1
62
256
6
ByLayer
370
13
48
1
60
0
100
AcDbSpline
70
4
71
3
72
8
73
4
40
0
40
0
40
0
40
0
40
1
40
1
40
1
40
1
41
1
10
28.6603351586845
20
-10.2782829535328
30
0
41
1
10
28.4989082112069
20
-10.3714828451135
30
0
41
1
10
28.3384358691412
20
-10.4641315950026
30
0
41
1
10
28.1789073652874
20
-10.556235419646
30
0
0
SPLINE
5
1B2
100
AcDbEntity
8
1
62
256
6
ByLayer
370
13
48
1
60
0
100
AcDbSpline
70
4
71
3
72
10
73
6
40
0
40
0
40
0
40
0
40
0.5
40
0.5
40
1
40
1
40
1
40
1
41
1
10
25.1249891785906
20
9.17495426329606
30
0
41
1
10
25.1659522672566
20
9.16399606347971
30
0
41
1
10
25.2102016731902
20
9.15416318007343
30
0
41
1
10
25.304826373366
20
9.13685518815305
30
0
41
1
10
25.3557909887198
20
9.12932023466928
30
0
41
1
10
25.4084082634715
20
9.12330650442448
30
0
0
SPLINE
5
1B3
100
AcDbEntity
8
1
62
256
6
ByLayer
370
13
48
1
60
0
100
AcDbSpline
70
4
71
3
72
8
73
4
40
0
40
0
40
0
40
0
40
1
40
1
40
1
40
1
41
1
10
35.3447893644245
20
-13.1549329779536
30
0
41
1
10
33.8262695457698
20
-14.0390917671198
30
0
41
1
10
32.3055239885569
20
-14.9193853017601
30
0
41
1
10
30.7835001331342
20
-15.7974589225103
30
0
0
SPLINE
5
1B4
100
AcDbEntity
8
1
62
256
6
ByLayer
370
13
48
1
60
0
100
AcDbSpline
70
4
71
3
72
8
73
4
40
0
40
0
40
0
40
0
40
1
40
1
40
1
40
1
41
1
10
25.7399317968265
20
9.14355037212007
30
0
41
1
10
25.7571341788296
20
9.14776704841617
30
0
41
1
10
25.774146954281
20
9.15239497624327
30
0
41
1
10
25.7909621902992
20
9.15741751649875
30
0
0
SPLINE
5
1B5
100
AcDbEntity
8
1
62
256
6
ByLayer
370
13
48
1
60
0
100
AcDbSpline
70
4
71
3
72
8
73
4
40
0
40
0
40
0
40
0
40
1
40
1
40
1
40
1
41
1
10
30.7835001331342
20
-14.3902643620054
30
0
41
1
10
31.8684633695521
20
-13.7031279612821
30
0
41
1
10
32.9490632506023
20
-13.0089167923456
30
0
41
1
10
34.0228518290411
20
-12.3036617401708
30
0
0
SPLINE
5
1B6
100
AcDbEntity
8
1
62
256
6
ByLayer
370
13
48
1
60
0
100
AcDbSpline
70
4
71
3
72
8
73
4
40
0
40
0
40
0
40
0
40
1
40
1
40
1
40
1
41
1
10
25.9956435304155
20
9.14991190621208
30
0
41
1
10
26.0005883732678
20
9.14380036316234
30
0
41
1
10
26.005957983426
20
9.13793009282176
30
0
41
1
10
26.0116850042257
20
9.13231995876541
30
0
0
SPLINE
5
1B7
100
AcDbEntity
8
1
62
256
6
ByLayer
370
13
48
1
60
0
100
AcDbSpline
70
4
71
3
72
10
73
6
40
0
40
0
40
0
40
0
40
0.5
40
0.5
40
1
40
1
40
1
40
1
41
1
10
25.4084082634715
20
9.12330650442448
30
0
41
1
10
25.4635834094713
20
9.11700043012047
30
0
41
1
10
25.5199720005058
20
9.11537254359283
30
0
41
1
10
25.631467980196
20
9.1221285054207
30
0
41
1
10
25.6862390177755
20
9.13038910941489
30
0
41
1
10
25.7399317968265
20
9.14355037212007
30
0
0
SPLINE
5
1B8
100
AcDbEntity
8
1
62
256
6
ByLayer
370
13
48
1
60
0
100
AcDbSpline
70
4
71
3
72
16
73
12
40
0
40
0
40
0
40
0
40
0.249999999999987
40
0.249999999999987
40
0.499999999999974
40
0.499999999999974
40
0.624999999999981
40
0.624999999999981
40
0.749999999999987
40
0.749999999999987
40
1
40
1
40
1
40
1
41
1
10
36.8586999999999
20
-11.5669091455974
30
0
41
1
10
36.8586999999999
20
-11.6064947530448
30
0
41
1
10
36.8546194058613
20
-11.6507429019141
30
0
41
1
10
36.8354499887854
20
-11.7465061794231
30
0
41
1
10
36.8207195155995
20
-11.7965393638589
30
0
41
1
10
36.7897856259435
20
-11.8745258141601
30
0
41
1
10
36.777867814362
20
-11.9012447881217
30
0
41
1
10
36.7516509093122
20
-11.9540136123561
30
0
41
1
10
36.7373265357363
20
-11.9801850459901
30
0
41
1
10
36.6907990499238
20
-12.0580857716096
30
0
41
1
10
36.6545765584868
20
-12.1096725124873
30
0
41
1
10
36.6157645167428
20
-12.1580787006428
30
0
0
SPLINE
5
1B9
100
AcDbEntity
8
1
62
256
6
ByLayer
370
13
48
1
60
0
100
AcDbSpline
70
4
71
3
72
18
73
14
40
0
40
0
40
0
40
0
40
0.125
40
0.125
40
0.25
40
0.25
40
0.500000000000006
40
0.500000000000006
40
0.625000000000004
40
0.625000000000004
40
0.750000000000002
40
0.750000000000002
40
1
40
1
40
1
40
1
41
1
10
28.1994398988587
20
-11.1217312250511
30
0
41
1
10
28.1845648964226
20
-11.0916064908348
30
0
41
1
10
28.1703752738354
20
-11.0605652309418
30
0
41
1
10
28.1447724736573
20
-10.999656657963
30
0
41
1
10
28.1332766575836
20
-10.9696792932133
30
0
41
1
10
28.1027138750429
20
-10.8811341128477
30
0
41
1
10
28.0882975963202
20
-10.8258731714606
30
0
41
1
10
28.0766660357174
20
-10.7533040007533
30
0
41
1
10
28.0744966361829
20
-10.7312179162016
30
0
41
1
10
28.0734288734543
20
-10.6910563397292
30
0
41
1
10
28.0745750099774
20
-10.6728592780734
30
0
41
1
10
28.0828418224188
20
-10.6262301531495
30
0
41
1
10
28.0947869127421
20
-10.6048023855674
30
0
41
1
10
28.1126212858815
20
-10.5945057054346
30
0
0
SPLINE
5
1BA
100
AcDbEntity
8
1
62
256
6
ByLayer
370
13
48
1
60
0
100
AcDbSpline
70
4
71
3
72
14
73
10
40
0
40
0
40
0
40
0
40
0.250000000000006
40
0.250000000000006
40
0.37500000000001
40
0.37500000000001
40
0.500000000000013
40
0.500000000000013
40
1
40
1
40
1
40
1
41
1
10
35.3447893644245
20
-13.1549329779536
30
0
41
1
10
35.408014965362
20
-13.09787986875
30
0
41
1
10
35.4809137841281
20
-13.0374257583815
30
0
41
1
10
35.5987113722815
20
-12.9438402687316
30
0
41
1
10
35.639518929113
20
-12.9120959420774
30
0
41
1
10
35.7223938231849
20
-12.8487107872624
30
0
41
1
10
35.76462197632
20
-12.8169417923351
30
0
41
1
10
35.9791016001886
20
-12.6578194827288
30
0
41
1
10
36.1610708436291
20
-12.529584649784
30
0
41
1
10
36.3503830507821
20
-12.401475050234
30
0
0
SPLINE
5
1BB
100
AcDbEntity
8
1
62
256
6
ByLayer
370
13
48
1
60
0
100
AcDbSpline
70
4
71
3
72
8
73
4
40
0
40
0
40
0
40
0
40
1
40
1
40
1
40
1
41
1
10
24.9502188985355
20
2.4585654881177
30
0
41
1
10
25.0009639066767
20
2.53034478830594
30
0
41
1
10
25.0602775618473
20
2.59478694621035
30
0
41
1
10
25.124989178591
20
2.65461853772712
30
0
0
SPLINE
5
1BC
100
AcDbEntity
8
1
62
256
6
ByLayer
370
13
48
1
60
0
100
AcDbSpline
70
4
71
3
72
10
73
6
40
0
40
0
40
0
40
0
40
0.5
40
0.5
40
1
40
1
40
1
40
1
41
1
10
36.7531271909999
20
-0.499999999999886
30
0
41
1
10
36.7879030924877
20
-0.499999999999886
30
0
41
1
10
36.8140889292015
20
-0.499999999999886
30
0
41
1
10
36.8495042437067
20
-0.499999999999886
30
0
41
1
10
36.8587110010999
20
-0.499999999999886
30
0
41
1
10
36.8586952495249
20
-0.499999999999886
30
0
0
SPLINE
5
1BD
100
AcDbEntity
8
1
62
256
6
ByLayer
370
13
48
1
60
0
100
AcDbSpline
70
4
71
3
72
8
73
4
40
0
40
0
40
0
40
0
40
1
40
1
40
1
40
1
41
1
10
36.615764516743
20
-12.1580787006424
30
0
41
1
10
36.5390639449129
20
-12.2537392777419
30
0
41
1
10
36.4495839674557
20
-12.3343447267266
30
0
41
1
10
36.3503830507821
20
-12.401475050234
30
0
0
SPLINE
5
1BE
100
AcDbEntity
8
1
62
256
6
ByLayer
370
13
48
1
60
0
100
AcDbSpline
70
4
71
3
72
18
73
14
40
0
40
0
40
0
40
0
40
0.25000000000002
40
0.25000000000002
40
0.375000000000017
40
0.375000000000017
40
0.500000000000013
40
0.500000000000013
40
0.62500000000001
40
0.62500000000001
40
0.750000000000006
40
0.750000000000006
40
1
40
1
40
1
40
1
41
1
10
36.3503830507821
20
-10.5174949600327
30
0
41
1
10
36.4280892446852
20
-10.4769874048416
30
0
41
1
10
36.4985116280578
20
-10.4278265907136
30
0
41
1
10
36.5933361676014
20
-10.3412440987636
30
0
41
1
10
36.6228850318279
20
-10.3103717063516
30
0
41
1
10
36.6767028917237
20
-10.2460649309531
30
0
41
1
10
36.701181180448
20
-10.2124451748176
30
0
41
1
10
36.7453050682407
20
-10.1422901752649
30
0
41
1
10
36.7650627854855
20
-10.1054856978903
30
0
41
1
10
36.798910737306
20
-10.0302607446255
30
0
41
1
10
36.8129946701784
20
-9.9919742998093
30
0
41
1
10
36.8469911360577
20
-9.87515589941046
30
0
41
1
10
36.8586999999999
20
-9.79371188622326
30
0
41
1
10
36.8586999999999
20
-9.7124973906551
30
0
0
SPLINE
5
1BF
100
AcDbEntity
8
1
62
256
6
ByLayer
370
13
48
1
60
0
100
AcDbSpline
70
4
71
3
72
10
73
6
40
0
40
0
40
0
40
0
40
0.5
40
0.5
40
1
40
1
40
1
40
1
41
1
10
35.964272809
20
-0.499999999999886
30
0
41
1
10
35.9294713097365
20
-0.499999999999886
30
0
41
1
10
35.9032983859512
20
-0.499999999999886
30
0
41
1
10
35.867781362927
20
-0.499999999999886
30
0
41
1
10
35.8586889988999
20
-0.499999999999886
30
0
41
1
10
35.8587047504749
20
-0.499999999999886
30
0
0
SPLINE
5
1C0
100
AcDbEntity
8
1
62
256
6
ByLayer
370
13
48
1
60
0
100
AcDbSpline
70
4
71
3
72
8
73
4
40
0
40
0
40
0
40
0
40
1
40
1
40
1
40
1
41
1
10
25.7909621902992
20
9.15741751649875
30
0
41
1
10
25.8462922843659
20
9.17394405377058
30
0
41
1
10
25.9005865846004
20
9.19606988925418
30
0
41
1
10
25.9520001415472
20
9.22339498380333
30
0
0
SPLINE
5
1C1
100
AcDbEntity
8
1
62
256
6
ByLayer
370
13
48
1
60
0
100
AcDbSpline
70
4
71
3
72
16
73
12
40
0
40
0
40
0
40
0
40
0.25000000000001
40
0.25000000000001
40
0.375000000000013
40
0.375000000000013
40
0.500000000000015
40
0.500000000000015
40
0.750000000000008
40
0.750000000000008
40
1
40
1
40
1
40
1
41
1
10
26.2693421810444
20
-9.44185528828785
30
0
41
1
10
26.3033027612357
20
-9.49167897409038
30
0
41
1
10
26.338707524464
20
-9.54692720425763
30
0
41
1
10
26.3903026542077
20
-9.63226478731062
30
0
41
1
10
26.4073507921355
20
-9.66126067946669
30
0
41
1
10
26.4411517966776
20
-9.72036373964622
30
0
41
1
10
26.4579852219882
20
-9.75063075961904
30
0
41
1
10
26.5065591749593
20
-9.84040695952442
30
0
41
1
10
26.5369846760017
20
-9.89992950760234
30
0
41
1
10
26.5932969677996
20
-10.0166991520579
30
0
41
1
10
26.6181526778107
20
-10.0717727345275
30
0
41
1
10
26.6399029407634
20
-10.1235548116102
30
0
0
SPLINE
5
1C2
100
AcDbEntity
8
1
62
256
6
ByLayer
370
13
48
1
60
0
100
AcDbSpline
70
4
71
3
72
18
73
14
40
0
40
0
40
0
40
0
40
0.25
40
0.25
40
0.5
40
0.5
40
0.75
40
0.75
40
0.875
40
0.875
40
0.9375
40
0.9375
40
1
40
1
40
1
40
1
41
1
10
28.6603351586949
20
-10.2782829535276
30
0
41
1
10
28.7990690064801
20
-10.1981849291634
30
0
41
1
10
28.9444556388597
20
-10.1287825662254
30
0
41
1
10
29.245147564078
20
-10.0045827677331
30
0
41
1
10
29.4006717107066
20
-9.94984587751455
30
0
41
1
10
29.7211403535309
20
-9.8549237583857
30
0
41
1
10
29.884249185174
20
-9.81492232426183
30
0
41
1
10
30.1350530511981
20
-9.77172150794971
30
0
41
1
10
30.2201333149391
20
-9.76009278984603
30
0
41
1
10
30.3484593188377
20
-9.75040544183864
30
0
41
1
10
30.3913174472353
20
-9.74848148371856
30
0
41
1
10
30.4772741178587
20
-9.74870842934988
30
0
41
1
10
30.5203663622916
20
-9.75073580505668
30
0
41
1
10
30.5636776837159
20
-9.75673790353554
30
0
0
SPLINE
5
1C3
100
AcDbEntity
8
1
62
256
6
ByLayer
370
13
48
1
60
0
100
AcDbSpline
70
4
71
3
72
38
73
34
40
0
40
0
40
0
40
0
40
0.062500000000003
40
0.062500000000003
40
0.125000000000006
40
0.125000000000006
40
0.250000000000007
40
0.250000000000007
40
0.312500000000008
40
0.312500000000008
40
0.375000000000009
40
0.375000000000009
40
0.437500000000009
40
0.437500000000009
40
0.50000000000001
40
0.50000000000001
40
0.562500000000011
40
0.562500000000011
40
0.625000000000012
40
0.625000000000012
40
0.656250000000011
40
0.656250000000011
40
0.687500000000011
40
0.687500000000011
40
0.750000000000008
40
0.750000000000008
40
0.812500000000006
40
0.812500000000006
40
0.875000000000004
40
0.875000000000004
40
0.937500000000002
40
0.937500000000002
40
1
40
1
40
1
40
1
41
1
10
22.6002736598346
20
9.53817515641316
30
0
41
1
10
22.5054837333881
20
9.53817515641316
30
0
41
1
10
22.4101420602509
20
9.53837142174928
30
0
41
1
10
22.2216597347377
20
9.53913541011195
30
0
41
1
10
22.1281202635271
20
9.53970266830891
30
0
41
1
10
21.8496799353026
20
9.54185846995324
30
0
41
1
10
21.6669191200285
20
9.54393733298315
30
0
41
1
10
21.3979014678419
20
9.54709698570167
30
0
41
1
10
21.3097840759468
20
9.54813934369855
30
0
41
1
10
21.1390644263536
20
9.54989916096633
30
0
41
1
10
21.0561330621049
20
9.55062196795444
30
0
41
1
10
20.8956497569081
20
9.55137463741286
30
0
41
1
10
20.8178790361041
20
9.55140585114469
30
0
41
1
10
20.6695264063979
20
9.55024231790117
30
0
41
1
10
20.6000890433091
20
9.54905684708791
30
0
41
1
10
20.4715806653875
20
9.54490549867782
30
0
41
1
10
20.4124957430746
20
9.54194406873182
30
0
41
1
10
20.3063767171046
20
9.53345914926607
30
0
41
1
10
20.2605791019102
20
9.52801377659429
30
0
41
1
10
20.2041237660593
20
9.51768212197382
30
0
41
1
10
20.1873108755285
20
9.51387358466027
30
0
41
1
10
20.1578939742515
20
9.50544389647084
30
0
41
1
10
20.1452365242958
20
9.50079188243399
30
0
41
1
10
20.1144779424276
20
9.48573478943209
30
0
41
1
10
20.103456655682
20
9.47427054114871
30
0
41
1
10
20.0998055095822
20
9.44838107867889
30
0
41
1
10
20.1074307100329
20
9.43377663938648
30
0
41
1
10
20.1402050421561
20
9.40259819573299
30
0
41
1
10
20.1651150195554
20
9.38603091935303
30
0
41
1
10
20.2303816525269
20
9.35122886243914
30
0
41
1
10
20.270863709376
20
9.33299161872483
30
0
41
1
10
20.3634211131147
20
9.29625188082144
30
0
41
1
10
20.4157341824001
20
9.27761491218894
30
0
41
1
10
20.4734484748618
20
9.25886877341645
30
0
0
SPLINE
5
1C4
100
AcDbEntity
8
1
62
256
6
ByLayer
370
13
48
1
60
0
100
AcDbSpline
70
4
71
3
72
8
73
4
40
0
40
0
40
0
40
0
40
1
40
1
40
1
40
1
41
1
10
28.1789073652877
20
8.04805391913146
30
0
41
1
10
28.3384695166551
20
7.96614687028125
30
0
41
1
10
28.4989423736745
20
7.88678696594539
30
0
41
1
10
28.6603351586845
20
7.81000000000009
30
0
0
SPLINE
5
1C5
100
AcDbEntity
8
1
62
256
6
ByLayer
370
13
48
1
60
0
100
AcDbSpline
70
4
71
3
72
10
73
6
40
0
40
0
40
0
40
0
40
0.5
40
0.5
40
1
40
1
40
1
40
1
41
1
10
25.124989178591
20
2.65461853772709
30
0
41
1
10
25.165420214721
20
2.69200059306829
30
0
41
1
10
25.2105497893137
20
2.72587862475245
30
0
41
1
10
25.3056315952364
20
2.78352236188073
30
0
41
1
10
25.3557475663844
20
2.80760044264358
30
0
41
1
10
25.4084082634715
20
2.82702383094707
30
0
0
SPLINE
5
1C6
100
AcDbEntity
8
1
62
256
6
ByLayer
370
13
48
1
60
0
100
AcDbSpline
70
4
71
3
72
12
73
8
40
0
40
0
40
0
40
0
40
0.499999999999987
40
0.499999999999987
40
0.749999999999993
40
0.749999999999993
40
1
40
1
40
1
40
1
41
1
10
25.9520001415481
20
3.04144843809362
30
0
41
1
10
26.0013039197414
20
3.11847440580743
30
0
41
1
10
26.0573942904164
20
3.19170285691979
30
0
41
1
10
26.1401029788422
20
3.2887876652633
30
0
41
1
10
26.1679534283198
20
3.31958644778138
30
0
41
1
10
26.2209769717835
20
3.37509402820172
30
0
41
1
10
26.2460754494705
20
3.39977228368244
30
0
41
1
10
26.2693421810444
20
3.42115059990104
30
0
0
SPLINE
5
1C7
100
AcDbEntity
8
1
62
256
6
ByLayer
370
13
48
1
60
0
100
AcDbSpline
70
4
71
3
72
22
73
18
40
0
40
0
40
0
40
0
40
0.125
40
0.125
40
0.25
40
0.25
40
0.375
40
0.375
40
0.5
40
0.5
40
0.625
40
0.625
40
0.75
40
0.75
40
0.875
40
0.875
40
1
40
1
40
1
40
1
41
1
10
34.3089715451918
20
7.81000000000006
30
0
41
1
10
34.31747950457
20
7.77903299891909
30
0
41
1
10
34.3235569357274
20
7.74787227569172
30
0
41
1
10
34.330490350218
20
7.68724401461085
30
0
41
1
10
34.3314357586123
20
7.65749102902694
30
0
41
1
10
34.3280571724539
20
7.59915978896419
30
0
41
1
10
34.3236599490081
20
7.5705891000338
30
0
41
1
10
34.309653191218
20
7.51702138153482
30
0
41
1
10
34.300047198744
20
7.49171622734059
30
0
41
1
10
34.2752406280347
20
7.44432383254212
30
0
41
1
10
34.2598915665286
20
7.42220272117132
30
0
41
1
10
34.2246260770223
20
7.38369065158463
30
0
41
1
10
34.2045924712502
20
7.36698387481081
30
0
41
1
10
34.159310661735
20
7.33918884326553
30
0
41
1
10
34.134124577443
20
7.32828920559658
30
0
41
1
10
34.0810329269251
20
7.31380184850562
30
0
41
1
10
34.0526062619768
20
7.31000000000006
30
0
41
1
10
34.0228518290411
20
7.31000000000006
30
0
0
SPLINE
5
1C8
100
AcDbEntity
8
1
62
256
6
ByLayer
370
13
48
1
60
0
100
AcDbSpline
70
4
71
3
72
8
73
4
40
0
40
0
40
0
40
0
40
1
40
1
40
1
40
1
41
1
10
25.7909621902994
20
-9.15741751649855
30
0
41
1
10
25.8466268417307
20
-9.17404398265811
30
0
41
1
10
25.9010466386707
20
-9.19631439715664
30
0
41
1
10
25.9520001415458
20
-9.22339498380242
30
0
0
SPLINE
5
1C9
100
AcDbEntity
8
1
62
256
6
ByLayer
370
13
48
1
60
0
100
AcDbSpline
70
4
71
3
72
10
73
6
40
0
40
0
40
0
40
0
40
0.5
40
0.5
40
1
40
1
40
1
40
1
41
1
10
36.8586999999999
20
-7.2156533115463
30
0
41
1
10
36.8586999999999
20
-7.14258259176896
30
0
41
1
10
36.849682728771
20
-7.07051927138647
30
0
41
1
10
36.8144378961796
20
-6.92974043484963
30
0
41
1
10
36.7876808434524
20
-6.86003322896229
30
0
41
1
10
36.7531271910004
20
-6.79488699888978
30
0
0
SPLINE
5
1CA
100
AcDbEntity
8
1
62
256
6
ByLayer
370
13
48
1
60
0
100
AcDbSpline
70
4
71
3
72
10
73
6
40
0
40
0
40
0
40
0
40
0.5
40
0.5
40
1
40
1
40
1
40
1
41
1
10
25.4084082634714
20
2.82702383094747
30
0
41
1
10
25.4639195639965
20
2.84749863673193
30
0
41
1
10
25.5193836906416
20
2.86783025543681
30
0
41
1
10
25.629986365523
20
2.90882116541337
30
0
41
1
10
25.6853865625239
20
2.92957572533311
30
0
41
1
10
25.7399317968265
20
2.95055540850734
30
0
0
SPLINE
5
1CB
100
AcDbEntity
8
1
62
256
6
ByLayer
370
13
48
1
60
0
100
AcDbSpline
70
4
71
3
72
8
73
4
40
0
40
0
40
0
40
0
40
1
40
1
40
1
40
1
41
1
10
30.7324051738594
20
-9.77789803162852
30
0
41
1
10
30.6760320929358
20
-9.77157019711646
30
0
41
1
10
30.6197901069639
20
-9.764513983303
30
0
41
1
10
30.5636776836973
20
-9.75673790353298
30
0
0
SPLINE
5
1CC
100
AcDbEntity
8
1
62
256
6
ByLayer
370
13
48
1
60
0
100
AcDbSpline
70
4
71
3
72
12
73
8
40
0
40
0
40
0
40
0
40
0.500000000000005
40
0.500000000000005
40
0.750000000000002
40
0.750000000000002
40
1
40
1
40
1
40
1
41
1
10
36.7531271909999
20
8.98509108422076
30
0
41
1
10
36.787878188247
20
9.05470060793252
30
0
41
1
10
36.814068507851
20
9.12717247716142
30
0
41
1
10
36.840739175058
20
9.24009816569261
30
0
41
1
10
36.8475266528686
20
9.27870938414634
30
0
41
1
10
36.8564878718851
20
9.35588606855799
30
0
41
1
10
36.8586999999999
20
9.39444113523297
30
0
41
1
10
36.8586999999999
20
9.43296375300289
30
0
0
SPLINE
5
1CD
100
AcDbEntity
8
1
62
256
6
ByLayer
370
13
48
1
60
0
100
AcDbSpline
70
4
71
3
72
8
73
4
40
0
40
0
40
0
40
0
40
1
40
1
40
1
40
1
41
1
10
24.9502188985355
20
9.22942257430299
30
0
41
1
10
25.0009639066766
20
9.21030175620382
30
0
41
1
10
25.060277561847
20
9.19226552691919
30
0
41
1
10
25.1249891785905
20
9.17495426329609
30
0
0
SPLINE
5
1CE
100
AcDbEntity
8
1
62
256
6
ByLayer
370
13
48
1
60
0
100
AcDbSpline
70
4
71
3
72
8
73
4
40
0
40
0
40
0
40
0
40
1
40
1
40
1
40
1
41
1
10
25.4084082634715
20
-9.12330650442428
30
0
41
1
10
25.5201571184735
20
-9.11053451134183
30
0
41
1
10
25.6309801513946
20
-9.11684396479609
30
0
41
1
10
25.7399317968253
20
-9.14355037211956
30
0
0
SPLINE
5
1CF
100
AcDbEntity
8
1
62
256
6
ByLayer
370
13
48
1
60
0
100
AcDbSpline
70
4
71
3
72
10
73
6
40
0
40
0
40
0
40
0
40
0.5
40
0.5
40
1
40
1
40
1
40
1
41
1
10
25.1249891785904
20
-9.17495426329589
30
0
41
1
10
25.1655423243246
20
-9.16410572895413
30
0
41
1
10
25.2096717893158
20
-9.1542651994294
30
0
41
1
10
25.3049479134084
20
-9.1368278815761
30
0
41
1
10
25.356043065665
20
-9.12929142430676
30
0
41
1
10
25.4084082634715
20
-9.12330650442428
30
0
0
SPLINE
5
1D0
100
AcDbEntity
8
1
62
256
6
ByLayer
370
13
48
1
60
0
100
AcDbSpline
70
4
71
3
72
20
73
16
40
0
40
0
40
0
40
0
40
0.124999999999998
40
0.124999999999998
40
0.249999999999996
40
0.249999999999996
40
0.374999999999995
40
0.374999999999995
40
0.499999999999993
40
0.499999999999993
40
0.749999999999999
40
0.749999999999999
40
0.874999999999999
40
0.874999999999999
40
1
40
1
40
1
40
1
41
1
10
28.1994398988587
20
7.31000000000009
30
0
41
1
10
28.1843586950267
20
7.31000000000009
30
0
41
1
10
28.1704213032409
20
7.31343925130031
30
0
41
1
10
28.1448638336138
20
7.32680678027961
30
0
41
1
10
28.1331218904383
20
7.33691363759036
30
0
41
1
10
28.1128188642419
20
7.3629289376687
30
0
41
1
10
28.1041793667301
20
7.37878433543105
30
0
41
1
10
28.0899024457126
20
7.41607753415724
30
0
41
1
10
28.0843521304756
20
7.43744134852079
30
0
41
1
10
28.0728377188275
20
7.50716577444112
30
0
41
1
10
28.0718334784064
20
7.56267814098334
30
0
41
1
10
28.080112452195
20
7.65179785705638
30
0
41
1
10
28.084543741217
20
7.68302896917973
30
0
41
1
10
28.0964069368789
20
7.74610330993326
30
0
41
1
10
28.1037949123203
20
7.77791344943069
30
0
41
1
10
28.1126212858815
20
7.81000000000009
30
0
0
SPLINE
5
1D1
100
AcDbEntity
8
1
62
256
6
ByLayer
370
13
48
1
60
0
100
AcDbSpline
70
4
71
3
72
8
73
4
40
0
40
0
40
0
40
0
40
1
40
1
40
1
40
1
41
1
10
26.673389308503
20
-10.2028657716778
30
0
41
1
10
26.6621793175557
20
-10.1764513627339
30
0
41
1
10
26.6510169002551
20
-10.1500144414703
30
0
41
1
10
26.6399029407634
20
-10.1235548116102
30
0
0
SPLINE
5
1D2
100
AcDbEntity
8
1
62
256
6
ByLayer
370
13
48
1
60
0
100
AcDbSpline
70
4
71
3
72
22
73
18
40
0
40
0
40
0
40
0
40
0.125
40
0.125
40
0.25
40
0.25
40
0.375
40
0.375
40
0.5
40
0.5
40
0.625
40
0.625
40
0.75
40
0.75
40
0.875
40
0.875
40
1
40
1
40
1
40
1
41
1
10
36.2262094411732
20
3.60227805334892
30
0
41
1
10
36.2094577562465
20
3.61636478739618
30
0
41
1
10
36.191049034156
20
3.62825708651658
30
0
41
1
10
36.1505611092796
20
3.64669204823625
30
0
41
1
10
36.1284799257504
20
3.65328883444542
30
0
41
1
10
36.0793924117673
20
3.66050095959505
30
0
41
1
10
36.0522167356886
20
3.6611088782733
30
0
41
1
10
35.9922459220493
20
3.65482803797843
30
0
41
1
10
35.9600572516327
20
3.64801713925243
30
0
41
1
10
35.8915880365832
20
3.62611699262985
30
0
41
1
10
35.8549448161253
20
3.61082914592936
30
0
41
1
10
35.7803885977769
20
3.57154767430785
30
0
41
1
10
35.7430246343178
20
3.54790936450522
30
0
41
1
10
35.6698204879767
20
3.492707524434
30
0
41
1
10
35.6337931517103
20
3.46095101528462
30
0
41
1
10
35.5658382818152
20
3.390041257495
30
0
41
1
10
35.5344288840911
20
3.35149035739917
30
0
41
1
10
35.5061290698744
20
3.31000000000006
30
0
0
SPLINE
5
1D3
100
AcDbEntity
8
1
62
256
6
ByLayer
370
13
48
1
60
0
100
AcDbSpline
70
4
71
3
72
8
73
4
40
0
40
0
40
0
40
0
40
1
40
1
40
1
40
1
41
1
10
30.7835001331342
20
7.31000000000006
30
0
41
1
10
31.86867659784
20
7.31000000000006
30
0
41
1
10
32.9493074263987
20
7.31000000000006
30
0
41
1
10
34.0228518290411
20
7.31000000000006
30
0
0
SPLINE
5
1D4
100
AcDbEntity
8
SK1
62
256
6
ByLayer
370
13
48
1
60
0
100
AcDbSpline
70
4
71
3
72
12
73
8
40
0
40
0
40
0
40
0
40
0.25
40
0.25
40
0.499999999999999
40
0.499999999999999
40
1
40
1
40
1
40
1
41
1
10
-57.9400000000001
20
3.59698484845313
30
0
41
1
10
-57.8447387518346
20
3.8935155332727
30
0
41
1
10
-57.7393491692556
20
4.18843255828645
30
0
41
1
10
-57.514079369044
20
4.76746202862157
30
0
41
1
10
-57.3938892422298
20
5.05263510329385
30
0
41
1
10
-57.0143204259999
20
5.89723675179451
30
0
41
1
10
-56.7361151127433
20
6.44584648296672
30
0
41
1
10
-56.44
20
6.98416423060073
30
0
0
SPLINE
5
1D5
100
AcDbEntity
8
SK1
62
256
6
ByLayer
370
13
48
1
60
0
100
AcDbSpline
70
4
71
3
72
12
73
8
40
0
40
0
40
0
40
0
40
0.5
40
0.5
40
0.75
40
0.75
40
1
40
1
40
1
40
1
41
1
10
-56.4400000000001
20
-6.98416423060036
30
0
41
1
10
-56.7378437721229
20
-6.44270389421081
30
0
41
1
10
-57.0168098517855
20
-5.89213294411064
30
0
41
1
10
-57.3961432461676
20
-5.04739877411657
30
0
41
1
10
-57.5160290129516
20
-4.76265540664181
30
0
41
1
10
-57.740330543508
20
-4.18570265211184
30
0
41
1
10
-57.8449123384714
20
-3.89297519010788
30
0
41
1
10
-57.9400000000001
20
-3.59698484845276
30
0
0
SPLINE
5
1D6
100
AcDbEntity
8
1
62
256
6
ByLayer
370
13
48
1
60
0
100
AcDbSpline
70
4
71
3
72
8
73
4
40
0
40
0
40
0
40
0
40
1
40
1
40
1
40
1
41
1
10
36.7531271909999
20
8.98509108422076
30
0
41
1
10
36.5383871846961
20
8.55494660651328
30
0
41
1
10
36.3236835597152
20
8.1247839625704
30
0
41
1
10
36.1090404000305
20
7.69459112657518
30
0
0
SPLINE
5
1D7
100
AcDbEntity
8
1
62
256
6
ByLayer
370
13
48
1
60
0
100
AcDbSpline
70
4
71
3
72
16
73
12
40
0
40
0
40
0
40
0
40
0.317020688834802
40
0.317020688834802
40
0.634041377669604
40
0.634041377669604
40
0.792551722087005
40
0.792551722087005
40
0.951062066504407
40
0.951062066504407
40
1
40
1
40
1
40
1
41
1
10
22.6002736598344
20
-9.5381751564129
30
0
41
1
10
22.4115789768298
20
-9.5381751564129
30
0
41
1
10
22.2206471877131
20
-9.53898494871399
30
0
41
1
10
21.8487652220142
20
-9.54186689376706
30
0
41
1
10
21.6662652332084
20
-9.54394502632735
30
0
41
1
10
21.3985449875135
20
-9.54708942080552
30
0
41
1
10
21.3099568430856
20
-9.5481376446553
30
0
41
1
10
21.1387389504324
20
-9.54990243409378
30
0
41
1
10
21.0557373220372
20
-9.5506246727785
30
0
41
1
10
20.9508450351796
20
-9.55111550645952
30
0
41
1
10
20.9263719108121
20
-9.55119846945794
30
0
41
1
10
20.9021832428826
20
-9.55124082982238
30
0
0
SPLINE
5
1D8
100
AcDbEntity
8
1
62
256
6
ByLayer
370
13
48
1
60
0
100
AcDbSpline
70
4
71
3
72
12
73
8
40
0
40
0
40
0
40
0
40
0.361041042978916
40
0.361041042978916
40
0.680520521489458
40
0.680520521489458
40
1
40
1
40
1
40
1
41
1
10
26.1968908108177
20
2.49156899504786
30
0
41
1
10
26.1707571013675
20
2.53496413433152
30
0
41
1
10
26.1460042778688
20
2.57930611870384
30
0
41
1
10
26.1017460051826
20
2.66396830350277
30
0
41
1
10
26.0817732160035
20
2.70462150068207
30
0
41
1
10
26.0447822657069
20
2.78432807965265
30
0
41
1
10
26.0276389080856
20
2.82358264579176
30
0
41
1
10
26.0116850042257
20
2.86222368109256
30
0
0
SPLINE
5
1D9
100
AcDbEntity
8
1
62
256
6
ByLayer
370
13
48
1
60
0
100
AcDbSpline
70
4
71
3
72
11
73
7
40
0
40
0
40
0
40
0
40
0.0204498115676324
40
0.510224905783816
40
0.510224905783816
40
1
40
1
40
1
40
1
41
1
10
36.6626947545273
20
2.74046619030167
30
0
41
1
10
36.6625490452211
20
2.74226693658312
30
0
41
1
10
36.6587923794319
20
2.78718362151329
30
0
41
1
10
36.6520162268845
20
2.83179832736894
30
0
41
1
10
36.6335078593002
20
2.91689198090393
30
0
41
1
10
36.6214453589586
20
2.95918369701729
30
0
41
1
10
36.6071089111487
20
3.00000000000006
30
0
0
SPLINE
5
1DA
100
AcDbEntity
8
1
62
256
6
ByLayer
370
13
48
1
60
0
100
AcDbSpline
70
4
71
3
72
10
73
6
40
0
40
0
40
0
40
0
40
0.786822653853034
40
0.786822653853034
40
1
40
1
40
1
40
1
41
1
10
36.6071089111487
20
3.00000000000006
30
0
41
1
10
36.5939108012853
20
3.03757542022475
30
0
41
1
10
36.5798118176735
20
3.07417847531951
30
0
41
1
10
36.5607426841017
20
3.11946786400105
30
0
41
1
10
36.5566118031743
20
3.12904569416565
30
0
41
1
10
36.5524253258661
20
3.13852885454747
30
0
0
SPLINE
5
1DB
100
AcDbEntity
8
1
62
256
6
ByLayer
370
13
48
1
60
0
100
AcDbSpline
70
4
71
3
72
14
73
10
40
0
40
0
40
0
40
0
40
0.17927225228489
40
0.17927225228489
40
0.589636126142434
40
0.589636126142434
40
0.794818063071217
40
0.794818063071217
40
1
40
1
40
1
40
1
41
1
10
36.4608380943151
20
3.31674246364611
30
0
41
1
10
36.4457145652758
20
3.34209315808016
30
0
41
1
10
36.430235922423
20
3.36630879993649
30
0
41
1
10
36.3794594138185
20
3.44074333939417
30
0
41
1
10
36.3449006697006
20
3.48359187299204
30
0
41
1
10
36.2963339802458
20
3.53677762868591
30
0
41
1
10
36.2806244477199
20
3.55269817864115
30
0
41
1
10
36.2516341729472
20
3.58032488051046
30
0
41
1
10
36.2382561483151
20
3.59214780314454
30
0
41
1
10
36.2262094411732
20
3.60227805334892
30
0
0
SPLINE
5
1DC
100
AcDbEntity
8
1
62
256
6
ByLayer
370
13
48
1
60
0
100
AcDbSpline
70
4
71
3
72
8
73
4
40
0
40
0
40
0
40
0
40
1
40
1
40
1
40
1
41
1
10
29.7014065584504
20
3.31000000000006
30
0
41
1
10
29.6873161681484
20
3.31000000000006
30
0
41
1
10
29.6732268276906
20
3.31000000000006
30
0
41
1
10
29.6591385584504
20
3.31000000000006
30
0
0
SPLINE
5
1DD
100
AcDbEntity
8
1
62
256
6
ByLayer
370
18
48
1
60
0
100
AcDbSpline
70
4
71
1
72
4
73
2
40
0
40
0
40
1
40
1
41
1
10
36.858700937229
20
-1.86735693933738
30
0
41
1
10
37.3085045837556
20
1.630563133E-07
30
0
0
SPLINE
5
1DE
100
AcDbEntity
8
1
62
256
6
ByLayer
370
18
48
1
60
0
100
AcDbSpline
70
4
71
1
72
4
73
2
40
0
40
0
40
1
40
1
41
1
10
26.3976108157066
20
3.31000000000537
30
0
41
1
10
25.6003074282395
20
-1.63056427E-07
30
0
0
SPLINE
5
1DF
100
AcDbEntity
8
1
62
256
6
ByLayer
370
18
48
1
60
0
100
AcDbSpline
70
4
71
2
72
6
73
3
40
0
40
0
40
0
40
1
40
1
40
1
41
1
10
25.6008417969598
20
4.74671822E-08
30
0
41
1
10
27.0741413488826
20
-0.0998176686806289
30
0
41
1
10
28.5391200801447
20
-0.200000000000074
30
0
0
SPLINE
5
1E0
100
AcDbEntity
8
1
62
256
6
ByLayer
370
18
48
1
60
0
100
AcDbSpline
70
4
71
1
72
4
73
2
40
0
40
0
40
1
40
1
41
1
10
37.3085045837556
20
-1.630564554E-07
30
0
41
1
10
36.5112011962885
20
3.31000000000535
30
0
0
SPLINE
5
1E1
100
AcDbEntity
8
1
62
256
6
ByLayer
370
18
48
1
60
0
100
AcDbSpline
70
4
71
2
72
6
73
3
40
0
40
0
40
0
40
1
40
1
40
1
41
1
10
34.3696919318504
20
-0.200000000000102
30
0
41
1
10
35.8346706631125
20
-0.0998176686806573
30
0
41
1
10
37.3079702150353
20
4.74671538E-08
30
0
0
LINE
5
81
100
AcDbEntity
8
1
62
256
6
ByLayer
370
13
48
1
60
0
100
AcDbLine
10
36.350383
20
3.889674
30
0
11
36.350383
21
7.635997
31
0
39
0
210
0
220
0
230
1
0
LINE
5
82
100
AcDbEntity
8
1
62
256
6
ByLayer
370
13
48
1
60
0
100
AcDbLine
10
34.308972
20
7.81
30
0
11
33.784397
21
7.81
31
0
39
0
210
0
220
0
230
1
0
LINE
5
83
100
AcDbEntity
8
1
62
256
6
ByLayer
370
13
48
1
60
0
100
AcDbLine
10
25.408408
20
2.827024
30
0
11
25.408408
21
7.102807
31
0
39
0
210
0
220
0
230
1
0
LINE
5
84
100
AcDbEntity
8
1
62
256
6
ByLayer
370
13
48
1
60
0
100
AcDbLine
10
34.308972
20
-11.799236
30
0
11
34.211627
21
-11.630631
31
0
39
0
210
0
220
0
230
1
0
LINE
5
85
100
AcDbEntity
8
1
62
256
6
ByLayer
370
13
48
1
60
0
100
AcDbLine
10
28.660335
20
7.81
30
0
11
28.112621
21
7.81
31
0
39
0
210
0
220
0
230
1
0
LINE
5
86
100
AcDbEntity
8
1
62
256
6
ByLayer
370
13
48
1
60
0
100
AcDbLine
10
36.8587
20
11.334045
30
0
11
36.8587
21
9.432964
31
0
39
0
210
0
220
0
230
1
0
LINE
5
87
100
AcDbEntity
8
1
62
256
6
ByLayer
370
13
48
1
60
0
100
AcDbLine
10
35.8587
20
-4.86274
30
0
11
35.8587
21
-2.345237
31
0
39
0
210
0
220
0
230
1
0
LINE
5
88
100
AcDbEntity
8
1
62
256
6
ByLayer
370
13
48
1
60
0
100
AcDbLine
10
22.600274
20
0.5
30
0
11
23.934481
21
0.5
31
0
39
0
210
0
220
0
230
1
0
LINE
5
89
100
AcDbEntity
8
1
62
256
6
ByLayer
370
13
48
1
60
0
100
AcDbLine
10
36.8587
20
-9.712497
30
0
11
36.8587
21
-11.566909
31
0
39
0
210
0
220
0
230
1
0
LINE
5
8A
100
AcDbEntity
8
1
62
256
6
ByLayer
370
13
48
1
60
0
100
AcDbLine
10
20.473448
20
-2.345237
30
0
11
21.321585
21
-2.345237
31
0
39
0
210
0
220
0
230
1
0
LINE
5
8B
100
AcDbEntity
8
1
62
256
6
ByLayer
370
13
48
1
60
0
100
AcDbLine
10
23.351024
20
-2.345237
30
0
11
31.454406
21
-2.345237
31
0
39
0
210
0
220
0
230
1
0
LINE
5
8C
100
AcDbEntity
8
1
62
256
6
ByLayer
370
13
48
1
60
0
100
AcDbLine
10
36.8587
20
-7.215653
30
0
11
36.8587
21
-9.712497
31
0
39
0
210
0
220
0
230
1
0
LINE
5
8D
100
AcDbEntity
8
1
62
256
6
ByLayer
370
13
48
1
60
0
100
AcDbLine
10
25.408408
20
-9.123307
30
0
11
25.408408
21
-6.385681
31
0
39
0
210
0
220
0
230
1
0
LINE
5
8E
100
AcDbEntity
8
1
62
256
6
ByLayer
370
13
48
1
60
0
100
AcDbLine
10
24.984641
20
0.5
30
0
11
23.934481
21
0.5
31
0
39
0
210
0
220
0
230
1
0
LINE
5
8F
100
AcDbEntity
8
1
62
256
6
ByLayer
370
13
48
1
60
0
100
AcDbLine
10
35.964273
20
-0.5
30
0
11
35.964273
21
-5.200438
31
0
39
0
210
0
220
0
230
1
0
LINE
5
90
100
AcDbEntity
8
1
62
256
6
ByLayer
370
13
48
1
60
0
100
AcDbLine
10
22.600274
20
-9.538175
30
0
11
23.934481
21
-9.538175
31
0
39
0
210
0
220
0
230
1
0
LINE
5
91
100
AcDbEntity
8
1
62
256
6
ByLayer
370
13
48
1
60
0
100
AcDbLine
10
36.8587
20
7.26062
30
0
11
36.8587
21
3.640855
31
0
39
0
210
0
220
0
230
1
0
LINE
5
92
100
AcDbEntity
8
1
62
256
6
ByLayer
370
13
48
1
60
0
100
AcDbLine
10
32.805208
20
-10.194641
30
0
11
33.069808
21
-10.041874
31
0
39
0
210
0
220
0
230
1
0
LINE
5
93
100
AcDbEntity
8
1
62
256
6
ByLayer
370
13
48
1
60
0
100
AcDbLine
10
26.269342
20
-7.133851
30
0
11
26.269342
21
-9.441855
31
0
39
0
210
0
220
0
230
1
0
LINE
5
94
100
AcDbEntity
8
1
62
256
6
ByLayer
370
13
48
1
60
0
100
AcDbLine
10
25.104882
20
2.458565
30
0
11
24.950219
21
2.458565
31
0
39
0
210
0
220
0
230
1
0
LINE
5
95
100
AcDbEntity
8
1
62
256
6
ByLayer
370
13
48
1
60
0
100
AcDbLine
10
26.269342
20
7.068315
30
0
11
26.269342
21
3.421151
31
0
39
0
210
0
220
0
230
1
0
LINE
5
96
100
AcDbEntity
8
1
62
256
6
ByLayer
370
13
48
1
60
0
100
AcDbLine
10
30.7835
20
7.31
30
0
11
30.7835
21
3.31
31
0
39
0
210
0
220
0
230
1
0
LINE
5
97
100
AcDbEntity
8
1
62
256
6
ByLayer
370
13
48
1
60
0
100
AcDbLine
10
24.984641
20
0.5
30
0
11
25.104882
21
2.458565
31
0
39
0
210
0
220
0
230
1
0
LINE
5
98
100
AcDbEntity
8
1
62
256
6
ByLayer
370
13
48
1
60
0
100
AcDbLine
10
29.701407
20
-15.501404
30
0
11
29.701407
21
-14.06462
31
0
39
0
210
0
220
0
230
1
0
LINE
5
99
100
AcDbEntity
8
1
62
256
6
ByLayer
370
13
48
1
60
0
100
AcDbLine
10
24.984641
20
8.931865
30
0
11
23.934481
21
9.538175
31
0
39
0
210
0
220
0
230
1
0
LINE
5
9A
100
AcDbEntity
8
1
62
256
6
ByLayer
370
13
48
1
60
0
100
AcDbLine
10
24.950219
20
9.229423
30
0
11
25.104882
21
9.140128
31
0
39
0
210
0
220
0
230
1
0
LINE
5
9B
100
AcDbEntity
8
1
62
256
6
ByLayer
370
13
48
1
60
0
100
AcDbLine
10
32.805208
20
-10.194641
30
0
11
34.022852
21
-12.303662
31
0
39
0
210
0
220
0
230
1
0
LINE
5
9C
100
AcDbEntity
8
1
62
256
6
ByLayer
370
13
48
1
60
0
100
AcDbLine
10
22.600274
20
9.538175
30
0
11
23.934481
21
9.538175
31
0
39
0
210
0
220
0
230
1
0
LINE
5
9D
100
AcDbEntity
8
1
62
256
6
ByLayer
370
13
48
1
60
0
100
AcDbLine
10
28.19944
20
-11.121731
30
0
11
30.563678
21
-9.756738
31
0
39
0
210
0
220
0
230
1
0
LINE
5
9E
100
AcDbEntity
8
1
62
256
6
ByLayer
370
13
48
1
60
0
100
AcDbLine
10
29.701407
20
3.31
30
0
11
29.701407
21
7.31
31
0
39
0
210
0
220
0
230
1
0
LINE
5
9F
100
AcDbEntity
8
1
62
256
6
ByLayer
370
13
48
1
60
0
100
AcDbLine
10
36.8587
20
3.640855
30
0
11
36.8587
21
3
31
0
39
0
210
0
220
0
230
1
0
LINE
5
A0
100
AcDbEntity
8
1
62
256
6
ByLayer
370
13
48
1
60
0
100
AcDbLine
10
36.753127
20
-5.900116
30
0
11
36.753127
21
-0.5
31
0
39
0
210
0
220
0
230
1
0
LINE
5
A1
100
AcDbEntity
8
1
62
256
6
ByLayer
370
13
48
1
60
0
100
AcDbLine
10
25.124989
20
9.174954
30
0
11
25.104882
21
9.140128
31
0
39
0
210
0
220
0
230
1
0
LINE
5
A2
100
AcDbEntity
8
1
62
256
6
ByLayer
370
13
48
1
60
0
100
AcDbLine
10
36.607109
20
3
30
0
11
36.8587
21
3
31
0
39
0
210
0
220
0
230
1
0
LINE
5
A3
100
AcDbEntity
8
1
62
256
6
ByLayer
370
13
48
1
60
0
100
AcDbLine
10
31.454406
20
-9.545598
30
0
11
31.454406
21
-2.345237
31
0
39
0
210
0
220
0
230
1
0
LINE
5
A4
100
AcDbEntity
8
1
62
256
6
ByLayer
370
13
48
1
60
0
100
AcDbLine
10
30.7835
20
-14.390264
30
0
11
30.7835
21
-15.797459
31
0
39
0
210
0
220
0
230
1
0
LINE
5
A5
100
AcDbEntity
8
1
62
256
6
ByLayer
370
13
48
1
60
0
100
AcDbLine
10
35.8587
20
-2.345237
30
0
11
31.454406
21
-2.345237
31
0
39
0
210
0
220
0
230
1
0
LINE
5
A6
100
AcDbEntity
8
1
62
256
6
ByLayer
370
13
48
1
60
0
100
AcDbLine
10
25.104882
20
9.140128
30
0
11
24.984641
21
8.931865
31
0
39
0
210
0
220
0
230
1
0
LINE
5
A7
100
AcDbEntity
8
1
62
256
6
ByLayer
370
13
48
1
60
0
100
AcDbLine
10
36.350383
20
-12.401475
30
0
11
36.350383
21
-10.517495
31
0
39
0
210
0
220
0
230
1
0
LINE
5
A8
100
AcDbEntity
8
1
62
256
6
ByLayer
370
13
48
1
60
0
100
AcDbLine
10
36.8587
20
-0.5
30
0
11
36.8587
21
-6.096323
31
0
39
0
210
0
220
0
230
1
0
LINE
5
A9
100
AcDbEntity
8
1
62
256
6
ByLayer
370
13
48
1
60
0
100
AcDbLine
10
33.784397
20
-10.890646
30
0
11
34.211627
21
-11.630631
31
0
39
0
210
0
220
0
230
1
0
LINE
5
AA
100
AcDbEntity
8
1
62
256
6
ByLayer
370
13
48
1
60
0
100
AcDbLine
10
34.211627
20
8.155061
30
0
11
33.784397
21
7.81
31
0
39
0
210
0
220
0
230
1
0
LINE
5
AB
100
AcDbEntity
8
1
62
256
6
ByLayer
370
13
48
1
60
0
100
AcDbLine
10
32.337774
20
-9.818392
30
0
11
32.496909
21
-9.818392
31
0
39
0
210
0
220
0
230
1
0
LINE
5
AC
100
AcDbEntity
8
SK1
62
256
6
ByLayer
370
13
48
1
60
0
100
AcDbLine
10
-57.94
20
-3.596985
30
0
11
-57.94
21
3.596985
31
0
39
0
210
0
220
0
230
1
0
LINE
5
AE
100
AcDbEntity
8
SK1
62
256
6
ByLayer
370
13
48
1
60
0
100
AcDbLine
10
-56.44
20
6.984164
30
0
11
-45.24
21
6.984164
31
0
39
0
210
0
220
0
230
1
0
LINE
5
AF
100
AcDbEntity
8
SK1
62
256
6
ByLayer
370
13
48
1
60
0
100
AcDbLine
10
-35.52
20
-6.984164
30
0
11
-35.52
21
6.984164
31
0
39
0
210
0
220
0
230
1
0
LINE
5
B0
100
AcDbEntity
8
SK1
62
256
6
ByLayer
370
13
48
1
60
0
100
AcDbLine
10
-35.52
20
6.984164
30
0
11
-22.415
21
6.984164
31
0
39
0
210
0
220
0
230
1
0
LINE
5
B1
100
AcDbEntity
8
SK1
62
256
6
ByLayer
370
13
48
1
60
0
100
AcDbLine
10
-22.415
20
-6.984164
30
0
11
-35.52
21
-6.984164
31
0
39
0
210
0
220
0
230
1
0
LINE
5
B2
100
AcDbEntity
8
SK1
62
256
6
ByLayer
370
13
48
1
60
0
100
AcDbLine
10
-45.24
20
-6.984164
30
0
11
-45.24
21
6.984164
31
0
39
0
210
0
220
0
230
1
0
LINE
5
B3
100
AcDbEntity
8
SK1
62
256
6
ByLayer
370
13
48
1
60
0
100
AcDbLine
10
-22.415
20
-6.984164
30
0
11
-22.415
21
6.984164
31
0
39
0
210
0
220
0
230
1
0
LINE
5
B4
100
AcDbEntity
8
SK1
62
256
6
ByLayer
370
13
48
1
60
0
100
AcDbLine
10
-45.24
20
-6.984164
30
0
11
-56.44
21
-6.984164
31
0
39
0
210
0
220
0
230
1
0
LINE
5
B5
100
AcDbEntity
8
SK1
62
256
6
ByLayer
370
13
48
1
60
0
100
AcDbLine
10
0.005
20
-12.69175
30
0
11
0.005
21
12.69175
31
0
39
0
210
0
220
0
230
1
0
LINE
5
B6
100
AcDbEntity
8
1
62
256
6
ByLayer
370
13
48
1
60
0
100
AcDbLine
10
0.005
20
-12.69175
30
0
11
0.005
21
12.69175
31
0
39
0
210
0
220
0
230
1
0
LINE
5
B7
100
AcDbEntity
8
1
62
256
6
ByLayer
370
13
48
1
60
0
100
AcDbLine
10
36.8587
20
11.334045
30
0
11
36.8587
21
11.48228
31
0
39
0
210
0
220
0
230
1
0
LINE
5
B8
100
AcDbEntity
8
1
62
256
6
ByLayer
370
13
48
1
60
0
100
AcDbLine
10
36.8587
20
-6.096323
30
0
11
36.8587
21
-7.208773
31
0
39
0
210
0
220
0
230
1
0
LINE
5
B9
100
AcDbEntity
8
1
62
256
6
ByLayer
370
13
48
1
60
0
100
AcDbLine
10
36.8587
20
9.432964
30
0
11
36.8587
21
7.260676
31
0
39
0
210
0
220
0
230
1
0
LINE
5
BA
100
AcDbEntity
8
1
62
256
6
ByLayer
370
13
48
1
60
0
100
AcDbLine
10
36.753127
20
7.472486
30
0
11
36.753127
21
8.985091
31
0
39
0
210
0
220
0
230
1
0
LINE
5
BB
100
AcDbEntity
8
1
62
256
6
ByLayer
370
13
48
1
60
0
100
AcDbLine
10
35.8587
20
-0.082797
30
0
11
35.8587
21
-2.345237
31
0
39
0
210
0
220
0
230
1
0
LINE
5
BC
100
AcDbEntity
8
1
62
256
6
ByLayer
370
13
48
1
60
0
100
AcDbLine
10
25.720318
20
0.5
30
0
11
24.984641
21
0.5
31
0
39
0
210
0
220
0
230
1
0
LINE
5
BD
100
AcDbEntity
8
1
62
256
6
ByLayer
370
13
48
1
60
0
100
AcDbLine
10
31.454406
20
-2.345237
30
0
11
31.454406
21
-0.221232
31
0
39
0
210
0
220
0
230
1
0
LINE
5
BE
100
AcDbEntity
8
1
62
256
6
ByLayer
370
13
48
1
60
0
100
AcDbLine
10
3.352585
20
9.551271
30
0
11
3.352585
21
-9.551271
31
0
39
0
210
0
220
0
230
1
0
LINE
5
BF
100
AcDbEntity
8
SK1
62
256
6
ByLayer
370
13
48
1
60
0
100
AcDbLine
10
-57.94
20
-3.596985
30
0
11
-57.94
21
-11.19675
31
0
39
0
210
0
220
0
230
1
0
LINE
5
C0
100
AcDbEntity
8
SK1
62
256
6
ByLayer
370
13
48
1
60
0
100
AcDbLine
10
-57.94
20
11.19675
30
0
11
-57.94
21
3.596985
31
0
39
0
210
0
220
0
230
1
0
LINE
5
C1
100
AcDbEntity
8
1
62
256
6
ByLayer
370
13
48
1
60
0
100
AcDbLine
10
36.8587
20
3
30
0
11
36.8587
21
1.867344
31
0
39
0
210
0
220
0
230
1
0
LINE
5
C2
100
AcDbEntity
8
1
62
256
6
ByLayer
370
13
48
1
60
0
100
AcDbLine
10
2.999032
20
-9.697718
30
0
11
2.999032
21
9.697718
31
0
39
0
210
0
220
0
230
1
0
LINE
5
C3
100
AcDbEntity
8
SK1
62
256
6
ByLayer
370
13
48
1
60
0
100
AcDbLine
10
-56.44
20
-6.984164
30
0
11
-56.44
21
-12.69675
31
0
39
0
210
0
220
0
230
1
0
LINE
5
C4
100
AcDbEntity
8
SK1
62
256
6
ByLayer
370
13
48
1
60
0
100
AcDbLine
10
-56.44
20
12.69675
30
0
11
-56.44
21
6.984164
31
0
39
0
210
0
220
0
230
1
0
LINE
5
C5
100
AcDbEntity
8
SK1
62
256
6
ByLayer
370
13
48
1
60
0
100
AcDbLine
10
0
20
12.69675
30
0
11
0
21
-12.69675
31
0
39
0
210
0
220
0
230
1
0
LINE
5
C6
100
AcDbEntity
8
81
62
256
6
ByLayer
370
18
48
1
60
0
100
AcDbLine
10
37.3087
20
12.954
30
0
11
42.3087
21
12.954
31
0
39
0
210
0
220
0
230
1
0
LINE
5
C7
100
AcDbEntity
8
SK4
62
256
6
ByLayer
370
18
48
0.05
60
0
100
AcDbLine
10
-62.94
20
0
30
0
11
42.3087
21
0
31
0
39
0
210
0
220
0
230
1
0
LINE
5
C9
100
AcDbEntity
8
80
62
256
6
ByLayer
370
18
48
1
60
0
100
AcDbLine
10
0
20
0
30
0
11
-5
21
0
31
0
39
0
210
0
220
0
230
1
0
LINE
5
CA
100
AcDbEntity
8
1
62
256
6
ByLayer
370
13
48
1
60
0
100
AcDbLine
10
2.999032
20
9.697718
30
0
11
0.005
21
12.69175
31
0
39
0
210
0
220
0
230
1
0
LINE
5
CB
100
AcDbEntity
8
1
62
256
6
ByLayer
370
13
48
1
60
0
100
AcDbLine
10
0.005
20
-12.69175
30
0
11
2.999032
21
-9.697718
31
0
39
0
210
0
220
0
230
1
0
LINE
5
CC
100
AcDbEntity
8
1
62
256
6
ByLayer
370
13
48
1
60
0
100
AcDbLine
10
3.352585
20
-9.551271
30
0
11
20.913557
21
-9.551271
31
0
39
0
210
0
220
0
230
1
0
LINE
5
CD
100
AcDbEntity
8
1
62
256
6
ByLayer
370
13
48
1
60
0
100
AcDbLine
10
20.903252
20
9.551271
30
0
11
3.352585
21
9.551271
31
0
39
0
210
0
220
0
230
1
0
LINE
5
CE
100
AcDbEntity
8
SK1
62
256
6
ByLayer
370
13
48
1
60
0
100
AcDbLine
10
-57.94
20
-11.19675
30
0
11
-56.44
21
-12.69675
31
0
39
0
210
0
220
0
230
1
0
LINE
5
CF
100
AcDbEntity
8
SK1
62
256
6
ByLayer
370
13
48
1
60
0
100
AcDbLine
10
-56.44
20
12.69675
30
0
11
-57.94
21
11.19675
31
0
39
0
210
0
220
0
230
1
0
LINE
5
D0
100
AcDbEntity
8
SK1
62
256
6
ByLayer
370
13
48
1
60
0
100
AcDbLine
10
0.005
20
12.69175
30
0
11
0
21
12.69675
31
0
39
0
210
0
220
0
230
1
0
LINE
5
D1
100
AcDbEntity
8
SK1
62
256
6
ByLayer
370
13
48
1
60
0
100
AcDbLine
10
0
20
-12.69675
30
0
11
0.005
21
-12.69175
31
0
39
0
210
0
220
0
230
1
0
LINE
5
D2
100
AcDbEntity
8
SK1
62
256
6
ByLayer
370
13
48
1
60
0
100
AcDbLine
10
-56.44
20
-12.69675
30
0
11
0
21
-12.69675
31
0
39
0
210
0
220
0
230
1
0
LINE
5
D3
100
AcDbEntity
8
SK1
62
256
6
ByLayer
370
13
48
1
60
0
100
AcDbLine
10
0
20
12.69675
30
0
11
-56.44
21
12.69675
31
0
39
0
210
0
220
0
230
1
0
LINE
5
D4
100
AcDbEntity
8
4
62
256
6
ByLayer
370
18
48
0.05
60
0
100
AcDbLine
10
0
20
0
30
0
11
42.3087
21
0
31
0
39
0
210
0
220
0
230
1
0
LINE
5
D6
100
AcDbEntity
8
SK2
62
256
6
ByLayer
370
13
48
1
60
0
100
AcDbLine
10
29.525297
20
17.44775
30
0
11
23.82093
21
20.741168
31
0
39
0
210
0
220
0
230
1
0
LINE
5
D8
100
AcDbEntity
8
SK2
62
256
6
ByLayer
370
13
48
1
60
0
100
AcDbLine
10
37.3087
20
14.5415
30
0
11
37.3087
21
28.528336
31
0
39
0
210
0
220
0
230
1
0
LINE
5
D9
100
AcDbEntity
8
1
62
256
6
ByLayer
370
13
48
1
60
0
100
AcDbLine
10
26.57056
20
19.153668
30
0
11
25.535786
21
16.123061
31
0
39
0
210
0
220
0
230
1
0
LINE
5
DA
100
AcDbEntity
8
1
62
256
6
ByLayer
370
13
48
1
60
0
100
AcDbLine
10
26.57056
20
19.153668
30
0
11
24.786665
21
16.494143
31
0
39
0
210
0
220
0
230
1
0
LINE
5
DB
100
AcDbEntity
8
1
62
256
6
ByLayer
370
13
48
1
60
0
100
AcDbLine
10
25.535786
20
16.123061
30
0
11
24.786665
21
16.494143
31
0
39
0
210
0
220
0
230
1
0
LINE
5
DC
100
AcDbEntity
8
1
62
256
6
ByLayer
370
13
48
1
60
0
100
AcDbLine
10
37.3087
20
25.353336
30
0
11
40.503861
21
25.568472
31
0
39
0
210
0
220
0
230
1
0
LINE
5
DD
100
AcDbEntity
8
1
62
256
6
ByLayer
370
13
48
1
60
0
100
AcDbLine
10
37.3087
20
25.353336
30
0
11
40.450673
21
24.734173
31
0
39
0
210
0
220
0
230
1
0
LINE
5
DE
100
AcDbEntity
8
1
62
256
6
ByLayer
370
13
48
1
60
0
100
AcDbLine
10
40.503861
20
25.568472
30
0
11
40.450673
21
24.734173
31
0
39
0
210
0
220
0
230
1
0
MTEXT
5
1E2
100
AcDbEntity
8
SK2
62
256
6
ByLayer
370
18
48
1
60
0
100
AcDbMText
10
26.696664
20
22.508696
30
0
210
0
220
0
230
1
1
\W0.9771;60%%d
40
4.5
41
0
44
1.084337
50
30
71
7
72
5
7
iso_b_vert
0
MTEXT
5
1E5
100
AcDbEntity
8
SK6
62
256
6
ByLayer
370
18
48
1
60
0
100
AcDbMText
10
-109.103803
20
-19.82
30
0
210
0
220
0
230
1
1
\W0.7784;A495-026M25-6009H
40
4
41
0
44
1.084337
50
89.9999999999998
71
7
72
5
7
iso_b_vert
0
DIMENSION
5
1E8
100
AcDbEntity
8
2
62
256
6
ByLayer
370
18
48
1
60
0
100
AcDbDimension
2
_U0
10
62.205575
20
12.954
30
0
11
62.205575
21
36.338534
31
0
70
32
71
1
72
1
41
1
210
0
220
0
230
1
3
Standard
100
AcDbAlignedDimension
13
37.3087
23
-12.954
33
0
14
37.3087
24
12.954
34
0
50
90
100
AcDbRotatedDimension
1001
ACAD
1000
DSTYLE
1002
{
1070
   371
1070
    13
1070
   372
1070
    13
1070
   170
1070
     0
1070
   144
1040
1.0
1070
   277
1070
     2
1070
   284
1070
     8
1070
   278
1070
    46
1070
   146
1040
0.777778
1070
   345
1005
16
1070
   347
1005
16
1070
   346
1005
16
1070
   344
1005
1E9
1070
   343
1005
1E9
1070
   172
1070
     1
1070
    76
1070
     0
1070
    75
1070
     0
1070
   282
1070
     0
1070
   281
1070
     0
1070
    71
1070
     0
1070
    74
1070
     0
1070
   279
1070
     0
1070
   173
1070
     1
1070
   340
1005
1E3
1070
   271
1070
     2
1070
   272
1070
     2
1070
    77
1070
     1
1070
    73
1070
     0
1070
   171
1070
     3
1070
   274
1070
     4
1070
   177
1070
   150
1070
   176
1070
     9
1070
   178
1070
    43
1070
    78
1070
     8
1070
    48
1040
-0.1
1070
    41
1040
3.175
1070
   147
1040
2.25
1070
    42
1040
1.5875
1070
    44
1040
3.175
1070
   140
1040
4.5
1002
}
1001
ACAD_DSTYLE_DIM_LINETYPE
1070
   380
1005
16
1001
ACAD_DSTYLE_DIM_EXT1_LINETYPE
1070
   381
1005
16
1001
ACAD_DSTYLE_DIM_EXT2_LINETYPE
1070
   382
1005
16
0
DIMENSION
5
20F
100
AcDbEntity
8
SK2
62
256
6
ByLayer
370
18
48
1
60
0
100
AcDbDimension
2
_U1
10
-0.0013
20
-37.454
30
0
11
18.6537
21
-37.454
31
0
70
32
71
1
72
1
41
1
210
0
220
0
230
1
3
Standard
100
AcDbAlignedDimension
13
37.3087
23
-12.954
33
0
14
-0.0013
24
0
34
0
50
0
100
AcDbRotatedDimension
1001
ACAD
1000
DSTYLE
1002
{
1070
   371
1070
    13
1070
   372
1070
    13
1070
   170
1070
     0
1070
   144
1040
1.0
1070
   277
1070
     2
1070
   284
1070
     8
1070
   278
1070
    46
1070
   146
1040
0.777778
1070
   345
1005
16
1070
   347
1005
16
1070
   346
1005
16
1070
   344
1005
1E9
1070
   343
1005
1E9
1070
   172
1070
     1
1070
    76
1070
     0
1070
    75
1070
     0
1070
   282
1070
     0
1070
   281
1070
     0
1070
    71
1070
     0
1070
    74
1070
     0
1070
   279
1070
     0
1070
   173
1070
     1
1070
   340
1005
1E3
1070
   271
1070
     2
1070
   272
1070
     2
1070
    77
1070
     1
1070
    73
1070
     1
1070
   171
1070
     3
1070
   274
1070
     4
1070
   177
1070
   150
1070
   176
1070
     9
1070
   178
1070
    43
1070
    78
1070
     8
1070
    48
1040
-0.1
1070
    41
1040
3.175
1070
   147
1040
2.25
1070
    42
1040
1.5875
1070
    44
1040
3.175
1070
   140
1040
4.5
1002
}
1001
ACAD_DSTYLE_DIM_LINETYPE
1070
   380
1005
16
1001
ACAD_DSTYLE_DIM_EXT1_LINETYPE
1070
   381
1005
16
1001
ACAD_DSTYLE_DIM_EXT2_LINETYPE
1070
   382
1005
16
0
DIMENSION
5
22B
100
AcDbEntity
8
2
62
256
6
ByLayer
370
18
48
1
60
0
100
AcDbDimension
2
_U2
10
37.3087
20
33.454
30
0
11
-10.31565
21
33.454
31
0
70
32
71
1
72
1
41
1
210
0
220
0
230
1
3
Standard
100
AcDbAlignedDimension
13
-57.94
23
12.69675
33
0
14
37.3087
24
12.954
34
0
50
0
100
AcDbRotatedDimension
1001
ACAD
1000
DSTYLE
1002
{
1070
   371
1070
    13
1070
   372
1070
    13
1070
   170
1070
     0
1070
   144
1040
1.0
1070
   277
1070
     2
1070
   284
1070
     8
1070
   278
1070
    46
1070
   146
1040
0.777778
1070
   345
1005
16
1070
   347
1005
16
1070
   346
1005
16
1070
   344
1005
1E9
1070
   343
1005
1E9
1070
   172
1070
     1
1070
    76
1070
     0
1070
    75
1070
     0
1070
   282
1070
     0
1070
   281
1070
     0
1070
    71
1070
     0
1070
    74
1070
     0
1070
   279
1070
     0
1070
   173
1070
     1
1070
   340
1005
1E3
1070
   271
1070
     2
1070
   272
1070
     2
1070
    77
1070
     1
1070
    73
1070
     1
1070
   171
1070
     3
1070
   274
1070
     4
1070
   177
1070
   150
1070
   176
1070
     9
1070
   178
1070
    43
1070
    78
1070
     8
1070
    48
1040
-0.1
1070
    41
1040
3.175
1070
   147
1040
2.25
1070
    42
1040
1.5875
1070
    44
1040
3.175
1070
   140
1040
4.5
1002
}
1001
ACAD_DSTYLE_DIM_LINETYPE
1070
   380
1005
16
1001
ACAD_DSTYLE_DIM_EXT1_LINETYPE
1070
   381
1005
16
1001
ACAD_DSTYLE_DIM_EXT2_LINETYPE
1070
   382
1005
16
0
DIMENSION
5
247
100
AcDbEntity
8
SK2
62
256
6
ByLayer
370
18
48
1
60
0
100
AcDbDimension
2
_U3
10
30.0925
20
23.454
30
0
11
-13.92375
21
23.454
31
0
70
32
71
1
72
1
41
1
210
0
220
0
230
1
3
Standard
100
AcDbAlignedDimension
13
-57.94
23
12.69675
33
0
14
30.0925
24
16.99
34
0
50
0
100
AcDbRotatedDimension
1001
ACAD
1000
DSTYLE
1002
{
1070
   371
1070
    13
1070
   372
1070
    13
1070
   170
1070
     0
1070
   144
1040
1.0
1070
   277
1070
     2
1070
   284
1070
     8
1070
   278
1070
    46
1070
   146
1040
0.777778
1070
   345
1005
16
1070
   347
1005
16
1070
   346
1005
16
1070
   344
1005
1E9
1070
   343
1005
1E9
1070
   172
1070
     1
1070
    76
1070
     0
1070
    75
1070
     0
1070
   282
1070
     0
1070
   281
1070
     0
1070
    71
1070
     0
1070
    74
1070
     0
1070
   279
1070
     0
1070
   173
1070
     1
1070
   340
1005
1E3
1070
   271
1070
     2
1070
   272
1070
     2
1070
    77
1070
     1
1070
    73
1070
     1
1070
   171
1070
     3
1070
   274
1070
     4
1070
   177
1070
   150
1070
   176
1070
     9
1070
   178
1070
    43
1070
    78
1070
     8
1070
    48
1040
-0.1
1070
    41
1040
3.175
1070
   147
1040
2.25
1070
    42
1040
1.5875
1070
    44
1040
3.175
1070
   140
1040
4.5
1002
}
1001
ACAD_DSTYLE_DIM_LINETYPE
1070
   380
1005
16
1001
ACAD_DSTYLE_DIM_EXT1_LINETYPE
1070
   381
1005
16
1001
ACAD_DSTYLE_DIM_EXT2_LINETYPE
1070
   382
1005
16
0
DIMENSION
5
263
100
AcDbEntity
8
SK2
62
256
6
ByLayer
370
18
48
1
60
0
100
AcDbDimension
2
_U4
10
73.0587
20
16.99
30
0
11
73.0587
21
0
31
0
70
32
71
1
72
1
41
1
210
0
220
0
230
1
3
Standard
100
AcDbAlignedDimension
13
30.0925
23
-16.99
33
0
14
30.0925
24
16.99
34
0
50
90
100
AcDbRotatedDimension
1001
ACAD
1000
DSTYLE
1002
{
1070
   371
1070
    13
1070
   372
1070
    13
1070
   170
1070
     0
1070
   144
1040
1.0
1070
   277
1070
     2
1070
   284
1070
     8
1070
   278
1070
    46
1070
   146
1040
0.777778
1070
   345
1005
16
1070
   347
1005
16
1070
   346
1005
16
1070
   344
1005
1E9
1070
   343
1005
1E9
1070
   172
1070
     1
1070
    76
1070
     0
1070
    75
1070
     0
1070
   282
1070
     0
1070
   281
1070
     0
1070
    71
1070
     0
1070
    74
1070
     0
1070
   279
1070
     0
1070
   173
1070
     1
1070
   340
1005
1E3
1070
   271
1070
     2
1070
   272
1070
     2
1070
    77
1070
     1
1070
    73
1070
     0
1070
   171
1070
     3
1070
   274
1070
     4
1070
   177
1070
   150
1070
   176
1070
     9
1070
   178
1070
    43
1070
    78
1070
     8
1070
    48
1040
-0.1
1070
    41
1040
3.175
1070
   147
1040
2.25
1070
    42
1040
1.5875
1070
    44
1040
3.175
1070
   140
1040
4.5
1002
}
1001
ACAD_DSTYLE_DIM_LINETYPE
1070
   380
1005
16
1001
ACAD_DSTYLE_DIM_EXT1_LINETYPE
1070
   381
1005
16
1001
ACAD_DSTYLE_DIM_EXT2_LINETYPE
1070
   382
1005
16
0
DIMENSION
5
280
100
AcDbEntity
8
SK2
62
256
6
ByLayer
370
18
48
1
60
0
100
AcDbDimension
2
_U5
10
-83.043125
20
-12.69675
30
0
11
-83.043125
21
36.812422
31
0
70
32
71
1
72
1
41
1
210
0
220
0
230
1
3
Standard
100
AcDbAlignedDimension
13
-57.94
23
12.69675
33
0
14
-57.94
24
-12.69675
34
0
50
90
100
AcDbRotatedDimension
1001
ACAD
1000
DSTYLE
1002
{
1070
   371
1070
    13
1070
   372
1070
    13
1070
   170
1070
     0
1070
   144
1040
1.0
1070
   277
1070
     2
1070
   284
1070
     8
1070
   278
1070
    46
1070
   146
1040
0.777778
1070
   345
1005
16
1070
   347
1005
16
1070
   346
1005
16
1070
   344
1005
1E9
1070
   343
1005
1E9
1070
   172
1070
     1
1070
    76
1070
     0
1070
    75
1070
     0
1070
   282
1070
     0
1070
   281
1070
     0
1070
    71
1070
     0
1070
    74
1070
     0
1070
   279
1070
     0
1070
   173
1070
     1
1070
   340
1005
1E3
1070
   271
1070
     2
1070
   272
1070
     2
1070
    77
1070
     1
1070
    73
1070
     0
1070
   171
1070
     3
1070
   274
1070
     4
1070
   177
1070
   150
1070
   176
1070
     9
1070
   178
1070
    43
1070
    78
1070
     8
1070
    48
1040
-0.1
1070
    41
1040
3.175
1070
   147
1040
2.25
1070
    42
1040
1.5875
1070
    44
1040
3.175
1070
   140
1040
4.5
1002
}
1001
ACAD_DSTYLE_DIM_LINETYPE
1070
   380
1005
16
1001
ACAD_DSTYLE_DIM_EXT1_LINETYPE
1070
   381
1005
16
1001
ACAD_DSTYLE_DIM_EXT2_LINETYPE
1070
   382
1005
16
0
ENDSEC
0
SECTION
2
OBJECTS
0
DICTIONARY
5
30e
330
0
100
AcDbDictionary
280
0
281
1
3
ACAD_GROUP
350
30f
3
ACAD_MLINESTYLE
350
310
0
DICTIONARY
5
30f
330
0
100
AcDbDictionary
280
0
281
1
0
DICTIONARY
5
310
330
0
100
AcDbDictionary
280
0
281
1
3
Standard
350
18
0
MLINESTYLE
5
18
330
310
100
AcDbMlineStyle
2
Standard
70
0
3

62
256
51
90
52
90
71
2
49
-0.5
62
256
6
ByLayer
49
0.5
62
256
6
ByLayer
0
RASTERVARIABLES
5
2fc
330

100
AcDbRasterVariables
90
0
70
1
71
1
72
1
0
ENDSEC
0
EOF
