0
SECTION
2
HEADER
9
$ACADVER
1
AC1015
9
$DWGCODEPAGE
3
ANSI_1252
9
$HANDSEED
5
313
9
$ANGBASE
50
0
9
$ANGDIR
70
0
9
$ATTMODE
70
1
9
$AUNITS
70
0
9
$AUPREC
70
0
9
$CECOLOR
62
256
9
$CELTSCALE
40
1
9
$CELTYPE
6
ByLayer
9
$CELWEIGHT
370
18
9
$CLAYER
8
0
9
$CMLJUST
70
0
9
$CMLSCALE
40
1
9
$CMLSTYLE
2
Standard
9
$DIMSTYLE
2
Standard
9
$TEXTSIZE
40
0.2
9
$TEXTSTYLE
7
Standard
9
$LUNITS
70
2
9
$LUPREC
70
4
9
$EXTNAMES
290
1
9
$INSUNITS
70
4
9
$LTSCALE
40
1
9
$LWDISPLAY
290
1
9
$PDMODE
70
0
9
$PDSIZE
40
0
9
$PLINEGEN
70
0
0
ENDSEC
0
SECTION
2
CLASSES
0
CLASS
1
RASTERVARIABLES
2
AcDbRasterVariables
3
ISM
90
0
280
0
281
0
0
ENDSEC
0
SECTION
2
TABLES
0
TABLE
2
VPORT
5
309
100
AcDbSymbolTable
0
VPORT
5
1
100
AcDbSymbolTableRecord
100
AcDbViewportTableRecord
2
*Active
70
0
10
0
20
0
11
1
21
1
12
-1
22
1
13
0
23
0
14
0.5
24
0.5
15
10
25
10
16
0
26
0
36
1
17
0
27
0
37
0
0
ENDTAB
0
TABLE
2
LTYPE
5
30a
100
AcDbSymbolTable
0
LTYPE
5
14
100
AcDbSymbolTableRecord
100
AcDbLinetypeTableRecord
70
0
2
ByBlock
3

72
65
73
0
40
0
0
LTYPE
5
15
100
AcDbSymbolTableRecord
100
AcDbLinetypeTableRecord
70
0
2
ByLayer
3

72
65
73
0
40
0
0
LTYPE
5
16
100
AcDbSymbolTableRecord
100
AcDbLinetypeTableRecord
70
0
2
Continuous
3
Solid line
72
65
73
0
40
0
0
LTYPE
5
6E
100
AcDbSymbolTableRecord
100
AcDbLinetypeTableRecord
70
0
2
CENTER
3
____ _ ____ _ ____ _ ____
72
65
73
4
40
47.5
49
22
74
0
49
-8.5
74
0
49
8.5
74
0
49
-8.5
74
0
0
LTYPE
5
6F
100
AcDbSymbolTableRecord
100
AcDbLinetypeTableRecord
70
0
2
DASHED
3
__ __ __ __ __ __ __ __ __
72
65
73
2
40
25.72
49
12.86
74
0
49
-12.86
74
0
0
ENDTAB
0
TABLE
2
LAYER
5
30b
100
AcDbSymbolTable
0
LAYER
5
10
100
AcDbSymbolTableRecord
100
AcDbLayerTableRecord
2
0
70
0
62
7
6
Continuous
290
1
370
-3
390
0
0
LAYER
5
71
100
AcDbSymbolTableRecord
100
AcDbLayerTableRecord
2
81
70
0
62
-3
6
Continuous
290
1
370
-3
390
0
0
LAYER
5
73
100
AcDbSymbolTableRecord
100
AcDbLayerTableRecord
2
80
70
0
62
-6
6
Continuous
290
1
370
-3
390
0
0
LAYER
5
75
100
AcDbSymbolTableRecord
100
AcDbLayerTableRecord
2
1
70
0
62
4
6
Continuous
290
1
370
-3
390
0
0
LAYER
5
D6
100
AcDbSymbolTableRecord
100
AcDbLayerTableRecord
2
4
70
0
62
-2
6
CENTER
290
1
370
-3
390
0
0
LAYER
5
1EA
100
AcDbSymbolTableRecord
100
AcDbLayerTableRecord
2
Defpoints
70
0
62
7
6
Continuous
290
0
370
-3
390
0
0
LAYER
5
1F8
100
AcDbSymbolTableRecord
100
AcDbLayerTableRecord
2
2
70
0
62
7
6
Continuous
290
1
370
-3
390
0
0
LAYER
5
2f5
100
AcDbSymbolTableRecord
100
AcDbLayerTableRecord
2
SK1
70
0
62
4
6
Continuous
290
1
370
-3
390
0
0
LAYER
5
2f6
100
AcDbSymbolTableRecord
100
AcDbLayerTableRecord
2
SK4
70
0
62
2
6
CENTER
290
1
370
-3
390
0
0
LAYER
5
2f7
100
AcDbSymbolTableRecord
100
AcDbLayerTableRecord
2
SK2
70
0
62
7
6
Continuous
290
1
370
-3
390
0
0
LAYER
5
2f8
100
AcDbSymbolTableRecord
100
AcDbLayerTableRecord
2
SK6
70
0
62
5
6
Continuous
290
1
370
-3
390
0
0
ENDTAB
0
TABLE
2
STYLE
5
30c
100
AcDbSymbolTable
0
STYLE
5
11
100
AcDbSymbolTableRecord
100
AcDbTextStyleTableRecord
2
Standard
3
txt
70
0
71
0
40
0
41
1
42
0
50
0
0
STYLE
5
1DB
100
AcDbSymbolTableRecord
100
AcDbTextStyleTableRecord
2
iso_b_vert
3
simplex.shx
70
0
71
0
40
0
41
1
42
0
50
0
0
STYLE
5
1DC
100
AcDbSymbolTableRecord
100
AcDbTextStyleTableRecord
2
DWGDirectTextStyle
3
simplex
70
0
71
0
40
0
41
1
42
0
50
0
0
ENDTAB
0
TABLE
2
DIMSTYLE
5
30d
100
AcDbSymbolTable
100
AcDbDimStyleTable
0
DIMSTYLE
105
27
100
AcDbSymbolTableRecord
100
AcDbDimStyleTableRecord
2
Standard
70
0
3
<>
41
0.18
42
0.0625
44
0.18
140
0.18
147
0.09
73
0
74
0
77
1
271
2
275
0
278
52
280
0
340
11
0
ENDTAB
0
TABLE
2
VIEW
5
30e
100
AcDbSymbolTable
0
ENDTAB
0
TABLE
2
UCS
5
30f
100
AcDbSymbolTable
0
ENDTAB
0
TABLE
2
APPID
5
310
100
AcDbSymbolTable
0
APPID
5
12
100
AcDbSymbolTableRecord
100
AcDbRegAppTableRecord
2
ACAD
70
0
0
APPID
5
1DF
100
AcDbSymbolTableRecord
100
AcDbRegAppTableRecord
2
ACAD_DSTYLE_DIMBREAK
70
0
0
APPID
5
2B4
100
AcDbSymbolTableRecord
100
AcDbRegAppTableRecord
2
ACAD_DSTYLE_DIM_LINETYPE
70
0
0
APPID
5
2B5
100
AcDbSymbolTableRecord
100
AcDbRegAppTableRecord
2
ACAD_DSTYLE_DIM_EXT1_LINETYPE
70
0
0
APPID
5
2B6
100
AcDbSymbolTableRecord
100
AcDbRegAppTableRecord
2
ACAD_DSTYLE_DIM_EXT2_LINETYPE
70
0
0
APPID
5
2F1
100
AcDbSymbolTableRecord
100
AcDbRegAppTableRecord
2
ACAD_MLEADERVER
70
0
0
ENDTAB
0
TABLE
2
BLOCK_RECORD
5
311
100
AcDbSymbolTable
0
BLOCK_RECORD
5
1F
100
AcDbSymbolTableRecord
100
AcDbBlockTableRecord
2
*Model_Space
340
0
70
0
0
BLOCK_RECORD
5
1B
100
AcDbSymbolTableRecord
100
AcDbBlockTableRecord
2
*Paper_Space
340
0
70
0
0
BLOCK_RECORD
5
23
100
AcDbSymbolTableRecord
100
AcDbBlockTableRecord
2
*Paper_Space0
340
0
70
0
0
BLOCK_RECORD
5
1E1
100
AcDbSymbolTableRecord
100
AcDbBlockTableRecord
2
_Closed
340
0
70
0
0
BLOCK_RECORD
5
1EB
100
AcDbSymbolTableRecord
100
AcDbBlockTableRecord
2
*D2
340
0
70
0
0
BLOCK_RECORD
5
1F9
100
AcDbSymbolTableRecord
100
AcDbBlockTableRecord
2
_U0
340
0
70
0
0
BLOCK_RECORD
5
20A
100
AcDbSymbolTableRecord
100
AcDbBlockTableRecord
2
*D4
340
0
70
0
0
BLOCK_RECORD
5
216
100
AcDbSymbolTableRecord
100
AcDbBlockTableRecord
2
_U1
340
0
70
0
0
BLOCK_RECORD
5
226
100
AcDbSymbolTableRecord
100
AcDbBlockTableRecord
2
*D6
340
0
70
0
0
BLOCK_RECORD
5
232
100
AcDbSymbolTableRecord
100
AcDbBlockTableRecord
2
_U2
340
0
70
0
0
BLOCK_RECORD
5
242
100
AcDbSymbolTableRecord
100
AcDbBlockTableRecord
2
*D8
340
0
70
0
0
BLOCK_RECORD
5
24E
100
AcDbSymbolTableRecord
100
AcDbBlockTableRecord
2
_U3
340
0
70
0
0
BLOCK_RECORD
5
25E
100
AcDbSymbolTableRecord
100
AcDbBlockTableRecord
2
*D10
340
0
70
0
0
BLOCK_RECORD
5
26A
100
AcDbSymbolTableRecord
100
AcDbBlockTableRecord
2
_U4
340
0
70
0
0
BLOCK_RECORD
5
27B
100
AcDbSymbolTableRecord
100
AcDbBlockTableRecord
2
*D12
340
0
70
0
0
BLOCK_RECORD
5
288
100
AcDbSymbolTableRecord
100
AcDbBlockTableRecord
2
_U5
340
0
70
0
0
ENDTAB
0
ENDSEC
0
SECTION
2
BLOCKS
0
BLOCK
5
20
100
AcDbEntity
8
0
100
AcDbBlockBegin
2
*Model_Space
70
0
10
0
20
0
30
0
3
*Model_Space
0
ENDBLK
5
21
100
AcDbEntity
8
0
100
AcDbBlockEnd
0
BLOCK
5
1C
100
AcDbEntity
8
0
100
AcDbBlockBegin
2
*Paper_Space
70
0
10
0
20
0
30
0
3
*Paper_Space
0
ENDBLK
5
1D
100
AcDbEntity
8
0
100
AcDbBlockEnd
0
BLOCK
5
24
100
AcDbEntity
8
0
100
AcDbBlockBegin
2
*Paper_Space0
70
0
10
0
20
0
30
0
3
*Paper_Space0
0
ENDBLK
5
25
100
AcDbEntity
8
0
100
AcDbBlockEnd
0
BLOCK
5
1E2
100
AcDbEntity
8
0
100
AcDbBlockBegin
2
_Closed
70
0
10
0
20
0
30
0
3
_Closed
0
LINE
5
1E4
100
AcDbEntity
8
0
62
256
6
ByLayer
370
-2
48
1
60
0
100
AcDbLine
10
-1
20
0.166667
30
0
11
0
21
0
31
0
39
0
210
0
220
0
230
1
0
LINE
5
1E5
100
AcDbEntity
8
0
62
256
6
ByLayer
370
-2
48
1
60
0
100
AcDbLine
10
0
20
0
30
0
11
-1
21
-0.166667
31
0
39
0
210
0
220
0
230
1
0
LINE
5
1E6
100
AcDbEntity
8
0
62
256
6
ByLayer
370
-2
48
1
60
0
100
AcDbLine
10
-1
20
0.166667
30
0
11
-1
21
-0.166667
31
0
39
0
210
0
220
0
230
1
0
LINE
5
1E7
100
AcDbEntity
8
0
62
256
6
ByLayer
370
-2
48
1
60
0
100
AcDbLine
10
0
20
0
30
0
11
-1
21
0
31
0
39
0
210
0
220
0
230
1
0
ENDBLK
5
1E3
100
AcDbEntity
8
0
100
AcDbBlockEnd
0
BLOCK
5
1EC
100
AcDbEntity
8
0
100
AcDbBlockBegin
2
*D2
70
1
10
0
20
0
30
0
3
*D2
0
LINE
5
1EE
100
AcDbEntity
8
0
62
256
6
ByLayer
370
-2
48
1
60
0
100
AcDbLine
10
38.8962
20
-12.954
30
0
11
65.380575
21
-12.954
31
0
39
0
210
0
220
0
230
1
0
LINE
5
1EF
100
AcDbEntity
8
0
62
256
6
ByLayer
370
-2
48
1
60
0
100
AcDbLine
10
38.8962
20
12.954
30
0
11
65.380575
21
12.954
31
0
39
0
210
0
220
0
230
1
0
LINE
5
1F0
100
AcDbEntity
8
0
62
256
6
ByLayer
370
-2
48
1
60
0
100
AcDbLine
10
62.205575
20
12.954
30
0
11
62.205575
21
51.839427
31
0
39
0
210
0
220
0
230
1
0
LINE
5
1F1
100
AcDbEntity
8
0
62
256
6
ByLayer
370
-2
48
1
60
0
100
AcDbLine
10
62.205575
20
-9.779
30
0
11
62.205575
21
9.779
31
0
39
0
210
0
220
0
230
1
0
SOLID
5
1F2
100
AcDbEntity
8
0
62
256
6
ByLayer
370
-1
48
1
60
0
100
AcDbTrace
10
61.676408
20
-9.779
30
0
11
62.734742
21
-9.779
31
0
12
62.205575
22
-12.954
32
0
13
62.205575
23
-12.954
33
0
39
0
210
0
220
0
230
1
0
SOLID
5
1F3
100
AcDbEntity
8
0
62
256
6
ByLayer
370
-1
48
1
60
0
100
AcDbTrace
10
62.734742
20
9.779
30
0
11
61.676408
21
9.779
31
0
12
62.205575
22
12.954
32
0
13
62.205575
23
12.954
33
0
39
0
210
0
220
0
230
1
0
MTEXT
5
1F4
100
AcDbEntity
8
0
62
256
6
ByLayer
370
18
48
1
60
0
100
AcDbMText
10
52.811825
20
36.338534
30
0
210
0
220
0
230
1
1
\A1;25.91
40
4.5
41
0
44
1
50
90
71
5
72
5
7
iso_b_vert
0
POINT
5
1F5
100
AcDbEntity
8
Defpoints
62
0
6
ByLayer
370
-1
48
1
60
0
100
AcDbPoint
10
37.3087
20
-12.954
30
0
39
0
210
0
220
0
230
1
50
360
0
POINT
5
1F6
100
AcDbEntity
8
Defpoints
62
0
6
ByLayer
370
-1
48
1
60
0
100
AcDbPoint
10
37.3087
20
12.954
30
0
39
0
210
0
220
0
230
1
50
360
0
POINT
5
1F7
100
AcDbEntity
8
Defpoints
62
0
6
ByLayer
370
-1
48
1
60
0
100
AcDbPoint
10
62.205575
20
12.954
30
0
39
0
210
0
220
0
230
1
50
360
0
ENDBLK
5
1ED
100
AcDbEntity
8
0
100
AcDbBlockEnd
0
BLOCK
5
205
100
AcDbEntity
8
0
100
AcDbBlockBegin
2
_U0
70
0
10
0
20
0
30
0
3
_U0
0
MTEXT
5
1FA
100
AcDbEntity
8
2
62
256
6
ByLayer
370
18
48
1
60
0
100
AcDbMText
10
60.123729
20
24.209375
30
0
210
0
220
0
230
1
1
%%c
40
3.175
41
0
44
1.084337
50
90
71
7
72
5
7
iso_b_vert
0
MTEXT
5
1FB
100
AcDbEntity
8
2
62
256
6
ByLayer
370
18
48
1
60
0
100
AcDbMText
10
60.525153
20
33.794
30
0
210
0
220
0
230
1
1
\W0.8628;25.91
40
4.5
41
0
44
1.084337
50
90
71
7
72
5
7
iso_b_vert
0
LINE
5
1FC
100
AcDbEntity
8
2
62
256
6
ByLayer
370
13
48
1
60
0
100
AcDbLine
10
38.8962
20
-12.954
30
0
11
65.380575
21
-12.954
31
0
39
0
210
0
220
0
230
1
0
LINE
5
1FD
100
AcDbEntity
8
2
62
256
6
ByLayer
370
13
48
1
60
0
100
AcDbLine
10
38.8962
20
12.954
30
0
11
65.380575
21
12.954
31
0
39
0
210
0
220
0
230
1
0
LINE
5
1FE
100
AcDbEntity
8
2
62
256
6
ByLayer
370
13
48
1
60
0
100
AcDbLine
10
62.205575
20
-12.954
30
0
11
62.205575
21
48.610568
31
0
39
0
210
0
220
0
230
1
0
LINE
5
1FF
100
AcDbEntity
8
2
62
256
6
ByLayer
370
13
48
1
60
0
100
AcDbLine
10
62.205575
20
-12.954
30
0
11
61.787578
21
-9.779002
31
0
39
0
210
0
220
0
230
1
0
LINE
5
200
100
AcDbEntity
8
2
62
256
6
ByLayer
370
13
48
1
60
0
100
AcDbLine
10
62.205575
20
-12.954
30
0
11
62.623572
21
-9.778998
31
0
39
0
210
0
220
0
230
1
0
LINE
5
201
100
AcDbEntity
8
2
62
256
6
ByLayer
370
13
48
1
60
0
100
AcDbLine
10
61.787578
20
-9.779002
30
0
11
62.623572
21
-9.778998
31
0
39
0
210
0
220
0
230
1
0
LINE
5
202
100
AcDbEntity
8
2
62
256
6
ByLayer
370
13
48
1
60
0
100
AcDbLine
10
62.205575
20
12.954
30
0
11
62.623572
21
9.779002
31
0
39
0
210
0
220
0
230
1
0
LINE
5
203
100
AcDbEntity
8
2
62
256
6
ByLayer
370
13
48
1
60
0
100
AcDbLine
10
62.205575
20
12.954
30
0
11
61.787578
21
9.778998
31
0
39
0
210
0
220
0
230
1
0
LINE
5
204
100
AcDbEntity
8
2
62
256
6
ByLayer
370
13
48
1
60
0
100
AcDbLine
10
62.623572
20
9.779002
30
0
11
61.787578
21
9.778998
31
0
39
0
210
0
220
0
230
1
0
ENDBLK
5
206
100
AcDbEntity
8
0
100
AcDbBlockEnd
0
BLOCK
5
20B
100
AcDbEntity
8
0
100
AcDbBlockBegin
2
*D4
70
1
10
0
20
0
30
0
3
*D4
0
LINE
5
20D
100
AcDbEntity
8
0
62
256
6
ByLayer
370
-2
48
1
60
0
100
AcDbLine
10
37.3087
20
-14.5415
30
0
11
37.3087
21
-40.629
31
0
39
0
210
0
220
0
230
1
0
LINE
5
20E
100
AcDbEntity
8
0
62
256
6
ByLayer
370
-2
48
1
60
0
100
AcDbLine
10
-0.0013
20
-1.5875
30
0
11
-0.0013
21
-40.629
31
0
39
0
210
0
220
0
230
1
0
LINE
5
20F
100
AcDbEntity
8
0
62
256
6
ByLayer
370
-2
48
1
60
0
100
AcDbLine
10
34.1337
20
-37.454
30
0
11
3.1737
21
-37.454
31
0
39
0
210
0
220
0
230
1
0
SOLID
5
210
100
AcDbEntity
8
0
62
256
6
ByLayer
370
-1
48
1
60
0
100
AcDbTrace
10
34.1337
20
-37.983167
30
0
11
34.1337
21
-36.924833
31
0
12
37.3087
22
-37.454
32
0
13
37.3087
23
-37.454
33
0
39
0
210
0
220
0
230
1
0
SOLID
5
211
100
AcDbEntity
8
0
62
256
6
ByLayer
370
-1
48
1
60
0
100
AcDbTrace
10
3.1737
20
-36.924833
30
0
11
3.1737
21
-37.983167
31
0
12
-0.0013
22
-37.454
32
0
13
-0.0013
23
-37.454
33
0
39
0
210
0
220
0
230
1
0
MTEXT
5
212
100
AcDbEntity
8
0
62
256
6
ByLayer
370
18
48
1
60
0
100
AcDbMText
10
18.6537
20
-28.06025
30
0
210
0
220
0
230
1
1
\A1;37.31
40
4.5
41
0
44
1
50
0
71
5
72
5
7
iso_b_vert
0
POINT
5
213
100
AcDbEntity
8
Defpoints
62
0
6
ByLayer
370
-1
48
1
60
0
100
AcDbPoint
10
37.3087
20
-12.954
30
0
39
0
210
0
220
0
230
1
50
360
0
POINT
5
214
100
AcDbEntity
8
Defpoints
62
0
6
ByLayer
370
-1
48
1
60
0
100
AcDbPoint
10
-0.0013
20
0
30
0
39
0
210
0
220
0
230
1
50
360
0
POINT
5
215
100
AcDbEntity
8
Defpoints
62
0
6
ByLayer
370
-1
48
1
60
0
100
AcDbPoint
10
-0.0013
20
-37.454
30
0
39
0
210
0
220
0
230
1
50
360
0
ENDBLK
5
20C
100
AcDbEntity
8
0
100
AcDbBlockEnd
0
BLOCK
5
221
100
AcDbEntity
8
0
100
AcDbBlockBegin
2
_U1
70
0
10
0
20
0
30
0
3
_U1
0
MTEXT
5
217
100
AcDbEntity
8
SK2
62
256
6
ByLayer
370
18
48
1
60
0
100
AcDbMText
10
11.382666
20
-36.126328
30
0
210
0
220
0
230
1
1
\W0.8628;37.31
40
4.5
41
0
44
1.084337
50
0
71
7
72
5
7
iso_b_vert
0
LINE
5
218
100
AcDbEntity
8
SK2
62
256
6
ByLayer
370
13
48
1
60
0
100
AcDbLine
10
37.3087
20
-14.5415
30
0
11
37.3087
21
-40.629
31
0
39
0
210
0
220
0
230
1
0
LINE
5
219
100
AcDbEntity
8
SK2
62
256
6
ByLayer
370
13
48
1
60
0
100
AcDbLine
10
-0.0013
20
-1.5875
30
0
11
-0.0013
21
-40.629
31
0
39
0
210
0
220
0
230
1
0
LINE
5
21A
100
AcDbEntity
8
SK2
62
256
6
ByLayer
370
13
48
1
60
0
100
AcDbLine
10
37.3087
20
-37.454
30
0
11
-0.0013
21
-37.454
31
0
39
0
210
0
220
0
230
1
0
LINE
5
21B
100
AcDbEntity
8
SK2
62
256
6
ByLayer
370
13
48
1
60
0
100
AcDbLine
10
37.3087
20
-37.454
30
0
11
34.133702
21
-37.871997
31
0
39
0
210
0
220
0
230
1
0
LINE
5
21C
100
AcDbEntity
8
SK2
62
256
6
ByLayer
370
13
48
1
60
0
100
AcDbLine
10
37.3087
20
-37.454
30
0
11
34.133698
21
-37.036003
31
0
39
0
210
0
220
0
230
1
0
LINE
5
21D
100
AcDbEntity
8
SK2
62
256
6
ByLayer
370
13
48
1
60
0
100
AcDbLine
10
34.133702
20
-37.871997
30
0
11
34.133698
21
-37.036003
31
0
39
0
210
0
220
0
230
1
0
LINE
5
21E
100
AcDbEntity
8
SK2
62
256
6
ByLayer
370
13
48
1
60
0
100
AcDbLine
10
-0.0013
20
-37.454
30
0
11
3.173698
21
-37.036003
31
0
39
0
210
0
220
0
230
1
0
LINE
5
21F
100
AcDbEntity
8
SK2
62
256
6
ByLayer
370
13
48
1
60
0
100
AcDbLine
10
-0.0013
20
-37.454
30
0
11
3.173702
21
-37.871997
31
0
39
0
210
0
220
0
230
1
0
LINE
5
220
100
AcDbEntity
8
SK2
62
256
6
ByLayer
370
13
48
1
60
0
100
AcDbLine
10
3.173698
20
-37.036003
30
0
11
3.173702
21
-37.871997
31
0
39
0
210
0
220
0
230
1
0
ENDBLK
5
222
100
AcDbEntity
8
0
100
AcDbBlockEnd
0
BLOCK
5
227
100
AcDbEntity
8
0
100
AcDbBlockBegin
2
*D6
70
1
10
0
20
0
30
0
3
*D6
0
LINE
5
229
100
AcDbEntity
8
0
62
256
6
ByLayer
370
-2
48
1
60
0
100
AcDbLine
10
-57.94
20
14.28425
30
0
11
-57.94
21
36.629
31
0
39
0
210
0
220
0
230
1
0
LINE
5
22A
100
AcDbEntity
8
0
62
256
6
ByLayer
370
-2
48
1
60
0
100
AcDbLine
10
37.3087
20
14.5415
30
0
11
37.3087
21
36.629
31
0
39
0
210
0
220
0
230
1
0
LINE
5
22B
100
AcDbEntity
8
0
62
256
6
ByLayer
370
-2
48
1
60
0
100
AcDbLine
10
-54.765
20
33.454
30
0
11
34.1337
21
33.454
31
0
39
0
210
0
220
0
230
1
0
SOLID
5
22C
100
AcDbEntity
8
0
62
256
6
ByLayer
370
-1
48
1
60
0
100
AcDbTrace
10
-54.765
20
33.983167
30
0
11
-54.765
21
32.924833
31
0
12
-57.94
22
33.454
32
0
13
-57.94
23
33.454
33
0
39
0
210
0
220
0
230
1
0
SOLID
5
22D
100
AcDbEntity
8
0
62
256
6
ByLayer
370
-1
48
1
60
0
100
AcDbTrace
10
34.1337
20
32.924833
30
0
11
34.1337
21
33.983167
31
0
12
37.3087
22
33.454
32
0
13
37.3087
23
33.454
33
0
39
0
210
0
220
0
230
1
0
MTEXT
5
22E
100
AcDbEntity
8
0
62
256
6
ByLayer
370
18
48
1
60
0
100
AcDbMText
10
-10.31565
20
42.84775
30
0
210
0
220
0
230
1
1
\A1;95.25
40
4.5
41
0
44
1
50
0
71
5
72
5
7
iso_b_vert
0
POINT
5
22F
100
AcDbEntity
8
Defpoints
62
0
6
ByLayer
370
-1
48
1
60
0
100
AcDbPoint
10
-57.94
20
12.69675
30
0
39
0
210
0
220
0
230
1
50
360
0
POINT
5
230
100
AcDbEntity
8
Defpoints
62
0
6
ByLayer
370
-1
48
1
60
0
100
AcDbPoint
10
37.3087
20
12.954
30
0
39
0
210
0
220
0
230
1
50
360
0
POINT
5
231
100
AcDbEntity
8
Defpoints
62
0
6
ByLayer
370
-1
48
1
60
0
100
AcDbPoint
10
37.3087
20
33.454
30
0
39
0
210
0
220
0
230
1
50
360
0
ENDBLK
5
228
100
AcDbEntity
8
0
100
AcDbBlockEnd
0
BLOCK
5
23D
100
AcDbEntity
8
0
100
AcDbBlockBegin
2
_U2
70
0
10
0
20
0
30
0
3
_U2
0
MTEXT
5
233
100
AcDbEntity
8
2
62
256
6
ByLayer
370
18
48
1
60
0
100
AcDbMText
10
-18.317822
20
34.781672
30
0
210
0
220
0
230
1
1
\W0.8825;95.25
40
4.5
41
0
44
1.084337
50
0
71
7
72
5
7
iso_b_vert
0
LINE
5
234
100
AcDbEntity
8
2
62
256
6
ByLayer
370
13
48
1
60
0
100
AcDbLine
10
-57.94
20
14.28425
30
0
11
-57.94
21
36.629
31
0
39
0
210
0
220
0
230
1
0
LINE
5
235
100
AcDbEntity
8
2
62
256
6
ByLayer
370
13
48
1
60
0
100
AcDbLine
10
37.3087
20
14.5415
30
0
11
37.3087
21
36.629
31
0
39
0
210
0
220
0
230
1
0
LINE
5
236
100
AcDbEntity
8
2
62
256
6
ByLayer
370
13
48
1
60
0
100
AcDbLine
10
-57.94
20
33.454
30
0
11
37.3087
21
33.454
31
0
39
0
210
0
220
0
230
1
0
LINE
5
237
100
AcDbEntity
8
2
62
256
6
ByLayer
370
13
48
1
60
0
100
AcDbLine
10
-57.94
20
33.454
30
0
11
-54.765002
21
33.871997
31
0
39
0
210
0
220
0
230
1
0
LINE
5
238
100
AcDbEntity
8
2
62
256
6
ByLayer
370
13
48
1
60
0
100
AcDbLine
10
-57.94
20
33.454
30
0
11
-54.764998
21
33.036003
31
0
39
0
210
0
220
0
230
1
0
LINE
5
239
100
AcDbEntity
8
2
62
256
6
ByLayer
370
13
48
1
60
0
100
AcDbLine
10
-54.765002
20
33.871997
30
0
11
-54.764998
21
33.036003
31
0
39
0
210
0
220
0
230
1
0
LINE
5
23A
100
AcDbEntity
8
2
62
256
6
ByLayer
370
13
48
1
60
0
100
AcDbLine
10
37.3087
20
33.454
30
0
11
34.133702
21
33.036003
31
0
39
0
210
0
220
0
230
1
0
LINE
5
23B
100
AcDbEntity
8
2
62
256
6
ByLayer
370
13
48
1
60
0
100
AcDbLine
10
37.3087
20
33.454
30
0
11
34.133698
21
33.871997
31
0
39
0
210
0
220
0
230
1
0
LINE
5
23C
100
AcDbEntity
8
2
62
256
6
ByLayer
370
13
48
1
60
0
100
AcDbLine
10
34.133702
20
33.036003
30
0
11
34.133698
21
33.871997
31
0
39
0
210
0
220
0
230
1
0
ENDBLK
5
23E
100
AcDbEntity
8
0
100
AcDbBlockEnd
0
BLOCK
5
243
100
AcDbEntity
8
0
100
AcDbBlockBegin
2
*D8
70
1
10
0
20
0
30
0
3
*D8
0
LINE
5
245
100
AcDbEntity
8
0
62
256
6
ByLayer
370
-2
48
1
60
0
100
AcDbLine
10
-57.94
20
14.28425
30
0
11
-57.94
21
26.629
31
0
39
0
210
0
220
0
230
1
0
LINE
5
246
100
AcDbEntity
8
0
62
256
6
ByLayer
370
-2
48
1
60
0
100
AcDbLine
10
31.2725
20
20.2425
30
0
11
31.2725
21
26.629
31
0
39
0
210
0
220
0
230
1
0
LINE
5
247
100
AcDbEntity
8
0
62
256
6
ByLayer
370
-2
48
1
60
0
100
AcDbLine
10
-54.765
20
23.454
30
0
11
28.0975
21
23.454
31
0
39
0
210
0
220
0
230
1
0
SOLID
5
248
100
AcDbEntity
8
0
62
256
6
ByLayer
370
-1
48
1
60
0
100
AcDbTrace
10
-54.765
20
23.983167
30
0
11
-54.765
21
22.924833
31
0
12
-57.94
22
23.454
32
0
13
-57.94
23
23.454
33
0
39
0
210
0
220
0
230
1
0
SOLID
5
249
100
AcDbEntity
8
0
62
256
6
ByLayer
370
-1
48
1
60
0
100
AcDbTrace
10
28.0975
20
22.924833
30
0
11
28.0975
21
23.983167
31
0
12
31.2725
22
23.454
32
0
13
31.2725
23
23.454
33
0
39
0
210
0
220
0
230
1
0
MTEXT
5
24A
100
AcDbEntity
8
0
62
256
6
ByLayer
370
18
48
1
60
0
100
AcDbMText
10
-13.33375
20
32.84775
30
0
210
0
220
0
230
1
1
\A1;89.21
40
4.5
41
0
44
1
50
0
71
5
72
5
7
iso_b_vert
0
POINT
5
24B
100
AcDbEntity
8
Defpoints
62
0
6
ByLayer
370
-1
48
1
60
0
100
AcDbPoint
10
-57.94
20
12.69675
30
0
39
0
210
0
220
0
230
1
50
360
0
POINT
5
24C
100
AcDbEntity
8
Defpoints
62
0
6
ByLayer
370
-1
48
1
60
0
100
AcDbPoint
10
31.2725
20
18.655
30
0
39
0
210
0
220
0
230
1
50
360
0
POINT
5
24D
100
AcDbEntity
8
Defpoints
62
0
6
ByLayer
370
-1
48
1
60
0
100
AcDbPoint
10
31.2725
20
23.454
30
0
39
0
210
0
220
0
230
1
50
360
0
ENDBLK
5
244
100
AcDbEntity
8
0
100
AcDbBlockEnd
0
BLOCK
5
259
100
AcDbEntity
8
0
100
AcDbBlockBegin
2
_U3
70
0
10
0
20
0
30
0
3
_U3
0
MTEXT
5
24F
100
AcDbEntity
8
SK2
62
256
6
ByLayer
370
18
48
1
60
0
100
AcDbMText
10
-20.604784
20
24.781672
30
0
210
0
220
0
230
1
1
\W0.8628;89.21
40
4.5
41
0
44
1.084337
50
0
71
7
72
5
7
iso_b_vert
0
LINE
5
250
100
AcDbEntity
8
SK2
62
256
6
ByLayer
370
13
48
1
60
0
100
AcDbLine
10
-57.94
20
14.28425
30
0
11
-57.94
21
26.629
31
0
39
0
210
0
220
0
230
1
0
LINE
5
251
100
AcDbEntity
8
SK2
62
256
6
ByLayer
370
13
48
1
60
0
100
AcDbLine
10
31.2725
20
20.2425
30
0
11
31.2725
21
26.629
31
0
39
0
210
0
220
0
230
1
0
LINE
5
252
100
AcDbEntity
8
SK2
62
256
6
ByLayer
370
13
48
1
60
0
100
AcDbLine
10
-57.94
20
23.454
30
0
11
31.2725
21
23.454
31
0
39
0
210
0
220
0
230
1
0
LINE
5
253
100
AcDbEntity
8
SK2
62
256
6
ByLayer
370
13
48
1
60
0
100
AcDbLine
10
-57.94
20
23.454
30
0
11
-54.765002
21
23.871997
31
0
39
0
210
0
220
0
230
1
0
LINE
5
254
100
AcDbEntity
8
SK2
62
256
6
ByLayer
370
13
48
1
60
0
100
AcDbLine
10
-57.94
20
23.454
30
0
11
-54.764998
21
23.036003
31
0
39
0
210
0
220
0
230
1
0
LINE
5
255
100
AcDbEntity
8
SK2
62
256
6
ByLayer
370
13
48
1
60
0
100
AcDbLine
10
-54.765002
20
23.871997
30
0
11
-54.764998
21
23.036003
31
0
39
0
210
0
220
0
230
1
0
LINE
5
256
100
AcDbEntity
8
SK2
62
256
6
ByLayer
370
13
48
1
60
0
100
AcDbLine
10
31.2725
20
23.454
30
0
11
28.097502
21
23.036003
31
0
39
0
210
0
220
0
230
1
0
LINE
5
257
100
AcDbEntity
8
SK2
62
256
6
ByLayer
370
13
48
1
60
0
100
AcDbLine
10
31.2725
20
23.454
30
0
11
28.097498
21
23.871997
31
0
39
0
210
0
220
0
230
1
0
LINE
5
258
100
AcDbEntity
8
SK2
62
256
6
ByLayer
370
13
48
1
60
0
100
AcDbLine
10
28.097502
20
23.036003
30
0
11
28.097498
21
23.871997
31
0
39
0
210
0
220
0
230
1
0
ENDBLK
5
25A
100
AcDbEntity
8
0
100
AcDbBlockEnd
0
BLOCK
5
25F
100
AcDbEntity
8
0
100
AcDbBlockBegin
2
*D10
70
1
10
0
20
0
30
0
3
*D10
0
LINE
5
261
100
AcDbEntity
8
0
62
256
6
ByLayer
370
-2
48
1
60
0
100
AcDbLine
10
32.86
20
-18.655
30
0
11
76.2337
21
-18.655
31
0
39
0
210
0
220
0
230
1
0
LINE
5
262
100
AcDbEntity
8
0
62
256
6
ByLayer
370
-2
48
1
60
0
100
AcDbLine
10
32.86
20
18.655
30
0
11
76.2337
21
18.655
31
0
39
0
210
0
220
0
230
1
0
LINE
5
263
100
AcDbEntity
8
0
62
256
6
ByLayer
370
-2
48
1
60
0
100
AcDbLine
10
73.0587
20
-15.48
30
0
11
73.0587
21
15.48
31
0
39
0
210
0
220
0
230
1
0
SOLID
5
264
100
AcDbEntity
8
0
62
256
6
ByLayer
370
-1
48
1
60
0
100
AcDbTrace
10
72.529533
20
-15.48
30
0
11
73.587867
21
-15.48
31
0
12
73.0587
22
-18.655
32
0
13
73.0587
23
-18.655
33
0
39
0
210
0
220
0
230
1
0
SOLID
5
265
100
AcDbEntity
8
0
62
256
6
ByLayer
370
-1
48
1
60
0
100
AcDbTrace
10
73.587867
20
15.48
30
0
11
72.529533
21
15.48
31
0
12
73.0587
22
18.655
32
0
13
73.0587
23
18.655
33
0
39
0
210
0
220
0
230
1
0
MTEXT
5
266
100
AcDbEntity
8
0
62
256
6
ByLayer
370
18
48
1
60
0
100
AcDbMText
10
63.66495
20
0
30
0
210
0
220
0
230
1
1
\A1;37.31
40
4.5
41
0
44
1
50
90
71
5
72
5
7
iso_b_vert
0
POINT
5
267
100
AcDbEntity
8
Defpoints
62
0
6
ByLayer
370
-1
48
1
60
0
100
AcDbPoint
10
31.2725
20
-18.655
30
0
39
0
210
0
220
0
230
1
50
360
0
POINT
5
268
100
AcDbEntity
8
Defpoints
62
0
6
ByLayer
370
-1
48
1
60
0
100
AcDbPoint
10
31.2725
20
18.655
30
0
39
0
210
0
220
0
230
1
50
360
0
POINT
5
269
100
AcDbEntity
8
Defpoints
62
0
6
ByLayer
370
-1
48
1
60
0
100
AcDbPoint
10
73.0587
20
18.655
30
0
39
0
210
0
220
0
230
1
50
360
0
ENDBLK
5
260
100
AcDbEntity
8
0
100
AcDbBlockEnd
0
BLOCK
5
276
100
AcDbEntity
8
0
100
AcDbBlockBegin
2
_U4
70
0
10
0
20
0
30
0
3
_U4
0
MTEXT
5
26B
100
AcDbEntity
8
SK2
62
256
6
ByLayer
370
18
48
1
60
0
100
AcDbMText
10
70.976854
20
-12.129159
30
0
210
0
220
0
230
1
1
%%c
40
3.175
41
0
44
1.084337
50
90
71
7
72
5
7
iso_b_vert
0
MTEXT
5
26C
100
AcDbEntity
8
SK2
62
256
6
ByLayer
370
18
48
1
60
0
100
AcDbMText
10
71.378278
20
-2.544534
30
0
210
0
220
0
230
1
1
\W0.8628;37.31
40
4.5
41
0
44
1.084337
50
90
71
7
72
5
7
iso_b_vert
0
LINE
5
26D
100
AcDbEntity
8
SK2
62
256
6
ByLayer
370
13
48
1
60
0
100
AcDbLine
10
32.86
20
-18.655
30
0
11
76.2337
21
-18.655
31
0
39
0
210
0
220
0
230
1
0
LINE
5
26E
100
AcDbEntity
8
SK2
62
256
6
ByLayer
370
13
48
1
60
0
100
AcDbLine
10
32.86
20
18.655
30
0
11
76.2337
21
18.655
31
0
39
0
210
0
220
0
230
1
0
LINE
5
26F
100
AcDbEntity
8
SK2
62
256
6
ByLayer
370
13
48
1
60
0
100
AcDbLine
10
73.0587
20
-18.655
30
0
11
73.0587
21
18.655
31
0
39
0
210
0
220
0
230
1
0
LINE
5
270
100
AcDbEntity
8
SK2
62
256
6
ByLayer
370
13
48
1
60
0
100
AcDbLine
10
73.0587
20
-18.655
30
0
11
72.640703
21
-15.480002
31
0
39
0
210
0
220
0
230
1
0
LINE
5
271
100
AcDbEntity
8
SK2
62
256
6
ByLayer
370
13
48
1
60
0
100
AcDbLine
10
73.0587
20
-18.655
30
0
11
73.476697
21
-15.479998
31
0
39
0
210
0
220
0
230
1
0
LINE
5
272
100
AcDbEntity
8
SK2
62
256
6
ByLayer
370
13
48
1
60
0
100
AcDbLine
10
72.640703
20
-15.480002
30
0
11
73.476697
21
-15.479998
31
0
39
0
210
0
220
0
230
1
0
LINE
5
273
100
AcDbEntity
8
SK2
62
256
6
ByLayer
370
13
48
1
60
0
100
AcDbLine
10
73.0587
20
18.655
30
0
11
73.476697
21
15.480002
31
0
39
0
210
0
220
0
230
1
0
LINE
5
274
100
AcDbEntity
8
SK2
62
256
6
ByLayer
370
13
48
1
60
0
100
AcDbLine
10
73.0587
20
18.655
30
0
11
72.640703
21
15.479998
31
0
39
0
210
0
220
0
230
1
0
LINE
5
275
100
AcDbEntity
8
SK2
62
256
6
ByLayer
370
13
48
1
60
0
100
AcDbLine
10
73.476697
20
15.480002
30
0
11
72.640703
21
15.479998
31
0
39
0
210
0
220
0
230
1
0
ENDBLK
5
277
100
AcDbEntity
8
0
100
AcDbBlockEnd
0
BLOCK
5
27C
100
AcDbEntity
8
0
100
AcDbBlockBegin
2
*D12
70
1
10
0
20
0
30
0
3
*D12
0
LINE
5
27E
100
AcDbEntity
8
0
62
256
6
ByLayer
370
-2
48
1
60
0
100
AcDbLine
10
-59.5275
20
12.69675
30
0
11
-86.218125
21
12.69675
31
0
39
0
210
0
220
0
230
1
0
LINE
5
27F
100
AcDbEntity
8
0
62
256
6
ByLayer
370
-2
48
1
60
0
100
AcDbLine
10
-59.5275
20
-12.69675
30
0
11
-86.218125
21
-12.69675
31
0
39
0
210
0
220
0
230
1
0
LINE
5
280
100
AcDbEntity
8
0
62
256
6
ByLayer
370
-2
48
1
60
0
100
AcDbLine
10
-83.043125
20
12.69675
30
0
11
-83.043125
21
52.849029
31
0
39
0
210
0
220
0
230
1
0
LINE
5
281
100
AcDbEntity
8
0
62
256
6
ByLayer
370
-2
48
1
60
0
100
AcDbLine
10
-83.043125
20
9.52175
30
0
11
-83.043125
21
-9.52175
31
0
39
0
210
0
220
0
230
1
0
SOLID
5
282
100
AcDbEntity
8
0
62
256
6
ByLayer
370
-1
48
1
60
0
100
AcDbTrace
10
-82.513958
20
9.52175
30
0
11
-83.572292
21
9.52175
31
0
12
-83.043125
22
12.69675
32
0
13
-83.043125
23
12.69675
33
0
39
0
210
0
220
0
230
1
0
SOLID
5
283
100
AcDbEntity
8
0
62
256
6
ByLayer
370
-1
48
1
60
0
100
AcDbTrace
10
-83.572292
20
-9.52175
30
0
11
-82.513958
21
-9.52175
31
0
12
-83.043125
22
-12.69675
32
0
13
-83.043125
23
-12.69675
33
0
39
0
210
0
220
0
230
1
0
MTEXT
5
284
100
AcDbEntity
8
0
62
256
6
ByLayer
370
18
48
1
60
0
100
AcDbMText
10
-92.436875
20
36.812422
30
0
210
0
220
0
230
1
1
\A1;25.39
40
4.5
41
0
44
1
50
90
71
5
72
5
7
iso_b_vert
0
POINT
5
285
100
AcDbEntity
8
Defpoints
62
0
6
ByLayer
370
-1
48
1
60
0
100
AcDbPoint
10
-57.94
20
12.69675
30
0
39
0
210
0
220
0
230
1
50
360
0
POINT
5
286
100
AcDbEntity
8
Defpoints
62
0
6
ByLayer
370
-1
48
1
60
0
100
AcDbPoint
10
-57.94
20
-12.69675
30
0
39
0
210
0
220
0
230
1
50
360
0
POINT
5
287
100
AcDbEntity
8
Defpoints
62
0
6
ByLayer
370
-1
48
1
60
0
100
AcDbPoint
10
-83.043125
20
-12.69675
30
0
39
0
210
0
220
0
230
1
50
360
0
ENDBLK
5
27D
100
AcDbEntity
8
0
100
AcDbBlockEnd
0
BLOCK
5
294
100
AcDbEntity
8
0
100
AcDbBlockBegin
2
_U5
70
0
10
0
20
0
30
0
3
_U5
0
MTEXT
5
289
100
AcDbEntity
8
SK2
62
256
6
ByLayer
370
18
48
1
60
0
100
AcDbMText
10
-85.124971
20
23.952125
30
0
210
0
220
0
230
1
1
%%c
40
3.175
41
0
44
1.084337
50
90
71
7
72
5
7
iso_b_vert
0
MTEXT
5
28A
100
AcDbEntity
8
SK2
62
256
6
ByLayer
370
18
48
1
60
0
100
AcDbMText
10
-84.723547
20
33.53675
30
0
210
0
220
0
230
1
1
\W0.8928;25.39
40
4.5
41
0
44
1.084337
50
90
71
7
72
5
7
iso_b_vert
0
LINE
5
28B
100
AcDbEntity
8
SK2
62
256
6
ByLayer
370
13
48
1
60
0
100
AcDbLine
10
-59.5275
20
12.69675
30
0
11
-86.218125
21
12.69675
31
0
39
0
210
0
220
0
230
1
0
LINE
5
28C
100
AcDbEntity
8
SK2
62
256
6
ByLayer
370
13
48
1
60
0
100
AcDbLine
10
-59.5275
20
-12.69675
30
0
11
-86.218125
21
-12.69675
31
0
39
0
210
0
220
0
230
1
0
LINE
5
28D
100
AcDbEntity
8
SK2
62
256
6
ByLayer
370
13
48
1
60
0
100
AcDbLine
10
-83.043125
20
-12.69675
30
0
11
-83.043125
21
49.815594
31
0
39
0
210
0
220
0
230
1
0
LINE
5
28E
100
AcDbEntity
8
SK2
62
256
6
ByLayer
370
13
48
1
60
0
100
AcDbLine
10
-83.043125
20
12.69675
30
0
11
-82.625128
21
9.521752
31
0
39
0
210
0
220
0
230
1
0
LINE
5
28F
100
AcDbEntity
8
SK2
62
256
6
ByLayer
370
13
48
1
60
0
100
AcDbLine
10
-83.043125
20
12.69675
30
0
11
-83.461122
21
9.521748
31
0
39
0
210
0
220
0
230
1
0
LINE
5
290
100
AcDbEntity
8
SK2
62
256
6
ByLayer
370
13
48
1
60
0
100
AcDbLine
10
-82.625128
20
9.521752
30
0
11
-83.461122
21
9.521748
31
0
39
0
210
0
220
0
230
1
0
LINE
5
291
100
AcDbEntity
8
SK2
62
256
6
ByLayer
370
13
48
1
60
0
100
AcDbLine
10
-83.043125
20
-12.69675
30
0
11
-83.461122
21
-9.521752
31
0
39
0
210
0
220
0
230
1
0
LINE
5
292
100
AcDbEntity
8
SK2
62
256
6
ByLayer
370
13
48
1
60
0
100
AcDbLine
10
-83.043125
20
-12.69675
30
0
11
-82.625128
21
-9.521748
31
0
39
0
210
0
220
0
230
1
0
LINE
5
293
100
AcDbEntity
8
SK2
62
256
6
ByLayer
370
13
48
1
60
0
100
AcDbLine
10
-83.461122
20
-9.521752
30
0
11
-82.625128
21
-9.521748
31
0
39
0
210
0
220
0
230
1
0
ENDBLK
5
295
100
AcDbEntity
8
0
100
AcDbBlockEnd
0
ENDSEC
0
SECTION
2
ENTITIES
0
ARC
5
E1
100
AcDbEntity
8
1
62
256
6
ByLayer
370
18
48
1
60
0
100
AcDbCircle
39
0
10
31.27611
20
12.622629
30
0
40
1.28905
210
0
220
0
230
1
100
AcDbArc
50
225
51
285
0
ARC
5
E2
100
AcDbEntity
8
1
62
256
6
ByLayer
370
18
48
1
60
0
100
AcDbCircle
39
0
10
31.27611
20
12.622629
30
0
40
1.28905
210
0
220
0
230
1
100
AcDbArc
50
285
51
345
0
ARC
5
E3
100
AcDbEntity
8
1
62
256
6
ByLayer
370
18
48
1
60
0
100
AcDbCircle
39
0
10
31.27611
20
12.622629
30
0
40
1.28905
210
0
220
0
230
1
100
AcDbArc
50
105
51
165
0
ARC
5
E4
100
AcDbEntity
8
1
62
256
6
ByLayer
370
18
48
1
60
0
100
AcDbCircle
39
0
10
31.27611
20
12.622629
30
0
40
1.28905
210
0
220
0
230
1
100
AcDbArc
50
165
51
225
0
ARC
5
E5
100
AcDbEntity
8
1
62
256
6
ByLayer
370
18
48
1
60
0
100
AcDbCircle
39
0
10
31.27611
20
12.622629
30
0
40
1.28905
210
0
220
0
230
1
100
AcDbArc
50
345
51
45
0
ARC
5
E6
100
AcDbEntity
8
1
62
256
6
ByLayer
370
18
48
1
60
0
100
AcDbCircle
39
0
10
31.27611
20
12.622629
30
0
40
1.28905
210
0
220
0
230
1
100
AcDbArc
50
45
51
105
0
ARC
5
E7
100
AcDbEntity
8
1
62
256
6
ByLayer
370
18
48
1
60
0
100
AcDbCircle
39
0
10
31.27611
20
12.622629
30
0
40
0.9944
210
0
220
0
230
1
100
AcDbArc
50
15
51
75
0
ARC
5
E8
100
AcDbEntity
8
1
62
256
6
ByLayer
370
18
48
1
60
0
100
AcDbCircle
39
0
10
31.27611
20
12.622629
30
0
40
0.9944
210
0
220
0
230
1
100
AcDbArc
50
75
51
135
0
ARC
5
E9
100
AcDbEntity
8
1
62
256
6
ByLayer
370
18
48
1
60
0
100
AcDbCircle
39
0
10
31.27611
20
12.622629
30
0
40
0.9944
210
0
220
0
230
1
100
AcDbArc
50
255
51
315
0
ARC
5
EA
100
AcDbEntity
8
1
62
256
6
ByLayer
370
18
48
1
60
0
100
AcDbCircle
39
0
10
31.27611
20
12.622629
30
0
40
0.9944
210
0
220
0
230
1
100
AcDbArc
50
135
51
195
0
ARC
5
EB
100
AcDbEntity
8
1
62
256
6
ByLayer
370
18
48
1
60
0
100
AcDbCircle
39
0
10
31.27611
20
12.622629
30
0
40
0.9944
210
0
220
0
230
1
100
AcDbArc
50
315
51
15
0
ARC
5
EC
100
AcDbEntity
8
1
62
256
6
ByLayer
370
18
48
1
60
0
100
AcDbCircle
39
0
10
31.27611
20
12.622629
30
0
40
0.9944
210
0
220
0
230
1
100
AcDbArc
50
195
51
255
0
ARC
5
F2
100
AcDbEntity
8
1
62
256
6
ByLayer
370
18
48
1
60
0
100
AcDbCircle
39
0
10
31.27611
20
-12.622629
30
0
40
1.5
210
0
220
0
230
1
100
AcDbArc
50
67.471864
51
112.533734
0
ARC
5
F3
100
AcDbEntity
8
1
62
256
6
ByLayer
370
13
48
1
60
0
100
AcDbCircle
39
0
10
31.27611
20
-12.422629
30
0
40
1.99999999999982
210
0
220
0
230
1
100
AcDbArc
50
45
51
90
0
ARC
5
F5
100
AcDbEntity
8
1
62
256
6
ByLayer
370
13
48
1
60
0
100
AcDbCircle
39
0
10
31.27611
20
-12.422629
30
0
40
1.5
210
0
220
0
230
1
100
AcDbArc
50
45
51
135
0
ARC
5
F7
100
AcDbEntity
8
1
62
256
6
ByLayer
370
13
48
1
60
0
100
AcDbCircle
39
0
10
36.862253
20
12.36245
30
0
40
1
210
0
220
0
230
1
100
AcDbArc
50
246.47645
51
269.796405
0
ARC
5
F8
100
AcDbEntity
8
1
62
256
6
ByLayer
370
13
48
1
60
0
100
AcDbCircle
39
0
10
27.811287
20
10.572019
30
0
40
1
210
0
220
0
230
1
100
AcDbArc
50
172.399728
51
277.392066
0
ARC
5
F9
100
AcDbEntity
8
1
62
256
6
ByLayer
370
13
48
1
60
0
100
AcDbCircle
39
0
10
31.27611
20
19.122629
30
0
40
12
210
0
220
0
230
1
100
AcDbArc
50
213.649299
51
235.221136
0
ARC
5
FA
100
AcDbEntity
8
1
62
256
6
ByLayer
370
13
48
1
60
0
100
AcDbCircle
39
0
10
0.420506
20
-12.98335
30
0
40
0.5
210
0
220
0
230
1
100
AcDbArc
50
90
51
135
0
ARC
5
FB
100
AcDbEntity
8
1
62
256
6
ByLayer
370
13
48
1
60
0
100
AcDbCircle
39
0
10
0.420506
20
12.98335
30
0
40
0.5
210
0
220
0
230
1
100
AcDbArc
50
225
51
270
0
ARC
5
FC
100
AcDbEntity
8
SK2
62
256
6
ByLayer
370
13
48
1
60
0
100
AcDbCircle
39
0
10
37.3087
20
12.954
30
0
40
12.9742585090184
210
0
220
0
230
1
100
AcDbArc
50
90
51
135
0
ARC
5
FD
100
AcDbEntity
8
SK2
62
256
6
ByLayer
370
13
48
1
60
0
100
AcDbCircle
39
0
10
37.3087
20
12.954
30
0
40
12.9742585090184
210
0
220
0
230
1
100
AcDbArc
50
24.363199
51
90
0
CIRCLE
5
E0
100
AcDbEntity
8
1
62
256
6
ByLayer
370
18
48
1
60
0
100
AcDbCircle
10
31.27611
20
-12.622629
30
0
40
1.2
39
0
210
0
220
0
230
1
0
CIRCLE
5
ED
100
AcDbEntity
8
1
62
256
6
ByLayer
370
18
48
1
60
0
100
AcDbCircle
10
31.27611
20
12.622629
30
0
40
1.4
39
0
210
0
220
0
230
1
0
CIRCLE
5
EE
100
AcDbEntity
8
1
62
256
6
ByLayer
370
18
48
1
60
0
100
AcDbCircle
10
31.27611
20
12.622629
30
0
40
2.1
39
0
210
0
220
0
230
1
0
CIRCLE
5
EF
100
AcDbEntity
8
1
62
256
6
ByLayer
370
18
48
1
60
0
100
AcDbCircle
10
31.27611
20
12.622629
30
0
40
2.15037854103613
39
0
210
0
220
0
230
1
0
CIRCLE
5
F0
100
AcDbEntity
8
1
62
256
6
ByLayer
370
18
48
1
60
0
100
AcDbCircle
10
31.27611
20
12.622629
30
0
40
2.26175520142507
39
0
210
0
220
0
230
1
0
CIRCLE
5
F1
100
AcDbEntity
8
1
62
256
6
ByLayer
370
18
48
1
60
0
100
AcDbCircle
10
31.27611
20
12.622629
30
0
40
2.30803925391311
39
0
210
0
220
0
230
1
0
CIRCLE
5
F4
100
AcDbEntity
8
1
62
256
6
ByLayer
370
13
48
1
60
0
100
AcDbCircle
10
31.27611
20
-12.422629
30
0
40
1.3175
39
0
210
0
220
0
230
1
0
CIRCLE
5
F6
100
AcDbEntity
8
1
62
256
6
ByLayer
370
13
48
1
60
0
100
AcDbCircle
10
31.27611
20
-12.422629
30
0
40
1.4
39
0
210
0
220
0
230
1
0
ELLIPSE
5
FE
100
AcDbEntity
8
1
62
256
6
ByLayer
370
13
48
1
60
0
100
AcDbEllipse
10
25.503194
20
2.306229
30
0
11
1.12021142188966
21
-0.554640757849574
31
0
210
0
220
0
230
1
40
0.40558
41
1.77195771143345
42
1.956344094887
0
ELLIPSE
5
FF
100
AcDbEntity
8
1
62
256
6
ByLayer
370
13
48
1
60
0
100
AcDbEllipse
10
25.518743
20
2.337635
30
0
11
1.12021142188966
21
-0.554640757849574
31
0
210
0
220
0
230
1
40
0.40558
41
1.79514664034661
42
1.93111679279559
0
ELLIPSE
5
100
100
AcDbEntity
8
1
62
256
6
ByLayer
370
13
48
1
60
0
100
AcDbEllipse
10
36.535363
20
0
30
0
11
12.624757629225
21
12.4358608141972
31
0
210
0
220
0
230
1
40
0.086167
41
-3.01427446955487
42
-2.88524766171188
0
ELLIPSE
5
101
100
AcDbEntity
8
1
62
256
6
ByLayer
370
13
48
1
60
0
100
AcDbEllipse
10
25.503194
20
13.213674
30
0
11
-0.883883476483187
21
0.883883476483182
31
0
210
0
220
0
230
1
40
0.819152
41
2.0697344758337
42
2.25412085928726
0
ELLIPSE
5
102
100
AcDbEntity
8
1
62
256
6
ByLayer
370
13
48
1
60
0
100
AcDbEllipse
10
785.557484
20
-4.3E-05
30
0
11
758.603299581292
21
-4.46472005175289E-05
31
0
210
0
220
0
230
1
40
0.190663
41
3.07772879153856
42
3.08756929600736
0
ELLIPSE
5
103
100
AcDbEntity
8
1
62
256
6
ByLayer
370
13
48
1
60
0
100
AcDbEllipse
10
-711.030956
20
7.4E-05
30
0
11
746.62950253575
21
-7.68588751321428E-05
31
0
210
0
220
0
230
1
40
0.192175
41
0.0544583311900153
42
0.0626317153721292
0
ELLIPSE
5
104
100
AcDbEntity
8
1
62
256
6
ByLayer
370
13
48
1
60
0
100
AcDbEllipse
10
31.27611
20
8.969785
30
0
11
2.00000000000257
21
2.34291072916806E-15
31
0
210
0
220
0
230
1
40
0.36397
41
-1.5707963267949
42
-0.785398163398458
0
ELLIPSE
5
105
100
AcDbEntity
8
1
62
256
6
ByLayer
370
13
48
1
60
0
100
AcDbEllipse
10
25.503194
20
2.306229
30
0
11
1.24531520388109
21
-0.108120502138079
31
0
210
0
220
0
230
1
40
0.086175
41
1.39683339124645
42
2.24275931395808
0
ELLIPSE
5
106
100
AcDbEntity
8
1
62
256
6
ByLayer
370
13
48
1
60
0
100
AcDbEllipse
10
32.33677
20
7.81
30
0
11
3.06151588455594E-17
21
0.5
31
0
210
0
220
0
230
1
40
0.707107
41
3.14159265358977
42
-1.57079632679491
0
ELLIPSE
5
107
100
AcDbEntity
8
1
62
256
6
ByLayer
370
13
48
1
60
0
100
AcDbEllipse
10
30.21545
20
7.81
30
0
11
3.06151588455594E-17
21
0.5
31
0
210
0
220
0
230
1
40
0.707107
41
1.57079632679488
42
3.14159265358979
0
ELLIPSE
5
108
100
AcDbEntity
8
1
62
256
6
ByLayer
370
13
48
1
60
0
100
AcDbEllipse
10
36.535363
20
0
30
0
11
12.624757603455
21
-12.4358607879558
31
0
210
0
220
0
230
1
40
0.086167
41
2.8852476614427
42
3.01427446942208
0
ELLIPSE
5
109
100
AcDbEntity
8
1
62
256
6
ByLayer
370
13
48
1
60
0
100
AcDbEllipse
10
36.862253
20
3
30
0
11
6.12303176911189E-17
21
1
31
0
210
0
220
0
230
1
40
0.965926
41
0.26297054138255
42
0.924444600198707
0
ELLIPSE
5
10A
100
AcDbEntity
8
1
62
256
6
ByLayer
370
13
48
1
60
0
100
AcDbEllipse
10
36.535363
20
0
30
0
11
10.0343517412692
21
9.20089989209296
31
0
210
0
220
0
230
1
40
0.840779
41
2.14380130408577
42
2.27282811198051
0
ELLIPSE
5
10B
100
AcDbEntity
8
SK1
62
256
6
ByLayer
370
13
48
1
60
0
100
AcDbEllipse
10
-33.204946
20
0
30
0
11
12.9203066667185
21
1.51355625567788E-14
31
0
210
0
220
0
230
1
40
0.982697
41
-0.582453993601129
42
0.582453993601117
0
ELLIPSE
5
10C
100
AcDbEntity
8
SK1
62
256
6
ByLayer
370
13
48
1
60
0
100
AcDbEllipse
10
-24.730054
20
0
30
0
11
12.9203066667189
21
1.51355625567792E-14
31
0
210
0
220
0
230
1
40
0.982697
41
2.55913865998867
42
-2.55913865998869
0
ELLIPSE
5
10D
100
AcDbEntity
8
SK1
62
256
6
ByLayer
370
13
48
1
60
0
100
AcDbEllipse
10
-56.029946
20
0
30
0
11
12.9203066667193
21
1.51355625567796E-14
31
0
210
0
220
0
230
1
40
0.982697
41
-0.58245399360111
42
0.5824539936011
0
ELLIPSE
5
10E
100
AcDbEntity
8
1
62
256
6
ByLayer
370
13
48
1
60
0
100
AcDbEllipse
10
25.503194
20
13.213674
30
0
11
-0.883883476483187
21
0.883883476483182
31
0
210
0
220
0
230
1
40
0.992546
41
1.68797235168289
42
2.38419558850365
0
ELLIPSE
5
10F
100
AcDbEntity
8
1
62
256
6
ByLayer
370
13
48
1
60
0
100
AcDbEllipse
10
25.346373
20
13.056854
30
0
11
0.890521287117534
21
0.890521287117532
31
0
210
0
220
6.32451267283211E-17
230
1
40
0.992546
41
-3.14159265358979
42
-2.09136601126691
0
POINT
5
70
100
AcDbEntity
8
81
62
256
6
ByLayer
370
18
48
1
60
0
100
AcDbPoint
10
37.3087
20
12.954
30
0
39
0
210
0
220
0
230
1
50
360
0
POINT
5
72
100
AcDbEntity
8
80
62
256
6
ByLayer
370
18
48
1
60
0
100
AcDbPoint
10
0
20
0
30
0
39
0
210
0
220
0
230
1
50
360
0
POINT
5
74
100
AcDbEntity
8
1
62
256
6
ByLayer
370
18
48
1
60
1
100
AcDbPoint
10
37.3087
20
-12.954
30
0
39
0
210
0
220
0
230
1
50
360
0
POINT
5
76
100
AcDbEntity
8
1
62
256
6
ByLayer
370
18
48
1
60
1
100
AcDbPoint
10
37.3087
20
12.954
30
0
39
0
210
0
220
0
230
1
50
360
0
POINT
5
77
100
AcDbEntity
8
1
62
256
6
ByLayer
370
18
48
1
60
1
100
AcDbPoint
10
37.3087
20
-12.954
30
0
39
0
210
0
220
0
230
1
50
360
0
POINT
5
78
100
AcDbEntity
8
1
62
256
6
ByLayer
370
18
48
1
60
1
100
AcDbPoint
10
-0.0013
20
0
30
0
39
0
210
0
220
0
230
1
50
360
0
POINT
5
79
100
AcDbEntity
8
1
62
256
6
ByLayer
370
18
48
1
60
1
100
AcDbPoint
10
-57.94
20
12.69675
30
0
39
0
210
0
220
0
230
1
50
360
0
POINT
5
7A
100
AcDbEntity
8
1
62
256
6
ByLayer
370
18
48
1
60
1
100
AcDbPoint
10
37.3087
20
12.954
30
0
39
0
210
0
220
0
230
1
50
360
0
POINT
5
7B
100
AcDbEntity
8
1
62
256
6
ByLayer
370
18
48
1
60
1
100
AcDbPoint
10
-57.94
20
12.69675
30
0
39
0
210
0
220
0
230
1
50
360
0
POINT
5
7C
100
AcDbEntity
8
1
62
256
6
ByLayer
370
18
48
1
60
1
100
AcDbPoint
10
31.2725
20
18.655
30
0
39
0
210
0
220
0
230
1
50
360
0
POINT
5
7D
100
AcDbEntity
8
1
62
256
6
ByLayer
370
18
48
1
60
1
100
AcDbPoint
10
31.2725
20
-18.655
30
0
39
0
210
0
220
0
230
1
50
360
0
POINT
5
7E
100
AcDbEntity
8
1
62
256
6
ByLayer
370
18
48
1
60
1
100
AcDbPoint
10
31.2725
20
18.655
30
0
39
0
210
0
220
0
230
1
50
360
0
POINT
5
7F
100
AcDbEntity
8
1
62
256
6
ByLayer
370
18
48
1
60
1
100
AcDbPoint
10
-57.94
20
12.69675
30
0
39
0
210
0
220
0
230
1
50
360
0
POINT
5
80
100
AcDbEntity
8
1
62
256
6
ByLayer
370
18
48
1
60
1
100
AcDbPoint
10
-57.94
20
-12.69675
30
0
39
0
210
0
220
0
230
1
50
360
0
SPLINE
5
110
100
AcDbEntity
8
1
62
256
6
ByLayer
370
18
48
1
60
0
100
AcDbSpline
70
4
71
3
72
8
73
4
40
0
40
0
40
0
40
0
40
1
40
1
40
1
40
1
41
1
10
25.4778342134871
20
-8.53E-14
30
0
41
1
10
26.3499325769515
20
-8.53E-14
30
0
41
1
10
27.2220309403925
20
-8.53E-14
30
0
41
1
10
28.09412930388
20
-8.53E-14
30
0
0
SPLINE
5
111
100
AcDbEntity
8
1
62
256
6
ByLayer
370
18
48
1
60
0
100
AcDbSpline
70
4
71
3
72
8
73
4
40
0
40
0
40
0
40
0
40
1
40
1
40
1
40
1
41
1
10
31.8417952441687
20
-1.137E-13
30
0
41
1
10
31.8975897725147
20
-0.0666666666667766
30
0
41
1
10
31.9533843008607
20
-0.133333333333439
30
0
41
1
10
32.0091788292067
20
-0.200000000000102
30
0
0
SPLINE
5
112
100
AcDbEntity
8
1
62
256
6
ByLayer
370
18
48
1
60
0
100
AcDbSpline
70
4
71
3
72
8
73
4
40
0
40
0
40
0
40
0
40
1
40
1
40
1
40
1
41
1
10
30.7104243942691
20
1.3927E-12
30
0
41
1
10
30.7104243942687
20
1.10333333333489
30
0
41
1
10
30.710424394269
20
2.20666666666841
30
0
41
1
10
30.7104243942693
20
3.31000000000191
30
0
0
SPLINE
5
113
100
AcDbEntity
8
1
62
256
6
ByLayer
370
18
48
1
60
0
100
AcDbSpline
70
4
71
3
72
10
73
6
40
0
40
0
40
0
40
0
40
0.375000000000406
40
0.750000000000812
40
1
40
1
40
1
40
1
41
1
10
33.2834908397044
20
-0.200000000000102
30
0
41
1
10
33.1483814613079
20
-0.200000000000102
30
0
41
1
10
32.8555708766629
20
-0.200000000000102
30
0
41
1
10
32.4178180717775
20
-0.200000000000102
30
0
41
1
10
32.1272395050562
20
-0.200000000000102
30
0
41
1
10
32.0091788292082
20
-0.200000000000102
30
0
0
SPLINE
5
114
100
AcDbEntity
8
1
62
256
6
ByLayer
370
18
48
1
60
0
100
AcDbSpline
70
4
71
3
72
8
73
4
40
0
40
0
40
0
40
0
40
1
40
1
40
1
40
1
41
1
10
28.5068267363425
20
3.30999999999992
30
0
41
1
10
27.7722941836897
20
3.30999999999992
30
0
41
1
10
27.0377616310558
20
3.30999999999992
30
0
41
1
10
26.3032290784168
20
3.30999999999992
30
0
0
SPLINE
5
115
100
AcDbEntity
8
1
62
256
6
ByLayer
370
18
48
1
60
0
100
AcDbSpline
70
4
71
3
72
8
73
4
40
0
40
0
40
0
40
0
40
1
40
1
40
1
40
1
41
1
10
26.3032290784176
20
3.31000000000208
30
0
41
1
10
26.0280974567766
20
2.20666666666861
30
0
41
1
10
25.7529658351355
20
1.10333333333511
30
0
41
1
10
25.4778342134936
20
1.6485E-12
30
0
0
SPLINE
5
116
100
AcDbEntity
8
1
62
256
6
ByLayer
370
18
48
1
60
0
100
AcDbSpline
70
4
71
3
72
8
73
4
40
0
40
0
40
0
40
0
40
1
40
1
40
1
40
1
41
1
10
37.0743854249519
20
-1.137E-13
30
0
41
1
10
36.0789951236747
20
-0.0666666666667766
30
0
41
1
10
35.0836048223975
20
-0.133333333333439
30
0
41
1
10
34.0882145211203
20
-0.200000000000102
30
0
0
SPLINE
5
117
100
AcDbEntity
8
1
62
256
6
ByLayer
370
18
48
1
60
0
100
AcDbSpline
70
4
71
3
72
8
73
4
40
0
40
0
40
0
40
0
40
1
40
1
40
1
40
1
41
1
10
30.7104243942696
20
3.30999999999989
30
0
41
1
10
29.9758918416301
20
3.30999999999989
30
0
41
1
10
29.2413592889958
20
3.30999999999992
30
0
41
1
10
28.5068267363425
20
3.30999999999992
30
0
0
SPLINE
5
118
100
AcDbEntity
8
1
62
256
6
ByLayer
370
18
48
1
60
0
100
AcDbSpline
70
4
71
3
72
8
73
4
40
0
40
0
40
0
40
0
40
1
40
1
40
1
40
1
41
1
10
31.8417952441661
20
-1.137E-13
30
0
41
1
10
32.7138936076304
20
-1.137E-13
30
0
41
1
10
33.5859919710714
20
-1.137E-13
30
0
41
1
10
34.458090334559
20
-1.137E-13
30
0
0
SPLINE
5
119
100
AcDbEntity
8
1
62
256
6
ByLayer
370
18
48
1
60
0
100
AcDbSpline
70
4
71
3
72
8
73
4
40
0
40
0
40
0
40
0
40
1
40
1
40
1
40
1
41
1
10
28.09412930388
20
-8.53E-14
30
0
41
1
10
28.9662276673676
20
-1.137E-13
30
0
41
1
10
29.8383260308086
20
-1.137E-13
30
0
41
1
10
30.7104243942729
20
-1.137E-13
30
0
0
SPLINE
5
11A
100
AcDbEntity
8
1
62
256
6
ByLayer
370
18
48
1
60
0
100
AcDbSpline
70
4
71
3
72
8
73
4
40
0
40
0
40
0
40
0
40
1
40
1
40
1
40
1
41
1
10
25.4778342134898
20
-8.53E-14
30
0
41
1
10
26.4732245147661
20
-0.0666666666667481
30
0
41
1
10
27.4686148160424
20
-0.133333333333411
30
0
41
1
10
28.4640051173186
20
-0.200000000000102
30
0
0
SPLINE
5
11B
100
AcDbEntity
8
1
62
256
6
ByLayer
370
18
48
1
60
0
100
AcDbSpline
70
4
71
3
72
8
73
4
40
0
40
0
40
0
40
0
40
1
40
1
40
1
40
1
41
1
10
37.0743854249477
20
1.4211E-12
30
0
41
1
10
36.7992538033055
20
1.10333333333492
30
0
41
1
10
36.5241221816641
20
2.20666666666841
30
0
41
1
10
36.2489905600228
20
3.31000000000191
30
0
0
SPLINE
5
11C
100
AcDbEntity
8
1
62
256
6
ByLayer
370
18
48
1
60
0
100
AcDbSpline
70
4
71
3
72
8
73
4
40
0
40
0
40
0
40
0
40
1
40
1
40
1
40
1
41
1
10
33.2834908397044
20
-0.200000000000102
30
0
41
1
10
33.6750240046559
20
-0.133333333333439
30
0
41
1
10
34.0665571696074
20
-0.0666666666667766
30
0
41
1
10
34.458090334559
20
-1.137E-13
30
0
0
SPLINE
5
11D
100
AcDbEntity
8
1
62
256
6
ByLayer
370
18
48
1
60
0
100
AcDbSpline
70
4
71
3
72
8
73
4
40
0
40
0
40
0
40
0
40
1
40
1
40
1
40
1
41
1
10
34.458090334559
20
-1.137E-13
30
0
41
1
10
35.3301886980465
20
-1.137E-13
30
0
41
1
10
36.2022870614875
20
-1.137E-13
30
0
41
1
10
37.0743854249519
20
-1.137E-13
30
0
0
SPLINE
5
11E
100
AcDbEntity
8
1
62
256
6
ByLayer
370
18
48
1
60
0
100
AcDbSpline
70
4
71
3
72
10
73
6
40
0
40
0
40
0
40
0
40
0.375000000000406
40
0.750000000000812
40
1
40
1
40
1
40
1
41
1
10
29.2687287987506
20
-0.200000000000102
30
0
41
1
10
29.1336194203521
20
-0.200000000000102
30
0
41
1
10
28.8859968616178
20
-0.200000000000102
30
0
41
1
10
28.6266783385345
20
-0.200000000000102
30
0
41
1
10
28.50560505055
20
-0.200000000000102
30
0
41
1
10
28.4640051173192
20
-0.200000000000102
30
0
0
SPLINE
5
11F
100
AcDbEntity
8
1
62
256
6
ByLayer
370
18
48
1
60
0
100
AcDbSpline
70
4
71
3
72
10
73
6
40
0
40
0
40
0
40
0
40
0.249999999999984
40
0.624999999999992
40
1
40
1
40
1
40
1
41
1
10
30.5430408092482
20
-0.200000000000102
30
0
41
1
10
30.4249801333988
20
-0.200000000000102
30
0
41
1
10
30.1344015666735
20
-0.200000000000102
30
0
41
1
10
29.6966487617935
20
-0.200000000000102
30
0
41
1
10
29.4038381771401
20
-0.200000000000102
30
0
41
1
10
29.2687287987426
20
-0.200000000000102
30
0
0
SPLINE
5
120
100
AcDbEntity
8
1
62
256
6
ByLayer
370
18
48
1
60
0
100
AcDbSpline
70
4
71
3
72
8
73
4
40
0
40
0
40
0
40
0
40
1
40
1
40
1
40
1
41
1
10
31.841795244171
20
3.31000000000205
30
0
41
1
10
31.8417952441716
20
2.20666666666858
30
0
41
1
10
31.8417952441723
20
1.10333333333509
30
0
41
1
10
31.8417952441721
20
1.62E-12
30
0
0
SPLINE
5
121
100
AcDbEntity
8
1
62
256
6
ByLayer
370
18
48
1
60
0
100
AcDbSpline
70
4
71
3
72
29
73
25
40
0
40
0
40
0
40
0
40
0.125000000000945
40
0.171875000000894
40
0.218750000000842
40
0.242187500000816
40
0.26562500000079
40
0.277343750000777
40
0.289062500000764
40
0.312500000000738
40
0.359375000000687
40
0.406250000000635
40
0.500000000000531
40
0.593750000000427
40
0.640625000000376
40
0.687500000000324
40
0.710937500000298
40
0.722656250000285
40
0.734375000000272
40
0.757812500000246
40
0.78125000000022
40
0.828125000000168
40
0.875000000000117
40
1
40
1
40
1
40
1
41
1
10
32.0091788292082
20
-0.200000000000102
30
0
41
1
10
31.9501484912835
20
-0.200000000000102
30
0
41
1
10
31.8683529722384
20
-0.200000000000102
30
0
41
1
10
31.7634162827557
20
-0.200000000000102
30
0
41
1
10
31.7069889111839
20
-0.200000000000102
30
0
41
1
10
31.6617307060079
20
-0.200000000000102
30
0
41
1
10
31.6334061534021
20
-0.200000000000102
30
0
41
1
10
31.6107347410708
20
-0.200000000000102
30
0
41
1
10
31.5879825447269
20
-0.200000000000102
30
0
41
1
10
31.5478561817371
20
-0.200000000000102
30
0
41
1
10
31.4897639331942
20
-0.200000000000102
30
0
41
1
10
31.3955297665081
20
-0.200000000000102
30
0
41
1
10
31.2761098324946
20
-0.200000000000102
30
0
41
1
10
31.1566899033713
20
-0.200000000000102
30
0
41
1
10
31.0624557438637
20
-0.200000000000102
30
0
41
1
10
31.0043634802968
20
-0.200000000000102
30
0
41
1
10
30.9642370971315
20
-0.200000000000102
30
0
41
1
10
30.9414848967973
20
-0.200000000000102
30
0
41
1
10
30.9188134852786
20
-0.200000000000102
30
0
41
1
10
30.8904889327002
20
-0.200000000000102
30
0
41
1
10
30.8452307271454
20
-0.200000000000102
30
0
41
1
10
30.7888033557002
20
-0.200000000000102
30
0
41
1
10
30.6838666662179
20
-0.200000000000102
30
0
41
1
10
30.6020711471729
20
-0.200000000000102
30
0
41
1
10
30.5430408092482
20
-0.200000000000102
30
0
0
SPLINE
5
122
100
AcDbEntity
8
1
62
256
6
ByLayer
370
18
48
1
60
0
100
AcDbSpline
70
4
71
1
72
4
73
2
40
0
40
0
40
1
40
1
41
1
10
28.09412930388
20
-8.53E-14
30
0
41
1
10
28.5068267363425
20
3.30999999999992
30
0
0
SPLINE
5
123
100
AcDbEntity
8
1
62
256
6
ByLayer
370
18
48
1
60
0
100
AcDbSpline
70
4
71
3
72
8
73
4
40
0
40
0
40
0
40
0
40
1
40
1
40
1
40
1
41
1
10
28.09412930388
20
-8.53E-14
30
0
41
1
10
28.4856624688369
20
-0.0666666666667766
30
0
41
1
10
28.8771956337938
20
-0.133333333333439
30
0
41
1
10
29.2687287987506
20
-0.200000000000102
30
0
0
SPLINE
5
124
100
AcDbEntity
8
1
62
256
6
ByLayer
370
18
48
1
60
0
100
AcDbSpline
70
4
71
3
72
17
73
13
40
0
40
0
40
0
40
0
40
0.0625
40
0.125
40
0.25
40
0.375
40
0.5
40
0.625
40
0.75
40
0.875
40
0.9375
40
1
40
1
40
1
40
1
41
1
10
31.8417952441702
20
3.31000000000026
30
0
41
1
10
31.8232838282193
20
3.31000000000023
30
0
41
1
10
31.7844338015464
20
3.3100000000002
30
0
41
1
10
31.7002054602439
20
3.31000000000017
30
0
41
1
10
31.5842074355754
20
3.31000000000012
30
0
41
1
10
31.4331818150697
20
3.31000000000006
30
0
41
1
10
31.2761095742762
20
3.31
30
0
41
1
10
31.1190367672086
20
3.30999999999997
30
0
41
1
10
30.9680126285198
20
3.30999999999997
30
0
41
1
10
30.8520139488065
20
3.30999999999995
30
0
41
1
10
30.7677862635241
20
3.30999999999995
30
0
41
1
10
30.7289358102196
20
3.30999999999995
30
0
41
1
10
30.7104243942689
20
3.30999999999995
30
0
0
SPLINE
5
125
100
AcDbEntity
8
1
62
256
6
ByLayer
370
18
48
1
60
0
100
AcDbSpline
70
4
71
3
72
8
73
4
40
0
40
0
40
0
40
0
40
1
40
1
40
1
40
1
41
1
10
36.2489905600236
20
3.30999999999992
30
0
41
1
10
35.5144580073841
20
3.30999999999989
30
0
41
1
10
34.7799254547498
20
3.30999999999989
30
0
41
1
10
34.0453929020965
20
3.30999999999989
30
0
0
SPLINE
5
126
100
AcDbEntity
8
1
62
256
6
ByLayer
370
18
48
1
60
0
100
AcDbSpline
70
4
71
1
72
4
73
2
40
0
40
0
40
1
40
1
41
1
10
34.458090334559
20
-1.137E-13
30
0
41
1
10
34.0453929020965
20
3.30999999999989
30
0
0
SPLINE
5
127
100
AcDbEntity
8
1
62
256
6
ByLayer
370
18
48
1
60
0
100
AcDbSpline
70
4
71
3
72
10
73
6
40
0
40
0
40
0
40
0
40
0.249999999999984
40
0.624999999999992
40
1
40
1
40
1
40
1
41
1
10
34.0882145211203
20
-0.200000000000102
30
0
41
1
10
34.0466145878912
20
-0.200000000000102
30
0
41
1
10
33.9255412999127
20
-0.200000000000102
30
0
41
1
10
33.6662227768212
20
-0.200000000000102
30
0
41
1
10
33.4186002180946
20
-0.200000000000102
30
0
41
1
10
33.2834908396964
20
-0.200000000000102
30
0
0
SPLINE
5
128
100
AcDbEntity
8
1
62
256
6
ByLayer
370
18
48
1
60
0
100
AcDbSpline
70
4
71
3
72
17
73
13
40
0
40
0
40
0
40
0
40
0.0625
40
0.125
40
0.25
40
0.375
40
0.5
40
0.625
40
0.75
40
0.875
40
0.9375
40
1
40
1
40
1
40
1
41
1
10
30.7104243942703
20
-1.630567681E-07
30
0
41
1
10
30.7289364064708
20
-1.630567397E-07
30
0
41
1
10
30.7677795375651
20
-1.630567397E-07
30
0
41
1
10
30.8519907948632
20
-1.630566828E-07
30
0
41
1
10
30.9679893884117
20
-1.630566544E-07
30
0
41
1
10
31.1190312509511
20
-1.630565976E-07
30
0
41
1
10
31.2761096221003
20
-1.630565407E-07
30
0
41
1
10
31.4331877314793
20
-1.630564839E-07
30
0
41
1
10
31.5842305024925
20
-1.63056427E-07
30
0
41
1
10
31.7002287326839
20
-1.630563986E-07
30
0
41
1
10
31.7844403625293
20
-1.630563702E-07
30
0
41
1
10
31.8232832319682
20
-1.630563418E-07
30
0
41
1
10
31.8417952441687
20
-1.630563418E-07
30
0
0
SPLINE
5
129
100
AcDbEntity
8
1
62
256
6
ByLayer
370
18
48
1
60
0
100
AcDbSpline
70
4
71
3
72
8
73
4
40
0
40
0
40
0
40
0
40
1
40
1
40
1
40
1
41
1
10
30.7104243942729
20
-1.137E-13
30
0
41
1
10
30.6546298659314
20
-0.0666666666667766
30
0
41
1
10
30.5988353375898
20
-0.133333333333439
30
0
41
1
10
30.5430408092482
20
-0.200000000000102
30
0
0
SPLINE
5
12A
100
AcDbEntity
8
1
62
256
6
ByLayer
370
18
48
1
60
0
100
AcDbSpline
70
4
71
3
72
8
73
4
40
0
40
0
40
0
40
0
40
1
40
1
40
1
40
1
41
1
10
34.0453929020965
20
3.30999999999989
30
0
41
1
10
33.3108603494437
20
3.30999999999989
30
0
41
1
10
32.5763277968098
20
3.30999999999989
30
0
41
1
10
31.8417952441707
20
3.30999999999989
30
0
0
SPLINE
5
12B
100
AcDbEntity
8
1
62
256
6
ByLayer
370
18
48
1
60
0
100
AcDbSpline
70
4
71
3
72
8
73
4
40
0
40
0
40
0
40
0
40
1
40
1
40
1
40
1
41
1
10
25.4778342134871
20
-13.1883145750479
30
0
41
1
10
26.3499325769515
20
-14.0604129385124
30
0
41
1
10
27.2220309403925
20
-14.9325113019533
30
0
41
1
10
28.09412930388
20
-15.8046096654409
30
0
0
SPLINE
5
12C
100
AcDbEntity
8
1
62
256
6
ByLayer
370
18
48
1
60
0
100
AcDbSpline
70
4
71
3
72
8
73
4
40
0
40
0
40
0
40
0
40
1
40
1
40
1
40
1
41
1
10
30.7104243942691
20
-18.4209047558296
30
0
41
1
10
30.7104243942687
20
-18.1457731341874
30
0
41
1
10
30.710424394269
20
-17.8706415125461
30
0
41
1
10
30.7104243942693
20
-17.5955098909047
30
0
0
SPLINE
5
12D
100
AcDbEntity
8
1
62
256
6
ByLayer
370
18
48
1
60
0
100
AcDbSpline
70
4
71
3
72
8
73
4
40
0
40
0
40
0
40
0
40
1
40
1
40
1
40
1
41
1
10
28.5068267363425
20
-15.3919122329784
30
0
41
1
10
27.7722941836897
20
-14.6573796803256
30
0
41
1
10
27.0377616310558
20
-13.9228471276917
30
0
41
1
10
26.3032290784167
20
-13.1883145750526
30
0
0
SPLINE
5
12E
100
AcDbEntity
8
1
62
256
6
ByLayer
370
18
48
1
60
0
100
AcDbSpline
70
4
71
3
72
8
73
4
40
0
40
0
40
0
40
0
40
1
40
1
40
1
40
1
41
1
10
26.3032290784176
20
-13.1883145750529
30
0
41
1
10
26.0280974567766
20
-13.1883145750536
30
0
41
1
10
25.7529658351355
20
-13.1883145750542
30
0
41
1
10
25.4778342134936
20
-13.188314575054
30
0
0
SPLINE
5
12F
100
AcDbEntity
8
1
62
256
6
ByLayer
370
18
48
1
60
0
100
AcDbSpline
70
4
71
3
72
17
73
13
40
0
40
0
40
0
40
0
40
0.0625
40
0.125
40
0.25
40
0.375
40
0.5
40
0.625
40
0.75
40
0.875
40
0.9375
40
1
40
1
40
1
40
1
41
1
10
37.0743854656097
20
-13.1883145750507
30
0
41
1
10
37.0928974778101
20
-13.1698025628502
30
0
41
1
10
37.1281021533363
20
-13.1309594317558
30
0
41
1
10
37.1905619658381
20
-13.0467481744578
30
0
41
1
10
37.2525679447493
20
-12.9307495809093
30
0
41
1
10
37.2983860309133
20
-12.7797077183698
30
0
41
1
10
37.3138570033175
20
-12.6226293472207
30
0
41
1
10
37.29838594125
20
-12.4655512378417
30
0
41
1
10
37.2525689085904
20
-12.3145084668285
30
0
41
1
10
37.1905620171533
20
-12.1985102366371
30
0
41
1
10
37.1281025998898
20
-12.1142986067916
30
0
41
1
10
37.0928974778101
20
-12.0754557373528
30
0
41
1
10
37.0743854656096
20
-12.0569437251522
30
0
0
SPLINE
5
130
100
AcDbEntity
8
1
62
256
6
ByLayer
370
18
48
1
60
0
100
AcDbSpline
70
4
71
3
72
8
73
4
40
0
40
0
40
0
40
0
40
1
40
1
40
1
40
1
41
1
10
30.7104243942696
20
-17.5955098909055
30
0
41
1
10
29.9758918416301
20
-16.860977338266
30
0
41
1
10
29.2413592889958
20
-16.1264447856317
30
0
41
1
10
28.5068267363425
20
-15.3919122329784
30
0
0
SPLINE
5
131
100
AcDbEntity
8
1
62
256
6
ByLayer
370
18
48
1
60
0
100
AcDbSpline
70
4
71
3
72
8
73
4
40
0
40
0
40
0
40
0
40
1
40
1
40
1
40
1
41
1
10
31.841795244166
20
-18.4209047558338
30
0
41
1
10
32.7138936076304
20
-17.5488063923694
30
0
41
1
10
33.5859919710714
20
-16.6767080289285
30
0
41
1
10
34.458090334559
20
-15.8046096654409
30
0
0
SPLINE
5
132
100
AcDbEntity
8
1
62
256
6
ByLayer
370
18
48
1
60
0
100
AcDbSpline
70
4
71
3
72
8
73
4
40
0
40
0
40
0
40
0
40
1
40
1
40
1
40
1
41
1
10
28.09412930388
20
-15.8046096654409
30
0
41
1
10
28.9662276673676
20
-16.6767080289285
30
0
41
1
10
29.8383260308086
20
-17.5488063923694
30
0
41
1
10
30.7104243942729
20
-18.4209047558338
30
0
0
SPLINE
5
133
100
AcDbEntity
8
1
62
256
6
ByLayer
370
18
48
1
60
0
100
AcDbSpline
70
4
71
3
72
8
73
4
40
0
40
0
40
0
40
0
40
1
40
1
40
1
40
1
41
1
10
37.0743854249477
20
-13.1883145750518
30
0
41
1
10
36.7992538033055
20
-13.1883145750523
30
0
41
1
10
36.5241221816641
20
-13.188314575052
30
0
41
1
10
36.2489905600228
20
-13.1883145750516
30
0
0
SPLINE
5
134
100
AcDbEntity
8
1
62
256
6
ByLayer
370
18
48
1
60
0
100
AcDbSpline
70
4
71
3
72
8
73
4
40
0
40
0
40
0
40
0
40
1
40
1
40
1
40
1
41
1
10
34.458090334559
20
-15.8046096654409
30
0
41
1
10
35.3301886980465
20
-14.9325113019533
30
0
41
1
10
36.2022870614875
20
-14.0604129385124
30
0
41
1
10
37.0743854249519
20
-13.188314575048
30
0
0
SPLINE
5
135
100
AcDbEntity
8
1
62
256
6
ByLayer
370
18
48
1
60
0
100
AcDbSpline
70
4
71
3
72
8
73
4
40
0
40
0
40
0
40
0
40
1
40
1
40
1
40
1
41
1
10
31.841795244171
20
-17.5955098909034
30
0
41
1
10
31.8417952441716
20
-17.8706415125444
30
0
41
1
10
31.8417952441723
20
-18.1457731341855
30
0
41
1
10
31.841795244172
20
-18.4209047558274
30
0
0
SPLINE
5
136
100
AcDbEntity
8
1
62
256
6
ByLayer
370
18
48
1
60
0
100
AcDbSpline
70
4
71
1
72
4
73
2
40
0
40
0
40
1
40
1
41
1
10
28.09412930388
20
-15.8046096654409
30
0
41
1
10
28.5068267363425
20
-15.3919122329784
30
0
0
SPLINE
5
137
100
AcDbEntity
8
1
62
256
6
ByLayer
370
18
48
1
60
0
100
AcDbSpline
70
4
71
3
72
17
73
13
40
0
40
0
40
0
40
0
40
0.0625
40
0.125
40
0.25
40
0.375
40
0.5
40
0.625
40
0.75
40
0.875
40
0.9375
40
1
40
1
40
1
40
1
41
1
10
31.8417952441702
20
-17.5955098909047
30
0
41
1
10
31.8232838282193
20
-17.6140213068555
30
0
41
1
10
31.7844338015463
20
-17.6492165043245
30
0
41
1
10
31.7002054602438
20
-17.7116474555965
30
0
41
1
10
31.5842074355754
20
-17.773640859926
30
0
41
1
10
31.4331818150697
20
-17.8194938477697
30
0
41
1
10
31.2761095742762
20
-17.834989724862
30
0
41
1
10
31.1190367672085
20
-17.8194941531904
30
0
41
1
10
30.9680126285198
20
-17.773639445823
30
0
41
1
10
30.8520139488065
20
-17.7116474296737
30
0
41
1
10
30.7677862635241
20
-17.6492157853741
30
0
41
1
10
30.7289358102196
20
-17.6140213068555
30
0
41
1
10
30.7104243942688
20
-17.5955098909047
30
0
0
SPLINE
5
138
100
AcDbEntity
8
1
62
256
6
ByLayer
370
18
48
1
60
0
100
AcDbSpline
70
4
71
3
72
8
73
4
40
0
40
0
40
0
40
0
40
1
40
1
40
1
40
1
41
1
10
36.2489905600236
20
-13.1883145750514
30
0
41
1
10
35.5144580073841
20
-13.9228471276909
30
0
41
1
10
34.7799254547497
20
-14.6573796803252
30
0
41
1
10
34.0453929020965
20
-15.3919122329784
30
0
0
SPLINE
5
139
100
AcDbEntity
8
1
62
256
6
ByLayer
370
18
48
1
60
0
100
AcDbSpline
70
4
71
1
72
4
73
2
40
0
40
0
40
1
40
1
41
1
10
34.458090334559
20
-15.8046096654409
30
0
41
1
10
34.0453929020965
20
-15.3919122329784
30
0
0
SPLINE
5
13A
100
AcDbEntity
8
1
62
256
6
ByLayer
370
18
48
1
60
0
100
AcDbSpline
70
4
71
3
72
17
73
13
40
0
40
0
40
0
40
0
40
0.0625
40
0.125
40
0.25
40
0.375
40
0.5
40
0.625
40
0.75
40
0.875
40
0.9375
40
1
40
1
40
1
40
1
41
1
10
30.7104243942703
20
-18.4209047964916
30
0
41
1
10
30.7289364064707
20
-18.4394168086921
30
0
41
1
10
30.7677795375651
20
-18.4746214842183
30
0
41
1
10
30.8519907948631
20
-18.53708129672
30
0
41
1
10
30.9679893884117
20
-18.5990872756313
30
0
41
1
10
31.1190312509511
20
-18.6449053617953
30
0
41
1
10
31.2761096221003
20
-18.6603763341995
30
0
41
1
10
31.4331877314793
20
-18.6449052721319
30
0
41
1
10
31.5842305024925
20
-18.5990882394723
30
0
41
1
10
31.7002287326839
20
-18.5370813480352
30
0
41
1
10
31.7844403625293
20
-18.4746219307717
30
0
41
1
10
31.8232832319682
20
-18.439416808692
30
0
41
1
10
31.8417952441687
20
-18.4209047964915
30
0
0
SPLINE
5
13B
100
AcDbEntity
8
1
62
256
6
ByLayer
370
18
48
1
60
0
100
AcDbSpline
70
4
71
3
72
8
73
4
40
0
40
0
40
0
40
0
40
1
40
1
40
1
40
1
41
1
10
34.0453929020965
20
-15.3919122329784
30
0
41
1
10
33.3108603494437
20
-16.1264447856313
30
0
41
1
10
32.5763277968097
20
-16.8609773382651
30
0
41
1
10
31.8417952441707
20
-17.5955098909042
30
0
0
SPLINE
5
13C
100
AcDbEntity
8
1
62
256
6
ByLayer
370
18
48
1
60
0
100
AcDbSpline
70
4
71
3
72
8
73
4
40
0
40
0
40
0
40
0
40
1
40
1
40
1
40
1
41
1
10
30.6983855142602
20
13.6254281212182
30
0
41
1
10
30.7000069353645
20
13.618961849635
30
0
41
1
10
30.7016286131904
20
13.6124945542393
30
0
41
1
10
30.7032505608087
20
13.6060261829038
30
0
0
SPLINE
5
13D
100
AcDbEntity
8
1
62
256
6
ByLayer
370
18
48
1
60
0
100
AcDbSpline
70
4
71
3
72
8
73
4
40
0
40
0
40
0
40
0
40
1
40
1
40
1
40
1
41
1
10
32.4334213555753
20
12.6215535890215
30
0
41
1
10
32.4270106895643
20
12.6233825329465
30
0
41
1
10
32.420599008545
20
12.6252117664504
30
0
41
1
10
32.4141862608381
20
12.627041304277
30
0
0
SPLINE
5
13E
100
AcDbEntity
8
1
62
256
6
ByLayer
370
18
48
1
60
0
100
AcDbSpline
70
4
71
3
72
8
73
4
40
0
40
0
40
0
40
0
40
1
40
1
40
1
40
1
41
1
10
31.8538341241789
20
11.6198301789845
30
0
41
1
10
31.8522127030746
20
11.6262964505677
30
0
41
1
10
31.8505910252487
20
11.6327637459634
30
0
41
1
10
31.8489690776303
20
11.6392321172989
30
0
0
SPLINE
5
13F
100
AcDbEntity
8
1
62
256
6
ByLayer
370
18
48
1
60
0
100
AcDbSpline
70
4
71
3
72
16
73
12
40
0
40
0
40
0
40
0
40
0.125
40
0.125
40
0.25
40
0.25
40
0.5
40
0.5
40
0.75
40
0.75
40
1
40
1
40
1
40
1
41
1
10
32.2789087903364
20
12.044904845142
30
0
41
1
10
32.2911105077765
20
12.0368516010011
30
0
41
1
10
32.3053911321029
20
12.0324505242903
30
0
41
1
10
32.3351790781966
20
12.0326511827002
30
0
41
1
10
32.3504575514947
20
12.0371721464588
30
0
41
1
10
32.3927898107079
20
12.0588042273774
30
0
41
1
10
32.4166367272845
20
12.082756876429
30
0
41
1
10
32.4568601888909
20
12.1352307493273
30
0
41
1
10
32.4735160311971
20
12.1644220672207
30
0
41
1
10
32.5013682202591
20
12.2250808583234
30
0
41
1
10
32.5125810200901
20
12.2566957483343
30
0
41
1
10
32.5212365055975
20
12.2889984600119
30
0
0
SPLINE
5
140
100
AcDbEntity
8
1
62
256
6
ByLayer
370
18
48
1
60
0
100
AcDbSpline
70
4
71
3
72
8
73
4
40
0
40
0
40
0
40
0
40
1
40
1
40
1
40
1
41
1
10
31.855697050616
20
13.6243525601383
30
0
41
1
10
31.8509078057093
20
13.6197152324801
30
0
41
1
10
31.8461178025158
20
13.6150771705883
30
0
41
1
10
31.8413270024273
20
13.6104383370794
30
0
0
SPLINE
5
141
100
AcDbEntity
8
1
62
256
6
ByLayer
370
18
48
1
60
0
100
AcDbSpline
70
4
71
3
72
8
73
4
40
0
40
0
40
0
40
0
40
1
40
1
40
1
40
1
41
1
10
32.2639190061976
20
13.1878463333091
30
0
41
1
10
32.2685578397065
20
13.1926371333976
30
0
41
1
10
32.2731959015983
20
13.1974271365911
30
0
41
1
10
32.2778332292565
20
13.2022163814978
30
0
0
SPLINE
5
142
100
AcDbEntity
8
1
62
256
6
ByLayer
370
18
48
1
60
0
100
AcDbSpline
70
4
71
3
72
8
73
4
40
0
40
0
40
0
40
0
40
1
40
1
40
1
40
1
41
1
10
32.259506852022
20
12.0497698916906
30
0
41
1
10
32.2659752233575
20
12.0481479440722
30
0
41
1
10
32.2724425187532
20
12.0465262662463
30
0
41
1
10
32.2789087903364
20
12.044904845142
30
0
0
SPLINE
5
143
100
AcDbEntity
8
1
62
256
6
ByLayer
370
18
48
1
60
0
100
AcDbSpline
70
4
71
3
72
16
73
12
40
0
40
0
40
0
40
0
40
0.125
40
0.125
40
0.25
40
0.25
40
0.5
40
0.5
40
0.75
40
0.75
40
1
40
1
40
1
40
1
41
1
10
31.2771853802994
20
11.4653176137456
30
0
41
1
10
31.2763119250105
20
11.4507239944022
30
0
41
1
10
31.2796407929383
20
11.4361560725983
30
0
41
1
10
31.2947085412656
20
11.4104592837595
30
0
41
1
10
31.3062630473792
20
11.3994882196315
30
0
41
1
10
31.346163108598
20
11.3736434482127
30
0
41
1
10
31.3788301694528
20
11.3649677371812
30
0
41
1
10
31.4443856072209
20
11.3563701340511
30
0
41
1
10
31.4779939512397
20
11.3565414104392
30
0
41
1
10
31.5444520998285
20
11.3627501027119
30
0
41
1
10
31.5774377976313
20
11.3688469782161
30
0
41
1
10
31.6097405093089
20
11.3775024637234
30
0
0
SPLINE
5
144
100
AcDbEntity
8
1
62
256
6
ByLayer
370
18
48
1
60
0
100
AcDbSpline
70
4
71
3
72
18
73
14
40
0
40
0
40
0
40
0
40
0.25
40
0.25
40
0.5
40
0.5
40
0.625
40
0.625
40
0.75
40
0.75
40
0.875
40
0.875
40
1
40
1
40
1
40
1
41
1
10
31.6097405093089
20
11.3775024637234
30
0
41
1
10
31.6420278813122
20
11.3861538389774
30
0
41
1
10
31.6736056962623
20
11.3973501741312
30
0
41
1
10
31.7342751859511
20
11.4252002971786
30
0
41
1
10
31.7633942990933
20
11.441800827901
30
0
41
1
10
31.8028274888617
20
11.4720140072275
30
0
41
1
10
31.8151687160596
20
11.4829291164183
30
0
41
1
10
31.8371856832553
20
11.5067626504679
30
0
41
1
10
31.8470593814646
20
11.5199370811884
30
0
41
1
10
31.8614928714684
20
11.5480916335018
30
0
41
1
10
31.8660612596622
20
11.5632941050604
30
0
41
1
10
31.8663130411662
20
11.59335807731
30
0
41
1
10
31.8618910897355
20
11.6076228231133
30
0
41
1
10
31.8538341241789
20
11.6198301789845
30
0
0
SPLINE
5
145
100
AcDbEntity
8
1
62
256
6
ByLayer
370
18
48
1
60
0
100
AcDbSpline
70
4
71
3
72
8
73
4
40
0
40
0
40
0
40
0
40
1
40
1
40
1
40
1
41
1
10
31.2805219733951
20
13.7607055917199
30
0
41
1
10
31.2786924355685
20
13.7671183394268
30
0
41
1
10
31.2768632020647
20
13.7735300204462
30
0
41
1
10
31.2750342581396
20
13.7799406864571
30
0
0
SPLINE
5
146
100
AcDbEntity
8
1
62
256
6
ByLayer
370
18
48
1
60
0
100
AcDbSpline
70
4
71
3
72
8
73
4
40
0
40
0
40
0
40
0
40
1
40
1
40
1
40
1
41
1
10
30.1187982828638
20
12.6237047111813
30
0
41
1
10
30.1252089488747
20
12.6218757672563
30
0
41
1
10
30.1316206298941
20
12.6200465337524
30
0
41
1
10
30.138033377601
20
12.6182169959257
30
0
0
SPLINE
5
147
100
AcDbEntity
8
1
62
256
6
ByLayer
370
18
48
1
60
0
100
AcDbSpline
70
4
71
3
72
18
73
14
40
0
40
0
40
0
40
0
40
0.25
40
0.25
40
0.5
40
0.5
40
0.625
40
0.625
40
0.75
40
0.75
40
0.875
40
0.875
40
1
40
1
40
1
40
1
41
1
10
32.5212365055975
20
12.2889984600119
30
0
41
1
10
32.5298878808514
20
12.3212858320152
30
0
41
1
10
32.5359804776541
20
12.3542311895349
30
0
41
1
10
32.5421963084409
20
12.4206975703638
30
0
41
1
10
32.5423793836901
20
12.4542157274417
30
0
41
1
10
32.5359305977484
20
12.5034724611967
30
0
41
1
10
32.532648449503
20
12.5196178320594
30
0
41
1
10
32.523016487152
20
12.5506018519899
30
0
41
1
10
32.5165439445723
20
12.5657399408286
30
0
41
1
10
32.4993781320387
20
12.592316985994
30
0
41
1
10
32.4884965995655
20
12.6038745620034
30
0
41
1
10
32.4625863266107
20
12.6191245973069
30
0
41
1
10
32.4480217186511
20
12.6224274479353
30
0
41
1
10
32.4334213555753
20
12.6215535890215
30
0
0
SPLINE
5
148
100
AcDbEntity
8
1
62
256
6
ByLayer
370
18
48
1
60
0
100
AcDbSpline
70
4
71
3
72
18
73
14
40
0
40
0
40
0
40
0
40
0.125
40
0.125
40
0.249999999999999
40
0.249999999999999
40
0.5
40
0.5
40
0.75
40
0.75
40
0.875
40
0.875
40
1
40
1
40
1
40
1
41
1
10
32.4141862608381
20
12.627041304277
30
0
41
1
10
32.3905657928662
20
12.6337801534588
30
0
41
1
10
32.3696165040503
20
12.6485380394427
30
0
41
1
10
32.3321970689339
20
12.6843469216148
30
0
41
1
10
32.3158285186952
20
12.7055504464576
30
0
41
1
10
32.2725031859569
20
12.7739601353785
30
0
41
1
10
32.251089035172
20
12.826029403222
30
0
41
1
10
32.2221723088074
20
12.9339367833876
30
0
41
1
10
32.2146832886388
20
12.9897508583425
30
0
41
1
10
32.2179869974415
20
13.0706058437428
30
0
41
1
10
32.2215446025058
20
13.097128031788
30
0
41
1
10
32.2360641461809
20
13.1469471126579
30
0
41
1
10
32.2468415668671
20
13.1702094429789
30
0
41
1
10
32.2639190061976
20
13.1878463333091
30
0
0
SPLINE
5
149
100
AcDbEntity
8
1
62
256
6
ByLayer
370
18
48
1
60
0
100
AcDbSpline
70
4
71
3
72
16
73
12
40
0
40
0
40
0
40
0
40
0.125
40
0.125
40
0.25
40
0.25
40
0.5
40
0.5
40
0.75
40
0.75
40
1
40
1
40
1
40
1
41
1
10
32.2778332292565
20
13.2022163814978
30
0
41
1
10
32.2909084019855
20
13.2087567567002
30
0
41
1
10
32.3018601583842
20
13.2189236017934
30
0
41
1
10
32.3165803561506
20
13.244821049042
30
0
41
1
10
32.3203043233351
20
13.2603130769286
30
0
41
1
10
32.3227365213294
20
13.3077899292661
30
0
41
1
10
32.3139163770512
20
13.3404182893492
30
0
41
1
10
32.2885844008895
20
13.4014897653775
30
0
41
1
10
32.2716318991769
20
13.4305098068828
30
0
41
1
10
32.2330259396501
20
13.4849599057129
30
0
41
1
10
32.2112530416783
20
13.5104779202196
30
0
41
1
10
32.1876058155081
20
13.5341251463899
30
0
0
SPLINE
5
14A
100
AcDbEntity
8
1
62
256
6
ByLayer
370
18
48
1
60
0
100
AcDbSpline
70
4
71
3
72
18
73
14
40
0
40
0
40
0
40
0
40
0.25
40
0.25
40
0.5
40
0.5
40
0.625
40
0.625
40
0.75
40
0.75
40
0.875
40
0.875
40
1
40
1
40
1
40
1
41
1
10
32.1876058155081
20
13.5341251463899
30
0
41
1
10
32.1639698187588
20
13.5577611431391
30
0
41
1
10
32.1384846006113
20
13.579510165505
30
0
41
1
10
32.0840309417093
20
13.6181264232865
30
0
41
1
10
32.0550949038164
20
13.6350440496421
30
0
41
1
10
32.0092129281063
20
13.6540876040705
30
0
41
1
10
31.993589552663
20
13.6593178657424
30
0
41
1
10
31.9619406231163
20
13.6664683516234
30
0
41
1
10
31.9455943823273
20
13.6684320097417
30
0
41
1
10
31.9139950797897
20
13.6668545025935
30
0
41
1
10
31.8985451591229
20
13.6632096070445
30
0
41
1
10
31.872383104664
20
13.6483956700983
30
0
41
1
10
31.8622404481351
20
13.6374337749234
30
0
41
1
10
31.855697050616
20
13.6243525601383
30
0
0
SPLINE
5
14B
100
AcDbEntity
8
1
62
256
6
ByLayer
370
18
48
1
60
0
100
AcDbSpline
70
4
71
3
72
16
73
12
40
0
40
0
40
0
40
0
40
0.125
40
0.125
40
0.25
40
0.25
40
0.5
40
0.5
40
0.75
40
0.75
40
1
40
1
40
1
40
1
41
1
10
30.2733108481027
20
13.2003534550607
30
0
41
1
10
30.2611091306626
20
13.2084066992017
30
0
41
1
10
30.2468285063362
20
13.2128077759124
30
0
41
1
10
30.2170405602425
20
13.2126071175025
30
0
41
1
10
30.2017620869443
20
13.2080861537439
30
0
41
1
10
30.1594298277312
20
13.1864540728253
30
0
41
1
10
30.1355829111545
20
13.1625014237738
30
0
41
1
10
30.0953594495482
20
13.1100275508755
30
0
41
1
10
30.0787036072421
20
13.080836232982
30
0
41
1
10
30.0508514181801
20
13.0201774418793
30
0
41
1
10
30.039638618349
20
12.9885625518684
30
0
41
1
10
30.0309831328416
20
12.9562598401908
30
0
0
SPLINE
5
14C
100
AcDbEntity
8
1
62
256
6
ByLayer
370
18
48
1
60
0
100
AcDbSpline
70
4
71
3
72
18
73
14
40
0
40
0
40
0
40
0
40
0.25
40
0.25
40
0.5
40
0.5
40
0.625
40
0.625
40
0.75
40
0.75
40
0.875
40
0.875
40
1
40
1
40
1
40
1
41
1
10
30.0309831328416
20
12.9562598401908
30
0
41
1
10
30.0223317575876
20
12.9239724681875
30
0
41
1
10
30.0162391607851
20
12.8910271106679
30
0
41
1
10
30.0100233299982
20
12.824560729839
30
0
41
1
10
30.009840254749
20
12.7910425727611
30
0
41
1
10
30.0162890406907
20
12.741785839006
30
0
41
1
10
30.019571188936
20
12.7256404681433
30
0
41
1
10
30.029203151287
20
12.6946564482128
30
0
41
1
10
30.0356756938667
20
12.6795183593741
30
0
41
1
10
30.0528415064005
20
12.6529413142087
30
0
41
1
10
30.0637230388736
20
12.6413837381993
30
0
41
1
10
30.0896333118284
20
12.6261337028958
30
0
41
1
10
30.1041979197879
20
12.6228308522674
30
0
41
1
10
30.1187982828638
20
12.6237047111813
30
0
0
SPLINE
5
14D
100
AcDbEntity
8
1
62
256
6
ByLayer
370
18
48
1
60
0
100
AcDbSpline
70
4
71
3
72
8
73
4
40
0
40
0
40
0
40
0
40
1
40
1
40
1
40
1
41
1
10
31.2716976650439
20
11.4845527084828
30
0
41
1
10
31.2735272028706
20
11.4781399607759
30
0
41
1
10
31.2753564363745
20
11.4717282797565
30
0
41
1
10
31.2771853802994
20
11.4653176137456
30
0
0
SPLINE
5
14E
100
AcDbEntity
8
1
62
256
6
ByLayer
370
18
48
1
60
0
100
AcDbSpline
70
4
71
3
72
8
73
4
40
0
40
0
40
0
40
0
40
1
40
1
40
1
40
1
41
1
10
30.2927127864171
20
13.1954884085121
30
0
41
1
10
30.2862444150816
20
13.1971103561305
30
0
41
1
10
30.2797771196859
20
13.1987320339564
30
0
41
1
10
30.2733108481027
20
13.2003534550607
30
0
0
SPLINE
5
14F
100
AcDbEntity
8
1
62
256
6
ByLayer
370
18
48
1
60
0
100
AcDbSpline
70
4
71
3
72
18
73
14
40
0
40
0
40
0
40
0
40
0.125
40
0.125
40
0.250000000000001
40
0.250000000000001
40
0.500000000000001
40
0.500000000000001
40
0.75
40
0.75
40
0.875
40
0.875
40
1
40
1
40
1
40
1
41
1
10
31.8413270024273
20
13.6104383370794
30
0
41
1
10
31.8236807538577
20
13.5933518363575
30
0
41
1
10
31.8004254052815
20
13.5825881630435
30
0
41
1
10
31.750704286081
20
13.5680864227235
30
0
41
1
10
31.724157219798
20
13.5645126048151
30
0
41
1
10
31.6432500249586
20
13.5611966104968
30
0
41
1
10
31.5874496408571
20
13.5686860458383
30
0
41
1
10
31.4795407451956
20
13.5975971162952
30
0
41
1
10
31.4274598283117
20
13.6190184720571
30
0
41
1
10
31.3590892113337
20
13.662307060507
30
0
41
1
10
31.3378991252547
20
13.678649130892
30
0
41
1
10
31.3020143074657
20
13.716132965001
30
0
41
1
10
31.2872572487996
20
13.737097650263
30
0
41
1
10
31.2805219733951
20
13.7607055917199
30
0
0
SPLINE
5
150
100
AcDbEntity
8
1
62
256
6
ByLayer
370
18
48
1
60
0
100
AcDbSpline
70
4
71
3
72
16
73
12
40
0
40
0
40
0
40
0
40
0.125
40
0.125
40
0.25
40
0.25
40
0.5
40
0.5
40
0.75
40
0.75
40
1
40
1
40
1
40
1
41
1
10
31.2750342581396
20
13.7799406864571
30
0
41
1
10
31.2759077134285
20
13.7945343058005
30
0
41
1
10
31.2725788455008
20
13.8091022276045
30
0
41
1
10
31.2575110971735
20
13.8347990164432
30
0
41
1
10
31.2459565910599
20
13.8457700805712
30
0
41
1
10
31.2060565298411
20
13.87161485199
30
0
41
1
10
31.1733894689862
20
13.8802905630216
30
0
41
1
10
31.1078340312182
20
13.8888881661517
30
0
41
1
10
31.0742256871994
20
13.8887168897635
30
0
41
1
10
31.0077675386107
20
13.8825081974909
30
0
41
1
10
30.9747818408077
20
13.8764113219866
30
0
41
1
10
30.9424791291302
20
13.8677558364793
30
0
0
SPLINE
5
151
100
AcDbEntity
8
1
62
256
6
ByLayer
370
18
48
1
60
0
100
AcDbSpline
70
4
71
3
72
18
73
14
40
0
40
0
40
0
40
0
40
0.25
40
0.25
40
0.5
40
0.5
40
0.625
40
0.625
40
0.75
40
0.75
40
0.875
40
0.875
40
1
40
1
40
1
40
1
41
1
10
30.9424791291302
20
13.8677558364793
30
0
41
1
10
30.9101917571269
20
13.8591044612253
30
0
41
1
10
30.8786139421768
20
13.8479081260715
30
0
41
1
10
30.817944452488
20
13.8200580030241
30
0
41
1
10
30.7888253393459
20
13.8034574723018
30
0
41
1
10
30.7493921495774
20
13.7732442929752
30
0
41
1
10
30.7370509223795
20
13.7623291837844
30
0
41
1
10
30.7150339551838
20
13.7384956497348
30
0
41
1
10
30.7051602569745
20
13.7253212190144
30
0
41
1
10
30.6907267669707
20
13.6971666667009
30
0
41
1
10
30.6861583787769
20
13.6819641951424
30
0
41
1
10
30.6859065972729
20
13.6519002228928
30
0
41
1
10
30.6903285487035
20
13.6376354770895
30
0
41
1
10
30.6983855142602
20
13.6254281212182
30
0
0
SPLINE
5
152
100
AcDbEntity
8
1
62
256
6
ByLayer
370
18
48
1
60
0
100
AcDbSpline
70
4
71
3
72
18
73
14
40
0
40
0
40
0
40
0
40
0.125000000000001
40
0.125000000000001
40
0.250000000000001
40
0.250000000000001
40
0.5
40
0.5
40
0.75
40
0.75
40
0.875
40
0.875
40
1
40
1
40
1
40
1
41
1
10
31.8489690776303
20
11.6392321172989
30
0
41
1
10
31.8429948582282
20
11.6630574672027
30
0
41
1
10
31.8453009179883
20
11.6885790265005
30
0
41
1
10
31.8576026020723
20
11.7388896489927
30
0
41
1
10
31.8677811181166
20
11.7636669917439
30
0
41
1
10
31.9053629802179
20
11.835392674983
30
0
41
1
10
31.9397492135345
20
11.8799725074851
30
0
41
1
10
32.0187413828314
20
11.9589688171938
30
0
41
1
10
32.0633332795467
20
11.9933615363867
30
0
41
1
10
32.1350076053273
20
12.0309279333371
30
0
41
1
10
32.1597552964706
20
12.0411080509974
30
0
41
1
10
32.2101596579347
20
12.0534432977583
30
0
41
1
10
32.235694137287
20
12.0557409428173
30
0
41
1
10
32.259506852022
20
12.0497698916906
30
0
0
SPLINE
5
153
100
AcDbEntity
8
1
62
256
6
ByLayer
370
18
48
1
60
0
100
AcDbSpline
70
4
71
3
72
18
73
14
40
0
40
0
40
0
40
0
40
0.125000000000001
40
0.125000000000001
40
0.250000000000001
40
0.250000000000001
40
0.500000000000001
40
0.500000000000001
40
0.75
40
0.75
40
0.875
40
0.875
40
1
40
1
40
1
40
1
41
1
10
30.7032505608087
20
13.6060261829038
30
0
41
1
10
30.7092247802109
20
13.582200833
30
0
41
1
10
30.7069187204508
20
13.5566792737022
30
0
41
1
10
30.6946170363668
20
13.50636865121
30
0
41
1
10
30.6844385203224
20
13.4815913084588
30
0
41
1
10
30.6468566582212
20
13.4098656252197
30
0
41
1
10
30.6124704249046
20
13.3652857927177
30
0
41
1
10
30.5334782556077
20
13.2862894830089
30
0
41
1
10
30.4888863588924
20
13.251896763816
30
0
41
1
10
30.4172120331118
20
13.2143303668656
30
0
41
1
10
30.3924643419684
20
13.2041502492054
30
0
41
1
10
30.3420599805044
20
13.1918150024444
30
0
41
1
10
30.3165255011521
20
13.1895173573854
30
0
41
1
10
30.2927127864171
20
13.1954884085121
30
0
0
SPLINE
5
154
100
AcDbEntity
8
1
62
256
6
ByLayer
370
18
48
1
60
0
100
AcDbSpline
70
4
71
3
72
16
73
12
40
0
40
0
40
0
40
0
40
0.124999999999999
40
0.124999999999999
40
0.249999999999998
40
0.249999999999998
40
0.499999999999998
40
0.499999999999998
40
0.749999999999999
40
0.749999999999999
40
1
40
1
40
1
40
1
41
1
10
30.6965225878232
20
11.6209057400644
30
0
41
1
10
30.6899822126207
20
11.6078305673354
30
0
41
1
10
30.6798153675275
20
11.5968788109367
30
0
41
1
10
30.6539179202789
20
11.5821586131704
30
0
41
1
10
30.6384258923923
20
11.5784346459858
30
0
41
1
10
30.5909490400548
20
11.5760024479914
30
0
41
1
10
30.5583206799718
20
11.5848225922697
30
0
41
1
10
30.4972492039434
20
11.6101545684314
30
0
41
1
10
30.4682291624381
20
11.627107070144
30
0
41
1
10
30.4137790636081
20
11.6657130296707
30
0
41
1
10
30.3882610491013
20
11.6874859276426
30
0
41
1
10
30.364613822931
20
11.7111331538128
30
0
0
SPLINE
5
155
100
AcDbEntity
8
1
62
256
6
ByLayer
370
18
48
1
60
0
100
AcDbSpline
70
4
71
3
72
8
73
4
40
0
40
0
40
0
40
0
40
1
40
1
40
1
40
1
41
1
10
30.2743864091826
20
12.0430419187049
30
0
41
1
10
30.2790237368408
20
12.0478311636116
30
0
41
1
10
30.2836617987326
20
12.0526211668051
30
0
41
1
10
30.2883006322414
20
12.0574119668936
30
0
0
SPLINE
5
156
100
AcDbEntity
8
1
62
256
6
ByLayer
370
18
48
1
60
0
100
AcDbSpline
70
4
71
3
72
16
73
12
40
0
40
0
40
0
40
0
40
0.25
40
0.25
40
0.5
40
0.5
40
0.749999999999999
40
0.749999999999999
40
0.875
40
0.875
40
1
40
1
40
1
40
1
41
1
10
30.364613822931
20
11.7111331538128
30
0
41
1
10
30.3409694540953
20
11.7347775226486
30
0
41
1
10
30.3192133855958
20
11.760272356836
30
0
41
1
10
30.2805869314073
20
11.8147479048206
30
0
41
1
10
30.2636662408291
20
11.8436957288629
30
0
41
1
10
30.2382782425856
20
11.9048983896237
30
0
41
1
10
30.2294748629749
20
11.937193361539
30
0
41
1
10
30.2319175624809
20
11.985045970557
30
0
41
1
10
30.2356683944301
20
12.0004821559283
30
0
41
1
10
30.2503141696132
20
12.0262612887719
30
0
41
1
10
30.2613160267572
20
12.036503939676
30
0
41
1
10
30.2743864091826
20
12.0430419187049
30
0
0
SPLINE
5
157
100
AcDbEntity
8
1
62
256
6
ByLayer
370
18
48
1
60
0
100
AcDbSpline
70
4
71
3
72
18
73
14
40
0
40
0
40
0
40
0
40
0.125
40
0.125
40
0.25
40
0.25
40
0.499999999999999
40
0.499999999999999
40
0.749999999999999
40
0.749999999999999
40
0.874999999999999
40
0.874999999999999
40
1
40
1
40
1
40
1
41
1
10
31.2716976650439
20
11.4845527084828
30
0
41
1
10
31.2649197367195
20
11.5083101534978
30
0
41
1
10
31.2499410433611
20
11.5294364110607
30
0
41
1
10
31.2142661428724
20
11.5666306362679
30
0
41
1
10
31.1929487491722
20
11.5830723744339
30
0
41
1
10
31.1249152699101
20
11.6261291592259
30
0
41
1
10
31.0731110885042
20
11.6475080062378
30
0
41
1
10
30.9651095033143
20
11.6765184109092
30
0
41
1
10
30.9092293066223
20
11.6840430169628
30
0
41
1
10
30.8282781364895
20
11.6807691010939
30
0
41
1
10
30.80172465492
20
11.677218035917
30
0
41
1
10
30.751841802417
20
11.6626988218771
30
0
41
1
10
30.7285488378317
20
11.6519161013734
30
0
41
1
10
30.7108926360117
20
11.6348199631233
30
0
0
SPLINE
5
158
100
AcDbEntity
8
1
62
256
6
ByLayer
370
18
48
1
60
0
100
AcDbSpline
70
4
71
3
72
8
73
4
40
0
40
0
40
0
40
0
40
1
40
1
40
1
40
1
41
1
10
30.7108926360117
20
11.6348199631233
30
0
41
1
10
30.7061018359233
20
11.6301811296144
30
0
41
1
10
30.7013118327297
20
11.6255430677226
30
0
41
1
10
30.6965225878232
20
11.6209057400644
30
0
0
SPLINE
5
159
100
AcDbEntity
8
1
62
256
6
ByLayer
370
18
48
1
60
0
100
AcDbSpline
70
4
71
3
72
20
73
16
40
0
40
0
40
0
40
0
40
0.125
40
0.125
40
0.25
40
0.25
40
0.5
40
0.5
40
0.625
40
0.625
40
0.75
40
0.75
40
0.875
40
0.875
40
1
40
1
40
1
40
1
41
1
10
30.2883006322414
20
12.0574119668936
30
0
41
1
10
30.3054048602616
20
12.0750765235015
30
0
41
1
10
30.316173553202
20
12.0983609794797
30
0
41
1
10
30.3306749124911
20
12.1481420382396
30
0
41
1
10
30.3342486232666
20
12.1747459813221
30
0
41
1
10
30.337527763812
20
12.2558957358747
30
0
41
1
10
30.3299717526787
20
12.3117886545727
30
0
41
1
10
30.3081897178906
20
12.3927927955192
30
0
41
1
10
30.299249035348
20
12.4189087239966
30
0
41
1
10
30.2779100232411
20
12.4693445454826
30
0
41
1
10
30.2653724560212
20
12.493917961172
30
0
41
1
10
30.2365548447786
20
12.5394781126655
30
0
41
1
10
30.2203194098512
20
12.5605718737252
30
0
41
1
10
30.1828458826697
20
12.5965426087073
30
0
41
1
10
30.1617455069431
20
12.6114519960278
30
0
41
1
10
30.138033377601
20
12.6182169959257
30
0
0
SPLINE
5
15A
100
AcDbEntity
8
1
62
256
6
ByLayer
370
18
48
1
60
0
100
AcDbSpline
70
4
71
3
72
10
73
6
40
0
40
0
40
0
40
0
40
0.375000000000405
40
0.750000000000811
40
1
40
1
40
1
40
1
41
1
10
29.2687287987347
20
10.6152481296324
30
0
41
1
10
29.4038381771311
20
10.4801387512339
30
0
41
1
10
29.6966487617763
20
10.2325161924997
30
0
41
1
10
30.1344015666615
20
9.97319766941632
30
0
41
1
10
30.4249801333829
20
9.85212438143185
30
0
41
1
10
30.5430408092308
20
9.81052444820099
30
0
0
SPLINE
5
15B
100
AcDbEntity
8
1
62
256
6
ByLayer
370
18
48
1
60
0
100
AcDbSpline
70
4
71
3
72
17
73
13
40
0
40
0
40
0
40
0
40
0.0625
40
0.125
40
0.25
40
0.375
40
0.5
40
0.625
40
0.75
40
0.875
40
0.9375
40
1
40
1
40
1
40
1
41
1
10
25.4778341728294
20
12.0569437251521
30
0
41
1
10
25.4593221606289
20
12.0754557373526
30
0
41
1
10
25.4241174851027
20
12.114298868447
30
0
41
1
10
25.361657672601
20
12.198510125745
30
0
41
1
10
25.2996516936897
20
12.3145087192935
30
0
41
1
10
25.2538336075257
20
12.465550581833
30
0
41
1
10
25.2383626351215
20
12.6226289529821
30
0
41
1
10
25.2538336971891
20
12.7797070623611
30
0
41
1
10
25.2996507298487
20
12.9307498333743
30
0
41
1
10
25.3616576212858
20
13.0467480635657
30
0
41
1
10
25.4241170385493
20
13.1309596934112
30
0
41
1
10
25.459322160629
20
13.16980256285
30
0
41
1
10
25.4778341728295
20
13.1883145750506
30
0
0
SPLINE
5
15C
100
AcDbEntity
8
1
62
256
6
ByLayer
370
18
48
1
60
0
100
AcDbSpline
70
4
71
3
72
8
73
4
40
0
40
0
40
0
40
0
40
1
40
1
40
1
40
1
41
1
10
25.4778342134871
20
13.1883145750479
30
0
41
1
10
26.3499325769516
20
14.0604129385123
30
0
41
1
10
27.2220309403925
20
14.9325113019532
30
0
41
1
10
28.0941293038801
20
15.8046096654408
30
0
0
SPLINE
5
15D
100
AcDbEntity
8
1
62
256
6
ByLayer
370
18
48
1
60
0
100
AcDbSpline
70
4
71
3
72
8
73
4
40
0
40
0
40
0
40
0
40
1
40
1
40
1
40
1
41
1
10
31.8417952441688
20
18.4209047558311
30
0
41
1
10
31.8975897725147
20
17.4255144545548
30
0
41
1
10
31.9533843008607
20
16.4301241532785
30
0
41
1
10
32.0091788292067
20
15.4347338520022
30
0
0
SPLINE
5
15E
100
AcDbEntity
8
1
62
256
6
ByLayer
370
18
48
1
60
0
100
AcDbSpline
70
4
71
3
72
8
73
4
40
0
40
0
40
0
40
0
40
1
40
1
40
1
40
1
41
1
10
34.458090334559
20
9.44064863476189
30
0
41
1
10
34.0665571696022
20
9.83218179971342
30
0
41
1
10
33.6750240046453
20
10.223714964665
30
0
41
1
10
33.2834908396884
20
10.6152481296165
30
0
0
SPLINE
5
15F
100
AcDbEntity
8
1
62
256
6
ByLayer
370
18
48
1
60
0
100
AcDbSpline
70
4
71
3
72
10
73
6
40
0
40
0
40
0
40
0
40
0.375000000000406
40
0.750000000000812
40
1
40
1
40
1
40
1
41
1
10
33.2834908397044
20
14.6300101705703
30
0
41
1
10
33.1483814613079
20
14.7651195489688
30
0
41
1
10
32.8555708766629
20
15.0127421077031
30
0
41
1
10
32.4178180717776
20
15.2720606307864
30
0
41
1
10
32.1272395050562
20
15.3931339187709
30
0
41
1
10
32.0091788292082
20
15.4347338520017
30
0
0
SPLINE
5
160
100
AcDbEntity
8
1
62
256
6
ByLayer
370
18
48
1
60
0
100
AcDbSpline
70
4
71
3
72
10
73
6
40
0
40
0
40
0
40
0
40
0.249999999999985
40
0.624999999999992
40
1
40
1
40
1
40
1
41
1
10
28.4640051173188
20
11.88956014013
30
0
41
1
10
28.5056050505478
20
11.7714994642806
30
0
41
1
10
28.6266783385265
20
11.4809208975554
30
0
41
1
10
28.8859968616179
20
11.0431680926754
30
0
41
1
10
29.1336194203445
20
10.7503575080219
30
0
41
1
10
29.2687287987427
20
10.6152481296245
30
0
0
SPLINE
5
161
100
AcDbEntity
8
1
62
256
6
ByLayer
370
18
48
1
60
0
100
AcDbSpline
70
4
71
3
72
8
73
4
40
0
40
0
40
0
40
0
40
1
40
1
40
1
40
1
41
1
10
37.0743854249519
20
13.1883145750479
30
0
41
1
10
36.0789951236747
20
13.2441091033895
30
0
41
1
10
35.0836048223975
20
13.2999036317311
30
0
41
1
10
34.0882145211203
20
13.3556981600727
30
0
0
SPLINE
5
162
100
AcDbEntity
8
1
62
256
6
ByLayer
370
18
48
1
60
0
100
AcDbSpline
70
4
71
3
72
8
73
4
40
0
40
0
40
0
40
0
40
1
40
1
40
1
40
1
41
1
10
28.0941293038801
20
9.44064863476189
30
0
41
1
10
28.4856624688343
20
9.8321817997161
30
0
41
1
10
28.8771956337885
20
10.2237149646703
30
0
41
1
10
29.2687287987427
20
10.6152481296245
30
0
0
SPLINE
5
163
100
AcDbEntity
8
1
62
256
6
ByLayer
370
18
48
1
60
0
100
AcDbSpline
70
4
71
3
72
8
73
4
40
0
40
0
40
0
40
0
40
1
40
1
40
1
40
1
41
1
10
25.4778342134872
20
12.0569437251548
30
0
41
1
10
26.4732245147644
20
12.0011491968132
30
0
41
1
10
27.4686148160416
20
11.9453546684716
30
0
41
1
10
28.4640051173188
20
11.88956014013
30
0
0
SPLINE
5
164
100
AcDbEntity
8
1
62
256
6
ByLayer
370
18
48
1
60
0
100
AcDbSpline
70
4
71
3
72
17
73
13
40
0
40
0
40
0
40
0
40
0.0625
40
0.125
40
0.25
40
0.375
40
0.5
40
0.625
40
0.75
40
0.875
40
0.9375
40
1
40
1
40
1
40
1
41
1
10
37.0743854656097
20
13.1883145750506
30
0
41
1
10
37.0928974778102
20
13.1698025628501
30
0
41
1
10
37.1281021533363
20
13.1309594317558
30
0
41
1
10
37.1905619658381
20
13.0467481744577
30
0
41
1
10
37.2525679447493
20
12.9307495809092
30
0
41
1
10
37.2983860309134
20
12.7797077183697
30
0
41
1
10
37.3138570033176
20
12.6226293472206
30
0
41
1
10
37.29838594125
20
12.4655512378416
30
0
41
1
10
37.2525689085904
20
12.3145084668284
30
0
41
1
10
37.1905620171533
20
12.198510236637
30
0
41
1
10
37.1281025998898
20
12.1142986067916
30
0
41
1
10
37.0928974778101
20
12.0754557373527
30
0
41
1
10
37.0743854656096
20
12.0569437251521
30
0
0
SPLINE
5
165
100
AcDbEntity
8
1
62
256
6
ByLayer
370
18
48
1
60
0
100
AcDbSpline
70
4
71
3
72
8
73
4
40
0
40
0
40
0
40
0
40
1
40
1
40
1
40
1
41
1
10
31.8417952441661
20
18.4209047558338
30
0
41
1
10
32.7138936076304
20
17.5488063923694
30
0
41
1
10
33.5859919710715
20
16.6767080289284
30
0
41
1
10
34.458090334559
20
15.8046096654408
30
0
0
SPLINE
5
166
100
AcDbEntity
8
1
62
256
6
ByLayer
370
18
48
1
60
0
100
AcDbSpline
70
4
71
3
72
8
73
4
40
0
40
0
40
0
40
0
40
1
40
1
40
1
40
1
41
1
10
28.0941293038801
20
9.44064863476189
30
0
41
1
10
27.2220309403925
20
10.3127469982495
30
0
41
1
10
26.3499325769516
20
11.1848453616904
30
0
41
1
10
25.4778342134872
20
12.0569437251548
30
0
0
SPLINE
5
167
100
AcDbEntity
8
1
62
256
6
ByLayer
370
18
48
1
60
0
100
AcDbSpline
70
4
71
3
72
8
73
4
40
0
40
0
40
0
40
0
40
1
40
1
40
1
40
1
41
1
10
28.0941293038801
20
15.8046096654408
30
0
41
1
10
28.9662276673676
20
16.6767080289284
30
0
41
1
10
29.8383260308086
20
17.5488063923693
30
0
41
1
10
30.710424394273
20
18.4209047558337
30
0
0
SPLINE
5
168
100
AcDbEntity
8
1
62
256
6
ByLayer
370
18
48
1
60
0
100
AcDbSpline
70
4
71
3
72
8
73
4
40
0
40
0
40
0
40
0
40
1
40
1
40
1
40
1
41
1
10
25.4778342134899
20
13.1883145750506
30
0
41
1
10
26.4732245147661
20
13.2441091033966
30
0
41
1
10
27.4686148160424
20
13.2999036317426
30
0
41
1
10
28.4640051173187
20
13.3556981600885
30
0
0
SPLINE
5
169
100
AcDbEntity
8
1
62
256
6
ByLayer
370
18
48
1
60
0
100
AcDbSpline
70
4
71
3
72
8
73
4
40
0
40
0
40
0
40
0
40
1
40
1
40
1
40
1
41
1
10
33.2834908397044
20
14.6300101705703
30
0
41
1
10
33.6750240046559
20
15.0215433355271
30
0
41
1
10
34.0665571696074
20
15.413076500484
30
0
41
1
10
34.458090334559
20
15.8046096654408
30
0
0
SPLINE
5
16A
100
AcDbEntity
8
1
62
256
6
ByLayer
370
18
48
1
60
0
100
AcDbSpline
70
4
71
3
72
8
73
4
40
0
40
0
40
0
40
0
40
1
40
1
40
1
40
1
41
1
10
34.458090334559
20
15.8046096654408
30
0
41
1
10
35.3301886980465
20
14.9325113019533
30
0
41
1
10
36.2022870614875
20
14.0604129385123
30
0
41
1
10
37.0743854249519
20
13.1883145750479
30
0
0
SPLINE
5
16B
100
AcDbEntity
8
1
62
256
6
ByLayer
370
18
48
1
60
0
100
AcDbSpline
70
4
71
3
72
10
73
6
40
0
40
0
40
0
40
0
40
0.375000000000406
40
0.750000000000812
40
1
40
1
40
1
40
1
41
1
10
29.2687287987506
20
14.6300101705862
30
0
41
1
10
29.1336194203521
20
14.4949007921897
30
0
41
1
10
28.8859968616178
20
14.2020902075447
30
0
41
1
10
28.6266783385345
20
13.7643374026594
30
0
41
1
10
28.5056050505501
20
13.473758835938
30
0
41
1
10
28.4640051173192
20
13.35569816009
30
0
0
SPLINE
5
16C
100
AcDbEntity
8
1
62
256
6
ByLayer
370
18
48
1
60
0
100
AcDbSpline
70
4
71
3
72
10
73
6
40
0
40
0
40
0
40
0
40
0.375000000000406
40
0.750000000000812
40
1
40
1
40
1
40
1
41
1
10
33.2834908396884
20
10.6152481296165
30
0
41
1
10
33.418600218087
20
10.750357508013
30
0
41
1
10
33.6662227768213
20
11.043168092658
30
0
41
1
10
33.9255412999046
20
11.4809208975434
30
0
41
1
10
34.0466145878891
20
11.7714994642647
30
0
41
1
10
34.0882145211199
20
11.8895601401126
30
0
0
SPLINE
5
16D
100
AcDbEntity
8
1
62
256
6
ByLayer
370
18
48
1
60
0
100
AcDbSpline
70
4
71
3
72
8
73
4
40
0
40
0
40
0
40
0
40
1
40
1
40
1
40
1
41
1
10
37.0743854249492
20
12.0569437251521
30
0
41
1
10
36.0789951236729
20
12.0011491968061
30
0
41
1
10
35.0836048223967
20
11.9453546684602
30
0
41
1
10
34.0882145211204
20
11.8895601401142
30
0
0
SPLINE
5
16E
100
AcDbEntity
8
1
62
256
6
ByLayer
370
18
48
1
60
0
100
AcDbSpline
70
4
71
3
72
10
73
6
40
0
40
0
40
0
40
0
40
0.249999999999984
40
0.624999999999992
40
1
40
1
40
1
40
1
41
1
10
30.5430408092482
20
15.4347338520021
30
0
41
1
10
30.4249801333988
20
15.3931339187731
30
0
41
1
10
30.1344015666735
20
15.2720606307944
30
0
41
1
10
29.6966487617935
20
15.012742107703
30
0
41
1
10
29.4038381771401
20
14.7651195489764
30
0
41
1
10
29.2687287987426
20
14.6300101705782
30
0
0
SPLINE
5
16F
100
AcDbEntity
8
1
62
256
6
ByLayer
370
18
48
1
60
0
100
AcDbSpline
70
4
71
3
72
29
73
25
40
0
40
0
40
0
40
0
40
0.125000000000944
40
0.171875000000893
40
0.218750000000841
40
0.242187500000815
40
0.265625000000789
40
0.277343750000776
40
0.289062500000763
40
0.312500000000737
40
0.359375000000686
40
0.406250000000634
40
0.50000000000053
40
0.593750000000427
40
0.640625000000375
40
0.687500000000323
40
0.710937500000298
40
0.722656250000285
40
0.734375000000272
40
0.757812500000246
40
0.78125000000022
40
0.828125000000168
40
0.875000000000116
40
1
40
1
40
1
40
1
41
1
10
30.5430408092308
20
9.81052444820099
30
0
41
1
10
30.6020711471556
20
9.78972448158527
30
0
41
1
10
30.6838666662006
20
9.76347212753851
30
0
41
1
10
30.7888033556834
20
9.73424932773267
30
0
41
1
10
30.8452307272552
20
9.71981961983349
30
0
41
1
10
30.8904889324311
20
9.70902070978181
30
0
41
1
10
30.9188134850369
20
9.70257560633314
30
0
41
1
10
30.9414848973682
20
9.69759338078902
30
0
41
1
10
30.9642370937122
20
9.69280120673474
30
0
41
1
10
31.004363456702
20
9.6850376139829
30
0
41
1
10
31.0624557052449
20
9.67574896432581
30
0
41
1
10
31.156689871931
20
9.66498371812838
30
0
41
1
10
31.2761098059444
20
9.6595136431861
30
0
41
1
10
31.3955297350678
20
9.66498375834126
30
0
41
1
10
31.4897638945754
20
9.6757490174509
30
0
41
1
10
31.5478561581423
20
9.68503764097727
30
0
41
1
10
31.5879825413076
20
9.69280121016376
30
0
41
1
10
31.6107347416418
20
9.69759338019222
30
0
41
1
10
31.6334061531604
20
9.70257560657484
30
0
41
1
10
31.6617307057389
20
9.70902071004798
30
0
41
1
10
31.7069889112936
20
9.71981961970488
30
0
41
1
10
31.7634162827389
20
9.7342493277356
30
0
41
1
10
31.8683529722212
20
9.76347212754069
30
0
41
1
10
31.9501484912662
20
9.78972448158609
30
0
41
1
10
32.0091788291909
20
9.8105244482006
30
0
0
SPLINE
5
170
100
AcDbEntity
8
1
62
256
6
ByLayer
370
18
48
1
60
0
100
AcDbSpline
70
4
71
3
72
29
73
25
40
0
40
0
40
0
40
0
40
0.125000000000946
40
0.171875000000894
40
0.218750000000842
40
0.242187500000817
40
0.265625000000791
40
0.277343750000778
40
0.289062500000765
40
0.312500000000739
40
0.359375000000687
40
0.406250000000635
40
0.500000000000532
40
0.593750000000428
40
0.640625000000376
40
0.687500000000324
40
0.710937500000298
40
0.722656250000285
40
0.734375000000272
40
0.757812500000247
40
0.781250000000221
40
0.828125000000169
40
0.875000000000117
40
1
40
1
40
1
40
1
41
1
10
28.4640051173192
20
13.3556981600901
30
0
41
1
10
28.4432051507035
20
13.2966678221653
30
0
41
1
10
28.4169527966567
20
13.2148723031203
30
0
41
1
10
28.3877299968509
20
13.1099356136375
30
0
41
1
10
28.3733002889517
20
13.0535082420657
30
0
41
1
10
28.3625013789
20
13.0082500368898
30
0
41
1
10
28.3560562754513
20
12.979925484284
30
0
41
1
10
28.3510740499072
20
12.9572540719527
30
0
41
1
10
28.3462818758529
20
12.9345018756087
30
0
41
1
10
28.3385182831011
20
12.8943755126189
30
0
41
1
10
28.329229633444
20
12.836283264076
30
0
41
1
10
28.3184643872465
20
12.74204909739
30
0
41
1
10
28.3129943123043
20
12.6226291633764
30
0
41
1
10
28.3184644274595
20
12.5032092342531
30
0
41
1
10
28.3292296865691
20
12.4089750747455
30
0
41
1
10
28.3385183100955
20
12.3508828111786
30
0
41
1
10
28.346281879282
20
12.3107564280133
30
0
41
1
10
28.3510740493104
20
12.2880042276791
30
0
41
1
10
28.356056275693
20
12.2653328161605
30
0
41
1
10
28.3625013791661
20
12.237008263582
30
0
41
1
10
28.3733002888231
20
12.1917500580272
30
0
41
1
10
28.3877299968538
20
12.135322686582
30
0
41
1
10
28.4169527966589
20
12.0303859970998
30
0
41
1
10
28.4432051507043
20
11.9485904780547
30
0
41
1
10
28.4640051173188
20
11.88956014013
30
0
0
SPLINE
5
171
100
AcDbEntity
8
1
62
256
6
ByLayer
370
18
48
1
60
0
100
AcDbSpline
70
4
71
3
72
29
73
25
40
0
40
0
40
0
40
0
40
0.125000000000945
40
0.171875000000894
40
0.218750000000842
40
0.242187500000816
40
0.26562500000079
40
0.277343750000777
40
0.289062500000764
40
0.312500000000738
40
0.359375000000687
40
0.406250000000635
40
0.500000000000531
40
0.593750000000427
40
0.640625000000376
40
0.687500000000324
40
0.710937500000298
40
0.722656250000285
40
0.734375000000272
40
0.757812500000246
40
0.78125000000022
40
0.828125000000168
40
0.875000000000117
40
1
40
1
40
1
40
1
41
1
10
32.0091788292082
20
15.4347338520017
30
0
41
1
10
31.9501484912835
20
15.4555338186175
30
0
41
1
10
31.8683529722385
20
15.4817861726642
30
0
41
1
10
31.7634162827557
20
15.51100897247
30
0
41
1
10
31.7069889111839
20
15.5254386803692
30
0
41
1
10
31.6617307060079
20
15.5362375904209
30
0
41
1
10
31.6334061534022
20
15.5426826938696
30
0
41
1
10
31.6107347410708
20
15.5476649194137
30
0
41
1
10
31.5879825447269
20
15.552457093468
30
0
41
1
10
31.5478561817371
20
15.5602206862198
30
0
41
1
10
31.4897639331942
20
15.5695093358769
30
0
41
1
10
31.3955297665081
20
15.5802745820743
30
0
41
1
10
31.2761098324946
20
15.5857446570166
30
0
41
1
10
31.1566899033713
20
15.5802745418615
30
0
41
1
10
31.0624557438637
20
15.5695092827518
30
0
41
1
10
31.0043634802968
20
15.5602206592255
30
0
41
1
10
30.9642370971315
20
15.552457090039
30
0
41
1
10
30.9414848967973
20
15.5476649200105
30
0
41
1
10
30.9188134852786
20
15.5426826936279
30
0
41
1
10
30.8904889327002
20
15.5362375901547
30
0
41
1
10
30.8452307271454
20
15.5254386804978
30
0
41
1
10
30.7888033557002
20
15.5110089724671
30
0
41
1
10
30.6838666662179
20
15.481786172662
30
0
41
1
10
30.6020711471729
20
15.4555338186166
30
0
41
1
10
30.5430408092482
20
15.4347338520021
30
0
0
SPLINE
5
172
100
AcDbEntity
8
1
62
256
6
ByLayer
370
18
48
1
60
0
100
AcDbSpline
70
4
71
3
72
8
73
4
40
0
40
0
40
0
40
0
40
1
40
1
40
1
40
1
41
1
10
28.0941293038801
20
15.8046096654408
30
0
41
1
10
28.4856624688369
20
15.4130765004893
30
0
41
1
10
28.8771956337938
20
15.0215433355377
30
0
41
1
10
29.2687287987507
20
14.6300101705862
30
0
0
SPLINE
5
173
100
AcDbEntity
8
1
62
256
6
ByLayer
370
18
48
1
60
0
100
AcDbSpline
70
4
71
3
72
29
73
25
40
0
40
0
40
0
40
0
40
0.125000000000945
40
0.171875000000893
40
0.218750000000841
40
0.242187500000815
40
0.26562500000079
40
0.277343750000777
40
0.289062500000764
40
0.312500000000738
40
0.359375000000686
40
0.406250000000634
40
0.50000000000053
40
0.593750000000427
40
0.640625000000375
40
0.687500000000323
40
0.710937500000297
40
0.722656250000284
40
0.734375000000271
40
0.757812500000245
40
0.781250000000219
40
0.828125000000168
40
0.875000000000116
40
1
40
1
40
1
40
1
41
1
10
34.0882145211199
20
11.8895601401126
30
0
41
1
10
34.1090144877356
20
11.9485904780374
30
0
41
1
10
34.1352668417824
20
12.0303859970824
30
0
41
1
10
34.1644896415882
20
12.1353226865652
30
0
41
1
10
34.1789193494874
20
12.191750058137
30
0
41
1
10
34.1897182595391
20
12.237008263313
30
0
41
1
10
34.1961633629878
20
12.2653328159187
30
0
41
1
10
34.2011455885319
20
12.2880042282501
30
0
41
1
10
34.2059377625861
20
12.3107564245941
30
0
41
1
10
34.213701355338
20
12.3508827875838
30
0
41
1
10
34.2229900049951
20
12.4089750361267
30
0
41
1
10
34.2337552511925
20
12.5032092028128
30
0
41
1
10
34.2392253261348
20
12.6226291368262
30
0
41
1
10
34.2337552109796
20
12.7420490659496
30
0
41
1
10
34.22298995187
20
12.8362832254572
30
0
41
1
10
34.2137013283436
20
12.8943754890241
30
0
41
1
10
34.2059377591571
20
12.9345018721894
30
0
41
1
10
34.2011455891287
20
12.9572540725236
30
0
41
1
10
34.1961633627461
20
12.9799254840423
30
0
41
1
10
34.1897182592729
20
13.0082500366207
30
0
41
1
10
34.178919349616
20
13.0535082421755
30
0
41
1
10
34.1644896415853
20
13.1099356136207
30
0
41
1
10
34.1352668417802
20
13.214872303103
30
0
41
1
10
34.1090144877348
20
13.296667822148
30
0
41
1
10
34.0882145211203
20
13.3556981600727
30
0
0
SPLINE
5
174
100
AcDbEntity
8
1
62
256
6
ByLayer
370
18
48
1
60
0
100
AcDbSpline
70
4
71
3
72
10
73
6
40
0
40
0
40
0
40
0
40
0.249999999999984
40
0.624999999999992
40
1
40
1
40
1
40
1
41
1
10
34.0882145211203
20
13.3556981600727
30
0
41
1
10
34.0466145878913
20
13.4737588359221
30
0
41
1
10
33.9255412999127
20
13.7643374026473
30
0
41
1
10
33.6662227768212
20
14.2020902075273
30
0
41
1
10
33.4186002180946
20
14.4949007921807
30
0
41
1
10
33.2834908396964
20
14.6300101705782
30
0
0
SPLINE
5
175
100
AcDbEntity
8
1
62
256
6
ByLayer
370
18
48
1
60
0
100
AcDbSpline
70
4
71
3
72
10
73
6
40
0
40
0
40
0
40
0
40
0.249999999999985
40
0.624999999999992
40
1
40
1
40
1
40
1
41
1
10
32.0091788291909
20
9.8105244482006
30
0
41
1
10
32.1272395050403
20
9.85212438142963
30
0
41
1
10
32.4178180717655
20
9.97319766940825
30
0
41
1
10
32.8555708766455
20
10.2325161924997
30
0
41
1
10
33.1483814612989
20
10.4801387512263
30
0
41
1
10
33.2834908396964
20
10.6152481296245
30
0
0
SPLINE
5
176
100
AcDbEntity
8
1
62
256
6
ByLayer
370
18
48
1
60
0
100
AcDbSpline
70
4
71
3
72
17
73
13
40
0
40
0
40
0
40
0
40
0.0625
40
0.125
40
0.25
40
0.375
40
0.5
40
0.625
40
0.75
40
0.875
40
0.9375
40
1
40
1
40
1
40
1
41
1
10
30.7104243942703
20
18.4209047964915
30
0
41
1
10
30.7289364064708
20
18.439416808692
30
0
41
1
10
30.7677795375652
20
18.4746214842182
30
0
41
1
10
30.8519907948632
20
18.5370812967199
30
0
41
1
10
30.9679893884117
20
18.5990872756312
30
0
41
1
10
31.1190312509512
20
18.6449053617952
30
0
41
1
10
31.2761096221003
20
18.6603763341994
30
0
41
1
10
31.4331877314793
20
18.6449052721318
30
0
41
1
10
31.5842305024925
20
18.5990882394722
30
0
41
1
10
31.7002287326839
20
18.5370813480352
30
0
41
1
10
31.7844403625294
20
18.4746219307716
30
0
41
1
10
31.8232832319682
20
18.439416808692
30
0
41
1
10
31.8417952441688
20
18.4209047964914
30
0
0
SPLINE
5
177
100
AcDbEntity
8
1
62
256
6
ByLayer
370
18
48
1
60
0
100
AcDbSpline
70
4
71
3
72
8
73
4
40
0
40
0
40
0
40
0
40
1
40
1
40
1
40
1
41
1
10
30.710424394273
20
18.4209047558337
30
0
41
1
10
30.6546298659314
20
17.4255144545565
30
0
41
1
10
30.5988353375898
20
16.4301241532793
30
0
41
1
10
30.5430408092482
20
15.4347338520021
30
0
0
SPLINE
5
178
100
AcDbEntity
8
1
62
256
6
ByLayer
370
18
48
1
60
0
100
AcDbSpline
70
4
71
3
72
8
73
4
40
0
40
0
40
0
40
0
40
1
40
1
40
1
40
1
41
1
10
37.0743854249519
20
12.0569437251548
30
0
41
1
10
36.2022870614875
20
11.1848453616904
30
0
41
1
10
35.3301886980466
20
10.3127469982495
30
0
41
1
10
34.458090334559
20
9.44064863476191
30
0
0
SPLINE
5
179
100
AcDbEntity
8
1
62
256
6
ByLayer
370
18
48
1
60
0
100
AcDbSpline
70
4
71
3
72
16
73
12
40
0
40
0
40
0
40
0
40
0.0396981637924447
40
0.176884140393524
40
0.314070116994603
40
0.451256093595683
40
0.588442070196762
40
0.725628046797841
40
0.862814023398921
40
0.93140701169946
40
1
40
1
40
1
40
1
41
1
10
25.4046567768133
20
-12.1411159944876
30
0
41
1
10
25.3955370169276
20
-12.1532156869025
30
0
41
1
10
25.3564336637818
20
-12.2082830167849
30
0
41
1
10
25.2996516936897
20
-12.3145087192936
30
0
41
1
10
25.2538336075257
20
-12.4655505818331
30
0
41
1
10
25.2383626351215
20
-12.6226289529822
30
0
41
1
10
25.2538336971891
20
-12.7797070623612
30
0
41
1
10
25.2996507298486
20
-12.9307498333744
30
0
41
1
10
25.3616576212857
20
-13.0467480635658
30
0
41
1
10
25.4241170385493
20
-13.1309596934113
30
0
41
1
10
25.4593221606289
20
-13.1698025628501
30
0
41
1
10
25.4778341728295
20
-13.1883145750507
30
0
0
SPLINE
5
17A
100
AcDbEntity
8
1
62
256
6
ByLayer
370
18
48
1
60
0
100
AcDbSpline
70
4
71
3
72
8
73
4
40
0
40
0
40
0
40
0
40
1
40
1
40
1
40
1
41
1
10
36.8586994283275
20
-0.864944378920939
30
0
41
1
10
36.9305947605334
20
-0.57662958594787
30
0
41
1
10
37.0024900927394
20
-0.288314792974802
30
0
41
1
10
37.0743854249455
20
-1.7621E-12
30
0
0
SPLINE
5
17B
100
AcDbEntity
8
1
62
256
6
ByLayer
370
18
48
1
60
0
100
AcDbSpline
70
4
71
3
72
8
73
4
40
0
40
0
40
0
40
0
40
1
40
1
40
1
40
1
41
1
10
28.3340520489502
20
9.20072588969174
30
0
41
1
10
28.2540778005939
20
9.2807001380481
30
0
41
1
10
28.1741035522372
20
9.36067438640478
30
0
41
1
10
28.0941293038801
20
9.44064863476189
30
0
0
SPLINE
5
17C
100
AcDbEntity
8
1
62
256
6
ByLayer
370
18
48
1
60
0
100
AcDbSpline
70
4
71
3
72
8
73
4
40
0
40
0
40
0
40
0
40
1
40
1
40
1
40
1
41
1
10
30.627151041526
20
8.30997391134423
30
0
41
1
10
30.5991142974281
20
8.81015742362965
30
0
41
1
10
30.5710775533303
20
9.31034093591504
30
0
41
1
10
30.5430408092324
20
9.81052444820045
30
0
0
SPLINE
5
17D
100
AcDbEntity
8
1
62
256
6
ByLayer
370
18
48
1
60
0
100
AcDbSpline
70
4
71
3
72
8
73
4
40
0
40
0
40
0
40
0
40
1
40
1
40
1
40
1
41
1
10
34.458090334559
20
9.44064863476189
30
0
41
1
10
34.2787515556901
20
9.26130985589296
30
0
41
1
10
34.0994127768232
20
9.08197107702603
30
0
41
1
10
33.9200739979576
20
8.90263229816046
30
0
0
SPLINE
5
17E
100
AcDbEntity
8
1
62
256
6
ByLayer
370
18
48
1
60
0
100
AcDbSpline
70
4
71
3
72
8
73
4
40
0
40
0
40
0
40
0
40
1
40
1
40
1
40
1
41
1
10
31.9239256783422
20
8.28958391818165
30
0
41
1
10
31.9523433952918
20
8.79656409485463
30
0
41
1
10
31.9807611122413
20
9.30354427152761
30
0
41
1
10
32.0091788291909
20
9.81052444820062
30
0
0
SPLINE
5
17F
100
AcDbEntity
8
1
62
256
6
ByLayer
370
18
48
1
60
0
100
AcDbSpline
70
4
71
3
72
12
73
8
40
0
40
0
40
0
40
0
40
0.12519338430107
40
0.25038676860214
40
0.500773537204279
40
0.751160305806419
40
1
40
1
40
1
40
1
41
1
10
26.3032290784163
20
3.31000000000014
30
0
41
1
10
26.2847176624655
20
3.31000000000026
30
0
41
1
10
26.2495224649965
20
3.31000000000023
30
0
41
1
10
26.1870915137245
20
3.3100000000002
30
0
41
1
10
26.125098109395
20
3.31000000000014
30
0
41
1
10
26.0793395594276
20
3.31000000000012
30
0
41
1
10
26.0689785599627
20
3.31000000000003
30
0
41
1
10
26.0689150784156
20
3.31000000000003
30
0
0
SPLINE
5
180
100
AcDbEntity
8
1
62
256
6
ByLayer
370
18
48
1
60
0
100
AcDbSpline
70
4
71
3
72
13
73
9
40
0
40
0
40
0
40
0
40
0.0012791894922827
40
0.250959392119212
40
0.500639594746141
40
0.750319797373071
40
0.875159898686535
40
1
40
1
40
1
40
1
41
1
10
36.4833043806668
20
3.31000000000003
30
0
41
1
10
36.4833053807668
20
3.31000000000003
30
0
41
1
10
36.4833316663038
20
3.31000000000003
30
0
41
1
10
36.4729748223084
20
3.31
30
0
41
1
10
36.4271201149411
20
3.30999999999997
30
0
41
1
10
36.3651280987917
20
3.30999999999997
30
0
41
1
10
36.3026964544922
20
3.30999999999997
30
0
41
1
10
36.2675019759736
20
3.30999999999997
30
0
41
1
10
36.2489905600228
20
3.31000000000012
30
0
0
SPLINE
5
181
100
AcDbEntity
8
1
62
256
6
ByLayer
370
18
48
1
60
0
100
AcDbSpline
70
4
71
3
72
19
73
15
40
0
40
0
40
0
40
0
40
0.0011162372671145
40
0.188406942779522
40
0.282052295535726
40
0.37569764829193
40
0.422520324670032
40
0.445931662859083
40
0.469343001048133
40
0.516165677426235
40
0.562988353804337
40
0.656633706560541
40
0.750279059316745
40
1
40
1
40
1
40
1
41
1
10
34.2370366327503
20
-0.200000000000208
30
0
41
1
10
34.2370376328503
20
-0.200000000000102
30
0
41
1
10
34.2370503206481
20
-0.200000000000102
30
0
41
1
10
34.2337552109796
20
-0.200000000000102
30
0
41
1
10
34.22298995187
20
-0.200000000000102
30
0
41
1
10
34.2137013283436
20
-0.200000000000102
30
0
41
1
10
34.2059377591571
20
-0.200000000000102
30
0
41
1
10
34.2011455891287
20
-0.200000000000102
30
0
41
1
10
34.1961633627461
20
-0.200000000000102
30
0
41
1
10
34.1897182592729
20
-0.200000000000102
30
0
41
1
10
34.178919349616
20
-0.200000000000102
30
0
41
1
10
34.1644896415853
20
-0.200000000000102
30
0
41
1
10
34.1352668417802
20
-0.200000000000102
30
0
41
1
10
34.1090144877348
20
-0.200000000000102
30
0
41
1
10
34.0882145211201
20
-0.200000000000074
30
0
0
SPLINE
5
182
100
AcDbEntity
8
1
62
256
6
ByLayer
370
18
48
1
60
0
100
AcDbSpline
70
4
71
3
72
13
73
9
40
0
40
0
40
0
40
0
40
0.124828396115928
40
0.249656792231857
40
0.499313584463714
40
0.748970376695571
40
0.998627168927428
40
1
40
1
40
1
40
1
41
1
10
37.0743854656096
20
-1.630565123E-07
30
0
41
1
10
37.0928974778101
20
-1.630567397E-07
30
0
41
1
10
37.1281021533363
20
-1.630567112E-07
30
0
41
1
10
37.1905619658381
20
-1.630566828E-07
30
0
41
1
10
37.2525679447493
20
-1.630566544E-07
30
0
41
1
10
37.2983860309134
20
-1.630565976E-07
30
0
41
1
10
37.3087283701552
20
-1.630565407E-07
30
0
41
1
10
37.3087001855541
20
-1.630565126E-07
30
0
41
1
10
37.3086991854541
20
-1.630565123E-07
30
0
0
SPLINE
5
183
100
AcDbEntity
8
1
62
256
6
ByLayer
370
18
48
1
60
0
100
AcDbSpline
70
4
71
3
72
19
73
15
40
0
40
0
40
0
40
0
40
0.249721113601561
40
0.343366531201334
40
0.437011948801107
40
0.483834657600993
40
0.53065736640088
40
0.554068720800823
40
0.577480075200766
40
0.624302784000653
40
0.717948201600426
40
0.811593619200199
40
0.998884454399745
40
1
40
1
40
1
40
1
41
1
10
28.464005117319
20
-0.200000000000074
30
0
41
1
10
28.4432051507034
20
-0.200000000000074
30
0
41
1
10
28.4169527966567
20
-0.200000000000074
30
0
41
1
10
28.3877299968509
20
-0.200000000000074
30
0
41
1
10
28.3733002889517
20
-0.200000000000074
30
0
41
1
10
28.3625013789
20
-0.200000000000074
30
0
41
1
10
28.3560562754513
20
-0.200000000000074
30
0
41
1
10
28.3510740499072
20
-0.200000000000074
30
0
41
1
10
28.3462818758529
20
-0.200000000000074
30
0
41
1
10
28.338518283101
20
-0.200000000000074
30
0
41
1
10
28.329229633444
20
-0.200000000000102
30
0
41
1
10
28.3184643872465
20
-0.200000000000102
30
0
41
1
10
28.3151693098911
20
-0.200000000000102
30
0
41
1
10
28.3151820056356
20
-0.200000000000102
30
0
41
1
10
28.3151830057356
20
-0.200000000000102
30
0
0
SPLINE
5
184
100
AcDbEntity
8
1
62
256
6
ByLayer
370
18
48
1
60
0
100
AcDbSpline
70
4
71
3
72
13
73
9
40
0
40
0
40
0
40
0
40
0.0013735552942112
40
0.251030166470658
40
0.500686777647106
40
0.750343388823553
40
0.875171694411776
40
1
40
1
40
1
40
1
41
1
10
25.2435204529036
20
-1.630565123E-07
30
0
41
1
10
25.2435194528036
20
-1.630565123E-07
30
0
41
1
10
25.2434912830268
20
-1.630565123E-07
30
0
41
1
10
25.2538336971891
20
-1.630564554E-07
30
0
41
1
10
25.2996507298486
20
-1.630563986E-07
30
0
41
1
10
25.3616576212858
20
-1.630563702E-07
30
0
41
1
10
25.4241170385493
20
-1.630563418E-07
30
0
41
1
10
25.4593221606289
20
-1.630563133E-07
30
0
41
1
10
25.4778341728294
20
-1.630565123E-07
30
0
0
SPLINE
5
185
100
AcDbEntity
8
1
62
256
6
ByLayer
370
18
48
1
60
0
100
AcDbSpline
70
4
71
3
72
8
73
4
40
0
40
0
40
0
40
0
40
1
40
1
40
1
40
1
41
1
10
36.7566724249455
20
-12.056943725149
30
0
41
1
10
36.8625767582787
20
-12.0569437251489
30
0
41
1
10
36.968481091612
20
-12.0569437251488
30
0
41
1
10
37.0743854249454
20
-12.0569437251489
30
0
0
SPLINE
5
186
100
AcDbEntity
8
1
62
256
6
ByLayer
370
18
48
1
60
0
100
AcDbSpline
70
4
71
3
72
8
73
4
40
0
40
0
40
0
40
0
40
1
40
1
40
1
40
1
41
1
10
37.0743854249519
20
-12.0569437251549
30
0
41
1
10
36.9950925918298
20
-11.9776508920328
30
0
41
1
10
36.9157997587079
20
-11.8983580589109
30
0
41
1
10
36.8365069255862
20
-11.8190652257892
30
0
0
SPLINE
5
187
100
AcDbEntity
8
1
62
256
6
ByLayer
370
18
48
1
60
0
100
AcDbSpline
70
4
71
3
72
14
73
10
40
0
40
0
40
0
40
0
40
0.0022338793778857
40
0.201787103502308
40
0.401340327626731
40
0.600893551751154
40
0.800446775875577
40
0.900223387937789
40
1
40
1
40
1
40
1
41
1
10
36.467569714774
20
-12.4648408185757
30
0
41
1
10
36.4676854430743
20
-12.465415393294
30
0
41
1
10
36.4780819868832
20
-12.5173284578174
30
0
41
1
10
36.4884703939801
20
-12.6226293950448
30
0
41
1
10
36.4729748223084
20
-12.7797022021124
30
0
41
1
10
36.4271201149411
20
-12.9307263408012
30
0
41
1
10
36.3651280987917
20
-13.0467250205145
30
0
41
1
10
36.3026964544922
20
-13.1309527057969
30
0
41
1
10
36.2675019759736
20
-13.1698031591014
30
0
41
1
10
36.2489905600228
20
-13.1883145750521
30
0
0
SPLINE
5
188
100
AcDbEntity
8
1
62
256
6
ByLayer
370
18
48
1
60
0
100
AcDbSpline
70
4
71
3
72
13
73
9
40
0
40
0
40
0
40
0
40
0.11721369335283
40
0.234427386705661
40
0.468854773411321
40
0.703282160116982
40
0.937709546822643
40
1
40
1
40
1
40
1
41
1
10
26.3032290784163
20
-13.1883145750521
30
0
41
1
10
26.2847176624655
20
-13.1698031591012
30
0
41
1
10
26.2495224649965
20
-13.1309531324283
30
0
41
1
10
26.1870915137245
20
-13.0467247911258
30
0
41
1
10
26.1250981093949
20
-12.9307267664573
30
0
41
1
10
26.0792451215512
20
-12.7797011459516
30
0
41
1
10
26.067542050414
20
-12.6610742623788
30
0
41
1
10
26.0692791430421
20
-12.5948046412058
30
0
41
1
10
26.0700065208021
20
-12.5809114606516
30
0
0
SPLINE
5
189
100
AcDbEntity
8
1
62
256
6
ByLayer
370
13
48
1
60
0
100
AcDbSpline
70
4
71
3
72
8
73
4
40
0
40
0
40
0
40
0
40
1
40
1
40
1
40
1
41
1
10
36.7531271909999
20
-0.500000000000199
30
0
41
1
10
36.4901056422055
20
-0.500000000000199
30
0
41
1
10
36.2271391743005
20
-0.500000000000199
30
0
41
1
10
35.9642728090001
20
-0.500000000000199
30
0
0
SPLINE
5
18A
100
AcDbEntity
8
1
62
256
6
ByLayer
370
13
48
1
60
0
100
AcDbSpline
70
4
71
3
72
12
73
8
40
0
40
0
40
0
40
0
40
0.499999999999991
40
0.499999999999991
40
0.749999999999996
40
0.749999999999996
40
1
40
1
40
1
40
1
41
1
10
25.0858308074858
20
9.03898762122489
30
0
41
1
10
25.2215195929122
20
8.9900656314968
30
0
41
1
10
25.3483077083235
20
8.95622533891671
30
0
41
1
10
25.5268512203801
20
8.92399066536197
30
0
41
1
10
25.584059251342
20
8.91654100994313
30
0
41
1
10
25.6905134531531
20
8.90828678236284
30
0
41
1
10
25.7402700529839
20
8.90738302952292
30
0
41
1
10
25.7863617737005
20
8.90970052143334
30
0
0
SPLINE
5
18B
100
AcDbEntity
8
1
62
256
6
ByLayer
370
13
48
1
60
0
100
AcDbSpline
70
4
71
3
72
8
73
4
40
0
40
0
40
0
40
0
40
1
40
1
40
1
40
1
41
1
10
29.8618962568465
20
-11.0084155877284
30
0
41
1
10
29.4027223795655
20
-11.4675894650093
30
0
41
1
10
28.9490291690925
20
-11.9212826754824
30
0
41
1
10
28.5006760374437
20
-12.3696358071312
30
0
0
SPLINE
5
18C
100
AcDbEntity
8
1
62
256
6
ByLayer
370
13
48
1
60
0
100
AcDbSpline
70
4
71
3
72
32
73
28
40
0
40
0
40
0
40
0
40
0.124999999999999
40
0.124999999999999
40
0.187500000000001
40
0.187500000000001
40
0.250000000000004
40
0.250000000000004
40
0.375000000000003
40
0.375000000000003
40
0.437500000000003
40
0.437500000000003
40
0.500000000000003
40
0.500000000000003
40
0.562500000000003
40
0.562500000000003
40
0.625000000000002
40
0.625000000000002
40
0.687500000000002
40
0.687500000000002
40
0.750000000000002
40
0.750000000000002
40
0.812500000000002
40
0.812500000000002
40
0.875000000000002
40
0.875000000000002
40
1
40
1
40
1
40
1
41
1
10
21.2867725137469
20
12.4733329318921
30
0
41
1
10
21.1144372175428
20
12.4733329318921
30
0
41
1
10
20.9441715778671
20
12.47397381357
30
0
41
1
10
20.6919625726401
20
12.4756624462776
30
0
41
1
10
20.6084285952754
20
12.4763426457296
30
0
41
1
10
20.4425059449246
20
12.4778411366566
30
0
41
1
10
20.3599938205265
20
12.478661352597
30
0
41
1
10
20.1199779606569
20
12.4810464429624
30
0
41
1
10
19.9680016724271
20
12.4825845452992
30
0
41
1
10
19.7537471285184
20
12.4834225291299
30
0
41
1
10
19.6844692293676
20
12.4834433192621
30
0
41
1
10
19.5546155007899
20
12.4826582314789
30
0
41
1
10
19.4935710469669
20
12.4818569476516
30
0
41
1
10
19.3797332569143
20
12.4790955262807
30
0
41
1
10
19.3267806003021
20
12.4771282087174
30
0
41
1
10
19.2307413382808
20
12.471634466338
30
0
41
1
10
19.1885731719418
20
12.4681630621663
30
0
41
1
10
19.1160224652971
20
12.4594983381944
30
0
41
1
10
19.085636851628
20
12.4543060008075
30
0
41
1
10
19.037336087054
20
12.4418814424681
30
0
41
1
10
19.0194572140646
20
12.4345761433783
30
0
41
1
10
18.9980127832212
20
12.4182520051496
30
0
41
1
10
18.994153244812
20
12.4091929924569
30
0
41
1
10
18.9998892748333
20
12.3892535609273
30
0
41
1
10
19.0096702786499
20
12.378263058547
30
0
41
1
10
19.0582702539877
20
12.3434723574046
30
0
41
1
10
19.1153833033326
20
12.317942358882
30
0
41
1
10
19.1945711201344
20
12.2908096745538
30
0
0
SPLINE
5
18D
100
AcDbEntity
8
1
62
256
6
ByLayer
370
13
48
1
60
0
100
AcDbSpline
70
4
71
3
72
22
73
18
40
0
40
0
40
0
40
0
40
0.125
40
0.125
40
0.25
40
0.25
40
0.375
40
0.375
40
0.5
40
0.5
40
0.625
40
0.625
40
0.75
40
0.75
40
0.875
40
0.875
40
1
40
1
40
1
40
1
41
1
10
31.8364004897409
20
-16.0196405189756
30
0
41
1
10
31.8009004496937
20
-16.0579345583962
30
0
41
1
10
31.7616450515881
20
-16.093120832241
30
0
41
1
10
31.6759315569795
20
-16.1556504180758
30
0
41
1
10
31.6307116002619
20
-16.1821402557134
30
0
41
1
10
31.5355316590335
20
-16.2255425229895
30
0
41
1
10
31.4849135015637
20
-16.2425817868491
30
0
41
1
10
31.3818203245008
20
-16.2652515120532
30
0
41
1
10
31.3297378873114
20
-16.2709630432481
30
0
41
1
10
31.2244990329704
20
-16.2711154881562
30
0
41
1
10
31.1711526727888
20
-16.2653560087844
30
0
41
1
10
31.0685466785877
20
-16.2429565965389
30
0
41
1
10
31.018462887656
20
-16.2263025781139
30
0
41
1
10
30.9217332134748
20
-16.1823784796717
30
0
41
1
10
30.8764028421314
20
-16.1557485224381
30
0
41
1
10
30.7913717294456
20
-16.0938285678916
30
0
41
1
10
30.7514149155649
20
-16.0581539095174
30
0
41
1
10
30.7156366181371
20
-16.0195480877957
30
0
0
SPLINE
5
18E
100
AcDbEntity
8
1
62
256
6
ByLayer
370
13
48
1
60
0
100
AcDbSpline
70
4
71
3
72
10
73
6
40
0
40
0
40
0
40
0
40
0.5
40
0.5
40
1
40
1
40
1
40
1
41
1
10
36.8586999999999
20
-6.49886115261631
30
0
41
1
10
36.8586999999999
20
-6.41738819827833
30
0
41
1
10
36.8496796928661
20
-6.33625185578683
30
0
41
1
10
36.8139769452841
20
-6.1770247803785
30
0
41
1
10
36.7877311692594
20
-6.10047177164827
30
0
41
1
10
36.753127191
20
-6.02696609367447
30
0
0
SPLINE
5
18F
100
AcDbEntity
8
1
62
256
6
ByLayer
370
13
48
1
60
0
100
AcDbSpline
70
4
71
3
72
32
73
28
40
0
40
0
40
0
40
0
40
0.124999999999997
40
0.124999999999997
40
0.249999999999994
40
0.249999999999994
40
0.312499999999994
40
0.312499999999994
40
0.374999999999995
40
0.374999999999995
40
0.437499999999996
40
0.437499999999996
40
0.499999999999997
40
0.499999999999997
40
0.562499999999997
40
0.562499999999997
40
0.624999999999998
40
0.624999999999998
40
0.749999999999999
40
0.749999999999999
40
0.8125
40
0.8125
40
0.875
40
0.875
40
0.9375
40
0.9375
40
1
40
1
40
1
40
1
41
1
10
21.2867725137469
20
0.499999999999943
30
0
41
1
10
21.1152003260483
20
0.499999999999943
30
0
41
1
10
20.9412630317036
20
0.484390339898766
30
0
41
1
10
20.6049270133536
20
0.422104686449757
30
0
41
1
10
20.4408735115321
20
0.375658319265597
30
0
41
1
10
20.2016000491516
20
0.280647648241626
30
0
41
1
10
20.122507917699
20
0.244450669819798
30
0
41
1
10
19.9694910366964
20
0.163963926954949
30
0
41
1
10
19.8957175988784
20
0.119830983189445
30
0
41
1
10
19.7538633570215
20
0.0234687587049791
30
0
41
1
10
19.6857798085566
20
-0.0287566166843476
30
0
41
1
10
19.5558034083907
20
-0.14201273842906
30
0
41
1
10
19.4936012516394
20
-0.203471054941787
30
0
41
1
10
19.3793260169687
20
-0.332668987776174
30
0
41
1
10
19.3268774936364
20
-0.400648567834793
30
0
41
1
10
19.2318794145328
20
-0.543734599927888
30
0
41
1
10
19.1891175047894
20
-0.619287931539589
30
0
41
1
10
19.0787123632376
20
-0.854781928239561
30
0
41
1
10
19.0305528020262
20
-1.01867267105533
30
0
41
1
10
18.9980580526877
20
-1.27519258734384
30
0
41
1
10
18.9941431713095
20
-1.36202936014689
30
0
41
1
10
18.9999402359401
20
-1.53282781359442
30
0
41
1
10
19.009533473156
20
-1.61757346429243
30
0
41
1
10
19.041769886597
20
-1.78579332220414
30
0
41
1
10
19.0645861466165
20
-1.86941060786603
30
0
41
1
10
19.1213086864711
20
-2.03033676983787
30
0
41
1
10
19.1553083442123
20
-2.10833342516298
30
0
41
1
10
19.1945711201344
20
-2.18404028665165
30
0
0
SPLINE
5
190
100
AcDbEntity
8
1
62
256
6
ByLayer
370
13
48
1
60
0
100
AcDbSpline
70
4
71
3
72
34
73
30
40
0
40
0
40
0
40
0
40
0.062499999999999
40
0.062499999999999
40
0.124999999999998
40
0.124999999999998
40
0.187499999999997
40
0.187499999999997
40
0.249999999999996
40
0.249999999999996
40
0.312499999999995
40
0.312499999999995
40
0.374999999999994
40
0.374999999999994
40
0.437499999999993
40
0.437499999999993
40
0.499999999999992
40
0.499999999999992
40
0.624999999999993
40
0.624999999999993
40
0.749999999999995
40
0.749999999999995
40
0.812499999999996
40
0.812499999999996
40
0.874999999999998
40
0.874999999999998
40
0.937499999999999
40
0.937499999999999
40
1
40
1
40
1
40
1
41
1
10
24.2466372584652
20
-2.18404028665154
30
0
41
1
10
24.2402598269539
20
-2.25652526707458
30
0
41
1
10
24.2278981833338
20
-2.32616060783013
30
0
41
1
10
24.1914317007278
20
-2.45977464774697
30
0
41
1
10
24.1671384826778
20
-2.52412665264475
30
0
41
1
10
24.1071308549514
20
-2.64514182018198
30
0
41
1
10
24.0720177402412
20
-2.70080006893701
30
0
41
1
10
23.9923290782573
20
-2.80289828796444
30
0
41
1
10
23.9473241438354
20
-2.84967104236301
30
0
41
1
10
23.8501024208002
20
-2.93204365535419
30
0
41
1
10
23.7982353505363
20
-2.96752578301428
30
0
41
1
10
23.6886407473323
20
-3.02781138466031
30
0
41
1
10
23.6304331342035
20
-3.05273042061148
30
0
41
1
10
23.5112074144412
20
-3.09100451204589
30
0
41
1
10
23.45019840818
20
-3.10448701731093
30
0
41
1
10
23.325693845661
20
-3.12077104631129
30
0
41
1
10
23.2617644956385
20
-3.1235373468061
30
0
41
1
10
23.0697421966365
20
-3.11582607195862
30
0
41
1
10
22.942412043721
20
-3.09004235043506
30
0
41
1
10
22.6892981299904
20
-2.99847533351775
30
0
41
1
10
22.5680220447208
20
-2.93416974575845
30
0
41
1
10
22.3950910638602
20
-2.81172132090793
30
0
41
1
10
22.3384912320762
20
-2.76609390441803
30
0
41
1
10
22.2308877091328
20
-2.66801986769732
30
0
41
1
10
22.1796851384564
20
-2.61551699110495
30
0
41
1
10
22.082293286785
20
-2.50368553486899
30
0
41
1
10
22.0361036094685
20
-2.44435802559494
30
0
41
1
10
21.9488181884955
20
-2.31860128872321
30
0
41
1
10
21.9079921643154
20
-2.25249218701273
30
0
41
1
10
21.8705727514236
20
-2.18404028665165
30
0
0
SPLINE
5
191
100
AcDbEntity
8
1
62
256
6
ByLayer
370
13
48
1
60
0
100
AcDbSpline
70
4
71
3
72
10
73
6
40
0
40
0
40
0
40
0
40
0.5
40
0.5
40
1
40
1
40
1
40
1
41
1
10
36.7531271909999
20
-0.500000000000199
30
0
41
1
10
36.7879033856466
20
-0.500000000000199
30
0
41
1
10
36.8140887814823
20
-0.500000000000199
30
0
41
1
10
36.8495042463035
20
-0.500000000000199
30
0
41
1
10
36.8587110011
20
-0.500000000000199
30
0
41
1
10
36.858695249525
20
-0.500000000000199
30
0
0
SPLINE
5
192
100
AcDbEntity
8
1
62
256
6
ByLayer
370
13
48
1
60
0
100
AcDbSpline
70
4
71
3
72
12
73
8
40
0
40
0
40
0
40
0
40
0.250000000000003
40
0.250000000000003
40
0.500000000000008
40
0.500000000000008
40
1
40
1
40
1
40
1
41
1
10
35.8587
20
-3.7807616899139
30
0
41
1
10
35.8587
20
-3.82522468881118
30
0
41
1
10
35.8608664066783
20
-3.86998459431444
30
0
41
1
10
35.8695243822803
20
-3.95814333402805
30
0
41
1
10
35.8760067899729
20
-4.00177528847206
30
0
41
1
10
35.9020496251528
20
-4.13130078343204
30
0
41
1
10
35.928095909144
20
-4.215846759464
30
0
41
1
10
35.9642728090001
20
-4.29828790043959
30
0
0
SPLINE
5
193
100
AcDbEntity
8
1
62
256
6
ByLayer
370
13
48
1
60
0
100
AcDbSpline
70
4
71
3
72
8
73
4
40
0
40
0
40
0
40
0
40
1
40
1
40
1
40
1
41
1
10
26.4084394203929
20
-12.9645227329764
30
0
41
1
10
26.3909611967645
20
-12.9417232351868
30
0
41
1
10
26.373521490451
20
-12.9188914533151
30
0
41
1
10
26.3561209060985
20
-12.8960271179768
30
0
0
SPLINE
5
194
100
AcDbEntity
8
1
62
256
6
ByLayer
370
13
48
1
60
0
100
AcDbSpline
70
4
71
3
72
14
73
10
40
0
40
0
40
0
40
0
40
0.25
40
0.25
40
0.5
40
0.5
40
0.75
40
0.75
40
1
40
1
40
1
40
1
41
1
10
25.4671947580058
20
-12.1884315189557
30
0
41
1
10
25.4881542027697
20
-12.1880660483275
30
0
41
1
10
25.511568454252
20
-12.1896796062839
30
0
41
1
10
25.5610295405625
20
-12.1977066346607
30
0
41
1
10
25.5872196733437
20
-12.2040942055304
30
0
41
1
10
25.6419937115503
20
-12.2228302289009
30
0
41
1
10
25.6708990971387
20
-12.2353680407776
30
0
41
1
10
25.7286861621569
20
-12.2671261998831
30
0
41
1
10
25.7576468789478
20
-12.2863011179736
30
0
41
1
10
25.7863617737001
20
-12.3094368940941
30
0
0
SPLINE
5
195
100
AcDbEntity
8
1
62
256
6
ByLayer
370
13
48
1
60
0
100
AcDbSpline
70
4
71
3
72
8
73
4
40
0
40
0
40
0
40
0
40
1
40
1
40
1
40
1
41
1
10
25.3342914630623
20
2.95834655692667
30
0
41
1
10
25.3788785899697
20
2.98197092319543
30
0
41
1
10
25.4237527783774
20
3.00537897622814
30
0
41
1
10
25.4671947580064
20
3.02799308184669
30
0
0
SPLINE
5
196
100
AcDbEntity
8
1
62
256
6
ByLayer
370
13
48
1
60
0
100
AcDbSpline
70
4
71
3
72
14
73
10
40
0
40
0
40
0
40
0
40
0.25
40
0.25
40
0.5
40
0.5
40
0.75
40
0.75
40
1
40
1
40
1
40
1
41
1
10
36.5591238732903
20
-10.1117744509616
30
0
41
1
10
36.6073475101086
20
-10.0647987538015
30
0
41
1
10
36.6501171220553
20
-10.0136783866349
30
0
41
1
10
36.7250247735116
20
-9.90335841532695
30
0
41
1
10
36.7568627992814
20
-9.8443896742738
30
0
41
1
10
36.8078519944416
20
-9.72202318104806
30
0
41
1
10
36.8269001055228
20
-9.6589890013997
30
0
41
1
10
36.8522561358598
20
-9.5315103134661
30
0
41
1
10
36.8586999999999
20
-9.46661273746508
30
0
41
1
10
36.8586999999999
20
-9.40090713933279
30
0
0
SPLINE
5
197
100
AcDbEntity
8
1
62
256
6
ByLayer
370
13
48
1
60
0
100
AcDbSpline
70
4
71
3
72
14
73
10
40
0
40
0
40
0
40
0
40
0.25
40
0.25
40
0.5
40
0.5
40
0.75
40
0.75
40
1
40
1
40
1
40
1
41
1
10
24.7352473216611
20
2.45752087604654
30
0
41
1
10
24.7529820783097
20
2.49677108746027
30
0
41
1
10
24.7739238080665
20
2.53433681070101
30
0
41
1
10
24.822182937976
20
2.60613743220222
30
0
41
1
10
24.8497037318245
20
2.64049862561475
30
0
41
1
10
24.9091799735045
20
2.70346502473771
30
0
41
1
10
24.9413152273732
20
2.73240156240189
30
0
41
1
10
25.0103064923103
20
2.78528227013598
30
0
41
1
10
25.0474646650087
20
2.80934539142314
30
0
41
1
10
25.0858308074858
20
2.83015210165354
30
0
0
SPLINE
5
198
100
AcDbEntity
8
1
62
256
6
ByLayer
370
13
48
1
60
0
100
AcDbSpline
70
4
71
3
72
12
73
8
40
0
40
0
40
0
40
0
40
0.500000000000001
40
0.500000000000001
40
0.75
40
0.75
40
1
40
1
40
1
40
1
41
1
10
25.4671947580075
20
3.02799308184353
30
0
41
1
10
25.5089782098208
20
3.10241984446404
30
0
41
1
10
25.5603083581497
20
3.17287880645398
30
0
41
1
10
25.6421691118857
20
3.26628882599488
30
0
41
1
10
25.6703791358331
20
3.29556669954735
30
0
41
1
10
25.7281929676895
20
3.35026394484936
30
0
41
1
10
25.7578085687559
20
3.37560681513938
30
0
41
1
10
25.7863617737
20
3.39760559818544
30
0
0
SPLINE
5
199
100
AcDbEntity
8
1
62
256
6
ByLayer
370
13
48
1
60
0
100
AcDbSpline
70
4
71
3
72
8
73
4
40
0
40
0
40
0
40
0
40
1
40
1
40
1
40
1
41
1
10
31.836400489741
20
7.30999999999975
30
0
41
1
10
32.6638901591887
20
7.30999999999975
30
0
41
1
10
33.4850908400616
20
7.30999999999975
30
0
41
1
10
34.2959073469634
20
7.30999999999975
30
0
0
SPLINE
5
19A
100
AcDbEntity
8
1
62
256
6
ByLayer
370
13
48
1
60
0
100
AcDbSpline
70
4
71
3
72
8
73
4
40
0
40
0
40
0
40
0
40
1
40
1
40
1
40
1
41
1
10
24.5948344758144
20
2.10077632862183
30
0
41
1
10
24.6365620369155
20
2.2219489332339
30
0
41
1
10
24.6826544860425
20
2.3411234561234
30
0
41
1
10
24.7352473216616
20
2.45752087604788
30
0
0
SPLINE
5
19B
100
AcDbEntity
8
1
62
256
6
ByLayer
370
13
48
1
60
0
100
AcDbSpline
70
4
71
3
72
8
73
4
40
0
40
0
40
0
40
0
40
1
40
1
40
1
40
1
41
1
10
36.6111608611171
20
3.96562204707161
30
0
41
1
10
36.5944760393376
20
3.96274364306811
30
0
41
1
10
36.5771197592692
20
3.95945900241131
30
0
41
1
10
36.5591238732905
20
3.95567901827457
30
0
0
SPLINE
5
19C
100
AcDbEntity
8
1
62
256
6
ByLayer
370
13
48
1
60
0
100
AcDbSpline
70
4
71
3
72
18
73
14
40
0
40
0
40
0
40
0
40
0.125
40
0.125
40
0.25
40
0.25
40
0.375
40
0.375
40
0.5
40
0.5
40
0.75
40
0.75
40
1
40
1
40
1
40
1
41
1
10
25.7863617737001
20
-12.3094368940941
30
0
41
1
10
25.8103913513942
20
-12.3287976800067
30
0
41
1
10
25.8350232142128
20
-12.3493636264623
30
0
41
1
10
25.8855019441577
20
-12.392981916204
30
0
41
1
10
25.9114505503937
20
-12.4161401240395
30
0
41
1
10
25.9628707047213
20
-12.4634770742005
30
0
41
1
10
25.9885453052999
20
-12.487825178646
30
0
41
1
10
26.039824256362
20
-12.5378765706157
30
0
41
1
10
26.0656345134091
20
-12.5637948803365
30
0
41
1
10
26.1413198618035
20
-12.641972812804
30
0
41
1
10
26.1891441941065
20
-12.6942447786039
30
0
41
1
10
26.2796688973065
20
-12.7989240791285
30
0
41
1
10
26.3201831677385
20
-12.8488049968967
30
0
41
1
10
26.3561209060985
20
-12.8960271179768
30
0
0
SPLINE
5
19D
100
AcDbEntity
8
1
62
256
6
ByLayer
370
13
48
1
60
0
100
AcDbSpline
70
4
71
3
72
22
73
18
40
0
40
0
40
0
40
0
40
0.125
40
0.125
40
0.25
40
0.25
40
0.375
40
0.375
40
0.5
40
0.5
40
0.625
40
0.625
40
0.75
40
0.75
40
0.875
40
0.875
40
1
40
1
40
1
40
1
41
1
10
34.4916779154182
20
7.80999999999975
30
0
41
1
10
34.5007271386151
20
7.77809829437953
30
0
41
1
10
34.5076075560961
20
7.74662939467658
30
0
41
1
10
34.5171277648935
20
7.68452549476262
30
0
41
1
10
34.5197612287436
20
7.65359161124155
30
0
41
1
10
34.520441067373
20
7.59428883171418
30
0
41
1
10
34.5185420852168
20
7.56597794182574
30
0
41
1
10
34.5102227734697
20
7.51207254193957
30
0
41
1
10
34.5036846060253
20
7.4862245015411
30
0
41
1
10
34.4862718997795
20
7.43932658155495
30
0
41
1
10
34.4754428060778
20
7.41814569588442
30
0
41
1
10
34.449416651281
20
7.38050126480934
30
0
41
1
10
34.4340348053574
20
7.36397589290547
30
0
41
1
10
34.4000946280032
20
7.33753374613852
30
0
41
1
10
34.3814319507633
20
7.32737152364652
30
0
41
1
10
34.3405746369255
20
7.31351946423905
30
0
41
1
10
34.3186014841743
20
7.30999999999975
30
0
41
1
10
34.2959073469634
20
7.30999999999975
30
0
0
SPLINE
5
19E
100
AcDbEntity
8
1
62
256
6
ByLayer
370
13
48
1
60
0
100
AcDbSpline
70
4
71
3
72
8
73
4
40
0
40
0
40
0
40
0
40
1
40
1
40
1
40
1
41
1
10
24.5948344758144
20
12.305314837375
30
0
41
1
10
24.6365620369155
20
12.2846281225034
30
0
41
1
10
24.6826544860424
20
12.2624332819447
30
0
41
1
10
24.7352473216616
20
12.2390614662077
30
0
0
SPLINE
5
19F
100
AcDbEntity
8
1
62
256
6
ByLayer
370
13
48
1
60
0
100
AcDbSpline
70
4
71
3
72
8
73
4
40
0
40
0
40
0
40
0
40
1
40
1
40
1
40
1
41
1
10
25.0858308074846
20
-12.1583006012879
30
0
41
1
10
25.1526698038247
20
-12.1498629396919
30
0
41
1
10
25.2220617214647
20
-12.148498697906
30
0
41
1
10
25.2903572473945
20
-12.1549727775384
30
0
0
SPLINE
5
1A0
100
AcDbEntity
8
1
62
256
6
ByLayer
370
13
48
1
60
0
100
AcDbSpline
70
4
71
3
72
16
73
12
40
0
40
0
40
0
40
0
40
0.250000000000002
40
0.250000000000002
40
0.500000000000005
40
0.500000000000005
40
0.624999999999997
40
0.624999999999997
40
0.749999999999988
40
0.749999999999988
40
1
40
1
40
1
40
1
41
1
10
36.8587000000002
20
3.7300383482505
30
0
41
1
10
36.8586999999997
20
3.77212405676505
30
0
41
1
10
36.8539455222611
20
3.81020715000244
30
0
41
1
10
36.8334011489499
20
3.87499880589445
30
0
41
1
10
36.8172587267873
20
3.9024140940586
30
0
41
1
10
36.7852308184463
20
3.93318205345471
30
0
41
1
10
36.7732459250087
20
3.94182426762563
30
0
41
1
10
36.7466328727751
20
3.95584629395992
30
0
41
1
10
36.7318764876409
20
3.96124136100519
30
0
41
1
10
36.6847937238189
20
3.97201371143694
30
0
41
1
10
36.6496018206444
20
3.97225373983167
30
0
41
1
10
36.6111608611165
20
3.96562204707146
30
0
0
SPLINE
5
1A1
100
AcDbEntity
8
1
62
256
6
ByLayer
370
13
48
1
60
0
100
AcDbSpline
70
4
71
3
72
22
73
18
40
0
40
0
40
0
40
0
40
0.125
40
0.125
40
0.25
40
0.25
40
0.375
40
0.375
40
0.5
40
0.5
40
0.625
40
0.625
40
0.75
40
0.75
40
0.875
40
0.875
40
1
40
1
40
1
40
1
41
1
10
30.7156366181371
20
-17.2946789775699
30
0
41
1
10
30.7521571138358
20
-17.3311802118079
30
0
41
1
10
30.7927376578942
20
-17.364611435379
30
0
41
1
10
30.8790988280366
20
-17.4225324856144
30
0
41
1
10
30.9245790608134
20
-17.4469778481087
30
0
41
1
10
31.0201170696734
20
-17.4868809562573
30
0
41
1
10
31.0706309304342
20
-17.5023431515309
30
0
41
1
10
31.1721312099849
20
-17.5226998740952
30
0
41
1
10
31.2235321679013
20
-17.527853835273
30
0
41
1
10
31.3276613120151
20
-17.5279153838863
30
0
41
1
10
31.3798832761825
20
-17.5227074407495
30
0
41
1
10
31.4811860942791
20
-17.5024185690187
30
0
41
1
10
31.5310209876236
20
-17.4872517146148
30
0
41
1
10
31.6274879300266
20
-17.4470412445741
30
0
41
1
10
31.6730319007441
20
-17.422507018429
30
0
41
1
10
31.75894925922
20
-17.3649238006003
30
0
41
1
10
31.7996940476751
20
-17.3314406593023
30
0
41
1
10
31.8364004897409
20
-17.294764593865
30
0
0
SPLINE
5
1A2
100
AcDbEntity
8
1
62
256
6
ByLayer
370
13
48
1
60
0
100
AcDbSpline
70
4
71
3
72
22
73
18
40
0
40
0
40
0
40
0
40
0.250000000000002
40
0.250000000000002
40
0.312500000000002
40
0.312500000000002
40
0.375000000000002
40
0.375000000000002
40
0.500000000000003
40
0.500000000000003
40
0.625000000000003
40
0.625000000000003
40
0.687500000000003
40
0.687500000000003
40
0.750000000000003
40
0.750000000000003
40
1
40
1
40
1
40
1
41
1
10
19.1945711201346
20
-2.18404028665154
30
0
41
1
10
19.4287656725747
20
-2.94863285453545
30
0
41
1
10
19.7181394970274
20
-3.6675423998058
30
0
41
1
10
20.1694860508332
20
-4.50631096655502
30
0
41
1
10
20.2642643695381
20
-4.67105592360465
30
0
41
1
10
20.4634719274019
20
-4.99440233352539
30
0
41
1
10
20.568304284094
20
-5.1535464975309
30
0
41
1
10
20.8944985020885
20
-5.61631513085021
30
0
41
1
10
21.1276390271739
20
-5.90581925059269
30
0
41
1
10
21.6262934263422
20
-6.44938863357908
30
0
41
1
10
21.8918040123075
20
-6.70345043905633
30
0
41
1
10
22.3152242680003
20
-7.05954417044123
30
0
41
1
10
22.460558241404
20
-7.17407230761248
30
0
41
1
10
22.759784538485
20
-7.39501506915079
30
0
41
1
10
22.9135419028173
20
-7.50128321968899
30
0
41
1
10
23.6951391331697
20
-8.00756226178959
30
0
41
1
10
24.3677096925439
20
-8.33810268901576
30
0
41
1
10
25.0858308074866
20
-8.60992085986683
30
0
0
SPLINE
5
1A3
100
AcDbEntity
8
1
62
256
6
ByLayer
370
13
48
1
60
0
100
AcDbSpline
70
4
71
3
72
8
73
4
40
0
40
0
40
0
40
0
40
1
40
1
40
1
40
1
41
1
10
25.0858308074858
20
2.83015210165357
30
0
41
1
10
25.1525296835244
20
2.86632420801684
30
0
41
1
10
25.2216425193707
20
2.90161012818891
30
0
41
1
10
25.2903572473945
20
2.9357942964055
30
0
0
SPLINE
5
1A4
100
AcDbEntity
8
1
62
256
6
ByLayer
370
13
48
1
60
0
100
AcDbSpline
70
4
71
3
72
8
73
4
40
0
40
0
40
0
40
0
40
1
40
1
40
1
40
1
41
1
10
25.3342914630622
20
-12.1600209489139
30
0
41
1
10
25.3788081779835
20
-12.1660343647789
30
0
41
1
10
25.4231623341574
20
-12.1754085516442
30
0
41
1
10
25.4671947580058
20
-12.1884315189552
30
0
0
SPLINE
5
1A5
100
AcDbEntity
8
1
62
256
6
ByLayer
370
13
48
1
60
0
100
AcDbSpline
70
4
71
3
72
54
73
50
40
0
40
0
40
0
40
0
40
0.0312500000000002
40
0.0312500000000002
40
0.0625000000000004
40
0.0625000000000004
40
0.0937500000000007
40
0.0937500000000007
40
0.125000000000001
40
0.125000000000001
40
0.156250000000001
40
0.156250000000001
40
0.187500000000001
40
0.187500000000001
40
0.218750000000002
40
0.218750000000002
40
0.250000000000002
40
0.250000000000002
40
0.312500000000003
40
0.312500000000003
40
0.375000000000003
40
0.375000000000003
40
0.406250000000003
40
0.406250000000003
40
0.437500000000004
40
0.437500000000004
40
0.500000000000007
40
0.500000000000007
40
0.531250000000008
40
0.531250000000008
40
0.562500000000008
40
0.562500000000008
40
0.625000000000007
40
0.625000000000007
40
0.687500000000006
40
0.687500000000006
40
0.718750000000005
40
0.718750000000005
40
0.750000000000005
40
0.750000000000005
40
0.812500000000003
40
0.812500000000003
40
0.843750000000003
40
0.843750000000003
40
0.875000000000002
40
0.875000000000002
40
0.937500000000001
40
0.937500000000001
40
1
40
1
40
1
40
1
41
1
10
21.8705727514237
20
-2.18404028665162
30
0
41
1
10
21.8365132277895
20
-2.12987255590991
30
0
41
1
10
21.8061129060281
20
-2.07347525811713
30
0
41
1
10
21.7537635454223
20
-1.95553358929456
30
0
41
1
10
21.732011432268
20
-1.89412683163255
30
0
41
1
10
21.6995074550535
20
-1.77040722518879
30
0
41
1
10
21.6884889882383
20
-1.70755671677142
30
0
41
1
10
21.6776203469652
20
-1.57974145066797
30
0
41
1
10
21.6779164086153
20
-1.51414564257803
30
0
41
1
10
21.6900934660796
20
-1.38620133140157
30
0
41
1
10
21.7018225224099
20
-1.32334666211099
30
0
41
1
10
21.7360169422682
20
-1.19977759300542
30
0
41
1
10
21.7587080758232
20
-1.13877179263653
30
0
41
1
10
21.8126060344798
20
-1.0227973143991
30
0
41
1
10
21.8438997923581
20
-0.967311870865387
30
0
41
1
10
21.9142191765857
20
-0.860838093192712
30
0
41
1
10
21.9533131908367
20
-0.809889055146101
30
0
41
1
10
22.0776241574986
20
-0.667061654728485
30
0
41
1
10
22.1707415829638
20
-0.58343493740756
30
0
41
1
10
22.3726199899015
20
-0.434993390175606
30
0
41
1
10
22.4792404667674
20
-0.371912021053873
30
0
41
1
10
22.6428405950182
20
-0.29263432574686
30
0
41
1
10
22.6981251089885
20
-0.268715902974691
30
0
41
1
10
22.8099032094705
20
-0.225848871496368
30
0
41
1
10
22.8666821037377
20
-0.206820693340603
30
0
41
1
10
23.0362966811687
20
-0.158221987093384
30
0
41
1
10
23.1475357934101
20
-0.13704598143508
30
0
41
1
10
23.3090339503492
20
-0.124655630945568
30
0
41
1
10
23.3621963001262
20
-0.123873832688275
30
0
41
1
10
23.4631391915292
20
-0.129707555405901
30
0
41
1
10
23.511296691822
20
-0.136262807006744
30
0
41
1
10
23.6487127222961
20
-0.167712900561526
30
0
41
1
10
23.731072401418
20
-0.205291827543874
30
0
41
1
10
23.8692621073445
20
-0.310236333935506
30
0
41
1
10
23.925578098133
20
-0.376410386732232
30
0
41
1
10
23.9981456096588
20
-0.496259710616101
30
0
41
1
10
24.0203018056085
20
-0.539799341444706
30
0
41
1
10
24.0602803272509
20
-0.631475661111836
30
0
41
1
10
24.0782859685297
20
-0.679886589856096
30
0
41
1
10
24.127615742522
20
-0.832891885006632
30
0
41
1
10
24.154423455186
20
-0.946432172203117
30
0
41
1
10
24.1864013244435
20
-1.12352111399935
30
0
41
1
10
24.1957770140437
20
-1.18399709829896
30
0
41
1
10
24.2123019100845
20
-1.30790134698484
30
0
41
1
10
24.2194814237896
20
-1.37178356938602
30
0
41
1
10
24.2374285671922
20
-1.56261206233071
30
0
41
1
10
24.2449201330683
20
-1.68986996541372
30
0
41
1
10
24.2519765477853
20
-1.94438983187465
30
0
41
1
10
24.2513899587681
20
-2.06709235184255
30
0
41
1
10
24.246637258465
20
-2.18404028665154
30
0
0
SPLINE
5
1A6
100
AcDbEntity
8
1
62
256
6
ByLayer
370
13
48
1
60
0
100
AcDbSpline
70
4
71
3
72
18
73
14
40
0
40
0
40
0
40
0
40
0.250000000000001
40
0.250000000000001
40
0.374999999999997
40
0.374999999999997
40
0.499999999999993
40
0.499999999999993
40
0.749999999999997
40
0.749999999999997
40
0.874999999999998
40
0.874999999999998
40
1
40
1
40
1
40
1
41
1
10
29.8618962568465
20
8.52729113950286
30
0
41
1
10
29.9523220300735
20
8.48511688219222
30
0
41
1
10
30.0506308085646
20
8.4464070192615
30
0
41
1
10
30.2101999235056
20
8.39428810428046
30
0
41
1
10
30.2654212423271
20
8.37791207671509
30
0
41
1
10
30.3801633929099
20
8.34736769770302
30
0
41
1
10
30.4397582228035
20
8.33320869045215
30
0
41
1
10
30.620925315486
20
8.29530662101729
30
0
41
1
10
30.746201235337
20
8.27571195961548
30
0
41
1
10
30.9411793120012
20
8.25560847012417
30
0
41
1
10
31.0076766401987
20
8.25045106470395
30
0
41
1
10
31.1414817376067
20
8.24357550680244
30
0
41
1
10
31.2086576890229
20
8.24184502718222
30
0
41
1
10
31.2761098192196
20
8.24184502718222
30
0
0
SPLINE
5
1A7
100
AcDbEntity
8
1
62
256
6
ByLayer
370
13
48
1
60
0
100
AcDbSpline
70
4
71
3
72
8
73
4
40
0
40
0
40
0
40
0
40
1
40
1
40
1
40
1
41
1
10
35.9642728090001
20
-0.500000000000199
30
0
41
1
10
35.9244070884098
20
-0.500000000000199
30
0
41
1
10
35.895675703124
20
-0.500000000000199
30
0
41
1
10
35.8781463864468
20
-0.500000000000199
30
0
0
SPLINE
5
1A8
100
AcDbEntity
8
1
62
256
6
ByLayer
370
13
48
1
60
0
100
AcDbSpline
70
4
71
3
72
8
73
4
40
0
40
0
40
0
40
0
40
1
40
1
40
1
40
1
41
1
10
35.9642728090001
20
-4.29828790043959
30
0
41
1
10
36.2187085424653
20
-4.87810464137954
30
0
41
1
10
36.483236877763
20
-5.45366581287104
30
0
41
1
10
36.753127191
20
-6.02696609367453
30
0
0
SPLINE
5
1A9
100
AcDbEntity
8
1
62
256
6
ByLayer
370
13
48
1
60
0
100
AcDbSpline
70
4
71
3
72
8
73
4
40
0
40
0
40
0
40
0
40
1
40
1
40
1
40
1
41
1
10
36.5591238732903
20
-10.1117744509615
30
0
41
1
10
35.7545914896934
20
-10.8954870056512
30
0
41
1
10
34.9458327697079
20
-11.6752469293573
30
0
41
1
10
34.1346126813341
20
-12.4527048874701
30
0
0
SPLINE
5
1AA
100
AcDbEntity
8
1
62
256
6
ByLayer
370
13
48
1
60
0
100
AcDbSpline
70
4
71
3
72
12
73
8
40
0
40
0
40
0
40
0
40
0.5
40
0.5
40
0.75
40
0.75
40
1
40
1
40
1
40
1
41
1
10
25.0858308074857
20
-8.60992085986652
30
0
41
1
10
25.221519592912
20
-8.66128082783311
30
0
41
1
10
25.3483077083233
20
-8.73435892958267
30
0
41
1
10
25.5268512203797
20
-8.87184610027853
30
0
41
1
10
25.5840592513415
20
-8.92238433416046
30
0
41
1
10
25.6905134531526
20
-9.0297490512117
30
0
41
1
10
25.7402700529839
20
-9.08694885267712
30
0
41
1
10
25.7863617737004
20
-9.14785204673098
30
0
0
SPLINE
5
1AB
100
AcDbEntity
8
1
62
256
6
ByLayer
370
13
48
1
60
0
100
AcDbSpline
70
4
71
3
72
22
73
18
40
0
40
0
40
0
40
0
40
0.125
40
0.125
40
0.25
40
0.25
40
0.375
40
0.375
40
0.5
40
0.5
40
0.625
40
0.625
40
0.75
40
0.75
40
0.875
40
0.875
40
1
40
1
40
1
40
1
41
1
10
36.0911679581902
20
3.60227805334861
30
0
41
1
10
36.0879980687239
20
3.61636478739587
30
0
41
1
10
36.0834179806808
20
3.62825708651624
30
0
41
1
10
36.0703553007606
20
3.64669204823593
30
0
41
1
10
36.0618867158856
20
3.65328883444511
30
0
41
1
10
36.0397297012783
20
3.66050095959474
30
0
41
1
10
36.0259414736757
20
3.66110887827298
30
0
41
1
10
35.9920575800845
20
3.65482803797809
30
0
41
1
10
35.9723058110366
20
3.64801713925212
30
0
41
1
10
35.9274941330712
20
3.62611699262953
30
0
41
1
10
35.902170482498
20
3.61082914592905
30
0
41
1
10
35.8486728415261
20
3.57154767430754
30
0
41
1
10
35.8209296824385
20
3.5479093645049
30
0
41
1
10
35.7656266286276
20
3.49270752443366
30
0
41
1
10
35.7379214250977
20
3.46095101528431
30
0
41
1
10
35.6854870826754
20
3.39004125749466
30
0
41
1
10
35.6611648254363
20
3.35149035739883
30
0
41
1
10
35.6395129123811
20
3.30999999999975
30
0
0
SPLINE
5
1AC
100
AcDbEntity
8
1
62
256
6
ByLayer
370
13
48
1
60
0
100
AcDbSpline
70
4
71
3
72
8
73
4
40
0
40
0
40
0
40
0
40
1
40
1
40
1
40
1
41
1
10
35.5574073932656
20
-13.5588373631255
30
0
41
1
10
34.3208862025486
20
-14.8079462312806
30
0
41
1
10
33.079732031025
20
-16.0524619787921
30
0
41
1
10
31.8364004897409
20
-17.294764593865
30
0
0
SPLINE
5
1AD
100
AcDbEntity
8
1
62
256
6
ByLayer
370
13
48
1
60
0
100
AcDbSpline
70
4
71
3
72
8
73
4
40
0
40
0
40
0
40
0
40
1
40
1
40
1
40
1
41
1
10
36.5591238732904
20
8.12870316951344
30
0
41
1
10
35.7546884542833
20
8.41391683271507
30
0
41
1
10
34.9459147474732
20
8.69773201808158
30
0
41
1
10
34.1346126813341
20
8.98073216889034
30
0
0
SPLINE
5
1AE
100
AcDbEntity
8
1
62
256
6
ByLayer
370
13
48
1
60
0
100
AcDbSpline
70
4
71
3
72
12
73
8
40
0
40
0
40
0
40
0
40
0.500000000000002
40
0.500000000000002
40
0.750000000000001
40
0.750000000000001
40
1
40
1
40
1
40
1
41
1
10
25.7279177798758
20
2.39320941820748
30
0
41
1
10
25.6748185911316
20
2.467038393926
30
0
41
1
10
25.6296079817074
20
2.54473091185147
30
0
41
1
10
25.5723804213069
20
2.66396830350249
30
0
41
1
10
25.5549241870358
20
2.70462150068178
30
0
41
1
10
25.5243724625099
20
2.78432807965237
30
0
41
1
10
25.5111473227551
20
2.82358264579148
30
0
41
1
10
25.4997819339673
20
2.86222368109227
30
0
0
SPLINE
5
1AF
100
AcDbEntity
8
1
62
256
6
ByLayer
370
13
48
1
60
0
100
AcDbSpline
70
4
71
3
72
8
73
4
40
0
40
0
40
0
40
0
40
1
40
1
40
1
40
1
41
1
10
25.2903572473945
20
-12.1549727775384
30
0
41
1
10
25.3051131550397
20
-12.1563715649384
30
0
41
1
10
25.3197601970674
20
-12.1580580335095
30
0
41
1
10
25.3342914630622
20
-12.1600209489139
30
0
0
SPLINE
5
1B0
100
AcDbEntity
8
1
62
256
6
ByLayer
370
13
48
1
60
0
100
AcDbSpline
70
4
71
3
72
8
73
4
40
0
40
0
40
0
40
0
40
1
40
1
40
1
40
1
41
1
10
28.2566510495832
20
7.30999999999977
30
0
41
1
10
29.0672920158738
20
7.30999999999977
30
0
41
1
10
29.8883192904283
20
7.30999999999977
30
0
41
1
10
30.7156366181373
20
7.30999999999975
30
0
0
SPLINE
5
1B1
100
AcDbEntity
8
1
62
256
6
ByLayer
370
13
48
1
60
0
100
AcDbSpline
70
4
71
3
72
8
73
4
40
0
40
0
40
0
40
0
40
1
40
1
40
1
40
1
41
1
10
25.4888401911619
20
2.90397664169632
30
0
41
1
10
25.479171433299
20
2.94622782989401
30
0
41
1
10
25.4719441405543
20
2.98757484817688
30
0
41
1
10
25.4671947580077
20
3.02799308184345
30
0
0
SPLINE
5
1B2
100
AcDbEntity
8
1
62
256
6
ByLayer
370
13
48
1
60
0
100
AcDbSpline
70
4
71
3
72
12
73
8
40
0
40
0
40
0
40
0
40
0.5
40
0.5
40
0.75
40
0.75
40
1
40
1
40
1
40
1
41
1
10
25.7863617737
20
-9.14785204673043
30
0
41
1
10
26.2119328800283
20
-9.71017949446943
30
0
41
1
10
26.6532677125913
20
-10.2581699217231
30
0
41
1
10
27.3334624452566
20
-11.0626094002859
30
0
41
1
10
27.5632455848996
20
-11.3278181415285
30
0
41
1
10
28.0282272330092
20
-11.8528624392084
30
0
41
1
10
28.2635527911224
20
-12.1128295737308
30
0
41
1
10
28.5006760374436
20
-12.3696358071313
30
0
0
SPLINE
5
1B3
100
AcDbEntity
8
1
62
256
6
ByLayer
370
13
48
1
60
0
100
AcDbSpline
70
4
71
3
72
8
73
4
40
0
40
0
40
0
40
0
40
1
40
1
40
1
40
1
41
1
10
25.4997819339673
20
2.8622236810923
30
0
41
1
10
25.4957020662085
20
2.87609476962541
30
0
41
1
10
25.4920347588437
20
2.89001680505044
30
0
41
1
10
25.4888401911619
20
2.90397664169632
30
0
0
SPLINE
5
1B4
100
AcDbEntity
8
1
62
256
6
ByLayer
370
13
48
1
60
0
100
AcDbSpline
70
4
71
3
72
8
73
4
40
0
40
0
40
0
40
0
40
1
40
1
40
1
40
1
41
1
10
31.8364004897409
20
-16.0196405189756
30
0
41
1
10
32.6637564657457
20
-15.1271682198504
30
0
41
1
10
33.4852541232625
20
-14.2285594960297
30
0
41
1
10
34.2959073469632
20
-13.3211063342858
30
0
0
SPLINE
5
1B5
100
AcDbEntity
8
1
62
256
6
ByLayer
370
13
48
1
60
0
100
AcDbSpline
70
4
71
3
72
8
73
4
40
0
40
0
40
0
40
0
40
1
40
1
40
1
40
1
41
1
10
36.6111608611163
20
-12.2951697404997
30
0
41
1
10
36.5944555338054
20
-12.3161524359353
30
0
41
1
10
36.5770976091165
20
-12.3365000776235
30
0
41
1
10
36.5591238732903
20
-12.3562292496359
30
0
0
SPLINE
5
1B6
100
AcDbEntity
8
1
62
256
6
ByLayer
370
13
48
1
60
0
100
AcDbSpline
70
4
71
3
72
12
73
8
40
0
40
0
40
0
40
0
40
0.499999999999998
40
0.499999999999998
40
0.749999999999999
40
0.749999999999999
40
1
40
1
40
1
40
1
41
1
10
25.7863617737003
20
8.90970052143302
30
0
41
1
10
26.2119328800285
20
8.93109823843915
30
0
41
1
10
26.6532677125917
20
8.96585021047414
30
0
41
1
10
27.3334624452569
20
9.04441674685734
30
0
41
1
10
27.5632455848999
20
9.07498082187578
30
0
41
1
10
28.0282272330094
20
9.14563493096946
30
0
41
1
10
28.2635527911226
20
9.18575225369923
30
0
41
1
10
28.5006760374437
20
9.23082754980641
30
0
0
SPLINE
5
1B7
100
AcDbEntity
8
1
62
256
6
ByLayer
370
13
48
1
60
0
100
AcDbSpline
70
4
71
3
72
8
73
4
40
0
40
0
40
0
40
0
40
1
40
1
40
1
40
1
41
1
10
25.2903572473945
20
2.9357942964055
30
0
41
1
10
25.3050893959593
20
2.94312323823811
30
0
41
1
10
25.3197367632684
20
2.95063478936629
30
0
41
1
10
25.3342914630626
20
2.95834655692605
30
0
0
SPLINE
5
1B8
100
AcDbEntity
8
1
62
256
6
ByLayer
370
13
48
1
60
0
100
AcDbSpline
70
4
71
3
72
20
73
16
40
0
40
0
40
0
40
0
40
0.249999999999998
40
0.249999999999998
40
0.374999999999999
40
0.374999999999999
40
0.499999999999999
40
0.499999999999999
40
0.624999999999999
40
0.624999999999999
40
0.749999999999999
40
0.749999999999999
40
0.875
40
0.875
40
1
40
1
40
1
40
1
41
1
10
34.4916779154181
20
-12.8097701215541
30
0
41
1
10
34.5098380825309
20
-12.8279302886669
30
0
41
1
10
34.5194011692332
20
-12.8544616291926
30
0
41
1
10
34.5204484532324
20
-12.9060968578994
30
0
41
1
10
34.5185401859767
20
-12.9248926312583
30
0
41
1
10
34.5102472902229
20
-12.965638426146
30
0
41
1
10
34.5037740554113
20
-12.9878195782576
30
0
41
1
10
34.4863258462807
20
-13.0345648799008
30
0
41
1
10
34.4754923651311
20
-13.0588520217539
30
0
41
1
10
34.4495710763854
20
-13.1093124927616
30
0
41
1
10
34.4342498431889
20
-13.135830609753
30
0
41
1
10
34.4002577091305
20
-13.1888656879627
30
0
41
1
10
34.3816196754053
20
-13.2154187390673
30
0
41
1
10
34.3409926100414
20
-13.2686322225202
30
0
41
1
10
34.3189357324927
20
-13.295328133882
30
0
41
1
10
34.2959073469632
20
-13.3211063342858
30
0
0
SPLINE
5
1B9
100
AcDbEntity
8
1
62
256
6
ByLayer
370
13
48
1
60
0
100
AcDbSpline
70
4
71
3
72
20
73
16
40
0
40
0
40
0
40
0
40
0.125
40
0.125
40
0.249999999999999
40
0.249999999999999
40
0.374999999999999
40
0.374999999999999
40
0.499999999999998
40
0.499999999999998
40
0.624999999999998
40
0.624999999999998
40
0.749999999999997
40
0.749999999999997
40
1
40
1
40
1
40
1
41
1
10
28.2566510495832
20
7.30999999999977
30
0
41
1
10
28.233853602435
20
7.30999999999977
30
0
41
1
10
28.2122600758549
20
7.31346673433006
30
0
41
1
10
28.1714773210099
20
7.32721933707384
30
0
41
1
10
28.1524747967279
20
7.33754002928461
30
0
41
1
10
28.1185706498213
20
7.36395536517034
30
0
41
1
10
28.1033224734894
20
7.38029815301138
30
0
41
1
10
28.0771404952134
20
7.41813138635044
30
0
41
1
10
28.0662975370195
20
7.43937404181099
30
0
41
1
10
28.0489020461904
20
7.48625119549496
30
0
41
1
10
28.0423747057066
20
7.51205338897557
30
0
41
1
10
28.0340508130941
20
7.56600203556553
30
0
41
1
10
28.03214967398
20
7.59435666969574
30
0
41
1
10
28.033193619172
20
7.68352608363205
30
0
41
1
10
28.0427696209646
20
7.74601850279206
30
0
41
1
10
28.0609161235017
20
7.80999999999977
30
0
0
SPLINE
5
1BA
100
AcDbEntity
8
1
62
256
6
ByLayer
370
13
48
1
60
0
100
AcDbSpline
70
4
71
3
72
14
73
10
40
0
40
0
40
0
40
0
40
0.25
40
0.25
40
0.5
40
0.5
40
0.75
40
0.75
40
1
40
1
40
1
40
1
41
1
10
36.5591238732904
20
8.12870316951344
30
0
41
1
10
36.6072077182827
20
8.11165497739381
30
0
41
1
10
36.6505130947813
20
8.09282227258393
30
0
41
1
10
36.7255429548863
20
8.05253233249144
30
0
41
1
10
36.7568110923357
20
8.03139224927909
30
0
41
1
10
36.8074647959494
20
7.98721919095217
30
0
41
1
10
36.8268587950686
20
7.96398924791791
30
0
41
1
10
36.8523321689161
20
7.91735423788575
30
0
41
1
10
36.8587000000001
20
7.89378651935451
30
0
41
1
10
36.8587000000001
20
7.86996862756774
30
0
0
SPLINE
5
1BB
100
AcDbEntity
8
1
62
256
6
ByLayer
370
13
48
1
60
0
100
AcDbSpline
70
4
71
3
72
22
73
18
40
0
40
0
40
0
40
0
40
0.125
40
0.125
40
0.25
40
0.25
40
0.375
40
0.375
40
0.5
40
0.5
40
0.625
40
0.625
40
0.75
40
0.75
40
0.875
40
0.875
40
1
40
1
40
1
40
1
41
1
10
30.7156366181373
20
3.30999999999975
30
0
41
1
10
30.7523937154283
20
3.30999999999975
30
0
41
1
10
30.7930488963266
20
3.30999999999975
30
0
41
1
10
30.8788376178257
20
3.30999999999975
30
0
41
1
10
30.9243635212841
20
3.30999999999975
30
0
41
1
10
31.0209314797047
20
3.30999999999975
30
0
41
1
10
31.0706258136729
20
3.30999999999975
30
0
41
1
10
31.1718932826589
20
3.30999999999975
30
0
41
1
10
31.2241435770483
20
3.30999999999975
30
0
41
1
10
31.3282477673303
20
3.30999999999975
30
0
41
1
10
31.379660542692
20
3.30999999999975
30
0
41
1
10
31.4812289586563
20
3.30999999999975
30
0
41
1
10
31.5317429157658
20
3.30999999999975
30
0
41
1
10
31.6273056837581
20
3.30999999999975
30
0
41
1
10
31.6728468926658
20
3.30999999999975
30
0
41
1
10
31.759400265861
20
3.30999999999975
30
0
41
1
10
31.799849843302
20
3.30999999999975
30
0
41
1
10
31.836400489741
20
3.30999999999975
30
0
0
SPLINE
5
1BC
100
AcDbEntity
8
1
62
256
6
ByLayer
370
13
48
1
60
0
100
AcDbSpline
70
4
71
3
72
12
73
8
40
0
40
0
40
0
40
0
40
0.5
40
0.5
40
0.75
40
0.75
40
1
40
1
40
1
40
1
41
1
10
36.7531271909999
20
8.95488023765196
30
0
41
1
10
36.787803792498
20
9.02434146430571
30
0
41
1
10
36.814332163451
20
9.09790789093276
30
0
41
1
10
36.8407850510086
20
9.2101707559093
30
0
41
1
10
36.8474575537174
20
9.24809526951967
30
0
41
1
10
36.8564273421338
20
9.32497135889781
30
0
41
1
10
36.8587000000001
20
9.3640912866021
30
0
41
1
10
36.8587000000001
20
9.40275725112306
30
0
0
SPLINE
5
1BD
100
AcDbEntity
8
1
62
256
6
ByLayer
370
13
48
1
60
0
100
AcDbSpline
70
4
71
3
72
14
73
10
40
0
40
0
40
0
40
0
40
0.25
40
0.25
40
0.5
40
0.5
40
0.75
40
0.75
40
1
40
1
40
1
40
1
41
1
10
31.2761098192196
20
-10.4226291501016
30
0
41
1
10
31.1413407553844
20
-10.4226291501016
30
0
41
1
10
31.0092290296442
20
-10.4361094292064
30
0
41
1
10
30.7500091400124
20
-10.4885391747675
30
0
41
1
10
30.6216359063501
20
-10.5282204340316
30
0
41
1
10
30.3803964656884
20
-10.6296377740892
30
0
41
1
10
30.2665198512329
20
-10.6913007586094
30
0
41
1
10
30.0516812149802
20
-10.8359519630951
30
0
41
1
10
29.9522729243104
20
-10.9180389202615
30
0
41
1
10
29.8618962568451
20
-11.0084155877268
30
0
0
SPLINE
5
1BE
100
AcDbEntity
8
1
62
256
6
ByLayer
370
13
48
1
60
0
100
AcDbSpline
70
4
71
3
72
18
73
14
40
0
40
0
40
0
40
0
40
0.124999999999999
40
0.124999999999999
40
0.249999999999999
40
0.249999999999999
40
0.374999999999998
40
0.374999999999998
40
0.499999999999998
40
0.499999999999998
40
0.749999999999999
40
0.749999999999999
40
1
40
1
40
1
40
1
41
1
10
35.5574073932657
20
3.30999999999975
30
0
41
1
10
35.5858341388872
20
3.36144776407912
30
0
41
1
10
35.6186769428433
20
3.40873870900143
30
0
41
1
10
35.688459040535
20
3.49447891915437
30
0
41
1
10
35.7254945117043
20
3.53318099732906
30
0
41
1
10
35.8027135842275
20
3.6044907596052
30
0
41
1
10
35.8429118846892
20
3.63707006456212
30
0
41
1
10
35.9258893995317
20
3.69726996013364
30
0
41
1
10
35.9687195053125
20
3.7248828671014
30
0
41
1
10
36.0986652490674
20
3.80030196834142
30
0
41
1
10
36.187861217558
20
3.84131107537252
30
0
41
1
10
36.3703971802934
20
3.90901866434032
30
0
41
1
10
36.463755039308
20
3.93564706874906
30
0
41
1
10
36.5591238732905
20
3.95567901827457
30
0
0
SPLINE
5
1BF
100
AcDbEntity
8
1
62
256
6
ByLayer
370
13
48
1
60
0
100
AcDbSpline
70
4
71
3
72
8
73
4
40
0
40
0
40
0
40
0
40
1
40
1
40
1
40
1
41
1
10
25.2903572473946
20
12.1549727775381
30
0
41
1
10
25.3051131550398
20
12.1563715649381
30
0
41
1
10
25.3197601970675
20
12.1580580335092
30
0
41
1
10
25.3342914630623
20
12.1600209489136
30
0
0
SPLINE
5
1C0
100
AcDbEntity
8
1
62
256
6
ByLayer
370
13
48
1
60
0
100
AcDbSpline
70
4
71
3
72
18
73
14
40
0
40
0
40
0
40
0
40
0.249999999999998
40
0.249999999999998
40
0.374999999999999
40
0.374999999999999
40
0.5
40
0.5
40
0.625000000000001
40
0.625000000000001
40
0.750000000000002
40
0.750000000000002
40
1
40
1
40
1
40
1
41
1
10
25.7863617737
20
3.39760559818549
30
0
41
1
10
25.8343539673953
20
3.43458112716988
30
0
41
1
10
25.8858409033609
20
3.46321174687512
30
0
41
1
10
25.9626986797714
20
3.49035640646002
30
0
41
1
10
25.9883610581987
20
3.49689319921774
30
0
41
1
10
26.0397739298295
20
3.50486415847183
30
0
41
1
10
26.0656490327618
20
3.50625342670767
30
0
41
1
10
26.1158395644092
20
3.50375577522041
30
0
41
1
10
26.1403510112888
20
3.49992472559049
30
0
41
1
10
26.188235832867
20
3.48714381369959
30
0
41
1
10
26.2117835990181
20
3.47809677954263
30
0
41
1
10
26.2793001184705
20
3.44360651877128
30
0
41
1
10
26.3198681870248
20
3.41135278358181
30
0
41
1
10
26.3561209060985
20
3.3698176727365
30
0
0
SPLINE
5
1C1
100
AcDbEntity
8
1
62
256
6
ByLayer
370
13
48
1
60
0
100
AcDbSpline
70
4
71
3
72
18
73
14
40
0
40
0
40
0
40
0
40
0.124999999999995
40
0.124999999999995
40
0.24999999999999
40
0.24999999999999
40
0.374999999999985
40
0.374999999999985
40
0.49999999999998
40
0.49999999999998
40
0.74999999999999
40
0.74999999999999
40
1
40
1
40
1
40
1
41
1
10
36.8587000000001
20
-11.6790528366775
30
0
41
1
10
36.8587000000001
20
-11.7015568823849
30
0
41
1
10
36.857512404622
20
-11.725342052921
30
0
41
1
10
36.8525511214842
20
-11.7739024307352
30
0
41
1
10
36.8487934342633
20
-11.7987741179835
30
0
41
1
10
36.8385645296569
20
-11.8496400049474
30
0
41
1
10
36.8320944490541
20
-11.8756340698942
30
0
41
1
10
36.8162143926962
20
-11.928751254358
30
0
41
1
10
36.8067182281817
20
-11.9560481105483
30
0
41
1
10
36.7745093301413
20
-12.0370351977983
30
0
41
1
10
36.7479610111878
20
-12.0905276306743
30
0
41
1
10
36.6847943896801
20
-12.1966244669215
30
0
41
1
10
36.6493757883038
20
-12.2471699519685
30
0
41
1
10
36.6111608611158
20
-12.2951697405002
30
0
0
SPLINE
5
1C2
100
AcDbEntity
8
1
62
256
6
ByLayer
370
13
48
1
60
0
100
AcDbSpline
70
4
71
3
72
8
73
4
40
0
40
0
40
0
40
0
40
1
40
1
40
1
40
1
41
1
10
28.5006760374437
20
9.23082754980638
30
0
41
1
10
28.9484302984489
20
8.97647607352178
30
0
41
1
10
29.4021020556718
20
8.74173751091081
30
0
41
1
10
29.8618962568465
20
8.52729113950286
30
0
0
SPLINE
5
1C3
100
AcDbEntity
8
1
62
256
6
ByLayer
370
13
48
1
60
0
100
AcDbSpline
70
4
71
3
72
22
73
18
40
0
40
0
40
0
40
0
40
0.25
40
0.25
40
0.312500000000001
40
0.312500000000001
40
0.375000000000001
40
0.375000000000001
40
0.500000000000001
40
0.500000000000001
40
0.625000000000002
40
0.625000000000002
40
0.687500000000002
40
0.687500000000002
40
0.750000000000003
40
0.750000000000003
40
1
40
1
40
1
40
1
41
1
10
19.1945711201344
20
12.2908096745538
30
0
41
1
10
19.4287656725746
20
12.1549438516056
30
0
41
1
10
19.7181394970273
20
11.9538816559768
30
0
41
1
10
20.1694860508331
20
11.6429894515705
30
0
41
1
10
20.264264369538
20
11.5778243741062
30
0
41
1
10
20.4634719274019
20
11.4420595178476
30
0
41
1
10
20.568304284094
20
11.3711933882045
30
0
41
1
10
20.8944985020884
20
11.1537986066698
30
0
41
1
10
21.1276390271738
20
11.0024159450839
30
0
41
1
10
21.6262934263422
20
10.6928594820267
30
0
41
1
10
21.8918040123075
20
10.5346742745546
30
0
41
1
10
22.3152242680003
20
10.2964685398887
30
0
41
1
10
22.460558241404
20
10.2169088440059
30
0
41
1
10
22.7597845384851
20
10.0581455511745
30
0
41
1
10
22.9135419028174
20
9.97903211328125
30
0
41
1
10
23.6951391331698
20
9.59029404838
30
0
41
1
10
24.3677096925433
20
9.29790300393947
30
0
41
1
10
25.0858308074859
20
9.03898762122489
30
0
0
SPLINE
5
1C4
100
AcDbEntity
8
1
62
256
6
ByLayer
370
13
48
1
60
0
100
AcDbSpline
70
4
71
3
72
22
73
18
40
0
40
0
40
0
40
0
40
0.125
40
0.125
40
0.25
40
0.25
40
0.375
40
0.375
40
0.5
40
0.5
40
0.625
40
0.625
40
0.75
40
0.75
40
0.875
40
0.875
40
1
40
1
40
1
40
1
41
1
10
31.836400489741
20
7.30999999999975
30
0
41
1
10
31.8003749076919
20
7.30999999999975
30
0
41
1
10
31.7612700237214
20
7.30999999999975
30
0
41
1
10
31.6768310374598
20
7.30999999999975
30
0
41
1
10
31.6309865357118
20
7.30999999999975
30
0
41
1
10
31.5347329458499
20
7.30999999999975
30
0
41
1
10
31.4850533175638
20
7.30999999999975
30
0
41
1
10
31.3825642290242
20
7.30999999999975
30
0
41
1
10
31.3291471287872
20
7.30999999999975
30
0
41
1
10
31.2239593410383
20
7.30999999999975
30
0
41
1
10
31.1717629107185
20
7.30999999999975
30
0
41
1
10
31.0681751798359
20
7.30999999999975
30
0
41
1
10
31.0178215538245
20
7.30999999999975
30
0
41
1
10
30.9221531707753
20
7.30999999999975
30
0
41
1
10
30.8760005226406
20
7.30999999999975
30
0
41
1
10
30.7907076861958
20
7.30999999999975
30
0
41
1
10
30.7515266314888
20
7.30999999999975
30
0
41
1
10
30.7156366181373
20
7.30999999999975
30
0
0
SPLINE
5
1C5
100
AcDbEntity
8
1
62
256
6
ByLayer
370
13
48
1
60
0
100
AcDbSpline
70
4
71
3
72
8
73
4
40
0
40
0
40
0
40
0
40
1
40
1
40
1
40
1
41
1
10
24.5948344758143
20
-12.3053148373753
30
0
41
1
10
24.6365620369152
20
-12.2846281225037
30
0
41
1
10
24.6826544860415
20
-12.2624332819454
30
0
41
1
10
24.7352473216604
20
-12.2390614662084
30
0
0
SPLINE
5
1C6
100
AcDbEntity
8
1
62
256
6
ByLayer
370
13
48
1
60
0
100
AcDbSpline
70
4
71
3
72
8
73
4
40
0
40
0
40
0
40
0
40
1
40
1
40
1
40
1
41
1
10
26.4084394203929
20
3.3099999999998
30
0
41
1
10
26.3909611904012
20
3.32994237304513
30
0
41
1
10
26.3735215207033
20
3.34988161070163
30
0
41
1
10
26.3561209060985
20
3.3698176727365
30
0
0
SPLINE
5
1C7
100
AcDbEntity
8
1
62
256
6
ByLayer
370
13
48
1
60
0
100
AcDbSpline
70
4
71
3
72
8
73
4
40
0
40
0
40
0
40
0
40
1
40
1
40
1
40
1
41
1
10
25.0858308074847
20
12.1583006012876
30
0
41
1
10
25.1526698038248
20
12.1498629396916
30
0
41
1
10
25.2220617214649
20
12.1484986979057
30
0
41
1
10
25.2903572473946
20
12.1549727775381
30
0
0
SPLINE
5
1C8
100
AcDbEntity
8
1
62
256
6
ByLayer
370
13
48
1
60
0
100
AcDbSpline
70
4
71
3
72
14
73
10
40
0
40
0
40
0
40
0
40
0.25
40
0.25
40
0.5
40
0.5
40
0.75
40
0.75
40
1
40
1
40
1
40
1
41
1
10
24.7352473216611
20
12.2390614662079
30
0
41
1
10
24.7530173530444
20
12.2311646130673
30
0
41
1
10
24.7739712771095
20
12.2234264721976
30
0
41
1
10
24.8221336140205
20
12.2083497761718
30
0
41
1
10
24.8496352229217
20
12.2009519556382
30
0
41
1
10
24.9092463162577
20
12.187123301201
30
0
41
1
10
24.9414016997403
20
12.1806556143621
30
0
41
1
10
25.0102870514801
20
12.1686921364311
30
0
41
1
10
25.0473670289768
20
12.1631562149964
30
0
41
1
10
25.0858308074858
20
12.1583006012898
30
0
0
SPLINE
5
1C9
100
AcDbEntity
8
1
62
256
6
ByLayer
370
13
48
1
60
0
100
AcDbSpline
70
4
71
3
72
16
73
12
40
0
40
0
40
0
40
0
40
0.125000000000005
40
0.125000000000005
40
0.250000000000009
40
0.250000000000009
40
0.500000000000006
40
0.500000000000006
40
0.750000000000003
40
0.750000000000003
40
1
40
1
40
1
40
1
41
1
10
35.5574073932656
20
-13.5588373631255
30
0
41
1
10
35.5858912222037
20
-13.5174788595383
30
0
41
1
10
35.6179775838098
20
-13.4734019576798
30
0
41
1
10
35.6870228784877
20
-13.3815713780859
30
0
41
1
10
35.7240388720875
20
-13.3337659349608
30
0
41
1
10
35.8407234024313
20
-13.1861840609242
30
0
41
1
10
35.9234969652047
20
-13.0853440056679
30
0
41
1
10
36.09553014422
20
-12.8806702635377
30
0
41
1
10
36.1848789961913
20
-12.7767916063485
30
0
41
1
10
36.3691636234041
20
-12.5667005331835
30
0
41
1
10
36.4633369208463
20
-12.4613714014718
30
0
41
1
10
36.5591238732898
20
-12.3562292496359
30
0
0
SPLINE
5
1CA
100
AcDbEntity
8
1
62
256
6
ByLayer
370
13
48
1
60
0
100
AcDbSpline
70
4
71
3
72
8
73
4
40
0
40
0
40
0
40
0
40
1
40
1
40
1
40
1
41
1
10
28.2566510495831
20
-13.3207675761782
30
0
41
1
10
29.0669838865259
20
-14.2281397570865
30
0
41
1
10
29.8882347254831
20
-15.1267574225997
30
0
41
1
10
30.7156366181372
20
-16.0195480877956
30
0
0
SPLINE
5
1CB
100
AcDbEntity
8
1
62
256
6
ByLayer
370
13
48
1
60
0
100
AcDbSpline
70
4
71
3
72
18
73
14
40
0
40
0
40
0
40
0
40
0.125000000000005
40
0.125000000000005
40
0.25000000000001
40
0.25000000000001
40
0.500000000000008
40
0.500000000000008
40
0.750000000000005
40
0.750000000000005
40
0.875000000000003
40
0.875000000000003
40
1
40
1
40
1
40
1
41
1
10
28.2566510495831
20
-13.3207675761782
30
0
41
1
10
28.2336646956347
20
-13.2950285499875
30
0
41
1
10
28.2120803931887
20
-13.2689100451752
30
0
41
1
10
28.1715829008405
20
-13.2159312779177
30
0
41
1
10
28.1524952195119
20
-13.1887683301145
30
0
41
1
10
28.1015340322284
20
-13.1092910271368
30
0
41
1
10
28.0749785838785
20
-13.0574794997735
30
0
41
1
10
28.0402891765634
20
-12.9646533846949
30
0
41
1
10
28.0318396874134
20
-12.9228591664296
30
0
41
1
10
28.0328204156672
20
-12.871660476204
30
0
41
1
10
28.0354162752535
20
-12.8562104493238
30
0
41
1
10
28.044948840282
20
-12.8296595572029
30
0
41
1
10
28.0518486001696
20
-12.8184632444052
30
0
41
1
10
28.0609161235016
20
-12.8093957210732
30
0
0
SPLINE
5
1CC
100
AcDbEntity
8
1
62
256
6
ByLayer
370
13
48
1
60
0
100
AcDbSpline
70
4
71
3
72
8
73
4
40
0
40
0
40
0
40
0
40
1
40
1
40
1
40
1
41
1
10
30.7156366181372
20
-17.2946789775699
30
0
41
1
10
29.2756257156797
20
-15.8554275585961
30
0
41
1
10
27.8384856569368
20
-14.4133665094215
30
0
41
1
10
26.4084394203929
20
-12.9645227329764
30
0
0
SPLINE
5
1CD
100
AcDbEntity
8
1
62
256
6
ByLayer
370
13
48
1
60
0
100
AcDbSpline
70
4
71
3
72
14
73
10
40
0
40
0
40
0
40
0
40
0.25
40
0.25
40
0.5
40
0.5
40
0.75
40
0.75
40
1
40
1
40
1
40
1
41
1
10
24.7352473216602
20
-12.2390614662085
30
0
41
1
10
24.7530173530434
20
-12.2311646130679
30
0
41
1
10
24.7739712771086
20
-12.2234264721982
30
0
41
1
10
24.8221336140195
20
-12.2083497761723
30
0
41
1
10
24.8496352229208
20
-12.2009519556387
30
0
41
1
10
24.909246316257
20
-12.1871233012014
30
0
41
1
10
24.9414016997396
20
-12.1806556143625
30
0
41
1
10
25.0102870514796
20
-12.1686921364314
30
0
41
1
10
25.0473670289765
20
-12.1631562149967
30
0
41
1
10
25.0858308074857
20
-12.1583006012901
30
0
0
SPLINE
5
1CE
100
AcDbEntity
8
SK1
62
256
6
ByLayer
370
13
48
1
60
0
100
AcDbSpline
70
4
71
3
72
12
73
8
40
0
40
0
40
0
40
0
40
0.25
40
0.25
40
0.5
40
0.5
40
1
40
1
40
1
40
1
41
1
10
-57.94
20
3.5969848484533
30
0
41
1
10
-57.8447387518345
20
3.89351553327285
30
0
41
1
10
-57.7393491692555
20
4.18843255828662
30
0
41
1
10
-57.5140793690439
20
4.76746202862174
30
0
41
1
10
-57.3938892422298
20
5.05263510329402
30
0
41
1
10
-57.0143204259999
20
5.89723675179465
30
0
41
1
10
-56.7361151127433
20
6.44584648296686
30
0
41
1
10
-56.44
20
6.9841642306009
30
0
0
SPLINE
5
1CF
100
AcDbEntity
8
SK1
62
256
6
ByLayer
370
13
48
1
60
0
100
AcDbSpline
70
4
71
3
72
12
73
8
40
0
40
0
40
0
40
0
40
0.500000000000001
40
0.500000000000001
40
0.75
40
0.75
40
1
40
1
40
1
40
1
41
1
10
-56.4400000000001
20
-6.98416423060021
30
0
41
1
10
-56.7378437721229
20
-6.44270389421067
30
0
41
1
10
-57.0168098517855
20
-5.8921329441105
30
0
41
1
10
-57.3961432461676
20
-5.04739877411643
30
0
41
1
10
-57.5160290129516
20
-4.76265540664167
30
0
41
1
10
-57.740330543508
20
-4.1857026521117
30
0
41
1
10
-57.8449123384713
20
-3.89297519010773
30
0
41
1
10
-57.94
20
-3.59698484845259
30
0
0
SPLINE
5
1D0
100
AcDbEntity
8
1
62
256
6
ByLayer
370
13
48
1
60
0
100
AcDbSpline
70
4
71
3
72
10
73
6
40
0
40
0
40
0
40
0
40
0.530713365471146
40
0.530713365471146
40
1
40
1
40
1
40
1
41
1
10
36.8587000000003
20
11.6790528366771
30
0
41
1
10
36.8587000000003
20
11.7015568823845
30
0
41
1
10
36.8575124046221
20
11.7253420529206
30
0
41
1
10
36.852838240129
20
11.771092151725
30
0
41
1
10
36.8496461834656
20
11.7930245596147
30
0
41
1
10
36.8454004744009
20
11.8153985558579
30
0
0
SPLINE
5
1D1
100
AcDbEntity
8
1
62
256
6
ByLayer
370
13
48
1
60
0
100
AcDbSpline
70
4
71
3
72
8
73
4
40
0
40
0
40
0
40
0
40
1
40
1
40
1
40
1
41
1
10
36.753127191
20
8.95488023765196
30
0
41
1
10
36.6265111157526
20
8.70125365601419
30
0
41
1
10
36.4999078113876
20
8.447620695653
30
0
41
1
10
36.3733222885891
20
8.19397885386209
30
0
0
SPLINE
5
1D2
100
AcDbEntity
8
1
62
256
6
ByLayer
370
13
48
1
60
0
100
AcDbSpline
70
4
71
3
72
16
73
12
40
0
40
0
40
0
40
0
40
0.309846335581338
40
0.309846335581338
40
0.464769503372013
40
0.464769503372013
40
0.619692671162688
40
0.619692671162688
40
0.92953900674405
40
0.92953900674405
40
1
40
1
40
1
40
1
41
1
10
21.2867725137466
20
-12.4733329318923
30
0
41
1
10
21.1144372175424
20
-12.4733329318923
30
0
41
1
10
20.9441715778668
20
-12.4739738135702
30
0
41
1
10
20.6919625726398
20
-12.4756624462779
30
0
41
1
10
20.6084285952751
20
-12.4763426457299
30
0
41
1
10
20.4425059449243
20
-12.4778411366568
30
0
41
1
10
20.3599938205261
20
-12.4786613525973
30
0
41
1
10
20.1199779606566
20
-12.4810464429626
30
0
41
1
10
19.9680016724268
20
-12.4825845452994
30
0
41
1
10
19.7926834282348
20
-12.4832702430269
30
0
41
1
10
19.7606442734507
20
-12.4833438051807
30
0
41
1
10
19.7292558330208
20
-12.4833493244249
30
0
0
SPLINE
5
1D3
100
AcDbEntity
8
1
62
256
6
ByLayer
370
13
48
1
60
0
100
AcDbSpline
70
4
71
3
72
8
73
4
40
0
40
0
40
0
40
0
40
1
40
1
40
1
40
1
41
1
10
25.8105823119451
20
2.29252976955664
30
0
41
1
10
25.7812431924348
20
2.32403695490226
30
0
41
1
10
25.7535845745438
20
2.35752237279061
30
0
41
1
10
25.7279177798758
20
2.39320941820751
30
0
0
SPLINE
5
1D4
100
AcDbEntity
8
1
62
256
6
ByLayer
370
13
48
1
60
0
100
AcDbSpline
70
4
71
3
72
14
73
10
40
0
40
0
40
0
40
0
40
0.179271586219106
40
0.179271586219106
40
0.589635793109564
40
0.589635793109564
40
0.794817896554782
40
0.794817896554782
40
1
40
1
40
1
40
1
41
1
10
36.2059465280834
20
3.31674280792876
30
0
41
1
10
36.1959899751077
20
3.34209337732526
30
0
41
1
10
36.1861890747897
20
3.3663089023853
30
0
41
1
10
36.1554072715314
20
3.44074333939383
30
0
41
1
10
36.1365674431996
20
3.48359187299172
30
0
41
1
10
36.1140856984744
20
3.5367776286856
30
0
41
1
10
36.1075536569483
20
3.55269817864081
30
0
41
1
10
36.0972616844451
20
3.58032488051015
30
0
41
1
10
36.0934475336621
20
3.59214780314423
30
0
41
1
10
36.0911679581902
20
3.60227805334861
30
0
0
SPLINE
5
1D5
100
AcDbEntity
8
1
62
256
6
ByLayer
370
18
48
1
60
0
100
AcDbSpline
70
4
71
1
72
4
73
2
40
0
40
0
40
1
40
1
41
1
10
36.8587050175015
20
-1.80457066306045
30
0
41
1
10
37.3086999975723
20
1.630563986E-07
30
0
0
SPLINE
5
1D6
100
AcDbEntity
8
1
62
256
6
ByLayer
370
18
48
1
60
0
100
AcDbSpline
70
4
71
1
72
4
73
2
40
0
40
0
40
1
40
1
41
1
10
26.0689144859206
20
3.31000000000532
30
0
41
1
10
25.2435196408667
20
-1.630565123E-07
30
0
0
SPLINE
5
1D7
100
AcDbEntity
8
1
62
256
6
ByLayer
370
18
48
1
60
0
100
AcDbSpline
70
4
71
1
72
4
73
2
40
0
40
0
40
1
40
1
41
1
10
37.3086999975723
20
-1.630565407E-07
30
0
41
1
10
36.4833051525185
20
3.31000000000529
30
0
0
SPLINE
5
1D8
100
AcDbEntity
8
1
62
256
6
ByLayer
370
18
48
1
60
0
100
AcDbSpline
70
4
71
2
72
6
73
3
40
0
40
0
40
0
40
1
40
1
40
1
41
1
10
34.2370372881153
20
-0.200000000000102
30
0
41
1
10
35.7728686226867
20
-0.099999998687025
30
0
41
1
10
37.3086999576544
20
-3.257128E-10
30
0
0
SPLINE
5
1D9
100
AcDbEntity
8
1
62
256
6
ByLayer
370
18
48
1
60
0
100
AcDbSpline
70
4
71
2
72
6
73
3
40
0
40
0
40
0
40
1
40
1
40
1
41
1
10
25.2435196807846
20
-3.257128E-10
30
0
41
1
10
26.779351015728
20
-0.0999999986804312
30
0
41
1
10
28.3151823503238
20
-0.200000000000102
30
0
0
LINE
5
81
100
AcDbEntity
8
1
62
256
6
ByLayer
370
18
48
1
60
0
100
AcDbLine
10
30.286063
20
-0.221221
30
0
11
30.472678
21
-0.221221
31
0
39
0
210
0
220
0
230
1
0
LINE
5
82
100
AcDbEntity
8
1
62
256
6
ByLayer
370
13
48
1
60
0
100
AcDbLine
10
19.194571
20
-2.18404
30
0
11
21.870573
21
-2.18404
31
0
39
0
210
0
220
0
230
1
0
LINE
5
83
100
AcDbEntity
8
1
62
256
6
ByLayer
370
13
48
1
60
0
100
AcDbLine
10
36.8587
20
-6.498861
30
0
11
36.8587
21
-9.400907
31
0
39
0
210
0
220
0
230
1
0
LINE
5
84
100
AcDbEntity
8
1
62
256
6
ByLayer
370
13
48
1
60
0
100
AcDbLine
10
21.286773
20
-12.473333
30
0
11
24.148852
21
-12.473333
31
0
39
0
210
0
220
0
230
1
0
LINE
5
85
100
AcDbEntity
8
1
62
256
6
ByLayer
370
13
48
1
60
0
100
AcDbLine
10
25.786362
20
8.909701
30
0
11
25.786362
21
3.397606
31
0
39
0
210
0
220
0
230
1
0
LINE
5
86
100
AcDbEntity
8
1
62
256
6
ByLayer
370
13
48
1
60
0
100
AcDbLine
10
25.085831
20
-12.158301
30
0
11
25.085831
21
-8.609921
31
0
39
0
210
0
220
0
230
1
0
LINE
5
87
100
AcDbEntity
8
1
62
256
6
ByLayer
370
13
48
1
60
0
100
AcDbLine
10
24.594834
20
12.305315
30
0
11
24.455852
21
12.166333
31
0
39
0
210
0
220
0
230
1
0
LINE
5
88
100
AcDbEntity
8
1
62
256
6
ByLayer
370
13
48
1
60
0
100
AcDbLine
10
24.455852
20
0.5
30
0
11
24.594834
21
2.100776
31
0
39
0
210
0
220
0
230
1
0
LINE
5
89
100
AcDbEntity
8
1
62
256
6
ByLayer
370
13
48
1
60
0
100
AcDbLine
10
32.690323
20
-11.008416
30
0
11
34.134613
21
-12.452705
31
0
39
0
210
0
220
0
230
1
0
LINE
5
8A
100
AcDbEntity
8
1
62
256
6
ByLayer
370
13
48
1
60
0
100
AcDbLine
10
24.455852
20
0.5
30
0
11
24.148852
21
0.5
31
0
39
0
210
0
220
0
230
1
0
LINE
5
8B
100
AcDbEntity
8
1
62
256
6
ByLayer
370
13
48
1
60
0
100
AcDbLine
10
30.715637
20
3.31
30
0
11
30.715637
21
7.31
31
0
39
0
210
0
220
0
230
1
0
LINE
5
8C
100
AcDbEntity
8
1
62
256
6
ByLayer
370
13
48
1
60
0
100
AcDbLine
10
28.500676
20
-12.369636
30
0
11
28.060916
21
-12.809396
31
0
39
0
210
0
220
0
230
1
0
LINE
5
8D
100
AcDbEntity
8
1
62
256
6
ByLayer
370
13
48
1
60
0
100
AcDbLine
10
31.27611
20
-10.422629
30
0
11
31.27611
21
-2.18404
31
0
39
0
210
0
220
0
230
1
0
LINE
5
8E
100
AcDbEntity
8
1
62
256
6
ByLayer
370
13
48
1
60
0
100
AcDbLine
10
28.256651
20
-13.320768
30
0
11
30.21545
21
-11.361969
31
0
39
0
210
0
220
0
230
1
0
LINE
5
8F
100
AcDbEntity
8
1
62
256
6
ByLayer
370
13
48
1
60
0
100
AcDbLine
10
36.8587
20
7.869969
30
0
11
36.8587
21
3.730038
31
0
39
0
210
0
220
0
230
1
0
LINE
5
90
100
AcDbEntity
8
1
62
256
6
ByLayer
370
13
48
1
60
0
100
AcDbLine
10
29.861896
20
7.81
30
0
11
32.690323
21
7.81
31
0
39
0
210
0
220
0
230
1
0
LINE
5
91
100
AcDbEntity
8
1
62
256
6
ByLayer
370
13
48
1
60
0
100
AcDbLine
10
32.33677
20
-11.361969
30
0
11
34.295907
21
-13.321106
31
0
39
0
210
0
220
0
230
1
0
LINE
5
92
100
AcDbEntity
8
1
62
256
6
ByLayer
370
13
48
1
60
0
100
AcDbLine
10
30.21545
20
-11.361969
30
0
11
29.861896
21
-11.008416
31
0
39
0
210
0
220
0
230
1
0
LINE
5
93
100
AcDbEntity
8
1
62
256
6
ByLayer
370
13
48
1
60
0
100
AcDbLine
10
29.861896
20
7.81
30
0
11
28.060916
21
7.81
31
0
39
0
210
0
220
0
230
1
0
LINE
5
94
100
AcDbEntity
8
1
62
256
6
ByLayer
370
13
48
1
60
0
100
AcDbLine
10
32.690323
20
-11.008416
30
0
11
32.33677
21
-11.361969
31
0
39
0
210
0
220
0
230
1
0
LINE
5
95
100
AcDbEntity
8
1
62
256
6
ByLayer
370
13
48
1
60
0
100
AcDbLine
10
31.8364
20
7.31
30
0
11
31.8364
21
3.31
31
0
39
0
210
0
220
0
230
1
0
LINE
5
96
100
AcDbEntity
8
1
62
256
6
ByLayer
370
13
48
1
60
0
100
AcDbLine
10
34.491678
20
7.81
30
0
11
32.690323
21
7.81
31
0
39
0
210
0
220
0
230
1
0
LINE
5
97
100
AcDbEntity
8
1
62
256
6
ByLayer
370
13
48
1
60
0
100
AcDbLine
10
30.715637
20
-17.294679
30
0
11
30.715637
21
-16.019548
31
0
39
0
210
0
220
0
230
1
0
LINE
5
98
100
AcDbEntity
8
1
62
256
6
ByLayer
370
13
48
1
60
0
100
AcDbLine
10
36.559124
20
3.955679
30
0
11
36.559124
21
8.128703
31
0
39
0
210
0
220
0
230
1
0
LINE
5
99
100
AcDbEntity
8
1
62
256
6
ByLayer
370
13
48
1
60
0
100
AcDbLine
10
36.8587
20
-9.400907
30
0
11
36.8587
21
-11.679053
31
0
39
0
210
0
220
0
230
1
0
LINE
5
9A
100
AcDbEntity
8
1
62
256
6
ByLayer
370
13
48
1
60
0
100
AcDbLine
10
25.085831
20
2.830152
30
0
11
25.085831
21
9.038988
31
0
39
0
210
0
220
0
230
1
0
LINE
5
9B
100
AcDbEntity
8
1
62
256
6
ByLayer
370
13
48
1
60
0
100
AcDbLine
10
24.455852
20
12.166333
30
0
11
24.148852
21
12.473333
31
0
39
0
210
0
220
0
230
1
0
LINE
5
9C
100
AcDbEntity
8
1
62
256
6
ByLayer
370
13
48
1
60
0
100
AcDbLine
10
21.286773
20
0.5
30
0
11
24.148852
21
0.5
31
0
39
0
210
0
220
0
230
1
0
LINE
5
9D
100
AcDbEntity
8
1
62
256
6
ByLayer
370
13
48
1
60
0
100
AcDbLine
10
36.559124
20
-12.356229
30
0
11
36.559124
21
-10.111774
31
0
39
0
210
0
220
0
230
1
0
LINE
5
9E
100
AcDbEntity
8
1
62
256
6
ByLayer
370
13
48
1
60
0
100
AcDbLine
10
36.8587
20
11.362456
30
0
11
36.8587
21
11.679053
31
0
39
0
210
0
220
0
230
1
0
LINE
5
9F
100
AcDbEntity
8
1
62
256
6
ByLayer
370
13
48
1
60
0
100
AcDbLine
10
31.8364
20
-16.019641
30
0
11
31.8364
21
-17.294765
31
0
39
0
210
0
220
0
230
1
0
LINE
5
A0
100
AcDbEntity
8
1
62
256
6
ByLayer
370
13
48
1
60
0
100
AcDbLine
10
35.8587
20
-2.18404
30
0
11
31.27611
21
-2.18404
31
0
39
0
210
0
220
0
230
1
0
LINE
5
A1
100
AcDbEntity
8
1
62
256
6
ByLayer
370
13
48
1
60
0
100
AcDbLine
10
24.246637
20
-2.18404
30
0
11
31.27611
21
-2.18404
31
0
39
0
210
0
220
0
230
1
0
LINE
5
A2
100
AcDbEntity
8
1
62
256
6
ByLayer
370
13
48
1
60
0
100
AcDbLine
10
34.491678
20
-12.80977
30
0
11
34.134613
21
-12.452705
31
0
39
0
210
0
220
0
230
1
0
LINE
5
A3
100
AcDbEntity
8
1
62
256
6
ByLayer
370
13
48
1
60
0
100
AcDbLine
10
36.8587
20
11.362456
30
0
11
36.8587
21
9.402757
31
0
39
0
210
0
220
0
230
1
0
LINE
5
A4
100
AcDbEntity
8
1
62
256
6
ByLayer
370
13
48
1
60
0
100
AcDbLine
10
25.786362
20
-9.147852
30
0
11
25.786362
21
-12.309437
31
0
39
0
210
0
220
0
230
1
0
LINE
5
A5
100
AcDbEntity
8
1
62
256
6
ByLayer
370
13
48
1
60
0
100
AcDbLine
10
34.134613
20
8.980732
30
0
11
32.690323
21
8.455054
31
0
39
0
210
0
220
0
230
1
0
LINE
5
A6
100
AcDbEntity
8
1
62
256
6
ByLayer
370
13
48
1
60
0
100
AcDbLine
10
32.690323
20
8.455054
30
0
11
32.690323
21
7.81
31
0
39
0
210
0
220
0
230
1
0
LINE
5
A7
100
AcDbEntity
8
1
62
256
6
ByLayer
370
13
48
1
60
0
100
AcDbLine
10
29.861896
20
8.527291
30
0
11
29.861896
21
7.81
31
0
39
0
210
0
220
0
230
1
0
LINE
5
A8
100
AcDbEntity
8
1
62
256
6
ByLayer
370
13
48
1
60
0
100
AcDbLine
10
36.8587
20
3.730038
30
0
11
36.8587
21
3
31
0
39
0
210
0
220
0
230
1
0
LINE
5
A9
100
AcDbEntity
8
1
62
256
6
ByLayer
370
13
48
1
60
0
100
AcDbLine
10
35.8587
20
-3.780762
30
0
11
35.8587
21
-2.18404
31
0
39
0
210
0
220
0
230
1
0
LINE
5
AA
100
AcDbEntity
8
1
62
256
6
ByLayer
370
13
48
1
60
0
100
AcDbLine
10
21.286773
20
12.473333
30
0
11
24.148852
21
12.473333
31
0
39
0
210
0
220
0
230
1
0
LINE
5
AB
100
AcDbEntity
8
SK1
62
256
6
ByLayer
370
13
48
1
60
0
100
AcDbLine
10
-35.52
20
6.984164
30
0
11
-22.415
21
6.984164
31
0
39
0
210
0
220
0
230
1
0
LINE
5
AD
100
AcDbEntity
8
SK1
62
256
6
ByLayer
370
13
48
1
60
0
100
AcDbLine
10
-56.44
20
6.984164
30
0
11
-45.24
21
6.984164
31
0
39
0
210
0
220
0
230
1
0
LINE
5
AE
100
AcDbEntity
8
SK1
62
256
6
ByLayer
370
13
48
1
60
0
100
AcDbLine
10
-57.94
20
-3.596985
30
0
11
-57.94
21
3.596985
31
0
39
0
210
0
220
0
230
1
0
LINE
5
AF
100
AcDbEntity
8
SK1
62
256
6
ByLayer
370
13
48
1
60
0
100
AcDbLine
10
-45.24
20
-6.984164
30
0
11
-45.24
21
6.984164
31
0
39
0
210
0
220
0
230
1
0
LINE
5
B0
100
AcDbEntity
8
SK1
62
256
6
ByLayer
370
13
48
1
60
0
100
AcDbLine
10
-22.415
20
-6.984164
30
0
11
-35.52
21
-6.984164
31
0
39
0
210
0
220
0
230
1
0
LINE
5
B1
100
AcDbEntity
8
SK1
62
256
6
ByLayer
370
13
48
1
60
0
100
AcDbLine
10
-22.415
20
-6.984164
30
0
11
-22.415
21
6.984164
31
0
39
0
210
0
220
0
230
1
0
LINE
5
B2
100
AcDbEntity
8
SK1
62
256
6
ByLayer
370
13
48
1
60
0
100
AcDbLine
10
-45.24
20
-6.984164
30
0
11
-56.44
21
-6.984164
31
0
39
0
210
0
220
0
230
1
0
LINE
5
B3
100
AcDbEntity
8
SK1
62
256
6
ByLayer
370
13
48
1
60
0
100
AcDbLine
10
-35.52
20
-6.984164
30
0
11
-35.52
21
6.984164
31
0
39
0
210
0
220
0
230
1
0
LINE
5
B4
100
AcDbEntity
8
SK1
62
256
6
ByLayer
370
13
48
1
60
0
100
AcDbLine
10
0.005
20
-12.69175
30
0
11
0.005
21
12.69175
31
0
39
0
210
0
220
0
230
1
0
LINE
5
B5
100
AcDbEntity
8
1
62
256
6
ByLayer
370
13
48
1
60
0
100
AcDbLine
10
0.005
20
-12.69175
30
0
11
0.005
21
12.69175
31
0
39
0
210
0
220
0
230
1
0
LINE
5
B6
100
AcDbEntity
8
1
62
256
6
ByLayer
370
13
48
1
60
0
100
AcDbLine
10
36.8587
20
-0.5
30
0
11
36.8587
21
-6.506342
31
0
39
0
210
0
220
0
230
1
0
LINE
5
B7
100
AcDbEntity
8
1
62
256
6
ByLayer
370
13
48
1
60
0
100
AcDbLine
10
36.753127
20
-6.053001
30
0
11
36.753127
21
-0.5
31
0
39
0
210
0
220
0
230
1
0
LINE
5
B8
100
AcDbEntity
8
1
62
256
6
ByLayer
370
13
48
1
60
0
100
AcDbLine
10
35.964273
20
-0.5
30
0
11
35.964273
21
-4.315708
31
0
39
0
210
0
220
0
230
1
0
LINE
5
B9
100
AcDbEntity
8
1
62
256
6
ByLayer
370
13
48
1
60
0
100
AcDbLine
10
36.8587
20
9.402757
30
0
11
36.8587
21
7.881643
31
0
39
0
210
0
220
0
230
1
0
LINE
5
BA
100
AcDbEntity
8
1
62
256
6
ByLayer
370
13
48
1
60
0
100
AcDbLine
10
36.753127
20
8.02186
30
0
11
36.753127
21
8.95488
31
0
39
0
210
0
220
0
230
1
0
LINE
5
BB
100
AcDbEntity
8
1
62
256
6
ByLayer
370
13
48
1
60
0
100
AcDbLine
10
35.8587
20
-2.18404
30
0
11
35.8587
21
-0.084522
31
0
39
0
210
0
220
0
230
1
0
LINE
5
BC
100
AcDbEntity
8
SK1
62
256
6
ByLayer
370
13
48
1
60
0
100
AcDbLine
10
-57.94
20
-3.596985
30
0
11
-57.94
21
-11.19675
31
0
39
0
210
0
220
0
230
1
0
LINE
5
BD
100
AcDbEntity
8
SK1
62
256
6
ByLayer
370
13
48
1
60
0
100
AcDbLine
10
-57.94
20
11.19675
30
0
11
-57.94
21
3.596985
31
0
39
0
210
0
220
0
230
1
0
LINE
5
BE
100
AcDbEntity
8
1
62
256
6
ByLayer
370
13
48
1
60
0
100
AcDbLine
10
36.8587
20
3
30
0
11
36.8587
21
1.80457
31
0
39
0
210
0
220
0
230
1
0
LINE
5
BF
100
AcDbEntity
8
1
62
256
6
ByLayer
370
13
48
1
60
0
100
AcDbLine
10
36.554364
20
3
30
0
11
36.8587
21
3
31
0
39
0
210
0
220
0
230
1
0
LINE
5
C0
100
AcDbEntity
8
1
62
256
6
ByLayer
370
13
48
1
60
0
100
AcDbLine
10
25.37058
20
0.5
30
0
11
24.455852
21
0.5
31
0
39
0
210
0
220
0
230
1
0
LINE
5
C1
100
AcDbEntity
8
1
62
256
6
ByLayer
370
13
48
1
60
0
100
AcDbLine
10
31.27611
20
-2.18404
30
0
11
31.27611
21
-0.221256
31
0
39
0
210
0
220
0
230
1
0
LINE
5
C2
100
AcDbEntity
8
1
62
256
6
ByLayer
370
13
48
1
60
0
100
AcDbLine
10
0.420506
20
12.48335
30
0
11
0.420506
21
-12.48335
31
0
39
0
210
0
220
0
230
1
0
LINE
5
C3
100
AcDbEntity
8
1
62
256
6
ByLayer
370
13
48
1
60
0
100
AcDbLine
10
0.066953
20
-12.629797
30
0
11
0.066953
21
12.629797
31
0
39
0
210
0
220
0
230
1
0
LINE
5
C4
100
AcDbEntity
8
SK1
62
256
6
ByLayer
370
13
48
1
60
0
100
AcDbLine
10
-56.44
20
-6.984164
30
0
11
-56.44
21
-12.69675
31
0
39
0
210
0
220
0
230
1
0
LINE
5
C5
100
AcDbEntity
8
SK1
62
256
6
ByLayer
370
13
48
1
60
0
100
AcDbLine
10
-56.44
20
12.69675
30
0
11
-56.44
21
6.984164
31
0
39
0
210
0
220
0
230
1
0
LINE
5
C6
100
AcDbEntity
8
SK1
62
256
6
ByLayer
370
13
48
1
60
0
100
AcDbLine
10
0
20
12.69675
30
0
11
0
21
-12.69675
31
0
39
0
210
0
220
0
230
1
0
LINE
5
C7
100
AcDbEntity
8
81
62
256
6
ByLayer
370
18
48
1
60
0
100
AcDbLine
10
37.3087
20
12.954
30
0
11
42.3087
21
12.954
31
0
39
0
210
0
220
0
230
1
0
LINE
5
C8
100
AcDbEntity
8
SK4
62
256
6
ByLayer
370
18
48
0.05
60
0
100
AcDbLine
10
-62.94
20
0
30
0
11
42.3087
21
0
31
0
39
0
210
0
220
0
230
1
0
LINE
5
CA
100
AcDbEntity
8
80
62
256
6
ByLayer
370
18
48
1
60
0
100
AcDbLine
10
0
20
0
30
0
11
-5
21
0
31
0
39
0
210
0
220
0
230
1
0
LINE
5
CB
100
AcDbEntity
8
1
62
256
6
ByLayer
370
13
48
1
60
0
100
AcDbLine
10
0.066953
20
12.629797
30
0
11
0.005
21
12.69175
31
0
39
0
210
0
220
0
230
1
0
LINE
5
CC
100
AcDbEntity
8
1
62
256
6
ByLayer
370
13
48
1
60
0
100
AcDbLine
10
0.005
20
-12.69175
30
0
11
0.066953
21
-12.629797
31
0
39
0
210
0
220
0
230
1
0
LINE
5
CD
100
AcDbEntity
8
SK1
62
256
6
ByLayer
370
13
48
1
60
0
100
AcDbLine
10
-57.94
20
-11.19675
30
0
11
-56.44
21
-12.69675
31
0
39
0
210
0
220
0
230
1
0
LINE
5
CE
100
AcDbEntity
8
SK1
62
256
6
ByLayer
370
13
48
1
60
0
100
AcDbLine
10
-56.44
20
12.69675
30
0
11
-57.94
21
11.19675
31
0
39
0
210
0
220
0
230
1
0
LINE
5
CF
100
AcDbEntity
8
1
62
256
6
ByLayer
370
13
48
1
60
0
100
AcDbLine
10
0.420506
20
-12.48335
30
0
11
19.728539
21
-12.48335
31
0
39
0
210
0
220
0
230
1
0
LINE
5
D0
100
AcDbEntity
8
1
62
256
6
ByLayer
370
13
48
1
60
0
100
AcDbLine
10
19.728539
20
12.48335
30
0
11
0.420506
21
12.48335
31
0
39
0
210
0
220
0
230
1
0
LINE
5
D1
100
AcDbEntity
8
SK1
62
256
6
ByLayer
370
13
48
1
60
0
100
AcDbLine
10
0.005
20
12.69175
30
0
11
0
21
12.69675
31
0
39
0
210
0
220
0
230
1
0
LINE
5
D2
100
AcDbEntity
8
SK1
62
256
6
ByLayer
370
13
48
1
60
0
100
AcDbLine
10
0
20
-12.69675
30
0
11
0.005
21
-12.69175
31
0
39
0
210
0
220
0
230
1
0
LINE
5
D3
100
AcDbEntity
8
SK1
62
256
6
ByLayer
370
13
48
1
60
0
100
AcDbLine
10
-56.44
20
-12.69675
30
0
11
0
21
-12.69675
31
0
39
0
210
0
220
0
230
1
0
LINE
5
D4
100
AcDbEntity
8
SK1
62
256
6
ByLayer
370
13
48
1
60
0
100
AcDbLine
10
0
20
12.69675
30
0
11
-56.44
21
12.69675
31
0
39
0
210
0
220
0
230
1
0
LINE
5
D5
100
AcDbEntity
8
4
62
256
6
ByLayer
370
18
48
0.05
60
0
100
AcDbLine
10
0
20
0
30
0
11
42.3087
21
0
31
0
39
0
210
0
220
0
230
1
0
LINE
5
D7
100
AcDbEntity
8
SK2
62
256
6
ByLayer
370
13
48
1
60
0
100
AcDbLine
10
30.953578
20
19.309122
30
0
11
25.88945
21
24.37325
31
0
39
0
210
0
220
0
230
1
0
LINE
5
D9
100
AcDbEntity
8
SK2
62
256
6
ByLayer
370
13
48
1
60
0
100
AcDbLine
10
37.3087
20
14.5415
30
0
11
37.3087
21
29.103259
31
0
39
0
210
0
220
0
230
1
0
LINE
5
DA
100
AcDbEntity
8
1
62
256
6
ByLayer
370
13
48
1
60
0
100
AcDbLine
10
28.134514
20
22.128186
30
0
11
30.234966
21
24.545507
31
0
39
0
210
0
220
0
230
1
0
LINE
5
DB
100
AcDbEntity
8
1
62
256
6
ByLayer
370
13
48
1
60
0
100
AcDbLine
10
28.134514
20
22.128186
30
0
11
30.789046
21
23.919503
31
0
39
0
210
0
220
0
230
1
0
LINE
5
DC
100
AcDbEntity
8
1
62
256
6
ByLayer
370
13
48
1
60
0
100
AcDbLine
10
30.234966
20
24.545507
30
0
11
30.789046
21
23.919503
31
0
39
0
210
0
220
0
230
1
0
LINE
5
DD
100
AcDbEntity
8
1
62
256
6
ByLayer
370
13
48
1
60
0
100
AcDbLine
10
37.3087
20
25.928259
30
0
11
34.165013
21
25.317874
31
0
39
0
210
0
220
0
230
1
0
LINE
5
DE
100
AcDbEntity
8
1
62
256
6
ByLayer
370
13
48
1
60
0
100
AcDbLine
10
37.3087
20
25.928259
30
0
11
34.114149
21
26.152318
31
0
39
0
210
0
220
0
230
1
0
LINE
5
DF
100
AcDbEntity
8
1
62
256
6
ByLayer
370
13
48
1
60
0
100
AcDbLine
10
34.165013
20
25.317874
30
0
11
34.114149
21
26.152318
31
0
39
0
210
0
220
0
230
1
0
MTEXT
5
1DA
100
AcDbEntity
8
SK2
62
256
6
ByLayer
370
18
48
1
60
0
100
AcDbMText
10
43.831217
20
26.743008
30
0
210
0
220
0
230
1
1
\W1.0427;45%%d
40
4.5
41
0
44
1.084337
50
315.549179027553
71
7
72
5
7
iso_b_vert
0
MTEXT
5
1DD
100
AcDbEntity
8
SK6
62
256
6
ByLayer
370
18
48
1
60
0
100
AcDbMText
10
-109.103803
20
-19.82
30
0
210
0
220
0
230
1
1
\W0.7849;A495-026M25-4509H
40
4
41
0
44
1.084337
50
89.9999999999998
71
7
72
5
7
iso_b_vert
0
DIMENSION
5
1E0
100
AcDbEntity
8
2
62
256
6
ByLayer
370
18
48
1
60
0
100
AcDbDimension
2
_U0
10
62.205575
20
12.954
30
0
11
62.205575
21
36.338534
31
0
70
32
71
1
72
1
41
1
210
0
220
0
230
1
3
Standard
100
AcDbAlignedDimension
13
37.3087
23
-12.954
33
0
14
37.3087
24
12.954
34
0
50
90
100
AcDbRotatedDimension
1001
ACAD
1000
DSTYLE
1002
{
1070
   371
1070
    13
1070
   372
1070
    13
1070
   170
1070
     0
1070
   144
1040
1.0
1070
   277
1070
     2
1070
   284
1070
     8
1070
   278
1070
    46
1070
   146
1040
0.777778
1070
   345
1005
16
1070
   347
1005
16
1070
   346
1005
16
1070
   344
1005
1E1
1070
   343
1005
1E1
1070
   172
1070
     1
1070
    76
1070
     0
1070
    75
1070
     0
1070
   282
1070
     0
1070
   281
1070
     0
1070
    71
1070
     0
1070
    74
1070
     0
1070
   279
1070
     0
1070
   173
1070
     1
1070
   340
1005
1DB
1070
   271
1070
     2
1070
   272
1070
     2
1070
    77
1070
     1
1070
    73
1070
     0
1070
   171
1070
     3
1070
   274
1070
     4
1070
   177
1070
   150
1070
   176
1070
     9
1070
   178
1070
    43
1070
    78
1070
     8
1070
    48
1040
-0.1
1070
    41
1040
3.175
1070
   147
1040
2.25
1070
    42
1040
1.5875
1070
    44
1040
3.175
1070
   140
1040
4.5
1002
}
1001
ACAD_DSTYLE_DIM_LINETYPE
1070
   380
1005
16
1001
ACAD_DSTYLE_DIM_EXT1_LINETYPE
1070
   381
1005
16
1001
ACAD_DSTYLE_DIM_EXT2_LINETYPE
1070
   382
1005
16
0
DIMENSION
5
207
100
AcDbEntity
8
SK2
62
256
6
ByLayer
370
18
48
1
60
0
100
AcDbDimension
2
_U1
10
-0.0013
20
-37.454
30
0
11
18.6537
21
-37.454
31
0
70
32
71
1
72
1
41
1
210
0
220
0
230
1
3
Standard
100
AcDbAlignedDimension
13
37.3087
23
-12.954
33
0
14
-0.0013
24
0
34
0
50
0
100
AcDbRotatedDimension
1001
ACAD
1000
DSTYLE
1002
{
1070
   371
1070
    13
1070
   372
1070
    13
1070
   170
1070
     0
1070
   144
1040
1.0
1070
   277
1070
     2
1070
   284
1070
     8
1070
   278
1070
    46
1070
   146
1040
0.777778
1070
   345
1005
16
1070
   347
1005
16
1070
   346
1005
16
1070
   344
1005
1E1
1070
   343
1005
1E1
1070
   172
1070
     1
1070
    76
1070
     0
1070
    75
1070
     0
1070
   282
1070
     0
1070
   281
1070
     0
1070
    71
1070
     0
1070
    74
1070
     0
1070
   279
1070
     0
1070
   173
1070
     1
1070
   340
1005
1DB
1070
   271
1070
     2
1070
   272
1070
     2
1070
    77
1070
     1
1070
    73
1070
     1
1070
   171
1070
     3
1070
   274
1070
     4
1070
   177
1070
   150
1070
   176
1070
     9
1070
   178
1070
    43
1070
    78
1070
     8
1070
    48
1040
-0.1
1070
    41
1040
3.175
1070
   147
1040
2.25
1070
    42
1040
1.5875
1070
    44
1040
3.175
1070
   140
1040
4.5
1002
}
1001
ACAD_DSTYLE_DIM_LINETYPE
1070
   380
1005
16
1001
ACAD_DSTYLE_DIM_EXT1_LINETYPE
1070
   381
1005
16
1001
ACAD_DSTYLE_DIM_EXT2_LINETYPE
1070
   382
1005
16
0
DIMENSION
5
223
100
AcDbEntity
8
2
62
256
6
ByLayer
370
18
48
1
60
0
100
AcDbDimension
2
_U2
10
37.3087
20
33.454
30
0
11
-10.31565
21
33.454
31
0
70
32
71
1
72
1
41
1
210
0
220
0
230
1
3
Standard
100
AcDbAlignedDimension
13
-57.94
23
12.69675
33
0
14
37.3087
24
12.954
34
0
50
0
100
AcDbRotatedDimension
1001
ACAD
1000
DSTYLE
1002
{
1070
   371
1070
    13
1070
   372
1070
    13
1070
   170
1070
     0
1070
   144
1040
1.0
1070
   277
1070
     2
1070
   284
1070
     8
1070
   278
1070
    46
1070
   146
1040
0.777778
1070
   345
1005
16
1070
   347
1005
16
1070
   346
1005
16
1070
   344
1005
1E1
1070
   343
1005
1E1
1070
   172
1070
     1
1070
    76
1070
     0
1070
    75
1070
     0
1070
   282
1070
     0
1070
   281
1070
     0
1070
    71
1070
     0
1070
    74
1070
     0
1070
   279
1070
     0
1070
   173
1070
     1
1070
   340
1005
1DB
1070
   271
1070
     2
1070
   272
1070
     2
1070
    77
1070
     1
1070
    73
1070
     1
1070
   171
1070
     3
1070
   274
1070
     4
1070
   177
1070
   150
1070
   176
1070
     9
1070
   178
1070
    43
1070
    78
1070
     8
1070
    48
1040
-0.1
1070
    41
1040
3.175
1070
   147
1040
2.25
1070
    42
1040
1.5875
1070
    44
1040
3.175
1070
   140
1040
4.5
1002
}
1001
ACAD_DSTYLE_DIM_LINETYPE
1070
   380
1005
16
1001
ACAD_DSTYLE_DIM_EXT1_LINETYPE
1070
   381
1005
16
1001
ACAD_DSTYLE_DIM_EXT2_LINETYPE
1070
   382
1005
16
0
DIMENSION
5
23F
100
AcDbEntity
8
SK2
62
256
6
ByLayer
370
18
48
1
60
0
100
AcDbDimension
2
_U3
10
31.2725
20
23.454
30
0
11
-13.33375
21
23.454
31
0
70
32
71
1
72
1
41
1
210
0
220
0
230
1
3
Standard
100
AcDbAlignedDimension
13
-57.94
23
12.69675
33
0
14
31.2725
24
18.655
34
0
50
0
100
AcDbRotatedDimension
1001
ACAD
1000
DSTYLE
1002
{
1070
   371
1070
    13
1070
   372
1070
    13
1070
   170
1070
     0
1070
   144
1040
1.0
1070
   277
1070
     2
1070
   284
1070
     8
1070
   278
1070
    46
1070
   146
1040
0.777778
1070
   345
1005
16
1070
   347
1005
16
1070
   346
1005
16
1070
   344
1005
1E1
1070
   343
1005
1E1
1070
   172
1070
     1
1070
    76
1070
     0
1070
    75
1070
     0
1070
   282
1070
     0
1070
   281
1070
     0
1070
    71
1070
     0
1070
    74
1070
     0
1070
   279
1070
     0
1070
   173
1070
     1
1070
   340
1005
1DB
1070
   271
1070
     2
1070
   272
1070
     2
1070
    77
1070
     1
1070
    73
1070
     1
1070
   171
1070
     3
1070
   274
1070
     4
1070
   177
1070
   150
1070
   176
1070
     9
1070
   178
1070
    43
1070
    78
1070
     8
1070
    48
1040
-0.1
1070
    41
1040
3.175
1070
   147
1040
2.25
1070
    42
1040
1.5875
1070
    44
1040
3.175
1070
   140
1040
4.5
1002
}
1001
ACAD_DSTYLE_DIM_LINETYPE
1070
   380
1005
16
1001
ACAD_DSTYLE_DIM_EXT1_LINETYPE
1070
   381
1005
16
1001
ACAD_DSTYLE_DIM_EXT2_LINETYPE
1070
   382
1005
16
0
DIMENSION
5
25B
100
AcDbEntity
8
SK2
62
256
6
ByLayer
370
18
48
1
60
0
100
AcDbDimension
2
_U4
10
73.0587
20
18.655
30
0
11
73.0587
21
0
31
0
70
32
71
1
72
1
41
1
210
0
220
0
230
1
3
Standard
100
AcDbAlignedDimension
13
31.2725
23
-18.655
33
0
14
31.2725
24
18.655
34
0
50
90
100
AcDbRotatedDimension
1001
ACAD
1000
DSTYLE
1002
{
1070
   371
1070
    13
1070
   372
1070
    13
1070
   170
1070
     0
1070
   144
1040
1.0
1070
   277
1070
     2
1070
   284
1070
     8
1070
   278
1070
    46
1070
   146
1040
0.777778
1070
   345
1005
16
1070
   347
1005
16
1070
   346
1005
16
1070
   344
1005
1E1
1070
   343
1005
1E1
1070
   172
1070
     1
1070
    76
1070
     0
1070
    75
1070
     0
1070
   282
1070
     0
1070
   281
1070
     0
1070
    71
1070
     0
1070
    74
1070
     0
1070
   279
1070
     0
1070
   173
1070
     1
1070
   340
1005
1DB
1070
   271
1070
     2
1070
   272
1070
     2
1070
    77
1070
     1
1070
    73
1070
     0
1070
   171
1070
     3
1070
   274
1070
     4
1070
   177
1070
   150
1070
   176
1070
     9
1070
   178
1070
    43
1070
    78
1070
     8
1070
    48
1040
-0.1
1070
    41
1040
3.175
1070
   147
1040
2.25
1070
    42
1040
1.5875
1070
    44
1040
3.175
1070
   140
1040
4.5
1002
}
1001
ACAD_DSTYLE_DIM_LINETYPE
1070
   380
1005
16
1001
ACAD_DSTYLE_DIM_EXT1_LINETYPE
1070
   381
1005
16
1001
ACAD_DSTYLE_DIM_EXT2_LINETYPE
1070
   382
1005
16
0
DIMENSION
5
278
100
AcDbEntity
8
SK2
62
256
6
ByLayer
370
18
48
1
60
0
100
AcDbDimension
2
_U5
10
-83.043125
20
-12.69675
30
0
11
-83.043125
21
36.812422
31
0
70
32
71
1
72
1
41
1
210
0
220
0
230
1
3
Standard
100
AcDbAlignedDimension
13
-57.94
23
12.69675
33
0
14
-57.94
24
-12.69675
34
0
50
90
100
AcDbRotatedDimension
1001
ACAD
1000
DSTYLE
1002
{
1070
   371
1070
    13
1070
   372
1070
    13
1070
   170
1070
     0
1070
   144
1040
1.0
1070
   277
1070
     2
1070
   284
1070
     8
1070
   278
1070
    46
1070
   146
1040
0.777778
1070
   345
1005
16
1070
   347
1005
16
1070
   346
1005
16
1070
   344
1005
1E1
1070
   343
1005
1E1
1070
   172
1070
     1
1070
    76
1070
     0
1070
    75
1070
     0
1070
   282
1070
     0
1070
   281
1070
     0
1070
    71
1070
     0
1070
    74
1070
     0
1070
   279
1070
     0
1070
   173
1070
     1
1070
   340
1005
1DB
1070
   271
1070
     2
1070
   272
1070
     2
1070
    77
1070
     1
1070
    73
1070
     0
1070
   171
1070
     3
1070
   274
1070
     4
1070
   177
1070
   150
1070
   176
1070
     9
1070
   178
1070
    43
1070
    78
1070
     8
1070
    48
1040
-0.1
1070
    41
1040
3.175
1070
   147
1040
2.25
1070
    42
1040
1.5875
1070
    44
1040
3.175
1070
   140
1040
4.5
1002
}
1001
ACAD_DSTYLE_DIM_LINETYPE
1070
   380
1005
16
1001
ACAD_DSTYLE_DIM_EXT1_LINETYPE
1070
   381
1005
16
1001
ACAD_DSTYLE_DIM_EXT2_LINETYPE
1070
   382
1005
16
0
ENDSEC
0
SECTION
2
OBJECTS
0
DICTIONARY
5
306
330
0
100
AcDbDictionary
280
0
281
1
3
ACAD_GROUP
350
307
3
ACAD_MLINESTYLE
350
308
0
DICTIONARY
5
307
330
0
100
AcDbDictionary
280
0
281
1
0
DICTIONARY
5
308
330
0
100
AcDbDictionary
280
0
281
1
3
Standard
350
18
0
MLINESTYLE
5
18
330
308
100
AcDbMlineStyle
2
Standard
70
0
3

62
256
51
90
52
90
71
2
49
-0.5
62
256
6
ByLayer
49
0.5
62
256
6
ByLayer
0
RASTERVARIABLES
5
2f4
330

100
AcDbRasterVariables
90
0
70
1
71
1
72
1
0
ENDSEC
0
EOF
