0
SECTION
2
HEADER
9
$ACADVER
1
AC1015
9
$DWGCODEPAGE
3
ANSI_1252
9
$HANDSEED
5
34d
9
$ANGBASE
50
0
9
$ANGDIR
70
0
9
$ATTMODE
70
1
9
$AUNITS
70
0
9
$AUPREC
70
0
9
$CECOLOR
62
256
9
$CELTSCALE
40
1
9
$CELTYPE
6
ByLayer
9
$CELWEIGHT
370
18
9
$CLAYER
8
0
9
$CMLJUST
70
0
9
$CMLSCALE
40
1
9
$CMLSTYLE
2
Standard
9
$DIMSTYLE
2
Standard
9
$TEXTSIZE
40
0.2
9
$TEXTSTYLE
7
Standard
9
$LUNITS
70
2
9
$LUPREC
70
4
9
$EXTNAMES
290
1
9
$INSUNITS
70
4
9
$LTSCALE
40
1
9
$LWDISPLAY
290
1
9
$PDMODE
70
0
9
$PDSIZE
40
0
9
$PLINEGEN
70
0
0
ENDSEC
0
SECTION
2
CLASSES
0
CLASS
1
RASTERVARIABLES
2
AcDbRasterVariables
3
ISM
90
0
280
0
281
0
0
ENDSEC
0
SECTION
2
TABLES
0
TABLE
2
VPORT
5
343
100
AcDbSymbolTable
0
VPORT
5
1
100
AcDbSymbolTableRecord
100
AcDbViewportTableRecord
2
*Active
70
0
10
0
20
0
11
1
21
1
12
-1
22
1
13
0
23
0
14
0.5
24
0.5
15
10
25
10
16
0
26
0
36
1
17
0
27
0
37
0
0
ENDTAB
0
TABLE
2
LTYPE
5
344
100
AcDbSymbolTable
0
LTYPE
5
14
100
AcDbSymbolTableRecord
100
AcDbLinetypeTableRecord
70
0
2
ByBlock
3

72
65
73
0
40
0
0
LTYPE
5
15
100
AcDbSymbolTableRecord
100
AcDbLinetypeTableRecord
70
0
2
ByLayer
3

72
65
73
0
40
0
0
LTYPE
5
16
100
AcDbSymbolTableRecord
100
AcDbLinetypeTableRecord
70
0
2
Continuous
3
Solid line
72
65
73
0
40
0
0
LTYPE
5
6E
100
AcDbSymbolTableRecord
100
AcDbLinetypeTableRecord
70
0
2
CENTER
3
____ _ ____ _ ____ _ ____
72
65
73
4
40
47.5
49
22
74
0
49
-8.5
74
0
49
8.5
74
0
49
-8.5
74
0
0
LTYPE
5
6F
100
AcDbSymbolTableRecord
100
AcDbLinetypeTableRecord
70
0
2
DASHED
3
__ __ __ __ __ __ __ __ __
72
65
73
2
40
25.72
49
12.86
74
0
49
-12.86
74
0
0
ENDTAB
0
TABLE
2
LAYER
5
345
100
AcDbSymbolTable
0
LAYER
5
10
100
AcDbSymbolTableRecord
100
AcDbLayerTableRecord
2
0
70
0
62
7
6
Continuous
290
1
370
-3
390
0
0
LAYER
5
71
100
AcDbSymbolTableRecord
100
AcDbLayerTableRecord
2
81
70
0
62
-3
6
Continuous
290
1
370
-3
390
0
0
LAYER
5
73
100
AcDbSymbolTableRecord
100
AcDbLayerTableRecord
2
80
70
0
62
-6
6
Continuous
290
1
370
-3
390
0
0
LAYER
5
75
100
AcDbSymbolTableRecord
100
AcDbLayerTableRecord
2
1
70
0
62
4
6
Continuous
290
1
370
-3
390
0
0
LAYER
5
D9
100
AcDbSymbolTableRecord
100
AcDbLayerTableRecord
2
4
70
0
62
-2
6
CENTER
290
1
370
-3
390
0
0
LAYER
5
224
100
AcDbSymbolTableRecord
100
AcDbLayerTableRecord
2
Defpoints
70
0
62
7
6
Continuous
290
0
370
-3
390
0
0
LAYER
5
232
100
AcDbSymbolTableRecord
100
AcDbLayerTableRecord
2
2
70
0
62
7
6
Continuous
290
1
370
-3
390
0
0
LAYER
5
32f
100
AcDbSymbolTableRecord
100
AcDbLayerTableRecord
2
SK1
70
0
62
4
6
Continuous
290
1
370
-3
390
0
0
LAYER
5
330
100
AcDbSymbolTableRecord
100
AcDbLayerTableRecord
2
SK4
70
0
62
2
6
CENTER
290
1
370
-3
390
0
0
LAYER
5
331
100
AcDbSymbolTableRecord
100
AcDbLayerTableRecord
2
SK2
70
0
62
7
6
Continuous
290
1
370
-3
390
0
0
LAYER
5
332
100
AcDbSymbolTableRecord
100
AcDbLayerTableRecord
2
SK6
70
0
62
5
6
Continuous
290
1
370
-3
390
0
0
ENDTAB
0
TABLE
2
STYLE
5
346
100
AcDbSymbolTable
0
STYLE
5
11
100
AcDbSymbolTableRecord
100
AcDbTextStyleTableRecord
2
Standard
3
txt
70
0
71
0
40
0
41
1
42
0
50
0
0
STYLE
5
215
100
AcDbSymbolTableRecord
100
AcDbTextStyleTableRecord
2
iso_b_vert
3
simplex.shx
70
0
71
0
40
0
41
1
42
0
50
0
0
STYLE
5
216
100
AcDbSymbolTableRecord
100
AcDbTextStyleTableRecord
2
DWGDirectTextStyle
3
simplex
70
0
71
0
40
0
41
1
42
0
50
0
0
ENDTAB
0
TABLE
2
DIMSTYLE
5
347
100
AcDbSymbolTable
100
AcDbDimStyleTable
0
DIMSTYLE
105
27
100
AcDbSymbolTableRecord
100
AcDbDimStyleTableRecord
2
Standard
70
0
3
<>
41
0.18
42
0.0625
44
0.18
140
0.18
147
0.09
73
0
74
0
77
1
271
2
275
0
278
52
280
0
340
11
0
ENDTAB
0
TABLE
2
VIEW
5
348
100
AcDbSymbolTable
0
ENDTAB
0
TABLE
2
UCS
5
349
100
AcDbSymbolTable
0
ENDTAB
0
TABLE
2
APPID
5
34a
100
AcDbSymbolTable
0
APPID
5
12
100
AcDbSymbolTableRecord
100
AcDbRegAppTableRecord
2
ACAD
70
0
0
APPID
5
219
100
AcDbSymbolTableRecord
100
AcDbRegAppTableRecord
2
ACAD_DSTYLE_DIMBREAK
70
0
0
APPID
5
2EE
100
AcDbSymbolTableRecord
100
AcDbRegAppTableRecord
2
ACAD_DSTYLE_DIM_LINETYPE
70
0
0
APPID
5
2EF
100
AcDbSymbolTableRecord
100
AcDbRegAppTableRecord
2
ACAD_DSTYLE_DIM_EXT1_LINETYPE
70
0
0
APPID
5
2F0
100
AcDbSymbolTableRecord
100
AcDbRegAppTableRecord
2
ACAD_DSTYLE_DIM_EXT2_LINETYPE
70
0
0
APPID
5
32B
100
AcDbSymbolTableRecord
100
AcDbRegAppTableRecord
2
ACAD_MLEADERVER
70
0
0
ENDTAB
0
TABLE
2
BLOCK_RECORD
5
34b
100
AcDbSymbolTable
0
BLOCK_RECORD
5
1F
100
AcDbSymbolTableRecord
100
AcDbBlockTableRecord
2
*Model_Space
340
0
70
0
0
BLOCK_RECORD
5
1B
100
AcDbSymbolTableRecord
100
AcDbBlockTableRecord
2
*Paper_Space
340
0
70
0
0
BLOCK_RECORD
5
23
100
AcDbSymbolTableRecord
100
AcDbBlockTableRecord
2
*Paper_Space0
340
0
70
0
0
BLOCK_RECORD
5
21B
100
AcDbSymbolTableRecord
100
AcDbBlockTableRecord
2
_Closed
340
0
70
0
0
BLOCK_RECORD
5
225
100
AcDbSymbolTableRecord
100
AcDbBlockTableRecord
2
*D2
340
0
70
0
0
BLOCK_RECORD
5
233
100
AcDbSymbolTableRecord
100
AcDbBlockTableRecord
2
_U0
340
0
70
0
0
BLOCK_RECORD
5
244
100
AcDbSymbolTableRecord
100
AcDbBlockTableRecord
2
*D4
340
0
70
0
0
BLOCK_RECORD
5
250
100
AcDbSymbolTableRecord
100
AcDbBlockTableRecord
2
_U1
340
0
70
0
0
BLOCK_RECORD
5
260
100
AcDbSymbolTableRecord
100
AcDbBlockTableRecord
2
*D6
340
0
70
0
0
BLOCK_RECORD
5
26C
100
AcDbSymbolTableRecord
100
AcDbBlockTableRecord
2
_U2
340
0
70
0
0
BLOCK_RECORD
5
27C
100
AcDbSymbolTableRecord
100
AcDbBlockTableRecord
2
*D8
340
0
70
0
0
BLOCK_RECORD
5
288
100
AcDbSymbolTableRecord
100
AcDbBlockTableRecord
2
_U3
340
0
70
0
0
BLOCK_RECORD
5
298
100
AcDbSymbolTableRecord
100
AcDbBlockTableRecord
2
*D10
340
0
70
0
0
BLOCK_RECORD
5
2A4
100
AcDbSymbolTableRecord
100
AcDbBlockTableRecord
2
_U4
340
0
70
0
0
BLOCK_RECORD
5
2B5
100
AcDbSymbolTableRecord
100
AcDbBlockTableRecord
2
*D12
340
0
70
0
0
BLOCK_RECORD
5
2C2
100
AcDbSymbolTableRecord
100
AcDbBlockTableRecord
2
_U5
340
0
70
0
0
ENDTAB
0
ENDSEC
0
SECTION
2
BLOCKS
0
BLOCK
5
20
100
AcDbEntity
8
0
100
AcDbBlockBegin
2
*Model_Space
70
0
10
0
20
0
30
0
3
*Model_Space
0
ENDBLK
5
21
100
AcDbEntity
8
0
100
AcDbBlockEnd
0
BLOCK
5
1C
100
AcDbEntity
8
0
100
AcDbBlockBegin
2
*Paper_Space
70
0
10
0
20
0
30
0
3
*Paper_Space
0
ENDBLK
5
1D
100
AcDbEntity
8
0
100
AcDbBlockEnd
0
BLOCK
5
24
100
AcDbEntity
8
0
100
AcDbBlockBegin
2
*Paper_Space0
70
0
10
0
20
0
30
0
3
*Paper_Space0
0
ENDBLK
5
25
100
AcDbEntity
8
0
100
AcDbBlockEnd
0
BLOCK
5
21C
100
AcDbEntity
8
0
100
AcDbBlockBegin
2
_Closed
70
0
10
0
20
0
30
0
3
_Closed
0
LINE
5
21E
100
AcDbEntity
8
0
62
256
6
ByLayer
370
-2
48
1
60
0
100
AcDbLine
10
-1
20
0.166667
30
0
11
0
21
0
31
0
39
0
210
0
220
0
230
1
0
LINE
5
21F
100
AcDbEntity
8
0
62
256
6
ByLayer
370
-2
48
1
60
0
100
AcDbLine
10
0
20
0
30
0
11
-1
21
-0.166667
31
0
39
0
210
0
220
0
230
1
0
LINE
5
220
100
AcDbEntity
8
0
62
256
6
ByLayer
370
-2
48
1
60
0
100
AcDbLine
10
-1
20
0.166667
30
0
11
-1
21
-0.166667
31
0
39
0
210
0
220
0
230
1
0
LINE
5
221
100
AcDbEntity
8
0
62
256
6
ByLayer
370
-2
48
1
60
0
100
AcDbLine
10
0
20
0
30
0
11
-1
21
0
31
0
39
0
210
0
220
0
230
1
0
ENDBLK
5
21D
100
AcDbEntity
8
0
100
AcDbBlockEnd
0
BLOCK
5
226
100
AcDbEntity
8
0
100
AcDbBlockBegin
2
*D2
70
1
10
0
20
0
30
0
3
*D2
0
LINE
5
228
100
AcDbEntity
8
0
62
256
6
ByLayer
370
-2
48
1
60
0
100
AcDbLine
10
38.8962
20
-12.954
30
0
11
65.380575
21
-12.954
31
0
39
0
210
0
220
0
230
1
0
LINE
5
229
100
AcDbEntity
8
0
62
256
6
ByLayer
370
-2
48
1
60
0
100
AcDbLine
10
38.8962
20
12.954
30
0
11
65.380575
21
12.954
31
0
39
0
210
0
220
0
230
1
0
LINE
5
22A
100
AcDbEntity
8
0
62
256
6
ByLayer
370
-2
48
1
60
0
100
AcDbLine
10
62.205575
20
12.954
30
0
11
62.205575
21
51.839427
31
0
39
0
210
0
220
0
230
1
0
LINE
5
22B
100
AcDbEntity
8
0
62
256
6
ByLayer
370
-2
48
1
60
0
100
AcDbLine
10
62.205575
20
-9.779
30
0
11
62.205575
21
9.779
31
0
39
0
210
0
220
0
230
1
0
SOLID
5
22C
100
AcDbEntity
8
0
62
256
6
ByLayer
370
-1
48
1
60
0
100
AcDbTrace
10
61.676408
20
-9.779
30
0
11
62.734742
21
-9.779
31
0
12
62.205575
22
-12.954
32
0
13
62.205575
23
-12.954
33
0
39
0
210
0
220
0
230
1
0
SOLID
5
22D
100
AcDbEntity
8
0
62
256
6
ByLayer
370
-1
48
1
60
0
100
AcDbTrace
10
62.734742
20
9.779
30
0
11
61.676408
21
9.779
31
0
12
62.205575
22
12.954
32
0
13
62.205575
23
12.954
33
0
39
0
210
0
220
0
230
1
0
MTEXT
5
22E
100
AcDbEntity
8
0
62
256
6
ByLayer
370
18
48
1
60
0
100
AcDbMText
10
52.811825
20
36.338534
30
0
210
0
220
0
230
1
1
\A1;25.91
40
4.5
41
0
44
1
50
90
71
5
72
5
7
iso_b_vert
0
POINT
5
22F
100
AcDbEntity
8
Defpoints
62
0
6
ByLayer
370
-1
48
1
60
0
100
AcDbPoint
10
37.3087
20
-12.954
30
0
39
0
210
0
220
0
230
1
50
360
0
POINT
5
230
100
AcDbEntity
8
Defpoints
62
0
6
ByLayer
370
-1
48
1
60
0
100
AcDbPoint
10
37.3087
20
12.954
30
0
39
0
210
0
220
0
230
1
50
360
0
POINT
5
231
100
AcDbEntity
8
Defpoints
62
0
6
ByLayer
370
-1
48
1
60
0
100
AcDbPoint
10
62.205575
20
12.954
30
0
39
0
210
0
220
0
230
1
50
360
0
ENDBLK
5
227
100
AcDbEntity
8
0
100
AcDbBlockEnd
0
BLOCK
5
23F
100
AcDbEntity
8
0
100
AcDbBlockBegin
2
_U0
70
0
10
0
20
0
30
0
3
_U0
0
MTEXT
5
234
100
AcDbEntity
8
2
62
256
6
ByLayer
370
18
48
1
60
0
100
AcDbMText
10
60.123729
20
24.209375
30
0
210
0
220
0
230
1
1
%%c
40
3.175
41
0
44
1.084337
50
90
71
7
72
5
7
iso_b_vert
0
MTEXT
5
235
100
AcDbEntity
8
2
62
256
6
ByLayer
370
18
48
1
60
0
100
AcDbMText
10
60.525153
20
33.794
30
0
210
0
220
0
230
1
1
\W0.8628;25.91
40
4.5
41
0
44
1.084337
50
90
71
7
72
5
7
iso_b_vert
0
LINE
5
236
100
AcDbEntity
8
2
62
256
6
ByLayer
370
13
48
1
60
0
100
AcDbLine
10
38.8962
20
-12.954
30
0
11
65.380575
21
-12.954
31
0
39
0
210
0
220
0
230
1
0
LINE
5
237
100
AcDbEntity
8
2
62
256
6
ByLayer
370
13
48
1
60
0
100
AcDbLine
10
38.8962
20
12.954
30
0
11
65.380575
21
12.954
31
0
39
0
210
0
220
0
230
1
0
LINE
5
238
100
AcDbEntity
8
2
62
256
6
ByLayer
370
13
48
1
60
0
100
AcDbLine
10
62.205575
20
-12.954
30
0
11
62.205575
21
48.610568
31
0
39
0
210
0
220
0
230
1
0
LINE
5
239
100
AcDbEntity
8
2
62
256
6
ByLayer
370
13
48
1
60
0
100
AcDbLine
10
62.205575
20
-12.954
30
0
11
61.787578
21
-9.779002
31
0
39
0
210
0
220
0
230
1
0
LINE
5
23A
100
AcDbEntity
8
2
62
256
6
ByLayer
370
13
48
1
60
0
100
AcDbLine
10
62.205575
20
-12.954
30
0
11
62.623572
21
-9.778998
31
0
39
0
210
0
220
0
230
1
0
LINE
5
23B
100
AcDbEntity
8
2
62
256
6
ByLayer
370
13
48
1
60
0
100
AcDbLine
10
61.787578
20
-9.779002
30
0
11
62.623572
21
-9.778998
31
0
39
0
210
0
220
0
230
1
0
LINE
5
23C
100
AcDbEntity
8
2
62
256
6
ByLayer
370
13
48
1
60
0
100
AcDbLine
10
62.205575
20
12.954
30
0
11
62.623572
21
9.779002
31
0
39
0
210
0
220
0
230
1
0
LINE
5
23D
100
AcDbEntity
8
2
62
256
6
ByLayer
370
13
48
1
60
0
100
AcDbLine
10
62.205575
20
12.954
30
0
11
61.787578
21
9.778998
31
0
39
0
210
0
220
0
230
1
0
LINE
5
23E
100
AcDbEntity
8
2
62
256
6
ByLayer
370
13
48
1
60
0
100
AcDbLine
10
62.623572
20
9.779002
30
0
11
61.787578
21
9.778998
31
0
39
0
210
0
220
0
230
1
0
ENDBLK
5
240
100
AcDbEntity
8
0
100
AcDbBlockEnd
0
BLOCK
5
245
100
AcDbEntity
8
0
100
AcDbBlockBegin
2
*D4
70
1
10
0
20
0
30
0
3
*D4
0
LINE
5
247
100
AcDbEntity
8
0
62
256
6
ByLayer
370
-2
48
1
60
0
100
AcDbLine
10
37.3087
20
-14.5415
30
0
11
37.3087
21
-40.629
31
0
39
0
210
0
220
0
230
1
0
LINE
5
248
100
AcDbEntity
8
0
62
256
6
ByLayer
370
-2
48
1
60
0
100
AcDbLine
10
-0.0013
20
-1.5875
30
0
11
-0.0013
21
-40.629
31
0
39
0
210
0
220
0
230
1
0
LINE
5
249
100
AcDbEntity
8
0
62
256
6
ByLayer
370
-2
48
1
60
0
100
AcDbLine
10
34.1337
20
-37.454
30
0
11
3.1737
21
-37.454
31
0
39
0
210
0
220
0
230
1
0
SOLID
5
24A
100
AcDbEntity
8
0
62
256
6
ByLayer
370
-1
48
1
60
0
100
AcDbTrace
10
34.1337
20
-37.983167
30
0
11
34.1337
21
-36.924833
31
0
12
37.3087
22
-37.454
32
0
13
37.3087
23
-37.454
33
0
39
0
210
0
220
0
230
1
0
SOLID
5
24B
100
AcDbEntity
8
0
62
256
6
ByLayer
370
-1
48
1
60
0
100
AcDbTrace
10
3.1737
20
-36.924833
30
0
11
3.1737
21
-37.983167
31
0
12
-0.0013
22
-37.454
32
0
13
-0.0013
23
-37.454
33
0
39
0
210
0
220
0
230
1
0
MTEXT
5
24C
100
AcDbEntity
8
0
62
256
6
ByLayer
370
18
48
1
60
0
100
AcDbMText
10
18.6537
20
-28.06025
30
0
210
0
220
0
230
1
1
\A1;37.31
40
4.5
41
0
44
1
50
0
71
5
72
5
7
iso_b_vert
0
POINT
5
24D
100
AcDbEntity
8
Defpoints
62
0
6
ByLayer
370
-1
48
1
60
0
100
AcDbPoint
10
37.3087
20
-12.954
30
0
39
0
210
0
220
0
230
1
50
360
0
POINT
5
24E
100
AcDbEntity
8
Defpoints
62
0
6
ByLayer
370
-1
48
1
60
0
100
AcDbPoint
10
-0.0013
20
0
30
0
39
0
210
0
220
0
230
1
50
360
0
POINT
5
24F
100
AcDbEntity
8
Defpoints
62
0
6
ByLayer
370
-1
48
1
60
0
100
AcDbPoint
10
-0.0013
20
-37.454
30
0
39
0
210
0
220
0
230
1
50
360
0
ENDBLK
5
246
100
AcDbEntity
8
0
100
AcDbBlockEnd
0
BLOCK
5
25B
100
AcDbEntity
8
0
100
AcDbBlockBegin
2
_U1
70
0
10
0
20
0
30
0
3
_U1
0
MTEXT
5
251
100
AcDbEntity
8
SK2
62
256
6
ByLayer
370
18
48
1
60
0
100
AcDbMText
10
11.382666
20
-36.126328
30
0
210
0
220
0
230
1
1
\W0.8628;37.31
40
4.5
41
0
44
1.084337
50
0
71
7
72
5
7
iso_b_vert
0
LINE
5
252
100
AcDbEntity
8
SK2
62
256
6
ByLayer
370
13
48
1
60
0
100
AcDbLine
10
37.3087
20
-14.5415
30
0
11
37.3087
21
-40.629
31
0
39
0
210
0
220
0
230
1
0
LINE
5
253
100
AcDbEntity
8
SK2
62
256
6
ByLayer
370
13
48
1
60
0
100
AcDbLine
10
-0.0013
20
-1.5875
30
0
11
-0.0013
21
-40.629
31
0
39
0
210
0
220
0
230
1
0
LINE
5
254
100
AcDbEntity
8
SK2
62
256
6
ByLayer
370
13
48
1
60
0
100
AcDbLine
10
37.3087
20
-37.454
30
0
11
-0.0013
21
-37.454
31
0
39
0
210
0
220
0
230
1
0
LINE
5
255
100
AcDbEntity
8
SK2
62
256
6
ByLayer
370
13
48
1
60
0
100
AcDbLine
10
37.3087
20
-37.454
30
0
11
34.133702
21
-37.871997
31
0
39
0
210
0
220
0
230
1
0
LINE
5
256
100
AcDbEntity
8
SK2
62
256
6
ByLayer
370
13
48
1
60
0
100
AcDbLine
10
37.3087
20
-37.454
30
0
11
34.133698
21
-37.036003
31
0
39
0
210
0
220
0
230
1
0
LINE
5
257
100
AcDbEntity
8
SK2
62
256
6
ByLayer
370
13
48
1
60
0
100
AcDbLine
10
34.133702
20
-37.871997
30
0
11
34.133698
21
-37.036003
31
0
39
0
210
0
220
0
230
1
0
LINE
5
258
100
AcDbEntity
8
SK2
62
256
6
ByLayer
370
13
48
1
60
0
100
AcDbLine
10
-0.0013
20
-37.454
30
0
11
3.173698
21
-37.036003
31
0
39
0
210
0
220
0
230
1
0
LINE
5
259
100
AcDbEntity
8
SK2
62
256
6
ByLayer
370
13
48
1
60
0
100
AcDbLine
10
-0.0013
20
-37.454
30
0
11
3.173702
21
-37.871997
31
0
39
0
210
0
220
0
230
1
0
LINE
5
25A
100
AcDbEntity
8
SK2
62
256
6
ByLayer
370
13
48
1
60
0
100
AcDbLine
10
3.173698
20
-37.036003
30
0
11
3.173702
21
-37.871997
31
0
39
0
210
0
220
0
230
1
0
ENDBLK
5
25C
100
AcDbEntity
8
0
100
AcDbBlockEnd
0
BLOCK
5
261
100
AcDbEntity
8
0
100
AcDbBlockBegin
2
*D6
70
1
10
0
20
0
30
0
3
*D6
0
LINE
5
263
100
AcDbEntity
8
0
62
256
6
ByLayer
370
-2
48
1
60
0
100
AcDbLine
10
-57.94
20
14.28425
30
0
11
-57.94
21
36.629
31
0
39
0
210
0
220
0
230
1
0
LINE
5
264
100
AcDbEntity
8
0
62
256
6
ByLayer
370
-2
48
1
60
0
100
AcDbLine
10
37.3087
20
14.5415
30
0
11
37.3087
21
36.629
31
0
39
0
210
0
220
0
230
1
0
LINE
5
265
100
AcDbEntity
8
0
62
256
6
ByLayer
370
-2
48
1
60
0
100
AcDbLine
10
-54.765
20
33.454
30
0
11
34.1337
21
33.454
31
0
39
0
210
0
220
0
230
1
0
SOLID
5
266
100
AcDbEntity
8
0
62
256
6
ByLayer
370
-1
48
1
60
0
100
AcDbTrace
10
-54.765
20
33.983167
30
0
11
-54.765
21
32.924833
31
0
12
-57.94
22
33.454
32
0
13
-57.94
23
33.454
33
0
39
0
210
0
220
0
230
1
0
SOLID
5
267
100
AcDbEntity
8
0
62
256
6
ByLayer
370
-1
48
1
60
0
100
AcDbTrace
10
34.1337
20
32.924833
30
0
11
34.1337
21
33.983167
31
0
12
37.3087
22
33.454
32
0
13
37.3087
23
33.454
33
0
39
0
210
0
220
0
230
1
0
MTEXT
5
268
100
AcDbEntity
8
0
62
256
6
ByLayer
370
18
48
1
60
0
100
AcDbMText
10
-10.31565
20
42.84775
30
0
210
0
220
0
230
1
1
\A1;95.25
40
4.5
41
0
44
1
50
0
71
5
72
5
7
iso_b_vert
0
POINT
5
269
100
AcDbEntity
8
Defpoints
62
0
6
ByLayer
370
-1
48
1
60
0
100
AcDbPoint
10
-57.94
20
12.69675
30
0
39
0
210
0
220
0
230
1
50
360
0
POINT
5
26A
100
AcDbEntity
8
Defpoints
62
0
6
ByLayer
370
-1
48
1
60
0
100
AcDbPoint
10
37.3087
20
12.954
30
0
39
0
210
0
220
0
230
1
50
360
0
POINT
5
26B
100
AcDbEntity
8
Defpoints
62
0
6
ByLayer
370
-1
48
1
60
0
100
AcDbPoint
10
37.3087
20
33.454
30
0
39
0
210
0
220
0
230
1
50
360
0
ENDBLK
5
262
100
AcDbEntity
8
0
100
AcDbBlockEnd
0
BLOCK
5
277
100
AcDbEntity
8
0
100
AcDbBlockBegin
2
_U2
70
0
10
0
20
0
30
0
3
_U2
0
MTEXT
5
26D
100
AcDbEntity
8
2
62
256
6
ByLayer
370
18
48
1
60
0
100
AcDbMText
10
-18.317822
20
34.781672
30
0
210
0
220
0
230
1
1
\W0.8825;95.25
40
4.5
41
0
44
1.084337
50
0
71
7
72
5
7
iso_b_vert
0
LINE
5
26E
100
AcDbEntity
8
2
62
256
6
ByLayer
370
13
48
1
60
0
100
AcDbLine
10
-57.94
20
14.28425
30
0
11
-57.94
21
36.629
31
0
39
0
210
0
220
0
230
1
0
LINE
5
26F
100
AcDbEntity
8
2
62
256
6
ByLayer
370
13
48
1
60
0
100
AcDbLine
10
37.3087
20
14.5415
30
0
11
37.3087
21
36.629
31
0
39
0
210
0
220
0
230
1
0
LINE
5
270
100
AcDbEntity
8
2
62
256
6
ByLayer
370
13
48
1
60
0
100
AcDbLine
10
-57.94
20
33.454
30
0
11
37.3087
21
33.454
31
0
39
0
210
0
220
0
230
1
0
LINE
5
271
100
AcDbEntity
8
2
62
256
6
ByLayer
370
13
48
1
60
0
100
AcDbLine
10
-57.94
20
33.454
30
0
11
-54.765002
21
33.871997
31
0
39
0
210
0
220
0
230
1
0
LINE
5
272
100
AcDbEntity
8
2
62
256
6
ByLayer
370
13
48
1
60
0
100
AcDbLine
10
-57.94
20
33.454
30
0
11
-54.764998
21
33.036003
31
0
39
0
210
0
220
0
230
1
0
LINE
5
273
100
AcDbEntity
8
2
62
256
6
ByLayer
370
13
48
1
60
0
100
AcDbLine
10
-54.765002
20
33.871997
30
0
11
-54.764998
21
33.036003
31
0
39
0
210
0
220
0
230
1
0
LINE
5
274
100
AcDbEntity
8
2
62
256
6
ByLayer
370
13
48
1
60
0
100
AcDbLine
10
37.3087
20
33.454
30
0
11
34.133702
21
33.036003
31
0
39
0
210
0
220
0
230
1
0
LINE
5
275
100
AcDbEntity
8
2
62
256
6
ByLayer
370
13
48
1
60
0
100
AcDbLine
10
37.3087
20
33.454
30
0
11
34.133698
21
33.871997
31
0
39
0
210
0
220
0
230
1
0
LINE
5
276
100
AcDbEntity
8
2
62
256
6
ByLayer
370
13
48
1
60
0
100
AcDbLine
10
34.133702
20
33.036003
30
0
11
34.133698
21
33.871997
31
0
39
0
210
0
220
0
230
1
0
ENDBLK
5
278
100
AcDbEntity
8
0
100
AcDbBlockEnd
0
BLOCK
5
27D
100
AcDbEntity
8
0
100
AcDbBlockBegin
2
*D8
70
1
10
0
20
0
30
0
3
*D8
0
LINE
5
27F
100
AcDbEntity
8
0
62
256
6
ByLayer
370
-2
48
1
60
0
100
AcDbLine
10
-57.94
20
14.28425
30
0
11
-57.94
21
26.629
31
0
39
0
210
0
220
0
230
1
0
LINE
5
280
100
AcDbEntity
8
0
62
256
6
ByLayer
370
-2
48
1
60
0
100
AcDbLine
10
32.8025
20
21.5325
30
0
11
32.8025
21
26.629
31
0
39
0
210
0
220
0
230
1
0
LINE
5
281
100
AcDbEntity
8
0
62
256
6
ByLayer
370
-2
48
1
60
0
100
AcDbLine
10
-54.765
20
23.454
30
0
11
29.6275
21
23.454
31
0
39
0
210
0
220
0
230
1
0
SOLID
5
282
100
AcDbEntity
8
0
62
256
6
ByLayer
370
-1
48
1
60
0
100
AcDbTrace
10
-54.765
20
23.983167
30
0
11
-54.765
21
22.924833
31
0
12
-57.94
22
23.454
32
0
13
-57.94
23
23.454
33
0
39
0
210
0
220
0
230
1
0
SOLID
5
283
100
AcDbEntity
8
0
62
256
6
ByLayer
370
-1
48
1
60
0
100
AcDbTrace
10
29.6275
20
22.924833
30
0
11
29.6275
21
23.983167
31
0
12
32.8025
22
23.454
32
0
13
32.8025
23
23.454
33
0
39
0
210
0
220
0
230
1
0
MTEXT
5
284
100
AcDbEntity
8
0
62
256
6
ByLayer
370
18
48
1
60
0
100
AcDbMText
10
-12.56875
20
32.84775
30
0
210
0
220
0
230
1
1
\A1;90.74
40
4.5
41
0
44
1
50
0
71
5
72
5
7
iso_b_vert
0
POINT
5
285
100
AcDbEntity
8
Defpoints
62
0
6
ByLayer
370
-1
48
1
60
0
100
AcDbPoint
10
-57.94
20
12.69675
30
0
39
0
210
0
220
0
230
1
50
360
0
POINT
5
286
100
AcDbEntity
8
Defpoints
62
0
6
ByLayer
370
-1
48
1
60
0
100
AcDbPoint
10
32.8025
20
19.945
30
0
39
0
210
0
220
0
230
1
50
360
0
POINT
5
287
100
AcDbEntity
8
Defpoints
62
0
6
ByLayer
370
-1
48
1
60
0
100
AcDbPoint
10
32.8025
20
23.454
30
0
39
0
210
0
220
0
230
1
50
360
0
ENDBLK
5
27E
100
AcDbEntity
8
0
100
AcDbBlockEnd
0
BLOCK
5
293
100
AcDbEntity
8
0
100
AcDbBlockBegin
2
_U3
70
0
10
0
20
0
30
0
3
_U3
0
MTEXT
5
289
100
AcDbEntity
8
SK2
62
256
6
ByLayer
370
18
48
1
60
0
100
AcDbMText
10
-20.878911
20
24.781672
30
0
210
0
220
0
230
1
1
\W0.9061;90.74
40
4.5
41
0
44
1.084337
50
0
71
7
72
5
7
iso_b_vert
0
LINE
5
28A
100
AcDbEntity
8
SK2
62
256
6
ByLayer
370
13
48
1
60
0
100
AcDbLine
10
-57.94
20
14.28425
30
0
11
-57.94
21
26.629
31
0
39
0
210
0
220
0
230
1
0
LINE
5
28B
100
AcDbEntity
8
SK2
62
256
6
ByLayer
370
13
48
1
60
0
100
AcDbLine
10
32.8025
20
21.5325
30
0
11
32.8025
21
26.629
31
0
39
0
210
0
220
0
230
1
0
LINE
5
28C
100
AcDbEntity
8
SK2
62
256
6
ByLayer
370
13
48
1
60
0
100
AcDbLine
10
-57.94
20
23.454
30
0
11
32.8025
21
23.454
31
0
39
0
210
0
220
0
230
1
0
LINE
5
28D
100
AcDbEntity
8
SK2
62
256
6
ByLayer
370
13
48
1
60
0
100
AcDbLine
10
-57.94
20
23.454
30
0
11
-54.765002
21
23.871997
31
0
39
0
210
0
220
0
230
1
0
LINE
5
28E
100
AcDbEntity
8
SK2
62
256
6
ByLayer
370
13
48
1
60
0
100
AcDbLine
10
-57.94
20
23.454
30
0
11
-54.764998
21
23.036003
31
0
39
0
210
0
220
0
230
1
0
LINE
5
28F
100
AcDbEntity
8
SK2
62
256
6
ByLayer
370
13
48
1
60
0
100
AcDbLine
10
-54.765002
20
23.871997
30
0
11
-54.764998
21
23.036003
31
0
39
0
210
0
220
0
230
1
0
LINE
5
290
100
AcDbEntity
8
SK2
62
256
6
ByLayer
370
13
48
1
60
0
100
AcDbLine
10
32.8025
20
23.454
30
0
11
29.627502
21
23.036003
31
0
39
0
210
0
220
0
230
1
0
LINE
5
291
100
AcDbEntity
8
SK2
62
256
6
ByLayer
370
13
48
1
60
0
100
AcDbLine
10
32.8025
20
23.454
30
0
11
29.627498
21
23.871997
31
0
39
0
210
0
220
0
230
1
0
LINE
5
292
100
AcDbEntity
8
SK2
62
256
6
ByLayer
370
13
48
1
60
0
100
AcDbLine
10
29.627502
20
23.036003
30
0
11
29.627498
21
23.871997
31
0
39
0
210
0
220
0
230
1
0
ENDBLK
5
294
100
AcDbEntity
8
0
100
AcDbBlockEnd
0
BLOCK
5
299
100
AcDbEntity
8
0
100
AcDbBlockBegin
2
*D10
70
1
10
0
20
0
30
0
3
*D10
0
LINE
5
29B
100
AcDbEntity
8
0
62
256
6
ByLayer
370
-2
48
1
60
0
100
AcDbLine
10
34.39
20
-19.945
30
0
11
76.2337
21
-19.945
31
0
39
0
210
0
220
0
230
1
0
LINE
5
29C
100
AcDbEntity
8
0
62
256
6
ByLayer
370
-2
48
1
60
0
100
AcDbLine
10
34.39
20
19.945
30
0
11
76.2337
21
19.945
31
0
39
0
210
0
220
0
230
1
0
LINE
5
29D
100
AcDbEntity
8
0
62
256
6
ByLayer
370
-2
48
1
60
0
100
AcDbLine
10
73.0587
20
-16.77
30
0
11
73.0587
21
16.77
31
0
39
0
210
0
220
0
230
1
0
SOLID
5
29E
100
AcDbEntity
8
0
62
256
6
ByLayer
370
-1
48
1
60
0
100
AcDbTrace
10
72.529533
20
-16.77
30
0
11
73.587867
21
-16.77
31
0
12
73.0587
22
-19.945
32
0
13
73.0587
23
-19.945
33
0
39
0
210
0
220
0
230
1
0
SOLID
5
29F
100
AcDbEntity
8
0
62
256
6
ByLayer
370
-1
48
1
60
0
100
AcDbTrace
10
73.587867
20
16.77
30
0
11
72.529533
21
16.77
31
0
12
73.0587
22
19.945
32
0
13
73.0587
23
19.945
33
0
39
0
210
0
220
0
230
1
0
MTEXT
5
2A0
100
AcDbEntity
8
0
62
256
6
ByLayer
370
18
48
1
60
0
100
AcDbMText
10
63.66495
20
0
30
0
210
0
220
0
230
1
1
\A1;39.89
40
4.5
41
0
44
1
50
90
71
5
72
5
7
iso_b_vert
0
POINT
5
2A1
100
AcDbEntity
8
Defpoints
62
0
6
ByLayer
370
-1
48
1
60
0
100
AcDbPoint
10
32.8025
20
-19.945
30
0
39
0
210
0
220
0
230
1
50
360
0
POINT
5
2A2
100
AcDbEntity
8
Defpoints
62
0
6
ByLayer
370
-1
48
1
60
0
100
AcDbPoint
10
32.8025
20
19.945
30
0
39
0
210
0
220
0
230
1
50
360
0
POINT
5
2A3
100
AcDbEntity
8
Defpoints
62
0
6
ByLayer
370
-1
48
1
60
0
100
AcDbPoint
10
73.0587
20
19.945
30
0
39
0
210
0
220
0
230
1
50
360
0
ENDBLK
5
29A
100
AcDbEntity
8
0
100
AcDbBlockEnd
0
BLOCK
5
2B0
100
AcDbEntity
8
0
100
AcDbBlockBegin
2
_U4
70
0
10
0
20
0
30
0
3
_U4
0
MTEXT
5
2A5
100
AcDbEntity
8
SK2
62
256
6
ByLayer
370
18
48
1
60
0
100
AcDbMText
10
70.976854
20
-12.860297
30
0
210
0
220
0
230
1
1
%%c
40
3.175
41
0
44
1.084337
50
90
71
7
72
5
7
iso_b_vert
0
MTEXT
5
2A6
100
AcDbEntity
8
SK2
62
256
6
ByLayer
370
18
48
1
60
0
100
AcDbMText
10
71.378278
20
-3.275672
30
0
210
0
220
0
230
1
1
\W0.8928;39.89
40
4.5
41
0
44
1.084337
50
90
71
7
72
5
7
iso_b_vert
0
LINE
5
2A7
100
AcDbEntity
8
SK2
62
256
6
ByLayer
370
13
48
1
60
0
100
AcDbLine
10
34.39
20
-19.945
30
0
11
76.2337
21
-19.945
31
0
39
0
210
0
220
0
230
1
0
LINE
5
2A8
100
AcDbEntity
8
SK2
62
256
6
ByLayer
370
13
48
1
60
0
100
AcDbLine
10
34.39
20
19.945
30
0
11
76.2337
21
19.945
31
0
39
0
210
0
220
0
230
1
0
LINE
5
2A9
100
AcDbEntity
8
SK2
62
256
6
ByLayer
370
13
48
1
60
0
100
AcDbLine
10
73.0587
20
-19.945
30
0
11
73.0587
21
19.945
31
0
39
0
210
0
220
0
230
1
0
LINE
5
2AA
100
AcDbEntity
8
SK2
62
256
6
ByLayer
370
13
48
1
60
0
100
AcDbLine
10
73.0587
20
-19.945
30
0
11
72.640703
21
-16.770002
31
0
39
0
210
0
220
0
230
1
0
LINE
5
2AB
100
AcDbEntity
8
SK2
62
256
6
ByLayer
370
13
48
1
60
0
100
AcDbLine
10
73.0587
20
-19.945
30
0
11
73.476697
21
-16.769998
31
0
39
0
210
0
220
0
230
1
0
LINE
5
2AC
100
AcDbEntity
8
SK2
62
256
6
ByLayer
370
13
48
1
60
0
100
AcDbLine
10
72.640703
20
-16.770002
30
0
11
73.476697
21
-16.769998
31
0
39
0
210
0
220
0
230
1
0
LINE
5
2AD
100
AcDbEntity
8
SK2
62
256
6
ByLayer
370
13
48
1
60
0
100
AcDbLine
10
73.0587
20
19.945
30
0
11
73.476697
21
16.770002
31
0
39
0
210
0
220
0
230
1
0
LINE
5
2AE
100
AcDbEntity
8
SK2
62
256
6
ByLayer
370
13
48
1
60
0
100
AcDbLine
10
73.0587
20
19.945
30
0
11
72.640703
21
16.769998
31
0
39
0
210
0
220
0
230
1
0
LINE
5
2AF
100
AcDbEntity
8
SK2
62
256
6
ByLayer
370
13
48
1
60
0
100
AcDbLine
10
73.476697
20
16.770002
30
0
11
72.640703
21
16.769998
31
0
39
0
210
0
220
0
230
1
0
ENDBLK
5
2B1
100
AcDbEntity
8
0
100
AcDbBlockEnd
0
BLOCK
5
2B6
100
AcDbEntity
8
0
100
AcDbBlockBegin
2
*D12
70
1
10
0
20
0
30
0
3
*D12
0
LINE
5
2B8
100
AcDbEntity
8
0
62
256
6
ByLayer
370
-2
48
1
60
0
100
AcDbLine
10
-59.5275
20
12.69675
30
0
11
-86.218125
21
12.69675
31
0
39
0
210
0
220
0
230
1
0
LINE
5
2B9
100
AcDbEntity
8
0
62
256
6
ByLayer
370
-2
48
1
60
0
100
AcDbLine
10
-59.5275
20
-12.69675
30
0
11
-86.218125
21
-12.69675
31
0
39
0
210
0
220
0
230
1
0
LINE
5
2BA
100
AcDbEntity
8
0
62
256
6
ByLayer
370
-2
48
1
60
0
100
AcDbLine
10
-83.043125
20
12.69675
30
0
11
-83.043125
21
52.849029
31
0
39
0
210
0
220
0
230
1
0
LINE
5
2BB
100
AcDbEntity
8
0
62
256
6
ByLayer
370
-2
48
1
60
0
100
AcDbLine
10
-83.043125
20
9.52175
30
0
11
-83.043125
21
-9.52175
31
0
39
0
210
0
220
0
230
1
0
SOLID
5
2BC
100
AcDbEntity
8
0
62
256
6
ByLayer
370
-1
48
1
60
0
100
AcDbTrace
10
-82.513958
20
9.52175
30
0
11
-83.572292
21
9.52175
31
0
12
-83.043125
22
12.69675
32
0
13
-83.043125
23
12.69675
33
0
39
0
210
0
220
0
230
1
0
SOLID
5
2BD
100
AcDbEntity
8
0
62
256
6
ByLayer
370
-1
48
1
60
0
100
AcDbTrace
10
-83.572292
20
-9.52175
30
0
11
-82.513958
21
-9.52175
31
0
12
-83.043125
22
-12.69675
32
0
13
-83.043125
23
-12.69675
33
0
39
0
210
0
220
0
230
1
0
MTEXT
5
2BE
100
AcDbEntity
8
0
62
256
6
ByLayer
370
18
48
1
60
0
100
AcDbMText
10
-92.436875
20
36.812422
30
0
210
0
220
0
230
1
1
\A1;25.39
40
4.5
41
0
44
1
50
90
71
5
72
5
7
iso_b_vert
0
POINT
5
2BF
100
AcDbEntity
8
Defpoints
62
0
6
ByLayer
370
-1
48
1
60
0
100
AcDbPoint
10
-57.94
20
12.69675
30
0
39
0
210
0
220
0
230
1
50
360
0
POINT
5
2C0
100
AcDbEntity
8
Defpoints
62
0
6
ByLayer
370
-1
48
1
60
0
100
AcDbPoint
10
-57.94
20
-12.69675
30
0
39
0
210
0
220
0
230
1
50
360
0
POINT
5
2C1
100
AcDbEntity
8
Defpoints
62
0
6
ByLayer
370
-1
48
1
60
0
100
AcDbPoint
10
-83.043125
20
-12.69675
30
0
39
0
210
0
220
0
230
1
50
360
0
ENDBLK
5
2B7
100
AcDbEntity
8
0
100
AcDbBlockEnd
0
BLOCK
5
2CE
100
AcDbEntity
8
0
100
AcDbBlockBegin
2
_U5
70
0
10
0
20
0
30
0
3
_U5
0
MTEXT
5
2C3
100
AcDbEntity
8
SK2
62
256
6
ByLayer
370
18
48
1
60
0
100
AcDbMText
10
-85.124971
20
23.952125
30
0
210
0
220
0
230
1
1
%%c
40
3.175
41
0
44
1.084337
50
90
71
7
72
5
7
iso_b_vert
0
MTEXT
5
2C4
100
AcDbEntity
8
SK2
62
256
6
ByLayer
370
18
48
1
60
0
100
AcDbMText
10
-84.723547
20
33.53675
30
0
210
0
220
0
230
1
1
\W0.8928;25.39
40
4.5
41
0
44
1.084337
50
90
71
7
72
5
7
iso_b_vert
0
LINE
5
2C5
100
AcDbEntity
8
SK2
62
256
6
ByLayer
370
13
48
1
60
0
100
AcDbLine
10
-59.5275
20
12.69675
30
0
11
-86.218125
21
12.69675
31
0
39
0
210
0
220
0
230
1
0
LINE
5
2C6
100
AcDbEntity
8
SK2
62
256
6
ByLayer
370
13
48
1
60
0
100
AcDbLine
10
-59.5275
20
-12.69675
30
0
11
-86.218125
21
-12.69675
31
0
39
0
210
0
220
0
230
1
0
LINE
5
2C7
100
AcDbEntity
8
SK2
62
256
6
ByLayer
370
13
48
1
60
0
100
AcDbLine
10
-83.043125
20
-12.69675
30
0
11
-83.043125
21
49.815594
31
0
39
0
210
0
220
0
230
1
0
LINE
5
2C8
100
AcDbEntity
8
SK2
62
256
6
ByLayer
370
13
48
1
60
0
100
AcDbLine
10
-83.043125
20
12.69675
30
0
11
-82.625128
21
9.521752
31
0
39
0
210
0
220
0
230
1
0
LINE
5
2C9
100
AcDbEntity
8
SK2
62
256
6
ByLayer
370
13
48
1
60
0
100
AcDbLine
10
-83.043125
20
12.69675
30
0
11
-83.461122
21
9.521748
31
0
39
0
210
0
220
0
230
1
0
LINE
5
2CA
100
AcDbEntity
8
SK2
62
256
6
ByLayer
370
13
48
1
60
0
100
AcDbLine
10
-82.625128
20
9.521752
30
0
11
-83.461122
21
9.521748
31
0
39
0
210
0
220
0
230
1
0
LINE
5
2CB
100
AcDbEntity
8
SK2
62
256
6
ByLayer
370
13
48
1
60
0
100
AcDbLine
10
-83.043125
20
-12.69675
30
0
11
-83.461122
21
-9.521752
31
0
39
0
210
0
220
0
230
1
0
LINE
5
2CC
100
AcDbEntity
8
SK2
62
256
6
ByLayer
370
13
48
1
60
0
100
AcDbLine
10
-83.043125
20
-12.69675
30
0
11
-82.625128
21
-9.521748
31
0
39
0
210
0
220
0
230
1
0
LINE
5
2CD
100
AcDbEntity
8
SK2
62
256
6
ByLayer
370
13
48
1
60
0
100
AcDbLine
10
-83.461122
20
-9.521752
30
0
11
-82.625128
21
-9.521748
31
0
39
0
210
0
220
0
230
1
0
ENDBLK
5
2CF
100
AcDbEntity
8
0
100
AcDbBlockEnd
0
ENDSEC
0
SECTION
2
ENTITIES
0
ARC
5
E4
100
AcDbEntity
8
1
62
256
6
ByLayer
370
18
48
1
60
0
100
AcDbCircle
39
0
10
31.454406
20
14.093935
30
0
40
1.28905
210
0
220
0
230
1
100
AcDbArc
50
210
51
270
0
ARC
5
E5
100
AcDbEntity
8
1
62
256
6
ByLayer
370
18
48
1
60
0
100
AcDbCircle
39
0
10
31.454406
20
14.093935
30
0
40
1.28905
210
0
220
0
230
1
100
AcDbArc
50
270
51
330
0
ARC
5
E6
100
AcDbEntity
8
1
62
256
6
ByLayer
370
18
48
1
60
0
100
AcDbCircle
39
0
10
31.454406
20
14.093935
30
0
40
1.28905
210
0
220
0
230
1
100
AcDbArc
50
90
51
150
0
ARC
5
E7
100
AcDbEntity
8
1
62
256
6
ByLayer
370
18
48
1
60
0
100
AcDbCircle
39
0
10
31.454406
20
14.093935
30
0
40
1.28905
210
0
220
0
230
1
100
AcDbArc
50
150
51
210
0
ARC
5
E8
100
AcDbEntity
8
1
62
256
6
ByLayer
370
18
48
1
60
0
100
AcDbCircle
39
0
10
31.454406
20
14.093935
30
0
40
1.28905
210
0
220
0
230
1
100
AcDbArc
50
330
51
30
0
ARC
5
E9
100
AcDbEntity
8
1
62
256
6
ByLayer
370
18
48
1
60
0
100
AcDbCircle
39
0
10
31.454406
20
14.093935
30
0
40
1.28905
210
0
220
0
230
1
100
AcDbArc
50
30
51
90
0
ARC
5
EA
100
AcDbEntity
8
1
62
256
6
ByLayer
370
18
48
1
60
0
100
AcDbCircle
39
0
10
31.454406
20
14.093935
30
0
40
0.9944
210
0
220
0
230
1
100
AcDbArc
50
360
51
60
0
ARC
5
EB
100
AcDbEntity
8
1
62
256
6
ByLayer
370
18
48
1
60
0
100
AcDbCircle
39
0
10
31.454406
20
14.093935
30
0
40
0.9944
210
0
220
0
230
1
100
AcDbArc
50
60
51
120
0
ARC
5
EC
100
AcDbEntity
8
1
62
256
6
ByLayer
370
18
48
1
60
0
100
AcDbCircle
39
0
10
31.454406
20
14.093935
30
0
40
0.9944
210
0
220
0
230
1
100
AcDbArc
50
240
51
300
0
ARC
5
ED
100
AcDbEntity
8
1
62
256
6
ByLayer
370
18
48
1
60
0
100
AcDbCircle
39
0
10
31.454406
20
14.093935
30
0
40
0.9944
210
0
220
0
230
1
100
AcDbArc
50
120
51
180
0
ARC
5
EE
100
AcDbEntity
8
1
62
256
6
ByLayer
370
18
48
1
60
0
100
AcDbCircle
39
0
10
31.454406
20
14.093935
30
0
40
0.9944
210
0
220
0
230
1
100
AcDbArc
50
300
51
360
0
ARC
5
EF
100
AcDbEntity
8
1
62
256
6
ByLayer
370
18
48
1
60
0
100
AcDbCircle
39
0
10
31.454406
20
14.093935
30
0
40
0.9944
210
0
220
0
230
1
100
AcDbArc
50
180
51
240
0
ARC
5
F5
100
AcDbEntity
8
1
62
256
6
ByLayer
370
18
48
1
60
0
100
AcDbCircle
39
0
10
31.454406
20
-14.093935
30
0
40
1.5
210
0
220
0
230
1
100
AcDbArc
50
82.468159
51
127.535644
0
ARC
5
F6
100
AcDbEntity
8
1
62
256
6
ByLayer
370
13
48
1
60
0
100
AcDbCircle
39
0
10
31.402642
20
-13.900749
30
0
40
1.99999999999331
210
0
220
0
230
1
100
AcDbArc
50
60
51
88.51691
0
ARC
5
F8
100
AcDbEntity
8
1
62
256
6
ByLayer
370
13
48
1
60
0
100
AcDbCircle
39
0
10
31.402642
20
-13.900749
30
0
40
1.5
210
0
220
0
230
1
100
AcDbArc
50
60
51
150
0
ARC
5
FA
100
AcDbEntity
8
1
62
256
6
ByLayer
370
13
48
1
60
0
100
AcDbCircle
39
0
10
36.782867
20
12.39682
30
0
40
1
210
0
220
0
230
1
100
AcDbArc
50
231.772886
51
270
0
ARC
5
FB
100
AcDbEntity
8
1
62
256
6
ByLayer
370
13
48
1
60
0
100
AcDbCircle
39
0
10
27.576907
20
13.00996
30
0
40
1
210
0
220
0
230
1
100
AcDbArc
50
157.399728
51
262.392066
0
ARC
5
FC
100
AcDbEntity
8
1
62
256
6
ByLayer
370
13
48
1
60
0
100
AcDbCircle
39
0
10
31.454406
20
20.593935
30
0
40
12
210
0
220
0
230
1
100
AcDbArc
50
205.538
51
233.073005
0
ARC
5
FD
100
AcDbEntity
8
1
62
256
6
ByLayer
370
13
48
1
60
0
100
AcDbCircle
39
0
10
16.515807
20
14.928723
30
0
40
0.5
210
0
220
0
230
1
100
AcDbArc
50
90
51
135
0
ARC
5
FE
100
AcDbEntity
8
1
62
256
6
ByLayer
370
13
48
1
60
0
100
AcDbCircle
39
0
10
16.515807
20
-14.928723
30
0
40
0.5
210
0
220
0
230
1
100
AcDbArc
50
225
51
270
0
ARC
5
FF
100
AcDbEntity
8
SK2
62
256
6
ByLayer
370
13
48
1
60
0
100
AcDbCircle
39
0
10
37.3087
20
12.954
30
0
40
13.8062786617051
210
0
220
0
230
1
100
AcDbArc
50
90
51
120
0
ARC
5
100
100
AcDbEntity
8
SK2
62
256
6
ByLayer
370
13
48
1
60
0
100
AcDbCircle
39
0
10
37.3087
20
12.954
30
0
40
13.8062786617051
210
0
220
0
230
1
100
AcDbArc
50
29.504646
51
90
0
CIRCLE
5
E3
100
AcDbEntity
8
1
62
256
6
ByLayer
370
18
48
1
60
0
100
AcDbCircle
10
31.454406
20
-14.093935
30
0
40
1.2
39
0
210
0
220
0
230
1
0
CIRCLE
5
F0
100
AcDbEntity
8
1
62
256
6
ByLayer
370
18
48
1
60
0
100
AcDbCircle
10
31.454406
20
14.093935
30
0
40
1.4
39
0
210
0
220
0
230
1
0
CIRCLE
5
F1
100
AcDbEntity
8
1
62
256
6
ByLayer
370
18
48
1
60
0
100
AcDbCircle
10
31.454406
20
14.093935
30
0
40
2.1
39
0
210
0
220
0
230
1
0
CIRCLE
5
F2
100
AcDbEntity
8
1
62
256
6
ByLayer
370
18
48
1
60
0
100
AcDbCircle
10
31.454406
20
14.093935
30
0
40
2.15037854103613
39
0
210
0
220
0
230
1
0
CIRCLE
5
F3
100
AcDbEntity
8
1
62
256
6
ByLayer
370
18
48
1
60
0
100
AcDbCircle
10
31.454406
20
14.093935
30
0
40
2.26175520142507
39
0
210
0
220
0
230
1
0
CIRCLE
5
F4
100
AcDbEntity
8
1
62
256
6
ByLayer
370
18
48
1
60
0
100
AcDbCircle
10
31.454406
20
14.093935
30
0
40
2.30803925391311
39
0
210
0
220
0
230
1
0
CIRCLE
5
F7
100
AcDbEntity
8
1
62
256
6
ByLayer
370
13
48
1
60
0
100
AcDbCircle
10
31.402642
20
-13.900749
30
0
40
1.4
39
0
210
0
220
0
230
1
0
CIRCLE
5
F9
100
AcDbEntity
8
1
62
256
6
ByLayer
370
13
48
1
60
0
100
AcDbCircle
10
31.402642
20
-13.900749
30
0
40
1.3175
39
0
210
0
220
0
230
1
0
ELLIPSE
5
101
100
AcDbEntity
8
1
62
256
6
ByLayer
370
13
48
1
60
0
100
AcDbEllipse
10
93317.021056
20
-50253.888621
30
0
11
93296.8332197436
21
-50265.970306692
31
0
210
0
220
0
230
1
40
0.003136
41
-3.12790647264215
42
-3.1278455594895
0
ELLIPSE
5
102
100
AcDbEntity
8
1
62
256
6
ByLayer
370
13
48
1
60
0
100
AcDbEllipse
10
26.031171
20
2.306229
30
0
11
1.24299247241115
21
-0.132173043882736
31
0
210
0
220
0
230
1
40
0.060935
41
1.65812555589794
42
2.30505389071743
0
ELLIPSE
5
103
100
AcDbEntity
8
1
62
256
6
ByLayer
370
13
48
1
60
0
100
AcDbEllipse
10
33.618889
20
0.069008
30
0
11
9.06573170435842
21
15.4680782947488
31
0
210
0
220
0
230
1
40
0.105699
41
-3.04738188649199
42
-3.04586258905789
0
ELLIPSE
5
104
100
AcDbEntity
8
1
62
256
6
ByLayer
370
13
48
1
60
0
100
AcDbEllipse
10
30.103604
20
7.81
30
0
11
3.06151588455594E-17
21
0.5
31
0
210
0
220
0
230
1
40
0.866025
41
1.5707963267949
42
3.14159265358979
0
ELLIPSE
5
105
100
AcDbEntity
8
1
62
256
6
ByLayer
370
13
48
1
60
0
100
AcDbEllipse
10
31.402642
20
9.846153
30
0
11
1.99999999999087
21
2.34291072915435E-15
31
0
210
0
220
0
230
1
40
0.267949
41
-1.5449115318153
42
-1.04719755119429
0
ELLIPSE
5
106
100
AcDbEntity
8
1
62
256
6
ByLayer
370
13
48
1
60
0
100
AcDbEllipse
10
41.765033
20
0
30
0
11
1.41837848693292E-15
21
23.1646436016883
31
0
210
0
220
0
230
1
40
0.611198
41
1.11994952591877
42
1.22690646587937
0
ELLIPSE
5
107
100
AcDbEntity
8
1
62
256
6
ByLayer
370
13
48
1
60
0
100
AcDbEllipse
10
26.031171
20
16.158981
30
0
11
-0.624999999999999
21
1.08253175473055
31
0
210
0
220
0
230
1
40
0.819152
41
2.1221839914829
42
2.25412085928726
0
ELLIPSE
5
108
100
AcDbEntity
8
1
62
256
6
ByLayer
370
13
48
1
60
0
100
AcDbEllipse
10
32.152642
20
7.81
30
0
11
3.06151588455594E-17
21
0.5
31
0
210
0
220
0
230
1
40
0.5
41
3.14159265358979
42
-1.5707963267949
0
ELLIPSE
5
109
100
AcDbEntity
8
1
62
256
6
ByLayer
370
13
48
1
60
0
100
AcDbEllipse
10
26.031171
20
2.306229
30
0
11
1.06883764159109
21
-0.648140490879862
31
0
210
0
220
0
230
1
40
0.286788
41
2.01650381892767
42
2.14844068673648
0
ELLIPSE
5
10A
100
AcDbEntity
8
1
62
256
6
ByLayer
370
13
48
1
60
0
100
AcDbEllipse
10
33.712277
20
-0.232089
30
0
11
9.15911011003106
21
-15.6311671593557
31
0
210
0
220
0
230
1
40
0.105157
41
3.04637069829762
42
3.0478820602713
0
ELLIPSE
5
10B
100
AcDbEntity
8
1
62
256
6
ByLayer
370
13
48
1
60
0
100
AcDbEllipse
10
26.050215
20
2.337635
30
0
11
1.06883764159109
21
-0.648140490879862
31
0
210
0
220
0
230
1
40
0.286788
41
2.03969274784084
42
2.13096455228916
0
ELLIPSE
5
141
100
AcDbEntity
8
SK1
62
256
6
ByLayer
370
13
48
1
60
0
100
AcDbEllipse
10
-33.204946
20
0
30
0
11
12.9203066667186
21
1.51355625567789E-14
31
0
210
0
220
0
230
1
40
0.982697
41
-0.582453993601122
42
0.582453993601119
0
ELLIPSE
5
142
100
AcDbEntity
8
SK1
62
256
6
ByLayer
370
13
48
1
60
0
100
AcDbEllipse
10
-24.730054
20
0
30
0
11
12.9203066667189
21
1.51355625567792E-14
31
0
210
0
220
0
230
1
40
0.982697
41
2.55913865998868
42
-2.55913865998868
0
ELLIPSE
5
143
100
AcDbEntity
8
SK1
62
256
6
ByLayer
370
13
48
1
60
0
100
AcDbEllipse
10
-56.029946
20
0
30
0
11
12.9203066667189
21
1.51355625567792E-14
31
0
210
0
220
0
230
1
40
0.982697
41
-0.582453993601119
42
0.582453993601116
0
ELLIPSE
5
144
100
AcDbEntity
8
1
62
256
6
ByLayer
370
13
48
1
60
0
100
AcDbEllipse
10
29.540304
20
9.409256
30
0
11
-1.4488887394336
21
0.388228567653783
31
0
210
0
220
0
230
1
40
0.707107
41
-0.553697627124474
42
-0.346336473848728
0
ELLIPSE
5
145
100
AcDbEntity
8
1
62
256
6
ByLayer
370
13
48
1
60
0
100
AcDbEllipse
10
26.031171
20
16.158981
30
0
11
-0.624999999999999
21
1.08253175473055
31
0
210
0
220
0
230
1
40
0.992546
41
1.88696993957622
42
2.38419484049514
0
ELLIPSE
5
146
100
AcDbEntity
8
1
62
256
6
ByLayer
370
13
48
1
60
0
100
AcDbEllipse
10
25.839106
20
16.048092
30
0
11
1.09066137926224
21
0.629693640911781
31
0
210
-3.69778549322349E-32
220
1.0842021724855E-16
230
1
40
0.992546
41
3.14159265358979
42
-2.09136601126692
0
POINT
5
70
100
AcDbEntity
8
81
62
256
6
ByLayer
370
18
48
1
60
0
100
AcDbPoint
10
37.3087
20
12.954
30
0
39
0
210
0
220
0
230
1
50
360
0
POINT
5
72
100
AcDbEntity
8
80
62
256
6
ByLayer
370
18
48
1
60
0
100
AcDbPoint
10
0
20
0
30
0
39
0
210
0
220
0
230
1
50
360
0
POINT
5
74
100
AcDbEntity
8
1
62
256
6
ByLayer
370
18
48
1
60
1
100
AcDbPoint
10
37.3087
20
-12.954
30
0
39
0
210
0
220
0
230
1
50
360
0
POINT
5
76
100
AcDbEntity
8
1
62
256
6
ByLayer
370
18
48
1
60
1
100
AcDbPoint
10
37.3087
20
12.954
30
0
39
0
210
0
220
0
230
1
50
360
0
POINT
5
77
100
AcDbEntity
8
1
62
256
6
ByLayer
370
18
48
1
60
1
100
AcDbPoint
10
37.3087
20
-12.954
30
0
39
0
210
0
220
0
230
1
50
360
0
POINT
5
78
100
AcDbEntity
8
1
62
256
6
ByLayer
370
18
48
1
60
1
100
AcDbPoint
10
-0.0013
20
0
30
0
39
0
210
0
220
0
230
1
50
360
0
POINT
5
79
100
AcDbEntity
8
1
62
256
6
ByLayer
370
18
48
1
60
1
100
AcDbPoint
10
-57.94
20
12.69675
30
0
39
0
210
0
220
0
230
1
50
360
0
POINT
5
7A
100
AcDbEntity
8
1
62
256
6
ByLayer
370
18
48
1
60
1
100
AcDbPoint
10
37.3087
20
12.954
30
0
39
0
210
0
220
0
230
1
50
360
0
POINT
5
7B
100
AcDbEntity
8
1
62
256
6
ByLayer
370
18
48
1
60
1
100
AcDbPoint
10
-57.94
20
12.69675
30
0
39
0
210
0
220
0
230
1
50
360
0
POINT
5
7C
100
AcDbEntity
8
1
62
256
6
ByLayer
370
18
48
1
60
1
100
AcDbPoint
10
32.8025
20
19.945
30
0
39
0
210
0
220
0
230
1
50
360
0
POINT
5
7D
100
AcDbEntity
8
1
62
256
6
ByLayer
370
18
48
1
60
1
100
AcDbPoint
10
32.8025
20
-19.945
30
0
39
0
210
0
220
0
230
1
50
360
0
POINT
5
7E
100
AcDbEntity
8
1
62
256
6
ByLayer
370
18
48
1
60
1
100
AcDbPoint
10
32.8025
20
19.945
30
0
39
0
210
0
220
0
230
1
50
360
0
POINT
5
7F
100
AcDbEntity
8
1
62
256
6
ByLayer
370
18
48
1
60
1
100
AcDbPoint
10
-57.94
20
12.69675
30
0
39
0
210
0
220
0
230
1
50
360
0
POINT
5
80
100
AcDbEntity
8
1
62
256
6
ByLayer
370
18
48
1
60
1
100
AcDbPoint
10
-57.94
20
-12.69675
30
0
39
0
210
0
220
0
230
1
50
360
0
SPLINE
5
147
100
AcDbEntity
8
1
62
256
6
ByLayer
370
18
48
1
60
0
100
AcDbSpline
70
4
71
3
72
8
73
4
40
0
40
0
40
0
40
0
40
1
40
1
40
1
40
1
41
1
10
26.0001120119918
20
-8.53E-14
30
0
41
1
10
27.0682100099938
20
-8.53E-14
30
0
41
1
10
28.1363080079672
20
-1.137E-13
30
0
41
1
10
29.2044060059976
20
-1.137E-13
30
0
0
SPLINE
5
148
100
AcDbEntity
8
1
62
256
6
ByLayer
370
18
48
1
60
0
100
AcDbSpline
70
4
71
3
72
8
73
4
40
0
40
0
40
0
40
0
40
1
40
1
40
1
40
1
41
1
10
33.5015203230275
20
-1.137E-13
30
0
41
1
10
33.2977877316419
20
-0.0666666666667766
30
0
41
1
10
33.0940551402563
20
-0.133333333333439
30
0
41
1
10
32.8903225488706
20
-0.200000000000102
30
0
0
SPLINE
5
149
100
AcDbEntity
8
1
62
256
6
ByLayer
370
18
48
1
60
0
100
AcDbSpline
70
4
71
3
72
8
73
4
40
0
40
0
40
0
40
0
40
1
40
1
40
1
40
1
41
1
10
32.4086999999985
20
1.3927E-12
30
0
41
1
10
32.3374906964071
20
1.10333333333489
30
0
41
1
10
32.2662813928167
20
2.20666666666838
30
0
41
1
10
32.1950720892263
20
3.31000000000188
30
0
0
SPLINE
5
14A
100
AcDbEntity
8
1
62
256
6
ByLayer
370
18
48
1
60
0
100
AcDbSpline
70
4
71
3
72
10
73
6
40
0
40
0
40
0
40
0
40
0.375000000000406
40
0.750000000000812
40
1
40
1
40
1
40
1
41
1
10
33.9129356157611
20
-0.200000000000102
30
0
41
1
10
33.8173988580955
20
-0.200000000000102
30
0
41
1
10
33.5986549863735
20
-0.200000000000102
30
0
41
1
10
33.2429348191262
20
-0.200000000000102
30
0
41
1
10
32.9935935497475
20
-0.200000000000102
30
0
41
1
10
32.890322548872
20
-0.200000000000102
30
0
0
SPLINE
5
14B
100
AcDbEntity
8
1
62
256
6
ByLayer
370
18
48
1
60
0
100
AcDbSpline
70
4
71
3
72
8
73
4
40
0
40
0
40
0
40
0
40
1
40
1
40
1
40
1
41
1
10
29.4962271590701
20
3.30999999999989
30
0
41
1
10
28.5966121823383
20
3.30999999999989
30
0
41
1
10
27.6969972056298
20
3.30999999999989
30
0
41
1
10
26.797382228915
20
3.30999999999992
30
0
0
SPLINE
5
14C
100
AcDbEntity
8
1
62
256
6
ByLayer
370
18
48
1
60
0
100
AcDbSpline
70
4
71
3
72
8
73
4
40
0
40
0
40
0
40
0
40
1
40
1
40
1
40
1
41
1
10
26.7973822289158
20
3.31000000000208
30
0
41
1
10
26.5316254899441
20
2.20666666666858
30
0
41
1
10
26.2658687509723
20
1.10333333333511
30
0
41
1
10
26.0001120119996
20
1.62E-12
30
0
0
SPLINE
5
14D
100
AcDbEntity
8
1
62
256
6
ByLayer
370
18
48
1
60
0
100
AcDbSpline
70
4
71
3
72
8
73
4
40
0
40
0
40
0
40
0
40
1
40
1
40
1
40
1
41
1
10
37.2015203230294
20
-1.137E-13
30
0
41
1
10
36.2544878103354
20
-0.0666666666667766
30
0
41
1
10
35.3074552976414
20
-0.133333333333439
30
0
41
1
10
34.3604227849475
20
-0.200000000000102
30
0
0
SPLINE
5
14E
100
AcDbEntity
8
1
62
256
6
ByLayer
370
18
48
1
60
0
100
AcDbSpline
70
4
71
3
72
8
73
4
40
0
40
0
40
0
40
0
40
1
40
1
40
1
40
1
41
1
10
32.1950720892268
20
3.30999999999989
30
0
41
1
10
31.2954571125114
20
3.30999999999989
30
0
41
1
10
30.3958421358024
20
3.30999999999989
30
0
41
1
10
29.4962271590701
20
3.30999999999989
30
0
0
SPLINE
5
14F
100
AcDbEntity
8
1
62
256
6
ByLayer
370
18
48
1
60
0
100
AcDbSpline
70
4
71
3
72
8
73
4
40
0
40
0
40
0
40
0
40
1
40
1
40
1
40
1
41
1
10
33.5015203230256
20
-1.137E-13
30
0
41
1
10
34.118186989693
20
-1.137E-13
30
0
41
1
10
34.7348536563438
20
-1.137E-13
30
0
41
1
10
35.3515203230276
20
-1.137E-13
30
0
0
SPLINE
5
150
100
AcDbEntity
8
1
62
256
6
ByLayer
370
18
48
1
60
0
100
AcDbSpline
70
4
71
3
72
8
73
4
40
0
40
0
40
0
40
0
40
1
40
1
40
1
40
1
41
1
10
29.2044060059976
20
-1.137E-13
30
0
41
1
10
30.272504004028
20
-1.137E-13
30
0
41
1
10
31.3406020020012
20
-1.137E-13
30
0
41
1
10
32.4087000000033
20
-1.137E-13
30
0
0
SPLINE
5
151
100
AcDbEntity
8
1
62
256
6
ByLayer
370
18
48
1
60
0
100
AcDbSpline
70
4
71
3
72
8
73
4
40
0
40
0
40
0
40
0
40
1
40
1
40
1
40
1
41
1
10
26.0001120119952
20
-8.53E-14
30
0
41
1
10
26.976025897784
20
-0.0666666666667766
30
0
41
1
10
27.9519397835728
20
-0.133333333333439
30
0
41
1
10
28.9278536693617
20
-0.200000000000102
30
0
0
SPLINE
5
152
100
AcDbEntity
8
1
62
256
6
ByLayer
370
18
48
1
60
0
100
AcDbSpline
70
4
71
3
72
8
73
4
40
0
40
0
40
0
40
0
40
1
40
1
40
1
40
1
41
1
10
37.2015203230263
20
1.4211E-12
30
0
41
1
10
36.9357635840535
20
1.10333333333492
30
0
41
1
10
36.6700068450812
20
2.20666666666841
30
0
41
1
10
36.404250106109
20
3.31000000000191
30
0
0
SPLINE
5
153
100
AcDbEntity
8
1
62
256
6
ByLayer
370
18
48
1
60
0
100
AcDbSpline
70
4
71
3
72
8
73
4
40
0
40
0
40
0
40
0
40
1
40
1
40
1
40
1
41
1
10
33.9129356157611
20
-0.200000000000102
30
0
41
1
10
34.3924638515165
20
-0.133333333333439
30
0
41
1
10
34.871992087272
20
-0.0666666666667766
30
0
41
1
10
35.3515203230276
20
-1.137E-13
30
0
0
SPLINE
5
154
100
AcDbEntity
8
1
62
256
6
ByLayer
370
18
48
1
60
0
100
AcDbSpline
70
4
71
3
72
8
73
4
40
0
40
0
40
0
40
0
40
1
40
1
40
1
40
1
41
1
10
35.3515203230276
20
-1.137E-13
30
0
41
1
10
35.9681869897113
20
-1.137E-13
30
0
41
1
10
36.584853656362
20
-1.137E-13
30
0
41
1
10
37.2015203230294
20
-1.137E-13
30
0
0
SPLINE
5
155
100
AcDbEntity
8
1
62
256
6
ByLayer
370
18
48
1
60
0
100
AcDbSpline
70
4
71
3
72
10
73
6
40
0
40
0
40
0
40
0
40
0.375000000000406
40
0.750000000000812
40
1
40
1
40
1
40
1
41
1
10
30.0349732740029
20
-0.200000000000102
30
0
41
1
10
29.8694987557329
20
-0.200000000000102
30
0
41
1
10
29.554528775166
20
-0.200000000000102
30
0
41
1
10
29.1907475535333
20
-0.200000000000102
30
0
41
1
10
28.9985924706293
20
-0.200000000000102
30
0
41
1
10
28.9278536693626
20
-0.200000000000102
30
0
0
SPLINE
5
156
100
AcDbEntity
8
1
62
256
6
ByLayer
370
18
48
1
60
0
100
AcDbSpline
70
4
71
3
72
10
73
6
40
0
40
0
40
0
40
0
40
0.249999999999984
40
0.624999999999992
40
1
40
1
40
1
40
1
41
1
10
31.4741419704884
20
-0.200000000000102
30
0
41
1
10
31.3493372596216
20
-0.200000000000102
30
0
41
1
10
31.0373238446736
20
-0.200000000000102
30
0
41
1
10
30.5473705323856
20
-0.200000000000102
30
0
41
1
10
30.2004477922626
20
-0.200000000000102
30
0
41
1
10
30.0349732739932
20
-0.200000000000102
30
0
0
SPLINE
5
157
100
AcDbEntity
8
1
62
256
6
ByLayer
370
18
48
1
60
0
100
AcDbSpline
70
4
71
3
72
8
73
4
40
0
40
0
40
0
40
0
40
1
40
1
40
1
40
1
41
1
10
33.2878924122565
20
3.31000000000205
30
0
41
1
10
33.3591017158478
20
2.20666666666855
30
0
41
1
10
33.4303110194391
20
1.10333333333509
30
0
41
1
10
33.5015203230298
20
1.62E-12
30
0
0
SPLINE
5
158
100
AcDbEntity
8
1
62
256
6
ByLayer
370
18
48
1
60
0
100
AcDbSpline
70
4
71
3
72
29
73
25
40
0
40
0
40
0
40
0
40
0.125000000000945
40
0.171875000000894
40
0.218750000000842
40
0.242187500000816
40
0.26562500000079
40
0.277343750000777
40
0.289062500000764
40
0.312500000000738
40
0.359375000000687
40
0.406250000000635
40
0.500000000000531
40
0.593750000000427
40
0.640625000000376
40
0.687500000000324
40
0.710937500000298
40
0.722656250000285
40
0.734375000000272
40
0.757812500000246
40
0.78125000000022
40
0.828125000000168
40
0.875000000000117
40
1
40
1
40
1
40
1
41
1
10
32.890322548872
20
-0.200000000000102
30
0
41
1
10
32.8386870484335
20
-0.200000000000102
30
0
41
1
10
32.7664732533193
20
-0.200000000000102
30
0
41
1
10
32.6726756119635
20
-0.200000000000102
30
0
41
1
10
32.6219056396723
20
-0.200000000000102
30
0
41
1
10
32.5809845340291
20
-0.200000000000102
30
0
41
1
10
32.5552932326693
20
-0.200000000000102
30
0
41
1
10
32.5346838248378
20
-0.200000000000102
30
0
41
1
10
32.5139471966971
20
-0.200000000000102
30
0
41
1
10
32.4771974720327
20
-0.200000000000102
30
0
41
1
10
32.4234887482925
20
-0.200000000000102
30
0
41
1
10
32.3352517837127
20
-0.200000000000102
30
0
41
1
10
32.2213167448486
20
-0.200000000000102
30
0
41
1
10
32.1045501811537
20
-0.200000000000102
30
0
41
1
10
32.0107407186836
20
-0.200000000000102
30
0
41
1
10
31.9522238283254
20
-0.200000000000102
30
0
41
1
10
31.911455358947
20
-0.200000000000102
30
0
41
1
10
31.8882381161686
20
-0.200000000000102
30
0
41
1
10
31.8650497191894
20
-0.200000000000102
30
0
41
1
10
31.8360221868093
20
-0.200000000000102
30
0
41
1
10
31.7895111537269
20
-0.200000000000102
30
0
41
1
10
31.7312718150847
20
-0.200000000000102
30
0
41
1
10
31.6223473394477
20
-0.200000000000102
30
0
41
1
10
31.5365443259217
20
-0.200000000000102
30
0
41
1
10
31.4741419704884
20
-0.200000000000102
30
0
0
SPLINE
5
159
100
AcDbEntity
8
1
62
256
6
ByLayer
370
18
48
1
60
0
100
AcDbSpline
70
4
71
1
72
4
73
2
40
0
40
0
40
1
40
1
41
1
10
29.2044060059976
20
-1.137E-13
30
0
41
1
10
29.4962271590701
20
3.30999999999989
30
0
0
SPLINE
5
15A
100
AcDbEntity
8
1
62
256
6
ByLayer
370
18
48
1
60
0
100
AcDbSpline
70
4
71
3
72
8
73
4
40
0
40
0
40
0
40
0
40
1
40
1
40
1
40
1
41
1
10
29.2044060059976
20
-1.137E-13
30
0
41
1
10
29.4812617619993
20
-0.0666666666667766
30
0
41
1
10
29.7581175180011
20
-0.133333333333439
30
0
41
1
10
30.0349732740029
20
-0.200000000000102
30
0
0
SPLINE
5
15B
100
AcDbEntity
8
1
62
256
6
ByLayer
370
18
48
1
60
0
100
AcDbSpline
70
4
71
3
72
17
73
13
40
0
40
0
40
0
40
0
40
0.0625
40
0.125
40
0.25
40
0.375
40
0.5
40
0.625
40
0.75
40
0.875
40
0.9375
40
1
40
1
40
1
40
1
41
1
10
33.2878924122561
20
3.31000000000026
30
0
41
1
10
33.2748028645079
20
3.31000000000023
30
0
41
1
10
33.2463858077936
20
3.3100000000002
30
0
41
1
10
33.181185796817
20
3.31000000000014
30
0
41
1
10
33.0851853827025
20
3.31000000000012
30
0
41
1
10
32.9511734619535
20
3.31000000000006
30
0
41
1
10
32.8034639560901
20
3.31
30
0
41
1
10
32.6477327260723
20
3.30999999999997
30
0
41
1
10
32.4899865385455
20
3.30999999999995
30
0
41
1
10
32.3618957035712
20
3.30999999999995
30
0
41
1
10
32.2643795085066
20
3.30999999999995
30
0
41
1
10
32.2177438509738
20
3.30999999999995
30
0
41
1
10
32.1950720892259
20
3.30999999999995
30
0
0
SPLINE
5
15C
100
AcDbEntity
8
1
62
256
6
ByLayer
370
18
48
1
60
0
100
AcDbSpline
70
4
71
3
72
8
73
4
40
0
40
0
40
0
40
0
40
1
40
1
40
1
40
1
41
1
10
36.4042501061097
20
3.30999999999989
30
0
41
1
10
35.884857157136
20
3.30999999999989
30
0
41
1
10
35.365464208166
20
3.30999999999989
30
0
41
1
10
34.8460712591826
20
3.30999999999989
30
0
0
SPLINE
5
15D
100
AcDbEntity
8
1
62
256
6
ByLayer
370
18
48
1
60
0
100
AcDbSpline
70
4
71
1
72
4
73
2
40
0
40
0
40
1
40
1
41
1
10
35.3515203230276
20
-1.137E-13
30
0
41
1
10
34.8460712591826
20
3.30999999999989
30
0
0
SPLINE
5
15E
100
AcDbEntity
8
1
62
256
6
ByLayer
370
18
48
1
60
0
100
AcDbSpline
70
4
71
3
72
10
73
6
40
0
40
0
40
0
40
0
40
0.249999999999984
40
0.624999999999992
40
1
40
1
40
1
40
1
41
1
10
34.3604227849475
20
-0.200000000000102
30
0
41
1
10
34.3507966864571
20
-0.200000000000102
30
0
41
1
10
34.3090561378919
20
-0.200000000000102
30
0
41
1
10
34.1718724421528
20
-0.200000000000102
30
0
41
1
10
34.0084723734228
20
-0.200000000000102
30
0
41
1
10
33.9129356157554
20
-0.200000000000102
30
0
0
SPLINE
5
15F
100
AcDbEntity
8
1
62
256
6
ByLayer
370
18
48
1
60
0
100
AcDbSpline
70
4
71
3
72
17
73
13
40
0
40
0
40
0
40
0
40
0.0625
40
0.125
40
0.25
40
0.375
40
0.5
40
0.625
40
0.75
40
0.875
40
0.9375
40
1
40
1
40
1
40
1
41
1
10
32.4087000105237
20
-1.630567681E-07
30
0
41
1
10
32.4313725025254
20
-1.630567681E-07
30
0
41
1
10
32.4780037265261
20
-1.630567397E-07
30
0
41
1
10
32.5755113438436
20
-1.630567112E-07
30
0
41
1
10
32.7036057094178
20
-1.630566544E-07
30
0
41
1
10
32.8613595386049
20
-1.630565976E-07
30
0
41
1
10
33.0170897763537
20
-1.630565407E-07
30
0
41
1
10
33.1648113734365
20
-1.630565123E-07
30
0
41
1
10
33.29884916619
20
-1.630564554E-07
30
0
41
1
10
33.3948462881042
20
-1.630563986E-07
30
0
41
1
10
33.460022789512
20
-1.630563702E-07
30
0
41
1
10
33.4884303641908
20
-1.630563418E-07
30
0
41
1
10
33.5015203335512
20
-1.630563418E-07
30
0
0
SPLINE
5
160
100
AcDbEntity
8
1
62
256
6
ByLayer
370
18
48
1
60
0
100
AcDbSpline
70
4
71
3
72
8
73
4
40
0
40
0
40
0
40
0
40
1
40
1
40
1
40
1
41
1
10
32.4087000000033
20
-1.137E-13
30
0
41
1
10
32.0971806568316
20
-0.0666666666667766
30
0
41
1
10
31.78566131366
20
-0.133333333333439
30
0
41
1
10
31.4741419704884
20
-0.200000000000102
30
0
0
SPLINE
5
161
100
AcDbEntity
8
1
62
256
6
ByLayer
370
18
48
1
60
0
100
AcDbSpline
70
4
71
3
72
8
73
4
40
0
40
0
40
0
40
0
40
1
40
1
40
1
40
1
41
1
10
34.8460712591826
20
3.30999999999989
30
0
41
1
10
34.3266783101995
20
3.30999999999989
30
0
41
1
10
33.8072853612298
20
3.30999999999989
30
0
41
1
10
33.2878924122565
20
3.30999999999989
30
0
0
SPLINE
5
162
100
AcDbEntity
8
1
62
256
6
ByLayer
370
18
48
1
60
0
100
AcDbSpline
70
4
71
3
72
8
73
4
40
0
40
0
40
0
40
0
40
1
40
1
40
1
40
1
41
1
10
26.0001120119918
20
-16.1410489570856
30
0
41
1
10
27.0682100099938
20
-16.757715623753
30
0
41
1
10
28.1363080079672
20
-17.3743822904038
30
0
41
1
10
29.2044060059976
20
-17.9910489570875
30
0
0
SPLINE
5
163
100
AcDbEntity
8
1
62
256
6
ByLayer
370
18
48
1
60
0
100
AcDbSpline
70
4
71
3
72
8
73
4
40
0
40
0
40
0
40
0
40
1
40
1
40
1
40
1
41
1
10
32.4086999999985
20
-19.8410489570863
30
0
41
1
10
32.3374906964071
20
-19.5752922181135
30
0
41
1
10
32.2662813928167
20
-19.3095354791412
30
0
41
1
10
32.1950720892263
20
-19.043778740169
30
0
0
SPLINE
5
164
100
AcDbEntity
8
1
62
256
6
ByLayer
370
18
48
1
60
0
100
AcDbSpline
70
4
71
3
72
8
73
4
40
0
40
0
40
0
40
0
40
1
40
1
40
1
40
1
41
1
10
29.49622715907
20
-17.4855998932426
30
0
41
1
10
28.5966121823383
20
-16.9662069442595
30
0
41
1
10
27.6969972056298
20
-16.4468139952898
30
0
41
1
10
26.7973822289149
20
-15.9274210463165
30
0
0
SPLINE
5
165
100
AcDbEntity
8
1
62
256
6
ByLayer
370
18
48
1
60
0
100
AcDbSpline
70
4
71
3
72
8
73
4
40
0
40
0
40
0
40
0
40
1
40
1
40
1
40
1
41
1
10
26.7973822289158
20
-15.9274210463165
30
0
41
1
10
26.5316254899441
20
-15.9986303499078
30
0
41
1
10
26.2658687509723
20
-16.0698396534991
30
0
41
1
10
26.0001120119996
20
-16.1410489570898
30
0
0
SPLINE
5
166
100
AcDbEntity
8
1
62
256
6
ByLayer
370
18
48
1
60
0
100
AcDbSpline
70
4
71
3
72
17
73
13
40
0
40
0
40
0
40
0
40
0.0625
40
0.125
40
0.25
40
0.375
40
0.5
40
0.625
40
0.75
40
0.875
40
0.9375
40
1
40
1
40
1
40
1
41
1
10
37.2015203623025
20
-13.1396406355314
30
0
41
1
10
37.2146103316629
20
-13.1169681435297
30
0
41
1
10
37.2385620948611
20
-13.0703369195289
30
0
41
1
10
37.2770981636609
20
-12.9728293022115
30
0
41
1
10
37.3069686948602
20
-12.8447349366373
30
0
41
1
10
37.3121330569642
20
-12.6869811074502
30
0
41
1
10
37.2864219947401
20
-12.5312508697014
30
0
41
1
10
37.230823290053
20
-12.3835292726186
30
0
41
1
10
37.1474746891599
20
-12.2494914798651
30
0
41
1
10
37.0575580801412
20
-12.1534943579509
30
0
41
1
10
36.9754313422882
20
-12.0883178565431
30
0
41
1
10
36.9313725312766
20
-12.0599102818643
30
0
41
1
10
36.9087000392748
20
-12.0468203125039
30
0
0
SPLINE
5
167
100
AcDbEntity
8
1
62
256
6
ByLayer
370
18
48
1
60
0
100
AcDbSpline
70
4
71
3
72
8
73
4
40
0
40
0
40
0
40
0
40
1
40
1
40
1
40
1
41
1
10
32.1950720892268
20
-19.0437787401696
30
0
41
1
10
31.2954571125114
20
-18.524385791196
30
0
41
1
10
30.3958421358023
20
-18.004992842226
30
0
41
1
10
29.49622715907
20
-17.4855998932426
30
0
0
SPLINE
5
168
100
AcDbEntity
8
1
62
256
6
ByLayer
370
18
48
1
60
0
100
AcDbSpline
70
4
71
3
72
8
73
4
40
0
40
0
40
0
40
0
40
1
40
1
40
1
40
1
41
1
10
33.5015203230256
20
-19.5482286340633
30
0
41
1
10
34.118186989693
20
-18.4801306360613
30
0
41
1
10
34.7348536563438
20
-17.4120326380879
30
0
41
1
10
35.3515203230275
20
-16.3439346400575
30
0
0
SPLINE
5
169
100
AcDbEntity
8
1
62
256
6
ByLayer
370
18
48
1
60
0
100
AcDbSpline
70
4
71
3
72
8
73
4
40
0
40
0
40
0
40
0
40
1
40
1
40
1
40
1
41
1
10
29.2044060059976
20
-17.9910489570875
30
0
41
1
10
30.2725040040279
20
-18.6077156237713
30
0
41
1
10
31.3406020020012
20
-19.224382290422
30
0
41
1
10
32.4087000000033
20
-19.8410489570894
30
0
0
SPLINE
5
16A
100
AcDbEntity
8
1
62
256
6
ByLayer
370
18
48
1
60
0
100
AcDbSpline
70
4
71
3
72
8
73
4
40
0
40
0
40
0
40
0
40
1
40
1
40
1
40
1
41
1
10
37.2015203230263
20
-13.1396406460566
30
0
41
1
10
36.9357635840535
20
-13.210849949648
30
0
41
1
10
36.6700068450812
20
-13.2820592532384
30
0
41
1
10
36.404250106109
20
-13.3532685568288
30
0
0
SPLINE
5
16B
100
AcDbEntity
8
1
62
256
6
ByLayer
370
18
48
1
60
0
100
AcDbSpline
70
4
71
3
72
8
73
4
40
0
40
0
40
0
40
0
40
1
40
1
40
1
40
1
41
1
10
35.3515203230275
20
-16.3439346400575
30
0
41
1
10
35.9681869897113
20
-15.2758366420271
30
0
41
1
10
36.584853656362
20
-14.2077386440538
30
0
41
1
10
37.2015203230294
20
-13.1396406460518
30
0
0
SPLINE
5
16C
100
AcDbEntity
8
1
62
256
6
ByLayer
370
18
48
1
60
0
100
AcDbSpline
70
4
71
3
72
8
73
4
40
0
40
0
40
0
40
0
40
1
40
1
40
1
40
1
41
1
10
33.2878924122565
20
-18.7509584171393
30
0
41
1
10
33.3591017158478
20
-19.016715156111
30
0
41
1
10
33.4303110194391
20
-19.2824718950828
30
0
41
1
10
33.5015203230298
20
-19.5482286340555
30
0
0
SPLINE
5
16D
100
AcDbEntity
8
1
62
256
6
ByLayer
370
18
48
1
60
0
100
AcDbSpline
70
4
71
1
72
4
73
2
40
0
40
0
40
1
40
1
41
1
10
29.2044060059976
20
-17.9910489570875
30
0
41
1
10
29.49622715907
20
-17.4855998932426
30
0
0
SPLINE
5
16E
100
AcDbEntity
8
1
62
256
6
ByLayer
370
18
48
1
60
0
100
AcDbSpline
70
4
71
3
72
17
73
13
40
0
40
0
40
0
40
0
40
0.0625
40
0.125
40
0.25
40
0.375
40
0.5
40
0.625
40
0.75
40
0.875
40
0.9375
40
1
40
1
40
1
40
1
41
1
10
33.287892412256
20
-18.7509584171407
30
0
41
1
10
33.2748028645079
20
-18.7736301788887
30
0
41
1
10
33.2463858077936
20
-18.8176812558911
30
0
41
1
10
33.181185796817
20
-18.8997848229509
30
0
41
1
10
33.0851853827024
20
-18.9896883512309
30
0
41
1
10
32.9511734619535
20
-19.073067243287
30
0
41
1
10
32.8034639560901
20
-19.1286883985457
30
0
41
1
10
32.6477327260723
20
-19.1543742596118
30
0
41
1
10
32.4899865385455
20
-19.1491699368716
30
0
41
1
10
32.3618957035712
20
-19.1193129149658
30
0
41
1
10
32.2643795085066
20
-19.0808083064351
30
0
41
1
10
32.2177438509737
20
-19.0568682879172
30
0
41
1
10
32.1950720892259
20
-19.0437787401691
30
0
0
SPLINE
5
16F
100
AcDbEntity
8
1
62
256
6
ByLayer
370
18
48
1
60
0
100
AcDbSpline
70
4
71
3
72
8
73
4
40
0
40
0
40
0
40
0
40
1
40
1
40
1
40
1
41
1
10
36.4042501061097
20
-13.3532685568283
30
0
41
1
10
35.884857157136
20
-14.2528835335437
30
0
41
1
10
35.365464208166
20
-15.1524985102528
30
0
41
1
10
34.8460712591826
20
-16.052113486985
30
0
0
SPLINE
5
170
100
AcDbEntity
8
1
62
256
6
ByLayer
370
18
48
1
60
0
100
AcDbSpline
70
4
71
1
72
4
73
2
40
0
40
0
40
1
40
1
41
1
10
35.3515203230275
20
-16.3439346400575
30
0
41
1
10
34.8460712591826
20
-16.052113486985
30
0
0
SPLINE
5
171
100
AcDbEntity
8
1
62
256
6
ByLayer
370
18
48
1
60
0
100
AcDbSpline
70
4
71
3
72
17
73
13
40
0
40
0
40
0
40
0
40
0.0625
40
0.125
40
0.25
40
0.375
40
0.5
40
0.625
40
0.75
40
0.875
40
0.9375
40
1
40
1
40
1
40
1
41
1
10
32.4087000105237
20
-19.8410489963625
30
0
41
1
10
32.4313725025253
20
-19.8541389657229
30
0
41
1
10
32.4780037265261
20
-19.8780907289211
30
0
41
1
10
32.5755113438436
20
-19.9166267977209
30
0
41
1
10
32.7036057094178
20
-19.9464973289202
30
0
41
1
10
32.8613595386049
20
-19.9516616910242
30
0
41
1
10
33.0170897763537
20
-19.9259506288001
30
0
41
1
10
33.1648113734365
20
-19.870351924113
30
0
41
1
10
33.29884916619
20
-19.7870033232199
30
0
41
1
10
33.3948462881041
20
-19.6970867142012
30
0
41
1
10
33.460022789512
20
-19.6149599763482
30
0
41
1
10
33.4884303641908
20
-19.5709011653366
30
0
41
1
10
33.5015203335512
20
-19.5482286733349
30
0
0
SPLINE
5
172
100
AcDbEntity
8
1
62
256
6
ByLayer
370
18
48
1
60
0
100
AcDbSpline
70
4
71
3
72
8
73
4
40
0
40
0
40
0
40
0
40
1
40
1
40
1
40
1
41
1
10
34.8460712591826
20
-16.052113486985
30
0
41
1
10
34.3266783101995
20
-16.9517284637168
30
0
41
1
10
33.8072853612298
20
-17.8513434404253
30
0
41
1
10
33.2878924122564
20
-18.7509584171402
30
0
0
SPLINE
5
173
100
AcDbEntity
8
1
62
256
6
ByLayer
370
18
48
1
60
0
100
AcDbSpline
70
4
71
3
72
8
73
4
40
0
40
0
40
0
40
0
40
1
40
1
40
1
40
1
41
1
10
31.1559106514967
20
15.2120901177774
30
0
41
1
10
31.1558032297801
20
15.2054245243935
30
0
41
1
10
31.1556957910553
20
15.1987578756382
30
0
41
1
10
31.1555883344564
20
15.1920901177774
30
0
0
SPLINE
5
174
100
AcDbEntity
8
1
62
256
6
ByLayer
370
18
48
1
60
0
100
AcDbSpline
70
4
71
3
72
8
73
4
40
0
40
0
40
0
40
0
40
1
40
1
40
1
40
1
41
1
10
32.5720047323342
20
13.7933614611069
30
0
41
1
10
32.5662858699908
20
13.7967872877343
30
0
41
1
10
32.560566102173
20
13.800213656777
30
0
41
1
10
32.5548453827787
20
13.8036405958519
30
0
0
SPLINE
5
175
100
AcDbEntity
8
1
62
256
6
ByLayer
370
18
48
1
60
0
100
AcDbSpline
70
4
71
3
72
8
73
4
40
0
40
0
40
0
40
0
40
1
40
1
40
1
40
1
41
1
10
31.7529013604985
20
12.9757791623375
30
0
41
1
10
31.753008782215
20
12.9824447557214
30
0
41
1
10
31.7531162209398
20
12.9891114044767
30
0
41
1
10
31.7532236775388
20
12.9957791623375
30
0
0
SPLINE
5
176
100
AcDbEntity
8
1
62
256
6
ByLayer
370
18
48
1
60
0
100
AcDbSpline
70
4
71
3
72
16
73
12
40
0
40
0
40
0
40
0
40
0.125
40
0.125
40
0.25
40
0.25
40
0.5
40
0.5
40
0.75
40
0.75
40
1
40
1
40
1
40
1
41
1
10
32.2735093778334
20
13.2763523412881
30
0
41
1
10
32.2832109988753
20
13.2654154679304
30
0
41
1
10
32.295865940256
20
13.2574682567204
30
0
41
1
10
32.324690820918
20
13.2499523900973
30
0
41
1
10
32.3406188043859
20
13.2503649458818
30
0
41
1
10
32.387107421372
20
13.2603035366109
30
0
41
1
10
32.416341175726
20
13.2772679827608
30
0
41
1
10
32.4687752937906
20
13.317543253875
30
0
41
1
10
32.4924188710552
20
13.3414290525306
30
0
41
1
10
32.5350216701792
20
13.3928122684711
30
0
41
1
10
32.5540349387647
20
13.4204478210828
30
0
41
1
10
32.5707560527459
20
13.4494096400575
30
0
0
SPLINE
5
177
100
AcDbEntity
8
1
62
256
6
ByLayer
370
18
48
1
60
0
100
AcDbSpline
70
4
71
3
72
8
73
4
40
0
40
0
40
0
40
0
40
1
40
1
40
1
40
1
41
1
10
32.2735093778334
20
14.9115169388268
30
0
41
1
10
32.2676830937733
20
14.9082771720704
30
0
41
1
10
32.2618558872307
20
14.9050368923577
30
0
41
1
10
32.2560277112375
20
14.9017960735718
30
0
0
SPLINE
5
178
100
AcDbEntity
8
1
62
256
6
ByLayer
370
18
48
1
60
0
100
AcDbSpline
70
4
71
3
72
8
73
4
40
0
40
0
40
0
40
0
40
1
40
1
40
1
40
1
41
1
10
32.5548453827787
20
14.384228684263
30
0
41
1
10
32.560566102173
20
14.3876556233379
30
0
41
1
10
32.5662858699908
20
14.3910819923806
30
0
41
1
10
32.5720047323342
20
14.394507819008
30
0
0
SPLINE
5
179
100
AcDbEntity
8
1
62
256
6
ByLayer
370
18
48
1
60
0
100
AcDbSpline
70
4
71
3
72
8
73
4
40
0
40
0
40
0
40
0
40
1
40
1
40
1
40
1
41
1
10
32.2560277112375
20
13.2860732065431
30
0
41
1
10
32.2618558872307
20
13.2828323877572
30
0
41
1
10
32.2676830937733
20
13.2795921080445
30
0
41
1
10
32.2735093778334
20
13.2763523412881
30
0
0
SPLINE
5
17A
100
AcDbEntity
8
1
62
256
6
ByLayer
370
18
48
1
60
0
100
AcDbSpline
70
4
71
3
72
16
73
12
40
0
40
0
40
0
40
0
40
0.125
40
0.125
40
0.25
40
0.25
40
0.5
40
0.5
40
0.75
40
0.75
40
1
40
1
40
1
40
1
41
1
10
31.1559106514967
20
12.9757791623375
30
0
41
1
10
31.151289851852
20
12.9619088753785
30
0
41
1
10
31.1507348357453
20
12.9469757690544
30
0
41
1
10
31.1586383446492
20
12.9182547568285
30
0
41
1
10
31.1669596201729
20
12.9046669964064
30
0
41
1
10
31.1988110007152
20
12.8693759684742
30
0
41
1
10
31.2281195192191
20
12.8525410176306
30
0
41
1
10
31.2892159861807
20
12.8272693749187
30
0
41
1
10
31.3217234832384
20
12.8187363356991
30
0
41
1
10
31.387524053133
20
12.8075328373556
30
0
41
1
10
31.4209637780351
20
12.8048846400575
30
0
41
1
10
31.4544060059976
20
12.8048846400575
30
0
0
SPLINE
5
17B
100
AcDbEntity
8
1
62
256
6
ByLayer
370
18
48
1
60
0
100
AcDbSpline
70
4
71
3
72
18
73
14
40
0
40
0
40
0
40
0
40
0.25
40
0.25
40
0.5
40
0.5
40
0.625
40
0.625
40
0.75
40
0.75
40
0.875
40
0.875
40
1
40
1
40
1
40
1
41
1
10
31.4544060059976
20
12.8048846400575
30
0
41
1
10
31.4878323531606
20
12.8048846400575
30
0
41
1
10
31.5212320049318
20
12.8075265294305
30
0
41
1
10
31.5870423741431
20
12.8187252631592
30
0
41
1
10
31.6194658110755
20
12.8272235634563
30
0
41
1
10
31.6653750937086
20
12.846201193141
30
0
41
1
10
31.6801208419251
20
12.8535502343664
30
0
41
1
10
31.7075561716802
20
12.8708732500109
30
0
41
1
10
31.7205032253603
20
12.8810432717483
30
0
41
1
10
31.7417318404636
20
12.9045028188552
30
0
41
1
10
31.7500792537764
20
12.918004892887
30
0
41
1
10
31.7581035846234
20
12.9469792942753
30
0
41
1
10
31.7575242954213
20
12.961902465899
30
0
41
1
10
31.7529013604985
20
12.9757791623375
30
0
0
SPLINE
5
17C
100
AcDbEntity
8
1
62
256
6
ByLayer
370
18
48
1
60
0
100
AcDbSpline
70
4
71
3
72
8
73
4
40
0
40
0
40
0
40
0
40
1
40
1
40
1
40
1
41
1
10
31.7532236775388
20
15.1920901177774
30
0
41
1
10
31.7531162209398
20
15.1987578756382
30
0
41
1
10
31.753008782215
20
15.2054245243935
30
0
41
1
10
31.7529013604985
20
15.2120901177774
30
0
0
SPLINE
5
17D
100
AcDbEntity
8
1
62
256
6
ByLayer
370
18
48
1
60
0
100
AcDbSpline
70
4
71
3
72
8
73
4
40
0
40
0
40
0
40
0
40
1
40
1
40
1
40
1
41
1
10
30.3368072796609
20
14.394507819008
30
0
41
1
10
30.3425261420044
20
14.3910819923806
30
0
41
1
10
30.3482459098222
20
14.3876556233379
30
0
41
1
10
30.3539666292165
20
14.384228684263
30
0
0
SPLINE
5
17E
100
AcDbEntity
8
1
62
256
6
ByLayer
370
18
48
1
60
0
100
AcDbSpline
70
4
71
3
72
18
73
14
40
0
40
0
40
0
40
0
40
0.25
40
0.25
40
0.5
40
0.5
40
0.625
40
0.625
40
0.75
40
0.75
40
0.875
40
0.875
40
1
40
1
40
1
40
1
41
1
10
32.5707560527459
20
13.4494096400575
30
0
41
1
10
32.5874692263274
20
13.4783577058564
30
0
41
1
10
32.601881108902
20
13.5086035974543
30
0
41
1
10
32.6250879056084
20
13.5711964158881
30
0
41
1
10
32.6339398801283
20
13.6035250860981
30
0
41
1
10
32.6404594120343
20
13.6527725059702
30
0
41
1
10
32.6414678297479
20
13.6692172191362
30
0
41
1
10
32.6401833230071
20
13.7016384194875
30
0
41
1
10
32.6378493526656
20
13.7179359077474
30
0
41
1
10
32.6281470964614
20
13.7480502012674
30
0
41
1
10
32.6206276640024
20
13.7620303102682
30
0
41
1
10
32.5995472617641
20
13.7834667853241
30
0
41
1
10
32.5863337714321
20
13.7904266919709
30
0
41
1
10
32.5720047323342
20
13.7933614611069
30
0
0
SPLINE
5
17F
100
AcDbEntity
8
1
62
256
6
ByLayer
370
18
48
1
60
0
100
AcDbSpline
70
4
71
3
72
18
73
14
40
0
40
0
40
0
40
0
40
0.125
40
0.125
40
0.249999999999999
40
0.249999999999999
40
0.5
40
0.5
40
0.75
40
0.75
40
0.875
40
0.875
40
1
40
1
40
1
40
1
41
1
10
32.5548453827787
20
13.8036405958519
30
0
41
1
10
32.533773905246
20
13.8162632512814
30
0
41
1
10
32.5173580680943
20
13.8359403494216
30
0
41
1
10
32.4904816900001
20
13.8802139359873
30
0
41
1
10
32.4801587606384
20
13.9049314607838
30
0
41
1
10
32.4560154331762
20
13.9822235673289
30
0
41
1
10
32.4488074700674
20
14.0380610079528
30
0
41
1
10
32.4488045423541
20
14.1497757328071
30
0
41
1
10
32.4560164499428
20
14.2056262903252
30
0
41
1
10
32.4801343977109
20
14.28287114615
30
0
41
1
10
32.4904352277061
20
14.307568836607
30
0
41
1
10
32.5173541568665
20
14.351932439032
30
0
41
1
10
32.5337850799686
20
14.371612722938
30
0
41
1
10
32.5548453827787
20
14.384228684263
30
0
0
SPLINE
5
180
100
AcDbEntity
8
1
62
256
6
ByLayer
370
18
48
1
60
0
100
AcDbSpline
70
4
71
3
72
16
73
12
40
0
40
0
40
0
40
0
40
0.125
40
0.125
40
0.25
40
0.25
40
0.5
40
0.5
40
0.75
40
0.75
40
1
40
1
40
1
40
1
41
1
10
32.5720047323342
20
14.394507819008
30
0
41
1
10
32.5863271530209
20
14.3974412326094
30
0
41
1
10
32.5995371105083
20
14.4044271277235
30
0
41
1
10
32.6204584822664
20
14.4256322733263
30
0
41
1
10
32.6280651902106
20
14.4396325895328
30
0
41
1
10
32.6427024266544
20
14.4848622081942
30
0
41
1
10
32.6426276625044
20
14.5186616051876
30
0
41
1
10
32.6339653136075
20
14.5842085190137
30
0
41
1
10
32.6251013938144
20
14.616627356889
30
0
41
1
10
32.6019036230438
20
14.6792140711729
30
0
41
1
10
32.5874771667272
20
14.7094978210828
30
0
41
1
10
32.5707560527459
20
14.7384596400575
30
0
0
SPLINE
5
181
100
AcDbEntity
8
1
62
256
6
ByLayer
370
18
48
1
60
0
100
AcDbSpline
70
4
71
3
72
18
73
14
40
0
40
0
40
0
40
0
40
0.25
40
0.25
40
0.5
40
0.5
40
0.625
40
0.625
40
0.75
40
0.75
40
0.875
40
0.875
40
1
40
1
40
1
40
1
41
1
10
32.5707560527459
20
14.7384596400575
30
0
41
1
10
32.5540428791644
20
14.7674077058564
30
0
41
1
10
32.5350551099678
20
14.7950117080812
30
0
41
1
10
32.4924515374628
20
14.8464057927864
30
0
41
1
10
32.4688800750504
20
14.8702361626992
30
0
41
1
10
32.4294903243233
20
14.9005059528867
30
0
41
1
10
32.4157529938203
20
14.9096016248273
30
0
41
1
10
32.3870331573245
20
14.9246998095341
30
0
41
1
10
32.3717521333028
20
14.9308272760566
30
0
41
1
10
32.3408212619954
20
14.9374820224697
30
0
41
1
10
32.3249544162236
20
14.9379600574386
30
0
41
1
10
32.2958496831384
20
14.9304221311063
30
0
41
1
10
32.2832154820083
20
14.9224588661294
30
0
41
1
10
32.2735093778334
20
14.9115169388268
30
0
0
SPLINE
5
182
100
AcDbEntity
8
1
62
256
6
ByLayer
370
18
48
1
60
0
100
AcDbSpline
70
4
71
3
72
16
73
12
40
0
40
0
40
0
40
0
40
0.125
40
0.125
40
0.25
40
0.25
40
0.5
40
0.5
40
0.75
40
0.75
40
1
40
1
40
1
40
1
41
1
10
30.6353026341618
20
14.9115169388268
30
0
41
1
10
30.6256010131199
20
14.9224538121845
30
0
41
1
10
30.6129460717392
20
14.9304010233945
30
0
41
1
10
30.5841211910771
20
14.9379168900176
30
0
41
1
10
30.5681932076092
20
14.9375043342332
30
0
41
1
10
30.5217045906231
20
14.9275657435041
30
0
41
1
10
30.4924708362692
20
14.9106012973542
30
0
41
1
10
30.4400367182046
20
14.8703260262399
30
0
41
1
10
30.4163931409399
20
14.8464402275843
30
0
41
1
10
30.373790341816
20
14.7950570116438
30
0
41
1
10
30.3547770732305
20
14.7674214590321
30
0
41
1
10
30.3380559592492
20
14.7384596400575
30
0
0
SPLINE
5
183
100
AcDbEntity
8
1
62
256
6
ByLayer
370
18
48
1
60
0
100
AcDbSpline
70
4
71
3
72
18
73
14
40
0
40
0
40
0
40
0
40
0.25
40
0.25
40
0.5
40
0.5
40
0.625
40
0.625
40
0.75
40
0.75
40
0.875
40
0.875
40
1
40
1
40
1
40
1
41
1
10
30.3380559592492
20
14.7384596400575
30
0
41
1
10
30.3213427856677
20
14.7095115742586
30
0
41
1
10
30.3069309030932
20
14.6792656826607
30
0
41
1
10
30.2837241063868
20
14.6166728642268
30
0
41
1
10
30.2748721318669
20
14.5843441940169
30
0
41
1
10
30.2683525999608
20
14.5350967741448
30
0
41
1
10
30.2673441822473
20
14.5186520609787
30
0
41
1
10
30.2686286889881
20
14.4862308606274
30
0
41
1
10
30.2709626593296
20
14.4699333723675
30
0
41
1
10
30.2806649155338
20
14.4398190788475
30
0
41
1
10
30.2881843479927
20
14.4258389698467
30
0
41
1
10
30.309264750231
20
14.4044024947908
30
0
41
1
10
30.3224782405631
20
14.3974425881441
30
0
41
1
10
30.3368072796609
20
14.394507819008
30
0
0
SPLINE
5
184
100
AcDbEntity
8
1
62
256
6
ByLayer
370
18
48
1
60
0
100
AcDbSpline
70
4
71
3
72
8
73
4
40
0
40
0
40
0
40
0
40
1
40
1
40
1
40
1
41
1
10
31.1555883344564
20
12.9957791623375
30
0
41
1
10
31.1556957910553
20
12.9891114044767
30
0
41
1
10
31.1558032297801
20
12.9824447557214
30
0
41
1
10
31.1559106514967
20
12.9757791623375
30
0
0
SPLINE
5
185
100
AcDbEntity
8
1
62
256
6
ByLayer
370
18
48
1
60
0
100
AcDbSpline
70
4
71
3
72
8
73
4
40
0
40
0
40
0
40
0
40
1
40
1
40
1
40
1
41
1
10
30.6527843007577
20
14.9017960735718
30
0
41
1
10
30.6469561247645
20
14.9050368923577
30
0
41
1
10
30.6411289182218
20
14.9082771720704
30
0
41
1
10
30.6353026341618
20
14.9115169388268
30
0
0
SPLINE
5
186
100
AcDbEntity
8
1
62
256
6
ByLayer
370
18
48
1
60
0
100
AcDbSpline
70
4
71
3
72
18
73
14
40
0
40
0
40
0
40
0
40
0.125
40
0.125
40
0.250000000000001
40
0.250000000000001
40
0.500000000000001
40
0.500000000000001
40
0.75
40
0.75
40
0.875
40
0.875
40
1
40
1
40
1
40
1
41
1
10
32.2560277112375
20
14.9017960735718
30
0
41
1
10
32.234560432206
20
14.889858966448
30
0
41
1
10
32.209311646768
20
14.8854809835203
30
0
41
1
10
32.1575314070383
20
14.884342150612
30
0
41
1
10
32.1309639379649
20
14.8877609939414
30
0
41
1
10
32.0519553464538
20
14.9054983122998
30
0
41
1
10
31.9999947228368
20
14.9271747534501
30
0
41
1
10
31.9032454692796
20
14.9830295804031
30
0
41
1
10
31.8584834214477
20
15.0172005543437
30
0
41
1
10
31.8036463878758
20
15.0767097377104
30
0
41
1
10
31.7874079755229
20
15.0979793633949
30
0
41
1
10
31.7624474333996
20
15.1434736411029
30
0
41
1
10
31.7536192691344
20
15.16754337987
30
0
41
1
10
31.7532236775388
20
15.1920901177774
30
0
0
SPLINE
5
187
100
AcDbEntity
8
1
62
256
6
ByLayer
370
18
48
1
60
0
100
AcDbSpline
70
4
71
3
72
16
73
12
40
0
40
0
40
0
40
0
40
0.125
40
0.125
40
0.25
40
0.25
40
0.5
40
0.5
40
0.75
40
0.75
40
1
40
1
40
1
40
1
41
1
10
31.7529013604985
20
15.2120901177774
30
0
41
1
10
31.7575221601432
20
15.2259604047364
30
0
41
1
10
31.7580771762499
20
15.2408935110605
30
0
41
1
10
31.750173667346
20
15.2696145232865
30
0
41
1
10
31.7418523918222
20
15.2832022837085
30
0
41
1
10
31.7100010112799
20
15.3184933116407
30
0
41
1
10
31.6806924927761
20
15.3353282624843
30
0
41
1
10
31.6195960258145
20
15.3605999051962
30
0
41
1
10
31.5870885287567
20
15.3691329444158
30
0
41
1
10
31.5212879588622
20
15.3803364427593
30
0
41
1
10
31.4878482339601
20
15.3829846400575
30
0
41
1
10
31.4544060059976
20
15.3829846400575
30
0
0
SPLINE
5
188
100
AcDbEntity
8
1
62
256
6
ByLayer
370
18
48
1
60
0
100
AcDbSpline
70
4
71
3
72
18
73
14
40
0
40
0
40
0
40
0
40
0.25
40
0.25
40
0.5
40
0.5
40
0.625
40
0.625
40
0.75
40
0.75
40
0.875
40
0.875
40
1
40
1
40
1
40
1
41
1
10
31.4544060059976
20
15.3829846400575
30
0
41
1
10
31.4209796588345
20
15.3829846400575
30
0
41
1
10
31.3875800070634
20
15.3803427506845
30
0
41
1
10
31.3217696378521
20
15.3691440169557
30
0
41
1
10
31.2893462009197
20
15.3606457166586
30
0
41
1
10
31.2434369182866
20
15.341668086974
30
0
41
1
10
31.22869117007
20
15.3343190457486
30
0
41
1
10
31.201255840315
20
15.316996030104
30
0
41
1
10
31.1883087866349
20
15.3068260083666
30
0
41
1
10
31.1670801715316
20
15.2833664612597
30
0
41
1
10
31.1587327582187
20
15.2698643872279
30
0
41
1
10
31.1507084273718
20
15.2408899858396
30
0
41
1
10
31.1512877165739
20
15.2259668142159
30
0
41
1
10
31.1559106514967
20
15.2120901177774
30
0
0
SPLINE
5
189
100
AcDbEntity
8
1
62
256
6
ByLayer
370
18
48
1
60
0
100
AcDbSpline
70
4
71
3
72
18
73
14
40
0
40
0
40
0
40
0
40
0.125000000000001
40
0.125000000000001
40
0.250000000000001
40
0.250000000000001
40
0.5
40
0.5
40
0.75
40
0.75
40
0.875
40
0.875
40
1
40
1
40
1
40
1
41
1
10
31.7532236775388
20
12.9957791623375
30
0
41
1
10
31.7536194790376
20
13.0203389248909
30
0
41
1
10
31.7624524273239
20
13.0443940059587
30
0
41
1
10
31.7873562889594
20
13.0898064254328
30
0
41
1
10
31.803600828671
20
13.1111051068999
30
0
41
1
10
31.8584660927199
20
13.1706598950866
30
0
41
1
10
31.9032187532282
20
13.2048208945602
30
0
41
1
10
31.9999650790721
20
13.2606807924614
30
0
41
1
10
32.0519390344926
20
13.282360376039
30
0
41
1
10
32.1308940158327
20
13.3000960484971
30
0
41
1
10
32.1574332581808
20
13.3035241132696
30
0
41
1
10
32.2093127294644
20
13.3023934379866
30
0
41
1
10
32.2345718168318
20
13.2980039831255
30
0
41
1
10
32.2560277112375
20
13.2860732065431
30
0
0
SPLINE
5
18A
100
AcDbEntity
8
1
62
256
6
ByLayer
370
18
48
1
60
0
100
AcDbSpline
70
4
71
3
72
18
73
14
40
0
40
0
40
0
40
0
40
0.125000000000001
40
0.125000000000001
40
0.250000000000001
40
0.250000000000001
40
0.500000000000001
40
0.500000000000001
40
0.75
40
0.75
40
0.875
40
0.875
40
1
40
1
40
1
40
1
41
1
10
31.1555883344564
20
15.1920901177774
30
0
41
1
10
31.1551925329575
20
15.1675303552241
30
0
41
1
10
31.1463595846712
20
15.1434752741562
30
0
41
1
10
31.1214557230358
20
15.0980628546821
30
0
41
1
10
31.1052111833242
20
15.0767641732151
30
0
41
1
10
31.0503459192752
20
15.0172093850284
30
0
41
1
10
31.005593258767
20
14.9830483855547
30
0
41
1
10
30.908846932923
20
14.9271884876535
30
0
41
1
10
30.8568729775025
20
14.9055089040759
30
0
41
1
10
30.7779179961625
20
14.8877732316178
30
0
41
1
10
30.7513787538143
20
14.8843451668453
30
0
41
1
10
30.6994992825307
20
14.8854758421284
30
0
41
1
10
30.6742401951634
20
14.8898652969894
30
0
41
1
10
30.6527843007577
20
14.9017960735718
30
0
0
SPLINE
5
18B
100
AcDbEntity
8
1
62
256
6
ByLayer
370
18
48
1
60
0
100
AcDbSpline
70
4
71
3
72
16
73
12
40
0
40
0
40
0
40
0
40
0.124999999999999
40
0.124999999999999
40
0.249999999999998
40
0.249999999999998
40
0.499999999999998
40
0.499999999999998
40
0.749999999999999
40
0.749999999999999
40
1
40
1
40
1
40
1
41
1
10
30.6353026341618
20
13.2763523412881
30
0
41
1
10
30.6256010131199
20
13.2654154679304
30
0
41
1
10
30.6129460717392
20
13.2574682567204
30
0
41
1
10
30.5841211910772
20
13.2499523900973
30
0
41
1
10
30.5681932076092
20
13.2503649458818
30
0
41
1
10
30.5217045906231
20
13.2603035366109
30
0
41
1
10
30.4924708362693
20
13.2772679827607
30
0
41
1
10
30.4400367182046
20
13.317543253875
30
0
41
1
10
30.41639314094
20
13.3414290525306
30
0
41
1
10
30.373790341816
20
13.3928122684711
30
0
41
1
10
30.3547770732305
20
13.4204478210828
30
0
41
1
10
30.3380559592492
20
13.4494096400575
30
0
0
SPLINE
5
18C
100
AcDbEntity
8
1
62
256
6
ByLayer
370
18
48
1
60
0
100
AcDbSpline
70
4
71
3
72
8
73
4
40
0
40
0
40
0
40
0
40
1
40
1
40
1
40
1
41
1
10
30.3368072796609
20
13.7933614611069
30
0
41
1
10
30.3425261420044
20
13.7967872877343
30
0
41
1
10
30.3482459098222
20
13.800213656777
30
0
41
1
10
30.3539666292165
20
13.8036405958519
30
0
0
SPLINE
5
18D
100
AcDbEntity
8
1
62
256
6
ByLayer
370
18
48
1
60
0
100
AcDbSpline
70
4
71
3
72
16
73
12
40
0
40
0
40
0
40
0
40
0.25
40
0.25
40
0.5
40
0.5
40
0.749999999999999
40
0.749999999999999
40
0.875
40
0.875
40
1
40
1
40
1
40
1
41
1
10
30.3380559592492
20
13.4494096400575
30
0
41
1
10
30.3213368657086
20
13.4783679595264
30
0
41
1
10
30.306920665906
20
13.5086249631792
30
0
41
1
10
30.283709685538
20
13.5712415638675
30
0
41
1
10
30.2748578016863
20
13.6035824117028
30
0
41
1
10
30.266175292721
20
13.6692705398317
30
0
41
1
10
30.2660304347891
20
13.7027435695685
30
0
41
1
10
30.2807750678995
20
13.7483334233206
30
0
41
1
10
30.2883932721073
20
13.7622728466866
30
0
41
1
10
30.3092121351488
20
13.7833829713319
30
0
41
1
10
30.3224901062276
20
13.7904291222096
30
0
41
1
10
30.3368072796609
20
13.7933614611069
30
0
0
SPLINE
5
18E
100
AcDbEntity
8
1
62
256
6
ByLayer
370
18
48
1
60
0
100
AcDbSpline
70
4
71
3
72
18
73
14
40
0
40
0
40
0
40
0
40
0.125
40
0.125
40
0.25
40
0.25
40
0.499999999999999
40
0.499999999999999
40
0.749999999999999
40
0.749999999999999
40
0.874999999999999
40
0.874999999999999
40
1
40
1
40
1
40
1
41
1
10
31.1555883344564
20
12.9957791623375
30
0
41
1
10
31.155190237672
20
13.0204813489808
30
0
41
1
10
31.1461898087221
20
13.0447645178856
30
0
41
1
10
31.1213570748411
20
13.0899247242807
30
0
41
1
10
31.1050214886889
20
13.1113235712858
30
0
41
1
10
31.0504501099424
20
13.170521591851
30
0
41
1
10
31.0059443659818
20
13.2045798810799
30
0
41
1
10
30.9091312908017
20
13.2605546473315
30
0
41
1
10
30.8571026769924
20
13.2822857177993
30
0
41
1
10
30.7780624993138
20
13.3000750624622
30
0
41
1
10
30.7514947223897
20
13.3035175436409
30
0
41
1
10
30.6995537377547
20
13.3024036920742
30
0
41
1
10
30.6742636882665
20
13.2980170467135
30
0
41
1
10
30.6527843007577
20
13.2860732065431
30
0
0
SPLINE
5
18F
100
AcDbEntity
8
1
62
256
6
ByLayer
370
18
48
1
60
0
100
AcDbSpline
70
4
71
3
72
8
73
4
40
0
40
0
40
0
40
0
40
1
40
1
40
1
40
1
41
1
10
30.6527843007577
20
13.2860732065431
30
0
41
1
10
30.6469561247645
20
13.2828323877572
30
0
41
1
10
30.6411289182218
20
13.2795921080446
30
0
41
1
10
30.6353026341618
20
13.2763523412881
30
0
0
SPLINE
5
190
100
AcDbEntity
8
1
62
256
6
ByLayer
370
18
48
1
60
0
100
AcDbSpline
70
4
71
3
72
20
73
16
40
0
40
0
40
0
40
0
40
0.125
40
0.125
40
0.25
40
0.25
40
0.5
40
0.5
40
0.625
40
0.625
40
0.75
40
0.75
40
0.875
40
0.875
40
1
40
1
40
1
40
1
41
1
10
30.3539666292165
20
13.8036405958519
30
0
41
1
10
30.3750599684733
20
13.8162763473261
30
0
41
1
10
30.3914881877618
20
13.8359802618826
30
0
41
1
10
30.4183797113079
20
13.8803118442349
30
0
41
1
10
30.4287172579862
20
13.905084335529
30
0
41
1
10
30.4528877665106
20
13.9826202752237
30
0
41
1
10
30.4600553720587
20
14.0385643284871
30
0
41
1
10
30.4599809565169
20
14.1224459257079
30
0
41
1
10
30.4581042200148
20
14.14998599442
30
0
41
1
10
30.4505460682692
20
14.2042261997004
30
0
41
1
10
30.4447957762762
20
14.2312072577307
30
0
41
1
10
30.4287519362293
20
14.2826735313318
30
0
41
1
10
30.4185291774271
20
14.3072505796778
30
0
41
1
10
30.391642441
20
14.3516945041093
30
0
41
1
10
30.3751198765307
20
14.3715570454732
30
0
41
1
10
30.3539666292165
20
14.384228684263
30
0
0
SPLINE
5
191
100
AcDbEntity
8
1
62
256
6
ByLayer
370
18
48
1
60
0
100
AcDbSpline
70
4
71
3
72
10
73
6
40
0
40
0
40
0
40
0
40
0.375000000000405
40
0.750000000000811
40
1
40
1
40
1
40
1
41
1
10
28.995876396234
20
12.6745019080628
30
0
41
1
10
29.0914131538996
20
12.5090273897929
30
0
41
1
10
29.3101570256216
20
12.1940574092259
30
0
41
1
10
29.665877192869
20
11.8302761875932
30
0
41
1
10
29.9152184622476
20
11.6381211046892
30
0
41
1
10
30.0184894631232
20
11.5673823034225
30
0
0
SPLINE
5
192
100
AcDbEntity
8
1
62
256
6
ByLayer
370
18
48
1
60
0
100
AcDbSpline
70
4
71
3
72
17
73
13
40
0
40
0
40
0
40
0
40
0.0625
40
0.125
40
0.25
40
0.375
40
0.5
40
0.625
40
0.75
40
0.875
40
0.9375
40
1
40
1
40
1
40
1
41
1
10
25.7072916496926
20
15.0482286445836
30
0
41
1
10
25.6942016803322
20
15.0709011365853
30
0
41
1
10
25.670249917134
20
15.1175323605861
30
0
41
1
10
25.6317138483342
20
15.2150399779035
30
0
41
1
10
25.6018433171349
20
15.3431343434777
30
0
41
1
10
25.5966789550309
20
15.5008881726648
30
0
41
1
10
25.622390017255
20
15.6566184104136
30
0
41
1
10
25.6779887219421
20
15.8043400074964
30
0
41
1
10
25.7613373228352
20
15.9383778002499
30
0
41
1
10
25.8512539318539
20
16.0343749221641
30
0
41
1
10
25.9333806697069
20
16.0995514235719
30
0
41
1
10
25.9774394807185
20
16.1279589982507
30
0
41
1
10
26.0001119727203
20
16.1410489676111
30
0
0
SPLINE
5
193
100
AcDbEntity
8
1
62
256
6
ByLayer
370
18
48
1
60
0
100
AcDbSpline
70
4
71
3
72
8
73
4
40
0
40
0
40
0
40
0
40
1
40
1
40
1
40
1
41
1
10
26.0001120119919
20
16.1410489570855
30
0
41
1
10
27.0682100099939
20
16.7577156237529
30
0
41
1
10
28.1363080079672
20
17.3743822904037
30
0
41
1
10
29.2044060059976
20
17.9910489570874
30
0
0
SPLINE
5
194
100
AcDbEntity
8
1
62
256
6
ByLayer
370
18
48
1
60
0
100
AcDbSpline
70
4
71
3
72
8
73
4
40
0
40
0
40
0
40
0
40
1
40
1
40
1
40
1
41
1
10
33.5015203230275
20
19.5482286340599
30
0
41
1
10
33.2977877316419
20
18.572314748271
30
0
41
1
10
33.0940551402563
20
17.5964008624822
30
0
41
1
10
32.8903225488706
20
16.6204869766933
30
0
0
SPLINE
5
195
100
AcDbEntity
8
1
62
256
6
ByLayer
370
18
48
1
60
0
100
AcDbSpline
70
4
71
3
72
8
73
4
40
0
40
0
40
0
40
0
40
1
40
1
40
1
40
1
41
1
10
33.7044060059975
20
10.1968203230275
30
0
41
1
10
33.4275502499958
20
10.676348558783
30
0
41
1
10
33.150694493994
20
11.1558767945384
30
0
41
1
10
32.8738387379922
20
11.6354050302939
30
0
0
SPLINE
5
196
100
AcDbEntity
8
1
62
256
6
ByLayer
370
18
48
1
60
0
100
AcDbSpline
70
4
71
3
72
10
73
6
40
0
40
0
40
0
40
0
40
0.375000000000406
40
0.750000000000812
40
1
40
1
40
1
40
1
41
1
10
33.9129356157611
20
15.5133673720521
30
0
41
1
10
33.8173988580956
20
15.678841890322
30
0
41
1
10
33.5986549863736
20
15.993811870889
30
0
41
1
10
33.2429348191262
20
16.3575930925217
30
0
41
1
10
32.9935935497475
20
16.5497481754257
30
0
41
1
10
32.890322548872
20
16.6204869766924
30
0
0
SPLINE
5
197
100
AcDbEntity
8
1
62
256
6
ByLayer
370
18
48
1
60
0
100
AcDbSpline
70
4
71
3
72
10
73
6
40
0
40
0
40
0
40
0
40
0.249999999999985
40
0.624999999999992
40
1
40
1
40
1
40
1
41
1
10
28.5483892270477
20
14.1136706045483
30
0
41
1
10
28.558015325538
20
13.9888658936815
30
0
41
1
10
28.5997558741032
20
13.6768524787335
30
0
41
1
10
28.7369395698424
20
13.1868991664455
30
0
41
1
10
28.9003396385723
20
12.8399764263225
30
0
41
1
10
28.9958763962397
20
12.6745019080531
30
0
0
SPLINE
5
198
100
AcDbEntity
8
1
62
256
6
ByLayer
370
18
48
1
60
0
100
AcDbSpline
70
4
71
3
72
8
73
4
40
0
40
0
40
0
40
0
40
1
40
1
40
1
40
1
41
1
10
37.2015203230294
20
13.1396406460517
30
0
41
1
10
36.2544878103354
20
13.4511599892234
30
0
41
1
10
35.3074552976415
20
13.762679332395
30
0
41
1
10
34.3604227849475
20
14.0741986755666
30
0
0
SPLINE
5
199
100
AcDbEntity
8
1
62
256
6
ByLayer
370
18
48
1
60
0
100
AcDbSpline
70
4
71
3
72
8
73
4
40
0
40
0
40
0
40
0
40
1
40
1
40
1
40
1
41
1
10
27.5572916889676
20
11.8439346400575
30
0
41
1
10
28.036819924725
20
12.120790396056
30
0
41
1
10
28.5163481604823
20
12.3976461520545
30
0
41
1
10
28.9958763962397
20
12.6745019080531
30
0
0
SPLINE
5
19A
100
AcDbEntity
8
1
62
256
6
ByLayer
370
18
48
1
60
0
100
AcDbSpline
70
4
71
3
72
8
73
4
40
0
40
0
40
0
40
0
40
1
40
1
40
1
40
1
41
1
10
25.7072916889657
20
15.0482286340632
30
0
41
1
10
26.6543242016597
20
14.7367092908916
30
0
41
1
10
27.6013567143537
20
14.4251899477199
30
0
41
1
10
28.5483892270477
20
14.1136706045483
30
0
0
SPLINE
5
19B
100
AcDbEntity
8
1
62
256
6
ByLayer
370
18
48
1
60
0
100
AcDbSpline
70
4
71
3
72
17
73
13
40
0
40
0
40
0
40
0
40
0.0625
40
0.125
40
0.25
40
0.375
40
0.5
40
0.625
40
0.75
40
0.875
40
0.9375
40
1
40
1
40
1
40
1
41
1
10
37.2015203623025
20
13.1396406355313
30
0
41
1
10
37.2146103316629
20
13.1169681435297
30
0
41
1
10
37.2385620948611
20
13.0703369195288
30
0
41
1
10
37.277098163661
20
12.9728293022114
30
0
41
1
10
37.3069686948603
20
12.8447349366372
30
0
41
1
10
37.3121330569642
20
12.6869811074501
30
0
41
1
10
37.2864219947402
20
12.5312508697013
30
0
41
1
10
37.230823290053
20
12.3835292726185
30
0
41
1
10
37.1474746891599
20
12.249491479865
30
0
41
1
10
37.0575580801412
20
12.1534943579508
30
0
41
1
10
36.9754313422882
20
12.088317856543
30
0
41
1
10
36.9313725312766
20
12.0599102818642
30
0
41
1
10
36.9087000392749
20
12.0468203125038
30
0
0
SPLINE
5
19C
100
AcDbEntity
8
1
62
256
6
ByLayer
370
18
48
1
60
0
100
AcDbSpline
70
4
71
3
72
8
73
4
40
0
40
0
40
0
40
0
40
1
40
1
40
1
40
1
41
1
10
33.5015203230257
20
19.5482286340632
30
0
41
1
10
34.118186989693
20
18.4801306360612
30
0
41
1
10
34.7348536563438
20
17.4120326380879
30
0
41
1
10
35.3515203230276
20
16.3439346400575
30
0
0
SPLINE
5
19D
100
AcDbEntity
8
1
62
256
6
ByLayer
370
18
48
1
60
0
100
AcDbSpline
70
4
71
3
72
8
73
4
40
0
40
0
40
0
40
0
40
1
40
1
40
1
40
1
41
1
10
27.5572916889676
20
11.8439346400575
30
0
41
1
10
26.9406250222838
20
12.9120326380878
30
0
41
1
10
26.3239583556331
20
13.9801306360612
30
0
41
1
10
25.7072916889657
20
15.0482286340632
30
0
0
SPLINE
5
19E
100
AcDbEntity
8
1
62
256
6
ByLayer
370
18
48
1
60
0
100
AcDbSpline
70
4
71
3
72
8
73
4
40
0
40
0
40
0
40
0
40
1
40
1
40
1
40
1
41
1
10
29.2044060059976
20
17.9910489570874
30
0
41
1
10
30.272504004028
20
18.6077156237712
30
0
41
1
10
31.3406020020013
20
19.224382290422
30
0
41
1
10
32.4087000000033
20
19.8410489570893
30
0
0
SPLINE
5
19F
100
AcDbEntity
8
1
62
256
6
ByLayer
370
18
48
1
60
0
100
AcDbSpline
70
4
71
3
72
8
73
4
40
0
40
0
40
0
40
0
40
1
40
1
40
1
40
1
41
1
10
26.0001120119952
20
16.1410489570875
30
0
41
1
10
26.976025897784
20
15.9373163657018
30
0
41
1
10
27.9519397835729
20
15.7335837743162
30
0
41
1
10
28.9278536693617
20
15.5298511829305
30
0
0
SPLINE
5
1A0
100
AcDbEntity
8
1
62
256
6
ByLayer
370
18
48
1
60
0
100
AcDbSpline
70
4
71
3
72
8
73
4
40
0
40
0
40
0
40
0
40
1
40
1
40
1
40
1
41
1
10
33.9129356157611
20
15.5133673720521
30
0
41
1
10
34.3924638515166
20
15.7902231280539
30
0
41
1
10
34.8719920872721
20
16.0670788840557
30
0
41
1
10
35.3515203230276
20
16.3439346400575
30
0
0
SPLINE
5
1A1
100
AcDbEntity
8
1
62
256
6
ByLayer
370
18
48
1
60
0
100
AcDbSpline
70
4
71
3
72
8
73
4
40
0
40
0
40
0
40
0
40
1
40
1
40
1
40
1
41
1
10
35.3515203230276
20
16.3439346400575
30
0
41
1
10
35.9681869897113
20
15.2758366420271
30
0
41
1
10
36.5848536563621
20
14.2077386440537
30
0
41
1
10
37.2015203230295
20
13.1396406460517
30
0
0
SPLINE
5
1A2
100
AcDbEntity
8
1
62
256
6
ByLayer
370
18
48
1
60
0
100
AcDbSpline
70
4
71
3
72
10
73
6
40
0
40
0
40
0
40
0
40
0.375000000000406
40
0.750000000000812
40
1
40
1
40
1
40
1
41
1
10
30.0349732740029
20
16.552464249821
30
0
41
1
10
29.869498755733
20
16.4569274921555
30
0
41
1
10
29.554528775166
20
16.2381836204334
30
0
41
1
10
29.1907475535334
20
15.882463453186
30
0
41
1
10
28.9985924706293
20
15.6331221838074
30
0
41
1
10
28.9278536693626
20
15.5298511829319
30
0
0
SPLINE
5
1A3
100
AcDbEntity
8
1
62
256
6
ByLayer
370
18
48
1
60
0
100
AcDbSpline
70
4
71
3
72
10
73
6
40
0
40
0
40
0
40
0
40
0.375000000000406
40
0.750000000000812
40
1
40
1
40
1
40
1
41
1
10
32.8738387379922
20
11.6354050302939
30
0
41
1
10
33.0393132562622
20
11.7309417879594
30
0
41
1
10
33.3542832368291
20
11.9496856596815
30
0
41
1
10
33.7180644584618
20
12.3054058269288
30
0
41
1
10
33.9102195413658
20
12.5547470963075
30
0
41
1
10
33.9809583426325
20
12.658018097183
30
0
0
SPLINE
5
1A4
100
AcDbEntity
8
1
62
256
6
ByLayer
370
18
48
1
60
0
100
AcDbSpline
70
4
71
3
72
8
73
4
40
0
40
0
40
0
40
0
40
1
40
1
40
1
40
1
41
1
10
36.9087
20
12.0468203230275
30
0
41
1
10
35.9327861142111
20
12.2505529144131
30
0
41
1
10
34.9568722284223
20
12.4542855057987
30
0
41
1
10
33.9809583426334
20
12.6580180971844
30
0
0
SPLINE
5
1A5
100
AcDbEntity
8
1
62
256
6
ByLayer
370
18
48
1
60
0
100
AcDbSpline
70
4
71
3
72
10
73
6
40
0
40
0
40
0
40
0
40
0.249999999999984
40
0.624999999999992
40
1
40
1
40
1
40
1
41
1
10
31.4741419704884
20
16.9999514190073
30
0
41
1
10
31.3493372596216
20
16.990325320517
30
0
41
1
10
31.0373238446736
20
16.9485847719518
30
0
41
1
10
30.5473705323856
20
16.8114010762127
30
0
41
1
10
30.2004477922626
20
16.6480010074828
30
0
41
1
10
30.0349732739932
20
16.5524642498153
30
0
0
SPLINE
5
1A6
100
AcDbEntity
8
1
62
256
6
ByLayer
370
18
48
1
60
0
100
AcDbSpline
70
4
71
3
72
29
73
25
40
0
40
0
40
0
40
0
40
0.125000000000944
40
0.171875000000893
40
0.218750000000841
40
0.242187500000815
40
0.265625000000789
40
0.277343750000776
40
0.289062500000763
40
0.312500000000737
40
0.359375000000686
40
0.406250000000634
40
0.50000000000053
40
0.593750000000427
40
0.640625000000375
40
0.687500000000323
40
0.710937500000298
40
0.722656250000285
40
0.734375000000272
40
0.757812500000246
40
0.78125000000022
40
0.828125000000168
40
0.875000000000116
40
1
40
1
40
1
40
1
41
1
10
30.0184894631232
20
11.5673823034225
30
0
41
1
10
30.0701249635616
20
11.5320129027887
30
0
41
1
10
30.1423387586758
20
11.4854848378811
30
0
41
1
10
30.2361364000316
20
11.430098167064
30
0
41
1
10
30.2869063723228
20
11.4015556611105
30
0
41
1
10
30.327827477966
20
11.3794110295492
30
0
41
1
10
30.3535187793258
20
11.3658546040166
30
0
41
1
10
30.3741281871573
20
11.3551743504004
30
0
41
1
10
30.394864815298
20
11.3446567639856
30
0
41
1
10
30.4316145399624
20
11.3267722422893
30
0
41
1
10
30.4853232637026
20
11.3027647153985
30
0
41
1
10
30.5735602282824
20
11.2679766890323
30
0
41
1
10
30.6874952671465
20
11.2317848490862
30
0
41
1
10
30.8042618308414
20
11.2061604225655
30
0
41
1
10
30.8980712933115
20
11.1921692691863
30
0
41
1
10
30.9565881836697
20
11.1861060063569
30
0
41
1
10
30.9973566530481
20
11.1832195661641
30
0
41
1
10
31.0205738958265
20
11.1819597441941
30
0
41
1
10
31.0437622928057
20
11.1809044122491
30
0
41
1
10
31.0727898251859
20
11.1797989704956
30
0
41
1
10
31.1193008582682
20
11.1785162306842
30
0
41
1
10
31.1775401969104
20
11.1778497799418
30
0
41
1
10
31.2864646725474
20
11.178917223222
30
0
41
1
10
31.3722676860734
20
11.1831048118624
30
0
41
1
10
31.4346700415068
20
11.1879178611076
30
0
0
SPLINE
5
1A7
100
AcDbEntity
8
1
62
256
6
ByLayer
370
18
48
1
60
0
100
AcDbSpline
70
4
71
3
72
29
73
25
40
0
40
0
40
0
40
0
40
0.125000000000946
40
0.171875000000894
40
0.218750000000842
40
0.242187500000817
40
0.265625000000791
40
0.277343750000778
40
0.289062500000765
40
0.312500000000739
40
0.359375000000687
40
0.406250000000635
40
0.500000000000532
40
0.593750000000428
40
0.640625000000376
40
0.687500000000324
40
0.710937500000298
40
0.722656250000285
40
0.734375000000272
40
0.757812500000247
40
0.781250000000221
40
0.828125000000169
40
0.875000000000117
40
1
40
1
40
1
40
1
41
1
10
28.9278536693626
20
15.5298511829319
30
0
41
1
10
28.8924842687288
20
15.4782156824934
30
0
41
1
10
28.8459562038212
20
15.4060018873792
30
0
41
1
10
28.7905695330041
20
15.3122042460234
30
0
41
1
10
28.7620270270506
20
15.2614342737322
30
0
41
1
10
28.7398823954893
20
15.220513168089
30
0
41
1
10
28.7263259699567
20
15.1948218667292
30
0
41
1
10
28.7156457163405
20
15.1742124588977
30
0
41
1
10
28.7051281299257
20
15.153475830757
30
0
41
1
10
28.6872436082294
20
15.1167261060927
30
0
41
1
10
28.6632360813386
20
15.0630173823525
30
0
41
1
10
28.6284480549724
20
14.9747804177727
30
0
41
1
10
28.5922562150263
20
14.8608453789085
30
0
41
1
10
28.5666317885056
20
14.7440788152136
30
0
41
1
10
28.5526406351265
20
14.6502693527435
30
0
41
1
10
28.5465773722971
20
14.5917524623853
30
0
41
1
10
28.5436909321042
20
14.5509839930069
30
0
41
1
10
28.5424311101342
20
14.5277667502285
30
0
41
1
10
28.5413757781891
20
14.5045783532493
30
0
41
1
10
28.5402703364357
20
14.4755508208692
30
0
41
1
10
28.5389875966243
20
14.4290397877868
30
0
41
1
10
28.5383211458819
20
14.3708004491446
30
0
41
1
10
28.5393885891621
20
14.2618759735077
30
0
41
1
10
28.5435761778025
20
14.1760729599816
30
0
41
1
10
28.5483892270477
20
14.1136706045483
30
0
0
SPLINE
5
1A8
100
AcDbEntity
8
1
62
256
6
ByLayer
370
18
48
1
60
0
100
AcDbSpline
70
4
71
3
72
29
73
25
40
0
40
0
40
0
40
0
40
0.125000000000945
40
0.171875000000894
40
0.218750000000842
40
0.242187500000816
40
0.26562500000079
40
0.277343750000777
40
0.289062500000764
40
0.312500000000738
40
0.359375000000687
40
0.406250000000635
40
0.500000000000531
40
0.593750000000427
40
0.640625000000376
40
0.687500000000324
40
0.710937500000298
40
0.722656250000285
40
0.734375000000272
40
0.757812500000246
40
0.78125000000022
40
0.828125000000168
40
0.875000000000117
40
1
40
1
40
1
40
1
41
1
10
32.890322548872
20
16.6204869766924
30
0
41
1
10
32.8386870484335
20
16.6558563773262
30
0
41
1
10
32.7664732533193
20
16.7023844422338
30
0
41
1
10
32.6726756119635
20
16.7577711130509
30
0
41
1
10
32.6219056396724
20
16.7863136190044
30
0
41
1
10
32.5809845340291
20
16.8084582505658
30
0
41
1
10
32.5552932326693
20
16.8220146760983
30
0
41
1
10
32.5346838248378
20
16.8326949297145
30
0
41
1
10
32.5139471966971
20
16.8432125161293
30
0
41
1
10
32.4771974720328
20
16.8610970378256
30
0
41
1
10
32.4234887482926
20
16.8851045647164
30
0
41
1
10
32.3352517837128
20
16.9198925910826
30
0
41
1
10
32.2213167448486
20
16.9560844310287
30
0
41
1
10
32.1045501811537
20
16.9817088575494
30
0
41
1
10
32.0107407186836
20
16.9957000109286
30
0
41
1
10
31.9522238283254
20
17.001763273758
30
0
41
1
10
31.911455358947
20
17.0046497139508
30
0
41
1
10
31.8882381161686
20
17.0059095359208
30
0
41
1
10
31.8650497191894
20
17.0069648678658
30
0
41
1
10
31.8360221868093
20
17.0080703096193
30
0
41
1
10
31.7895111537269
20
17.0093530494307
30
0
41
1
10
31.7312718150847
20
17.0100195001731
30
0
41
1
10
31.6223473394478
20
17.0089520568929
30
0
41
1
10
31.5365443259217
20
17.0047644682525
30
0
41
1
10
31.4741419704884
20
16.9999514190073
30
0
0
SPLINE
5
1A9
100
AcDbEntity
8
1
62
256
6
ByLayer
370
18
48
1
60
0
100
AcDbSpline
70
4
71
3
72
8
73
4
40
0
40
0
40
0
40
0
40
1
40
1
40
1
40
1
41
1
10
29.2044060059976
20
17.9910489570874
30
0
41
1
10
29.4812617619993
20
17.511520721332
30
0
41
1
10
29.7581175180012
20
17.0319924855765
30
0
41
1
10
30.0349732740029
20
16.552464249821
30
0
0
SPLINE
5
1AA
100
AcDbEntity
8
1
62
256
6
ByLayer
370
18
48
1
60
0
100
AcDbSpline
70
4
71
3
72
29
73
25
40
0
40
0
40
0
40
0
40
0.125000000000945
40
0.171875000000893
40
0.218750000000841
40
0.242187500000815
40
0.26562500000079
40
0.277343750000777
40
0.289062500000764
40
0.312500000000738
40
0.359375000000686
40
0.406250000000634
40
0.50000000000053
40
0.593750000000427
40
0.640625000000375
40
0.687500000000323
40
0.710937500000297
40
0.722656250000284
40
0.734375000000271
40
0.757812500000245
40
0.781250000000219
40
0.828125000000168
40
0.875000000000116
40
1
40
1
40
1
40
1
41
1
10
33.9809583426326
20
12.658018097183
30
0
41
1
10
34.0163277432663
20
12.7096535976215
30
0
41
1
10
34.0628558081739
20
12.7818673927357
30
0
41
1
10
34.118242478991
20
12.8756650340914
30
0
41
1
10
34.1467849849445
20
12.9264350063827
30
0
41
1
10
34.1689296165059
20
12.9673561120259
30
0
41
1
10
34.1824860420384
20
12.9930474133857
30
0
41
1
10
34.1931662956546
20
13.0136568212172
30
0
41
1
10
34.2036838820694
20
13.0343934493579
30
0
41
1
10
34.2215684037657
20
13.0711431740222
30
0
41
1
10
34.2455759306565
20
13.1248518977625
30
0
41
1
10
34.2803639570227
20
13.2130888623422
30
0
41
1
10
34.3165557969688
20
13.3270239012064
30
0
41
1
10
34.3421802234895
20
13.4437904649013
30
0
41
1
10
34.3561713768687
20
13.5375999273714
30
0
41
1
10
34.3622346396981
20
13.5961168177296
30
0
41
1
10
34.365121079891
20
13.636885287108
30
0
41
1
10
34.366380901861
20
13.6601025298864
30
0
41
1
10
34.367436233806
20
13.6832909268656
30
0
41
1
10
34.3685416755595
20
13.7123184592457
30
0
41
1
10
34.3698244153708
20
13.7588294923281
30
0
41
1
10
34.3704908661132
20
13.8170688309703
30
0
41
1
10
34.3694234228331
20
13.9259933066072
30
0
41
1
10
34.3652358341926
20
14.0117963201333
30
0
41
1
10
34.3604227849475
20
14.0741986755667
30
0
0
SPLINE
5
1AB
100
AcDbEntity
8
1
62
256
6
ByLayer
370
18
48
1
60
0
100
AcDbSpline
70
4
71
3
72
10
73
6
40
0
40
0
40
0
40
0
40
0.249999999999984
40
0.624999999999992
40
1
40
1
40
1
40
1
41
1
10
34.3604227849475
20
14.0741986755667
30
0
41
1
10
34.3507966864572
20
14.1990033864334
30
0
41
1
10
34.309056137892
20
14.5110168013814
30
0
41
1
10
34.1718724421528
20
15.0009701136694
30
0
41
1
10
34.0084723734229
20
15.3478928537924
30
0
41
1
10
33.9129356157554
20
15.5133673720618
30
0
0
SPLINE
5
1AC
100
AcDbEntity
8
1
62
256
6
ByLayer
370
18
48
1
60
0
100
AcDbSpline
70
4
71
3
72
10
73
6
40
0
40
0
40
0
40
0
40
0.249999999999985
40
0.624999999999992
40
1
40
1
40
1
40
1
41
1
10
31.4346700415068
20
11.1879178611076
30
0
41
1
10
31.5594747523736
20
11.1975439595979
30
0
41
1
10
31.8714881673215
20
11.2392845081631
30
0
41
1
10
32.3614414796095
20
11.3764682039023
30
0
41
1
10
32.7083642197325
20
11.5398682726322
30
0
41
1
10
32.873838738002
20
11.6354050302996
30
0
0
SPLINE
5
1AD
100
AcDbEntity
8
1
62
256
6
ByLayer
370
18
48
1
60
0
100
AcDbSpline
70
4
71
3
72
17
73
13
40
0
40
0
40
0
40
0
40
0.0625
40
0.125
40
0.25
40
0.375
40
0.5
40
0.625
40
0.75
40
0.875
40
0.9375
40
1
40
1
40
1
40
1
41
1
10
32.4087000105237
20
19.8410489963624
30
0
41
1
10
32.4313725025254
20
19.8541389657228
30
0
41
1
10
32.4780037265262
20
19.878090728921
30
0
41
1
10
32.5755113438436
20
19.9166267977208
30
0
41
1
10
32.7036057094178
20
19.9464973289201
30
0
41
1
10
32.8613595386049
20
19.9516616910241
30
0
41
1
10
33.0170897763537
20
19.9259506288
30
0
41
1
10
33.1648113734365
20
19.8703519241129
30
0
41
1
10
33.2988491661901
20
19.7870033232198
30
0
41
1
10
33.3948462881042
20
19.6970867142011
30
0
41
1
10
33.460022789512
20
19.6149599763481
30
0
41
1
10
33.4884303641908
20
19.5709011653365
30
0
41
1
10
33.5015203335512
20
19.5482286733348
30
0
0
SPLINE
5
1AE
100
AcDbEntity
8
1
62
256
6
ByLayer
370
18
48
1
60
0
100
AcDbSpline
70
4
71
3
72
8
73
4
40
0
40
0
40
0
40
0
40
1
40
1
40
1
40
1
41
1
10
32.4087000000033
20
19.8410489570893
30
0
41
1
10
32.0971806568316
20
18.8940164443953
30
0
41
1
10
31.78566131366
20
17.9469839317013
30
0
41
1
10
31.4741419704884
20
16.9999514190073
30
0
0
SPLINE
5
1AF
100
AcDbEntity
8
1
62
256
6
ByLayer
370
18
48
1
60
0
100
AcDbSpline
70
4
71
3
72
8
73
4
40
0
40
0
40
0
40
0
40
1
40
1
40
1
40
1
41
1
10
36.9087000000033
20
12.0468203230294
30
0
41
1
10
35.8406020020013
20
11.430153656362
30
0
41
1
10
34.772504004028
20
10.8134869897112
30
0
41
1
10
33.7044060059975
20
10.1968203230275
30
0
0
SPLINE
5
1B0
100
AcDbEntity
8
1
62
256
6
ByLayer
370
18
48
1
60
0
100
AcDbSpline
70
4
71
3
72
16
73
12
40
0
40
0
40
0
40
0
40
0.0566672280187294
40
0.191429052587482
40
0.326190877156235
40
0.460952701724988
40
0.595714526293741
40
0.730476350862494
40
0.865238175431247
40
0.932619087715624
40
1
40
1
40
1
40
1
41
1
10
25.6663558372319
20
-15.129477576219
30
0
41
1
10
25.6575830911308
20
-15.1496716730529
30
0
41
1
10
25.6307639548724
20
-15.2191134240546
30
0
41
1
10
25.6018433171349
20
-15.3431343434778
30
0
41
1
10
25.5966789550309
20
-15.5008881726648
30
0
41
1
10
25.6223900172549
20
-15.6566184104136
30
0
41
1
10
25.6779887219421
20
-15.8043400074964
30
0
41
1
10
25.7613373228352
20
-15.93837780025
30
0
41
1
10
25.8512539318539
20
-16.0343749221642
30
0
41
1
10
25.9333806697069
20
-16.099551423572
30
0
41
1
10
25.9774394807185
20
-16.1279589982508
30
0
41
1
10
26.0001119727202
20
-16.1410489676112
30
0
0
SPLINE
5
1B1
100
AcDbEntity
8
1
62
256
6
ByLayer
370
18
48
1
60
0
100
AcDbSpline
70
4
71
3
72
8
73
4
40
0
40
0
40
0
40
0
40
1
40
1
40
1
40
1
41
1
10
36.7882623956332
20
-0.500016759665328
30
0
41
1
10
36.8284082637539
20
-0.333344506444149
30
0
41
1
10
36.8685541318747
20
-0.166672253222941
30
0
41
1
10
36.9086999999955
20
-1.7621E-12
30
0
0
SPLINE
5
1B2
100
AcDbEntity
8
1
62
256
6
ByLayer
370
18
48
1
60
0
100
AcDbSpline
70
4
71
3
72
8
73
4
40
0
40
0
40
0
40
0
40
1
40
1
40
1
40
1
41
1
10
28.5618996889676
20
10.1039025423673
30
0
41
1
10
28.2270303556387
20
10.6839132415897
30
0
41
1
10
27.892161022308
20
11.2639239408152
30
0
41
1
10
27.5572916889676
20
11.8439346400575
30
0
0
SPLINE
5
1B3
100
AcDbEntity
8
1
62
256
6
ByLayer
370
18
48
1
60
0
100
AcDbSpline
70
4
71
3
72
8
73
4
40
0
40
0
40
0
40
0
40
1
40
1
40
1
40
1
41
1
10
29.6321265394423
20
9.71663795461146
30
0
41
1
10
29.7609141806697
20
10.3335527375482
30
0
41
1
10
29.8897018218971
20
10.9504675204849
30
0
41
1
10
30.0184894631245
20
11.5673823034216
30
0
0
SPLINE
5
1B4
100
AcDbEntity
8
1
62
256
6
ByLayer
370
18
48
1
60
0
100
AcDbSpline
70
4
71
3
72
8
73
4
40
0
40
0
40
0
40
0
40
1
40
1
40
1
40
1
41
1
10
33.7044060059975
20
10.1968203230275
30
0
41
1
10
33.2270831143119
20
9.92123782302238
30
0
41
1
10
32.7497602226376
20
9.64565532302385
30
0
41
1
10
32.272437330967
20
9.37007282302747
30
0
0
SPLINE
5
1B5
100
AcDbEntity
8
1
62
256
6
ByLayer
370
18
48
1
60
0
100
AcDbSpline
70
4
71
3
72
8
73
4
40
0
40
0
40
0
40
0
40
1
40
1
40
1
40
1
41
1
10
30.8313834902435
20
9.35390019562183
30
0
41
1
10
31.0324790073313
20
9.96523941745042
30
0
41
1
10
31.2335745244191
20
10.576578639279
30
0
41
1
10
31.4346700415068
20
11.1879178611076
30
0
0
SPLINE
5
1B6
100
AcDbEntity
8
1
62
256
6
ByLayer
370
18
48
1
60
0
100
AcDbSpline
70
4
71
3
72
11
73
7
40
0
40
0
40
0
40
0
40
0.27621033868134
40
0.63810516934067
40
0.819052584670335
40
1
40
1
40
1
40
1
41
1
10
36.5112566938444
20
3.31000000000003
30
0
41
1
10
36.512003256844
20
3.31
30
0
41
1
10
36.5068136484355
20
3.30999999999997
30
0
41
1
10
36.4797842809057
20
3.30999999999997
30
0
41
1
10
36.4412796723751
20
3.30999999999995
30
0
41
1
10
36.4173396538572
20
3.30999999999995
30
0
41
1
10
36.4042501061091
20
3.30999999999997
30
0
0
SPLINE
5
1B7
100
AcDbEntity
8
1
62
256
6
ByLayer
370
18
48
1
60
0
100
AcDbSpline
70
4
71
3
72
11
73
7
40
0
40
0
40
0
40
0
40
0.205737051871263
40
0.411474103742526
40
0.822948207485052
40
1
40
1
40
1
40
1
41
1
10
37.2015203623025
20
-1.630567397E-07
30
0
41
1
10
37.2146103316629
20
-1.630567397E-07
30
0
41
1
10
37.2385620948611
20
-1.630567112E-07
30
0
41
1
10
37.277098163661
20
-1.630566828E-07
30
0
41
1
10
37.3001616380878
20
-1.630566544E-07
30
0
41
1
10
37.3067904653888
20
-1.63056626E-07
30
0
41
1
10
37.3078353623024
20
-1.63056626E-07
30
0
0
SPLINE
5
1B8
100
AcDbEntity
8
1
62
256
6
ByLayer
370
18
48
1
60
0
100
AcDbSpline
70
4
71
3
72
14
73
10
40
0
40
0
40
0
40
0
40
0.0954782148971715
40
0.190956429794343
40
0.381912859588686
40
0.572869289383029
40
0.763825719177372
40
0.954782148971715
40
1
40
1
40
1
40
1
41
1
10
26.7973822289144
20
3.31000000000026
30
0
41
1
10
26.7747104671664
20
3.31000000000026
30
0
41
1
10
26.730659390164
20
3.31000000000023
30
0
41
1
10
26.6485558231042
20
3.31000000000017
30
0
41
1
10
26.5586522948242
20
3.31000000000012
30
0
41
1
10
26.4752734027681
20
3.31000000000006
30
0
41
1
10
26.4196522475094
20
3.31000000000003
30
0
41
1
10
26.4005008978154
20
3.31
30
0
41
1
10
26.3977867794314
20
3.31000000000003
30
0
41
1
10
26.3975552289129
20
3.31
30
0
0
SPLINE
5
1B9
100
AcDbEntity
8
1
62
256
6
ByLayer
370
18
48
1
60
0
100
AcDbSpline
70
4
71
3
72
29
73
25
40
0
40
0
40
0
40
0
40
0.142775836939019
40
0.196316775790686
40
0.249857714642354
40
0.276628184068188
40
0.303398653494022
40
0.316783888206939
40
0.330169122919856
40
0.356939592345689
40
0.410480531197357
40
0.464021470049025
40
0.57110334775236
40
0.678185225455695
40
0.731726164307363
40
0.785267103159031
40
0.812037572584864
40
0.825422807297781
40
0.838808042010698
40
0.865578511436532
40
0.892348980862366
40
0.945889919714034
40
0.999430858565701
40
1
40
1
40
1
40
1
41
1
10
28.9278536693626
20
-0.200000000000102
30
0
41
1
10
28.8924842687288
20
-0.200000000000102
30
0
41
1
10
28.8459562038212
20
-0.200000000000102
30
0
41
1
10
28.7905695330041
20
-0.200000000000102
30
0
41
1
10
28.7620270270506
20
-0.200000000000102
30
0
41
1
10
28.7398823954893
20
-0.200000000000102
30
0
41
1
10
28.7263259699567
20
-0.200000000000102
30
0
41
1
10
28.7156457163405
20
-0.200000000000102
30
0
41
1
10
28.7051281299257
20
-0.200000000000102
30
0
41
1
10
28.6872436082294
20
-0.200000000000102
30
0
41
1
10
28.6632360813386
20
-0.200000000000102
30
0
41
1
10
28.6284480549724
20
-0.200000000000102
30
0
41
1
10
28.5922562150263
20
-0.200000000000102
30
0
41
1
10
28.5666317885056
20
-0.200000000000102
30
0
41
1
10
28.5526406351264
20
-0.200000000000102
30
0
41
1
10
28.546577372297
20
-0.200000000000102
30
0
41
1
10
28.5436909321042
20
-0.200000000000102
30
0
41
1
10
28.5424311101341
20
-0.200000000000102
30
0
41
1
10
28.5413757781891
20
-0.200000000000102
30
0
41
1
10
28.5402703364356
20
-0.200000000000102
30
0
41
1
10
28.5389875966243
20
-0.200000000000102
30
0
41
1
10
28.5383211458819
20
-0.200000000000102
30
0
41
1
10
28.538781053062
20
-0.200000000000074
30
0
41
1
10
28.5392666367048
20
-0.200000000000046
30
0
41
1
10
28.5392717723241
20
-0.200000000000017
30
0
0
SPLINE
5
1BA
100
AcDbEntity
8
1
62
256
6
ByLayer
370
18
48
1
60
0
100
AcDbSpline
70
4
71
3
72
14
73
10
40
0
40
0
40
0
40
0
40
0.102296308390699
40
0.281837046712559
40
0.461377785034419
40
0.64091852335628
40
0.82045926167814
40
0.91022963083907
40
1
40
1
40
1
40
1
41
1
10
25.6009770369843
20
-1.630565691E-07
30
0
41
1
10
25.599593119944
20
-1.630565691E-07
30
0
41
1
10
25.6003662079685
20
-1.630565407E-07
30
0
41
1
10
25.622390017255
20
-1.630565407E-07
30
0
41
1
10
25.6779887219421
20
-1.630564839E-07
30
0
41
1
10
25.7613373228352
20
-1.63056427E-07
30
0
41
1
10
25.8512539318539
20
-1.630563702E-07
30
0
41
1
10
25.9333806697069
20
-1.630563418E-07
30
0
41
1
10
25.9774394807185
20
-1.630563133E-07
30
0
41
1
10
26.0001119727202
20
-1.630563133E-07
30
0
0
SPLINE
5
1BB
100
AcDbEntity
8
1
62
256
6
ByLayer
370
18
48
1
60
0
100
AcDbSpline
70
4
71
3
72
8
73
4
40
0
40
0
40
0
40
0
40
1
40
1
40
1
40
1
41
1
10
36.7445872702573
20
-12.0907941964263
30
0
41
1
10
36.7992915135033
20
-12.076136238626
30
0
41
1
10
36.8539957567493
20
-12.0614782808256
30
0
41
1
10
36.9086999999955
20
-12.0468203230253
30
0
0
SPLINE
5
1BC
100
AcDbEntity
8
1
62
256
6
ByLayer
370
18
48
1
60
0
100
AcDbSpline
70
4
71
3
72
8
73
4
40
0
40
0
40
0
40
0
40
1
40
1
40
1
40
1
41
1
10
36.9087000000033
20
-12.0468203230295
30
0
41
1
10
36.8711996566437
20
-12.0251694896961
30
0
41
1
10
36.8336993132841
20
-12.0035186563628
30
0
41
1
10
36.7961989699246
20
-11.9818678230295
30
0
0
SPLINE
5
1BD
100
AcDbEntity
8
1
62
256
6
ByLayer
370
18
48
1
60
0
100
AcDbSpline
70
4
71
3
72
13
73
9
40
0
40
0
40
0
40
0
40
0.153605238086678
40
0.365203928565008
40
0.576802619043339
40
0.788401309521669
40
0.894200654760835
40
1
40
1
40
1
40
1
41
1
10
36.4469103925051
20
-12.6385511878883
30
0
41
1
10
36.4618670565009
20
-12.6734928876619
30
0
41
1
10
36.4915063633824
20
-12.7591039230566
30
0
41
1
10
36.5148456255517
20
-12.9006079199828
30
0
41
1
10
36.5096413028115
20
-13.0583541075096
30
0
41
1
10
36.4797842809057
20
-13.1864449424839
30
0
41
1
10
36.4412796723751
20
-13.2839611375485
30
0
41
1
10
36.4173396538572
20
-13.3305967950814
30
0
41
1
10
36.4042501061091
20
-13.3532685568292
30
0
0
SPLINE
5
1BE
100
AcDbEntity
8
1
62
256
6
ByLayer
370
18
48
1
60
0
100
AcDbSpline
70
4
71
3
72
13
73
9
40
0
40
0
40
0
40
0
40
0.120029784503174
40
0.240059569006348
40
0.480119138012696
40
0.720178707019045
40
0.960238276025393
40
1
40
1
40
1
40
1
41
1
10
26.7973822289143
20
-15.9274210463161
30
0
41
1
10
26.7747104671664
20
-15.9143314985679
30
0
41
1
10
26.730659390164
20
-15.8859144418535
30
0
41
1
10
26.6485558231041
20
-15.8207144308771
30
0
41
1
10
26.5586522948241
20
-15.7247140167625
30
0
41
1
10
26.4752734027681
20
-15.5907020960135
30
0
41
1
10
26.4351217378288
20
-15.4840739154195
30
0
41
1
10
26.4202893037621
20
-15.4248657177695
30
0
41
1
10
26.4183192599531
20
-15.4164202903144
30
0
0
SPLINE
5
1BF
100
AcDbEntity
8
1
62
256
6
ByLayer
370
13
48
1
60
0
100
AcDbSpline
70
4
71
3
72
22
73
18
40
0
40
0
40
0
40
0
40
0.125
40
0.125
40
0.25
40
0.25
40
0.375
40
0.375
40
0.5
40
0.5
40
0.625
40
0.625
40
0.75
40
0.75
40
0.875
40
0.875
40
1
40
1
40
1
40
1
41
1
10
33.2076925808029
20
7.31000000000006
30
0
41
1
10
33.1825139088486
20
7.31000000000006
30
0
41
1
10
33.1528943815713
20
7.31000000000006
30
0
41
1
10
33.086915659165
20
7.31000000000006
30
0
41
1
10
33.0503087452475
20
7.31000000000006
30
0
41
1
10
32.9693137662271
20
7.31000000000006
30
0
41
1
10
32.9252221696617
20
7.31000000000006
30
0
41
1
10
32.8330581621838
20
7.31000000000006
30
0
41
1
10
32.7845547444945
20
7.31000000000006
30
0
41
1
10
32.6822942306321
20
7.31000000000006
30
0
41
1
10
32.6304061953245
20
7.31000000000006
30
0
41
1
10
32.5254382978034
20
7.31000000000006
30
0
41
1
10
32.4716438022537
20
7.31000000000006
30
0
41
1
10
32.3666946233035
20
7.31000000000006
30
0
41
1
10
32.3155003848481
20
7.31000000000006
30
0
41
1
10
32.2156368611001
20
7.31000000000006
30
0
41
1
10
32.1673856635559
20
7.31000000000006
30
0
41
1
10
32.1224687428309
20
7.31000000000006
30
0
0
SPLINE
5
1C0
100
AcDbEntity
8
1
62
256
6
ByLayer
370
13
48
1
60
0
100
AcDbSpline
70
4
71
3
72
8
73
4
40
0
40
0
40
0
40
0
40
1
40
1
40
1
40
1
41
1
10
28.7537393068618
20
7.31000000000006
30
0
41
1
10
29.8731575271333
20
7.31000000000006
30
0
41
1
10
30.9964650888456
20
7.31000000000006
30
0
41
1
10
32.122468742831
20
7.31000000000006
30
0
0
SPLINE
5
1C1
100
AcDbEntity
8
1
62
256
6
ByLayer
370
13
48
1
60
0
100
AcDbSpline
70
4
71
3
72
12
73
8
40
0
40
0
40
0
40
0
40
0.249999999999998
40
0.249999999999998
40
0.499999999999996
40
0.499999999999996
40
1
40
1
40
1
40
1
41
1
10
36.7210802844337
20
-9.39885639192806
30
0
41
1
10
36.7439558710207
20
-9.35638759521899
30
0
41
1
10
36.7639963816973
20
-9.31256552414069
30
0
41
1
10
36.798549106269
20
-9.22228254529108
30
0
41
1
10
36.813025132692
20
-9.17577209080457
30
0
41
1
10
36.8473414859408
20
-9.03577721971124
30
0
41
1
10
36.8586999999999
20
-8.94067547281139
30
0
41
1
10
36.8586999999999
20
-8.84395237182034
30
0
0
SPLINE
5
1C2
100
AcDbEntity
8
1
62
256
6
ByLayer
370
13
48
1
60
0
100
AcDbSpline
70
4
71
3
72
12
73
8
40
0
40
0
40
0
40
0
40
0.5
40
0.5
40
0.75
40
0.75
40
1
40
1
40
1
40
1
41
1
10
25.930782263917
20
2.39320941820776
30
0
41
1
10
25.8783294948553
20
2.46703839392626
30
0
41
1
10
25.8365291830681
20
2.54473091185176
30
0
41
1
10
25.7883069435965
20
2.66396830350277
30
0
41
1
10
25.774556877751
20
2.70462150068207
30
0
41
1
10
25.7525264285331
20
2.78432807965265
30
0
41
1
10
25.7441207780636
20
2.82358264579173
30
0
41
1
10
25.7381184368117
20
2.86222368109256
30
0
0
SPLINE
5
1C3
100
AcDbEntity
8
1
62
256
6
ByLayer
370
13
48
1
60
0
100
AcDbSpline
70
4
71
2
72
6
73
3
40
0
40
0
40
0
40
1
40
1
40
1
41
0.500000072468689
10
24.7471626430699
20
0.500000000000076
30
0
41
0.499999927531311
10
24.7490469771899
20
0.511740438079017
30
0
41
0.500000072468689
10
24.7509415482789
20
0.523480282898767
30
0
0
SPLINE
5
1C4
100
AcDbEntity
8
1
62
256
6
ByLayer
370
13
48
1
60
0
100
AcDbSpline
70
4
71
3
72
8
73
4
40
0
40
0
40
0
40
0
40
1
40
1
40
1
40
1
41
1
10
29.6705913894081
20
-12.9007494747996
30
0
41
1
10
29.4534889587181
20
-13.2767819152013
30
0
41
1
10
29.2371457911753
20
-13.6514992732559
30
0
41
1
10
29.0215623381799
20
-14.0249007671151
30
0
0
SPLINE
5
1C5
100
AcDbEntity
8
1
62
256
6
ByLayer
370
13
48
1
60
0
100
AcDbSpline
70
4
71
3
72
8
73
4
40
0
40
0
40
0
40
0
40
1
40
1
40
1
40
1
41
1
10
25.7330220867012
20
2.9039766416966
30
0
41
1
10
25.730098183099
20
2.93725368056758
30
0
41
1
10
25.729064344025
20
2.96996890202192
30
0
41
1
10
25.72992892344
20
3.00211278706237
30
0
0
SPLINE
5
1C6
100
AcDbEntity
8
1
62
256
6
ByLayer
370
13
48
1
60
0
100
AcDbSpline
70
4
71
3
72
16
73
12
40
0
40
0
40
0
40
0
40
0.125000000000001
40
0.125000000000001
40
0.250000000000002
40
0.250000000000002
40
0.375000000000003
40
0.375000000000003
40
0.500000000000004
40
0.500000000000004
40
1
40
1
40
1
40
1
41
1
10
28.7537393068618
20
-15.4887838647952
30
0
41
1
10
28.7248374980194
20
-15.4706185673383
30
0
41
1
10
28.6963762507095
20
-15.4510526956742
30
0
41
1
10
28.6425289176352
20
-15.4105665436071
30
0
41
1
10
28.617355410465
20
-15.3898516253167
30
0
41
1
10
28.5704039143147
20
-15.3474719915716
30
0
41
1
10
28.5487422820482
20
-15.3258553857276
30
0
41
1
10
28.5106262297807
20
-15.2835147374911
30
0
41
1
10
28.4938052846734
20
-15.2624168414674
30
0
41
1
10
28.4224265280433
20
-15.1593234021202
30
0
41
1
10
28.4080874914255
20
-15.0874703708592
30
0
41
1
10
28.4358120971775
20
-15.0394499450771
30
0
0
SPLINE
5
1C7
100
AcDbEntity
8
1
62
256
6
ByLayer
370
13
48
1
60
0
100
AcDbSpline
70
4
71
3
72
8
73
4
40
0
40
0
40
0
40
0
40
1
40
1
40
1
40
1
41
1
10
25.6397816141333
20
2.94169250341912
30
0
41
1
10
25.669481663048
20
2.96226846325678
30
0
41
1
10
25.6998000302742
20
2.9825270809859
30
0
41
1
10
25.7299289234403
20
3.002112787063
30
0
0
SPLINE
5
1C8
100
AcDbEntity
8
1
62
256
6
ByLayer
370
13
48
1
60
0
100
AcDbSpline
70
4
71
3
72
32
73
28
40
0
40
0
40
0
40
0
40
0.062500000000001
40
0.062500000000001
40
0.125000000000002
40
0.125000000000002
40
0.249999999999999
40
0.249999999999999
40
0.312499999999997
40
0.312499999999997
40
0.374999999999995
40
0.374999999999995
40
0.499999999999996
40
0.499999999999996
40
0.562499999999997
40
0.562499999999997
40
0.624999999999997
40
0.624999999999997
40
0.687499999999998
40
0.687499999999998
40
0.749999999999998
40
0.749999999999998
40
0.812499999999999
40
0.812499999999999
40
0.874999999999999
40
0.874999999999999
40
1
40
1
40
1
40
1
41
1
10
20.6268112521295
20
15.4206192769651
30
0
41
1
10
20.5476405209335
20
15.4206192769651
30
0
41
1
10
20.4683325978247
20
15.4207444843482
30
0
41
1
10
20.3094324624862
20
15.4212366316036
30
0
41
1
10
20.2298155483631
20
15.421605387778
30
0
41
1
10
19.9959573428453
20
15.4229765258137
30
0
41
1
10
19.8448220514253
20
15.424262770438
30
0
41
1
10
19.6255981144846
20
15.4261523836475
30
0
41
1
10
19.5534165040675
20
15.4267749605043
30
0
41
1
10
19.4134905755422
20
15.4278305126852
30
0
41
1
10
19.3462835062479
20
15.4282591798612
30
0
41
1
10
19.1529253772341
20
15.4289922272085
30
0
41
1
10
19.0349038897787
20
15.4287698247894
30
0
41
1
10
18.876279375114
20
15.426013967006
30
0
41
1
10
18.8271993997245
20
15.4246898912359
30
0
41
1
10
18.7382629598117
20
15.4210785134629
30
0
41
1
10
18.6981323049935
20
15.4187873153654
30
0
41
1
10
18.6267658432512
20
15.4130315625207
30
0
41
1
10
18.5955270389194
20
15.4095677061517
30
0
41
1
10
18.5425704090684
20
15.4012271506272
30
0
41
1
10
18.5213486774409
20
15.3964147205235
30
0
41
1
10
18.4896664297468
20
15.3855386021178
30
0
41
1
10
18.4791027490619
20
15.3794591876897
30
0
41
1
10
18.4685810346763
20
15.3659450872198
30
0
41
1
10
18.4686841778152
20
15.3584476768106
30
0
41
1
10
18.485198753523
20
15.3343205733975
30
0
41
1
10
18.5171524980605
20
15.3161560631747
30
0
41
1
10
18.5691116670638
20
15.2962294511451
30
0
0
SPLINE
5
1C9
100
AcDbEntity
8
1
62
256
6
ByLayer
370
13
48
1
60
0
100
AcDbSpline
70
4
71
3
72
12
73
8
40
0
40
0
40
0
40
0
40
0.499999999999998
40
0.499999999999998
40
0.749999999999999
40
0.749999999999999
40
1
40
1
40
1
40
1
41
1
10
25.9954777382561
20
-11.6188148111226
30
0
41
1
10
26.4680696834641
20
-12.0539548439971
30
0
41
1
10
26.9583644142135
20
-12.4703721745221
30
0
41
1
10
27.7171897519702
20
-13.0715983840523
30
0
41
1
10
27.9744066827617
20
-13.2683572060001
30
0
41
1
10
28.4941843596612
20
-13.6530954388422
30
0
41
1
10
28.75667952553
20
-13.8410508331473
30
0
41
1
10
29.021562338189
20
-14.0249007671017
30
0
0
SPLINE
5
1CA
100
AcDbEntity
8
1
62
256
6
ByLayer
370
13
48
1
60
0
100
AcDbSpline
70
4
71
3
72
38
73
34
40
0
40
0
40
0
40
0
40
0.062499999999998
40
0.062499999999998
40
0.124999999999996
40
0.124999999999996
40
0.187499999999994
40
0.187499999999994
40
0.218749999999994
40
0.218749999999994
40
0.249999999999995
40
0.249999999999995
40
0.312499999999995
40
0.312499999999995
40
0.374999999999996
40
0.374999999999996
40
0.437499999999996
40
0.437499999999996
40
0.499999999999997
40
0.499999999999997
40
0.562499999999997
40
0.562499999999997
40
0.624999999999997
40
0.624999999999997
40
0.687499999999998
40
0.687499999999998
40
0.749999999999998
40
0.749999999999998
40
0.812499999999999
40
0.812499999999999
40
0.874999999999999
40
0.874999999999999
40
1
40
1
40
1
40
1
41
1
10
25.5357702130492
20
-2.01763809020494
30
0
41
1
10
25.5335357761446
20
-2.10324200096764
30
0
41
1
10
25.5229547035239
20
-2.18609381008139
30
0
41
1
10
25.4853637261191
20
-2.34633071345766
30
0
41
1
10
25.4578595271611
20
-2.42454736871136
30
0
41
1
10
25.3884390830305
20
-2.56939803705677
30
0
41
1
10
25.3466717606354
20
-2.63642207283937
30
0
41
1
10
25.2741117873662
20
-2.72918126782827
30
0
41
1
10
25.2481581654837
20
-2.75888104021942
30
0
41
1
10
25.1940354222535
20
-2.81459584012188
30
0
41
1
10
25.165772689698
20
-2.84075345634511
30
0
41
1
10
25.0776247250669
20
-2.91439018661004
30
0
41
1
10
25.0140922694724
20
-2.95723238828182
30
0
41
1
10
24.8800882014982
20
-3.02980027793765
30
0
41
1
10
24.8106431224655
20
-3.05905904058247
30
0
41
1
10
24.6675071916718
20
-3.1047392598536
30
0
41
1
10
24.5932785005768
20
-3.12120304187249
30
0
41
1
10
24.4435085785137
20
-3.14099889264028
30
0
41
1
10
24.3682888731515
20
-3.14439938745935
30
0
41
1
10
24.2173018773241
20
-3.13885521781131
30
0
41
1
10
24.1411954847315
20
-3.12983495368866
30
0
41
1
10
23.9899487212063
20
-3.09942458062332
30
0
41
1
10
23.9157549637866
20
-3.07828326328922
30
0
41
1
10
23.7700977944601
20
-3.02452187964619
30
0
41
1
10
23.6986347843979
20
-2.991900951286
30
0
41
1
10
23.5584516133796
20
-2.9147524755198
30
0
41
1
10
23.4902100416749
20
-2.87037381384781
30
0
41
1
10
23.3606747015846
20
-2.77231930529169
30
0
41
1
10
23.2988631592611
20
-2.71837362439703
30
0
41
1
10
23.1811540198102
20
-2.60038387503775
30
0
41
1
10
23.124798970347
20
-2.53567277627775
30
0
41
1
10
22.9698317297925
20
-2.33139019823744
30
0
41
1
10
22.8840921585389
20
-2.18176594373506
30
0
41
1
10
22.8167736154878
20
-2.01763809020531
30
0
0
SPLINE
5
1CB
100
AcDbEntity
8
1
62
256
6
ByLayer
370
13
48
1
60
0
100
AcDbSpline
70
4
71
3
72
8
73
4
40
0
40
0
40
0
40
0
40
1
40
1
40
1
40
1
41
1
10
36.7210802844337
20
-9.39885639192806
30
0
41
1
10
36.0006152355868
20
-10.7364082653697
30
0
41
1
10
35.2592544486247
20
-12.0629498510318
30
0
41
1
10
34.5090062836907
20
-13.3848085397062
30
0
0
SPLINE
5
1CC
100
AcDbEntity
8
1
62
256
6
ByLayer
370
13
48
1
60
0
100
AcDbSpline
70
4
71
3
72
18
73
14
40
0
40
0
40
0
40
0
40
0.125000000000002
40
0.125000000000002
40
0.250000000000004
40
0.250000000000004
40
0.375000000000005
40
0.375000000000005
40
0.500000000000007
40
0.500000000000007
40
0.750000000000004
40
0.750000000000004
40
1
40
1
40
1
40
1
41
1
10
35.8321304185094
20
-13.8919694198328
30
0
41
1
10
35.8508892127452
20
-13.8454128090754
30
0
41
1
10
35.873589284937
20
-13.7927767557686
30
0
41
1
10
35.9234074259977
20
-13.6814348894187
30
0
41
1
10
35.9502536505866
20
-13.6233170208233
30
0
41
1
10
36.0066723662363
20
-13.5036522270525
30
0
41
1
10
36.0362624516383
20
-13.4420833948756
30
0
41
1
10
36.0976431310243
20
-13.3162075984191
30
0
41
1
10
36.1294553569527
20
-13.2518691884139
30
0
41
1
10
36.2261976631243
20
-13.0584257094972
30
0
41
1
10
36.2929414526889
20
-12.9278047347971
30
0
41
1
10
36.4300766366102
20
-12.6641050849558
30
0
41
1
10
36.5004846536153
20
-12.5310119803776
30
0
41
1
10
36.5727107013692
20
-12.3968203230274
30
0
0
SPLINE
5
1CD
100
AcDbEntity
8
1
62
256
6
ByLayer
370
13
48
1
60
0
100
AcDbSpline
70
4
71
3
72
10
73
6
40
0
40
0
40
0
40
0
40
0.5
40
0.5
40
1
40
1
40
1
40
1
41
1
10
25.5013282252298
20
10.4891565217891
30
0
41
1
10
25.5915495061743
20
10.45500050455
30
0
41
1
10
25.6775277802659
20
10.4268312988567
30
0
41
1
10
25.8422758978534
20
10.380346938005
30
0
41
1
10
25.9215821910015
20
10.361978884324
30
0
41
1
10
25.9954777382609
20
10.3487389478316
30
0
0
SPLINE
5
1CE
100
AcDbEntity
8
1
62
256
6
ByLayer
370
13
48
1
60
0
100
AcDbSpline
70
4
71
3
72
18
73
14
40
0
40
0
40
0
40
0
40
0.249999999999998
40
0.249999999999998
40
0.374999999999997
40
0.374999999999997
40
0.499999999999996
40
0.499999999999996
40
0.624999999999996
40
0.624999999999996
40
0.749999999999995
40
0.749999999999995
40
1
40
1
40
1
40
1
41
1
10
31.4544060059975
20
-11.9014194600007
30
0
41
1
10
31.2704726932561
20
-11.8966573202825
30
0
41
1
10
31.0905055609321
20
-11.9169216359283
30
0
41
1
10
30.8262546499964
20
-11.983452434916
30
0
41
1
10
30.7391575041748
20
-12.011868573647
30
0
41
1
10
30.5723552873141
20
-12.0790177042131
30
0
41
1
10
30.4919108282686
20
-12.1179061392391
30
0
41
1
10
30.3367622328366
20
-12.2060926106687
30
0
41
1
10
30.2615578709424
20
-12.2558066055967
30
0
41
1
10
30.1200483025491
20
-12.3635886556139
30
0
41
1
10
30.0536744357624
20
-12.4215642400506
30
0
41
1
10
29.8670924169161
20
-12.6073435868675
30
0
41
1
10
29.7586730552427
20
-12.7481875543577
30
0
41
1
10
29.6705913894077
20
-12.9007494747993
30
0
0
SPLINE
5
1CF
100
AcDbEntity
8
1
62
256
6
ByLayer
370
13
48
1
60
0
100
AcDbSpline
70
4
71
3
72
12
73
8
40
0
40
0
40
0
40
0
40
0.499999999999986
40
0.499999999999986
40
0.749999999999993
40
0.749999999999993
40
1
40
1
40
1
40
1
41
1
10
25.7299289234403
20
-15.160825031926
30
0
41
1
10
25.7602372200431
20
-15.1548533213131
30
0
41
1
10
25.7996888387373
20
-15.1526767446671
30
0
41
1
10
25.8670604395018
20
-15.1595872037537
30
0
41
1
10
25.8909602807679
20
-15.1635663926176
30
0
41
1
10
25.9414978898212
20
-15.1758597514568
30
0
41
1
10
25.9683399607435
20
-15.1842826633592
30
0
41
1
10
25.9954777382575
20
-15.1951113216225
30
0
0
SPLINE
5
1D0
100
AcDbEntity
8
1
62
256
6
ByLayer
370
13
48
1
60
0
100
AcDbSpline
70
4
71
3
72
20
73
16
40
0
40
0
40
0
40
0
40
0.125000000000002
40
0.125000000000002
40
0.250000000000004
40
0.250000000000004
40
0.375000000000006
40
0.375000000000006
40
0.500000000000008
40
0.500000000000008
40
0.62500000000001
40
0.62500000000001
40
0.750000000000012
40
0.750000000000012
40
1
40
1
40
1
40
1
41
1
10
34.9800856084286
20
-13.6567863146533
30
0
41
1
10
34.9874289787944
20
-13.6610260115108
30
0
41
1
10
34.993172427164
20
-13.6679904881304
30
0
41
1
10
35.0015787289728
20
-13.6871283499546
30
0
41
1
10
35.0042470719202
20
-13.6994457499941
30
0
41
1
10
35.0062436924435
20
-13.7289590488728
30
0
41
1
10
35.0055964612415
20
-13.7459620165586
30
0
41
1
10
35.001041210698
20
-13.7844252261099
30
0
41
1
10
34.9970563314669
20
-13.8061587652252
30
0
41
1
10
34.9859884779348
20
-13.8526646829314
30
0
41
1
10
34.978931285931
20
-13.8774859686529
30
0
41
1
10
34.9617283932244
20
-13.9303435483814
30
0
41
1
10
34.9515170327397
20
-13.9584805229726
30
0
41
1
10
34.9175269692409
20
-14.0440454739531
30
0
41
1
10
34.8893883520027
20
-14.1050901203804
30
0
41
1
10
34.8586448381963
20
-14.1640227224587
30
0
0
SPLINE
5
1D1
100
AcDbEntity
8
1
62
256
6
ByLayer
370
13
48
1
60
0
100
AcDbSpline
70
4
71
3
72
8
73
4
40
0
40
0
40
0
40
0
40
1
40
1
40
1
40
1
41
1
10
36.7531271909999
20
-0.499999999999858
30
0
41
1
10
36.717700109639
20
-0.499999999999858
30
0
41
1
10
36.6822741288253
20
-0.499999999999858
30
0
41
1
10
36.6468493322022
20
-0.499999999999858
30
0
0
SPLINE
5
1D2
100
AcDbEntity
8
1
62
256
6
ByLayer
370
13
48
1
60
0
100
AcDbSpline
70
4
71
3
72
8
73
4
40
0
40
0
40
0
40
0
40
1
40
1
40
1
40
1
41
1
10
36.7210802844337
20
8.63987447058406
30
0
41
1
10
36.0011491992487
20
8.9980047942349
30
0
41
1
10
35.2596792877521
20
9.35351559563406
30
0
41
1
10
34.5090062836907
20
9.70790712965032
30
0
0
SPLINE
5
1D3
100
AcDbEntity
8
1
62
256
6
ByLayer
370
13
48
1
60
0
100
AcDbSpline
70
4
71
3
72
22
73
18
40
0
40
0
40
0
40
0
40
0.125
40
0.125
40
0.25
40
0.25
40
0.375
40
0.375
40
0.5
40
0.5
40
0.625
40
0.625
40
0.75
40
0.75
40
0.875
40
0.875
40
1
40
1
40
1
40
1
41
1
10
32.1224687428309
20
-18.7520066891949
30
0
41
1
10
32.167325970694
20
-18.7778974706166
30
0
41
1
10
32.2150223933102
20
-18.7995659140258
30
0
41
1
10
32.3142119907534
20
-18.8331646420023
30
0
41
1
10
32.3647415899651
20
-18.8448465239542
30
0
41
1
10
32.4676254031649
20
-18.8582215967515
30
0
41
1
10
32.5205599906424
20
-18.8598223219483
30
0
41
1
10
32.624364473234
20
-18.8526027284486
30
0
41
1
10
32.6754570829049
20
-18.843933665879
30
0
41
1
10
32.776018477032
20
-18.816448502071
30
0
41
1
10
32.8253478974497
20
-18.7975208957949
30
0
41
1
10
32.9180736922175
20
-18.751073425318
30
0
41
1
10
32.9620488206029
20
-18.7234247399925
30
0
41
1
10
33.0450688857426
20
-18.6589908691601
30
0
41
1
10
33.0827948914491
20
-18.6232231172792
30
0
41
1
10
33.1509182789382
20
-18.5450404851135
30
0
41
1
10
33.1815948211234
20
-18.5021169011729
30
0
41
1
10
33.2076925808029
20
-18.4569519692721
30
0
0
SPLINE
5
1D4
100
AcDbEntity
8
1
62
256
6
ByLayer
370
13
48
1
60
0
100
AcDbSpline
70
4
71
3
72
10
73
6
40
0
40
0
40
0
40
0
40
0.5
40
0.5
40
1
40
1
40
1
40
1
41
1
10
25.7299289234404
20
3.00211278706289
30
0
41
1
10
25.7605066255211
20
3.06950282235803
30
0
41
1
10
25.7990301845946
20
3.13208268248667
30
0
41
1
10
25.8898366698416
20
3.24901480986353
30
0
41
1
10
25.9409317821852
20
3.30159925165293
30
0
41
1
10
25.9954777382606
20
3.34691609531467
30
0
0
SPLINE
5
1D5
100
AcDbEntity
8
1
62
256
6
ByLayer
370
13
48
1
60
0
100
AcDbSpline
70
4
71
3
72
12
73
8
40
0
40
0
40
0
40
0
40
0.499999999999999
40
0.499999999999999
40
0.75
40
0.75
40
1
40
1
40
1
40
1
41
1
10
24.7509415482789
20
-15.4198400535971
30
0
41
1
10
24.8039549805384
20
-15.4086879233516
30
0
41
1
10
24.8640623477217
20
-15.3871017414469
30
0
41
1
10
24.9730164712507
20
-15.339941343741
30
0
41
1
10
25.0125202248478
20
-15.3217602344904
30
0
41
1
10
25.1005478619912
20
-15.2807067051424
30
0
41
1
10
25.1490123496118
20
-15.2578300034699
30
0
41
1
10
25.2042993783923
20
-15.2327944545637
30
0
0
SPLINE
5
1D6
100
AcDbEntity
8
1
62
256
6
ByLayer
370
13
48
1
60
0
100
AcDbSpline
70
4
71
3
72
8
73
4
40
0
40
0
40
0
40
0
40
1
40
1
40
1
40
1
41
1
10
35.8723738657811
20
-2.01763809020494
30
0
41
1
10
35.8876918243517
20
-2.18544888038286
30
0
41
1
10
35.9162834880603
20
-2.35029215545197
30
0
41
1
10
35.9642728089998
20
-2.51079882364982
30
0
0
SPLINE
5
1D7
100
AcDbEntity
8
1
62
256
6
ByLayer
370
13
48
1
60
0
100
AcDbSpline
70
4
71
3
72
8
73
4
40
0
40
0
40
0
40
0
40
1
40
1
40
1
40
1
41
1
10
25.5013282252427
20
15.1639175263163
30
0
41
1
10
25.5347862738881
20
15.1593392606752
30
0
41
1
10
25.5688114833895
20
15.1565784463344
30
0
41
1
10
25.6032501585544
20
15.1557798156315
30
0
0
SPLINE
5
1D8
100
AcDbEntity
8
1
62
256
6
ByLayer
370
13
48
1
60
0
100
AcDbSpline
70
4
71
3
72
8
73
4
40
0
40
0
40
0
40
0
40
1
40
1
40
1
40
1
41
1
10
25.603250158554
20
15.1557798156287
30
0
41
1
10
25.6155088793287
20
15.1554955366678
30
0
41
1
10
25.6276873165403
20
15.1554055246138
30
0
41
1
10
25.6397816141333
20
15.1555015237189
30
0
0
SPLINE
5
1D9
100
AcDbEntity
8
1
62
256
6
ByLayer
370
13
48
1
60
0
100
AcDbSpline
70
4
71
3
72
8
73
4
40
0
40
0
40
0
40
0
40
1
40
1
40
1
40
1
41
1
10
25.6032501585521
20
-15.1557798156313
30
0
41
1
10
25.6155245823347
20
-15.1554951725186
30
0
41
1
10
25.6277027298776
20
-15.1554056469581
30
0
41
1
10
25.6397816141332
20
-15.155501523719
30
0
0
SPLINE
5
1DA
100
AcDbEntity
8
1
62
256
6
ByLayer
370
13
48
1
60
0
100
AcDbSpline
70
4
71
3
72
12
73
8
40
0
40
0
40
0
40
0
40
0.5
40
0.5
40
0.75
40
0.75
40
1
40
1
40
1
40
1
41
1
10
24.7509415482789
20
15.4198400535973
30
0
41
1
10
24.8039549805384
20
15.4086879233518
30
0
41
1
10
24.8640623477218
20
15.3871017414472
30
0
41
1
10
24.9730164712507
20
15.3399413437413
30
0
41
1
10
25.0125202248478
20
15.3217602344907
30
0
41
1
10
25.1005478619912
20
15.2807067051427
30
0
41
1
10
25.149012349612
20
15.2578300034701
30
0
41
1
10
25.2042993783926
20
15.2327944545639
30
0
0
SPLINE
5
1DB
100
AcDbEntity
8
1
62
256
6
ByLayer
370
13
48
1
60
0
100
AcDbSpline
70
4
71
3
72
10
73
6
40
0
40
0
40
0
40
0
40
0.5
40
0.5
40
1
40
1
40
1
40
1
41
1
10
36.8586999999999
20
3.704622983718
30
0
41
1
10
36.8586999999999
20
3.75320278513357
30
0
41
1
10
36.8532323742649
20
3.79617197387498
30
0
41
1
10
36.8280886183379
20
3.87105199492669
30
0
41
1
10
36.8089067412077
20
3.90130910049814
30
0
41
1
10
36.7828669750803
20
3.92526982548341
30
0
0
SPLINE
5
1DC
100
AcDbEntity
8
1
62
256
6
ByLayer
370
13
48
1
60
0
100
AcDbSpline
70
4
71
3
72
22
73
18
40
0
40
0
40
0
40
0
40
0.125
40
0.125
40
0.25
40
0.25
40
0.375
40
0.375
40
0.5
40
0.5
40
0.625
40
0.625
40
0.75
40
0.75
40
0.875
40
0.875
40
1
40
1
40
1
40
1
41
1
10
25.9954777382583
20
-15.1951113216231
30
0
41
1
10
26.0247979052008
20
-15.2068108083583
30
0
41
1
10
26.0560088782637
20
-15.2200475260261
30
0
41
1
10
26.1197089929859
20
-15.2485930465525
30
0
41
1
10
26.1524399079565
20
-15.2639906878081
30
0
41
1
10
26.2196581208618
20
-15.2970856895251
30
0
41
1
10
26.2544493620386
20
-15.3149527223117
30
0
41
1
10
26.3235758000541
20
-15.3519147371936
30
0
41
1
10
26.3580745358628
20
-15.3710775230069
30
0
41
1
10
26.4269442783884
20
-15.4107561846755
30
0
41
1
10
26.4616298194638
20
-15.4314710198227
30
0
41
1
10
26.5289598626383
20
-15.4731274264206
30
0
41
1
10
26.5616320256657
20
-15.4940677496064
30
0
41
1
10
26.6250499535661
20
-15.5361359592231
30
0
41
1
10
26.6560476685334
20
-15.5574463040525
30
0
41
1
10
26.7146941002441
20
-15.5992530423697
30
0
41
1
10
26.7422493802256
20
-15.6196660746258
30
0
41
1
10
26.7681026423838
20
-15.6395782319507
30
0
0
SPLINE
5
1DD
100
AcDbEntity
8
1
62
256
6
ByLayer
370
13
48
1
60
0
100
AcDbSpline
70
4
71
3
72
8
73
4
40
0
40
0
40
0
40
0
40
1
40
1
40
1
40
1
41
1
10
35.8321304185094
20
-13.8919694198328
30
0
41
1
10
34.9617304593389
20
-15.4161403084502
30
0
41
1
10
34.0858432542011
20
-16.9372194002792
30
0
41
1
10
33.2076925808029
20
-18.4569519692721
30
0
0
SPLINE
5
1DE
100
AcDbEntity
8
1
62
256
6
ByLayer
370
13
48
1
60
0
100
AcDbSpline
70
4
71
3
72
12
73
8
40
0
40
0
40
0
40
0
40
0.25
40
0.25
40
0.499999999999999
40
0.499999999999999
40
1
40
1
40
1
40
1
41
1
10
25.2042993783923
20
15.232794454564
30
0
41
1
10
25.2182820719079
20
15.2264626907657
30
0
41
1
10
25.2351733647685
20
15.2201940550614
30
0
41
1
10
25.2746600752536
20
15.2078339595958
30
0
41
1
10
25.2974490334618
20
15.2016987390975
30
0
41
1
10
25.3733560613932
20
15.1839953932147
30
0
41
1
10
25.4329263986495
20
15.1732773588581
30
0
41
1
10
25.5013282252426
20
15.1639175263163
30
0
0
SPLINE
5
1DF
100
AcDbEntity
8
1
62
256
6
ByLayer
370
13
48
1
60
0
100
AcDbSpline
70
4
71
3
72
12
73
8
40
0
40
0
40
0
40
0
40
0.249999999999998
40
0.249999999999998
40
0.499999999999997
40
0.499999999999997
40
1
40
1
40
1
40
1
41
1
10
36.8587000000001
20
-11.6872384385233
30
0
41
1
10
36.8587000000001
20
-11.7113096175976
30
0
41
1
10
36.8572968511359
20
-11.7369007047434
30
0
41
1
10
36.851383284229
20
-11.7893954938861
30
0
41
1
10
36.8468818654257
20
-11.8164929900032
30
0
41
1
10
36.8282773137892
20
-11.9001557850658
30
0
41
1
10
36.8087638091228
20
-11.9593829178157
30
0
41
1
10
36.7828669750801
20
-12.0175107528212
30
0
0
SPLINE
5
1E0
100
AcDbEntity
8
1
62
256
6
ByLayer
370
13
48
1
60
0
100
AcDbSpline
70
4
71
3
72
8
73
4
40
0
40
0
40
0
40
0
40
1
40
1
40
1
40
1
41
1
10
25.7381184368117
20
2.86222368109256
30
0
41
1
10
25.7359637583393
20
2.87609476962567
30
0
41
1
10
25.7342486747043
20
2.89001680505072
30
0
41
1
10
25.7330220867012
20
2.9039766416966
30
0
0
SPLINE
5
1E1
100
AcDbEntity
8
1
62
256
6
ByLayer
370
13
48
1
60
0
100
AcDbSpline
70
4
71
3
72
8
73
4
40
0
40
0
40
0
40
0
40
1
40
1
40
1
40
1
41
1
10
36.5727107013685
20
-12.3968203230275
30
0
41
1
10
36.6199045886852
20
-12.3091369158249
30
0
41
1
10
36.6705749688032
20
-12.2199229910919
30
0
41
1
10
36.7210802844334
20
-12.1358044029653
30
0
0
SPLINE
5
1E2
100
AcDbEntity
8
1
62
256
6
ByLayer
370
13
48
1
60
0
100
AcDbSpline
70
4
71
3
72
12
73
8
40
0
40
0
40
0
40
0
40
0.25
40
0.25
40
0.5
40
0.5
40
1
40
1
40
1
40
1
41
1
10
25.2042993783921
20
2.45101448182388
30
0
41
1
10
25.2182550194906
20
2.49028958762267
30
0
41
1
10
25.235128912025
20
2.5282653442369
30
0
41
1
10
25.2746506788693
20
2.60165481371564
30
0
41
1
10
25.2975284375361
20
2.63734014141545
30
0
41
1
10
25.3731596111303
20
2.73770392586297
30
0
41
1
10
25.4330989949239
20
2.79650336390728
30
0
41
1
10
25.5013282252287
20
2.84624386519207
30
0
0
SPLINE
5
1E3
100
AcDbEntity
8
1
62
256
6
ByLayer
370
13
48
1
60
0
100
AcDbSpline
70
4
71
3
72
12
73
8
40
0
40
0
40
0
40
0
40
0.5
40
0.5
40
0.75
40
0.75
40
1
40
1
40
1
40
1
41
1
10
25.9954777382609
20
10.3487389478316
30
0
41
1
10
26.4680696834682
20
10.2640641930813
30
0
41
1
10
26.9583644142167
20
10.1977333426403
30
0
41
1
10
27.7171897519718
20
10.1319973009206
30
0
41
1
10
27.9744066827628
20
10.1156891334307
30
0
41
1
10
28.4941843596613
20
10.0952980571659
30
0
41
1
10
28.7566795255295
20
10.0911953917189
30
0
41
1
10
29.021562338188
20
10.0934809895467
30
0
0
SPLINE
5
1E4
100
AcDbEntity
8
1
62
256
6
ByLayer
370
13
48
1
60
0
100
AcDbSpline
70
4
71
3
72
22
73
18
40
0
40
0
40
0
40
0
40
0.125
40
0.125
40
0.25
40
0.25
40
0.375
40
0.375
40
0.5
40
0.5
40
0.625
40
0.625
40
0.75
40
0.75
40
0.875
40
0.875
40
1
40
1
40
1
40
1
41
1
10
33.207692580803
20
-17.2678625196061
30
0
41
1
10
33.1826386265174
20
-17.3142067647258
30
0
41
1
10
33.1529309536456
20
-17.3590405500789
30
0
41
1
10
33.0867204278552
20
-17.4411085941142
30
0
41
1
10
33.05011764254
20
-17.4787230514608
30
0
41
1
10
32.9695915701691
20
-17.5467946341576
30
0
41
1
10
32.9252268759475
20
-17.5773775869899
30
0
41
1
10
32.8328362574533
20
-17.6280069194794
30
0
41
1
10
32.7844277190566
20
-17.6484872138469
30
0
41
1
10
32.6829502774419
20
-17.6792681351785
30
0
41
1
10
32.6302805581009
20
-17.6892870273982
30
0
41
1
10
32.5253564421413
20
-17.6978298533601
30
0
41
1
10
32.4720901997385
20
-17.696497101678
30
0
41
1
10
32.3665935926771
20
-17.682342502593
30
0
41
1
10
32.3153862069724
20
-17.6697534544718
30
0
41
1
10
32.215926887657
20
-17.6340039256682
30
0
41
1
10
32.1674320499638
20
-17.6105600533997
30
0
41
1
10
32.122468742831
20
-17.5828824392252
30
0
0
SPLINE
5
1E5
100
AcDbEntity
8
1
62
256
6
ByLayer
370
13
48
1
60
0
100
AcDbSpline
70
4
71
3
72
12
73
8
40
0
40
0
40
0
40
0
40
0.500000000000005
40
0.500000000000005
40
0.750000000000003
40
0.750000000000003
40
1
40
1
40
1
40
1
41
1
10
36.7531271909999
20
8.80684111937353
30
0
41
1
10
36.7878062232204
20
8.87631087454031
30
0
41
1
10
36.814033651561
20
8.94877947079686
30
0
41
1
10
36.840760971234
20
9.06195806597904
30
0
41
1
10
36.8475498136394
20
9.10064462310012
30
0
41
1
10
36.8564867084147
20
9.17768013453409
30
0
41
1
10
36.8587
20
9.21620607778624
30
0
41
1
10
36.8586999999999
20
9.25474005658191
30
0
0
SPLINE
5
1E6
100
AcDbEntity
8
1
62
256
6
ByLayer
370
13
48
1
60
0
100
AcDbSpline
70
4
71
3
72
8
73
4
40
0
40
0
40
0
40
0
40
1
40
1
40
1
40
1
41
1
10
25.6397816141332
20
-15.155501523719
30
0
41
1
10
25.6696112719991
20
-15.1557382981523
30
0
41
1
10
25.6996912606949
20
-15.1574791166052
30
0
41
1
10
25.7299289234406
20
-15.1608250319261
30
0
0
SPLINE
5
1E7
100
AcDbEntity
8
1
62
256
6
ByLayer
370
13
48
1
60
0
100
AcDbSpline
70
4
71
3
72
8
73
4
40
0
40
0
40
0
40
0
40
1
40
1
40
1
40
1
41
1
10
33.2076925808029
20
-17.2678625196061
30
0
41
1
10
33.7649900736596
20
-16.2369860631744
30
0
41
1
10
34.316604111311
20
-15.2030669471646
30
0
41
1
10
34.8586448381964
20
-14.1640227224587
30
0
0
SPLINE
5
1E8
100
AcDbEntity
8
1
62
256
6
ByLayer
370
13
48
1
60
0
100
AcDbSpline
70
4
71
3
72
26
73
22
40
0
40
0
40
0
40
0
40
0.125
40
0.125
40
0.250000000000001
40
0.250000000000001
40
0.312500000000001
40
0.312500000000001
40
0.375000000000001
40
0.375000000000001
40
0.500000000000001
40
0.500000000000001
40
0.625000000000001
40
0.625000000000001
40
0.750000000000001
40
0.750000000000001
40
0.875000000000001
40
0.875000000000001
40
0.9375
40
0.9375
40
1
40
1
40
1
40
1
41
1
10
18.5691116670696
20
-2.01763809020494
30
0
41
1
10
18.6585668108598
20
-2.56177853361393
30
0
41
1
10
18.7645344392903
20
-3.09398662423203
30
0
41
1
10
19.0180883285544
20
-4.13346194507287
30
0
41
1
10
19.165651869219
20
-4.64072839639181
30
0
41
1
10
19.4267928790432
20
-5.381394395435
30
0
41
1
10
19.5205523902067
20
-5.62503463735854
30
0
41
1
10
19.7229431602998
20
-6.10467327647694
30
0
41
1
10
19.830428989509
20
-6.33795777373228
30
0
41
1
10
20.1730156592591
20
-7.01847847978621
30
0
41
1
10
20.4282142193051
20
-7.44640170173503
30
0
41
1
10
20.9995621578815
20
-8.25162155899125
30
0
41
1
10
21.3157969835968
20
-8.62902639732411
30
0
41
1
10
22.0173674047582
20
-9.3330233696621
30
0
41
1
10
22.3934023064003
20
-9.65034867914807
30
0
41
1
10
23.1961983239115
20
-10.2242531147193
30
0
41
1
10
23.622942180377
20
-10.4808254005868
30
0
41
1
10
24.3019989375894
20
-10.824889644968
30
0
41
1
10
24.5354179019441
20
-10.932975760608
30
0
41
1
10
25.0112460720591
20
-11.1343883335802
30
0
41
1
10
25.2539236779663
20
-11.2279005844091
30
0
41
1
10
25.5013282252427
20
-11.3147290885207
30
0
0
SPLINE
5
1E9
100
AcDbEntity
8
1
62
256
6
ByLayer
370
13
48
1
60
0
100
AcDbSpline
70
4
71
3
72
8
73
4
40
0
40
0
40
0
40
0
40
1
40
1
40
1
40
1
41
1
10
25.5013282252297
20
-15.1639175263178
30
0
41
1
10
25.5346158481143
20
-15.1593625810561
30
0
41
1
10
25.5686339872204
20
-15.1565825624592
30
0
41
1
10
25.6032501585521
20
-15.1557798156313
30
0
0
SPLINE
5
1EA
100
AcDbEntity
8
1
62
256
6
ByLayer
370
13
48
1
60
0
100
AcDbSpline
70
4
71
3
72
18
73
14
40
0
40
0
40
0
40
0
40
0.124999999999998
40
0.124999999999998
40
0.249999999999995
40
0.249999999999995
40
0.374999999999993
40
0.374999999999993
40
0.49999999999999
40
0.49999999999999
40
0.749999999999995
40
0.749999999999995
40
1
40
1
40
1
40
1
41
1
10
35.8321304185095
20
3.31000000000009
30
0
41
1
10
35.8508957546751
20
3.36755126157757
30
0
41
1
10
35.8735016065977
20
3.41942039086467
30
0
41
1
10
35.9234096060354
20
3.51399598097939
30
0
41
1
10
35.9502823911779
20
3.55593006755345
30
0
41
1
10
36.0067132063791
20
3.63232954754065
30
0
41
1
10
36.0362891517025
20
3.66674547078313
30
0
41
1
10
36.0976014827951
20
3.72961577165827
30
0
41
1
10
36.1294414839588
20
3.75811175765173
30
0
41
1
10
36.2263326993098
20
3.83490289138345
30
0
41
1
10
36.2931211867499
20
3.87513625451587
30
0
41
1
10
36.430244319705
20
3.93881396670022
30
0
41
1
10
36.5005956833423
20
3.96216619851418
30
0
41
1
10
36.5727107013675
20
3.97766780689287
30
0
0
SPLINE
5
1EB
100
AcDbEntity
8
1
62
256
6
ByLayer
370
13
48
1
60
0
100
AcDbSpline
70
4
71
3
72
22
73
18
40
0
40
0
40
0
40
0
40
0.125
40
0.125
40
0.25
40
0.25
40
0.375
40
0.375
40
0.5
40
0.5
40
0.625
40
0.625
40
0.75
40
0.75
40
0.875
40
0.875
40
1
40
1
40
1
40
1
41
1
10
32.1224687428309
20
3.31000000000006
30
0
41
1
10
32.1675526263176
20
3.31000000000006
30
0
41
1
10
32.2147496196356
20
3.31000000000006
30
0
41
1
10
32.313406961805
20
3.31000000000006
30
0
41
1
10
32.3649740056168
20
3.31000000000006
30
0
41
1
10
32.4678758947993
20
3.31000000000006
30
0
41
1
10
32.5197726752263
20
3.31000000000006
30
0
41
1
10
32.6244897621267
20
3.31000000000006
30
0
41
1
10
32.6759736484079
20
3.31000000000006
30
0
41
1
10
32.7760125177058
20
3.31000000000006
30
0
41
1
10
32.825251459141
20
3.31000000000006
30
0
41
1
10
32.9186551806065
20
3.31000000000006
30
0
41
1
10
32.9625153590331
20
3.31000000000006
30
0
41
1
10
33.0446740516094
20
3.31000000000006
30
0
41
1
10
33.0831656261358
20
3.31000000000006
30
0
41
1
10
33.1513801858473
20
3.31000000000006
30
0
41
1
10
33.1815329848777
20
3.31000000000006
30
0
41
1
10
33.2076925808029
20
3.31000000000006
30
0
0
SPLINE
5
1EC
100
AcDbEntity
8
1
62
256
6
ByLayer
370
13
48
1
60
0
100
AcDbSpline
70
4
71
3
72
8
73
4
40
0
40
0
40
0
40
0
40
1
40
1
40
1
40
1
41
1
10
25.5013282252297
20
2.84624386519019
30
0
41
1
10
25.5345046710305
20
2.87043017122949
30
0
41
1
10
25.5685169055556
20
2.89392907818319
30
0
41
1
10
25.6032501585521
20
2.91694316289789
30
0
0
SPLINE
5
1ED
100
AcDbEntity
8
1
62
256
6
ByLayer
370
13
48
1
60
0
100
AcDbSpline
70
4
71
3
72
8
73
4
40
0
40
0
40
0
40
0
40
1
40
1
40
1
40
1
41
1
10
29.0215623381881
20
10.0934809895466
30
0
41
1
10
29.2372029526065
20
9.95515806953421
30
0
41
1
10
29.4535464809959
20
9.8216260120964
30
0
41
1
10
29.6705913894081
20
9.69287436227791
30
0
0
SPLINE
5
1EE
100
AcDbEntity
8
1
62
256
6
ByLayer
370
13
48
1
60
0
100
AcDbSpline
70
4
71
3
72
8
73
4
40
0
40
0
40
0
40
0
40
1
40
1
40
1
40
1
41
1
10
35.964272809
20
-2.51079882364977
30
0
41
1
10
36.1953464314316
20
-3.28365529502278
30
0
41
1
10
36.4647486202613
20
-4.04171801678993
30
0
41
1
10
36.7531271909999
20
-4.79245638837213
30
0
0
SPLINE
5
1EF
100
AcDbEntity
8
1
62
256
6
ByLayer
370
13
48
1
60
0
100
AcDbSpline
70
4
71
3
72
10
73
6
40
0
40
0
40
0
40
0
40
0.5
40
0.5
40
1
40
1
40
1
40
1
41
1
10
36.8586999999999
20
-5.36353972712629
30
0
41
1
10
36.8586999999999
20
-5.26595420786558
30
0
41
1
10
36.8496149912706
20
-5.16854027083866
30
0
41
1
10
36.8144781542785
20
-4.97809561473684
30
0
41
1
10
36.7883643717249
20
-4.88418963890075
30
0
41
1
10
36.7531271909999
20
-4.79245638837213
30
0
0
SPLINE
5
1F0
100
AcDbEntity
8
1
62
256
6
ByLayer
370
13
48
1
60
0
100
AcDbSpline
70
4
71
3
72
8
73
4
40
0
40
0
40
0
40
0
40
1
40
1
40
1
40
1
41
1
10
34.9800856084286
20
-13.6567863146533
30
0
41
1
10
34.8363753014698
20
-13.5738151302453
30
0
41
1
10
34.6786810479091
20
-13.4827703105024
30
0
41
1
10
34.5090062836907
20
-13.3848085397062
30
0
0
SPLINE
5
1F1
100
AcDbEntity
8
1
62
256
6
ByLayer
370
13
48
1
60
0
100
AcDbSpline
70
4
71
3
72
12
73
8
40
0
40
0
40
0
40
0
40
0.5
40
0.5
40
0.75
40
0.75
40
1
40
1
40
1
40
1
41
1
10
24.7509415482789
20
0.52348028289876
30
0
41
1
10
24.8039549805384
20
0.851981795297149
30
0
41
1
10
24.8640623477218
20
1.17780229981003
30
0
41
1
10
24.9730164712507
20
1.66067856588185
30
0
41
1
10
25.0125202248478
20
1.82064922850947
30
0
41
1
10
25.1005478619912
20
2.13801377168139
30
0
41
1
10
25.1490123496116
20
2.29542120672374
30
0
41
1
10
25.2042993783921
20
2.45101448182413
30
0
0
SPLINE
5
1F2
100
AcDbEntity
8
1
62
256
6
ByLayer
370
13
48
1
60
0
100
AcDbSpline
70
4
71
3
72
14
73
10
40
0
40
0
40
0
40
0
40
0.25
40
0.25
40
0.5
40
0.5
40
0.75
40
0.75
40
1
40
1
40
1
40
1
41
1
10
36.8587000000013
20
11.6872384385233
30
0
41
1
10
36.8587000000013
20
11.7112141194657
30
0
41
1
10
36.8573049457759
20
11.7368571666331
30
0
41
1
10
36.8513557497752
20
11.7896115066717
30
0
41
1
10
36.8468352548354
20
11.8167163609419
30
0
41
1
10
36.8344878954325
20
11.8722136151253
30
0
41
1
10
36.8266622857394
20
11.9006067036001
30
0
41
1
10
36.8074157236917
20
11.9585483048064
30
0
41
1
10
36.7959012911055
20
11.9882540270733
30
0
41
1
10
36.7828669750801
20
12.0175107528214
30
0
0
SPLINE
5
1F3
100
AcDbEntity
8
1
62
256
6
ByLayer
370
13
48
1
60
0
100
AcDbSpline
70
4
71
3
72
8
73
4
40
0
40
0
40
0
40
0
40
1
40
1
40
1
40
1
41
1
10
34.9800856084286
20
7.81000000000006
30
0
41
1
10
34.8368003845021
20
8.44631755173197
30
0
41
1
10
34.6791605272571
20
9.0787889021295
30
0
41
1
10
34.5090062836907
20
9.70790712965032
30
0
0
SPLINE
5
1F4
100
AcDbEntity
8
1
62
256
6
ByLayer
370
13
48
1
60
0
100
AcDbSpline
70
4
71
3
72
20
73
16
40
0
40
0
40
0
40
0
40
0.249999999999995
40
0.249999999999995
40
0.374999999999996
40
0.374999999999996
40
0.499999999999996
40
0.499999999999996
40
0.624999999999997
40
0.624999999999997
40
0.749999999999998
40
0.749999999999998
40
0.874999999999999
40
0.874999999999999
40
1
40
1
40
1
40
1
41
1
10
29.6705913894081
20
9.69287436227791
30
0
41
1
10
29.7588077680443
20
9.6405441584804
30
0
41
1
10
29.8652201204064
20
9.59052371968534
30
0
41
1
10
30.0523361789906
20
9.52071661279501
30
0
41
1
10
30.1199095760782
20
9.49818340722581
30
0
41
1
10
30.2613268135529
20
9.45643381316634
30
0
41
1
10
30.3352983234253
20
9.43712644903147
30
0
41
1
10
30.4898243017136
20
9.40194767023624
30
0
41
1
10
30.5703768948378
20
9.38607453294375
30
0
41
1
10
30.7384992878803
20
9.35823280699171
30
0
41
1
10
30.8253732016175
20
9.34642368625603
30
0
41
1
10
31.0005900004614
20
9.32775380872351
30
0
41
1
10
31.0895294825822
20
9.32078923761705
30
0
41
1
10
31.2701252565198
20
9.31180440874064
30
0
41
1
10
31.3622686409481
20
9.30979503366876
30
0
41
1
10
31.4544060059975
20
9.31043422368208
30
0
0
SPLINE
5
1F5
100
AcDbEntity
8
1
62
256
6
ByLayer
370
13
48
1
60
0
100
AcDbSpline
70
4
71
3
72
12
73
8
40
0
40
0
40
0
40
0
40
0.500000000000012
40
0.500000000000012
40
0.750000000000006
40
0.750000000000006
40
1
40
1
40
1
40
1
41
1
10
36.7210802844337
20
8.63987447058406
30
0
41
1
10
36.7668008012963
20
8.61713076102845
30
0
41
1
10
36.8015986821068
20
8.59257927009787
30
0
41
1
10
36.8358565429613
20
8.55514713322054
30
0
41
1
10
36.8443892133454
20
8.54253378641636
30
0
41
1
10
36.8558139279726
20
8.5170414032842
30
0
41
1
10
36.8586999999999
20
8.50408913162531
30
0
41
1
10
36.8586999999999
20
8.49118838651941
30
0
0
SPLINE
5
1F6
100
AcDbEntity
8
1
62
256
6
ByLayer
370
13
48
1
60
0
100
AcDbSpline
70
4
71
3
72
8
73
4
40
0
40
0
40
0
40
0
40
1
40
1
40
1
40
1
41
1
10
36.7828669750801
20
3.92526982548338
30
0
41
1
10
36.765044389477
20
3.94166943790978
30
0
41
1
10
36.7444152927842
20
3.95432139555322
30
0
41
1
10
36.7210802844335
20
3.96335512368722
30
0
0
SPLINE
5
1F7
100
AcDbEntity
8
1
62
256
6
ByLayer
370
13
48
1
60
0
100
AcDbSpline
70
4
71
3
72
12
73
8
40
0
40
0
40
0
40
0
40
0.25
40
0.25
40
0.500000000000001
40
0.500000000000001
40
1
40
1
40
1
40
1
41
1
10
25.2042993783922
20
-15.2327944545638
30
0
41
1
10
25.2182816155995
20
-15.2264628973949
30
0
41
1
10
25.2351726051155
20
-15.2201943095517
30
0
41
1
10
25.2746598327782
20
-15.2078340187906
30
0
41
1
10
25.2974515145399
20
-15.2016981801447
30
0
41
1
10
25.3733483362287
20
-15.1839971555204
30
0
41
1
10
25.4329165686704
20
-15.1732787039533
30
0
41
1
10
25.5013282252297
20
-15.1639175263178
30
0
0
SPLINE
5
1F8
100
AcDbEntity
8
1
62
256
6
ByLayer
370
13
48
1
60
0
100
AcDbSpline
70
4
71
3
72
8
73
4
40
0
40
0
40
0
40
0
40
1
40
1
40
1
40
1
41
1
10
33.2076925808029
20
7.31000000000006
30
0
41
1
10
33.765008848169
20
7.31000000000006
30
0
41
1
10
34.3166257623253
20
7.31000000000006
30
0
41
1
10
34.8586448381964
20
7.31000000000006
30
0
0
SPLINE
5
1F9
100
AcDbEntity
8
1
62
256
6
ByLayer
370
13
48
1
60
0
100
AcDbSpline
70
4
71
3
72
10
73
6
40
0
40
0
40
0
40
0
40
0.5
40
0.5
40
1
40
1
40
1
40
1
41
1
10
36.5727107013692
20
3.97766780688662
30
0
41
1
10
36.5964319570475
20
3.98276685041242
30
0
41
1
10
36.6206551326415
20
3.98411241377187
30
0
41
1
10
36.6701255676418
20
3.97938604995662
30
0
41
1
10
36.6955566103655
20
3.97323615432785
30
0
41
1
10
36.7210802844335
20
3.96335512368728
30
0
0
SPLINE
5
1FA
100
AcDbEntity
8
1
62
256
6
ByLayer
370
13
48
1
60
0
100
AcDbSpline
70
4
71
3
72
32
73
28
40
0
40
0
40
0
40
0
40
0.125000000000002
40
0.125000000000002
40
0.187500000000003
40
0.187500000000003
40
0.250000000000004
40
0.250000000000004
40
0.312500000000005
40
0.312500000000005
40
0.375000000000006
40
0.375000000000006
40
0.500000000000008
40
0.500000000000008
40
0.562500000000007
40
0.562500000000007
40
0.625000000000006
40
0.625000000000006
40
0.687500000000005
40
0.687500000000005
40
0.750000000000004
40
0.750000000000004
40
0.875000000000002
40
0.875000000000002
40
0.937500000000001
40
0.937500000000001
40
1
40
1
40
1
40
1
41
1
10
20.6268112521295
20
0.500000000000142
30
0
41
1
10
20.4682343135644
20
0.500000000000142
30
0
41
1
10
20.3106283365187
20
0.484825785040385
30
0
41
1
10
20.0757459498519
20
0.4382006829224
30
0
41
1
10
19.9975799492467
20
0.418551635803027
30
0
41
1
10
19.8454544506948
20
0.371928317614618
30
0
41
1
10
19.7710316801993
20
0.344883829372122
30
0
41
1
10
19.6254907148916
20
0.283271106103655
30
0
41
1
10
19.5543719488447
20
0.248704177884122
30
0
41
1
10
19.4155898194027
20
0.171700602229578
30
0
41
1
10
19.3475853194523
20
0.129020298054911
30
0
41
1
10
19.1515795383698
20
-0.0101660757765103
30
0
41
1
10
19.0337814357862
20
-0.115795138934288
30
0
41
1
10
18.8771923514142
20
-0.294280765181128
30
0
41
1
10
18.8283778949374
20
-0.357146775661619
30
0
41
1
10
18.7381057610272
20
-0.490209256016953
30
0
41
1
10
18.6975598306566
20
-0.559114586760359
30
0
41
1
10
18.626143915785
20
-0.700604096315487
30
0
41
1
10
18.5951646762501
20
-0.77334789801418
30
0
41
1
10
18.5428899509993
20
-0.92292196845105
30
0
41
1
10
18.5215207625411
20
-1.00011264938655
30
0
41
1
10
18.4734129799636
20
-1.23585068085038
30
0
41
1
10
18.4632152298388
20
-1.39374394258883
30
0
41
1
10
18.4796486215176
20
-1.63162768257493
30
0
41
1
10
18.490610243869
20
-1.71140774273442
30
0
41
1
10
18.5225000312047
20
-1.8667933507478
30
0
41
1
10
18.543422842818
20
-1.94294909489457
30
0
41
1
10
18.5691116670696
20
-2.01763809020491
30
0
0
SPLINE
5
1FB
100
AcDbEntity
8
1
62
256
6
ByLayer
370
13
48
1
60
0
100
AcDbSpline
70
4
71
3
72
8
73
4
40
0
40
0
40
0
40
0
40
1
40
1
40
1
40
1
41
1
10
36.7828669750801
20
-12.0175107528211
30
0
41
1
10
36.7651066858973
20
-12.0573753616599
30
0
41
1
10
36.7444964569518
20
-12.096803847343
30
0
41
1
10
36.7210802844337
20
-12.1358044029673
30
0
0
SPLINE
5
1FC
100
AcDbEntity
8
1
62
256
6
ByLayer
370
13
48
1
60
0
100
AcDbSpline
70
4
71
3
72
20
73
16
40
0
40
0
40
0
40
0
40
0.125
40
0.125
40
0.249999999999999
40
0.249999999999999
40
0.374999999999999
40
0.374999999999999
40
0.499999999999998
40
0.499999999999998
40
0.624999999999998
40
0.624999999999998
40
0.749999999999998
40
0.749999999999998
40
1
40
1
40
1
40
1
41
1
10
28.7537393068618
20
7.31000000000006
30
0
41
1
10
28.7248146222559
20
7.31000000000009
30
0
41
1
10
28.6961846296699
20
7.31358662941304
30
0
41
1
10
28.6425677924952
20
7.32747434408262
30
0
41
1
10
28.6173694614807
20
7.33769520363251
30
0
41
1
10
28.5701870115391
20
7.3646048917569
30
0
41
1
10
28.54874496344
20
7.38103145145783
30
0
41
1
10
28.5106227407956
20
7.41883677129132
30
0
41
1
10
28.4936788163811
20
7.44055682273427
30
0
41
1
10
28.4652721511087
20
7.48765727271942
30
0
41
1
10
28.4537284914765
20
7.51299798138055
30
0
41
1
10
28.4357576756839
20
7.5670931241298
30
0
41
1
10
28.4294056025097
20
7.59585461273593
30
0
41
1
10
28.4185695342451
20
7.68393214909449
30
0
41
1
10
28.4220026433233
20
7.74690909287202
30
0
41
1
10
28.4358120971775
20
7.81000000000009
30
0
0
SPLINE
5
1FD
100
AcDbEntity
8
1
62
256
6
ByLayer
370
13
48
1
60
0
100
AcDbSpline
70
4
71
3
72
8
73
4
40
0
40
0
40
0
40
0
40
1
40
1
40
1
40
1
41
1
10
35.8586999999999
20
-1.62861852150715
30
0
41
1
10
35.8586999999999
20
-1.76113892112309
30
0
41
1
10
35.8608173797385
20
-1.89103485873997
30
0
41
1
10
35.8723738657811
20
-2.01763809020494
30
0
0
SPLINE
5
1FE
100
AcDbEntity
8
1
62
256
6
ByLayer
370
13
48
1
60
0
100
AcDbSpline
70
4
71
3
72
10
73
6
40
0
40
0
40
0
40
0
40
0.5
40
0.5
40
1
40
1
40
1
40
1
41
1
10
25.5013282252297
20
-11.3147290885162
30
0
41
1
10
25.5915495061732
20
-11.3463929320051
30
0
41
1
10
25.677527780264
20
-11.3885248594691
30
0
41
1
10
25.8422758978498
20
-11.4904089138565
30
0
41
1
10
25.9215821910024
20
-11.5507753297322
30
0
41
1
10
25.9954777382611
20
-11.6188148111271
30
0
0
SPLINE
5
1FF
100
AcDbEntity
8
1
62
256
6
ByLayer
370
13
48
1
60
0
100
AcDbSpline
70
4
71
3
72
8
73
4
40
0
40
0
40
0
40
0
40
1
40
1
40
1
40
1
41
1
10
32.1224687428309
20
-18.7520066891949
30
0
41
1
10
30.3591455414877
20
-17.73424839791
30
0
41
1
10
28.5968852347621
20
-16.7146936075548
30
0
41
1
10
26.8364506285832
20
-15.6920530274322
30
0
0
SPLINE
5
200
100
AcDbEntity
8
1
62
256
6
ByLayer
370
13
48
1
60
0
100
AcDbSpline
70
4
71
3
72
8
73
4
40
0
40
0
40
0
40
0
40
1
40
1
40
1
40
1
41
1
10
28.7537393068618
20
-15.4887838647952
30
0
41
1
10
29.8730491708526
20
-16.1922898888225
30
0
41
1
10
30.9964431791216
20
-16.8897461222947
30
0
41
1
10
32.122468742831
20
-17.5828824392251
30
0
0
SPLINE
5
201
100
AcDbEntity
8
1
62
256
6
ByLayer
370
13
48
1
60
0
100
AcDbSpline
70
4
71
3
72
8
73
4
40
0
40
0
40
0
40
0
40
1
40
1
40
1
40
1
41
1
10
25.6032501585521
20
2.91694316289792
30
0
41
1
10
25.6154889724076
20
2.92505254150711
30
0
41
1
10
25.6276677117898
20
2.93330008733895
30
0
41
1
10
25.6397816141332
20
2.94169250341915
30
0
0
SPLINE
5
202
100
AcDbEntity
8
1
62
256
6
ByLayer
370
13
48
1
60
0
100
AcDbSpline
70
4
71
3
72
10
73
6
40
0
40
0
40
0
40
0
40
0.5
40
0.5
40
1
40
1
40
1
40
1
41
1
10
36.7531271909999
20
-0.499999999999858
30
0
41
1
10
36.7876066100466
20
-0.499999999999858
30
0
41
1
10
36.8143152890231
20
-0.499999999999858
30
0
41
1
10
36.8495995739427
20
-0.499999999999858
30
0
41
1
10
36.8587110010999
20
-0.499999999999858
30
0
41
1
10
36.8586952495249
20
-0.499999999999858
30
0
0
SPLINE
5
203
100
AcDbEntity
8
1
62
256
6
ByLayer
370
13
48
1
60
0
100
AcDbSpline
70
4
71
3
72
22
73
18
40
0
40
0
40
0
40
0
40
0.125
40
0.125
40
0.25
40
0.25
40
0.375
40
0.375
40
0.5
40
0.5
40
0.625
40
0.625
40
0.75
40
0.75
40
0.875
40
0.875
40
1
40
1
40
1
40
1
41
1
10
25.9954777382606
20
3.3469160953147
30
0
41
1
10
26.0247281025597
20
3.3712173319482
30
0
41
1
10
26.0552783306174
20
3.39295774480021
30
0
41
1
10
26.1189811835514
20
3.43126996222315
30
0
41
1
10
26.1524226574054
20
3.44792194612865
30
0
41
1
10
26.2197647581834
20
3.4748041528446
30
0
41
1
10
26.2538344529576
20
3.48519081977275
30
0
41
1
10
26.3227587823558
20
3.49987861802563
30
0
41
1
10
26.3579422073673
20
3.50417101113447
30
0
41
1
10
26.4271516328599
20
3.50623549031445
30
0
41
1
10
26.4611962663336
20
3.50408742373401
30
0
41
1
10
26.528195320315
20
3.49353942454732
30
0
41
1
10
26.561427705275
20
3.48502802062208
30
0
41
1
10
26.6252926088895
20
3.46195193191627
30
0
41
1
10
26.6557995468312
20
3.44750453344679
30
0
41
1
10
26.7140690292607
20
3.4129479210273
30
0
41
1
10
26.7420144156254
20
3.39267218807692
30
0
41
1
10
26.7681026423838
20
3.36981767273679
30
0
0
SPLINE
5
204
100
AcDbEntity
8
1
62
256
6
ByLayer
370
13
48
1
60
0
100
AcDbSpline
70
4
71
3
72
60
73
56
40
0
40
0
40
0
40
0
40
0.0312499999999981
40
0.0312499999999981
40
0.0624999999999962
40
0.0624999999999962
40
0.0937499999999943
40
0.0937499999999943
40
0.124999999999993
40
0.124999999999993
40
0.156249999999991
40
0.156249999999991
40
0.187499999999989
40
0.187499999999989
40
0.218749999999987
40
0.218749999999987
40
0.249999999999985
40
0.249999999999985
40
0.281249999999983
40
0.281249999999983
40
0.312499999999981
40
0.312499999999981
40
0.374999999999977
40
0.374999999999977
40
0.406249999999977
40
0.406249999999977
40
0.437499999999976
40
0.437499999999976
40
0.499999999999978
40
0.499999999999978
40
0.531249999999979
40
0.531249999999979
40
0.56249999999998
40
0.56249999999998
40
0.593749999999982
40
0.593749999999982
40
0.624999999999983
40
0.624999999999983
40
0.656249999999984
40
0.656249999999984
40
0.687499999999985
40
0.687499999999985
40
0.749999999999989
40
0.749999999999989
40
0.812499999999993
40
0.812499999999993
40
0.843749999999994
40
0.843749999999994
40
0.874999999999995
40
0.874999999999995
40
0.906249999999996
40
0.906249999999996
40
0.937499999999998
40
0.937499999999998
40
1
40
1
40
1
40
1
41
1
10
22.8167736154865
20
-2.01763809020437
30
0
41
1
10
22.7914422787989
20
-1.96262764213338
30
0
41
1
10
22.7700321915383
20
-1.90529857788485
30
0
41
1
10
22.7369818297279
20
-1.7873066500425
30
0
41
1
10
22.7255847280818
20
-1.727668663939
30
0
41
1
10
22.7133948027583
20
-1.60706700769202
30
0
41
1
10
22.7126576310026
20
-1.54554738045067
30
0
41
1
10
22.7223245732915
20
-1.4238238029177
30
0
41
1
10
22.7325691200804
20
-1.3641686796031
30
0
41
1
10
22.7631527512109
20
-1.2471205392799
30
0
41
1
10
22.7837278644617
20
-1.18926777311387
30
0
41
1
10
22.8333932840804
20
-1.07844151025978
30
0
41
1
10
22.8623575273218
20
-1.02547118615749
30
0
41
1
10
22.9275065992576
20
-0.923829253428551
30
0
41
1
10
22.963959819047
20
-0.874887370999403
30
0
41
1
10
23.0416642376235
20
-0.782941857530972
30
0
41
1
10
23.0829689864573
20
-0.739757586190962
30
0
41
1
10
23.169730305302
20
-0.658185251332327
30
0
41
1
10
23.2151910397715
20
-0.61980156595726
30
0
41
1
10
23.3097798044636
20
-0.547361556617972
30
0
41
1
10
23.3591503056554
20
-0.513169667655347
30
0
41
1
10
23.509790567389
20
-0.418181445002318
30
0
41
1
10
23.6138638521193
20
-0.364473457697983
30
0
41
1
10
23.7738308241629
20
-0.296266078403391
30
0
41
1
10
23.8278059528848
20
-0.275618820704125
30
0
41
1
10
23.9368863657958
20
-0.238490704148774
30
0
41
1
10
23.9922517289839
20
-0.221948901609096
30
0
41
1
10
24.1574491089062
20
-0.179493421837606
30
0
41
1
10
24.2664406439769
20
-0.160469096010786
30
0
41
1
10
24.4266075993322
20
-0.147754500332098
30
0
41
1
10
24.4797829757011
20
-0.1462065347487
30
0
41
1
10
24.5829746174771
20
-0.149250542388245
30
0
41
1
10
24.6328015173665
20
-0.153796602331511
30
0
41
1
10
24.7287762874435
20
-0.169391075024492
30
0
41
1
10
24.7749232794237
20
-0.180438353563204
30
0
41
1
10
24.8635035263976
20
-0.209763660520423
30
0
41
1
10
24.9055829351025
20
-0.227997350953302
30
0
41
1
10
24.9838302091224
20
-0.270887038363526
30
0
41
1
10
25.0203247648388
20
-0.295640973692286
30
0
41
1
10
25.0887760755314
20
-0.351947262560998
30
0
41
1
10
25.120932981556
20
-0.383755651360218
30
0
41
1
10
25.2098015321391
20
-0.487792342077228
30
0
41
1
10
25.2591905622849
20
-0.568208570099188
30
0
41
1
10
25.3449915523593
20
-0.751514703719323
30
0
41
1
10
25.3801042004604
20
-0.851826131477452
30
0
41
1
10
25.4243047102917
20
-1.01298786161686
30
0
41
1
10
25.4376987290611
20
-1.06892098205091
30
0
41
1
10
25.4617059034143
20
-1.18334113392717
30
0
41
1
10
25.472232861032
20
-1.2413175825954
30
0
41
1
10
25.4907597675839
20
-1.35873552017392
30
0
41
1
10
25.4987578429457
20
-1.41817720631582
30
0
41
1
10
25.5124429285078
20
-1.53852592071866
30
0
41
1
10
25.5181531719979
20
-1.59985854851899
30
0
41
1
10
25.5316037451694
20
-1.78173056070273
30
0
41
1
10
25.5358970520389
20
-1.90077019421147
30
0
41
1
10
25.5357702130481
20
-2.01763809020491
30
0
0
SPLINE
5
205
100
AcDbEntity
8
1
62
256
6
ByLayer
370
13
48
1
60
0
100
AcDbSpline
70
4
71
3
72
20
73
16
40
0
40
0
40
0
40
0
40
0.250000000000001
40
0.250000000000001
40
0.375000000000001
40
0.375000000000001
40
0.500000000000001
40
0.500000000000001
40
0.625000000000001
40
0.625000000000001
40
0.75
40
0.75
40
0.875
40
0.875
40
1
40
1
40
1
40
1
41
1
10
34.9800856084286
20
7.81000000000006
30
0
41
1
10
34.9945600491589
20
7.74572023383979
30
0
41
1
10
35.0032702100813
20
7.6809562405281
30
0
41
1
10
35.0062468538737
20
7.59043021283728
30
0
41
1
10
35.0055732712151
20
7.56179335016807
30
0
41
1
10
35.0009945637744
20
7.50783871570672
30
0
41
1
10
34.9970353098521
20
7.48224599792548
30
0
41
1
10
34.9859084730447
20
7.43559776654257
30
0
41
1
10
34.9788326139258
20
7.41474084018947
30
0
41
1
10
34.9616851419542
20
7.37795668511132
30
0
41
1
10
34.9514739492632
20
7.36192593304881
30
0
41
1
10
34.9287717180799
20
7.33633338327414
30
0
41
1
10
34.9162533552935
20
7.32658986370473
30
0
41
1
10
34.8888547482127
20
7.31336336223774
30
0
41
1
10
34.8740027019868
20
7.31000000000006
30
0
41
1
10
34.8586448381964
20
7.31000000000006
30
0
0
SPLINE
5
206
100
AcDbEntity
8
1
62
256
6
ByLayer
370
13
48
1
60
0
100
AcDbSpline
70
4
71
3
72
26
73
22
40
0
40
0
40
0
40
0
40
0.125
40
0.125
40
0.25
40
0.25
40
0.312499999999999
40
0.312499999999999
40
0.374999999999999
40
0.374999999999999
40
0.499999999999999
40
0.499999999999999
40
0.624999999999999
40
0.624999999999999
40
0.749999999999999
40
0.749999999999999
40
0.874999999999999
40
0.874999999999999
40
0.9375
40
0.9375
40
1
40
1
40
1
40
1
41
1
10
18.5691116670696
20
15.2962294511446
30
0
41
1
10
18.6585668108598
20
15.2244549992413
30
0
41
1
10
18.7645344392903
20
15.1247661806553
30
0
41
1
10
19.0180883285544
20
14.8743335178104
30
0
41
1
10
19.165651869219
20
14.7235634275725
30
0
41
1
10
19.4267928790432
20
14.4621795915525
30
0
41
1
10
19.5205523902067
20
14.3691235492279
30
0
41
1
10
19.7229431602998
20
14.1720037550068
30
0
41
1
10
19.8304289895091
20
14.0690661351466
30
0
41
1
10
20.1730156592591
20
13.7491012724624
30
0
41
1
10
20.4282142193051
20
13.5209206015376
30
0
41
1
10
20.9995621578815
20
13.0451114929646
30
0
41
1
10
21.3157969835968
20
12.7973748884061
30
0
41
1
10
22.0173674047582
20
12.2933956001368
30
0
41
1
10
22.3934023064003
20
12.0439605090992
30
0
41
1
10
23.1961983239115
20
11.560746629004
30
0
41
1
10
23.622942180377
20
11.3269300262658
30
0
41
1
10
24.3019989375894
20
10.9951193518978
30
0
41
1
10
24.5354179019441
20
10.8874376086292
30
0
41
1
10
25.0112460720591
20
10.6813694393963
30
0
41
1
10
25.2539236779535
20
10.5828190578706
30
0
41
1
10
25.5013282252298
20
10.4891565217891
30
0
0
SPLINE
5
207
100
AcDbEntity
8
SK1
62
256
6
ByLayer
370
13
48
1
60
0
100
AcDbSpline
70
4
71
3
72
12
73
8
40
0
40
0
40
0
40
0
40
0.25
40
0.25
40
0.5
40
0.5
40
1
40
1
40
1
40
1
41
1
10
-57.9400000000001
20
3.59698484845313
30
0
41
1
10
-57.8447387518346
20
3.89351553327268
30
0
41
1
10
-57.7393491692556
20
4.18843255828645
30
0
41
1
10
-57.514079369044
20
4.76746202862157
30
0
41
1
10
-57.3938892422298
20
5.05263510329385
30
0
41
1
10
-57.0143204259999
20
5.89723675179451
30
0
41
1
10
-56.7361151127433
20
6.44584648296672
30
0
41
1
10
-56.44
20
6.98416423060073
30
0
0
SPLINE
5
208
100
AcDbEntity
8
SK1
62
256
6
ByLayer
370
13
48
1
60
0
100
AcDbSpline
70
4
71
3
72
12
73
8
40
0
40
0
40
0
40
0
40
0.5
40
0.5
40
0.75
40
0.75
40
1
40
1
40
1
40
1
41
1
10
-56.4400000000001
20
-6.98416423060036
30
0
41
1
10
-56.7378437721229
20
-6.44270389421081
30
0
41
1
10
-57.0168098517855
20
-5.89213294411064
30
0
41
1
10
-57.3961432461676
20
-5.04739877411657
30
0
41
1
10
-57.5160290129516
20
-4.76265540664181
30
0
41
1
10
-57.740330543508
20
-4.18570265211184
30
0
41
1
10
-57.8449123384713
20
-3.89297519010788
30
0
41
1
10
-57.9400000000001
20
-3.59698484845276
30
0
0
SPLINE
5
209
100
AcDbEntity
8
1
62
256
6
ByLayer
370
13
48
1
60
0
100
AcDbSpline
70
4
71
3
72
14
73
10
40
0
40
0
40
0
40
0
40
0.29055083565153
40
0.29055083565153
40
0.58110167130306
40
0.58110167130306
40
0.871652506954591
40
0.871652506954591
40
1
40
1
40
1
40
1
41
1
10
36.6468493322022
20
-0.499999999999886
30
0
41
1
10
36.5854584552357
20
-0.499999999999886
30
0
41
1
10
36.5246455988507
20
-0.488752564289967
30
0
41
1
10
36.4041717990398
20
-0.444601188601155
30
0
41
1
10
36.3445074004084
20
-0.411706235776222
30
0
41
1
10
36.2266913052321
20
-0.322779021219617
30
0
41
1
10
36.1700745005462
20
-0.267859272446685
30
0
41
1
10
36.0926156548192
20
-0.17392100179444
30
0
41
1
10
36.0694236462908
20
-0.143131402233337
30
0
41
1
10
36.0468403485474
20
-0.110218624888802
30
0
0
SPLINE
5
20A
100
AcDbEntity
8
1
62
256
6
ByLayer
370
13
48
1
60
0
100
AcDbSpline
70
4
71
3
72
8
73
4
40
0
40
0
40
0
40
0
40
1
40
1
40
1
40
1
41
1
10
36.7531271909999
20
8.80684111937353
30
0
41
1
10
36.7258422179161
20
8.75218329651941
30
0
41
1
10
36.6985578976796
20
8.69752514761055
30
0
41
1
10
36.6712742685048
20
8.64286665356161
30
0
0
SPLINE
5
20B
100
AcDbEntity
8
1
62
256
6
ByLayer
370
13
48
1
60
0
100
AcDbSpline
70
4
71
3
72
12
73
8
40
0
40
0
40
0
40
0
40
0.440467120308432
40
0.440467120308432
40
0.720233560154216
40
0.720233560154216
40
1
40
1
40
1
40
1
41
1
10
35.9357724326485
20
-0.0847887915815306
30
0
41
1
10
35.904379566058
20
-0.160562945630431
30
0
41
1
10
35.8862946421368
20
-0.243754459958836
30
0
41
1
10
35.8681346671899
20
-0.391422772559196
30
0
41
1
10
35.8640343590169
20
-0.451865179859055
30
0
41
1
10
35.8593477399289
20
-0.575056158346911
30
0
41
1
10
35.8586999999999
20
-0.638200312730646
30
0
41
1
10
35.8586999999999
20
-0.702862822411447
30
0
0
SPLINE
5
20C
100
AcDbEntity
8
1
62
256
6
ByLayer
370
13
48
1
60
0
100
AcDbSpline
70
4
71
3
72
18
73
14
40
0
40
0
40
0
40
0
40
0.152314007990089
40
0.152314007990089
40
0.304628015980179
40
0.304628015980179
40
0.60925603196037
40
0.60925603196037
40
0.761570039950466
40
0.761570039950466
40
0.913884047940562
40
0.913884047940562
40
1
40
1
40
1
40
1
41
1
10
20.6268112521294
20
-15.4206192769649
30
0
41
1
10
20.5476405209334
20
-15.4206192769649
30
0
41
1
10
20.4683325978247
20
-15.4207444843478
30
0
41
1
10
20.3094324624861
20
-15.4212366316033
30
0
41
1
10
20.229815548363
20
-15.4216053877776
30
0
41
1
10
19.9959573428453
20
-15.4229765258134
30
0
41
1
10
19.8448220514252
20
-15.4242627704378
30
0
41
1
10
19.6255981144846
20
-15.4261523836472
30
0
41
1
10
19.5534165040674
20
-15.426774960504
30
0
41
1
10
19.4134905755421
20
-15.4278305126849
30
0
41
1
10
19.3462835062479
20
-15.428259179861
30
0
41
1
10
19.2453902450515
20
-15.4286416801357
30
0
41
1
10
19.209819481395
20
-15.4287230037874
30
0
41
1
10
19.1751498596058
20
-15.4287270833696
30
0
0
SPLINE
5
20D
100
AcDbEntity
8
1
62
256
6
ByLayer
370
13
48
1
60
0
100
AcDbSpline
70
4
71
3
72
10
73
6
40
0
40
0
40
0
40
0
40
0.356653454756082
40
0.356653454756082
40
1
40
1
40
1
40
1
41
1
10
26.126724835677
20
2.1899429196603
30
0
41
1
10
26.0999482543491
20
2.21075364481871
30
0
41
1
10
26.0742684775831
20
2.23288231640981
30
0
41
1
10
26.0060694007101
20
2.29790230199941
30
0
41
1
10
25.9661611503295
20
2.34341248674681
30
0
41
1
10
25.930782263917
20
2.39320941820776
30
0
0
SPLINE
5
20E
100
AcDbEntity
8
1
62
256
6
ByLayer
370
13
48
1
60
0
100
AcDbSpline
70
4
71
3
72
8
73
4
40
0
40
0
40
0
40
0
40
1
40
1
40
1
40
1
41
1
10
33.249471580803
20
3.31000000000006
30
0
41
1
10
33.235545830641
20
3.31000000000006
30
0
41
1
10
33.2216194930796
20
3.31000000000006
30
0
41
1
10
33.2076925808029
20
3.31000000000006
30
0
0
SPLINE
5
20F
100
AcDbEntity
8
1
62
256
6
ByLayer
370
18
48
1
60
0
100
AcDbSpline
70
4
71
1
72
4
73
2
40
0
40
0
40
1
40
1
41
1
10
36.8587006125288
20
-1.86735693347484
30
0
41
1
10
37.3085042833931
20
1.630564839E-07
30
0
0
SPLINE
5
210
100
AcDbEntity
8
1
62
256
6
ByLayer
370
18
48
1
60
0
100
AcDbSpline
70
4
71
1
72
4
73
2
40
0
40
0
40
1
40
1
41
1
10
37.3085042833931
20
-1.630565976E-07
30
0
41
1
10
36.5112008502831
20
3.31000000000526
30
0
0
SPLINE
5
211
100
AcDbEntity
8
1
62
256
6
ByLayer
370
18
48
1
60
0
100
AcDbSpline
70
4
71
2
72
6
73
3
40
0
40
0
40
0
40
1
40
1
40
1
41
1
10
34.3696919677113
20
-0.200000000000102
30
0
41
1
10
35.8346583332869
20
-0.0998146106256286
30
0
41
1
10
37.3079881335363
20
-1.65454708E-08
30
0
0
SPLINE
5
212
100
AcDbEntity
8
1
62
256
6
ByLayer
370
18
48
1
60
0
100
AcDbSpline
70
4
71
1
72
4
73
2
40
0
40
0
40
1
40
1
41
1
10
26.3976111617121
20
3.31000000000526
30
0
41
1
10
25.600307728602
20
-1.630565976E-07
30
0
0
SPLINE
5
213
100
AcDbEntity
8
1
62
256
6
ByLayer
370
18
48
1
60
0
100
AcDbSpline
70
4
71
2
72
6
73
3
40
0
40
0
40
0
40
1
40
1
40
1
41
1
10
25.6008238784588
20
-1.65454708E-08
30
0
41
1
10
27.0741536787081
20
-0.0998146106256286
30
0
41
1
10
28.5391200442838
20
-0.200000000000102
30
0
0
LINE
5
81
100
AcDbEntity
8
1
62
256
6
ByLayer
370
13
48
1
60
0
100
AcDbLine
10
29.670591
20
7.81
30
0
11
32.402642
21
7.81
31
0
39
0
210
0
220
0
230
1
0
LINE
5
82
100
AcDbEntity
8
1
62
256
6
ByLayer
370
13
48
1
60
0
100
AcDbLine
10
35.8587
20
-1.628619
30
0
11
35.8587
21
-0.702863
31
0
39
0
210
0
220
0
230
1
0
LINE
5
83
100
AcDbEntity
8
1
62
256
6
ByLayer
370
13
48
1
60
0
100
AcDbLine
10
20.626811
20
0.5
30
0
11
24.747163
21
0.5
31
0
39
0
210
0
220
0
230
1
0
LINE
5
84
100
AcDbEntity
8
1
62
256
6
ByLayer
370
13
48
1
60
0
100
AcDbLine
10
32.152642
20
-12.601711
30
0
11
34.858645
21
-14.164023
31
0
39
0
210
0
220
0
230
1
0
LINE
5
85
100
AcDbEntity
8
1
62
256
6
ByLayer
370
13
48
1
60
0
100
AcDbLine
10
32.402642
20
-12.168699
30
0
11
32.152642
21
-12.601711
31
0
39
0
210
0
220
0
230
1
0
LINE
5
86
100
AcDbEntity
8
1
62
256
6
ByLayer
370
13
48
1
60
0
100
AcDbLine
10
31.454406
20
-11.901419
30
0
11
31.454406
21
-2.017638
31
0
39
0
210
0
220
0
230
1
0
LINE
5
87
100
AcDbEntity
8
1
62
256
6
ByLayer
370
13
48
1
60
0
100
AcDbLine
10
24.748445
20
0.5
30
0
11
24.750942
21
0.52348
31
0
39
0
210
0
220
0
230
1
0
LINE
5
88
100
AcDbEntity
8
1
62
256
6
ByLayer
370
13
48
1
60
0
100
AcDbLine
10
24.748445
20
15.418399
30
0
11
24.747163
21
15.420619
31
0
39
0
210
0
220
0
230
1
0
LINE
5
89
100
AcDbEntity
8
1
62
256
6
ByLayer
370
13
48
1
60
0
100
AcDbLine
10
25.995478
20
10.348739
30
0
11
25.995478
21
3.346916
31
0
39
0
210
0
220
0
230
1
0
LINE
5
8A
100
AcDbEntity
8
1
62
256
6
ByLayer
370
13
48
1
60
0
100
AcDbLine
10
32.122469
20
-18.752007
30
0
11
32.122469
21
-17.582882
31
0
39
0
210
0
220
0
230
1
0
LINE
5
8B
100
AcDbEntity
8
1
62
256
6
ByLayer
370
13
48
1
60
0
100
AcDbLine
10
32.402642
20
9.382051
30
0
11
32.402642
21
7.81
31
0
39
0
210
0
220
0
230
1
0
LINE
5
8C
100
AcDbEntity
8
1
62
256
6
ByLayer
370
13
48
1
60
0
100
AcDbLine
10
32.122469
20
3.31
30
0
11
32.122469
21
7.31
31
0
39
0
210
0
220
0
230
1
0
LINE
5
8D
100
AcDbEntity
8
1
62
256
6
ByLayer
370
13
48
1
60
0
100
AcDbLine
10
36.8587
20
3
30
0
11
36.782867
21
3
31
0
39
0
210
0
220
0
230
1
0
LINE
5
8E
100
AcDbEntity
8
1
62
256
6
ByLayer
370
13
48
1
60
0
100
AcDbLine
10
36.72108
20
-12.135804
30
0
11
36.72108
21
-9.398856
31
0
39
0
210
0
220
0
230
1
0
LINE
5
8F
100
AcDbEntity
8
1
62
256
6
ByLayer
370
13
48
1
60
0
100
AcDbLine
10
18.569112
20
-2.017638
30
0
11
22.816774
21
-2.017638
31
0
39
0
210
0
220
0
230
1
0
LINE
5
90
100
AcDbEntity
8
1
62
256
6
ByLayer
370
13
48
1
60
0
100
AcDbLine
10
36.8587
20
8.491188
30
0
11
36.8587
21
3.704623
31
0
39
0
210
0
220
0
230
1
0
LINE
5
91
100
AcDbEntity
8
1
62
256
6
ByLayer
370
13
48
1
60
0
100
AcDbLine
10
32.402642
20
-12.168699
30
0
11
34.509006
21
-13.384809
31
0
39
0
210
0
220
0
230
1
0
LINE
5
92
100
AcDbEntity
8
1
62
256
6
ByLayer
370
13
48
1
60
0
100
AcDbLine
10
25.53577
20
-2.017638
30
0
11
31.454406
21
-2.017638
31
0
39
0
210
0
220
0
230
1
0
LINE
5
93
100
AcDbEntity
8
1
62
256
6
ByLayer
370
13
48
1
60
0
100
AcDbLine
10
36.8587
20
11.39682
30
0
11
36.8587
21
11.687238
31
0
39
0
210
0
220
0
230
1
0
LINE
5
94
100
AcDbEntity
8
1
62
256
6
ByLayer
370
13
48
1
60
0
100
AcDbLine
10
24.748445
20
0.5
30
0
11
24.747163
21
0.5
31
0
39
0
210
0
220
0
230
1
0
LINE
5
95
100
AcDbEntity
8
1
62
256
6
ByLayer
370
13
48
1
60
0
100
AcDbLine
10
36.782867
20
11.39682
30
0
11
36.8587
21
11.39682
31
0
39
0
210
0
220
0
230
1
0
LINE
5
96
100
AcDbEntity
8
1
62
256
6
ByLayer
370
13
48
1
60
0
100
AcDbLine
10
36.72108
20
3.963355
30
0
11
36.72108
21
8.639874
31
0
39
0
210
0
220
0
230
1
0
LINE
5
97
100
AcDbEntity
8
1
62
256
6
ByLayer
370
13
48
1
60
0
100
AcDbLine
10
36.782867
20
3.92527
30
0
11
36.782867
21
3
31
0
39
0
210
0
220
0
230
1
0
LINE
5
98
100
AcDbEntity
8
1
62
256
6
ByLayer
370
13
48
1
60
0
100
AcDbLine
10
28.753739
20
-15.488784
30
0
11
30.103604
21
-13.150749
31
0
39
0
210
0
220
0
230
1
0
LINE
5
99
100
AcDbEntity
8
1
62
256
6
ByLayer
370
13
48
1
60
0
100
AcDbLine
10
29.670591
20
9.692874
30
0
11
29.670591
21
7.81
31
0
39
0
210
0
220
0
230
1
0
LINE
5
9A
100
AcDbEntity
8
1
62
256
6
ByLayer
370
13
48
1
60
0
100
AcDbLine
10
29.021562
20
-14.024901
30
0
11
28.435812
21
-15.03945
31
0
39
0
210
0
220
0
230
1
0
LINE
5
9B
100
AcDbEntity
8
1
62
256
6
ByLayer
370
13
48
1
60
0
100
AcDbLine
10
35.872374
20
-2.017638
30
0
11
31.454406
21
-2.017638
31
0
39
0
210
0
220
0
230
1
0
LINE
5
9C
100
AcDbEntity
8
1
62
256
6
ByLayer
370
13
48
1
60
0
100
AcDbLine
10
36.8587
20
-5.36354
30
0
11
36.8587
21
-8.843952
31
0
39
0
210
0
220
0
230
1
0
LINE
5
9D
100
AcDbEntity
8
1
62
256
6
ByLayer
370
13
48
1
60
0
100
AcDbLine
10
24.750942
20
15.41984
30
0
11
24.748445
21
15.418399
31
0
39
0
210
0
220
0
230
1
0
LINE
5
9E
100
AcDbEntity
8
1
62
256
6
ByLayer
370
13
48
1
60
0
100
AcDbLine
10
36.8587
20
3.704623
30
0
11
36.8587
21
3
31
0
39
0
210
0
220
0
230
1
0
LINE
5
9F
100
AcDbEntity
8
1
62
256
6
ByLayer
370
13
48
1
60
0
100
AcDbLine
10
25.995478
20
-11.618815
30
0
11
25.995478
21
-15.195111
31
0
39
0
210
0
220
0
230
1
0
LINE
5
A0
100
AcDbEntity
8
1
62
256
6
ByLayer
370
13
48
1
60
0
100
AcDbLine
10
33.207693
20
-17.267863
30
0
11
33.207693
21
-18.456952
31
0
39
0
210
0
220
0
230
1
0
LINE
5
A1
100
AcDbEntity
8
1
62
256
6
ByLayer
370
13
48
1
60
0
100
AcDbLine
10
20.626811
20
15.420619
30
0
11
24.747163
21
15.420619
31
0
39
0
210
0
220
0
230
1
0
LINE
5
A2
100
AcDbEntity
8
1
62
256
6
ByLayer
370
13
48
1
60
0
100
AcDbLine
10
36.8587
20
-8.843952
30
0
11
36.8587
21
-11.687238
31
0
39
0
210
0
220
0
230
1
0
LINE
5
A3
100
AcDbEntity
8
1
62
256
6
ByLayer
370
13
48
1
60
0
100
AcDbLine
10
34.509006
20
9.707907
30
0
11
32.402642
21
9.382051
31
0
39
0
210
0
220
0
230
1
0
LINE
5
A4
100
AcDbEntity
8
1
62
256
6
ByLayer
370
13
48
1
60
0
100
AcDbLine
10
25.501328
20
2.846244
30
0
11
25.501328
21
10.489157
31
0
39
0
210
0
220
0
230
1
0
LINE
5
A5
100
AcDbEntity
8
1
62
256
6
ByLayer
370
13
48
1
60
0
100
AcDbLine
10
33.207693
20
7.31
30
0
11
33.207693
21
3.31
31
0
39
0
210
0
220
0
230
1
0
LINE
5
A6
100
AcDbEntity
8
1
62
256
6
ByLayer
370
13
48
1
60
0
100
AcDbLine
10
36.8587
20
11.39682
30
0
11
36.8587
21
9.25474
31
0
39
0
210
0
220
0
230
1
0
LINE
5
A7
100
AcDbEntity
8
1
62
256
6
ByLayer
370
13
48
1
60
0
100
AcDbLine
10
20.626811
20
-15.420619
30
0
11
24.747163
21
-15.420619
31
0
39
0
210
0
220
0
230
1
0
LINE
5
A8
100
AcDbEntity
8
1
62
256
6
ByLayer
370
13
48
1
60
0
100
AcDbLine
10
29.670591
20
7.81
30
0
11
28.435812
21
7.81
31
0
39
0
210
0
220
0
230
1
0
LINE
5
A9
100
AcDbEntity
8
1
62
256
6
ByLayer
370
13
48
1
60
0
100
AcDbLine
10
34.980086
20
7.81
30
0
11
32.402642
21
7.81
31
0
39
0
210
0
220
0
230
1
0
LINE
5
AA
100
AcDbEntity
8
1
62
256
6
ByLayer
370
13
48
1
60
0
100
AcDbLine
10
29.670591
20
-12.900749
30
0
11
30.103604
21
-13.150749
31
0
39
0
210
0
220
0
230
1
0
LINE
5
AB
100
AcDbEntity
8
1
62
256
6
ByLayer
370
13
48
1
60
0
100
AcDbLine
10
25.501328
20
-15.163918
30
0
11
25.501328
21
-11.314729
31
0
39
0
210
0
220
0
230
1
0
LINE
5
AC
100
AcDbEntity
8
SK1
62
256
6
ByLayer
370
13
48
1
60
0
100
AcDbLine
10
-22.415
20
-6.984164
30
0
11
-22.415
21
6.984164
31
0
39
0
210
0
220
0
230
1
0
LINE
5
AE
100
AcDbEntity
8
SK1
62
256
6
ByLayer
370
13
48
1
60
0
100
AcDbLine
10
-57.94
20
-3.596985
30
0
11
-57.94
21
3.596985
31
0
39
0
210
0
220
0
230
1
0
LINE
5
AF
100
AcDbEntity
8
SK1
62
256
6
ByLayer
370
13
48
1
60
0
100
AcDbLine
10
-35.52
20
6.984164
30
0
11
-22.415
21
6.984164
31
0
39
0
210
0
220
0
230
1
0
LINE
5
B0
100
AcDbEntity
8
SK1
62
256
6
ByLayer
370
13
48
1
60
0
100
AcDbLine
10
-22.415
20
-6.984164
30
0
11
-35.52
21
-6.984164
31
0
39
0
210
0
220
0
230
1
0
LINE
5
B1
100
AcDbEntity
8
SK1
62
256
6
ByLayer
370
13
48
1
60
0
100
AcDbLine
10
-35.52
20
-6.984164
30
0
11
-35.52
21
6.984164
31
0
39
0
210
0
220
0
230
1
0
LINE
5
B2
100
AcDbEntity
8
SK1
62
256
6
ByLayer
370
13
48
1
60
0
100
AcDbLine
10
-45.24
20
-6.984164
30
0
11
-56.44
21
-6.984164
31
0
39
0
210
0
220
0
230
1
0
LINE
5
B3
100
AcDbEntity
8
SK1
62
256
6
ByLayer
370
13
48
1
60
0
100
AcDbLine
10
-56.44
20
6.984164
30
0
11
-45.24
21
6.984164
31
0
39
0
210
0
220
0
230
1
0
LINE
5
B4
100
AcDbEntity
8
SK1
62
256
6
ByLayer
370
13
48
1
60
0
100
AcDbLine
10
-45.24
20
-6.984164
30
0
11
-45.24
21
6.984164
31
0
39
0
210
0
220
0
230
1
0
LINE
5
B5
100
AcDbEntity
8
SK1
62
256
6
ByLayer
370
13
48
1
60
0
100
AcDbLine
10
0.005
20
-12.69675
30
0
11
0.005
21
12.69675
31
0
39
0
210
0
220
0
230
1
0
LINE
5
B6
100
AcDbEntity
8
1
62
256
6
ByLayer
370
13
48
1
60
0
100
AcDbLine
10
36.8587
20
-0.5
30
0
11
36.8587
21
-5.371405
31
0
39
0
210
0
220
0
230
1
0
LINE
5
B7
100
AcDbEntity
8
1
62
256
6
ByLayer
370
13
48
1
60
0
100
AcDbLine
10
36.782867
20
11.39682
30
0
11
36.782867
21
11.969834
31
0
39
0
210
0
220
0
230
1
0
LINE
5
B8
100
AcDbEntity
8
1
62
256
6
ByLayer
370
13
48
1
60
0
100
AcDbLine
10
36.753127
20
-4.807165
30
0
11
36.753127
21
-0.5
31
0
39
0
210
0
220
0
230
1
0
LINE
5
B9
100
AcDbEntity
8
1
62
256
6
ByLayer
370
13
48
1
60
0
100
AcDbLine
10
35.964273
20
-0.092139
30
0
11
35.964273
21
-2.520323
31
0
39
0
210
0
220
0
230
1
0
LINE
5
BA
100
AcDbEntity
8
1
62
256
6
ByLayer
370
13
48
1
60
0
100
AcDbLine
10
36.8587
20
9.25474
30
0
11
36.8587
21
8.497505
31
0
39
0
210
0
220
0
230
1
0
LINE
5
BB
100
AcDbEntity
8
1
62
256
6
ByLayer
370
13
48
1
60
0
100
AcDbLine
10
28.29663
20
10.563356
30
0
11
28.175853
21
10.11261
31
0
39
0
210
0
220
0
230
1
0
LINE
5
BC
100
AcDbEntity
8
1
62
256
6
ByLayer
370
13
48
1
60
0
100
AcDbLine
10
36.753127
20
8.650846
30
0
11
36.753127
21
8.806841
31
0
39
0
210
0
220
0
230
1
0
LINE
5
BD
100
AcDbEntity
8
SK1
62
256
6
ByLayer
370
13
48
1
60
0
100
AcDbLine
10
-57.94
20
-3.596985
30
0
11
-57.94
21
-11.19675
31
0
39
0
210
0
220
0
230
1
0
LINE
5
BE
100
AcDbEntity
8
SK1
62
256
6
ByLayer
370
13
48
1
60
0
100
AcDbLine
10
-57.94
20
11.19675
30
0
11
-57.94
21
3.596985
31
0
39
0
210
0
220
0
230
1
0
LINE
5
BF
100
AcDbEntity
8
1
62
256
6
ByLayer
370
13
48
1
60
0
100
AcDbLine
10
36.8587
20
1.867344
30
0
11
36.8587
21
3
31
0
39
0
210
0
220
0
230
1
0
LINE
5
C0
100
AcDbEntity
8
1
62
256
6
ByLayer
370
13
48
1
60
0
100
AcDbLine
10
36.782867
20
3
30
0
11
36.782867
21
2.182148
31
0
39
0
210
0
220
0
230
1
0
LINE
5
C1
100
AcDbEntity
8
1
62
256
6
ByLayer
370
13
48
1
60
0
100
AcDbLine
10
36.581521
20
3
30
0
11
36.782867
21
3
31
0
39
0
210
0
220
0
230
1
0
LINE
5
C2
100
AcDbEntity
8
SK1
62
256
6
ByLayer
370
13
48
1
60
0
100
AcDbLine
10
-56.44
20
-6.984164
30
0
11
-56.44
21
-12.69675
31
0
39
0
210
0
220
0
230
1
0
LINE
5
C3
100
AcDbEntity
8
SK1
62
256
6
ByLayer
370
13
48
1
60
0
100
AcDbLine
10
-56.44
20
12.69675
30
0
11
-56.44
21
6.984164
31
0
39
0
210
0
220
0
230
1
0
LINE
5
C4
100
AcDbEntity
8
1
62
256
6
ByLayer
370
13
48
1
60
0
100
AcDbLine
10
13.576727
20
12.69675
30
0
11
13.576727
21
-12.69675
31
0
39
0
210
0
220
0
230
1
0
LINE
5
C5
100
AcDbEntity
8
1
62
256
6
ByLayer
370
13
48
1
60
0
100
AcDbLine
10
16.162254
20
-15.282277
30
0
11
16.162254
21
15.282277
31
0
39
0
210
0
220
0
230
1
0
LINE
5
C6
100
AcDbEntity
8
1
62
256
6
ByLayer
370
13
48
1
60
0
100
AcDbLine
10
25.715605
20
0.5
30
0
11
24.748445
21
0.5
31
0
39
0
210
0
220
0
230
1
0
LINE
5
C7
100
AcDbEntity
8
1
62
256
6
ByLayer
370
13
48
1
60
0
100
AcDbLine
10
16.515807
20
-15.428723
30
0
11
16.515807
21
15.428723
31
0
39
0
210
0
220
0
230
1
0
LINE
5
C8
100
AcDbEntity
8
1
62
256
6
ByLayer
370
13
48
1
60
0
100
AcDbLine
10
31.454406
20
-2.017638
30
0
11
31.454406
21
-0.221229
31
0
39
0
210
0
220
0
230
1
0
LINE
5
C9
100
AcDbEntity
8
1
62
256
6
ByLayer
370
13
48
1
60
0
100
AcDbLine
10
0.005
20
-12.69675
30
0
11
0.005
21
12.69675
31
0
39
0
210
0
220
0
230
1
0
LINE
5
CA
100
AcDbEntity
8
81
62
256
6
ByLayer
370
18
48
1
60
0
100
AcDbLine
10
37.3087
20
12.954
30
0
11
42.3087
21
12.954
31
0
39
0
210
0
220
0
230
1
0
LINE
5
CB
100
AcDbEntity
8
SK4
62
256
6
ByLayer
370
18
48
0.05
60
0
100
AcDbLine
10
-62.94
20
0
30
0
11
42.3087
21
0
31
0
39
0
210
0
220
0
230
1
0
LINE
5
CD
100
AcDbEntity
8
80
62
256
6
ByLayer
370
18
48
1
60
0
100
AcDbLine
10
0
20
0
30
0
11
-5
21
0
31
0
39
0
210
0
220
0
230
1
0
LINE
5
CE
100
AcDbEntity
8
1
62
256
6
ByLayer
370
13
48
1
60
0
100
AcDbLine
10
0.005
20
-12.69675
30
0
11
13.576727
21
-12.69675
31
0
39
0
210
0
220
0
230
1
0
LINE
5
CF
100
AcDbEntity
8
1
62
256
6
ByLayer
370
13
48
1
60
0
100
AcDbLine
10
13.576727
20
12.69675
30
0
11
0.005
21
12.69675
31
0
39
0
210
0
220
0
230
1
0
LINE
5
D0
100
AcDbEntity
8
SK1
62
256
6
ByLayer
370
13
48
1
60
0
100
AcDbLine
10
-57.94
20
-11.19675
30
0
11
-56.44
21
-12.69675
31
0
39
0
210
0
220
0
230
1
0
LINE
5
D1
100
AcDbEntity
8
SK1
62
256
6
ByLayer
370
13
48
1
60
0
100
AcDbLine
10
-56.44
20
12.69675
30
0
11
-57.94
21
11.19675
31
0
39
0
210
0
220
0
230
1
0
LINE
5
D2
100
AcDbEntity
8
SK1
62
256
6
ByLayer
370
13
48
1
60
0
100
AcDbLine
10
-56.44
20
-12.69675
30
0
11
0.005
21
-12.69675
31
0
39
0
210
0
220
0
230
1
0
LINE
5
D3
100
AcDbEntity
8
SK1
62
256
6
ByLayer
370
13
48
1
60
0
100
AcDbLine
10
0.005
20
12.69675
30
0
11
-56.44
21
12.69675
31
0
39
0
210
0
220
0
230
1
0
LINE
5
D4
100
AcDbEntity
8
1
62
256
6
ByLayer
370
13
48
1
60
0
100
AcDbLine
10
13.576727
20
-12.69675
30
0
11
16.162254
21
-15.282277
31
0
39
0
210
0
220
0
230
1
0
LINE
5
D5
100
AcDbEntity
8
1
62
256
6
ByLayer
370
13
48
1
60
0
100
AcDbLine
10
16.162254
20
15.282277
30
0
11
13.576727
21
12.69675
31
0
39
0
210
0
220
0
230
1
0
LINE
5
D6
100
AcDbEntity
8
1
62
256
6
ByLayer
370
13
48
1
60
0
100
AcDbLine
10
16.515807
20
-15.428723
30
0
11
19.177403
21
-15.428723
31
0
39
0
210
0
220
0
230
1
0
LINE
5
D7
100
AcDbEntity
8
1
62
256
6
ByLayer
370
13
48
1
60
0
100
AcDbLine
10
19.177403
20
15.428723
30
0
11
16.515807
21
15.428723
31
0
39
0
210
0
220
0
230
1
0
LINE
5
D8
100
AcDbEntity
8
4
62
256
6
ByLayer
370
18
48
0.05
60
0
100
AcDbLine
10
0
20
0
30
0
11
42.3087
21
0
31
0
39
0
210
0
220
0
230
1
0
LINE
5
DA
100
AcDbEntity
8
SK2
62
256
6
ByLayer
370
13
48
1
60
0
100
AcDbLine
10
32.81495
20
20.737403
30
0
11
28.818061
21
27.660219
31
0
39
0
210
0
220
0
230
1
0
LINE
5
DC
100
AcDbEntity
8
SK2
62
256
6
ByLayer
370
13
48
1
60
0
100
AcDbLine
10
37.3087
20
14.5415
30
0
11
37.3087
21
29.935279
31
0
39
0
210
0
220
0
230
1
0
LINE
5
DD
100
AcDbEntity
8
1
62
256
6
ByLayer
370
13
48
1
60
0
100
AcDbLine
10
30.405561
20
24.910588
30
0
11
33.05356
21
26.711542
31
0
39
0
210
0
220
0
230
1
0
LINE
5
DE
100
AcDbEntity
8
1
62
256
6
ByLayer
370
13
48
1
60
0
100
AcDbLine
10
30.405561
20
24.910588
30
0
11
33.429456
21
25.964825
31
0
39
0
210
0
220
0
230
1
0
LINE
5
DF
100
AcDbEntity
8
1
62
256
6
ByLayer
370
13
48
1
60
0
100
AcDbLine
10
33.05356
20
26.711542
30
0
11
33.429456
21
25.964825
31
0
39
0
210
0
220
0
230
1
0
LINE
5
E0
100
AcDbEntity
8
1
62
256
6
ByLayer
370
13
48
1
60
0
100
AcDbLine
10
37.3087
20
26.760279
30
0
11
34.162815
21
26.161327
31
0
39
0
210
0
220
0
230
1
0
LINE
5
E1
100
AcDbEntity
8
1
62
256
6
ByLayer
370
13
48
1
60
0
100
AcDbLine
10
37.3087
20
26.760279
30
0
11
34.114985
21
26.995951
31
0
39
0
210
0
220
0
230
1
0
LINE
5
E2
100
AcDbEntity
8
1
62
256
6
ByLayer
370
13
48
1
60
0
100
AcDbLine
10
34.162815
20
26.161327
30
0
11
34.114985
21
26.995951
31
0
39
0
210
0
220
0
230
1
0
POLYLINE
5
10C
100
AcDbEntity
8
1
62
256
6
ByLayer
370
13
48
1
60
0
100
AcDb3dPolyline
10
0
20
0
30
0
70
8
75
0
210
0
220
0
230
1
0
VERTEX
5
10D
100
AcDbEntity
8
1
62
256
100
AcDbVertex
100
AcDb3dPolylineVertex
10
26.768103
20
-15.639578
30
0
70
32
0
VERTEX
5
10E
100
AcDbEntity
8
1
62
256
100
AcDbVertex
100
AcDb3dPolylineVertex
10
26.769466
20
-15.640628
30
0
70
32
0
VERTEX
5
10F
100
AcDbEntity
8
1
62
256
100
AcDbVertex
100
AcDb3dPolylineVertex
10
26.77083
20
-15.641679
30
0
70
32
0
VERTEX
5
110
100
AcDbEntity
8
1
62
256
100
AcDbVertex
100
AcDb3dPolylineVertex
10
26.772194
20
-15.642729
30
0
70
32
0
VERTEX
5
111
100
AcDbEntity
8
1
62
256
100
AcDbVertex
100
AcDb3dPolylineVertex
10
26.773558
20
-15.643779
30
0
70
32
0
VERTEX
5
112
100
AcDbEntity
8
1
62
256
100
AcDbVertex
100
AcDb3dPolylineVertex
10
26.774922
20
-15.644829
30
0
70
32
0
VERTEX
5
113
100
AcDbEntity
8
1
62
256
100
AcDbVertex
100
AcDb3dPolylineVertex
10
26.776286
20
-15.645879
30
0
70
32
0
VERTEX
5
114
100
AcDbEntity
8
1
62
256
100
AcDbVertex
100
AcDb3dPolylineVertex
10
26.777651
20
-15.646929
30
0
70
32
0
VERTEX
5
115
100
AcDbEntity
8
1
62
256
100
AcDbVertex
100
AcDb3dPolylineVertex
10
26.779015
20
-15.647979
30
0
70
32
0
VERTEX
5
116
100
AcDbEntity
8
1
62
256
100
AcDbVertex
100
AcDb3dPolylineVertex
10
26.78038
20
-15.649029
30
0
70
32
0
VERTEX
5
117
100
AcDbEntity
8
1
62
256
100
AcDbVertex
100
AcDb3dPolylineVertex
10
26.781745
20
-15.650079
30
0
70
32
0
VERTEX
5
118
100
AcDbEntity
8
1
62
256
100
AcDbVertex
100
AcDb3dPolylineVertex
10
26.78311
20
-15.651128
30
0
70
32
0
VERTEX
5
119
100
AcDbEntity
8
1
62
256
100
AcDbVertex
100
AcDb3dPolylineVertex
10
26.784475
20
-15.652178
30
0
70
32
0
VERTEX
5
11A
100
AcDbEntity
8
1
62
256
100
AcDbVertex
100
AcDb3dPolylineVertex
10
26.78584
20
-15.653228
30
0
70
32
0
VERTEX
5
11B
100
AcDbEntity
8
1
62
256
100
AcDbVertex
100
AcDb3dPolylineVertex
10
26.787205
20
-15.654278
30
0
70
32
0
VERTEX
5
11C
100
AcDbEntity
8
1
62
256
100
AcDbVertex
100
AcDb3dPolylineVertex
10
26.788571
20
-15.655328
30
0
70
32
0
VERTEX
5
11D
100
AcDbEntity
8
1
62
256
100
AcDbVertex
100
AcDb3dPolylineVertex
10
26.789936
20
-15.656377
30
0
70
32
0
VERTEX
5
11E
100
AcDbEntity
8
1
62
256
100
AcDbVertex
100
AcDb3dPolylineVertex
10
26.791302
20
-15.657427
30
0
70
32
0
VERTEX
5
11F
100
AcDbEntity
8
1
62
256
100
AcDbVertex
100
AcDb3dPolylineVertex
10
26.792668
20
-15.658477
30
0
70
32
0
VERTEX
5
120
100
AcDbEntity
8
1
62
256
100
AcDbVertex
100
AcDb3dPolylineVertex
10
26.794034
20
-15.659527
30
0
70
32
0
VERTEX
5
121
100
AcDbEntity
8
1
62
256
100
AcDbVertex
100
AcDb3dPolylineVertex
10
26.7954
20
-15.660576
30
0
70
32
0
VERTEX
5
122
100
AcDbEntity
8
1
62
256
100
AcDbVertex
100
AcDb3dPolylineVertex
10
26.796767
20
-15.661626
30
0
70
32
0
VERTEX
5
123
100
AcDbEntity
8
1
62
256
100
AcDbVertex
100
AcDb3dPolylineVertex
10
26.798133
20
-15.662675
30
0
70
32
0
VERTEX
5
124
100
AcDbEntity
8
1
62
256
100
AcDbVertex
100
AcDb3dPolylineVertex
10
26.7995
20
-15.663725
30
0
70
32
0
VERTEX
5
125
100
AcDbEntity
8
1
62
256
100
AcDbVertex
100
AcDb3dPolylineVertex
10
26.800867
20
-15.664775
30
0
70
32
0
VERTEX
5
126
100
AcDbEntity
8
1
62
256
100
AcDbVertex
100
AcDb3dPolylineVertex
10
26.802233
20
-15.665824
30
0
70
32
0
VERTEX
5
127
100
AcDbEntity
8
1
62
256
100
AcDbVertex
100
AcDb3dPolylineVertex
10
26.8036
20
-15.666874
30
0
70
32
0
VERTEX
5
128
100
AcDbEntity
8
1
62
256
100
AcDbVertex
100
AcDb3dPolylineVertex
10
26.804968
20
-15.667923
30
0
70
32
0
VERTEX
5
129
100
AcDbEntity
8
1
62
256
100
AcDbVertex
100
AcDb3dPolylineVertex
10
26.806335
20
-15.668972
30
0
70
32
0
VERTEX
5
12A
100
AcDbEntity
8
1
62
256
100
AcDbVertex
100
AcDb3dPolylineVertex
10
26.807702
20
-15.670022
30
0
70
32
0
VERTEX
5
12B
100
AcDbEntity
8
1
62
256
100
AcDbVertex
100
AcDb3dPolylineVertex
10
26.80907
20
-15.671071
30
0
70
32
0
VERTEX
5
12C
100
AcDbEntity
8
1
62
256
100
AcDbVertex
100
AcDb3dPolylineVertex
10
26.810438
20
-15.672121
30
0
70
32
0
VERTEX
5
12D
100
AcDbEntity
8
1
62
256
100
AcDbVertex
100
AcDb3dPolylineVertex
10
26.811806
20
-15.67317
30
0
70
32
0
VERTEX
5
12E
100
AcDbEntity
8
1
62
256
100
AcDbVertex
100
AcDb3dPolylineVertex
10
26.813174
20
-15.674219
30
0
70
32
0
VERTEX
5
12F
100
AcDbEntity
8
1
62
256
100
AcDbVertex
100
AcDb3dPolylineVertex
10
26.814542
20
-15.675268
30
0
70
32
0
VERTEX
5
130
100
AcDbEntity
8
1
62
256
100
AcDbVertex
100
AcDb3dPolylineVertex
10
26.81591
20
-15.676318
30
0
70
32
0
VERTEX
5
131
100
AcDbEntity
8
1
62
256
100
AcDbVertex
100
AcDb3dPolylineVertex
10
26.817278
20
-15.677367
30
0
70
32
0
VERTEX
5
132
100
AcDbEntity
8
1
62
256
100
AcDbVertex
100
AcDb3dPolylineVertex
10
26.818647
20
-15.678416
30
0
70
32
0
VERTEX
5
133
100
AcDbEntity
8
1
62
256
100
AcDbVertex
100
AcDb3dPolylineVertex
10
26.820016
20
-15.679465
30
0
70
32
0
VERTEX
5
134
100
AcDbEntity
8
1
62
256
100
AcDbVertex
100
AcDb3dPolylineVertex
10
26.821384
20
-15.680514
30
0
70
32
0
VERTEX
5
135
100
AcDbEntity
8
1
62
256
100
AcDbVertex
100
AcDb3dPolylineVertex
10
26.822753
20
-15.681563
30
0
70
32
0
VERTEX
5
136
100
AcDbEntity
8
1
62
256
100
AcDbVertex
100
AcDb3dPolylineVertex
10
26.824122
20
-15.682613
30
0
70
32
0
VERTEX
5
137
100
AcDbEntity
8
1
62
256
100
AcDbVertex
100
AcDb3dPolylineVertex
10
26.825492
20
-15.683662
30
0
70
32
0
VERTEX
5
138
100
AcDbEntity
8
1
62
256
100
AcDbVertex
100
AcDb3dPolylineVertex
10
26.826861
20
-15.684711
30
0
70
32
0
VERTEX
5
139
100
AcDbEntity
8
1
62
256
100
AcDbVertex
100
AcDb3dPolylineVertex
10
26.828231
20
-15.68576
30
0
70
32
0
VERTEX
5
13A
100
AcDbEntity
8
1
62
256
100
AcDbVertex
100
AcDb3dPolylineVertex
10
26.8296
20
-15.686809
30
0
70
32
0
VERTEX
5
13B
100
AcDbEntity
8
1
62
256
100
AcDbVertex
100
AcDb3dPolylineVertex
10
26.83097
20
-15.687858
30
0
70
32
0
VERTEX
5
13C
100
AcDbEntity
8
1
62
256
100
AcDbVertex
100
AcDb3dPolylineVertex
10
26.83234
20
-15.688906
30
0
70
32
0
VERTEX
5
13D
100
AcDbEntity
8
1
62
256
100
AcDbVertex
100
AcDb3dPolylineVertex
10
26.83371
20
-15.689955
30
0
70
32
0
VERTEX
5
13E
100
AcDbEntity
8
1
62
256
100
AcDbVertex
100
AcDb3dPolylineVertex
10
26.83508
20
-15.691004
30
0
70
32
0
VERTEX
5
13F
100
AcDbEntity
8
1
62
256
100
AcDbVertex
100
AcDb3dPolylineVertex
10
26.836451
20
-15.692053
30
0
70
32
0
SEQEND
5
140
100
AcDbEntity
8
1
0
MTEXT
5
214
100
AcDbEntity
8
SK2
62
256
6
ByLayer
370
18
48
1
60
0
100
AcDbMText
10
43.935011
20
27.454384
30
0
210
0
220
0
230
1
1
\W0.9771;30%%d
40
4.5
41
0
44
1.084337
50
318.381600417068
71
7
72
5
7
iso_b_vert
0
MTEXT
5
217
100
AcDbEntity
8
SK6
62
256
6
ByLayer
370
18
48
1
60
0
100
AcDbMText
10
-109.103803
20
-19.82
30
0
210
0
220
0
230
1
1
\W0.7784;A495-026M25-3009H
40
4
41
0
44
1.084337
50
89.9999999999998
71
7
72
5
7
iso_b_vert
0
DIMENSION
5
21A
100
AcDbEntity
8
2
62
256
6
ByLayer
370
18
48
1
60
0
100
AcDbDimension
2
_U0
10
62.205575
20
12.954
30
0
11
62.205575
21
36.338534
31
0
70
32
71
1
72
1
41
1
210
0
220
0
230
1
3
Standard
100
AcDbAlignedDimension
13
37.3087
23
-12.954
33
0
14
37.3087
24
12.954
34
0
50
90
100
AcDbRotatedDimension
1001
ACAD
1000
DSTYLE
1002
{
1070
   371
1070
    13
1070
   372
1070
    13
1070
   170
1070
     0
1070
   144
1040
1.0
1070
   277
1070
     2
1070
   284
1070
     8
1070
   278
1070
    46
1070
   146
1040
0.777778
1070
   345
1005
16
1070
   347
1005
16
1070
   346
1005
16
1070
   344
1005
21B
1070
   343
1005
21B
1070
   172
1070
     1
1070
    76
1070
     0
1070
    75
1070
     0
1070
   282
1070
     0
1070
   281
1070
     0
1070
    71
1070
     0
1070
    74
1070
     0
1070
   279
1070
     0
1070
   173
1070
     1
1070
   340
1005
215
1070
   271
1070
     2
1070
   272
1070
     2
1070
    77
1070
     1
1070
    73
1070
     0
1070
   171
1070
     3
1070
   274
1070
     4
1070
   177
1070
   150
1070
   176
1070
     9
1070
   178
1070
    43
1070
    78
1070
     8
1070
    48
1040
-0.1
1070
    41
1040
3.175
1070
   147
1040
2.25
1070
    42
1040
1.5875
1070
    44
1040
3.175
1070
   140
1040
4.5
1002
}
1001
ACAD_DSTYLE_DIM_LINETYPE
1070
   380
1005
16
1001
ACAD_DSTYLE_DIM_EXT1_LINETYPE
1070
   381
1005
16
1001
ACAD_DSTYLE_DIM_EXT2_LINETYPE
1070
   382
1005
16
0
DIMENSION
5
241
100
AcDbEntity
8
SK2
62
256
6
ByLayer
370
18
48
1
60
0
100
AcDbDimension
2
_U1
10
-0.0013
20
-37.454
30
0
11
18.6537
21
-37.454
31
0
70
32
71
1
72
1
41
1
210
0
220
0
230
1
3
Standard
100
AcDbAlignedDimension
13
37.3087
23
-12.954
33
0
14
-0.0013
24
0
34
0
50
0
100
AcDbRotatedDimension
1001
ACAD
1000
DSTYLE
1002
{
1070
   371
1070
    13
1070
   372
1070
    13
1070
   170
1070
     0
1070
   144
1040
1.0
1070
   277
1070
     2
1070
   284
1070
     8
1070
   278
1070
    46
1070
   146
1040
0.777778
1070
   345
1005
16
1070
   347
1005
16
1070
   346
1005
16
1070
   344
1005
21B
1070
   343
1005
21B
1070
   172
1070
     1
1070
    76
1070
     0
1070
    75
1070
     0
1070
   282
1070
     0
1070
   281
1070
     0
1070
    71
1070
     0
1070
    74
1070
     0
1070
   279
1070
     0
1070
   173
1070
     1
1070
   340
1005
215
1070
   271
1070
     2
1070
   272
1070
     2
1070
    77
1070
     1
1070
    73
1070
     1
1070
   171
1070
     3
1070
   274
1070
     4
1070
   177
1070
   150
1070
   176
1070
     9
1070
   178
1070
    43
1070
    78
1070
     8
1070
    48
1040
-0.1
1070
    41
1040
3.175
1070
   147
1040
2.25
1070
    42
1040
1.5875
1070
    44
1040
3.175
1070
   140
1040
4.5
1002
}
1001
ACAD_DSTYLE_DIM_LINETYPE
1070
   380
1005
16
1001
ACAD_DSTYLE_DIM_EXT1_LINETYPE
1070
   381
1005
16
1001
ACAD_DSTYLE_DIM_EXT2_LINETYPE
1070
   382
1005
16
0
DIMENSION
5
25D
100
AcDbEntity
8
2
62
256
6
ByLayer
370
18
48
1
60
0
100
AcDbDimension
2
_U2
10
37.3087
20
33.454
30
0
11
-10.31565
21
33.454
31
0
70
32
71
1
72
1
41
1
210
0
220
0
230
1
3
Standard
100
AcDbAlignedDimension
13
-57.94
23
12.69675
33
0
14
37.3087
24
12.954
34
0
50
0
100
AcDbRotatedDimension
1001
ACAD
1000
DSTYLE
1002
{
1070
   371
1070
    13
1070
   372
1070
    13
1070
   170
1070
     0
1070
   144
1040
1.0
1070
   277
1070
     2
1070
   284
1070
     8
1070
   278
1070
    46
1070
   146
1040
0.777778
1070
   345
1005
16
1070
   347
1005
16
1070
   346
1005
16
1070
   344
1005
21B
1070
   343
1005
21B
1070
   172
1070
     1
1070
    76
1070
     0
1070
    75
1070
     0
1070
   282
1070
     0
1070
   281
1070
     0
1070
    71
1070
     0
1070
    74
1070
     0
1070
   279
1070
     0
1070
   173
1070
     1
1070
   340
1005
215
1070
   271
1070
     2
1070
   272
1070
     2
1070
    77
1070
     1
1070
    73
1070
     1
1070
   171
1070
     3
1070
   274
1070
     4
1070
   177
1070
   150
1070
   176
1070
     9
1070
   178
1070
    43
1070
    78
1070
     8
1070
    48
1040
-0.1
1070
    41
1040
3.175
1070
   147
1040
2.25
1070
    42
1040
1.5875
1070
    44
1040
3.175
1070
   140
1040
4.5
1002
}
1001
ACAD_DSTYLE_DIM_LINETYPE
1070
   380
1005
16
1001
ACAD_DSTYLE_DIM_EXT1_LINETYPE
1070
   381
1005
16
1001
ACAD_DSTYLE_DIM_EXT2_LINETYPE
1070
   382
1005
16
0
DIMENSION
5
279
100
AcDbEntity
8
SK2
62
256
6
ByLayer
370
18
48
1
60
0
100
AcDbDimension
2
_U3
10
32.8025
20
23.454
30
0
11
-12.56875
21
23.454
31
0
70
32
71
1
72
1
41
1
210
0
220
0
230
1
3
Standard
100
AcDbAlignedDimension
13
-57.94
23
12.69675
33
0
14
32.8025
24
19.945
34
0
50
0
100
AcDbRotatedDimension
1001
ACAD
1000
DSTYLE
1002
{
1070
   371
1070
    13
1070
   372
1070
    13
1070
   170
1070
     0
1070
   144
1040
1.0
1070
   277
1070
     2
1070
   284
1070
     8
1070
   278
1070
    46
1070
   146
1040
0.777778
1070
   345
1005
16
1070
   347
1005
16
1070
   346
1005
16
1070
   344
1005
21B
1070
   343
1005
21B
1070
   172
1070
     1
1070
    76
1070
     0
1070
    75
1070
     0
1070
   282
1070
     0
1070
   281
1070
     0
1070
    71
1070
     0
1070
    74
1070
     0
1070
   279
1070
     0
1070
   173
1070
     1
1070
   340
1005
215
1070
   271
1070
     2
1070
   272
1070
     2
1070
    77
1070
     1
1070
    73
1070
     1
1070
   171
1070
     3
1070
   274
1070
     4
1070
   177
1070
   150
1070
   176
1070
     9
1070
   178
1070
    43
1070
    78
1070
     8
1070
    48
1040
-0.1
1070
    41
1040
3.175
1070
   147
1040
2.25
1070
    42
1040
1.5875
1070
    44
1040
3.175
1070
   140
1040
4.5
1002
}
1001
ACAD_DSTYLE_DIM_LINETYPE
1070
   380
1005
16
1001
ACAD_DSTYLE_DIM_EXT1_LINETYPE
1070
   381
1005
16
1001
ACAD_DSTYLE_DIM_EXT2_LINETYPE
1070
   382
1005
16
0
DIMENSION
5
295
100
AcDbEntity
8
SK2
62
256
6
ByLayer
370
18
48
1
60
0
100
AcDbDimension
2
_U4
10
73.0587
20
19.945
30
0
11
73.0587
21
0
31
0
70
32
71
1
72
1
41
1
210
0
220
0
230
1
3
Standard
100
AcDbAlignedDimension
13
32.8025
23
-19.945
33
0
14
32.8025
24
19.945
34
0
50
90
100
AcDbRotatedDimension
1001
ACAD
1000
DSTYLE
1002
{
1070
   371
1070
    13
1070
   372
1070
    13
1070
   170
1070
     0
1070
   144
1040
1.0
1070
   277
1070
     2
1070
   284
1070
     8
1070
   278
1070
    46
1070
   146
1040
0.777778
1070
   345
1005
16
1070
   347
1005
16
1070
   346
1005
16
1070
   344
1005
21B
1070
   343
1005
21B
1070
   172
1070
     1
1070
    76
1070
     0
1070
    75
1070
     0
1070
   282
1070
     0
1070
   281
1070
     0
1070
    71
1070
     0
1070
    74
1070
     0
1070
   279
1070
     0
1070
   173
1070
     1
1070
   340
1005
215
1070
   271
1070
     2
1070
   272
1070
     2
1070
    77
1070
     1
1070
    73
1070
     0
1070
   171
1070
     3
1070
   274
1070
     4
1070
   177
1070
   150
1070
   176
1070
     9
1070
   178
1070
    43
1070
    78
1070
     8
1070
    48
1040
-0.1
1070
    41
1040
3.175
1070
   147
1040
2.25
1070
    42
1040
1.5875
1070
    44
1040
3.175
1070
   140
1040
4.5
1002
}
1001
ACAD_DSTYLE_DIM_LINETYPE
1070
   380
1005
16
1001
ACAD_DSTYLE_DIM_EXT1_LINETYPE
1070
   381
1005
16
1001
ACAD_DSTYLE_DIM_EXT2_LINETYPE
1070
   382
1005
16
0
DIMENSION
5
2B2
100
AcDbEntity
8
SK2
62
256
6
ByLayer
370
18
48
1
60
0
100
AcDbDimension
2
_U5
10
-83.043125
20
-12.69675
30
0
11
-83.043125
21
36.812422
31
0
70
32
71
1
72
1
41
1
210
0
220
0
230
1
3
Standard
100
AcDbAlignedDimension
13
-57.94
23
12.69675
33
0
14
-57.94
24
-12.69675
34
0
50
90
100
AcDbRotatedDimension
1001
ACAD
1000
DSTYLE
1002
{
1070
   371
1070
    13
1070
   372
1070
    13
1070
   170
1070
     0
1070
   144
1040
1.0
1070
   277
1070
     2
1070
   284
1070
     8
1070
   278
1070
    46
1070
   146
1040
0.777778
1070
   345
1005
16
1070
   347
1005
16
1070
   346
1005
16
1070
   344
1005
21B
1070
   343
1005
21B
1070
   172
1070
     1
1070
    76
1070
     0
1070
    75
1070
     0
1070
   282
1070
     0
1070
   281
1070
     0
1070
    71
1070
     0
1070
    74
1070
     0
1070
   279
1070
     0
1070
   173
1070
     1
1070
   340
1005
215
1070
   271
1070
     2
1070
   272
1070
     2
1070
    77
1070
     1
1070
    73
1070
     0
1070
   171
1070
     3
1070
   274
1070
     4
1070
   177
1070
   150
1070
   176
1070
     9
1070
   178
1070
    43
1070
    78
1070
     8
1070
    48
1040
-0.1
1070
    41
1040
3.175
1070
   147
1040
2.25
1070
    42
1040
1.5875
1070
    44
1040
3.175
1070
   140
1040
4.5
1002
}
1001
ACAD_DSTYLE_DIM_LINETYPE
1070
   380
1005
16
1001
ACAD_DSTYLE_DIM_EXT1_LINETYPE
1070
   381
1005
16
1001
ACAD_DSTYLE_DIM_EXT2_LINETYPE
1070
   382
1005
16
0
ENDSEC
0
SECTION
2
OBJECTS
0
DICTIONARY
5
340
330
0
100
AcDbDictionary
280
0
281
1
3
ACAD_GROUP
350
341
3
ACAD_MLINESTYLE
350
342
0
DICTIONARY
5
341
330
0
100
AcDbDictionary
280
0
281
1
0
DICTIONARY
5
342
330
0
100
AcDbDictionary
280
0
281
1
3
Standard
350
18
0
MLINESTYLE
5
18
330
342
100
AcDbMlineStyle
2
Standard
70
0
3

62
256
51
90
52
90
71
2
49
-0.5
62
256
6
ByLayer
49
0.5
62
256
6
ByLayer
0
RASTERVARIABLES
5
32e
330

100
AcDbRasterVariables
90
0
70
1
71
1
72
1
0
ENDSEC
0
EOF
