0
SECTION
2
HEADER
9
$ACADVER
1
AC1015
9
$DWGCODEPAGE
3
ANSI_1252
9
$HANDSEED
5
2ca
9
$ANGBASE
50
0
9
$ANGDIR
70
0
9
$ATTMODE
70
1
9
$AUNITS
70
0
9
$AUPREC
70
0
9
$CECOLOR
62
256
9
$CELTSCALE
40
1
9
$CELTYPE
6
ByLayer
9
$CELWEIGHT
370
18
9
$CLAYER
8
0
9
$CMLJUST
70
0
9
$CMLSCALE
40
1
9
$CMLSTYLE
2
Standard
9
$DIMSTYLE
2
Standard
9
$TEXTSIZE
40
0.2
9
$TEXTSTYLE
7
Standard
9
$LUNITS
70
2
9
$LUPREC
70
4
9
$EXTNAMES
290
1
9
$INSUNITS
70
4
9
$LTSCALE
40
1
9
$LWDISPLAY
290
1
9
$PDMODE
70
0
9
$PDSIZE
40
0
9
$PLINEGEN
70
0
0
ENDSEC
0
SECTION
2
CLASSES
0
CLASS
1
RASTERVARIABLES
2
AcDbRasterVariables
3
ISM
90
0
280
0
281
0
0
ENDSEC
0
SECTION
2
TABLES
0
TABLE
2
VPORT
5
2c0
100
AcDbSymbolTable
0
VPORT
5
1
100
AcDbSymbolTableRecord
100
AcDbViewportTableRecord
2
*Active
70
0
10
0
20
0
11
1
21
1
12
-1
22
1
13
0
23
0
14
0.5
24
0.5
15
10
25
10
16
0
26
0
36
1
17
0
27
0
37
0
0
ENDTAB
0
TABLE
2
LTYPE
5
2c1
100
AcDbSymbolTable
0
LTYPE
5
14
100
AcDbSymbolTableRecord
100
AcDbLinetypeTableRecord
70
0
2
ByBlock
3

72
65
73
0
40
0
0
LTYPE
5
15
100
AcDbSymbolTableRecord
100
AcDbLinetypeTableRecord
70
0
2
ByLayer
3

72
65
73
0
40
0
0
LTYPE
5
16
100
AcDbSymbolTableRecord
100
AcDbLinetypeTableRecord
70
0
2
Continuous
3
Solid line
72
65
73
0
40
0
0
LTYPE
5
6E
100
AcDbSymbolTableRecord
100
AcDbLinetypeTableRecord
70
0
2
CENTER
3
____ _ ____ _ ____ _ ____
72
65
73
4
40
47.5
49
22
74
0
49
-8.5
74
0
49
8.5
74
0
49
-8.5
74
0
0
LTYPE
5
6F
100
AcDbSymbolTableRecord
100
AcDbLinetypeTableRecord
70
0
2
DASHED
3
__ __ __ __ __ __ __ __ __
72
65
73
2
40
25.72
49
12.86
74
0
49
-12.86
74
0
0
ENDTAB
0
TABLE
2
LAYER
5
2c2
100
AcDbSymbolTable
0
LAYER
5
10
100
AcDbSymbolTableRecord
100
AcDbLayerTableRecord
2
0
70
0
62
7
6
Continuous
290
1
370
-3
390
0
0
LAYER
5
71
100
AcDbSymbolTableRecord
100
AcDbLayerTableRecord
2
81
70
0
62
-3
6
Continuous
290
1
370
-3
390
0
0
LAYER
5
73
100
AcDbSymbolTableRecord
100
AcDbLayerTableRecord
2
80
70
0
62
-6
6
Continuous
290
1
370
-3
390
0
0
LAYER
5
75
100
AcDbSymbolTableRecord
100
AcDbLayerTableRecord
2
1
70
0
62
4
6
Continuous
290
1
370
-3
390
0
0
LAYER
5
BE
100
AcDbSymbolTableRecord
100
AcDbLayerTableRecord
2
4
70
0
62
-2
6
CENTER
290
1
370
-3
390
0
0
LAYER
5
19F
100
AcDbSymbolTableRecord
100
AcDbLayerTableRecord
2
Defpoints
70
0
62
7
6
Continuous
290
0
370
-3
390
0
0
LAYER
5
1AE
100
AcDbSymbolTableRecord
100
AcDbLayerTableRecord
2
2
70
0
62
7
6
Continuous
290
1
370
-3
390
0
0
LAYER
5
2ac
100
AcDbSymbolTableRecord
100
AcDbLayerTableRecord
2
SK1
70
0
62
4
6
Continuous
290
1
370
-3
390
0
0
LAYER
5
2ad
100
AcDbSymbolTableRecord
100
AcDbLayerTableRecord
2
SK4
70
0
62
2
6
CENTER
290
1
370
-3
390
0
0
LAYER
5
2ae
100
AcDbSymbolTableRecord
100
AcDbLayerTableRecord
2
SK2
70
0
62
7
6
Continuous
290
1
370
-3
390
0
0
LAYER
5
2af
100
AcDbSymbolTableRecord
100
AcDbLayerTableRecord
2
SK6
70
0
62
5
6
Continuous
290
1
370
-3
390
0
0
ENDTAB
0
TABLE
2
STYLE
5
2c3
100
AcDbSymbolTable
0
STYLE
5
11
100
AcDbSymbolTableRecord
100
AcDbTextStyleTableRecord
2
Standard
3
txt
70
0
71
0
40
0
41
1
42
0
50
0
0
STYLE
5
190
100
AcDbSymbolTableRecord
100
AcDbTextStyleTableRecord
2
iso_b_vert
3
simplex.shx
70
0
71
0
40
0
41
1
42
0
50
0
0
STYLE
5
191
100
AcDbSymbolTableRecord
100
AcDbTextStyleTableRecord
2
DWGDirectTextStyle
3
simplex
70
0
71
0
40
0
41
1
42
0
50
0
0
ENDTAB
0
TABLE
2
DIMSTYLE
5
2c4
100
AcDbSymbolTable
100
AcDbDimStyleTable
0
DIMSTYLE
105
27
100
AcDbSymbolTableRecord
100
AcDbDimStyleTableRecord
2
Standard
70
0
3
<>
41
0.18
42
0.0625
44
0.18
140
0.18
147
0.09
73
0
74
0
77
1
271
2
275
0
278
52
280
0
340
11
0
ENDTAB
0
TABLE
2
VIEW
5
2c5
100
AcDbSymbolTable
0
ENDTAB
0
TABLE
2
UCS
5
2c6
100
AcDbSymbolTable
0
ENDTAB
0
TABLE
2
APPID
5
2c7
100
AcDbSymbolTable
0
APPID
5
12
100
AcDbSymbolTableRecord
100
AcDbRegAppTableRecord
2
ACAD
70
0
0
APPID
5
194
100
AcDbSymbolTableRecord
100
AcDbRegAppTableRecord
2
ACAD_DSTYLE_DIMBREAK
70
0
0
APPID
5
26B
100
AcDbSymbolTableRecord
100
AcDbRegAppTableRecord
2
ACAD_DSTYLE_DIM_LINETYPE
70
0
0
APPID
5
26C
100
AcDbSymbolTableRecord
100
AcDbRegAppTableRecord
2
ACAD_DSTYLE_DIM_EXT1_LINETYPE
70
0
0
APPID
5
26D
100
AcDbSymbolTableRecord
100
AcDbRegAppTableRecord
2
ACAD_DSTYLE_DIM_EXT2_LINETYPE
70
0
0
APPID
5
2A8
100
AcDbSymbolTableRecord
100
AcDbRegAppTableRecord
2
ACAD_MLEADERVER
70
0
0
ENDTAB
0
TABLE
2
BLOCK_RECORD
5
2c8
100
AcDbSymbolTable
0
BLOCK_RECORD
5
1F
100
AcDbSymbolTableRecord
100
AcDbBlockTableRecord
2
*Model_Space
340
0
70
0
0
BLOCK_RECORD
5
1B
100
AcDbSymbolTableRecord
100
AcDbBlockTableRecord
2
*Paper_Space
340
0
70
0
0
BLOCK_RECORD
5
23
100
AcDbSymbolTableRecord
100
AcDbBlockTableRecord
2
*Paper_Space0
340
0
70
0
0
BLOCK_RECORD
5
196
100
AcDbSymbolTableRecord
100
AcDbBlockTableRecord
2
_Closed
340
0
70
0
0
BLOCK_RECORD
5
1A0
100
AcDbSymbolTableRecord
100
AcDbBlockTableRecord
2
*D2
340
0
70
0
0
BLOCK_RECORD
5
1AF
100
AcDbSymbolTableRecord
100
AcDbBlockTableRecord
2
_U0
340
0
70
0
0
BLOCK_RECORD
5
1C0
100
AcDbSymbolTableRecord
100
AcDbBlockTableRecord
2
*D4
340
0
70
0
0
BLOCK_RECORD
5
1CC
100
AcDbSymbolTableRecord
100
AcDbBlockTableRecord
2
_U1
340
0
70
0
0
BLOCK_RECORD
5
1DC
100
AcDbSymbolTableRecord
100
AcDbBlockTableRecord
2
*D6
340
0
70
0
0
BLOCK_RECORD
5
1E8
100
AcDbSymbolTableRecord
100
AcDbBlockTableRecord
2
_U2
340
0
70
0
0
BLOCK_RECORD
5
1F8
100
AcDbSymbolTableRecord
100
AcDbBlockTableRecord
2
*D8
340
0
70
0
0
BLOCK_RECORD
5
204
100
AcDbSymbolTableRecord
100
AcDbBlockTableRecord
2
_U3
340
0
70
0
0
BLOCK_RECORD
5
214
100
AcDbSymbolTableRecord
100
AcDbBlockTableRecord
2
*D10
340
0
70
0
0
BLOCK_RECORD
5
220
100
AcDbSymbolTableRecord
100
AcDbBlockTableRecord
2
_U4
340
0
70
0
0
BLOCK_RECORD
5
231
100
AcDbSymbolTableRecord
100
AcDbBlockTableRecord
2
*D12
340
0
70
0
0
BLOCK_RECORD
5
23F
100
AcDbSymbolTableRecord
100
AcDbBlockTableRecord
2
_U5
340
0
70
0
0
ENDTAB
0
ENDSEC
0
SECTION
2
BLOCKS
0
BLOCK
5
20
100
AcDbEntity
8
0
100
AcDbBlockBegin
2
*Model_Space
70
0
10
0
20
0
30
0
3
*Model_Space
0
ENDBLK
5
21
100
AcDbEntity
8
0
100
AcDbBlockEnd
0
BLOCK
5
1C
100
AcDbEntity
8
0
100
AcDbBlockBegin
2
*Paper_Space
70
0
10
0
20
0
30
0
3
*Paper_Space
0
ENDBLK
5
1D
100
AcDbEntity
8
0
100
AcDbBlockEnd
0
BLOCK
5
24
100
AcDbEntity
8
0
100
AcDbBlockBegin
2
*Paper_Space0
70
0
10
0
20
0
30
0
3
*Paper_Space0
0
ENDBLK
5
25
100
AcDbEntity
8
0
100
AcDbBlockEnd
0
BLOCK
5
197
100
AcDbEntity
8
0
100
AcDbBlockBegin
2
_Closed
70
0
10
0
20
0
30
0
3
_Closed
0
LINE
5
199
100
AcDbEntity
8
0
62
256
6
ByLayer
370
-2
48
1
60
0
100
AcDbLine
10
-1
20
0.166667
30
0
11
0
21
0
31
0
39
0
210
0
220
0
230
1
0
LINE
5
19A
100
AcDbEntity
8
0
62
256
6
ByLayer
370
-2
48
1
60
0
100
AcDbLine
10
0
20
0
30
0
11
-1
21
-0.166667
31
0
39
0
210
0
220
0
230
1
0
LINE
5
19B
100
AcDbEntity
8
0
62
256
6
ByLayer
370
-2
48
1
60
0
100
AcDbLine
10
-1
20
0.166667
30
0
11
-1
21
-0.166667
31
0
39
0
210
0
220
0
230
1
0
LINE
5
19C
100
AcDbEntity
8
0
62
256
6
ByLayer
370
-2
48
1
60
0
100
AcDbLine
10
0
20
0
30
0
11
-1
21
0
31
0
39
0
210
0
220
0
230
1
0
ENDBLK
5
198
100
AcDbEntity
8
0
100
AcDbBlockEnd
0
BLOCK
5
1A1
100
AcDbEntity
8
0
100
AcDbBlockBegin
2
*D2
70
1
10
0
20
0
30
0
3
*D2
0
LINE
5
1A3
100
AcDbEntity
8
0
62
256
6
ByLayer
370
-2
48
1
60
0
100
AcDbLine
10
35.0763
20
-9.779
30
0
11
61.560675
21
-9.779
31
0
39
0
210
0
220
0
230
1
0
LINE
5
1A4
100
AcDbEntity
8
0
62
256
6
ByLayer
370
-2
48
1
60
0
100
AcDbLine
10
35.0763
20
9.779
30
0
11
61.560675
21
9.779
31
0
39
0
210
0
220
0
230
1
0
LINE
5
1A5
100
AcDbEntity
8
0
62
256
6
ByLayer
370
-2
48
1
60
0
100
AcDbLine
10
58.385675
20
9.779
30
0
11
58.385675
21
48.985855
31
0
39
0
210
0
220
0
230
1
0
LINE
5
1A6
100
AcDbEntity
8
0
62
256
6
ByLayer
370
-2
48
1
60
0
100
AcDbLine
10
58.385675
20
-12.954
30
0
11
58.385675
21
-16.129
31
0
39
0
210
0
220
0
230
1
0
LINE
5
1A7
100
AcDbEntity
8
0
62
256
6
ByLayer
370
-2
48
1
60
0
100
AcDbLine
10
58.385675
20
12.954
30
0
11
58.385675
21
16.129
31
0
39
0
210
0
220
0
230
1
0
SOLID
5
1A8
100
AcDbEntity
8
0
62
256
6
ByLayer
370
-1
48
1
60
0
100
AcDbTrace
10
58.914842
20
-12.954
30
0
11
57.856508
21
-12.954
31
0
12
58.385675
22
-9.779
32
0
13
58.385675
23
-9.779
33
0
39
0
210
0
220
0
230
1
0
SOLID
5
1A9
100
AcDbEntity
8
0
62
256
6
ByLayer
370
-1
48
1
60
0
100
AcDbTrace
10
57.856508
20
12.954
30
0
11
58.914842
21
12.954
31
0
12
58.385675
22
9.779
32
0
13
58.385675
23
9.779
33
0
39
0
210
0
220
0
230
1
0
MTEXT
5
1AA
100
AcDbEntity
8
0
62
256
6
ByLayer
370
18
48
1
60
0
100
AcDbMText
10
48.991925
20
33.163534
30
0
210
0
220
0
230
1
1
\A1;19.56
40
4.5
41
0
44
1
50
90
71
5
72
5
7
iso_b_vert
0
POINT
5
1AB
100
AcDbEntity
8
Defpoints
62
0
6
ByLayer
370
-1
48
1
60
0
100
AcDbPoint
10
33.4888
20
-9.779
30
0
39
0
210
0
220
0
230
1
50
360
0
POINT
5
1AC
100
AcDbEntity
8
Defpoints
62
0
6
ByLayer
370
-1
48
1
60
0
100
AcDbPoint
10
33.4888
20
9.779
30
0
39
0
210
0
220
0
230
1
50
360
0
POINT
5
1AD
100
AcDbEntity
8
Defpoints
62
0
6
ByLayer
370
-1
48
1
60
0
100
AcDbPoint
10
58.385675
20
9.779
30
0
39
0
210
0
220
0
230
1
50
360
0
ENDBLK
5
1A2
100
AcDbEntity
8
0
100
AcDbBlockEnd
0
BLOCK
5
1BB
100
AcDbEntity
8
0
100
AcDbBlockBegin
2
_U0
70
0
10
0
20
0
30
0
3
_U0
0
MTEXT
5
1B0
100
AcDbEntity
8
2
62
256
6
ByLayer
370
18
48
1
60
0
100
AcDbMText
10
56.303829
20
21.034375
30
0
210
0
220
0
230
1
1
%%c
40
3.175
41
0
44
1.084337
50
90
71
7
72
5
7
iso_b_vert
0
MTEXT
5
1B1
100
AcDbEntity
8
2
62
256
6
ByLayer
370
18
48
1
60
0
100
AcDbMText
10
56.705253
20
30.619
30
0
210
0
220
0
230
1
1
\W0.8033;19.56
40
4.5
41
0
44
1.084337
50
90
71
7
72
5
7
iso_b_vert
0
LINE
5
1B2
100
AcDbEntity
8
2
62
256
6
ByLayer
370
13
48
1
60
0
100
AcDbLine
10
35.0763
20
-9.779
30
0
11
61.560675
21
-9.779
31
0
39
0
210
0
220
0
230
1
0
LINE
5
1B3
100
AcDbEntity
8
2
62
256
6
ByLayer
370
13
48
1
60
0
100
AcDbLine
10
35.0763
20
9.779
30
0
11
61.560675
21
9.779
31
0
39
0
210
0
220
0
230
1
0
LINE
5
1B4
100
AcDbEntity
8
2
62
256
6
ByLayer
370
13
48
1
60
0
100
AcDbLine
10
58.385675
20
-9.779
30
0
11
58.385675
21
45.435568
31
0
39
0
210
0
220
0
230
1
0
LINE
5
1B5
100
AcDbEntity
8
2
62
256
6
ByLayer
370
13
48
1
60
0
100
AcDbLine
10
58.385675
20
-9.779
30
0
11
57.967678
21
-6.604002
31
0
39
0
210
0
220
0
230
1
0
LINE
5
1B6
100
AcDbEntity
8
2
62
256
6
ByLayer
370
13
48
1
60
0
100
AcDbLine
10
58.385675
20
-9.779
30
0
11
58.803672
21
-6.603998
31
0
39
0
210
0
220
0
230
1
0
LINE
5
1B7
100
AcDbEntity
8
2
62
256
6
ByLayer
370
13
48
1
60
0
100
AcDbLine
10
57.967678
20
-6.604002
30
0
11
58.803672
21
-6.603998
31
0
39
0
210
0
220
0
230
1
0
LINE
5
1B8
100
AcDbEntity
8
2
62
256
6
ByLayer
370
13
48
1
60
0
100
AcDbLine
10
58.385675
20
9.779
30
0
11
58.803672
21
6.604002
31
0
39
0
210
0
220
0
230
1
0
LINE
5
1B9
100
AcDbEntity
8
2
62
256
6
ByLayer
370
13
48
1
60
0
100
AcDbLine
10
58.385675
20
9.779
30
0
11
57.967678
21
6.603998
31
0
39
0
210
0
220
0
230
1
0
LINE
5
1BA
100
AcDbEntity
8
2
62
256
6
ByLayer
370
13
48
1
60
0
100
AcDbLine
10
58.803672
20
6.604002
30
0
11
57.967678
21
6.603998
31
0
39
0
210
0
220
0
230
1
0
ENDBLK
5
1BC
100
AcDbEntity
8
0
100
AcDbBlockEnd
0
BLOCK
5
1C1
100
AcDbEntity
8
0
100
AcDbBlockBegin
2
*D4
70
1
10
0
20
0
30
0
3
*D4
0
LINE
5
1C3
100
AcDbEntity
8
0
62
256
6
ByLayer
370
-2
48
1
60
0
100
AcDbLine
10
33.4888
20
-11.3665
30
0
11
33.4888
21
-37.454
31
0
39
0
210
0
220
0
230
1
0
LINE
5
1C4
100
AcDbEntity
8
0
62
256
6
ByLayer
370
-2
48
1
60
0
100
AcDbLine
10
-0.0012
20
-1.5875
30
0
11
-0.0012
21
-37.454
31
0
39
0
210
0
220
0
230
1
0
LINE
5
1C5
100
AcDbEntity
8
0
62
256
6
ByLayer
370
-2
48
1
60
0
100
AcDbLine
10
30.3138
20
-34.279
30
0
11
3.1738
21
-34.279
31
0
39
0
210
0
220
0
230
1
0
SOLID
5
1C6
100
AcDbEntity
8
0
62
256
6
ByLayer
370
-1
48
1
60
0
100
AcDbTrace
10
30.3138
20
-34.808167
30
0
11
30.3138
21
-33.749833
31
0
12
33.4888
22
-34.279
32
0
13
33.4888
23
-34.279
33
0
39
0
210
0
220
0
230
1
0
SOLID
5
1C7
100
AcDbEntity
8
0
62
256
6
ByLayer
370
-1
48
1
60
0
100
AcDbTrace
10
3.1738
20
-33.749833
30
0
11
3.1738
21
-34.808167
31
0
12
-0.0012
22
-34.279
32
0
13
-0.0012
23
-34.279
33
0
39
0
210
0
220
0
230
1
0
MTEXT
5
1C8
100
AcDbEntity
8
0
62
256
6
ByLayer
370
18
48
1
60
0
100
AcDbMText
10
16.7438
20
-24.88525
30
0
210
0
220
0
230
1
1
\A1;33.49
40
4.5
41
0
44
1
50
0
71
5
72
5
7
iso_b_vert
0
POINT
5
1C9
100
AcDbEntity
8
Defpoints
62
0
6
ByLayer
370
-1
48
1
60
0
100
AcDbPoint
10
33.4888
20
-9.779
30
0
39
0
210
0
220
0
230
1
50
360
0
POINT
5
1CA
100
AcDbEntity
8
Defpoints
62
0
6
ByLayer
370
-1
48
1
60
0
100
AcDbPoint
10
-0.0012
20
0
30
0
39
0
210
0
220
0
230
1
50
360
0
POINT
5
1CB
100
AcDbEntity
8
Defpoints
62
0
6
ByLayer
370
-1
48
1
60
0
100
AcDbPoint
10
-0.0012
20
-34.279
30
0
39
0
210
0
220
0
230
1
50
360
0
ENDBLK
5
1C2
100
AcDbEntity
8
0
100
AcDbBlockEnd
0
BLOCK
5
1D7
100
AcDbEntity
8
0
100
AcDbBlockBegin
2
_U1
70
0
10
0
20
0
30
0
3
_U1
0
MTEXT
5
1CD
100
AcDbEntity
8
SK2
62
256
6
ByLayer
370
18
48
1
60
0
100
AcDbMText
10
8.433639
20
-32.951328
30
0
210
0
220
0
230
1
1
\W0.9271;33.49
40
4.5
41
0
44
1.084337
50
0
71
7
72
5
7
iso_b_vert
0
LINE
5
1CE
100
AcDbEntity
8
SK2
62
256
6
ByLayer
370
13
48
1
60
0
100
AcDbLine
10
33.4888
20
-11.3665
30
0
11
33.4888
21
-37.454
31
0
39
0
210
0
220
0
230
1
0
LINE
5
1CF
100
AcDbEntity
8
SK2
62
256
6
ByLayer
370
13
48
1
60
0
100
AcDbLine
10
-0.0012
20
-1.5875
30
0
11
-0.0012
21
-37.454
31
0
39
0
210
0
220
0
230
1
0
LINE
5
1D0
100
AcDbEntity
8
SK2
62
256
6
ByLayer
370
13
48
1
60
0
100
AcDbLine
10
33.4888
20
-34.279
30
0
11
-0.0012
21
-34.279
31
0
39
0
210
0
220
0
230
1
0
LINE
5
1D1
100
AcDbEntity
8
SK2
62
256
6
ByLayer
370
13
48
1
60
0
100
AcDbLine
10
33.4888
20
-34.279
30
0
11
30.313802
21
-34.696997
31
0
39
0
210
0
220
0
230
1
0
LINE
5
1D2
100
AcDbEntity
8
SK2
62
256
6
ByLayer
370
13
48
1
60
0
100
AcDbLine
10
33.4888
20
-34.279
30
0
11
30.313798
21
-33.861003
31
0
39
0
210
0
220
0
230
1
0
LINE
5
1D3
100
AcDbEntity
8
SK2
62
256
6
ByLayer
370
13
48
1
60
0
100
AcDbLine
10
30.313802
20
-34.696997
30
0
11
30.313798
21
-33.861003
31
0
39
0
210
0
220
0
230
1
0
LINE
5
1D4
100
AcDbEntity
8
SK2
62
256
6
ByLayer
370
13
48
1
60
0
100
AcDbLine
10
-0.0012
20
-34.279
30
0
11
3.173798
21
-33.861003
31
0
39
0
210
0
220
0
230
1
0
LINE
5
1D5
100
AcDbEntity
8
SK2
62
256
6
ByLayer
370
13
48
1
60
0
100
AcDbLine
10
-0.0012
20
-34.279
30
0
11
3.173802
21
-34.696997
31
0
39
0
210
0
220
0
230
1
0
LINE
5
1D6
100
AcDbEntity
8
SK2
62
256
6
ByLayer
370
13
48
1
60
0
100
AcDbLine
10
3.173798
20
-33.861003
30
0
11
3.173802
21
-34.696997
31
0
39
0
210
0
220
0
230
1
0
ENDBLK
5
1D8
100
AcDbEntity
8
0
100
AcDbBlockEnd
0
BLOCK
5
1DD
100
AcDbEntity
8
0
100
AcDbBlockBegin
2
*D6
70
1
10
0
20
0
30
0
3
*D6
0
LINE
5
1DF
100
AcDbEntity
8
0
62
256
6
ByLayer
370
-2
48
1
60
0
100
AcDbLine
10
-51.6
20
11.10925
30
0
11
-51.6
21
33.454
31
0
39
0
210
0
220
0
230
1
0
LINE
5
1E0
100
AcDbEntity
8
0
62
256
6
ByLayer
370
-2
48
1
60
0
100
AcDbLine
10
33.4888
20
11.3665
30
0
11
33.4888
21
33.454
31
0
39
0
210
0
220
0
230
1
0
LINE
5
1E1
100
AcDbEntity
8
0
62
256
6
ByLayer
370
-2
48
1
60
0
100
AcDbLine
10
-48.425
20
30.279
30
0
11
30.3138
21
30.279
31
0
39
0
210
0
220
0
230
1
0
SOLID
5
1E2
100
AcDbEntity
8
0
62
256
6
ByLayer
370
-1
48
1
60
0
100
AcDbTrace
10
-48.425
20
30.808167
30
0
11
-48.425
21
29.749833
31
0
12
-51.6
22
30.279
32
0
13
-51.6
23
30.279
33
0
39
0
210
0
220
0
230
1
0
SOLID
5
1E3
100
AcDbEntity
8
0
62
256
6
ByLayer
370
-1
48
1
60
0
100
AcDbTrace
10
30.3138
20
29.749833
30
0
11
30.3138
21
30.808167
31
0
12
33.4888
22
30.279
32
0
13
33.4888
23
30.279
33
0
39
0
210
0
220
0
230
1
0
MTEXT
5
1E4
100
AcDbEntity
8
0
62
256
6
ByLayer
370
18
48
1
60
0
100
AcDbMText
10
-9.0556
20
39.67275
30
0
210
0
220
0
230
1
1
\A1;85.09
40
4.5
41
0
44
1
50
0
71
5
72
5
7
iso_b_vert
0
POINT
5
1E5
100
AcDbEntity
8
Defpoints
62
0
6
ByLayer
370
-1
48
1
60
0
100
AcDbPoint
10
-51.6
20
9.52175
30
0
39
0
210
0
220
0
230
1
50
360
0
POINT
5
1E6
100
AcDbEntity
8
Defpoints
62
0
6
ByLayer
370
-1
48
1
60
0
100
AcDbPoint
10
33.4888
20
9.779
30
0
39
0
210
0
220
0
230
1
50
360
0
POINT
5
1E7
100
AcDbEntity
8
Defpoints
62
0
6
ByLayer
370
-1
48
1
60
0
100
AcDbPoint
10
33.4888
20
30.279
30
0
39
0
210
0
220
0
230
1
50
360
0
ENDBLK
5
1DE
100
AcDbEntity
8
0
100
AcDbBlockEnd
0
BLOCK
5
1F3
100
AcDbEntity
8
0
100
AcDbBlockBegin
2
_U2
70
0
10
0
20
0
30
0
3
_U2
0
MTEXT
5
1E9
100
AcDbEntity
8
2
62
256
6
ByLayer
370
18
48
1
60
0
100
AcDbMText
10
-17.057772
20
31.606672
30
0
210
0
220
0
230
1
1
\W0.8928;85.09
40
4.5
41
0
44
1.084337
50
0
71
7
72
5
7
iso_b_vert
0
LINE
5
1EA
100
AcDbEntity
8
2
62
256
6
ByLayer
370
13
48
1
60
0
100
AcDbLine
10
-51.6
20
11.10925
30
0
11
-51.6
21
33.454
31
0
39
0
210
0
220
0
230
1
0
LINE
5
1EB
100
AcDbEntity
8
2
62
256
6
ByLayer
370
13
48
1
60
0
100
AcDbLine
10
33.4888
20
11.3665
30
0
11
33.4888
21
33.454
31
0
39
0
210
0
220
0
230
1
0
LINE
5
1EC
100
AcDbEntity
8
2
62
256
6
ByLayer
370
13
48
1
60
0
100
AcDbLine
10
-51.6
20
30.279
30
0
11
33.4888
21
30.279
31
0
39
0
210
0
220
0
230
1
0
LINE
5
1ED
100
AcDbEntity
8
2
62
256
6
ByLayer
370
13
48
1
60
0
100
AcDbLine
10
-51.6
20
30.279
30
0
11
-48.425002
21
30.696997
31
0
39
0
210
0
220
0
230
1
0
LINE
5
1EE
100
AcDbEntity
8
2
62
256
6
ByLayer
370
13
48
1
60
0
100
AcDbLine
10
-51.6
20
30.279
30
0
11
-48.424998
21
29.861003
31
0
39
0
210
0
220
0
230
1
0
LINE
5
1EF
100
AcDbEntity
8
2
62
256
6
ByLayer
370
13
48
1
60
0
100
AcDbLine
10
-48.425002
20
30.696997
30
0
11
-48.424998
21
29.861003
31
0
39
0
210
0
220
0
230
1
0
LINE
5
1F0
100
AcDbEntity
8
2
62
256
6
ByLayer
370
13
48
1
60
0
100
AcDbLine
10
33.4888
20
30.279
30
0
11
30.313802
21
29.861003
31
0
39
0
210
0
220
0
230
1
0
LINE
5
1F1
100
AcDbEntity
8
2
62
256
6
ByLayer
370
13
48
1
60
0
100
AcDbLine
10
33.4888
20
30.279
30
0
11
30.313798
21
30.696997
31
0
39
0
210
0
220
0
230
1
0
LINE
5
1F2
100
AcDbEntity
8
2
62
256
6
ByLayer
370
13
48
1
60
0
100
AcDbLine
10
30.313802
20
29.861003
30
0
11
30.313798
21
30.696997
31
0
39
0
210
0
220
0
230
1
0
ENDBLK
5
1F4
100
AcDbEntity
8
0
100
AcDbBlockEnd
0
BLOCK
5
1F9
100
AcDbEntity
8
0
100
AcDbBlockBegin
2
*D8
70
1
10
0
20
0
30
0
3
*D8
0
LINE
5
1FB
100
AcDbEntity
8
0
62
256
6
ByLayer
370
-2
48
1
60
0
100
AcDbLine
10
-51.6
20
11.10925
30
0
11
-51.6
21
23.454
31
0
39
0
210
0
220
0
230
1
0
LINE
5
1FC
100
AcDbEntity
8
0
62
256
6
ByLayer
370
-2
48
1
60
0
100
AcDbLine
10
27.4525
20
17.0675
30
0
11
27.4525
21
23.454
31
0
39
0
210
0
220
0
230
1
0
LINE
5
1FD
100
AcDbEntity
8
0
62
256
6
ByLayer
370
-2
48
1
60
0
100
AcDbLine
10
-48.425
20
20.279
30
0
11
24.2775
21
20.279
31
0
39
0
210
0
220
0
230
1
0
SOLID
5
1FE
100
AcDbEntity
8
0
62
256
6
ByLayer
370
-1
48
1
60
0
100
AcDbTrace
10
-48.425
20
20.808167
30
0
11
-48.425
21
19.749833
31
0
12
-51.6
22
20.279
32
0
13
-51.6
23
20.279
33
0
39
0
210
0
220
0
230
1
0
SOLID
5
1FF
100
AcDbEntity
8
0
62
256
6
ByLayer
370
-1
48
1
60
0
100
AcDbTrace
10
24.2775
20
19.749833
30
0
11
24.2775
21
20.808167
31
0
12
27.4525
22
20.279
32
0
13
27.4525
23
20.279
33
0
39
0
210
0
220
0
230
1
0
MTEXT
5
200
100
AcDbEntity
8
0
62
256
6
ByLayer
370
18
48
1
60
0
100
AcDbMText
10
-12.07375
20
29.67275
30
0
210
0
220
0
230
1
1
\A1;79.05
40
4.5
41
0
44
1
50
0
71
5
72
5
7
iso_b_vert
0
POINT
5
201
100
AcDbEntity
8
Defpoints
62
0
6
ByLayer
370
-1
48
1
60
0
100
AcDbPoint
10
-51.6
20
9.52175
30
0
39
0
210
0
220
0
230
1
50
360
0
POINT
5
202
100
AcDbEntity
8
Defpoints
62
0
6
ByLayer
370
-1
48
1
60
0
100
AcDbPoint
10
27.4525
20
15.48
30
0
39
0
210
0
220
0
230
1
50
360
0
POINT
5
203
100
AcDbEntity
8
Defpoints
62
0
6
ByLayer
370
-1
48
1
60
0
100
AcDbPoint
10
27.4525
20
20.279
30
0
39
0
210
0
220
0
230
1
50
360
0
ENDBLK
5
1FA
100
AcDbEntity
8
0
100
AcDbBlockEnd
0
BLOCK
5
20F
100
AcDbEntity
8
0
100
AcDbBlockBegin
2
_U3
70
0
10
0
20
0
30
0
3
_U3
0
MTEXT
5
205
100
AcDbEntity
8
SK2
62
256
6
ByLayer
370
18
48
1
60
0
100
AcDbMText
10
-20.075922
20
21.606672
30
0
210
0
220
0
230
1
1
\W0.8825;79.05
40
4.5
41
0
44
1.084337
50
0
71
7
72
5
7
iso_b_vert
0
LINE
5
206
100
AcDbEntity
8
SK2
62
256
6
ByLayer
370
13
48
1
60
0
100
AcDbLine
10
-51.6
20
11.10925
30
0
11
-51.6
21
23.454
31
0
39
0
210
0
220
0
230
1
0
LINE
5
207
100
AcDbEntity
8
SK2
62
256
6
ByLayer
370
13
48
1
60
0
100
AcDbLine
10
27.4525
20
17.0675
30
0
11
27.4525
21
23.454
31
0
39
0
210
0
220
0
230
1
0
LINE
5
208
100
AcDbEntity
8
SK2
62
256
6
ByLayer
370
13
48
1
60
0
100
AcDbLine
10
-51.6
20
20.279
30
0
11
27.4525
21
20.279
31
0
39
0
210
0
220
0
230
1
0
LINE
5
209
100
AcDbEntity
8
SK2
62
256
6
ByLayer
370
13
48
1
60
0
100
AcDbLine
10
-51.6
20
20.279
30
0
11
-48.425002
21
20.696997
31
0
39
0
210
0
220
0
230
1
0
LINE
5
20A
100
AcDbEntity
8
SK2
62
256
6
ByLayer
370
13
48
1
60
0
100
AcDbLine
10
-51.6
20
20.279
30
0
11
-48.424998
21
19.861003
31
0
39
0
210
0
220
0
230
1
0
LINE
5
20B
100
AcDbEntity
8
SK2
62
256
6
ByLayer
370
13
48
1
60
0
100
AcDbLine
10
-48.425002
20
20.696997
30
0
11
-48.424998
21
19.861003
31
0
39
0
210
0
220
0
230
1
0
LINE
5
20C
100
AcDbEntity
8
SK2
62
256
6
ByLayer
370
13
48
1
60
0
100
AcDbLine
10
27.4525
20
20.279
30
0
11
24.277502
21
19.861003
31
0
39
0
210
0
220
0
230
1
0
LINE
5
20D
100
AcDbEntity
8
SK2
62
256
6
ByLayer
370
13
48
1
60
0
100
AcDbLine
10
27.4525
20
20.279
30
0
11
24.277498
21
20.696997
31
0
39
0
210
0
220
0
230
1
0
LINE
5
20E
100
AcDbEntity
8
SK2
62
256
6
ByLayer
370
13
48
1
60
0
100
AcDbLine
10
24.277502
20
19.861003
30
0
11
24.277498
21
20.696997
31
0
39
0
210
0
220
0
230
1
0
ENDBLK
5
210
100
AcDbEntity
8
0
100
AcDbBlockEnd
0
BLOCK
5
215
100
AcDbEntity
8
0
100
AcDbBlockBegin
2
*D10
70
1
10
0
20
0
30
0
3
*D10
0
LINE
5
217
100
AcDbEntity
8
0
62
256
6
ByLayer
370
-2
48
1
60
0
100
AcDbLine
10
29.04
20
-15.48
30
0
11
72.4138
21
-15.48
31
0
39
0
210
0
220
0
230
1
0
LINE
5
218
100
AcDbEntity
8
0
62
256
6
ByLayer
370
-2
48
1
60
0
100
AcDbLine
10
29.04
20
15.48
30
0
11
72.4138
21
15.48
31
0
39
0
210
0
220
0
230
1
0
LINE
5
219
100
AcDbEntity
8
0
62
256
6
ByLayer
370
-2
48
1
60
0
100
AcDbLine
10
69.2388
20
-12.305
30
0
11
69.2388
21
12.305
31
0
39
0
210
0
220
0
230
1
0
SOLID
5
21A
100
AcDbEntity
8
0
62
256
6
ByLayer
370
-1
48
1
60
0
100
AcDbTrace
10
68.709633
20
-12.305
30
0
11
69.767967
21
-12.305
31
0
12
69.2388
22
-15.48
32
0
13
69.2388
23
-15.48
33
0
39
0
210
0
220
0
230
1
0
SOLID
5
21B
100
AcDbEntity
8
0
62
256
6
ByLayer
370
-1
48
1
60
0
100
AcDbTrace
10
69.767967
20
12.305
30
0
11
68.709633
21
12.305
31
0
12
69.2388
22
15.48
32
0
13
69.2388
23
15.48
33
0
39
0
210
0
220
0
230
1
0
MTEXT
5
21C
100
AcDbEntity
8
0
62
256
6
ByLayer
370
18
48
1
60
0
100
AcDbMText
10
59.84505
20
0
30
0
210
0
220
0
230
1
1
\A1;30.96
40
4.5
41
0
44
1
50
90
71
5
72
5
7
iso_b_vert
0
POINT
5
21D
100
AcDbEntity
8
Defpoints
62
0
6
ByLayer
370
-1
48
1
60
0
100
AcDbPoint
10
27.4525
20
-15.48
30
0
39
0
210
0
220
0
230
1
50
360
0
POINT
5
21E
100
AcDbEntity
8
Defpoints
62
0
6
ByLayer
370
-1
48
1
60
0
100
AcDbPoint
10
27.4525
20
15.48
30
0
39
0
210
0
220
0
230
1
50
360
0
POINT
5
21F
100
AcDbEntity
8
Defpoints
62
0
6
ByLayer
370
-1
48
1
60
0
100
AcDbPoint
10
69.2388
20
15.48
30
0
39
0
210
0
220
0
230
1
50
360
0
ENDBLK
5
216
100
AcDbEntity
8
0
100
AcDbBlockEnd
0
BLOCK
5
22C
100
AcDbEntity
8
0
100
AcDbBlockBegin
2
_U4
70
0
10
0
20
0
30
0
3
_U4
0
MTEXT
5
221
100
AcDbEntity
8
SK2
62
256
6
ByLayer
370
18
48
1
60
0
100
AcDbMText
10
67.156954
20
-12.860297
30
0
210
0
220
0
230
1
1
%%c
40
3.175
41
0
44
1.084337
50
90
71
7
72
5
7
iso_b_vert
0
MTEXT
5
222
100
AcDbEntity
8
SK2
62
256
6
ByLayer
370
18
48
1
60
0
100
AcDbMText
10
67.558378
20
-3.275672
30
0
210
0
220
0
230
1
1
\W0.8825;30.96
40
4.5
41
0
44
1.084337
50
90
71
7
72
5
7
iso_b_vert
0
LINE
5
223
100
AcDbEntity
8
SK2
62
256
6
ByLayer
370
13
48
1
60
0
100
AcDbLine
10
29.04
20
-15.48
30
0
11
72.4138
21
-15.48
31
0
39
0
210
0
220
0
230
1
0
LINE
5
224
100
AcDbEntity
8
SK2
62
256
6
ByLayer
370
13
48
1
60
0
100
AcDbLine
10
29.04
20
15.48
30
0
11
72.4138
21
15.48
31
0
39
0
210
0
220
0
230
1
0
LINE
5
225
100
AcDbEntity
8
SK2
62
256
6
ByLayer
370
13
48
1
60
0
100
AcDbLine
10
69.2388
20
-26.73
30
0
11
69.2388
21
26.73
31
0
39
0
210
0
220
0
230
1
0
LINE
5
226
100
AcDbEntity
8
SK2
62
256
6
ByLayer
370
13
48
1
60
0
100
AcDbLine
10
69.2388
20
-15.48
30
0
11
69.656797
21
-18.654998
31
0
39
0
210
0
220
0
230
1
0
LINE
5
227
100
AcDbEntity
8
SK2
62
256
6
ByLayer
370
13
48
1
60
0
100
AcDbLine
10
69.2388
20
-15.48
30
0
11
68.820803
21
-18.655002
31
0
39
0
210
0
220
0
230
1
0
LINE
5
228
100
AcDbEntity
8
SK2
62
256
6
ByLayer
370
13
48
1
60
0
100
AcDbLine
10
69.656797
20
-18.654998
30
0
11
68.820803
21
-18.655002
31
0
39
0
210
0
220
0
230
1
0
LINE
5
229
100
AcDbEntity
8
SK2
62
256
6
ByLayer
370
13
48
1
60
0
100
AcDbLine
10
69.2388
20
15.48
30
0
11
68.820803
21
18.654998
31
0
39
0
210
0
220
0
230
1
0
LINE
5
22A
100
AcDbEntity
8
SK2
62
256
6
ByLayer
370
13
48
1
60
0
100
AcDbLine
10
69.2388
20
15.48
30
0
11
69.656797
21
18.655002
31
0
39
0
210
0
220
0
230
1
0
LINE
5
22B
100
AcDbEntity
8
SK2
62
256
6
ByLayer
370
13
48
1
60
0
100
AcDbLine
10
68.820803
20
18.654998
30
0
11
69.656797
21
18.655002
31
0
39
0
210
0
220
0
230
1
0
ENDBLK
5
22D
100
AcDbEntity
8
0
100
AcDbBlockEnd
0
BLOCK
5
232
100
AcDbEntity
8
0
100
AcDbBlockBegin
2
*D12
70
1
10
0
20
0
30
0
3
*D12
0
LINE
5
234
100
AcDbEntity
8
0
62
256
6
ByLayer
370
-2
48
1
60
0
100
AcDbLine
10
-53.1875
20
9.52175
30
0
11
-79.878125
21
9.52175
31
0
39
0
210
0
220
0
230
1
0
LINE
5
235
100
AcDbEntity
8
0
62
256
6
ByLayer
370
-2
48
1
60
0
100
AcDbLine
10
-53.1875
20
-9.52175
30
0
11
-79.878125
21
-9.52175
31
0
39
0
210
0
220
0
230
1
0
LINE
5
236
100
AcDbEntity
8
0
62
256
6
ByLayer
370
-2
48
1
60
0
100
AcDbLine
10
-76.703125
20
9.52175
30
0
11
-76.703125
21
49.143737
31
0
39
0
210
0
220
0
230
1
0
LINE
5
237
100
AcDbEntity
8
0
62
256
6
ByLayer
370
-2
48
1
60
0
100
AcDbLine
10
-76.703125
20
12.69675
30
0
11
-76.703125
21
15.87175
31
0
39
0
210
0
220
0
230
1
0
LINE
5
238
100
AcDbEntity
8
0
62
256
6
ByLayer
370
-2
48
1
60
0
100
AcDbLine
10
-76.703125
20
-12.69675
30
0
11
-76.703125
21
-15.87175
31
0
39
0
210
0
220
0
230
1
0
SOLID
5
239
100
AcDbEntity
8
0
62
256
6
ByLayer
370
-1
48
1
60
0
100
AcDbTrace
10
-77.232292
20
12.69675
30
0
11
-76.173958
21
12.69675
31
0
12
-76.703125
22
9.52175
32
0
13
-76.703125
23
9.52175
33
0
39
0
210
0
220
0
230
1
0
SOLID
5
23A
100
AcDbEntity
8
0
62
256
6
ByLayer
370
-1
48
1
60
0
100
AcDbTrace
10
-76.173958
20
-12.69675
30
0
11
-77.232292
21
-12.69675
31
0
12
-76.703125
22
-9.52175
32
0
13
-76.703125
23
-9.52175
33
0
39
0
210
0
220
0
230
1
0
MTEXT
5
23B
100
AcDbEntity
8
0
62
256
6
ByLayer
370
18
48
1
60
0
100
AcDbMText
10
-86.096875
20
33.214273
30
0
210
0
220
0
230
1
1
\A1;19.04
40
4.5
41
0
44
1
50
90
71
5
72
5
7
iso_b_vert
0
POINT
5
23C
100
AcDbEntity
8
Defpoints
62
0
6
ByLayer
370
-1
48
1
60
0
100
AcDbPoint
10
-51.6
20
9.52175
30
0
39
0
210
0
220
0
230
1
50
360
0
POINT
5
23D
100
AcDbEntity
8
Defpoints
62
0
6
ByLayer
370
-1
48
1
60
0
100
AcDbPoint
10
-51.6
20
-9.52175
30
0
39
0
210
0
220
0
230
1
50
360
0
POINT
5
23E
100
AcDbEntity
8
Defpoints
62
0
6
ByLayer
370
-1
48
1
60
0
100
AcDbPoint
10
-76.703125
20
-9.52175
30
0
39
0
210
0
220
0
230
1
50
360
0
ENDBLK
5
233
100
AcDbEntity
8
0
100
AcDbBlockEnd
0
BLOCK
5
24B
100
AcDbEntity
8
0
100
AcDbBlockBegin
2
_U5
70
0
10
0
20
0
30
0
3
_U5
0
MTEXT
5
240
100
AcDbEntity
8
SK2
62
256
6
ByLayer
370
18
48
1
60
0
100
AcDbMText
10
-78.784971
20
20.777125
30
0
210
0
220
0
230
1
1
%%c
40
3.175
41
0
44
1.084337
50
90
71
7
72
5
7
iso_b_vert
0
MTEXT
5
241
100
AcDbEntity
8
SK2
62
256
6
ByLayer
370
18
48
1
60
0
100
AcDbMText
10
-78.383547
20
30.36175
30
0
210
0
220
0
230
1
1
\W0.8278;19.04
40
4.5
41
0
44
1.084337
50
90
71
7
72
5
7
iso_b_vert
0
LINE
5
242
100
AcDbEntity
8
SK2
62
256
6
ByLayer
370
13
48
1
60
0
100
AcDbLine
10
-53.1875
20
9.52175
30
0
11
-79.878125
21
9.52175
31
0
39
0
210
0
220
0
230
1
0
LINE
5
243
100
AcDbEntity
8
SK2
62
256
6
ByLayer
370
13
48
1
60
0
100
AcDbLine
10
-53.1875
20
-9.52175
30
0
11
-79.878125
21
-9.52175
31
0
39
0
210
0
220
0
230
1
0
LINE
5
244
100
AcDbEntity
8
SK2
62
256
6
ByLayer
370
13
48
1
60
0
100
AcDbLine
10
-76.703125
20
-9.52175
30
0
11
-76.703125
21
45.794295
31
0
39
0
210
0
220
0
230
1
0
LINE
5
245
100
AcDbEntity
8
SK2
62
256
6
ByLayer
370
13
48
1
60
0
100
AcDbLine
10
-76.703125
20
9.52175
30
0
11
-76.285128
21
6.346752
31
0
39
0
210
0
220
0
230
1
0
LINE
5
246
100
AcDbEntity
8
SK2
62
256
6
ByLayer
370
13
48
1
60
0
100
AcDbLine
10
-76.703125
20
9.52175
30
0
11
-77.121122
21
6.346748
31
0
39
0
210
0
220
0
230
1
0
LINE
5
247
100
AcDbEntity
8
SK2
62
256
6
ByLayer
370
13
48
1
60
0
100
AcDbLine
10
-76.285128
20
6.346752
30
0
11
-77.121122
21
6.346748
31
0
39
0
210
0
220
0
230
1
0
LINE
5
248
100
AcDbEntity
8
SK2
62
256
6
ByLayer
370
13
48
1
60
0
100
AcDbLine
10
-76.703125
20
-9.52175
30
0
11
-77.121122
21
-6.346752
31
0
39
0
210
0
220
0
230
1
0
LINE
5
249
100
AcDbEntity
8
SK2
62
256
6
ByLayer
370
13
48
1
60
0
100
AcDbLine
10
-76.703125
20
-9.52175
30
0
11
-76.285128
21
-6.346748
31
0
39
0
210
0
220
0
230
1
0
LINE
5
24A
100
AcDbEntity
8
SK2
62
256
6
ByLayer
370
13
48
1
60
0
100
AcDbLine
10
-77.121122
20
-6.346752
30
0
11
-76.285128
21
-6.346748
31
0
39
0
210
0
220
0
230
1
0
ENDBLK
5
24C
100
AcDbEntity
8
0
100
AcDbBlockEnd
0
ENDSEC
0
SECTION
2
ENTITIES
0
ARC
5
C8
100
AcDbEntity
8
1
62
256
6
ByLayer
370
18
48
1
60
0
100
AcDbCircle
39
0
10
27.45621
20
9.447629
30
0
40
1.28905
210
0
220
0
230
1
100
AcDbArc
50
225
51
285
0
ARC
5
C9
100
AcDbEntity
8
1
62
256
6
ByLayer
370
18
48
1
60
0
100
AcDbCircle
39
0
10
27.45621
20
9.447629
30
0
40
1.28905
210
0
220
0
230
1
100
AcDbArc
50
285
51
345
0
ARC
5
CA
100
AcDbEntity
8
1
62
256
6
ByLayer
370
18
48
1
60
0
100
AcDbCircle
39
0
10
27.45621
20
9.447629
30
0
40
1.28905
210
0
220
0
230
1
100
AcDbArc
50
105
51
165
0
ARC
5
CB
100
AcDbEntity
8
1
62
256
6
ByLayer
370
18
48
1
60
0
100
AcDbCircle
39
0
10
27.45621
20
9.447629
30
0
40
1.28905
210
0
220
0
230
1
100
AcDbArc
50
165
51
225
0
ARC
5
CC
100
AcDbEntity
8
1
62
256
6
ByLayer
370
18
48
1
60
0
100
AcDbCircle
39
0
10
27.45621
20
9.447629
30
0
40
1.28905
210
0
220
0
230
1
100
AcDbArc
50
345
51
45
0
ARC
5
CD
100
AcDbEntity
8
1
62
256
6
ByLayer
370
18
48
1
60
0
100
AcDbCircle
39
0
10
27.45621
20
9.447629
30
0
40
1.28905
210
0
220
0
230
1
100
AcDbArc
50
45
51
105
0
ARC
5
CE
100
AcDbEntity
8
1
62
256
6
ByLayer
370
18
48
1
60
0
100
AcDbCircle
39
0
10
27.45621
20
9.447629
30
0
40
0.9944
210
0
220
0
230
1
100
AcDbArc
50
15
51
75
0
ARC
5
CF
100
AcDbEntity
8
1
62
256
6
ByLayer
370
18
48
1
60
0
100
AcDbCircle
39
0
10
27.45621
20
9.447629
30
0
40
0.9944
210
0
220
0
230
1
100
AcDbArc
50
75
51
135
0
ARC
5
D0
100
AcDbEntity
8
1
62
256
6
ByLayer
370
18
48
1
60
0
100
AcDbCircle
39
0
10
27.45621
20
9.447629
30
0
40
0.9944
210
0
220
0
230
1
100
AcDbArc
50
255
51
315
0
ARC
5
D1
100
AcDbEntity
8
1
62
256
6
ByLayer
370
18
48
1
60
0
100
AcDbCircle
39
0
10
27.45621
20
9.447629
30
0
40
0.9944
210
0
220
0
230
1
100
AcDbArc
50
135
51
195
0
ARC
5
D2
100
AcDbEntity
8
1
62
256
6
ByLayer
370
18
48
1
60
0
100
AcDbCircle
39
0
10
27.45621
20
9.447629
30
0
40
0.9944
210
0
220
0
230
1
100
AcDbArc
50
315
51
15
0
ARC
5
D3
100
AcDbEntity
8
1
62
256
6
ByLayer
370
18
48
1
60
0
100
AcDbCircle
39
0
10
27.45621
20
9.447629
30
0
40
0.9944
210
0
220
0
230
1
100
AcDbArc
50
195
51
255
0
ARC
5
D9
100
AcDbEntity
8
1
62
256
6
ByLayer
370
13
48
1
60
0
100
AcDbCircle
39
0
10
27.45621
20
15.947629
30
0
40
12
210
0
220
0
230
1
100
AcDbArc
50
213.158603
51
248.567714
0
ARC
5
DA
100
AcDbEntity
8
1
62
256
6
ByLayer
370
13
48
1
60
0
100
AcDbCircle
39
0
10
33.042353
20
9.18745
30
0
40
1
210
0
220
0
230
1
100
AcDbArc
50
246.47645
51
269.796405
0
ARC
5
DB
100
AcDbEntity
8
1
62
256
6
ByLayer
370
13
48
1
60
0
100
AcDbCircle
39
0
10
23.991387
20
7.397019
30
0
40
1
210
0
220
0
230
1
100
AcDbArc
50
172.399728
51
277.392066
0
ARC
5
DC
100
AcDbEntity
8
1
62
256
6
ByLayer
370
13
48
1
60
0
100
AcDbCircle
39
0
10
0.329937
20
9.897438
30
0
40
0.5
210
0
220
0
230
1
100
AcDbArc
50
228.709723
51
270
0
ARC
5
DD
100
AcDbEntity
8
1
62
256
6
ByLayer
370
13
48
1
60
0
100
AcDbCircle
39
0
10
0.329937
20
-9.897438
30
0
40
0.5
210
0
220
0
230
1
100
AcDbArc
50
90
51
131.290277
0
ARC
5
DE
100
AcDbEntity
8
SK2
62
256
6
ByLayer
370
13
48
1
60
0
100
AcDbCircle
39
0
10
33.4888
20
9.779
30
0
40
12.9742072120597
210
0
220
0
230
1
100
AcDbArc
50
90
51
135
0
ARC
5
DF
100
AcDbEntity
8
SK2
62
256
6
ByLayer
370
13
48
1
60
0
100
AcDbCircle
39
0
10
33.4888
20
9.779
30
0
40
12.9742072120597
210
0
220
0
230
1
100
AcDbArc
50
24.363039
51
90
0
CIRCLE
5
D4
100
AcDbEntity
8
1
62
256
6
ByLayer
370
18
48
1
60
0
100
AcDbCircle
10
27.45621
20
9.447629
30
0
40
1.4
39
0
210
0
220
0
230
1
0
CIRCLE
5
D5
100
AcDbEntity
8
1
62
256
6
ByLayer
370
18
48
1
60
0
100
AcDbCircle
10
27.45621
20
9.447629
30
0
40
2.1
39
0
210
0
220
0
230
1
0
CIRCLE
5
D6
100
AcDbEntity
8
1
62
256
6
ByLayer
370
18
48
1
60
0
100
AcDbCircle
10
27.45621
20
9.447629
30
0
40
2.15037854103613
39
0
210
0
220
0
230
1
0
CIRCLE
5
D7
100
AcDbEntity
8
1
62
256
6
ByLayer
370
18
48
1
60
0
100
AcDbCircle
10
27.45621
20
9.447629
30
0
40
2.26175520142507
39
0
210
0
220
0
230
1
0
CIRCLE
5
D8
100
AcDbEntity
8
1
62
256
6
ByLayer
370
18
48
1
60
0
100
AcDbCircle
10
27.45621
20
9.447629
30
0
40
2.30803925391311
39
0
210
0
220
0
230
1
0
ELLIPSE
5
E0
100
AcDbEntity
8
1
62
256
6
ByLayer
370
18
48
1
60
0
100
AcDbEllipse
10
27.45621
20
1.319985
30
0
11
-1.2
21
1.21276686609884E-15
31
0
210
0
220
0
230
1
40
0.5
41
-3.09927971088671
42
-0.0424118998999229
0
ELLIPSE
5
E1
100
AcDbEntity
8
SK1
62
256
6
ByLayer
370
13
48
1
60
0
100
AcDbEllipse
10
-27.563866
20
0
30
0
11
9.68940319403224
21
1.13507033512521E-14
31
0
210
0
220
0
230
1
40
0.982697
41
-0.677591791766703
42
0.677591791766693
0
ELLIPSE
5
E2
100
AcDbEntity
8
SK1
62
256
6
ByLayer
370
13
48
1
60
0
100
AcDbEllipse
10
-24.051134
20
0
30
0
11
9.68940319403244
21
1.13507033512523E-14
31
0
210
0
220
0
230
1
40
0.982697
41
2.4640008618231
42
-2.46400086182311
0
ELLIPSE
5
E3
100
AcDbEntity
8
1
62
256
6
ByLayer
370
13
48
1
60
0
100
AcDbEllipse
10
418.043826
20
192.084208
30
0
11
393.622624023601
21
203.345011757136
31
0
210
0
220
0
230
1
40
0.159798
41
2.94540505489921
42
2.97395761544783
0
ELLIPSE
5
E4
100
AcDbEntity
8
1
62
256
6
ByLayer
370
13
48
1
60
0
100
AcDbEllipse
10
28.51687
20
2.670174
30
0
11
0.223606797749985
21
0.447213595499955
31
0
210
0
220
0
230
1
40
0.612372
41
-2.4568734505875
42
-0.886077123792608
0
ELLIPSE
5
E5
100
AcDbEntity
8
1
62
256
6
ByLayer
370
13
48
1
60
0
100
AcDbEllipse
10
21.698843
20
-3.002661
30
0
11
0.975816745687505
21
-0.781205273174629
31
0
210
0
220
0
230
1
40
0.760818
41
2.14404402945855
42
2.25086487164785
0
ELLIPSE
5
E6
100
AcDbEntity
8
1
62
256
6
ByLayer
370
13
48
1
60
0
100
AcDbEllipse
10
-355.568974
20
188.302991
30
0
11
386.060167448331
21
-199.565442584795
31
0
210
0
220
0
230
1
40
0.161314
41
0.169303774519713
42
0.196930567692895
0
ELLIPSE
5
E7
100
AcDbEntity
8
1
62
256
6
ByLayer
370
13
48
1
60
0
100
AcDbEllipse
10
27.45621
20
1.706831
30
0
11
1.4
21
0
31
0
210
0
220
0
230
1
40
0.5
41
0
42
6.28318530717959
0
ELLIPSE
5
E8
100
AcDbEntity
8
1
62
256
6
ByLayer
370
13
48
1
60
0
100
AcDbEllipse
10
27.45621
20
1.273818
30
0
11
1.4
21
0
31
0
210
0
220
0
230
1
40
0.5
41
0.314387969635351
42
2.82717147826259
0
ELLIPSE
5
E9
100
AcDbEntity
8
1
62
256
6
ByLayer
370
13
48
1
60
0
100
AcDbEllipse
10
21.683294
20
10.038674
30
0
11
-0.883883476483187
21
0.883883476483182
31
0
210
0
220
0
230
1
40
0.819152
41
2.09968730018231
42
2.25412085928727
0
ELLIPSE
5
EA
100
AcDbEntity
8
1
62
256
6
ByLayer
370
13
48
1
60
0
100
AcDbEllipse
10
33.042353
20
-1.995649
30
0
11
1
21
0
31
0
210
0
220
0
230
1
40
0.5
41
1.57434972486607
42
2.14824823121052
0
ELLIPSE
5
EB
100
AcDbEntity
8
1
62
256
6
ByLayer
370
13
48
1
60
0
100
AcDbEllipse
10
27.45621
20
-10.95446
30
0
11
-1.4
21
1.41489467711531E-15
31
0
210
0
220
0
230
1
40
0.5
41
1.66419259566939
42
-2.03444342508282
0
ELLIPSE
5
EC
100
AcDbEntity
8
1
62
256
6
ByLayer
370
13
48
1
60
0
100
AcDbEllipse
10
27.45621
20
-10.95446
30
0
11
-1.4
21
1.41489467711531E-15
31
0
210
0
220
0
230
1
40
0.5
41
1.53970708226014
42
1.6641925956694
0
ELLIPSE
5
ED
100
AcDbEntity
8
1
62
256
6
ByLayer
370
13
48
1
60
0
100
AcDbEllipse
10
27.45621
20
1.273818
30
0
11
1.3175
21
0
31
0
210
0
220
0
230
1
40
0.5
41
0.232410818091035
42
2.90914644268535
0
ELLIPSE
5
EE
100
AcDbEntity
8
1
62
256
6
ByLayer
370
13
48
1
60
0
100
AcDbEllipse
10
27.45621
20
5.129992
30
0
11
1.99999999999788
21
2.34291072916256E-15
31
0
210
0
220
0
230
1
40
0.366025
41
-1.5707963267949
42
-0.785398163396615
0
ELLIPSE
5
EF
100
AcDbEntity
8
1
62
256
6
ByLayer
370
13
48
1
60
0
100
AcDbEllipse
10
21.683294
20
10.038674
30
0
11
-0.883883476483187
21
0.883883476483182
31
0
210
0
220
0
230
1
40
0.992546
41
1.6798665558315
42
2.38420258752162
0
ELLIPSE
5
F0
100
AcDbEntity
8
1
62
256
6
ByLayer
370
13
48
1
60
0
100
AcDbEllipse
10
27.45621
20
1.706831
30
0
11
-1.5
21
1.51595858262354E-15
31
0
210
0
220
0
230
1
40
0.5
41
-2.35619449019235
42
-0.785398163397453
0
ELLIPSE
5
F1
100
AcDbEntity
8
1
62
256
6
ByLayer
370
13
48
1
60
0
100
AcDbEllipse
10
26.819814
20
4.427171
30
0
11
-1.5
21
1.51595858262354E-15
31
0
210
0
220
0
230
1
40
0.707107
41
-0.553697627124473
42
-0.462119954931302
0
ELLIPSE
5
F2
100
AcDbEntity
8
1
62
256
6
ByLayer
370
13
48
1
60
0
100
AcDbEllipse
10
21.683294
20
-3.022084
30
0
11
1.24309545837636
21
-0.131200919829301
31
0
210
0
220
0
230
1
40
0.570903
41
1.44953410409694
42
2.30356582266166
0
ELLIPSE
5
F3
100
AcDbEntity
8
1
62
256
6
ByLayer
370
13
48
1
60
0
100
AcDbEllipse
10
21.683294
20
-3.022084
30
0
11
0.975816745687505
21
-0.781205273174629
31
0
210
0
220
0
230
1
40
0.760818
41
2.1208551005454
42
2.27528865965029
0
ELLIPSE
5
F4
100
AcDbEntity
8
1
62
256
6
ByLayer
370
13
48
1
60
0
100
AcDbEllipse
10
27.45621
20
-14.377621
30
0
11
1.67284338895679E-16
21
2.73205080756821
31
0
210
0
220
0
230
1
40
0.732051
41
-0.785398163397556
42
0
0
ELLIPSE
5
F5
100
AcDbEntity
8
1
62
256
6
ByLayer
370
13
48
1
60
0
100
AcDbEllipse
10
21.526473
20
-4.507914
30
0
11
1.25469851883959
21
-0.00625796895607358
31
0
210
0
220
0
230
1
40
0.499977
41
1.4704675930335
42
2.36242903115165
0
ELLIPSE
5
F6
100
AcDbEntity
8
1
62
256
6
ByLayer
370
13
48
1
60
0
100
AcDbEllipse
10
27.45621
20
2.139844
30
0
11
2
21
0
31
0
210
0
220
0
230
1
40
0.5
41
0.785398163397446
42
2.35619449019234
0
ELLIPSE
5
F7
100
AcDbEntity
8
1
62
256
6
ByLayer
370
13
48
1
60
0
100
AcDbEllipse
10
26.39555
20
2.670174
30
0
11
-0.223606797749976
21
0.44721359549996
31
0
210
0
220
0
230
1
40
0.612372
41
0.886077123792644
42
2.45687345058752
0
ELLIPSE
5
F8
100
AcDbEntity
8
1
62
256
6
ByLayer
370
13
48
1
60
0
100
AcDbEllipse
10
27.45621
20
-9.72114
30
0
11
13.9318516525781
21
0
31
0
210
0
220
0
230
1
40
0.5
41
2.43702754640594
42
2.63421203983557
0
ELLIPSE
5
F9
100
AcDbEntity
8
1
62
256
6
ByLayer
370
13
48
1
60
0
100
AcDbEllipse
10
29.540463
20
0
30
0
11
8.67478239864038
21
8.47602796312966
31
0
210
0
220
0
230
1
40
0.467813
41
2.3055081751521
42
2.48769416854681
0
ELLIPSE
5
FA
100
AcDbEntity
8
1
62
256
6
ByLayer
370
13
48
1
60
0
100
AcDbEllipse
10
29.540463
20
0
30
0
11
9.50388918384701
21
-9.36168808552921
31
0
210
0
220
0
230
1
40
0.086167
41
2.81892141758177
42
3.00110741100847
0
ELLIPSE
5
FB
100
AcDbEntity
8
1
62
256
6
ByLayer
370
13
48
1
60
0
100
AcDbEllipse
10
21.526473
20
9.881854
30
0
11
0.890521287117534
21
0.890521287117532
31
0
210
0
220
6.32451267283211E-17
230
1
40
0.992546
41
-3.14159265358979
42
-2.09136601126691
0
POINT
5
70
100
AcDbEntity
8
81
62
256
6
ByLayer
370
18
48
1
60
0
100
AcDbPoint
10
33.4888
20
9.779
30
0
39
0
210
0
220
0
230
1
50
360
0
POINT
5
72
100
AcDbEntity
8
80
62
256
6
ByLayer
370
18
48
1
60
0
100
AcDbPoint
10
0
20
0
30
0
39
0
210
0
220
0
230
1
50
360
0
POINT
5
74
100
AcDbEntity
8
1
62
256
6
ByLayer
370
18
48
1
60
1
100
AcDbPoint
10
33.4888
20
-9.779
30
0
39
0
210
0
220
0
230
1
50
360
0
POINT
5
76
100
AcDbEntity
8
1
62
256
6
ByLayer
370
18
48
1
60
1
100
AcDbPoint
10
33.4888
20
9.779
30
0
39
0
210
0
220
0
230
1
50
360
0
POINT
5
77
100
AcDbEntity
8
1
62
256
6
ByLayer
370
18
48
1
60
1
100
AcDbPoint
10
33.4888
20
-9.779
30
0
39
0
210
0
220
0
230
1
50
360
0
POINT
5
78
100
AcDbEntity
8
1
62
256
6
ByLayer
370
18
48
1
60
1
100
AcDbPoint
10
-0.0012
20
0
30
0
39
0
210
0
220
0
230
1
50
360
0
POINT
5
79
100
AcDbEntity
8
1
62
256
6
ByLayer
370
18
48
1
60
1
100
AcDbPoint
10
-51.6
20
9.52175
30
0
39
0
210
0
220
0
230
1
50
360
0
POINT
5
7A
100
AcDbEntity
8
1
62
256
6
ByLayer
370
18
48
1
60
1
100
AcDbPoint
10
33.4888
20
9.779
30
0
39
0
210
0
220
0
230
1
50
360
0
POINT
5
7B
100
AcDbEntity
8
1
62
256
6
ByLayer
370
18
48
1
60
1
100
AcDbPoint
10
-51.6
20
9.52175
30
0
39
0
210
0
220
0
230
1
50
360
0
POINT
5
7C
100
AcDbEntity
8
1
62
256
6
ByLayer
370
18
48
1
60
1
100
AcDbPoint
10
27.4525
20
15.48
30
0
39
0
210
0
220
0
230
1
50
360
0
POINT
5
7D
100
AcDbEntity
8
1
62
256
6
ByLayer
370
18
48
1
60
1
100
AcDbPoint
10
27.4525
20
-15.48
30
0
39
0
210
0
220
0
230
1
50
360
0
POINT
5
7E
100
AcDbEntity
8
1
62
256
6
ByLayer
370
18
48
1
60
1
100
AcDbPoint
10
27.4525
20
15.48
30
0
39
0
210
0
220
0
230
1
50
360
0
POINT
5
7F
100
AcDbEntity
8
1
62
256
6
ByLayer
370
18
48
1
60
1
100
AcDbPoint
10
-51.6
20
9.52175
30
0
39
0
210
0
220
0
230
1
50
360
0
POINT
5
80
100
AcDbEntity
8
1
62
256
6
ByLayer
370
18
48
1
60
1
100
AcDbPoint
10
-51.6
20
-9.52175
30
0
39
0
210
0
220
0
230
1
50
360
0
SPLINE
5
FC
100
AcDbEntity
8
1
62
256
6
ByLayer
370
18
48
1
60
0
100
AcDbSpline
70
4
71
3
72
8
73
4
40
0
40
0
40
0
40
0
40
1
40
1
40
1
40
1
41
1
10
21.6579342134871
20
-5.00665728752404
30
0
41
1
10
22.5300325769516
20
-5.44270646925622
30
0
41
1
10
23.4021309403925
20
-5.87875565097673
30
0
41
1
10
24.2742293038801
20
-6.31480483272051
30
0
0
SPLINE
5
FD
100
AcDbEntity
8
1
62
256
6
ByLayer
370
18
48
1
60
0
100
AcDbSpline
70
4
71
3
72
8
73
4
40
0
40
0
40
0
40
0
40
1
40
1
40
1
40
1
41
1
10
26.8905243942692
20
-7.62295237791358
30
0
41
1
10
26.8905243942687
20
-6.52987187158351
30
0
41
1
10
26.8905243942691
20
-5.43679136525384
30
0
41
1
10
26.8905243942694
20
-4.3437108589242
30
0
0
SPLINE
5
FE
100
AcDbEntity
8
1
62
256
6
ByLayer
370
18
48
1
60
0
100
AcDbSpline
70
4
71
3
72
8
73
4
40
0
40
0
40
0
40
0
40
1
40
1
40
1
40
1
41
1
10
24.6869267363426
20
-3.24191202996278
30
0
41
1
10
23.9523941836898
20
-2.87464575363634
30
0
41
1
10
23.2178616310559
20
-2.5073794773194
30
0
41
1
10
22.4833290784168
20
-2.14011320099988
30
0
0
SPLINE
5
FF
100
AcDbEntity
8
1
62
256
6
ByLayer
370
18
48
1
60
0
100
AcDbSpline
70
4
71
3
72
8
73
4
40
0
40
0
40
0
40
0
40
1
40
1
40
1
40
1
41
1
10
22.4833290784176
20
-2.14011320099814
30
0
41
1
10
22.2081974567766
20
-3.09562789650744
30
0
41
1
10
21.9330658351355
20
-4.0511425920167
30
0
41
1
10
21.6579342134936
20
-5.00665728752554
30
0
0
SPLINE
5
100
100
AcDbEntity
8
1
62
256
6
ByLayer
370
18
48
1
60
0
100
AcDbSpline
70
4
71
3
72
8
73
4
40
0
40
0
40
0
40
0
40
1
40
1
40
1
40
1
41
1
10
26.8905243942697
20
-4.34371085892633
30
0
41
1
10
26.1559918416302
20
-3.97644458260657
30
0
41
1
10
25.4214592889958
20
-3.60917830628941
30
0
41
1
10
24.6869267363426
20
-3.24191202996278
30
0
0
SPLINE
5
101
100
AcDbEntity
8
1
62
256
6
ByLayer
370
18
48
1
60
0
100
AcDbSpline
70
4
71
3
72
8
73
4
40
0
40
0
40
0
40
0
40
1
40
1
40
1
40
1
41
1
10
28.0218952441661
20
-7.62295237791699
30
0
41
1
10
28.8939936076305
20
-7.1869031961848
30
0
41
1
10
29.7660919710714
20
-6.7508540144643
30
0
41
1
10
30.638190334559
20
-6.31480483272051
30
0
0
SPLINE
5
102
100
AcDbEntity
8
1
62
256
6
ByLayer
370
18
48
1
60
0
100
AcDbSpline
70
4
71
3
72
8
73
4
40
0
40
0
40
0
40
0
40
1
40
1
40
1
40
1
41
1
10
24.2742293038801
20
-6.31480483272051
30
0
41
1
10
25.1463276673676
20
-6.7508540144643
30
0
41
1
10
26.0184260308086
20
-7.18690319618477
30
0
41
1
10
26.890524394273
20
-7.62295237791699
30
0
0
SPLINE
5
103
100
AcDbEntity
8
1
62
256
6
ByLayer
370
18
48
1
60
0
100
AcDbSpline
70
4
71
3
72
8
73
4
40
0
40
0
40
0
40
0
40
1
40
1
40
1
40
1
41
1
10
33.2544854249478
20
-5.00665728752466
30
0
41
1
10
32.9793538033056
20
-4.05114259201594
30
0
41
1
10
32.7042221816642
20
-3.09562789650678
30
0
41
1
10
32.4290905600228
20
-2.14011320099763
30
0
0
SPLINE
5
104
100
AcDbEntity
8
1
62
256
6
ByLayer
370
18
48
1
60
0
100
AcDbSpline
70
4
71
3
72
8
73
4
40
0
40
0
40
0
40
0
40
1
40
1
40
1
40
1
41
1
10
30.638190334559
20
-6.31480483272051
30
0
41
1
10
31.5102886980466
20
-5.87875565097676
30
0
41
1
10
32.3823870614875
20
-5.44270646925625
30
0
41
1
10
33.254485424952
20
-5.00665728752406
30
0
0
SPLINE
5
105
100
AcDbEntity
8
1
62
256
6
ByLayer
370
18
48
1
60
0
100
AcDbSpline
70
4
71
3
72
8
73
4
40
0
40
0
40
0
40
0
40
1
40
1
40
1
40
1
41
1
10
28.021895244171
20
-4.3437108589234
30
0
41
1
10
28.0218952441717
20
-5.43679136525287
30
0
41
1
10
28.0218952441723
20
-6.52987187158237
30
0
41
1
10
28.0218952441721
20
-7.62295237791227
30
0
0
SPLINE
5
106
100
AcDbEntity
8
1
62
256
6
ByLayer
370
18
48
1
60
0
100
AcDbSpline
70
4
71
1
72
4
73
2
40
0
40
0
40
1
40
1
41
1
10
24.2742293038801
20
-6.31480483272051
30
0
41
1
10
24.6869267363426
20
-3.24191202996278
30
0
0
SPLINE
5
107
100
AcDbEntity
8
1
62
256
6
ByLayer
370
18
48
1
60
0
100
AcDbSpline
70
4
71
3
72
17
73
13
40
0
40
0
40
0
40
0
40
0.0625
40
0.125
40
0.25
40
0.375
40
0.5
40
0.625
40
0.75
40
0.875
40
0.9375
40
1
40
1
40
1
40
1
41
1
10
28.0218952441702
20
-4.34371085892559
30
0
41
1
10
28.0033838282193
20
-4.35296656690102
30
0
41
1
10
27.9645338015464
20
-4.37056416563553
30
0
41
1
10
27.8803054602439
20
-4.40177964127156
30
0
41
1
10
27.7643074355754
20
-4.43277634343642
30
0
41
1
10
27.6132818150697
20
-4.4557028373583
30
0
41
1
10
27.4562095742763
20
-4.46345077590448
30
0
41
1
10
27.2991367672086
20
-4.45570299006869
30
0
41
1
10
27.1481126285198
20
-4.43277563638503
30
0
41
1
10
27.0321139488065
20
-4.40177962831038
30
0
41
1
10
26.9478862635241
20
-4.37056380616059
30
0
41
1
10
26.9090358102196
20
-4.35296656690127
30
0
41
1
10
26.8905243942689
20
-4.34371085892587
30
0
0
SPLINE
5
108
100
AcDbEntity
8
1
62
256
6
ByLayer
370
18
48
1
60
0
100
AcDbSpline
70
4
71
3
72
8
73
4
40
0
40
0
40
0
40
0
40
1
40
1
40
1
40
1
41
1
10
32.4290905600236
20
-2.14011320099922
30
0
41
1
10
31.6945580073841
20
-2.50737947731898
30
0
41
1
10
30.9600254547498
20
-2.87464575363615
30
0
41
1
10
30.2254929020965
20
-3.24191202996278
30
0
0
SPLINE
5
109
100
AcDbEntity
8
1
62
256
6
ByLayer
370
18
48
1
60
0
100
AcDbSpline
70
4
71
1
72
4
73
2
40
0
40
0
40
1
40
1
41
1
10
30.638190334559
20
-6.31480483272051
30
0
41
1
10
30.2254929020965
20
-3.24191202996278
30
0
0
SPLINE
5
10A
100
AcDbEntity
8
1
62
256
6
ByLayer
370
18
48
1
60
0
100
AcDbSpline
70
4
71
3
72
17
73
13
40
0
40
0
40
0
40
0
40
0.0625
40
0.125
40
0.25
40
0.375
40
0.5
40
0.625
40
0.75
40
0.875
40
0.9375
40
1
40
1
40
1
40
1
41
1
10
26.8905243942703
20
-7.62295253945706
30
0
41
1
10
26.9090364064708
20
-7.63220854555729
30
0
41
1
10
26.9478795375651
20
-7.64981088332036
30
0
41
1
10
27.0320907948632
20
-7.6810407895712
30
0
41
1
10
27.1480893884117
20
-7.7120437790268
30
0
41
1
10
27.2991312509512
20
-7.73495282210877
30
0
41
1
10
27.4562096221003
20
-7.74268830831082
30
0
41
1
10
27.6132877314793
20
-7.73495277727699
30
0
41
1
10
27.7643305024925
20
-7.71204426094715
30
0
41
1
10
27.8803287326839
20
-7.68104081522859
30
0
41
1
10
27.9645403625294
20
-7.64981110659676
30
0
41
1
10
28.0033832319682
20
-7.63220854555692
30
0
41
1
10
28.0218952441688
20
-7.62295253945663
30
0
0
SPLINE
5
10B
100
AcDbEntity
8
1
62
256
6
ByLayer
370
18
48
1
60
0
100
AcDbSpline
70
4
71
3
72
17
73
13
40
0
40
0
40
0
40
0
40
0.0625
40
0.125
40
0.25
40
0.375
40
0.5
40
0.625
40
0.75
40
0.875
40
0.9375
40
1
40
1
40
1
40
1
41
1
10
32.4290905600228
20
-1.57442777604868
30
0
41
1
10
32.4476019759736
20
-1.58368348402411
30
0
41
1
10
32.4827971734426
20
-1.60310849736061
30
0
41
1
10
32.5452281247146
20
-1.64522266801191
30
0
41
1
10
32.6072215290441
20
-1.70322168034619
30
0
41
1
10
32.6530745168878
20
-1.77873449059905
30
0
41
1
10
32.6685703939801
20
-1.85727061099584
30
0
41
1
10
32.6530748223084
20
-1.9358070145297
30
0
41
1
10
32.6072201149411
20
-2.0113190838741
30
0
41
1
10
32.5452280987918
20
-2.06931842373078
30
0
41
1
10
32.4827964544923
20
-2.11143226637196
30
0
41
1
10
32.4476019759736
20
-2.1308574930242
30
0
41
1
10
32.4290905600228
20
-2.14011320099956
30
0
0
SPLINE
5
10C
100
AcDbEntity
8
1
62
256
6
ByLayer
370
18
48
1
60
0
100
AcDbSpline
70
4
71
3
72
8
73
4
40
0
40
0
40
0
40
0
40
1
40
1
40
1
40
1
41
1
10
30.2254929020965
20
-3.24191202996278
30
0
41
1
10
29.4909603494437
20
-3.60917830628921
30
0
41
1
10
28.7564277968098
20
-3.97644458260615
30
0
41
1
10
28.0218952441707
20
-4.34371085892568
30
0
0
SPLINE
5
10D
100
AcDbEntity
8
1
62
256
6
ByLayer
370
18
48
1
60
0
100
AcDbSpline
70
4
71
3
72
8
73
4
40
0
40
0
40
0
40
0
40
1
40
1
40
1
40
1
41
1
10
26.8784855142602
20
10.4504281212182
30
0
41
1
10
26.8801069353646
20
10.4439618496351
30
0
41
1
10
26.8817286131904
20
10.4374945542394
30
0
41
1
10
26.8833505608088
20
10.4310261829038
30
0
0
SPLINE
5
10E
100
AcDbEntity
8
1
62
256
6
ByLayer
370
18
48
1
60
0
100
AcDbSpline
70
4
71
3
72
8
73
4
40
0
40
0
40
0
40
0
40
1
40
1
40
1
40
1
41
1
10
28.6135213555753
20
9.44655358902148
30
0
41
1
10
28.6071106895644
20
9.44838253294648
30
0
41
1
10
28.600699008545
20
9.45021176645039
30
0
41
1
10
28.5942862608382
20
9.45204130427703
30
0
0
SPLINE
5
10F
100
AcDbEntity
8
1
62
256
6
ByLayer
370
18
48
1
60
0
100
AcDbSpline
70
4
71
3
72
8
73
4
40
0
40
0
40
0
40
0
40
1
40
1
40
1
40
1
41
1
10
28.0339341241789
20
8.44483017898455
30
0
41
1
10
28.0323127030746
20
8.45129645056772
30
0
41
1
10
28.0306910252487
20
8.45776374596343
30
0
41
1
10
28.0290690776304
20
8.46423211729893
30
0
0
SPLINE
5
110
100
AcDbEntity
8
1
62
256
6
ByLayer
370
18
48
1
60
0
100
AcDbSpline
70
4
71
3
72
16
73
12
40
0
40
0
40
0
40
0
40
0.125
40
0.125
40
0.25
40
0.25
40
0.5
40
0.5
40
0.75
40
0.75
40
1
40
1
40
1
40
1
41
1
10
28.4590087903364
20
8.86990484514203
30
0
41
1
10
28.4712105077765
20
8.86185160100106
30
0
41
1
10
28.4854911321029
20
8.85745052429036
30
0
41
1
10
28.5152790781966
20
8.85765118270027
30
0
41
1
10
28.5305575514948
20
8.86217214645882
30
0
41
1
10
28.5728898107079
20
8.88380422737748
30
0
41
1
10
28.5967367272846
20
8.90775687642898
30
0
41
1
10
28.6369601888909
20
8.96023074932731
30
0
41
1
10
28.653616031197
20
8.98942206722077
30
0
41
1
10
28.681468220259
20
9.05008085832341
30
0
41
1
10
28.6926810200902
20
9.08169574833437
30
0
41
1
10
28.7013365055975
20
9.113998460012
30
0
0
SPLINE
5
111
100
AcDbEntity
8
1
62
256
6
ByLayer
370
18
48
1
60
0
100
AcDbSpline
70
4
71
3
72
8
73
4
40
0
40
0
40
0
40
0
40
1
40
1
40
1
40
1
41
1
10
28.0357970506159
20
10.4493525601383
30
0
41
1
10
28.0310078057094
20
10.4447152324802
30
0
41
1
10
28.0262178025158
20
10.4400771705883
30
0
41
1
10
28.0214270024273
20
10.4354383370795
30
0
0
SPLINE
5
112
100
AcDbEntity
8
1
62
256
6
ByLayer
370
18
48
1
60
0
100
AcDbSpline
70
4
71
3
72
8
73
4
40
0
40
0
40
0
40
0
40
1
40
1
40
1
40
1
41
1
10
28.4440190061977
20
10.0128463333092
30
0
41
1
10
28.4486578397065
20
10.0176371333976
30
0
41
1
10
28.4532959015983
20
10.0224271365912
30
0
41
1
10
28.4579332292565
20
10.0272163814978
30
0
0
SPLINE
5
113
100
AcDbEntity
8
1
62
256
6
ByLayer
370
18
48
1
60
0
100
AcDbSpline
70
4
71
3
72
8
73
4
40
0
40
0
40
0
40
0
40
1
40
1
40
1
40
1
41
1
10
28.439606852022
20
8.87476989169059
30
0
41
1
10
28.4460752233575
20
8.87314794407223
30
0
41
1
10
28.4525425187533
20
8.87152626624635
30
0
41
1
10
28.4590087903364
20
8.86990484514203
30
0
0
SPLINE
5
114
100
AcDbEntity
8
1
62
256
6
ByLayer
370
18
48
1
60
0
100
AcDbSpline
70
4
71
3
72
16
73
12
40
0
40
0
40
0
40
0
40
0.125
40
0.125
40
0.25
40
0.25
40
0.5
40
0.5
40
0.75
40
0.75
40
1
40
1
40
1
40
1
41
1
10
27.4572853802995
20
8.29031761374563
30
0
41
1
10
27.4564119250106
20
8.27572399440223
30
0
41
1
10
27.4597407929383
20
8.26115607259831
30
0
41
1
10
27.4748085412656
20
8.23545928375958
30
0
41
1
10
27.4863630473792
20
8.22448821963158
30
0
41
1
10
27.526263108598
20
8.19864344821272
30
0
41
1
10
27.5589301694529
20
8.18996773718118
30
0
41
1
10
27.624485607221
20
8.18137013405112
30
0
41
1
10
27.6580939512397
20
8.18154141043928
30
0
41
1
10
27.7245520998284
20
8.18775010271187
30
0
41
1
10
27.7575377976314
20
8.19384697821613
30
0
41
1
10
27.789840509309
20
8.20250246372348
30
0
0
SPLINE
5
115
100
AcDbEntity
8
1
62
256
6
ByLayer
370
18
48
1
60
0
100
AcDbSpline
70
4
71
3
72
18
73
14
40
0
40
0
40
0
40
0
40
0.25
40
0.25
40
0.5
40
0.5
40
0.625
40
0.625
40
0.75
40
0.75
40
0.875
40
0.875
40
1
40
1
40
1
40
1
41
1
10
27.789840509309
20
8.20250246372348
30
0
41
1
10
27.8221278813123
20
8.21115383897748
30
0
41
1
10
27.8537056962623
20
8.22235017413124
30
0
41
1
10
27.9143751859511
20
8.25020029717868
30
0
41
1
10
27.9434942990932
20
8.26680082790099
30
0
41
1
10
27.9829274888617
20
8.29701400722757
30
0
41
1
10
27.9952687160596
20
8.30792911641839
30
0
41
1
10
28.0172856832553
20
8.33176265046791
30
0
41
1
10
28.0271593814646
20
8.34493708118836
30
0
41
1
10
28.0415928714685
20
8.37309163350184
30
0
41
1
10
28.0461612596622
20
8.38829410506037
30
0
41
1
10
28.0464130411662
20
8.41835807731002
30
0
41
1
10
28.0419910897356
20
8.43262282311332
30
0
41
1
10
28.0339341241789
20
8.44483017898457
30
0
0
SPLINE
5
116
100
AcDbEntity
8
1
62
256
6
ByLayer
370
18
48
1
60
0
100
AcDbSpline
70
4
71
3
72
8
73
4
40
0
40
0
40
0
40
0
40
1
40
1
40
1
40
1
41
1
10
27.4606219733952
20
10.5857055917199
30
0
41
1
10
27.4587924355686
20
10.5921183394268
30
0
41
1
10
27.4569632020647
20
10.5985300204462
30
0
41
1
10
27.4551342581397
20
10.6049406864572
30
0
0
SPLINE
5
117
100
AcDbEntity
8
1
62
256
6
ByLayer
370
18
48
1
60
0
100
AcDbSpline
70
4
71
3
72
8
73
4
40
0
40
0
40
0
40
0
40
1
40
1
40
1
40
1
41
1
10
26.2988982828638
20
9.44870471118131
30
0
41
1
10
26.3053089488748
20
9.4468757672563
30
0
41
1
10
26.3117206298941
20
9.44504653375242
30
0
41
1
10
26.318133377601
20
9.44321699592575
30
0
0
SPLINE
5
118
100
AcDbEntity
8
1
62
256
6
ByLayer
370
18
48
1
60
0
100
AcDbSpline
70
4
71
3
72
18
73
14
40
0
40
0
40
0
40
0
40
0.25
40
0.25
40
0.5
40
0.5
40
0.625
40
0.625
40
0.75
40
0.75
40
0.875
40
0.875
40
1
40
1
40
1
40
1
41
1
10
28.7013365055975
20
9.113998460012
30
0
41
1
10
28.7099878808515
20
9.14628583201528
30
0
41
1
10
28.7160804776541
20
9.1792311895349
30
0
41
1
10
28.7222963084409
20
9.2456975703638
30
0
41
1
10
28.7224793836901
20
9.27921572744171
30
0
41
1
10
28.7160305977484
20
9.32847246119672
30
0
41
1
10
28.7127484495031
20
9.34461783205941
30
0
41
1
10
28.703116487152
20
9.37560185198993
30
0
41
1
10
28.6966439445724
20
9.39073994082869
30
0
41
1
10
28.6794781320386
20
9.41731698599403
30
0
41
1
10
28.6685965995656
20
9.42887456200347
30
0
41
1
10
28.6426863266107
20
9.44412459730694
30
0
41
1
10
28.6281217186512
20
9.44742744793533
30
0
41
1
10
28.6135213555753
20
9.44655358902148
30
0
0
SPLINE
5
119
100
AcDbEntity
8
1
62
256
6
ByLayer
370
18
48
1
60
0
100
AcDbSpline
70
4
71
3
72
18
73
14
40
0
40
0
40
0
40
0
40
0.125
40
0.125
40
0.249999999999999
40
0.249999999999999
40
0.5
40
0.5
40
0.75
40
0.75
40
0.875
40
0.875
40
1
40
1
40
1
40
1
41
1
10
28.5942862608382
20
9.45204130427703
30
0
41
1
10
28.5706657928663
20
9.45878015345883
30
0
41
1
10
28.5497165040503
20
9.47353803944267
30
0
41
1
10
28.5122970689338
20
9.50934692161485
30
0
41
1
10
28.4959285186952
20
9.53055044645768
30
0
41
1
10
28.4526031859569
20
9.59896013537849
30
0
41
1
10
28.431189035172
20
9.65102940322205
30
0
41
1
10
28.4022723088075
20
9.75893678338761
30
0
41
1
10
28.3947832886388
20
9.81475085834251
30
0
41
1
10
28.3980869974415
20
9.8956058437428
30
0
41
1
10
28.4016446025058
20
9.92212803178805
30
0
41
1
10
28.4161641461809
20
9.971947112658
30
0
41
1
10
28.4269415668671
20
9.99520944297899
30
0
41
1
10
28.4440190061977
20
10.0128463333092
30
0
0
SPLINE
5
11A
100
AcDbEntity
8
1
62
256
6
ByLayer
370
18
48
1
60
0
100
AcDbSpline
70
4
71
3
72
16
73
12
40
0
40
0
40
0
40
0
40
0.125
40
0.125
40
0.25
40
0.25
40
0.5
40
0.5
40
0.75
40
0.75
40
1
40
1
40
1
40
1
41
1
10
28.4579332292565
20
10.0272163814978
30
0
41
1
10
28.4710084019855
20
10.0337567567003
30
0
41
1
10
28.4819601583842
20
10.0439236017934
30
0
41
1
10
28.4966803561505
20
10.0698210490421
30
0
41
1
10
28.5004043233352
20
10.0853130769287
30
0
41
1
10
28.5028365213295
20
10.1327899292661
30
0
41
1
10
28.4940163770512
20
10.1654182893492
30
0
41
1
10
28.4686844008895
20
10.2264897653776
30
0
41
1
10
28.4517318991769
20
10.2555098068829
30
0
41
1
10
28.4131259396502
20
10.3099599057129
30
0
41
1
10
28.3913530416784
20
10.3354779202196
30
0
41
1
10
28.3677058155081
20
10.3591251463899
30
0
0
SPLINE
5
11B
100
AcDbEntity
8
1
62
256
6
ByLayer
370
18
48
1
60
0
100
AcDbSpline
70
4
71
3
72
18
73
14
40
0
40
0
40
0
40
0
40
0.25
40
0.25
40
0.5
40
0.5
40
0.625
40
0.625
40
0.75
40
0.75
40
0.875
40
0.875
40
1
40
1
40
1
40
1
41
1
10
28.3677058155081
20
10.3591251463899
30
0
41
1
10
28.3440698187588
20
10.3827611431392
30
0
41
1
10
28.3185846006114
20
10.4045101655051
30
0
41
1
10
28.2641309417093
20
10.4431264232865
30
0
41
1
10
28.2351949038164
20
10.4600440496421
30
0
41
1
10
28.1893129281063
20
10.4790876040705
30
0
41
1
10
28.173689552663
20
10.4843178657424
30
0
41
1
10
28.1420406231163
20
10.4914683516234
30
0
41
1
10
28.1256943823274
20
10.4934320097417
30
0
41
1
10
28.0940950797898
20
10.4918545025936
30
0
41
1
10
28.0786451591229
20
10.4882096070445
30
0
41
1
10
28.052483104664
20
10.4733956700983
30
0
41
1
10
28.0423404481352
20
10.4624337749234
30
0
41
1
10
28.0357970506159
20
10.4493525601383
30
0
0
SPLINE
5
11C
100
AcDbEntity
8
1
62
256
6
ByLayer
370
18
48
1
60
0
100
AcDbSpline
70
4
71
3
72
16
73
12
40
0
40
0
40
0
40
0
40
0.125
40
0.125
40
0.25
40
0.25
40
0.5
40
0.5
40
0.75
40
0.75
40
1
40
1
40
1
40
1
41
1
10
26.4534108481027
20
10.0253534550608
30
0
41
1
10
26.4412091306626
20
10.0334066992017
30
0
41
1
10
26.4269285063363
20
10.0378077759124
30
0
41
1
10
26.3971405602426
20
10.0376071175025
30
0
41
1
10
26.3818620869443
20
10.033086153744
30
0
41
1
10
26.3395298277312
20
10.0114540728253
30
0
41
1
10
26.3156829111546
20
9.98750142377381
30
0
41
1
10
26.2754594495482
20
9.9350275508755
30
0
41
1
10
26.2588036072421
20
9.90583623298204
30
0
41
1
10
26.2309514181801
20
9.8451774418794
30
0
41
1
10
26.219738618349
20
9.81356255186842
30
0
41
1
10
26.2110831328416
20
9.78125984019081
30
0
0
SPLINE
5
11D
100
AcDbEntity
8
1
62
256
6
ByLayer
370
18
48
1
60
0
100
AcDbSpline
70
4
71
3
72
18
73
14
40
0
40
0
40
0
40
0
40
0.25
40
0.25
40
0.5
40
0.5
40
0.625
40
0.625
40
0.75
40
0.75
40
0.875
40
0.875
40
1
40
1
40
1
40
1
41
1
10
26.2110831328416
20
9.78125984019081
30
0
41
1
10
26.2024317575877
20
9.74897246818753
30
0
41
1
10
26.196339160785
20
9.71602711066791
30
0
41
1
10
26.1901233299982
20
9.64956072983901
30
0
41
1
10
26.189940254749
20
9.6160425727611
30
0
41
1
10
26.1963890406908
20
9.56678583900609
30
0
41
1
10
26.1996711889361
20
9.55064046814337
30
0
41
1
10
26.2093031512871
20
9.51965644821286
30
0
41
1
10
26.2157756938668
20
9.50451835937412
30
0
41
1
10
26.2329415064005
20
9.47794131420875
30
0
41
1
10
26.2438230388736
20
9.46638373819934
30
0
41
1
10
26.2697333118284
20
9.45113370289585
30
0
41
1
10
26.2842979197879
20
9.44783085226746
30
0
41
1
10
26.2988982828638
20
9.44870471118131
30
0
0
SPLINE
5
11E
100
AcDbEntity
8
1
62
256
6
ByLayer
370
18
48
1
60
0
100
AcDbSpline
70
4
71
3
72
8
73
4
40
0
40
0
40
0
40
0
40
1
40
1
40
1
40
1
41
1
10
27.451797665044
20
8.30955270848284
30
0
41
1
10
27.4536272028706
20
8.30313996077598
30
0
41
1
10
27.4554564363745
20
8.29672827975659
30
0
41
1
10
27.4572853802995
20
8.29031761374563
30
0
0
SPLINE
5
11F
100
AcDbEntity
8
1
62
256
6
ByLayer
370
18
48
1
60
0
100
AcDbSpline
70
4
71
3
72
8
73
4
40
0
40
0
40
0
40
0
40
1
40
1
40
1
40
1
41
1
10
26.4728127864171
20
10.0204884085122
30
0
41
1
10
26.4663444150816
20
10.0221103561306
30
0
41
1
10
26.4598771196859
20
10.0237320339564
30
0
41
1
10
26.4534108481027
20
10.0253534550608
30
0
0
SPLINE
5
120
100
AcDbEntity
8
1
62
256
6
ByLayer
370
18
48
1
60
0
100
AcDbSpline
70
4
71
3
72
18
73
14
40
0
40
0
40
0
40
0
40
0.125
40
0.125
40
0.250000000000001
40
0.250000000000001
40
0.500000000000001
40
0.500000000000001
40
0.75
40
0.75
40
0.875
40
0.875
40
1
40
1
40
1
40
1
41
1
10
28.0214270024273
20
10.4354383370795
30
0
41
1
10
28.0037807538577
20
10.4183518363575
30
0
41
1
10
27.9805254052815
20
10.4075881630436
30
0
41
1
10
27.9308042860811
20
10.3930864227235
30
0
41
1
10
27.9042572197981
20
10.3895126048151
30
0
41
1
10
27.8233500249586
20
10.3861966104968
30
0
41
1
10
27.7675496408571
20
10.3936860458384
30
0
41
1
10
27.6596407451956
20
10.4225971162952
30
0
41
1
10
27.6075598283117
20
10.4440184720571
30
0
41
1
10
27.5391892113337
20
10.487307060507
30
0
41
1
10
27.5179991252547
20
10.5036491308921
30
0
41
1
10
27.4821143074657
20
10.541132965001
30
0
41
1
10
27.4673572487996
20
10.562097650263
30
0
41
1
10
27.4606219733952
20
10.5857055917199
30
0
0
SPLINE
5
121
100
AcDbEntity
8
1
62
256
6
ByLayer
370
18
48
1
60
0
100
AcDbSpline
70
4
71
3
72
16
73
12
40
0
40
0
40
0
40
0
40
0.125
40
0.125
40
0.25
40
0.25
40
0.5
40
0.5
40
0.75
40
0.75
40
1
40
1
40
1
40
1
41
1
10
27.4551342581397
20
10.6049406864572
30
0
41
1
10
27.4560077134286
20
10.6195343058006
30
0
41
1
10
27.4526788455008
20
10.6341022276045
30
0
41
1
10
27.4376110971735
20
10.6597990164432
30
0
41
1
10
27.4260565910599
20
10.6707700805712
30
0
41
1
10
27.3861565298411
20
10.6966148519901
30
0
41
1
10
27.3534894689863
20
10.7052905630216
30
0
41
1
10
27.2879340312182
20
10.7138881661517
30
0
41
1
10
27.2543256871994
20
10.7137168897635
30
0
41
1
10
27.1878675386107
20
10.7075081974909
30
0
41
1
10
27.1548818408078
20
10.7014113219867
30
0
41
1
10
27.1225791291301
20
10.6927558364793
30
0
0
SPLINE
5
122
100
AcDbEntity
8
1
62
256
6
ByLayer
370
18
48
1
60
0
100
AcDbSpline
70
4
71
3
72
18
73
14
40
0
40
0
40
0
40
0
40
0.25
40
0.25
40
0.5
40
0.5
40
0.625
40
0.625
40
0.75
40
0.75
40
0.875
40
0.875
40
1
40
1
40
1
40
1
41
1
10
27.1225791291301
20
10.6927558364793
30
0
41
1
10
27.0902917571269
20
10.6841044612253
30
0
41
1
10
27.0587139421768
20
10.6729081260715
30
0
41
1
10
26.998044452488
20
10.6450580030241
30
0
41
1
10
26.9689253393459
20
10.6284574723018
30
0
41
1
10
26.9294921495774
20
10.5982442929752
30
0
41
1
10
26.9171509223795
20
10.5873291837844
30
0
41
1
10
26.8951339551838
20
10.5634956497349
30
0
41
1
10
26.8852602569746
20
10.5503212190144
30
0
41
1
10
26.8708267669707
20
10.5221666667009
30
0
41
1
10
26.8662583787769
20
10.5069641951424
30
0
41
1
10
26.8660065972729
20
10.4769002228928
30
0
41
1
10
26.8704285487036
20
10.4626354770895
30
0
41
1
10
26.8784855142602
20
10.4504281212182
30
0
0
SPLINE
5
123
100
AcDbEntity
8
1
62
256
6
ByLayer
370
18
48
1
60
0
100
AcDbSpline
70
4
71
3
72
18
73
14
40
0
40
0
40
0
40
0
40
0.125000000000001
40
0.125000000000001
40
0.250000000000001
40
0.250000000000001
40
0.5
40
0.5
40
0.75
40
0.75
40
0.875
40
0.875
40
1
40
1
40
1
40
1
41
1
10
28.0290690776304
20
8.46423211729893
30
0
41
1
10
28.0230948582281
20
8.48805746720271
30
0
41
1
10
28.0254009179884
20
8.51357902650051
30
0
41
1
10
28.0377026020723
20
8.56388964899273
30
0
41
1
10
28.0478811181167
20
8.58866699174393
30
0
41
1
10
28.0854629802179
20
8.66039267498306
30
0
41
1
10
28.1198492135345
20
8.70497250748508
30
0
41
1
10
28.1988413828314
20
8.7839688171938
30
0
41
1
10
28.2434332795467
20
8.81836153638676
30
0
41
1
10
28.3151076053273
20
8.85592793333711
30
0
41
1
10
28.3398552964707
20
8.86610805099738
30
0
41
1
10
28.3902596579347
20
8.87844329775839
30
0
41
1
10
28.415794137287
20
8.88074094281734
30
0
41
1
10
28.439606852022
20
8.87476989169059
30
0
0
SPLINE
5
124
100
AcDbEntity
8
1
62
256
6
ByLayer
370
18
48
1
60
0
100
AcDbSpline
70
4
71
3
72
18
73
14
40
0
40
0
40
0
40
0
40
0.125000000000001
40
0.125000000000001
40
0.250000000000001
40
0.250000000000001
40
0.500000000000001
40
0.500000000000001
40
0.75
40
0.75
40
0.875
40
0.875
40
1
40
1
40
1
40
1
41
1
10
26.8833505608088
20
10.4310261829038
30
0
41
1
10
26.8893247802109
20
10.4072008330001
30
0
41
1
10
26.8870187204508
20
10.3816792737023
30
0
41
1
10
26.8747170363668
20
10.3313686512101
30
0
41
1
10
26.8645385203225
20
10.3065913084589
30
0
41
1
10
26.8269566582212
20
10.2348656252197
30
0
41
1
10
26.7925704249047
20
10.1902857927177
30
0
41
1
10
26.7135782556077
20
10.111289483009
30
0
41
1
10
26.6689863588924
20
10.076896763816
30
0
41
1
10
26.5973120331118
20
10.0393303668657
30
0
41
1
10
26.5725643419685
20
10.0291502492054
30
0
41
1
10
26.5221599805044
20
10.0168150024444
30
0
41
1
10
26.4966255011521
20
10.0145173573854
30
0
41
1
10
26.4728127864171
20
10.0204884085122
30
0
0
SPLINE
5
125
100
AcDbEntity
8
1
62
256
6
ByLayer
370
18
48
1
60
0
100
AcDbSpline
70
4
71
3
72
16
73
12
40
0
40
0
40
0
40
0
40
0.124999999999999
40
0.124999999999999
40
0.249999999999998
40
0.249999999999998
40
0.499999999999998
40
0.499999999999998
40
0.749999999999999
40
0.749999999999999
40
1
40
1
40
1
40
1
41
1
10
26.8766225878231
20
8.44590574006446
30
0
41
1
10
26.8700822126207
20
8.43283056733546
30
0
41
1
10
26.8599153675275
20
8.42187881093679
30
0
41
1
10
26.8340179202789
20
8.40715861317042
30
0
41
1
10
26.8185258923924
20
8.40343464598581
30
0
41
1
10
26.7710490400548
20
8.40100244799149
30
0
41
1
10
26.7384206799718
20
8.40982259226971
30
0
41
1
10
26.6773492039434
20
8.43515456843144
30
0
41
1
10
26.6483291624381
20
8.45210707014405
30
0
41
1
10
26.593879063608
20
8.49071302967079
30
0
41
1
10
26.5683610491013
20
8.51248592764259
30
0
41
1
10
26.544713822931
20
8.53613315381287
30
0
0
SPLINE
5
126
100
AcDbEntity
8
1
62
256
6
ByLayer
370
18
48
1
60
0
100
AcDbSpline
70
4
71
3
72
8
73
4
40
0
40
0
40
0
40
0
40
1
40
1
40
1
40
1
41
1
10
26.4544864091827
20
8.86804191870499
30
0
41
1
10
26.4591237368408
20
8.87283116361161
30
0
41
1
10
26.4637617987326
20
8.87762116680514
30
0
41
1
10
26.4684006322415
20
8.88241196689361
30
0
0
SPLINE
5
127
100
AcDbEntity
8
1
62
256
6
ByLayer
370
18
48
1
60
0
100
AcDbSpline
70
4
71
3
72
16
73
12
40
0
40
0
40
0
40
0
40
0.25
40
0.25
40
0.5
40
0.5
40
0.749999999999999
40
0.749999999999999
40
0.875
40
0.875
40
1
40
1
40
1
40
1
41
1
10
26.544713822931
20
8.53613315381287
30
0
41
1
10
26.5210694540953
20
8.55977752264866
30
0
41
1
10
26.4993133855959
20
8.5852723568361
30
0
41
1
10
26.4606869314073
20
8.63974790482061
30
0
41
1
10
26.4437662408291
20
8.66869572886299
30
0
41
1
10
26.4183782425856
20
8.7298983896238
30
0
41
1
10
26.4095748629749
20
8.76219336153909
30
0
41
1
10
26.4120175624809
20
8.81004597055701
30
0
41
1
10
26.4157683944302
20
8.82548215592831
30
0
41
1
10
26.4304141696132
20
8.85126128877187
30
0
41
1
10
26.4414160267572
20
8.86150393967608
30
0
41
1
10
26.4544864091827
20
8.86804191870499
30
0
0
SPLINE
5
128
100
AcDbEntity
8
1
62
256
6
ByLayer
370
18
48
1
60
0
100
AcDbSpline
70
4
71
3
72
18
73
14
40
0
40
0
40
0
40
0
40
0.125
40
0.125
40
0.25
40
0.25
40
0.499999999999999
40
0.499999999999999
40
0.749999999999999
40
0.749999999999999
40
0.874999999999999
40
0.874999999999999
40
1
40
1
40
1
40
1
41
1
10
27.451797665044
20
8.30955270848284
30
0
41
1
10
27.4450197367195
20
8.33331015349782
30
0
41
1
10
27.4300410433611
20
8.35443641106073
30
0
41
1
10
27.3943661428723
20
8.39163063626799
30
0
41
1
10
27.3730487491722
20
8.40807237443394
30
0
41
1
10
27.3050152699101
20
8.45112915922593
30
0
41
1
10
27.2532110885043
20
8.47250800623783
30
0
41
1
10
27.1452095033143
20
8.50151841090928
30
0
41
1
10
27.0893293066224
20
8.50904301696286
30
0
41
1
10
27.0083781364895
20
8.50576910109396
30
0
41
1
10
26.98182465492
20
8.50221803591705
30
0
41
1
10
26.931941802417
20
8.48769882187716
30
0
41
1
10
26.9086488378317
20
8.47691610137343
30
0
41
1
10
26.8909926360118
20
8.45981996312329
30
0
0
SPLINE
5
129
100
AcDbEntity
8
1
62
256
6
ByLayer
370
18
48
1
60
0
100
AcDbSpline
70
4
71
3
72
8
73
4
40
0
40
0
40
0
40
0
40
1
40
1
40
1
40
1
41
1
10
26.8909926360118
20
8.45981996312329
30
0
41
1
10
26.8862018359233
20
8.45518112961443
30
0
41
1
10
26.8814118327298
20
8.45054306772261
30
0
41
1
10
26.8766225878231
20
8.44590574006446
30
0
0
SPLINE
5
12A
100
AcDbEntity
8
1
62
256
6
ByLayer
370
18
48
1
60
0
100
AcDbSpline
70
4
71
3
72
20
73
16
40
0
40
0
40
0
40
0
40
0.125
40
0.125
40
0.25
40
0.25
40
0.5
40
0.5
40
0.625
40
0.625
40
0.75
40
0.75
40
0.875
40
0.875
40
1
40
1
40
1
40
1
41
1
10
26.4684006322415
20
8.88241196689361
30
0
41
1
10
26.4855048602616
20
8.90007652350158
30
0
41
1
10
26.4962735532019
20
8.92336097947972
30
0
41
1
10
26.5107749124911
20
8.97314203823962
30
0
41
1
10
26.5143486232666
20
8.99974598132212
30
0
41
1
10
26.517627763812
20
9.08089573587472
30
0
41
1
10
26.5100717526788
20
9.13678865457277
30
0
41
1
10
26.4882897178907
20
9.21779279551924
30
0
41
1
10
26.479349035348
20
9.24390872399667
30
0
41
1
10
26.4580100232411
20
9.29434454548263
30
0
41
1
10
26.4454724560212
20
9.31891796117205
30
0
41
1
10
26.4166548447786
20
9.36447811266552
30
0
41
1
10
26.4004194098512
20
9.3855718737253
30
0
41
1
10
26.3629458826697
20
9.42154260870734
30
0
41
1
10
26.3418455069432
20
9.4364519960279
30
0
41
1
10
26.318133377601
20
9.44321699592575
30
0
0
SPLINE
5
12B
100
AcDbEntity
8
1
62
256
6
ByLayer
370
18
48
1
60
0
100
AcDbSpline
70
4
71
3
72
10
73
6
40
0
40
0
40
0
40
0
40
0.375000000000405
40
0.750000000000811
40
1
40
1
40
1
40
1
41
1
10
25.4488287987347
20
7.44024812963247
30
0
41
1
10
25.5839381771312
20
7.30513875123393
30
0
41
1
10
25.8767487617762
20
7.05751619249966
30
0
41
1
10
26.3145015666616
20
6.79819766941634
30
0
41
1
10
26.6050801333829
20
6.6771243814319
30
0
41
1
10
26.7231408092309
20
6.63552444820101
30
0
0
SPLINE
5
12C
100
AcDbEntity
8
1
62
256
6
ByLayer
370
18
48
1
60
0
100
AcDbSpline
70
4
71
3
72
17
73
13
40
0
40
0
40
0
40
0
40
0.0625
40
0.125
40
0.25
40
0.375
40
0.5
40
0.625
40
0.75
40
0.875
40
0.9375
40
1
40
1
40
1
40
1
41
1
10
21.6579341728294
20
8.88194372515215
30
0
41
1
10
21.639422160629
20
8.90045573735264
30
0
41
1
10
21.6042174851028
20
8.939298868447
30
0
41
1
10
21.541757672601
20
9.02351012574505
30
0
41
1
10
21.4797516936898
20
9.13950871929359
30
0
41
1
10
21.4339336075257
20
9.29055058183303
30
0
41
1
10
21.4184626351216
20
9.44762895298214
30
0
41
1
10
21.4339336971891
20
9.60470706236114
30
0
41
1
10
21.4797507298487
20
9.75574983337435
30
0
41
1
10
21.5417576212858
20
9.87174806356575
30
0
41
1
10
21.6042170385493
20
9.95595969341122
30
0
41
1
10
21.639422160629
20
9.99480256285008
30
0
41
1
10
21.6579341728295
20
10.0133145750506
30
0
0
SPLINE
5
12D
100
AcDbEntity
8
1
62
256
6
ByLayer
370
18
48
1
60
0
100
AcDbSpline
70
4
71
3
72
8
73
4
40
0
40
0
40
0
40
0
40
1
40
1
40
1
40
1
41
1
10
21.6579342134872
20
10.0133145750479
30
0
41
1
10
22.5300325769516
20
10.8854129385123
30
0
41
1
10
23.4021309403925
20
11.7575113019533
30
0
41
1
10
24.2742293038801
20
12.6296096654408
30
0
0
SPLINE
5
12E
100
AcDbEntity
8
1
62
256
6
ByLayer
370
18
48
1
60
0
100
AcDbSpline
70
4
71
3
72
8
73
4
40
0
40
0
40
0
40
0
40
1
40
1
40
1
40
1
41
1
10
28.0218952441688
20
15.2459047558311
30
0
41
1
10
28.0776897725148
20
14.2505144545548
30
0
41
1
10
28.1334843008607
20
13.2551241532786
30
0
41
1
10
28.1892788292067
20
12.2597338520023
30
0
0
SPLINE
5
12F
100
AcDbEntity
8
1
62
256
6
ByLayer
370
18
48
1
60
0
100
AcDbSpline
70
4
71
3
72
8
73
4
40
0
40
0
40
0
40
0
40
1
40
1
40
1
40
1
41
1
10
30.638190334559
20
6.26564863476193
30
0
41
1
10
30.2466571696021
20
6.65718179971347
30
0
41
1
10
29.8551240046453
20
7.04871496466501
30
0
41
1
10
29.4635908396884
20
7.44024812961655
30
0
0
SPLINE
5
130
100
AcDbEntity
8
1
62
256
6
ByLayer
370
18
48
1
60
0
100
AcDbSpline
70
4
71
3
72
10
73
6
40
0
40
0
40
0
40
0
40
0.375000000000406
40
0.750000000000812
40
1
40
1
40
1
40
1
41
1
10
29.4635908397044
20
11.4550101705703
30
0
41
1
10
29.3284814613079
20
11.5901195489689
30
0
41
1
10
29.0356708766629
20
11.8377421077031
30
0
41
1
10
28.5979180717775
20
12.0970606307864
30
0
41
1
10
28.3073395050562
20
12.2181339187709
30
0
41
1
10
28.1892788292083
20
12.2597338520018
30
0
0
SPLINE
5
131
100
AcDbEntity
8
1
62
256
6
ByLayer
370
18
48
1
60
0
100
AcDbSpline
70
4
71
3
72
10
73
6
40
0
40
0
40
0
40
0
40
0.249999999999985
40
0.624999999999992
40
1
40
1
40
1
40
1
41
1
10
24.6441051173188
20
8.71456014013006
30
0
41
1
10
24.6857050505478
20
8.59649946428064
30
0
41
1
10
24.8067783385264
20
8.30592089755544
30
0
41
1
10
25.0660968616179
20
7.86816809267543
30
0
41
1
10
25.3137194203445
20
7.57535750802199
30
0
41
1
10
25.4488287987427
20
7.44024812962451
30
0
0
SPLINE
5
132
100
AcDbEntity
8
1
62
256
6
ByLayer
370
18
48
1
60
0
100
AcDbSpline
70
4
71
3
72
8
73
4
40
0
40
0
40
0
40
0
40
1
40
1
40
1
40
1
41
1
10
33.254485424952
20
10.0133145750479
30
0
41
1
10
32.2590951236747
20
10.0691091033895
30
0
41
1
10
31.2637048223975
20
10.1249036317311
30
0
41
1
10
30.2683145211203
20
10.1806981600727
30
0
0
SPLINE
5
133
100
AcDbEntity
8
1
62
256
6
ByLayer
370
18
48
1
60
0
100
AcDbSpline
70
4
71
3
72
8
73
4
40
0
40
0
40
0
40
0
40
1
40
1
40
1
40
1
41
1
10
24.2742293038801
20
6.26564863476193
30
0
41
1
10
24.6657624688343
20
6.65718179971611
30
0
41
1
10
25.0572956337885
20
7.04871496467032
30
0
41
1
10
25.4488287987427
20
7.44024812962451
30
0
0
SPLINE
5
134
100
AcDbEntity
8
1
62
256
6
ByLayer
370
18
48
1
60
0
100
AcDbSpline
70
4
71
3
72
8
73
4
40
0
40
0
40
0
40
0
40
1
40
1
40
1
40
1
41
1
10
21.6579342134872
20
8.88194372515483
30
0
41
1
10
22.6533245147644
20
8.82614919681325
30
0
41
1
10
23.6487148160416
20
8.77035466847167
30
0
41
1
10
24.6441051173188
20
8.71456014013009
30
0
0
SPLINE
5
135
100
AcDbEntity
8
1
62
256
6
ByLayer
370
18
48
1
60
0
100
AcDbSpline
70
4
71
3
72
17
73
13
40
0
40
0
40
0
40
0
40
0.0625
40
0.125
40
0.25
40
0.375
40
0.5
40
0.625
40
0.75
40
0.875
40
0.9375
40
1
40
1
40
1
40
1
41
1
10
33.2544854656097
20
10.0133145750506
30
0
41
1
10
33.2729974778102
20
9.99480256285017
30
0
41
1
10
33.3082021533364
20
9.95595943175579
30
0
41
1
10
33.3706619658381
20
9.87174817445774
30
0
41
1
10
33.4326679447494
20
9.7557495809092
30
0
41
1
10
33.4784860309134
20
9.60470771836975
30
0
41
1
10
33.4939570033176
20
9.44762934722067
30
0
41
1
10
33.47848594125
20
9.29055123784164
30
0
41
1
10
33.4326689085905
20
9.13950846682843
30
0
41
1
10
33.3706620171533
20
9.02351023663704
30
0
41
1
10
33.3082025998898
20
8.93929860679157
30
0
41
1
10
33.2729974778102
20
8.90045573735273
30
0
41
1
10
33.2544854656096
20
8.88194372515215
30
0
0
SPLINE
5
136
100
AcDbEntity
8
1
62
256
6
ByLayer
370
18
48
1
60
0
100
AcDbSpline
70
4
71
3
72
8
73
4
40
0
40
0
40
0
40
0
40
1
40
1
40
1
40
1
41
1
10
28.0218952441661
20
15.2459047558338
30
0
41
1
10
28.8939936076305
20
14.3738063923694
30
0
41
1
10
29.7660919710714
20
13.5017080289284
30
0
41
1
10
30.638190334559
20
12.6296096654408
30
0
0
SPLINE
5
137
100
AcDbEntity
8
1
62
256
6
ByLayer
370
18
48
1
60
0
100
AcDbSpline
70
4
71
3
72
8
73
4
40
0
40
0
40
0
40
0
40
1
40
1
40
1
40
1
41
1
10
24.2742293038801
20
6.26564863476193
30
0
41
1
10
23.4021309403926
20
7.1377469982495
30
0
41
1
10
22.5300325769516
20
8.00984536169045
30
0
41
1
10
21.6579342134872
20
8.88194372515483
30
0
0
SPLINE
5
138
100
AcDbEntity
8
1
62
256
6
ByLayer
370
18
48
1
60
0
100
AcDbSpline
70
4
71
3
72
8
73
4
40
0
40
0
40
0
40
0
40
1
40
1
40
1
40
1
41
1
10
24.2742293038801
20
12.6296096654408
30
0
41
1
10
25.1463276673676
20
13.5017080289284
30
0
41
1
10
26.0184260308086
20
14.3738063923694
30
0
41
1
10
26.890524394273
20
15.2459047558338
30
0
0
SPLINE
5
139
100
AcDbEntity
8
1
62
256
6
ByLayer
370
18
48
1
60
0
100
AcDbSpline
70
4
71
3
72
8
73
4
40
0
40
0
40
0
40
0
40
1
40
1
40
1
40
1
41
1
10
21.6579342134898
20
10.0133145750506
30
0
41
1
10
22.6533245147662
20
10.0691091033966
30
0
41
1
10
23.6487148160424
20
10.1249036317426
30
0
41
1
10
24.6441051173186
20
10.1806981600886
30
0
0
SPLINE
5
13A
100
AcDbEntity
8
1
62
256
6
ByLayer
370
18
48
1
60
0
100
AcDbSpline
70
4
71
3
72
8
73
4
40
0
40
0
40
0
40
0
40
1
40
1
40
1
40
1
41
1
10
29.4635908397044
20
11.4550101705703
30
0
41
1
10
29.8551240046559
20
11.8465433355271
30
0
41
1
10
30.2466571696075
20
12.238076500484
30
0
41
1
10
30.638190334559
20
12.6296096654408
30
0
0
SPLINE
5
13B
100
AcDbEntity
8
1
62
256
6
ByLayer
370
18
48
1
60
0
100
AcDbSpline
70
4
71
3
72
8
73
4
40
0
40
0
40
0
40
0
40
1
40
1
40
1
40
1
41
1
10
30.638190334559
20
12.6296096654408
30
0
41
1
10
31.5102886980466
20
11.7575113019533
30
0
41
1
10
32.3823870614875
20
10.8854129385123
30
0
41
1
10
33.254485424952
20
10.013314575048
30
0
0
SPLINE
5
13C
100
AcDbEntity
8
1
62
256
6
ByLayer
370
18
48
1
60
0
100
AcDbSpline
70
4
71
3
72
10
73
6
40
0
40
0
40
0
40
0
40
0.375000000000406
40
0.750000000000812
40
1
40
1
40
1
40
1
41
1
10
25.4488287987506
20
11.4550101705862
30
0
41
1
10
25.3137194203521
20
11.3199007921898
30
0
41
1
10
25.0660968616178
20
11.0270902075447
30
0
41
1
10
24.8067783385345
20
10.5893374026594
30
0
41
1
10
24.68570505055
20
10.2987588359381
30
0
41
1
10
24.6441051173192
20
10.1806981600901
30
0
0
SPLINE
5
13D
100
AcDbEntity
8
1
62
256
6
ByLayer
370
18
48
1
60
0
100
AcDbSpline
70
4
71
3
72
10
73
6
40
0
40
0
40
0
40
0
40
0.375000000000406
40
0.750000000000812
40
1
40
1
40
1
40
1
41
1
10
29.4635908396885
20
7.44024812961655
30
0
41
1
10
29.598700218087
20
7.57535750801298
30
0
41
1
10
29.8463227768213
20
7.86816809265807
30
0
41
1
10
30.1056412999046
20
8.30592089754339
30
0
41
1
10
30.226714587889
20
8.59649946426472
30
0
41
1
10
30.2683145211199
20
8.7145601401127
30
0
0
SPLINE
5
13E
100
AcDbEntity
8
1
62
256
6
ByLayer
370
18
48
1
60
0
100
AcDbSpline
70
4
71
3
72
8
73
4
40
0
40
0
40
0
40
0
40
1
40
1
40
1
40
1
41
1
10
33.2544854249492
20
8.88194372515215
30
0
41
1
10
32.259095123673
20
8.82614919680617
30
0
41
1
10
31.2637048223967
20
8.77035466846019
30
0
41
1
10
30.2683145211204
20
8.71456014011423
30
0
0
SPLINE
5
13F
100
AcDbEntity
8
1
62
256
6
ByLayer
370
18
48
1
60
0
100
AcDbSpline
70
4
71
3
72
10
73
6
40
0
40
0
40
0
40
0
40
0.249999999999984
40
0.624999999999992
40
1
40
1
40
1
40
1
41
1
10
26.7231408092482
20
12.2597338520021
30
0
41
1
10
26.6050801333988
20
12.2181339187731
30
0
41
1
10
26.3145015666736
20
12.0970606307945
30
0
41
1
10
25.8767487617936
20
11.8377421077031
30
0
41
1
10
25.5839381771402
20
11.5901195489764
30
0
41
1
10
25.4488287987427
20
11.4550101705782
30
0
0
SPLINE
5
140
100
AcDbEntity
8
1
62
256
6
ByLayer
370
18
48
1
60
0
100
AcDbSpline
70
4
71
3
72
29
73
25
40
0
40
0
40
0
40
0
40
0.125000000000944
40
0.171875000000893
40
0.218750000000841
40
0.242187500000815
40
0.265625000000789
40
0.277343750000776
40
0.289062500000763
40
0.312500000000737
40
0.359375000000686
40
0.406250000000634
40
0.50000000000053
40
0.593750000000427
40
0.640625000000375
40
0.687500000000323
40
0.710937500000298
40
0.722656250000285
40
0.734375000000272
40
0.757812500000246
40
0.78125000000022
40
0.828125000000168
40
0.875000000000116
40
1
40
1
40
1
40
1
41
1
10
26.7231408092309
20
6.63552444820101
30
0
41
1
10
26.7821711471556
20
6.61472448158531
30
0
41
1
10
26.8639666662006
20
6.58847212753855
30
0
41
1
10
26.9689033556834
20
6.55924932773272
30
0
41
1
10
27.0253307272552
20
6.5448196198335
30
0
41
1
10
27.0705889324312
20
6.53402070978183
30
0
41
1
10
27.0989134850369
20
6.52757560633316
30
0
41
1
10
27.1215848973683
20
6.52259338078903
30
0
41
1
10
27.1443370937122
20
6.51780120673479
30
0
41
1
10
27.184463456702
20
6.51003761398295
30
0
41
1
10
27.2425557052449
20
6.50074896432585
30
0
41
1
10
27.336789871931
20
6.4899837181284
30
0
41
1
10
27.4562098059445
20
6.48451364318615
30
0
41
1
10
27.5756297350678
20
6.48998375834131
30
0
41
1
10
27.6698638945754
20
6.50074901745091
30
0
41
1
10
27.7279561581423
20
6.51003764097732
30
0
41
1
10
27.7680825413076
20
6.51780121016381
30
0
41
1
10
27.7908347416418
20
6.52259338019226
30
0
41
1
10
27.8135061531605
20
6.52757560657489
30
0
41
1
10
27.8418307057389
20
6.53402071004803
30
0
41
1
10
27.8870889112937
20
6.54481961970492
30
0
41
1
10
27.9435162827389
20
6.55924932773564
30
0
41
1
10
28.0484529722212
20
6.58847212754074
30
0
41
1
10
28.1302484912662
20
6.61472448158611
30
0
41
1
10
28.1892788291909
20
6.63552444820064
30
0
0
SPLINE
5
141
100
AcDbEntity
8
1
62
256
6
ByLayer
370
18
48
1
60
0
100
AcDbSpline
70
4
71
3
72
29
73
25
40
0
40
0
40
0
40
0
40
0.125000000000946
40
0.171875000000894
40
0.218750000000842
40
0.242187500000817
40
0.265625000000791
40
0.277343750000778
40
0.289062500000765
40
0.312500000000739
40
0.359375000000687
40
0.406250000000635
40
0.500000000000532
40
0.593750000000428
40
0.640625000000376
40
0.687500000000324
40
0.710937500000298
40
0.722656250000285
40
0.734375000000272
40
0.757812500000247
40
0.781250000000221
40
0.828125000000169
40
0.875000000000117
40
1
40
1
40
1
40
1
41
1
10
24.6441051173192
20
10.1806981600901
30
0
41
1
10
24.6233051507035
20
10.1216678221653
30
0
41
1
10
24.5970527966567
20
10.0398723031203
30
0
41
1
10
24.5678299968509
20
9.93493561363752
30
0
41
1
10
24.5534002889517
20
9.87850824206572
30
0
41
1
10
24.5426013789
20
9.83325003688981
30
0
41
1
10
24.5361562754513
20
9.80492548428401
30
0
41
1
10
24.5311740499072
20
9.78225407195268
30
0
41
1
10
24.526381875853
20
9.75950187560869
30
0
41
1
10
24.5186182831011
20
9.71937551261891
30
0
41
1
10
24.5093296334441
20
9.66128326407605
30
0
41
1
10
24.4985643872466
20
9.56704909738997
30
0
41
1
10
24.4930943123043
20
9.44762916337649
30
0
41
1
10
24.4985644274595
20
9.32820923425314
30
0
41
1
10
24.5093296865691
20
9.23397507474553
30
0
41
1
10
24.5186183100955
20
9.17588281117867
30
0
41
1
10
24.526381879282
20
9.13575642801334
30
0
41
1
10
24.5311740493104
20
9.11300422767917
30
0
41
1
10
24.536156275693
20
9.09033281616047
30
0
41
1
10
24.5426013791662
20
9.06200826358204
30
0
41
1
10
24.5534002888231
20
9.01675005802727
30
0
41
1
10
24.5678299968538
20
8.96032268658203
30
0
41
1
10
24.5970527966589
20
8.8553859970998
30
0
41
1
10
24.6233051507043
20
8.77359047805476
30
0
41
1
10
24.6441051173188
20
8.71456014013003
30
0
0
SPLINE
5
142
100
AcDbEntity
8
1
62
256
6
ByLayer
370
18
48
1
60
0
100
AcDbSpline
70
4
71
3
72
29
73
25
40
0
40
0
40
0
40
0
40
0.125000000000945
40
0.171875000000894
40
0.218750000000842
40
0.242187500000816
40
0.26562500000079
40
0.277343750000777
40
0.289062500000764
40
0.312500000000738
40
0.359375000000687
40
0.406250000000635
40
0.500000000000531
40
0.593750000000427
40
0.640625000000376
40
0.687500000000324
40
0.710937500000298
40
0.722656250000285
40
0.734375000000272
40
0.757812500000246
40
0.78125000000022
40
0.828125000000168
40
0.875000000000117
40
1
40
1
40
1
40
1
41
1
10
28.1892788292083
20
12.2597338520018
30
0
41
1
10
28.1302484912835
20
12.2805338186175
30
0
41
1
10
28.0484529722385
20
12.3067861726642
30
0
41
1
10
27.9435162827557
20
12.3360089724701
30
0
41
1
10
27.8870889111839
20
12.3504386803693
30
0
41
1
10
27.841830706008
20
12.361237590421
30
0
41
1
10
27.8135061534022
20
12.3676826938696
30
0
41
1
10
27.7908347410708
20
12.3726649194138
30
0
41
1
10
27.7680825447269
20
12.377457093468
30
0
41
1
10
27.7279561817371
20
12.3852206862198
30
0
41
1
10
27.6698639331942
20
12.3945093358769
30
0
41
1
10
27.5756297665081
20
12.4052745820744
30
0
41
1
10
27.4562098324947
20
12.4107446570166
30
0
41
1
10
27.3367899033713
20
12.4052745418615
30
0
41
1
10
27.2425557438637
20
12.3945092827519
30
0
41
1
10
27.1844634802968
20
12.3852206592255
30
0
41
1
10
27.1443370971315
20
12.377457090039
30
0
41
1
10
27.1215848967973
20
12.3726649200105
30
0
41
1
10
27.0989134852787
20
12.3676826936279
30
0
41
1
10
27.0705889327002
20
12.3612375901548
30
0
41
1
10
27.0253307271454
20
12.3504386804979
30
0
41
1
10
26.9689033557002
20
12.3360089724671
30
0
41
1
10
26.863966666218
20
12.306786172662
30
0
41
1
10
26.782171147173
20
12.2805338186167
30
0
41
1
10
26.7231408092482
20
12.2597338520021
30
0
0
SPLINE
5
143
100
AcDbEntity
8
1
62
256
6
ByLayer
370
18
48
1
60
0
100
AcDbSpline
70
4
71
3
72
8
73
4
40
0
40
0
40
0
40
0
40
1
40
1
40
1
40
1
41
1
10
24.2742293038801
20
12.6296096654408
30
0
41
1
10
24.6657624688369
20
12.2380765004893
30
0
41
1
10
25.0572956337938
20
11.8465433355378
30
0
41
1
10
25.4488287987506
20
11.4550101705862
30
0
0
SPLINE
5
144
100
AcDbEntity
8
1
62
256
6
ByLayer
370
18
48
1
60
0
100
AcDbSpline
70
4
71
3
72
29
73
25
40
0
40
0
40
0
40
0
40
0.125000000000945
40
0.171875000000893
40
0.218750000000841
40
0.242187500000815
40
0.26562500000079
40
0.277343750000777
40
0.289062500000764
40
0.312500000000738
40
0.359375000000686
40
0.406250000000634
40
0.50000000000053
40
0.593750000000427
40
0.640625000000375
40
0.687500000000323
40
0.710937500000297
40
0.722656250000284
40
0.734375000000271
40
0.757812500000245
40
0.781250000000219
40
0.828125000000168
40
0.875000000000116
40
1
40
1
40
1
40
1
41
1
10
30.2683145211199
20
8.7145601401127
30
0
41
1
10
30.2891144877356
20
8.77359047803742
30
0
41
1
10
30.3153668417824
20
8.85538599708246
30
0
41
1
10
30.3445896415882
20
8.96032268656526
30
0
41
1
10
30.3590193494874
20
9.01675005813703
30
0
41
1
10
30.3698182595391
20
9.06200826331298
30
0
41
1
10
30.3762633629878
20
9.09033281591877
30
0
41
1
10
30.3812455885319
20
9.11300422825008
30
0
41
1
10
30.3860377625862
20
9.13575642459406
30
0
41
1
10
30.393801355338
20
9.17588278758387
30
0
41
1
10
30.4030900049951
20
9.23397503612674
30
0
41
1
10
30.4138552511926
20
9.32820920281279
30
0
41
1
10
30.4193253261348
20
9.44762913682629
30
0
41
1
10
30.4138552109797
20
9.56704906594965
30
0
41
1
10
30.40308995187
20
9.66128322545725
30
0
41
1
10
30.3938013283437
20
9.71937548902412
30
0
41
1
10
30.3860377591572
20
9.75950187218942
30
0
41
1
10
30.3812455891287
20
9.78225407252361
30
0
41
1
10
30.3762633627461
20
9.80492548404229
30
0
41
1
10
30.369818259273
20
9.83325003662074
30
0
41
1
10
30.359019349616
20
9.87850824217551
30
0
41
1
10
30.3445896415853
20
9.93493561362075
30
0
41
1
10
30.3153668417803
20
10.039872303103
30
0
41
1
10
30.2891144877348
20
10.121667822148
30
0
41
1
10
30.2683145211203
20
10.1806981600727
30
0
0
SPLINE
5
145
100
AcDbEntity
8
1
62
256
6
ByLayer
370
18
48
1
60
0
100
AcDbSpline
70
4
71
3
72
10
73
6
40
0
40
0
40
0
40
0
40
0.249999999999984
40
0.624999999999992
40
1
40
1
40
1
40
1
41
1
10
30.2683145211203
20
10.1806981600727
30
0
41
1
10
30.2267145878913
20
10.2987588359221
30
0
41
1
10
30.1056412999127
20
10.5893374026474
30
0
41
1
10
29.8463227768212
20
11.0270902075273
30
0
41
1
10
29.5987002180946
20
11.3199007921808
30
0
41
1
10
29.4635908396965
20
11.4550101705783
30
0
0
SPLINE
5
146
100
AcDbEntity
8
1
62
256
6
ByLayer
370
18
48
1
60
0
100
AcDbSpline
70
4
71
3
72
10
73
6
40
0
40
0
40
0
40
0
40
0.249999999999985
40
0.624999999999992
40
1
40
1
40
1
40
1
41
1
10
28.1892788291909
20
6.63552444820064
30
0
41
1
10
28.3073395050403
20
6.67712438142968
30
0
41
1
10
28.5979180717656
20
6.7981976694083
30
0
41
1
10
29.0356708766456
20
7.05751619249972
30
0
41
1
10
29.328481461299
20
7.30513875122637
30
0
41
1
10
29.4635908396965
20
7.44024812962451
30
0
0
SPLINE
5
147
100
AcDbEntity
8
1
62
256
6
ByLayer
370
18
48
1
60
0
100
AcDbSpline
70
4
71
3
72
17
73
13
40
0
40
0
40
0
40
0
40
0.0625
40
0.125
40
0.25
40
0.375
40
0.5
40
0.625
40
0.75
40
0.875
40
0.9375
40
1
40
1
40
1
40
1
41
1
10
26.8905243942703
20
15.2459047964915
30
0
41
1
10
26.9090364064708
20
15.264416808692
30
0
41
1
10
26.9478795375652
20
15.2996214842182
30
0
41
1
10
27.0320907948632
20
15.3620812967199
30
0
41
1
10
27.1480893884117
20
15.4240872756312
30
0
41
1
10
27.2991312509512
20
15.4699053617952
30
0
41
1
10
27.4562096221003
20
15.4853763341994
30
0
41
1
10
27.6132877314793
20
15.4699052721319
30
0
41
1
10
27.7643305024925
20
15.4240882394723
30
0
41
1
10
27.8803287326839
20
15.3620813480352
30
0
41
1
10
27.9645403625294
20
15.2996219307716
30
0
41
1
10
28.0033832319683
20
15.264416808692
30
0
41
1
10
28.0218952441688
20
15.2459047964914
30
0
0
SPLINE
5
148
100
AcDbEntity
8
1
62
256
6
ByLayer
370
18
48
1
60
0
100
AcDbSpline
70
4
71
3
72
8
73
4
40
0
40
0
40
0
40
0
40
1
40
1
40
1
40
1
41
1
10
26.890524394273
20
15.2459047558338
30
0
41
1
10
26.8347298659314
20
14.2505144545565
30
0
41
1
10
26.7789353375898
20
13.2551241532793
30
0
41
1
10
26.7231408092483
20
12.2597338520021
30
0
0
SPLINE
5
149
100
AcDbEntity
8
1
62
256
6
ByLayer
370
18
48
1
60
0
100
AcDbSpline
70
4
71
3
72
8
73
4
40
0
40
0
40
0
40
0
40
1
40
1
40
1
40
1
41
1
10
33.254485424952
20
8.88194372515486
30
0
41
1
10
32.3823870614875
20
8.00984536169045
30
0
41
1
10
31.5102886980466
20
7.1377469982495
30
0
41
1
10
30.6381903345591
20
6.26564863476193
30
0
0
SPLINE
5
14A
100
AcDbEntity
8
1
62
256
6
ByLayer
370
18
48
1
60
0
100
AcDbSpline
70
4
71
3
72
10
73
6
40
0
40
0
40
0
40
0
40
0.396152066068007
40
0.940405994028014
40
1
40
1
40
1
40
1
41
1
10
33.4806415575333
20
-4.78078771702712
30
0
41
1
10
33.4860677826207
20
-4.761925985348
30
0
41
1
10
33.4925536797463
20
-4.7166905414133
30
0
41
1
10
33.4830782852213
20
-4.66858857365236
30
0
41
1
10
33.4711306925929
20
-4.64016141633624
30
0
41
1
10
33.4698913246353
20
-4.63736259389535
30
0
0
SPLINE
5
14B
100
AcDbEntity
8
1
62
256
6
ByLayer
370
18
48
1
60
0
100
AcDbSpline
70
4
71
3
72
8
73
4
40
0
40
0
40
0
40
0
40
1
40
1
40
1
40
1
41
1
10
25.6340486771104
20
4.90582926153161
30
0
41
1
10
25.1807755527063
20
5.3591023859357
30
0
41
1
10
24.7275024282995
20
5.81237551034252
30
0
41
1
10
24.2742293038801
20
6.26564863476193
30
0
0
SPLINE
5
14C
100
AcDbEntity
8
1
62
256
6
ByLayer
370
18
48
1
60
0
100
AcDbSpline
70
4
71
3
72
13
73
9
40
0
40
0
40
0
40
0
40
0.105758546601459
40
0.211517093202919
40
0.423034186405838
40
0.634551279608757
40
0.846068372811675
40
1
40
1
40
1
40
1
41
1
10
33.2544854656097
20
-5.00665742873662
30
0
41
1
10
33.2729974778102
20
-4.99740142263636
30
0
41
1
10
33.3082021533364
20
-4.97797985708917
30
0
41
1
10
33.3706619658381
20
-4.9358742284401
30
0
41
1
10
33.4326679447494
20
-4.87787493166582
30
0
41
1
10
33.4784860309134
20
-4.80235400039604
30
0
41
1
10
33.4925530140984
20
-4.73094223816301
30
0
41
1
10
33.4860687198945
20
-4.68571026957284
30
0
41
1
10
33.4806444874615
20
-4.66685184574203
30
0
0
SPLINE
5
14D
100
AcDbEntity
8
1
62
256
6
ByLayer
370
18
48
1
60
0
100
AcDbSpline
70
4
71
3
72
8
73
4
40
0
40
0
40
0
40
0
40
1
40
1
40
1
40
1
41
1
10
32.3215276404599
20
-1.52064631626749
30
0
41
1
10
32.3573819469806
20
-1.5385734695279
30
0
41
1
10
32.3932362535015
20
-1.55650062278829
30
0
41
1
10
32.4290905600223
20
-1.57442777604871
30
0
0
SPLINE
5
14E
100
AcDbEntity
8
1
62
256
6
ByLayer
370
18
48
1
60
0
100
AcDbSpline
70
4
71
3
72
15
73
11
40
0
40
0
40
0
40
0
40
0.0805011178333095
40
0.161002235666619
40
0.322004471333238
40
0.483006706999857
40
0.644008942666476
40
0.805011178333095
40
0.966013413999714
40
1
40
1
40
1
40
1
41
1
10
22.4833290784164
20
-2.14011320099928
30
0
41
1
10
22.4648176624655
20
-2.13085749302388
30
0
41
1
10
22.4296224649966
20
-2.11143247968741
30
0
41
1
10
22.3671915137245
20
-2.06931830903619
30
0
41
1
10
22.305198109395
20
-2.01131929670203
30
0
41
1
10
22.2593451215513
20
-1.93580648644922
30
0
41
1
10
22.2438492444589
20
-1.85727036605252
30
0
41
1
10
22.2593448161306
20
-1.77873396251871
30
0
41
1
10
22.2931411703486
20
-1.72307920448375
30
0
41
1
10
22.3186284069903
20
-1.69404058290226
30
0
41
1
10
22.3232782818198
20
-1.68902722719781
30
0
0
SPLINE
5
14F
100
AcDbEntity
8
1
62
256
6
ByLayer
370
18
48
1
60
0
100
AcDbSpline
70
4
71
3
72
8
73
4
40
0
40
0
40
0
40
0
40
1
40
1
40
1
40
1
41
1
10
33.0387994107744
20
-5.19003572854135
30
0
41
1
10
33.0472683251728
20
-5.16062372524488
30
0
41
1
10
33.0557372395712
20
-5.13121172194838
30
0
41
1
10
33.0642061539696
20
-5.10179971865188
30
0
0
SPLINE
5
150
100
AcDbEntity
8
1
62
256
6
ByLayer
370
18
48
1
60
0
100
AcDbSpline
70
4
71
3
72
13
73
9
40
0
40
0
40
0
40
0
40
0.153955008082001
40
0.365466256061501
40
0.576977504041
40
0.7884887520205
40
0.89424437601025
40
1
40
1
40
1
40
1
41
1
10
21.4317780809047
20
-4.66684143307842
30
0
41
1
10
21.426351855818
20
-4.68570316475621
30
0
41
1
10
21.4198659586931
20
-4.73093860868957
30
0
41
1
10
21.4339336971891
20
-4.8023536723916
30
0
41
1
10
21.4797507298487
20
-4.87787505789817
30
0
41
1
10
21.5417576212857
20
-4.93587417299383
30
0
41
1
10
21.6042170385493
20
-4.97797998791654
30
0
41
1
10
21.639422160629
20
-4.99740142263596
30
0
41
1
10
21.6579341728295
20
-5.00665742873622
30
0
0
SPLINE
5
151
100
AcDbEntity
8
1
62
256
6
ByLayer
370
18
48
1
60
0
100
AcDbSpline
70
4
71
3
72
8
73
4
40
0
40
0
40
0
40
0
40
1
40
1
40
1
40
1
41
1
10
26.845336051912
20
4.45552646217701
30
0
41
1
10
26.8046043043522
20
5.18219245751817
30
0
41
1
10
26.7638725567923
20
5.90885845285931
30
0
41
1
10
26.7231408092324
20
6.6355244482005
30
0
0
SPLINE
5
152
100
AcDbEntity
8
1
62
256
6
ByLayer
370
18
48
1
60
0
100
AcDbSpline
70
4
71
3
72
8
73
4
40
0
40
0
40
0
40
0
40
1
40
1
40
1
40
1
41
1
10
30.638190334559
20
6.26564863476193
30
0
41
1
10
30.1091264412
20
5.73658474140291
30
0
41
1
10
29.5800625478582
20
5.20752084806105
30
0
41
1
10
29.0509986545178
20
4.67845695472073
30
0
0
SPLINE
5
153
100
AcDbEntity
8
1
62
256
6
ByLayer
370
18
48
1
60
0
100
AcDbSpline
70
4
71
3
72
8
73
4
40
0
40
0
40
0
40
0
40
1
40
1
40
1
40
1
41
1
10
28.0663878847954
20
4.44311494494025
30
0
41
1
10
28.1073515329273
20
5.17391811269374
30
0
41
1
10
28.1483151810591
20
5.90472128044721
30
0
41
1
10
28.1892788291909
20
6.63552444820067
30
0
0
SPLINE
5
154
100
AcDbEntity
8
1
62
256
6
ByLayer
370
13
48
1
60
0
100
AcDbSpline
70
4
71
3
72
8
73
4
40
0
40
0
40
0
40
0
40
1
40
1
40
1
40
1
41
1
10
21.5041720159749
20
-1.95045954287537
30
0
41
1
10
21.5186858631801
20
-1.94504112047864
30
0
41
1
10
21.5330750160489
20
-1.93961063344921
30
0
41
1
10
21.547333570426
20
-1.93414942605153
30
0
0
SPLINE
5
155
100
AcDbEntity
8
1
62
256
6
ByLayer
370
13
48
1
60
0
100
AcDbSpline
70
4
71
3
72
20
73
16
40
0
40
0
40
0
40
0
40
0.124999999999998
40
0.124999999999998
40
0.249999999999995
40
0.249999999999995
40
0.499999999999994
40
0.499999999999994
40
0.624999999999995
40
0.624999999999995
40
0.749999999999997
40
0.749999999999997
40
0.874999999999998
40
0.874999999999998
40
1
40
1
40
1
40
1
41
1
10
24.6581424896715
20
1.36845763361916
30
0
41
1
10
24.6354359998899
20
1.38217290614344
30
0
41
1
10
24.6145156366564
20
1.39942926138906
30
0
41
1
10
24.5760637452473
20
1.44055763528783
30
0
41
1
10
24.5585126434723
20
1.46462652106027
30
0
41
1
10
24.5132094078856
20
1.54322945212166
30
0
41
1
10
24.4917895675238
20
1.60579323272171
30
0
41
1
10
24.4741755580081
20
1.70528452631456
30
0
41
1
10
24.4706212642438
20
1.73990639367673
30
0
41
1
10
24.4681919358521
20
1.8091659438299
30
0
41
1
10
24.4692457107788
20
1.84404405358956
30
0
41
1
10
24.4757670647378
20
1.91428279647908
30
0
41
1
10
24.4812675113449
20
1.94951149902494
30
0
41
1
10
24.4962423009696
20
2.01804558835317
30
0
41
1
10
24.5057380746077
20
2.05165675097322
30
0
41
1
10
24.5172860006525
20
2.08459548159513
30
0
0
SPLINE
5
156
100
AcDbEntity
8
1
62
256
6
ByLayer
370
13
48
1
60
0
100
AcDbSpline
70
4
71
3
72
8
73
4
40
0
40
0
40
0
40
0
40
1
40
1
40
1
40
1
41
1
10
32.7358470100569
20
-9.8461021056869
30
0
41
1
10
31.6014110583384
20
-10.9225259359496
30
0
41
1
10
30.4651440148339
20
-11.9971403830034
30
0
41
1
10
29.3281522769277
20
-13.0710387272972
30
0
0
SPLINE
5
157
100
AcDbEntity
8
1
62
256
6
ByLayer
370
13
48
1
60
0
100
AcDbSpline
70
4
71
3
72
8
73
4
40
0
40
0
40
0
40
0
40
1
40
1
40
1
40
1
41
1
10
21.6689401911619
20
-1.95522419632414
30
0
41
1
10
21.6612559810033
20
-1.93478307940094
30
0
41
1
10
21.6551191840166
20
-1.91566737102625
30
0
41
1
10
21.6505339419114
20
-1.89789554668769
30
0
0
SPLINE
5
158
100
AcDbEntity
8
1
62
256
6
ByLayer
370
13
48
1
60
0
100
AcDbSpline
70
4
71
3
72
8
73
4
40
0
40
0
40
0
40
0
40
1
40
1
40
1
40
1
41
1
10
32.735847010057
20
3.91577508083134
30
0
41
1
10
31.6014189401689
20
4.2041999729324
30
0
41
1
10
30.4651499221691
20
4.49214255509668
30
0
41
1
10
29.3281522769278
20
4.77989424423336
30
0
0
SPLINE
5
159
100
AcDbEntity
8
1
62
256
6
ByLayer
370
13
48
1
60
0
100
AcDbSpline
70
4
71
3
72
26
73
22
40
0
40
0
40
0
40
0
40
0.125000000000001
40
0.125000000000001
40
0.250000000000001
40
0.250000000000001
40
0.312500000000001
40
0.312500000000001
40
0.375000000000002
40
0.375000000000002
40
0.500000000000002
40
0.500000000000002
40
0.562500000000002
40
0.562500000000002
40
0.625000000000002
40
0.625000000000002
40
0.750000000000001
40
0.750000000000001
40
0.875000000000001
40
0.875000000000001
40
1
40
1
40
1
40
1
41
1
10
15.2794895370887
20
9.17828844068308
30
0
41
1
10
15.3848851441844
20
9.09284726945921
30
0
41
1
10
15.5063125926722
20
8.98490287930321
30
0
41
1
10
15.7858759249911
20
8.73050500945007
30
0
41
1
10
15.9440132153104
20
8.58401626551324
30
0
41
1
10
16.2134842169654
20
8.33946541397148
30
0
41
1
10
16.3091314652032
20
8.25342974034689
30
0
41
1
10
16.5091807232469
20
8.07635619196776
30
0
41
1
10
16.6136808724211
20
7.98522102967334
30
0
41
1
10
16.9409537783062
20
7.70562153316192
30
0
41
1
10
17.1774902168015
20
7.5109861790088
30
0
41
1
10
17.5613797837099
20
7.21245243866736
30
0
41
1
10
17.69419266657
20
7.1118374380768
30
0
41
1
10
17.9698047699516
20
6.90930574448964
30
0
41
1
10
18.1121247941732
20
6.80776319038699
30
0
41
1
10
18.5485953629172
20
6.50635123561869
30
0
41
1
10
18.8537633896709
20
6.30859942919125
30
0
41
1
10
19.4918951025035
20
5.92487807617403
30
0
41
1
10
19.8251630283775
20
5.73873481873312
30
0
41
1
10
20.518046572178
20
5.38357683084018
30
0
41
1
10
20.8746896260452
20
5.21605412078085
30
0
41
1
10
21.2412196896809
20
5.06006706464157
30
0
0
SPLINE
5
15A
100
AcDbEntity
8
1
62
256
6
ByLayer
370
13
48
1
60
0
100
AcDbSpline
70
4
71
3
72
12
73
8
40
0
40
0
40
0
40
0
40
0.5
40
0.5
40
0.75
40
0.75
40
1
40
1
40
1
40
1
41
1
10
21.2412196896808
20
-9.38792479702934
30
0
41
1
10
21.3723798094568
20
-9.39090465409978
30
0
41
1
10
21.4971325927482
20
-9.41811247879102
30
0
41
1
10
21.6750412890078
20
-9.49238122839722
30
0
41
1
10
21.7327911465587
20
-9.5230544579598
30
0
41
1
10
21.8406504275189
20
-9.59410252169974
30
0
41
1
10
21.8913283231986
20
-9.63466605388044
30
0
41
1
10
21.9384641501755
20
-9.68058295995013
30
0
0
SPLINE
5
15B
100
AcDbEntity
8
1
62
256
6
ByLayer
370
13
48
1
60
0
100
AcDbSpline
70
4
71
3
72
34
73
30
40
0
40
0
40
0
40
0
40
0.0625000000000005
40
0.0625000000000005
40
0.125000000000001
40
0.125000000000001
40
0.250000000000002
40
0.250000000000002
40
0.312500000000003
40
0.312500000000003
40
0.375000000000003
40
0.375000000000003
40
0.5
40
0.5
40
0.5625
40
0.5625
40
0.625
40
0.625
40
0.6875
40
0.6875
40
0.75
40
0.75
40
0.8125
40
0.8125
40
0.875
40
0.875
40
0.9375
40
0.9375
40
1
40
1
40
1
40
1
41
1
10
17.4102931685588
20
9.38412713913354
30
0
41
1
10
17.3287006145763
20
9.38412713913354
30
0
41
1
10
17.2470382663306
20
9.38431511870664
30
0
41
1
10
17.0835692227489
20
9.38505554610441
30
0
41
1
10
17.0013298924444
20
9.38561244756721
30
0
41
1
10
16.758043415585
20
9.38771817885032
30
0
41
1
10
16.6007233119516
20
9.38971072267526
30
0
41
1
10
16.3723753724799
20
9.39272844933637
30
0
41
1
10
16.2975414439109
20
9.39373441690253
30
0
41
1
10
16.1506437380614
20
9.39552272852691
30
0
41
1
10
16.0781368906926
20
9.39630830292353
30
0
41
1
10
15.8697027158205
20
9.39783864194453
30
0
41
1
10
15.7421580548544
20
9.39781713215351
30
0
41
1
10
15.5705643022846
20
9.39397378496247
30
0
41
1
10
15.5166441363736
20
9.39202685334598
30
0
41
1
10
15.4192044220209
20
9.38649956217165
30
0
41
1
10
15.3752466230636
20
9.38291544756828
30
0
41
1
10
15.2974142802325
20
9.3736851413241
30
0
41
1
10
15.2633066245626
20
9.36797438804794
30
0
41
1
10
15.2075619748527
20
9.35431495375167
30
0
41
1
10
15.1858992795318
20
9.34641157914422
30
0
41
1
10
15.1548796045728
20
9.32826718930895
30
0
41
1
10
15.1455215332842
20
9.31802675858032
30
0
41
1
10
15.1395646454088
20
9.29499151742834
30
0
41
1
10
15.1430706558134
20
9.28241528957827
30
0
41
1
10
15.1621104499946
20
9.25552970560977
30
0
41
1
10
15.1776365474124
20
9.24117726859458
30
0
41
1
10
15.2202770424167
20
9.21076571750984
30
0
41
1
10
15.2473733908813
20
9.19475383513497
30
0
41
1
10
15.2794895370886
20
9.1782884406831
30
0
0
SPLINE
5
15C
100
AcDbEntity
8
1
62
256
6
ByLayer
370
13
48
1
60
0
100
AcDbSpline
70
4
71
3
72
10
73
6
40
0
40
0
40
0
40
0
40
0.5
40
0.5
40
1
40
1
40
1
40
1
41
1
10
21.9384641501756
20
4.85803309907871
30
0
41
1
10
22.5204485104988
20
4.79255032498062
30
0
41
1
10
23.1260642936995
20
4.7589590989574
30
0
41
1
10
24.3669051148947
20
4.77048493170344
30
0
41
1
10
24.9992526562105
20
4.81528761267845
30
0
41
1
10
25.637999301645
20
4.90118834660825
30
0
0
SPLINE
5
15D
100
AcDbEntity
8
1
62
256
6
ByLayer
370
13
48
1
60
0
100
AcDbSpline
70
4
71
3
72
8
73
4
40
0
40
0
40
0
40
0
40
1
40
1
40
1
40
1
41
1
10
21.547333570426
20
-1.93414942605199
30
0
41
1
10
21.5821997331382
20
-1.92079524296318
30
0
41
1
10
21.6166251915275
20
-1.90873683927302
30
0
41
1
10
21.6505339419063
20
-1.89789554668334
30
0
0
SPLINE
5
15E
100
AcDbEntity
8
1
62
256
6
ByLayer
370
13
48
1
60
0
100
AcDbSpline
70
4
71
3
72
10
73
6
40
0
40
0
40
0
40
0
40
0.601036152011548
40
0.601036152011548
40
1
40
1
40
1
40
1
41
1
10
33.0388
20
-1.0478721844369
30
0
41
1
10
33.0388
20
-1.03691977289927
30
0
41
1
10
33.0373536679896
20
-1.02768665735417
30
0
41
1
10
33.032202236695
20
-1.01519741089177
30
0
41
1
10
33.0293910723684
20
-1.01096416473845
30
0
41
1
10
33.0258222263935
20
-1.00754600826875
30
0
0
SPLINE
5
15F
100
AcDbEntity
8
1
62
256
6
ByLayer
370
13
48
1
60
0
100
AcDbSpline
70
4
71
3
72
14
73
10
40
0
40
0
40
0
40
0
40
0.163860923861352
40
0.163860923861352
40
0.581930461930691
40
0.581930461930691
40
0.790965230965346
40
0.790965230965346
40
1
40
1
40
1
40
1
41
1
10
32.9884463047916
20
-0.997076730553118
30
0
41
1
10
32.9800592219738
20
-0.997585203379003
30
0
41
1
10
32.970592505018
20
-0.999244686158846
30
0
41
1
10
32.9330142695985
20
-1.00925696813559
30
0
41
1
10
32.8998671208175
20
-1.02376786796191
30
0
41
1
10
32.8425303480834
20
-1.05598722101186
30
0
41
1
10
32.8220698262842
20
-1.06854955346879
30
0
41
1
10
32.779990417247
20
-1.09649686953145
30
0
41
1
10
32.7582203580087
20
-1.11196145725177
30
0
41
1
10
32.7358470100568
20
-1.12893029048914
30
0
0
SPLINE
5
160
100
AcDbEntity
8
1
62
256
6
ByLayer
370
13
48
1
60
0
100
AcDbSpline
70
4
71
3
72
10
73
6
40
0
40
0
40
0
40
0
40
0.5
40
0.5
40
1
40
1
40
1
40
1
41
1
10
26.8983243766499
20
-4.19456043802217
30
0
41
1
10
26.1777514050322
20
-3.83462244749941
30
0
41
1
10
25.4585746971468
20
-3.47399263349334
30
0
41
1
10
24.0247908153408
20
-2.75046888386041
30
0
41
1
10
23.3101302996673
20
-2.38760137810954
30
0
41
1
10
22.5995037857036
20
-2.02273509730645
30
0
0
SPLINE
5
161
100
AcDbEntity
8
1
62
256
6
ByLayer
370
13
48
1
60
0
100
AcDbSpline
70
4
71
3
72
8
73
4
40
0
40
0
40
0
40
0
40
1
40
1
40
1
40
1
41
1
10
31.7427515379834
20
-2.31558888777204
30
0
41
1
10
30.5075953207838
20
-2.94583360803469
30
0
41
1
10
29.2625742000267
20
-3.57117897773014
30
0
41
1
10
28.013757553091
20
-4.19463932004268
30
0
0
SPLINE
5
162
100
AcDbEntity
8
1
62
256
6
ByLayer
370
13
48
1
60
0
100
AcDbSpline
70
4
71
3
72
8
73
4
40
0
40
0
40
0
40
0
40
1
40
1
40
1
40
1
41
1
10
25.637999301645
20
4.90118834660825
30
0
41
1
10
25.7717396996247
20
4.83140939601944
30
0
41
1
10
25.9063956762519
20
4.7634896224537
30
0
41
1
10
26.0419962568465
20
4.69748796482142
30
0
0
SPLINE
5
163
100
AcDbEntity
8
1
62
256
6
ByLayer
370
13
48
1
60
0
100
AcDbSpline
70
4
71
3
72
16
73
12
40
0
40
0
40
0
40
0
40
0.125000000000001
40
0.125000000000001
40
0.250000000000001
40
0.250000000000001
40
0.500000000000001
40
0.500000000000001
40
0.75
40
0.75
40
1
40
1
40
1
40
1
41
1
10
31.7427515379834
20
-2.31558888777204
30
0
41
1
10
31.7715598021827
20
-2.25015213824318
30
0
41
1
10
31.8042117730493
20
-2.18673651336005
30
0
41
1
10
31.8733769122261
20
-2.0656945079443
30
0
41
1
10
31.9098911028246
20
-2.00799207751703
30
0
41
1
10
32.0236952932022
20
-1.84110563178888
30
0
41
1
10
32.1053915983499
20
-1.73779593466992
30
0
41
1
10
32.2757094903678
20
-1.54357219729957
30
0
41
1
10
32.3633986436654
20
-1.45381474994596
30
0
41
1
10
32.5428817929533
20
-1.28575759146582
30
0
41
1
10
32.6346922984318
20
-1.20750929947994
30
0
41
1
10
32.7285115272894
20
-1.13456359273488
30
0
0
SPLINE
5
164
100
AcDbEntity
8
1
62
256
6
ByLayer
370
13
48
1
60
0
100
AcDbSpline
70
4
71
3
72
8
73
4
40
0
40
0
40
0
40
0
40
1
40
1
40
1
40
1
41
1
10
24.6581424896715
20
1.36845763361919
30
0
41
1
10
25.3875714419661
20
0.927864791484325
30
0
41
1
10
26.137300474037
20
0.495035527566813
30
0
41
1
10
26.89832437665
20
0.0665258826792012
30
0
0
SPLINE
5
165
100
AcDbEntity
8
1
62
256
6
ByLayer
370
13
48
1
60
0
100
AcDbSpline
70
4
71
3
72
22
73
18
40
0
40
0
40
0
40
0
40
0.125
40
0.125
40
0.25
40
0.25
40
0.375
40
0.375
40
0.5
40
0.5
40
0.625
40
0.625
40
0.75
40
0.75
40
0.875
40
0.875
40
1
40
1
40
1
40
1
41
1
10
21.9384641501758
20
-1.631337431405
30
0
41
1
10
21.9643380868614
20
-1.62046588013044
30
0
41
1
10
21.9913511430792
20
-1.61248085349021
30
0
41
1
10
22.0456759927721
20
-1.60285698222515
30
0
41
1
10
22.0732266167218
20
-1.60109931472294
30
0
41
1
10
22.1290995948237
20
-1.60379934310049
30
0
41
1
10
22.1576308939266
20
-1.60835449471483
30
0
41
1
10
22.2135226844123
20
-1.62354140068507
30
0
41
1
10
22.2410796006367
20
-1.63413886666979
30
0
41
1
10
22.2954371239224
20
-1.66130630957076
30
0
41
1
10
22.322469215182
20
-1.67807432406408
30
0
41
1
10
22.3742045925213
20
-1.71672350774116
30
0
41
1
10
22.3989930025427
20
-1.73858115523126
30
0
41
1
10
22.4465029923275
20
-1.78724092704368
30
0
41
1
10
22.4694061703108
20
-1.81430654251622
30
0
41
1
10
22.5120691961265
20
-1.87217084102687
30
0
41
1
10
22.53181398043
20
-1.90286236281199
30
0
41
1
10
22.5500480742938
20
-1.9352522641791
30
0
0
SPLINE
5
166
100
AcDbEntity
8
1
62
256
6
ByLayer
370
13
48
1
60
0
100
AcDbSpline
70
4
71
3
72
16
73
12
40
0
40
0
40
0
40
0
40
0.500000000000002
40
0.500000000000002
40
0.625000000000002
40
0.625000000000002
40
0.750000000000001
40
0.750000000000001
40
0.875000000000001
40
0.875000000000001
40
1
40
1
40
1
40
1
41
1
10
30.3957665121175
20
2.08427904442968
30
0
41
1
10
30.4418187747623
20
1.95294956638213
30
0
41
1
10
30.4564834777645
20
1.80348793980681
30
0
41
1
10
30.4269764196714
20
1.63795613469313
30
0
41
1
10
30.4185862752889
20
1.60541204839646
30
0
41
1
10
30.3974204056281
20
1.54485130961848
30
0
41
1
10
30.3846334477474
20
1.51651875836603
30
0
41
1
10
30.3543488188147
20
1.46406849905679
30
0
41
1
10
30.3367689442317
20
1.44003608603188
30
0
41
1
10
30.2984974528434
20
1.39915345437666
30
0
41
1
10
30.2776131158163
20
1.38190815115678
30
0
41
1
10
30.2548542380505
20
1.36816908897765
30
0
0
SPLINE
5
167
100
AcDbEntity
8
1
62
256
6
ByLayer
370
13
48
1
60
0
100
AcDbSpline
70
4
71
3
72
32
73
28
40
0
40
0
40
0
40
0
40
0.12499999999999
40
0.12499999999999
40
0.187499999999987
40
0.187499999999987
40
0.249999999999985
40
0.249999999999985
40
0.374999999999985
40
0.374999999999985
40
0.437499999999986
40
0.437499999999986
40
0.499999999999988
40
0.499999999999988
40
0.56249999999999
40
0.56249999999999
40
0.624999999999992
40
0.624999999999992
40
0.687499999999993
40
0.687499999999993
40
0.749999999999994
40
0.749999999999994
40
0.812499999999996
40
0.812499999999996
40
0.874999999999997
40
0.874999999999997
40
1
40
1
40
1
40
1
41
1
10
17.4102931685589
20
-4.25905086767469
30
0
41
1
10
17.2469136853072
20
-4.25905086767469
30
0
41
1
10
17.0841132411255
20
-4.271453260984
30
0
41
1
10
16.84084122567
20
-4.30981018517136
30
0
41
1
10
16.7596931452626
20
-4.32600104291868
30
0
41
1
10
16.6012674977951
20
-4.36452593085824
30
0
41
1
10
16.5235661767518
20
-4.38690596894733
30
0
41
1
10
16.2950867661142
20
-4.46346188348087
30
0
41
1
10
16.1488534301556
20
-4.52690985117934
30
0
41
1
10
15.9401628220199
20
-4.64308022559527
30
0
41
1
10
15.8724901429207
20
-4.68537099674052
30
0
41
1
10
15.7448104575836
20
-4.77508912547475
30
0
41
1
10
15.6843176920921
20
-4.82276607198162
30
0
41
1
10
15.5704796291678
20
-4.92396627636975
30
0
41
1
10
15.5170027441291
20
-4.9776321832513
30
0
41
1
10
15.4185778672394
20
-5.09071400826687
30
0
41
1
10
15.3745936430047
20
-5.14899288065649
30
0
41
1
10
15.297211091319
20
-5.26888999399685
30
0
41
1
10
15.2638100768839
20
-5.33050776601098
30
0
41
1
10
15.2082213560787
20
-5.45712290114616
30
0
41
1
10
15.1859300038416
20
-5.52277928230802
30
0
41
1
10
15.1546684184478
20
-5.65319323139136
30
0
41
1
10
15.1454690776452
20
-5.71814950430323
30
0
41
1
10
15.1396019479923
20
-5.84749574935415
30
0
41
1
10
15.1429856794597
20
-5.91219456708885
30
0
41
1
10
15.1719581008284
20
-6.10334941788179
30
0
41
1
10
15.2152263202392
20
-6.22314770325036
30
0
41
1
10
15.2794895370888
20
-6.33647006210234
30
0
0
SPLINE
5
168
100
AcDbEntity
8
1
62
256
6
ByLayer
370
13
48
1
60
0
100
AcDbSpline
70
4
71
3
72
18
73
14
40
0
40
0
40
0
40
0
40
0.250000000000003
40
0.250000000000003
40
0.375000000000004
40
0.375000000000004
40
0.500000000000005
40
0.500000000000005
40
0.625000000000005
40
0.625000000000005
40
0.750000000000006
40
0.750000000000006
40
1
40
1
40
1
40
1
41
1
10
27.4562098192195
20
-11.6455702732325
30
0
41
1
10
27.3087791932049
20
-11.6455702732325
30
0
41
1
10
27.1662918145216
20
-11.6702897727105
30
0
41
1
10
26.9590630345648
20
-11.739852409009
30
0
41
1
10
26.8911196185071
20
-11.7686190530751
30
0
41
1
10
26.7616306920932
20
-11.8342418844237
30
0
41
1
10
26.6994571378017
20
-11.8712837454693
30
0
41
1
10
26.5796460128831
20
-11.952817091778
30
0
41
1
10
26.5217111703977
20
-11.997593176034
30
0
41
1
10
26.4118758776083
20
-12.0922527706154
30
0
41
1
10
26.359889755924
20
-12.1421241922397
30
0
41
1
10
26.2115087029719
20
-12.2982835496211
30
0
41
1
10
26.1226126766384
20
-12.4110482348468
30
0
41
1
10
26.0419962568464
20
-12.5309035525501
30
0
0
SPLINE
5
169
100
AcDbEntity
8
1
62
256
6
ByLayer
370
13
48
1
60
0
100
AcDbSpline
70
4
71
3
72
12
73
8
40
0
40
0
40
0
40
0
40
0.406254957596965
40
0.406254957596965
40
0.812509915193929
40
0.812509915193929
40
1
40
1
40
1
40
1
41
1
10
33.0388
20
8.43737261801562
30
0
41
1
10
33.0388
20
8.46003605444665
30
0
41
1
10
33.0373609687262
20
8.48400604961364
30
0
41
1
10
33.0311252375927
20
8.53462442753454
30
0
41
1
10
33.0262990403391
20
8.56123319400723
30
0
41
1
10
33.0168063093814
20
8.60075357257207
30
0
41
1
10
33.0134493958433
20
8.61337004225288
30
0
41
1
10
33.0097248611726
20
8.62612157893329
30
0
0
SPLINE
5
16A
100
AcDbEntity
8
1
62
256
6
ByLayer
370
13
48
1
60
0
100
AcDbSpline
70
4
71
3
72
12
73
8
40
0
40
0
40
0
40
0
40
0.500000000000002
40
0.500000000000002
40
0.750000000000001
40
0.750000000000001
40
1
40
1
40
1
40
1
41
1
10
21.9080177798758
20
-2.3334800584386
30
0
41
1
10
21.8549185911316
20
-2.26729575645399
30
0
41
1
10
21.8097079817075
20
-2.20362420654834
30
0
41
1
10
21.7524804213069
20
-2.11399146478721
30
0
41
1
10
21.7350241870358
20
-2.08479545246266
30
0
41
1
10
21.7044724625098
20
-2.03021826459147
30
0
41
1
10
21.6912473227551
20
-2.00466279010104
30
0
41
1
10
21.6798819339673
20
-1.98081114323693
30
0
0
SPLINE
5
16B
100
AcDbEntity
8
1
62
256
6
ByLayer
370
13
48
1
60
0
100
AcDbSpline
70
4
71
3
72
18
73
14
40
0
40
0
40
0
40
0
40
0.249999999999997
40
0.249999999999997
40
0.374999999999999
40
0.374999999999999
40
0.500000000000002
40
0.500000000000002
40
0.625000000000004
40
0.625000000000004
40
0.750000000000007
40
0.750000000000007
40
1
40
1
40
1
40
1
41
1
10
26.0419962568465
20
4.69748796482142
30
0
41
1
10
26.1225966613337
20
4.65825686213245
30
0
41
1
10
26.2114698284178
20
4.6207937998341
30
0
41
1
10
26.3597985065209
20
4.56836082423291
30
0
41
1
10
26.4117641079391
20
4.55151577696145
30
0
41
1
10
26.5215497120922
20
4.51938851691133
30
0
41
1
10
26.5794830326291
20
4.50410262459366
30
0
41
1
10
26.6992034430395
20
4.47617619724858
30
0
41
1
10
26.7612944756543
20
4.46343672254835
30
0
41
1
10
26.8905144548055
20
4.44080712423036
30
0
41
1
10
26.9581838249758
20
4.4308550965668
30
0
41
1
10
27.1660615297647
20
4.40658455829544
30
0
41
1
10
27.3087942049373
20
4.39794112313069
30
0
41
1
10
27.4562098192196
20
4.39794112313069
30
0
0
SPLINE
5
16C
100
AcDbEntity
8
1
62
256
6
ByLayer
370
13
48
1
60
0
100
AcDbSpline
70
4
71
3
72
10
73
6
40
0
40
0
40
0
40
0
40
0.804978622007169
40
0.804978622007169
40
1
40
1
40
1
40
1
41
1
10
32.1443728090001
20
4.30223826333634
30
0
41
1
10
32.1167856307981
20
4.24669254338883
30
0
41
1
10
32.094608198861
20
4.18928431790423
30
0
41
1
10
32.073615132635
20
4.11571027497428
30
0
41
1
10
32.0698300515511
20
4.10121728638828
30
0
41
1
10
32.0663615746429
20
4.08661724029471
30
0
0
SPLINE
5
16D
100
AcDbEntity
8
1
62
256
6
ByLayer
370
13
48
1
60
0
100
AcDbSpline
70
4
71
3
72
10
73
6
40
0
40
0
40
0
40
0
40
0.5
40
0.5
40
1
40
1
40
1
40
1
41
1
10
21.2412196896809
20
-2.07132874532161
30
0
41
1
10
21.2839834607937
20
-2.04760805301689
30
0
41
1
10
21.3274060634168
20
-2.02574614766513
30
0
41
1
10
21.4153036746931
20
-1.98545122878994
30
0
41
1
10
21.4600524725556
20
-1.96693059419786
30
0
41
1
10
21.504172015975
20
-1.95045954287579
30
0
0
SPLINE
5
16E
100
AcDbEntity
8
1
62
256
6
ByLayer
370
13
48
1
60
0
100
AcDbSpline
70
4
71
3
72
8
73
4
40
0
40
0
40
0
40
0
40
1
40
1
40
1
40
1
41
1
10
32.6365860123454
20
-5.31548820518773
30
0
41
1
10
32.7351531355666
20
-5.51310474554651
30
0
41
1
10
32.8340814395543
20
-5.71056053326964
30
0
41
1
10
32.9332271909999
20
-5.90791954050158
30
0
0
SPLINE
5
16F
100
AcDbEntity
8
1
62
256
6
ByLayer
370
13
48
1
60
0
100
AcDbSpline
70
4
71
3
72
8
73
4
40
0
40
0
40
0
40
0
40
1
40
1
40
1
40
1
41
1
10
26.0419962568564
20
-12.5309035525352
30
0
41
1
10
25.9063996965758
20
-12.7324998136172
30
0
41
1
10
25.7717436239922
20
-12.9350755690666
30
0
41
1
10
25.6379993016449
20
-13.1386008895385
30
0
0
SPLINE
5
170
100
AcDbEntity
8
1
62
256
6
ByLayer
370
13
48
1
60
0
100
AcDbSpline
70
4
71
3
72
8
73
4
40
0
40
0
40
0
40
0
40
1
40
1
40
1
40
1
41
1
10
28.0137575530913
20
-12.5948544387039
30
0
41
1
10
28.2372298538973
20
-12.4690936866575
30
0
41
1
10
28.4597713600244
20
-12.3429379406995
30
0
41
1
10
28.6811612913404
20
-12.2162935101266
30
0
0
SPLINE
5
171
100
AcDbEntity
8
1
62
256
6
ByLayer
370
13
48
1
60
0
100
AcDbSpline
70
4
71
3
72
8
73
4
40
0
40
0
40
0
40
0
40
1
40
1
40
1
40
1
41
1
10
21.6798819339673
20
-1.98081114323691
30
0
41
1
10
21.6758020662086
20
-1.97224904590342
30
0
41
1
10
21.6721347588438
20
-1.96372221110443
30
0
41
1
10
21.6689401911619
20
-1.95522419632414
30
0
0
SPLINE
5
172
100
AcDbEntity
8
1
62
256
6
ByLayer
370
13
48
1
60
0
100
AcDbSpline
70
4
71
3
72
12
73
8
40
0
40
0
40
0
40
0
40
0.440266928142773
40
0.440266928142773
40
0.880533856285547
40
0.880533856285547
40
1
40
1
40
1
40
1
41
1
10
32.4964626173812
20
-1.57672050400234
30
0
41
1
10
32.4848297646877
20
-1.54796882723574
30
0
41
1
10
32.4730543092994
20
-1.52153349756219
30
0
41
1
10
32.4491967242158
20
-1.47326460331902
30
0
41
1
10
32.4371324591761
20
-1.45151492526532
30
0
41
1
10
32.4221009691641
20
-1.42751866921302
30
0
41
1
10
32.4189037881481
20
-1.42259463790936
30
0
41
1
10
32.4157193136771
20
-1.41786640359973
30
0
0
SPLINE
5
173
100
AcDbEntity
8
1
62
256
6
ByLayer
370
13
48
1
60
0
100
AcDbSpline
70
4
71
3
72
10
73
6
40
0
40
0
40
0
40
0
40
0.5
40
0.5
40
1
40
1
40
1
40
1
41
1
10
21.9384641501755
20
-9.6805829599501
30
0
41
1
10
22.5204485104987
20
-10.2475173476737
30
0
41
1
10
23.1260642936995
20
-10.8132860546306
30
0
41
1
10
24.3669051148947
20
-11.9641910831752
30
0
41
1
10
24.9992526562104
20
-12.5462631486938
30
0
41
1
10
25.637999301645
20
-13.1386008895384
30
0
0
SPLINE
5
174
100
AcDbEntity
8
1
62
256
6
ByLayer
370
13
48
1
60
0
100
AcDbSpline
70
4
71
3
72
12
73
8
40
0
40
0
40
0
40
0
40
0.5
40
0.5
40
0.75
40
0.75
40
1
40
1
40
1
40
1
41
1
10
21.2412196896809
20
5.06006706464157
30
0
41
1
10
21.3723798094568
20
5.0042482301269
30
0
41
1
10
21.4971325927484
20
4.95991130238579
30
0
41
1
10
21.6750412890079
20
4.90866799955785
30
0
41
1
10
21.7327911465588
20
4.89424122241712
30
0
41
1
10
21.8406504275189
20
4.87166472418363
30
0
41
1
10
21.8913283231987
20
4.86333665175175
30
0
41
1
10
21.9384641501756
20
4.85803309907871
30
0
0
SPLINE
5
175
100
AcDbEntity
8
1
62
256
6
ByLayer
370
13
48
1
60
0
100
AcDbSpline
70
4
71
3
72
10
73
6
40
0
40
0
40
0
40
0
40
0.5
40
0.5
40
1
40
1
40
1
40
1
41
1
10
21.2412196896809
20
8.97393115730395
30
0
41
1
10
21.2845559962855
20
8.96661624352203
30
0
41
1
10
21.3287080759088
20
8.96231232487935
30
0
41
1
10
21.4164974958384
20
8.9601301454332
30
0
41
1
10
21.4604003733344
20
8.96219936040134
30
0
41
1
10
21.504172015975
20
8.96757932633719
30
0
0
SPLINE
5
176
100
AcDbEntity
8
1
62
256
6
ByLayer
370
13
48
1
60
0
100
AcDbSpline
70
4
71
3
72
14
73
10
40
0
40
0
40
0
40
0
40
0.173375220895019
40
0.173375220895019
40
0.346750441790039
40
0.346750441790039
40
0.693500883580078
40
0.693500883580078
40
1
40
1
40
1
40
1
41
1
10
16.8416253190359
20
-5.20929250387482
30
0
41
1
10
16.8161727431184
20
-5.16453765506267
30
0
41
1
10
16.7947597263747
20
-5.11786733642703
30
0
41
1
10
16.7606984942073
20
-5.02037948836536
30
0
41
1
10
16.7479888699383
20
-4.96909163352487
30
0
41
1
10
16.7251611241513
20
-4.81165077905772
30
0
41
1
10
16.7301410393184
20
-4.7035620742794
30
0
41
1
10
16.7773411001796
20
-4.49596352716924
30
0
41
1
10
16.8142472064945
20
-4.4008865174913
30
0
41
1
10
16.8631881563373
20
-4.30863273948376
30
0
0
SPLINE
5
177
100
AcDbEntity
8
1
62
256
6
ByLayer
370
13
48
1
60
0
100
AcDbSpline
70
4
71
3
72
14
73
10
40
0
40
0
40
0
40
0
40
0.25
40
0.25
40
0.5
40
0.5
40
0.75
40
0.75
40
1
40
1
40
1
40
1
41
1
10
20.9074258336819
20
-2.4067925334503
30
0
41
1
10
20.9259123554601
20
-2.37207819215703
30
0
41
1
10
20.9470206381714
20
-2.3387231370545
30
0
41
1
10
20.9944856411541
20
-2.274758751527
30
0
41
1
10
21.0209570857069
20
-2.24411132805781
30
0
41
1
10
21.0773937055519
20
-2.18756686170178
30
0
41
1
10
21.1075423668692
20
-2.16138961701651
30
0
41
1
10
21.1716170803987
20
-2.1131591349274
30
0
41
1
10
21.2058217891756
20
-2.09096365319502
30
0
41
1
10
21.2412196896809
20
-2.07132874532161
30
0
0
SPLINE
5
178
100
AcDbEntity
8
1
62
256
6
ByLayer
370
13
48
1
60
0
100
AcDbSpline
70
4
71
3
72
10
73
6
40
0
40
0
40
0
40
0
40
0.179064821739292
40
0.179064821739292
40
1
40
1
40
1
40
1
41
1
10
22.0546838008445
20
-2.48868341055521
30
0
41
1
10
22.0450544484931
20
-2.47977918691075
30
0
41
1
10
22.0355707600769
20
-2.47082245554182
30
0
41
1
10
21.9835258011491
20
-2.42056213598278
30
0
41
1
10
21.9438326701245
20
-2.37812073125906
30
0
41
1
10
21.9080177798758
20
-2.3334800584386
30
0
0
SPLINE
5
179
100
AcDbEntity
8
1
62
256
6
ByLayer
370
13
48
1
60
0
100
AcDbSpline
70
4
71
3
72
8
73
4
40
0
40
0
40
0
40
0
40
1
40
1
40
1
40
1
41
1
10
22.5995037857036
20
-2.02273509730645
30
0
41
1
10
22.5829600959229
20
-1.99359206306576
30
0
41
1
10
22.5664745439238
20
-1.96443121516515
30
0
41
1
10
22.5500480742938
20
-1.9352522641791
30
0
0
SPLINE
5
17A
100
AcDbEntity
8
1
62
256
6
ByLayer
370
13
48
1
60
0
100
AcDbSpline
70
4
71
3
72
8
73
4
40
0
40
0
40
0
40
0
40
1
40
1
40
1
40
1
41
1
10
32.933227191
20
5.8877117011852
30
0
41
1
10
32.6699980977024
20
5.35935855516033
30
0
41
1
10
32.4069449471446
20
4.83091714250833
30
0
41
1
10
32.1443728090001
20
4.30223826333634
30
0
0
SPLINE
5
17B
100
AcDbEntity
8
1
62
256
6
ByLayer
370
13
48
1
60
0
100
AcDbSpline
70
4
71
3
72
34
73
30
40
0
40
0
40
0
40
0
40
0.0392160394283206
40
0.0392160394283206
40
0.103268303466433
40
0.103268303466433
40
0.167320567504546
40
0.167320567504546
40
0.231372831542658
40
0.231372831542658
40
0.295425095580771
40
0.295425095580771
40
0.359477359618883
40
0.359477359618883
40
0.423529623656996
40
0.423529623656996
40
0.487581887695108
40
0.487581887695108
40
0.551634151733221
40
0.551634151733221
40
0.615686415771333
40
0.615686415771333
40
0.743790943847554
40
0.743790943847554
40
0.871895471923776
40
0.871895471923776
40
0.935947735961888
40
0.935947735961888
40
1
40
1
40
1
40
1
41
1
10
19.0439724055162
20
-4.26001670810894
30
0
41
1
10
19.0384569168228
20
-4.30962145793501
30
0
41
1
10
19.0306409409492
20
-4.35900965439774
30
0
41
1
10
19.0041282709914
20
-4.48851205701146
30
0
41
1
10
18.9814220651718
20
-4.56894334252701
30
0
41
1
10
18.9247576038124
20
-4.72551134473122
30
0
41
1
10
18.8912410419555
20
-4.80077435590715
30
0
41
1
10
18.8146558878954
20
-4.94568253903012
30
0
41
1
10
18.7711189039799
20
-5.0159070275646
30
0
41
1
10
18.6774838395132
20
-5.14686195481343
30
0
41
1
10
18.6273878897557
20
-5.20783517321544
30
0
41
1
10
18.5212614472086
20
-5.32136940754197
30
0
41
1
10
18.464867094977
20
-5.37414043594205
30
0
41
1
10
18.3499332250675
20
-5.4684333723871
30
0
41
1
10
18.2910572998655
20
-5.51038775738485
30
0
41
1
10
18.1707680982897
20
-5.58435087045279
30
0
41
1
10
18.108965997008
20
-5.61646411764946
30
0
41
1
10
17.9864307053127
20
-5.6690585475389
30
0
41
1
10
17.9253622145372
20
-5.68981025002606
30
0
41
1
10
17.8036642108113
20
-5.72045453381438
30
0
41
1
10
17.742576937417
20
-5.73036074334522
30
0
41
1
10
17.563641464766
20
-5.74274263385337
30
0
41
1
10
17.4507923831562
20
-5.72864150549029
30
0
41
1
10
17.2373985413344
20
-5.65388370355413
30
0
41
1
10
17.1415226748468
20
-5.59468726034834
30
0
41
1
10
17.0142352824551
20
-5.47317056279289
30
0
41
1
10
16.9744540137909
20
-5.42684794052752
30
0
41
1
10
16.9026886347085
20
-5.3252716399503
30
0
41
1
10
16.8703668278401
20
-5.26975988295868
30
0
41
1
10
16.8416253190359
20
-5.20929250387485
30
0
0
SPLINE
5
17C
100
AcDbEntity
8
1
62
256
6
ByLayer
370
13
48
1
60
0
100
AcDbSpline
70
4
71
3
72
10
73
6
40
0
40
0
40
0
40
0
40
0.5
40
0.5
40
1
40
1
40
1
40
1
41
1
10
20.9074258336824
20
9.07037751103087
30
0
41
1
10
20.9446324275054
20
9.05147506529613
30
0
41
1
10
20.9921796969173
20
9.03341936135246
30
0
41
1
10
21.1061372123857
20
9.00032127321089
30
0
41
1
10
21.1702611169416
20
8.98590854721891
30
0
41
1
10
21.2412196896809
20
8.97393115730398
30
0
0
SPLINE
5
17D
100
AcDbEntity
8
1
62
256
6
ByLayer
370
13
48
1
60
0
100
AcDbSpline
70
4
71
3
72
8
73
4
40
0
40
0
40
0
40
0
40
1
40
1
40
1
40
1
41
1
10
21.504172015975
20
8.96757932633719
30
0
41
1
10
21.5186792875956
20
8.96936241288438
30
0
41
1
10
21.5330685573804
20
8.9714178208994
30
0
41
1
10
21.5473335704261
20
8.97373424751788
30
0
0
SPLINE
5
17E
100
AcDbEntity
8
1
62
256
6
ByLayer
370
13
48
1
60
0
100
AcDbSpline
70
4
71
3
72
26
73
22
40
0
40
0
40
0
40
0
40
0.124999999999999
40
0.124999999999999
40
0.249999999999997
40
0.249999999999997
40
0.312499999999997
40
0.312499999999997
40
0.374999999999997
40
0.374999999999997
40
0.499999999999996
40
0.499999999999996
40
0.562499999999997
40
0.562499999999997
40
0.624999999999997
40
0.624999999999997
40
0.749999999999998
40
0.749999999999998
40
0.874999999999999
40
0.874999999999999
40
1
40
1
40
1
40
1
41
1
10
15.2794895370888
20
-6.33647006210236
30
0
41
1
10
15.3848851441844
20
-6.63035114035591
30
0
41
1
10
15.5063125926723
20
-6.89999895375431
30
0
41
1
10
15.7858759249912
20
-7.39450266863042
30
0
41
1
10
15.9440132153105
20
-7.61932909115995
30
0
41
1
10
16.2134842169655
20
-7.92461822089962
30
0
41
1
10
16.3091314652032
20
-8.02139584855831
30
0
41
1
10
16.5091807232469
20
-8.20197681564753
30
0
41
1
10
16.6136808724212
20
-8.28599723451174
30
0
41
1
10
16.9409537783063
20
-8.52077022441605
30
0
41
1
10
17.1774902168015
20
-8.65426674987648
30
0
41
1
10
17.5613797837099
20
-8.82523960164764
30
0
41
1
10
17.69419266657
20
-8.87734246946735
30
0
41
1
10
17.9698047699516
20
-8.97256417433405
30
0
41
1
10
18.1121247941733
20
-9.01548423043437
30
0
41
1
10
18.5485953629172
20
-9.13077341315841
30
0
41
1
10
18.8537633896709
20
-9.19027220645228
30
0
41
1
10
19.4918951025035
20
-9.28332891434644
30
0
41
1
10
19.8251630283774
20
-9.31688401172096
30
0
41
1
10
20.518046572178
20
-9.36510121396859
30
0
41
1
10
20.8746896260453
20
-9.37959751581363
30
0
41
1
10
21.241219689681
20
-9.38792479702934
30
0
0
SPLINE
5
17F
100
AcDbEntity
8
1
62
256
6
ByLayer
370
13
48
1
60
0
100
AcDbSpline
70
4
71
3
72
14
73
10
40
0
40
0
40
0
40
0
40
0.25
40
0.25
40
0.5
40
0.5
40
0.75
40
0.75
40
1
40
1
40
1
40
1
41
1
10
32.7358470100569
20
-9.8461021056869
30
0
41
1
10
32.7839507583026
20
-9.800458258753
30
0
41
1
10
32.8267628316846
20
-9.75073030905588
30
0
41
1
10
32.9019981346627
20
-9.64325632338344
30
0
41
1
10
32.9344745639074
20
-9.58505107678872
30
0
41
1
10
32.9860841507384
20
-9.46545921973978
30
0
41
1
10
33.0056791334255
20
-9.40355726864075
30
0
41
1
10
33.0322009322906
20
-9.27545702862926
30
0
41
1
10
33.0387999999999
20
-9.21033795437103
30
0
41
1
10
33.0387999999999
20
-9.14566709611307
30
0
0
SPLINE
5
180
100
AcDbEntity
8
1
62
256
6
ByLayer
370
13
48
1
60
0
100
AcDbSpline
70
4
71
3
72
8
73
4
40
0
40
0
40
0
40
0
40
1
40
1
40
1
40
1
41
1
10
32.7285115272894
20
-1.13456359273488
30
0
41
1
10
32.7309499744467
20
-1.13266766741748
30
0
41
1
10
32.7333951288806
20
-1.13078989428735
30
0
41
1
10
32.735847010057
20
-1.1289302904905
30
0
0
SPLINE
5
181
100
AcDbEntity
8
1
62
256
6
ByLayer
370
13
48
1
60
0
100
AcDbSpline
70
4
71
3
72
20
73
16
40
0
40
0
40
0
40
0
40
0.125
40
0.125
40
0.25
40
0.25
40
0.375
40
0.375
40
0.5
40
0.5
40
0.625
40
0.625
40
0.75
40
0.75
40
1
40
1
40
1
40
1
41
1
10
28.0137575530914
20
0.0664369646245291
30
0
41
1
10
27.9786105128726
20
0.0466576980479374
30
0
41
1
10
27.9401958542282
20
0.0286668705435886
30
0
41
1
10
27.8563255526662
20
-0.0034610996889342
30
0
41
1
10
27.8105252547207
20
-0.0176116093997223
30
0
41
1
10
27.7156809578799
20
-0.0403400502259501
30
0
41
1
10
27.6661844628576
20
-0.049138024750448
30
0
41
1
10
27.5626979318578
20
-0.0611748589479362
30
0
41
1
10
27.5096207160246
20
-0.0642369376017768
30
0
41
1
10
27.4043654111963
20
-0.0643030950029129
30
0
41
1
10
27.3509878496101
20
-0.0612819024939029
30
0
41
1
10
27.2476593270611
20
-0.0493839332634423
30
0
41
1
10
27.1979057416262
20
-0.0406253772083858
30
0
41
1
10
27.0541311128719
20
-0.0062825806681701
30
0
41
1
10
26.9687623344911
20
0.026864389528356
30
0
41
1
10
26.89832437665
20
0.0665258826792012
30
0
0
SPLINE
5
182
100
AcDbEntity
8
1
62
256
6
ByLayer
370
13
48
1
60
0
100
AcDbSpline
70
4
71
3
72
8
73
4
40
0
40
0
40
0
40
0
40
1
40
1
40
1
40
1
41
1
10
20.7828494222775
20
-2.67083963898676
30
0
41
1
10
20.8203475258842
20
-2.58143020927068
30
0
41
1
10
20.861412235919
20
-2.49319774022922
30
0
41
1
10
20.9074258336819
20
-2.40679253345016
30
0
0
SPLINE
5
183
100
AcDbEntity
8
1
62
256
6
ByLayer
370
13
48
1
60
0
100
AcDbSpline
70
4
71
3
72
22
73
18
40
0
40
0
40
0
40
0
40
0.125
40
0.125
40
0.25
40
0.25
40
0.375
40
0.375
40
0.5
40
0.5
40
0.625
40
0.625
40
0.75
40
0.75
40
0.875
40
0.875
40
1
40
1
40
1
40
1
41
1
10
26.8983243766499
20
-4.19456043802217
30
0
41
1
10
26.9347167856625
20
-4.21273904183633
30
0
41
1
10
26.9743860875205
20
-4.22912107682964
30
0
41
1
10
27.0605733811703
20
-4.25813032681475
30
0
41
1
10
27.1064045724788
20
-4.27047664598865
30
0
41
1
10
27.2012323557759
20
-4.29034012007233
30
0
41
1
10
27.2508636224915
20
-4.2980008415405
30
0
41
1
10
27.352839374652
20
-4.30828468494104
30
0
41
1
10
27.4040827692477
20
-4.31082943788545
30
0
41
1
10
27.5070667387809
20
-4.31086544991427
30
0
41
1
10
27.5593749940139
20
-4.30827478964198
30
0
41
1
10
27.660679196664
20
-4.2980835187372
30
0
41
1
10
27.7098764682552
20
-4.29054601656037
30
0
41
1
10
27.805371501216
20
-4.27060431381449
30
0
41
1
10
27.8515365863692
20
-4.25815100314563
30
0
41
1
10
27.9370059991268
20
-4.22942922498319
30
0
41
1
10
27.9768573955454
20
-4.2130613877747
30
0
41
1
10
28.013757553091
20
-4.19463932004268
30
0
0
SPLINE
5
184
100
AcDbEntity
8
1
62
256
6
ByLayer
370
13
48
1
60
0
100
AcDbSpline
70
4
71
3
72
22
73
18
40
0
40
0
40
0
40
0
40
0.125
40
0.125
40
0.25
40
0.25
40
0.375
40
0.375
40
0.5
40
0.5
40
0.625
40
0.625
40
0.75
40
0.75
40
0.875
40
0.875
40
1
40
1
40
1
40
1
41
1
10
28.0137575530913
20
-12.5948544387039
30
0
41
1
10
27.9788798924104
20
-12.6144821098785
30
0
41
1
10
27.9397018095606
20
-12.6328510702376
30
0
41
1
10
27.8553944842915
20
-12.6650712439135
30
0
41
1
10
27.8104991756167
20
-12.678928323291
30
0
41
1
10
27.7148342325446
20
-12.7018151266971
30
0
41
1
10
27.6641697740787
20
-12.7107241181304
30
0
41
1
10
27.5615872646857
20
-12.7225332242467
30
0
41
1
10
27.5085349961452
20
-12.7255860456636
30
0
41
1
10
27.4024219971484
20
-12.7255370461901
30
0
41
1
10
27.3501525042998
20
-12.72250355368
30
0
41
1
10
27.2471429352759
20
-12.7105890911082
30
0
41
1
10
27.1965161589856
20
-12.7016268753452
30
0
41
1
10
27.101496886699
20
-12.6788451440256
30
0
41
1
10
27.0560867549956
20
-12.6648186566832
30
0
41
1
10
26.9718675960288
20
-12.6325568383161
30
0
41
1
10
26.9334222487527
20
-12.6145280756221
30
0
41
1
10
26.8983243766499
20
-12.5947655206492
30
0
0
SPLINE
5
185
100
AcDbEntity
8
1
62
256
6
ByLayer
370
13
48
1
60
0
100
AcDbSpline
70
4
71
3
72
8
73
4
40
0
40
0
40
0
40
0
40
1
40
1
40
1
40
1
41
1
10
28.0137575530914
20
0.0664369646245291
30
0
41
1
10
28.7752830758454
20
0.494991295961029
30
0
41
1
10
29.5253478755985
20
0.92778123783151
30
0
41
1
10
30.2548542380505
20
1.36816908897765
30
0
0
SPLINE
5
186
100
AcDbEntity
8
1
62
256
6
ByLayer
370
13
48
1
60
0
100
AcDbSpline
70
4
71
3
72
14
73
10
40
0
40
0
40
0
40
0
40
0.25
40
0.25
40
0.5
40
0.5
40
0.75
40
0.75
40
1
40
1
40
1
40
1
41
1
10
21.650533941907
20
-1.89789554668766
30
0
41
1
10
21.6697502773151
20
-1.86714028778533
30
0
41
1
10
21.6910146267919
20
-1.8376239544304
30
0
41
1
10
21.7358537565619
20
-1.78310293095657
30
0
41
1
10
21.7594117469859
20
-1.75804201221862
30
0
41
1
10
21.8083467480407
20
-1.71258626425558
30
0
41
1
10
21.8337256131498
20
-1.69218489306169
30
0
41
1
10
21.8860428885219
20
-1.65682625343567
30
0
41
1
10
21.9124994094162
20
-1.64224713617588
30
0
41
1
10
21.9384641501754
20
-1.63133743140517
30
0
0
SPLINE
5
187
100
AcDbEntity
8
1
62
256
6
ByLayer
370
13
48
1
60
0
100
AcDbSpline
70
4
71
3
72
10
73
6
40
0
40
0
40
0
40
0
40
0.5
40
0.5
40
1
40
1
40
1
40
1
41
1
10
33.0388
20
-6.35206737261501
30
0
41
1
10
33.0387999999999
20
-6.27481860270026
30
0
41
1
10
33.0298112531154
20
-6.1990081050827
30
0
41
1
10
32.9945065610248
20
-6.05015960190394
30
0
41
1
10
32.9677080047044
20
-5.97655686547057
30
0
41
1
10
32.9332271909999
20
-5.90791954050158
30
0
0
SPLINE
5
188
100
AcDbEntity
8
1
62
256
6
ByLayer
370
13
48
1
60
0
100
AcDbSpline
70
4
71
3
72
8
73
4
40
0
40
0
40
0
40
0
40
1
40
1
40
1
40
1
41
1
10
20.7828494222775
20
9.13822978383817
30
0
41
1
10
20.8203475258844
20
9.11647817017786
30
0
41
1
10
20.8614122359196
20
9.09375426889557
30
0
41
1
10
20.9074258336828
20
9.07037751103067
30
0
0
SPLINE
5
189
100
AcDbEntity
8
1
62
256
6
ByLayer
370
13
48
1
60
0
100
AcDbSpline
70
4
71
3
72
8
73
4
40
0
40
0
40
0
40
0
40
1
40
1
40
1
40
1
41
1
10
26.2900891890158
20
-12.2498297314953
30
0
41
1
10
26.4918990015075
20
-12.3651548327865
30
0
41
1
10
26.6947020779102
20
-12.4801119353616
30
0
41
1
10
26.8983243766499
20
-12.5947655206492
30
0
0
SPLINE
5
18A
100
AcDbEntity
8
1
62
256
6
ByLayer
370
13
48
1
60
0
100
AcDbSpline
70
4
71
3
72
14
73
10
40
0
40
0
40
0
40
0
40
0.25
40
0.25
40
0.5
40
0.5
40
0.75
40
0.75
40
1
40
1
40
1
40
1
41
1
10
32.735847010057
20
3.91577508083134
30
0
41
1
10
32.7836111216601
20
3.90363120049102
30
0
41
1
10
32.8271768491585
20
3.89008976348481
30
0
41
1
10
32.9026061065171
20
3.8611616742335
30
0
41
1
10
32.9343372186556
20
3.84590164740516
30
0
41
1
10
32.9860433942853
20
3.81381769642599
30
0
41
1
10
33.0059689883889
20
3.79687860037927
30
0
41
1
10
33.0321754518326
20
3.76284540117069
30
0
41
1
10
33.0388
20
3.74559121253719
30
0
41
1
10
33.0388
20
3.72809408566556
30
0
0
SPLINE
5
18B
100
AcDbEntity
8
1
62
256
6
ByLayer
370
13
48
1
60
0
100
AcDbSpline
70
4
71
3
72
10
73
6
40
0
40
0
40
0
40
0
40
0.5
40
0.5
40
1
40
1
40
1
40
1
41
1
10
32.933227191
20
5.8877117011852
30
0
41
1
10
32.9678759779314
20
5.95725870813584
30
0
41
1
10
32.9945220116439
20
6.03129392219799
30
0
41
1
10
33.0297670937161
20
6.18137354430704
30
0
41
1
10
33.0388
20
6.25856276015759
30
0
41
1
10
33.0388
20
6.3364212043777
30
0
0
SPLINE
5
18C
100
AcDbEntity
8
1
62
256
6
ByLayer
370
18
48
1
60
0
100
AcDbSpline
70
4
71
1
72
4
73
2
40
0
40
0
40
1
40
1
41
1
10
22.2571924003898
20
-1.80026882353616
30
0
41
1
10
21.4317913814508
20
-4.66679521908287
30
0
0
SPLINE
5
18D
100
AcDbEntity
8
1
62
256
6
ByLayer
370
18
48
1
60
0
100
AcDbSpline
70
4
71
1
72
4
73
2
40
0
40
0
40
1
40
1
41
1
10
33.4806283022607
20
-4.66679560300366
30
0
41
1
10
32.6552272767964
20
-1.80026966457271
30
0
0
SPLINE
5
18E
100
AcDbEntity
8
1
62
256
6
ByLayer
370
18
48
1
60
0
100
AcDbSpline
70
4
71
1
72
4
73
2
40
0
40
0
40
1
40
1
41
1
10
33.0313520486071
20
-6.3411204834527
30
0
41
1
10
33.4806282569883
20
-4.78083393101866
30
0
0
LINE
5
81
100
AcDbEntity
8
SK1
62
256
6
ByLayer
370
13
48
1
60
0
100
AcDbLine
10
-31.6
20
5.969363
30
0
11
-20.015
21
5.969363
31
0
39
0
210
0
220
0
230
1
0
LINE
5
83
100
AcDbEntity
8
SK1
62
256
6
ByLayer
370
13
48
1
60
0
100
AcDbLine
10
-51.6
20
8.52175
30
0
11
-51.6
21
-8.52175
31
0
39
0
210
0
220
0
230
1
0
LINE
5
84
100
AcDbEntity
8
SK1
62
256
6
ByLayer
370
13
48
1
60
0
100
AcDbLine
10
-31.6
20
-5.969363
30
0
11
-31.6
21
5.969363
31
0
39
0
210
0
220
0
230
1
0
LINE
5
85
100
AcDbEntity
8
SK1
62
256
6
ByLayer
370
13
48
1
60
0
100
AcDbLine
10
-20.015
20
-5.969363
30
0
11
-20.015
21
5.969363
31
0
39
0
210
0
220
0
230
1
0
LINE
5
86
100
AcDbEntity
8
SK1
62
256
6
ByLayer
370
13
48
1
60
0
100
AcDbLine
10
-20.015
20
-5.969363
30
0
11
-31.6
21
-5.969363
31
0
39
0
210
0
220
0
230
1
0
LINE
5
87
100
AcDbEntity
8
SK1
62
256
6
ByLayer
370
13
48
1
60
0
100
AcDbLine
10
-50.6
20
9.52175
30
0
11
-50.6
21
-9.52175
31
0
39
0
210
0
220
0
230
1
0
LINE
5
88
100
AcDbEntity
8
SK1
62
256
6
ByLayer
370
13
48
1
60
0
100
AcDbLine
10
-0.015
20
-9.52175
30
0
11
-0.015
21
9.52175
31
0
39
0
210
0
220
0
230
1
0
LINE
5
89
100
AcDbEntity
8
1
62
256
6
ByLayer
370
13
48
1
60
0
100
AcDbLine
10
33.0388
20
-1.495652
30
0
11
33.0388
21
-3.132372
31
0
39
0
210
0
220
0
230
1
0
LINE
5
8A
100
AcDbEntity
8
1
62
256
6
ByLayer
370
13
48
1
60
0
100
AcDbLine
10
32.735847
20
-1.12893
30
0
11
32.735847
21
3.915775
31
0
39
0
210
0
220
0
230
1
0
LINE
5
8B
100
AcDbEntity
8
1
62
256
6
ByLayer
370
13
48
1
60
0
100
AcDbLine
10
20.782849
20
9.13823
30
0
11
20.635952
21
8.991333
31
0
39
0
210
0
220
0
230
1
0
LINE
5
8C
100
AcDbEntity
8
1
62
256
6
ByLayer
370
13
48
1
60
0
100
AcDbLine
10
24.658142
20
1.368458
30
0
11
26.39555
21
2.237161
31
0
39
0
210
0
220
0
230
1
0
LINE
5
8D
100
AcDbEntity
8
1
62
256
6
ByLayer
370
13
48
1
60
0
100
AcDbLine
10
26.041996
20
2.846951
30
0
11
24.517286
21
2.084595
31
0
39
0
210
0
220
0
230
1
0
LINE
5
8E
100
AcDbEntity
8
1
62
256
6
ByLayer
370
13
48
1
60
0
100
AcDbLine
10
20.635952
20
-4.062654
30
0
11
20.782849
21
-2.67084
31
0
39
0
210
0
220
0
230
1
0
LINE
5
8F
100
AcDbEntity
8
1
62
256
6
ByLayer
370
13
48
1
60
0
100
AcDbLine
10
27.45621
20
-11.64557
30
0
11
27.45621
21
-7.740065
31
0
39
0
210
0
220
0
230
1
0
LINE
5
90
100
AcDbEntity
8
1
62
256
6
ByLayer
370
13
48
1
60
0
100
AcDbLine
10
29.328152
20
4.779894
30
0
11
28.870423
21
4.612354
31
0
39
0
210
0
220
0
230
1
0
LINE
5
91
100
AcDbEntity
8
1
62
256
6
ByLayer
370
13
48
1
60
0
100
AcDbLine
10
20.635952
20
-4.062654
30
0
11
20.243158
21
-4.259051
31
0
39
0
210
0
220
0
230
1
0
LINE
5
92
100
AcDbEntity
8
1
62
256
6
ByLayer
370
13
48
1
60
0
100
AcDbLine
10
28.870423
20
4.612354
30
0
11
28.870423
21
2.846951
31
0
39
0
210
0
220
0
230
1
0
LINE
5
93
100
AcDbEntity
8
1
62
256
6
ByLayer
370
13
48
1
60
0
100
AcDbLine
10
33.0388
20
8.187456
30
0
11
33.0388
21
6.336421
31
0
39
0
210
0
220
0
230
1
0
LINE
5
94
100
AcDbEntity
8
1
62
256
6
ByLayer
370
13
48
1
60
0
100
AcDbLine
10
33.0388
20
-1.047872
30
0
11
33.0388
21
-1.495652
31
0
39
0
210
0
220
0
230
1
0
LINE
5
95
100
AcDbEntity
8
1
62
256
6
ByLayer
370
13
48
1
60
0
100
AcDbLine
10
21.24122
20
-2.071329
30
0
11
21.24122
21
5.060067
31
0
39
0
210
0
220
0
230
1
0
LINE
5
96
100
AcDbEntity
8
1
62
256
6
ByLayer
370
13
48
1
60
0
100
AcDbLine
10
21.938464
20
4.858033
30
0
11
21.938464
21
-1.631337
31
0
39
0
210
0
220
0
230
1
0
LINE
5
97
100
AcDbEntity
8
1
62
256
6
ByLayer
370
13
48
1
60
0
100
AcDbLine
10
0
20
9.52175
30
0
11
0
21
-9.52175
31
0
39
0
210
0
220
0
230
1
0
LINE
5
98
100
AcDbEntity
8
1
62
256
6
ByLayer
370
13
48
1
60
0
100
AcDbLine
10
25.319814
20
5.220059
30
0
11
25.319814
21
4.87724
31
0
39
0
210
0
220
0
230
1
0
LINE
5
99
100
AcDbEntity
8
1
62
256
6
ByLayer
370
13
48
1
60
0
100
AcDbLine
10
28.870423
20
-12.445769
30
0
11
29.328152
21
-13.071039
31
0
39
0
210
0
220
0
230
1
0
LINE
5
9A
100
AcDbEntity
8
1
62
256
6
ByLayer
370
13
48
1
60
0
100
AcDbLine
10
17.410293
20
9.384127
30
0
11
20.243158
21
9.384127
31
0
39
0
210
0
220
0
230
1
0
LINE
5
9B
100
AcDbEntity
8
1
62
256
6
ByLayer
370
13
48
1
60
0
100
AcDbLine
10
33.0388
20
6.336421
30
0
11
33.0388
21
3.735537
31
0
39
0
210
0
220
0
230
1
0
LINE
5
9C
100
AcDbEntity
8
1
62
256
6
ByLayer
370
13
48
1
60
0
100
AcDbLine
10
26.898324
20
-4.19456
30
0
11
26.898324
21
0.066526
31
0
39
0
210
0
220
0
230
1
0
LINE
5
9D
100
AcDbEntity
8
1
62
256
6
ByLayer
370
13
48
1
60
0
100
AcDbLine
10
0.329937
20
-9.397438
30
0
11
0.329937
21
9.397438
31
0
39
0
210
0
220
0
230
1
0
LINE
5
9E
100
AcDbEntity
8
1
62
256
6
ByLayer
370
13
48
1
60
0
100
AcDbLine
10
33.0388
20
-5.145363
30
0
11
33.0388
21
-6.352067
31
0
39
0
210
0
220
0
230
1
0
LINE
5
9F
100
AcDbEntity
8
1
62
256
6
ByLayer
370
13
48
1
60
0
100
AcDbLine
10
26.041996
20
4.697488
30
0
11
26.041996
21
2.846951
31
0
39
0
210
0
220
0
230
1
0
LINE
5
A0
100
AcDbEntity
8
1
62
256
6
ByLayer
370
13
48
1
60
0
100
AcDbLine
10
-0.015
20
-9.52175
30
0
11
-0.015
21
9.52175
31
0
39
0
210
0
220
0
230
1
0
LINE
5
A1
100
AcDbEntity
8
1
62
256
6
ByLayer
370
13
48
1
60
0
100
AcDbLine
10
28.51687
20
2.237161
30
0
11
30.254854
21
1.368169
31
0
39
0
210
0
220
0
230
1
0
LINE
5
A2
100
AcDbEntity
8
1
62
256
6
ByLayer
370
13
48
1
60
0
100
AcDbLine
10
30.395767
20
2.084279
30
0
11
28.870423
21
2.846951
31
0
39
0
210
0
220
0
230
1
0
LINE
5
A3
100
AcDbEntity
8
1
62
256
6
ByLayer
370
13
48
1
60
0
100
AcDbLine
10
32.933227
20
3.855855
30
0
11
32.933227
21
5.887712
31
0
39
0
210
0
220
0
230
1
0
LINE
5
A4
100
AcDbEntity
8
1
62
256
6
ByLayer
370
13
48
1
60
0
100
AcDbLine
10
31.819613
20
-2.172164
30
0
11
31.742752
21
-2.315589
31
0
39
0
210
0
220
0
230
1
0
LINE
5
A5
100
AcDbEntity
8
1
62
256
6
ByLayer
370
13
48
1
60
0
100
AcDbLine
10
32.144373
20
4.302238
30
0
11
32.144373
21
4.086598
31
0
39
0
210
0
220
0
230
1
0
LINE
5
A6
100
AcDbEntity
8
1
62
256
6
ByLayer
370
13
48
1
60
0
100
AcDbLine
10
33.0388
20
-6.352067
30
0
11
33.0388
21
-9.145667
31
0
39
0
210
0
220
0
230
1
0
LINE
5
A7
100
AcDbEntity
8
1
62
256
6
ByLayer
370
13
48
1
60
0
100
AcDbLine
10
28.013758
20
0.066437
30
0
11
28.013758
21
-4.194639
31
0
39
0
210
0
220
0
230
1
0
LINE
5
A8
100
AcDbEntity
8
1
62
256
6
ByLayer
370
13
48
1
60
0
100
AcDbLine
10
20.635952
20
8.991333
30
0
11
20.243158
21
9.384127
31
0
39
0
210
0
220
0
230
1
0
LINE
5
A9
100
AcDbEntity
8
1
62
256
6
ByLayer
370
13
48
1
60
0
100
AcDbLine
10
32.933227
20
-5.90792
30
0
11
32.933227
21
-5.180524
31
0
39
0
210
0
220
0
230
1
0
LINE
5
AA
100
AcDbEntity
8
1
62
256
6
ByLayer
370
13
48
1
60
0
100
AcDbLine
10
21.24122
20
-9.387925
30
0
11
21.24122
21
-9.397438
31
0
39
0
210
0
220
0
230
1
0
LINE
5
AB
100
AcDbEntity
8
1
62
256
6
ByLayer
370
13
48
1
60
0
100
AcDbLine
10
33.0388
20
3.728094
30
0
11
33.0388
21
-1.047872
31
0
39
0
210
0
220
0
230
1
0
LINE
5
AC
100
AcDbEntity
8
1
62
256
6
ByLayer
370
13
48
1
60
0
100
AcDbLine
10
17.410293
20
-4.259051
30
0
11
20.243158
21
-4.259051
31
0
39
0
210
0
220
0
230
1
0
LINE
5
AD
100
AcDbEntity
8
1
62
256
6
ByLayer
370
13
48
1
60
0
100
AcDbLine
10
33.0388
20
8.187456
30
0
11
33.0388
21
8.437373
31
0
39
0
210
0
220
0
230
1
0
LINE
5
AE
100
AcDbEntity
8
81
62
256
6
ByLayer
370
18
48
1
60
0
100
AcDbLine
10
33.4888
20
9.779
30
0
11
38.4888
21
9.779
31
0
39
0
210
0
220
0
230
1
0
LINE
5
AF
100
AcDbEntity
8
SK4
62
256
6
ByLayer
370
18
48
0.05
60
0
100
AcDbLine
10
-56.6
20
0
30
0
11
38.4888
21
0
31
0
39
0
210
0
220
0
230
1
0
LINE
5
B1
100
AcDbEntity
8
80
62
256
6
ByLayer
370
18
48
1
60
0
100
AcDbLine
10
0
20
0
30
0
11
-5
21
0
31
0
39
0
210
0
220
0
230
1
0
LINE
5
B2
100
AcDbEntity
8
1
62
256
6
ByLayer
370
13
48
1
60
0
100
AcDbLine
10
-0.015
20
-9.52175
30
0
11
0
21
-9.52175
31
0
39
0
210
0
220
0
230
1
0
LINE
5
B3
100
AcDbEntity
8
1
62
256
6
ByLayer
370
13
48
1
60
0
100
AcDbLine
10
0
20
9.52175
30
0
11
-0.015
21
9.52175
31
0
39
0
210
0
220
0
230
1
0
LINE
5
B4
100
AcDbEntity
8
1
62
256
6
ByLayer
370
18
48
1
60
0
100
AcDbLine
10
26.476414
20
1.666396
30
0
11
26.231465
21
1.49319
31
0
39
0
210
0
220
0
230
1
0
LINE
5
B5
100
AcDbEntity
8
1
62
256
6
ByLayer
370
18
48
1
60
0
100
AcDbLine
10
28.680955
20
1.49319
30
0
11
28.436006
21
1.666396
31
0
39
0
210
0
220
0
230
1
0
LINE
5
B6
100
AcDbEntity
8
1
62
256
6
ByLayer
370
13
48
1
60
0
100
AcDbLine
10
21.938453
20
-9.680594
30
0
11
21.972017
21
-9.713241
31
0
39
0
210
0
220
0
230
1
0
LINE
5
B7
100
AcDbEntity
8
1
62
256
6
ByLayer
370
13
48
1
60
0
100
AcDbLine
10
0.329937
20
-9.397438
30
0
11
21.24122
21
-9.397438
31
0
39
0
210
0
220
0
230
1
0
LINE
5
B8
100
AcDbEntity
8
1
62
256
6
ByLayer
370
13
48
1
60
0
100
AcDbLine
10
15.896958
20
9.397438
30
0
11
0.329937
21
9.397438
31
0
39
0
210
0
220
0
230
1
0
LINE
5
B9
100
AcDbEntity
8
SK1
62
256
6
ByLayer
370
13
48
1
60
0
100
AcDbLine
10
-51.6
20
-8.52175
30
0
11
-50.6
21
-9.52175
31
0
39
0
210
0
220
0
230
1
0
LINE
5
BA
100
AcDbEntity
8
SK1
62
256
6
ByLayer
370
13
48
1
60
0
100
AcDbLine
10
-50.6
20
9.52175
30
0
11
-51.6
21
8.52175
31
0
39
0
210
0
220
0
230
1
0
LINE
5
BB
100
AcDbEntity
8
SK1
62
256
6
ByLayer
370
13
48
1
60
0
100
AcDbLine
10
-50.6
20
-9.52175
30
0
11
-0.015
21
-9.52175
31
0
39
0
210
0
220
0
230
1
0
LINE
5
BC
100
AcDbEntity
8
SK1
62
256
6
ByLayer
370
13
48
1
60
0
100
AcDbLine
10
-0.015
20
9.52175
30
0
11
-50.6
21
9.52175
31
0
39
0
210
0
220
0
230
1
0
LINE
5
BD
100
AcDbEntity
8
4
62
256
6
ByLayer
370
18
48
0.05
60
0
100
AcDbLine
10
0
20
0
30
0
11
38.4888
21
0
31
0
39
0
210
0
220
0
230
1
0
LINE
5
BF
100
AcDbEntity
8
SK2
62
256
6
ByLayer
370
13
48
1
60
0
100
AcDbLine
10
27.133678
20
16.134122
30
0
11
22.069586
21
21.198214
31
0
39
0
210
0
220
0
230
1
0
LINE
5
C1
100
AcDbEntity
8
SK2
62
256
6
ByLayer
370
13
48
1
60
0
100
AcDbLine
10
33.4888
20
11.3665
30
0
11
33.4888
21
25.928207
31
0
39
0
210
0
220
0
230
1
0
LINE
5
C2
100
AcDbEntity
8
1
62
256
6
ByLayer
370
13
48
1
60
0
100
AcDbLine
10
24.31465
20
18.95315
30
0
11
26.415103
21
21.37047
31
0
39
0
210
0
220
0
230
1
0
LINE
5
C3
100
AcDbEntity
8
1
62
256
6
ByLayer
370
13
48
1
60
0
100
AcDbLine
10
24.31465
20
18.95315
30
0
11
26.969182
21
20.744466
31
0
39
0
210
0
220
0
230
1
0
LINE
5
C4
100
AcDbEntity
8
1
62
256
6
ByLayer
370
13
48
1
60
0
100
AcDbLine
10
26.415103
20
21.37047
30
0
11
26.969182
21
20.744466
31
0
39
0
210
0
220
0
230
1
0
LINE
5
C5
100
AcDbEntity
8
1
62
256
6
ByLayer
370
13
48
1
60
0
100
AcDbLine
10
33.4888
20
22.753207
30
0
11
30.345113
21
22.142821
31
0
39
0
210
0
220
0
230
1
0
LINE
5
C6
100
AcDbEntity
8
1
62
256
6
ByLayer
370
13
48
1
60
0
100
AcDbLine
10
33.4888
20
22.753207
30
0
11
30.294249
21
22.977266
31
0
39
0
210
0
220
0
230
1
0
LINE
5
C7
100
AcDbEntity
8
1
62
256
6
ByLayer
370
13
48
1
60
0
100
AcDbLine
10
30.345113
20
22.142821
30
0
11
30.294249
21
22.977266
31
0
39
0
210
0
220
0
230
1
0
MTEXT
5
18F
100
AcDbEntity
8
SK2
62
256
6
ByLayer
370
18
48
1
60
0
100
AcDbMText
10
40.011301
20
23.567962
30
0
210
0
220
0
230
1
1
\W1.0427;45%%d
40
4.5
41
0
44
1.084337
50
315.549094944912
71
7
72
5
7
iso_b_vert
0
MTEXT
5
192
100
AcDbEntity
8
SK6
62
256
6
ByLayer
370
18
48
1
60
0
100
AcDbMText
10
-107.843753
20
-18.649191
30
0
210
0
220
0
230
1
1
\W0.7730;A495-020M19-4509M
40
4
41
0
44
1.084337
50
89.9999999999998
71
7
72
5
7
iso_b_vert
0
DIMENSION
5
195
100
AcDbEntity
8
2
62
256
6
ByLayer
370
18
48
1
60
0
100
AcDbDimension
2
_U0
10
58.385675
20
9.779
30
0
11
58.385675
21
33.163534
31
0
70
32
71
1
72
1
41
1
210
0
220
0
230
1
3
Standard
100
AcDbAlignedDimension
13
33.4888
23
-9.779
33
0
14
33.4888
24
9.779
34
0
50
90
100
AcDbRotatedDimension
1001
ACAD
1000
DSTYLE
1002
{
1070
   371
1070
    13
1070
   372
1070
    13
1070
   170
1070
     0
1070
   144
1040
1.0
1070
   277
1070
     2
1070
   284
1070
     8
1070
   278
1070
    46
1070
   146
1040
0.777778
1070
   345
1005
16
1070
   347
1005
16
1070
   346
1005
16
1070
   344
1005
196
1070
   343
1005
196
1070
   172
1070
     1
1070
    76
1070
     0
1070
    75
1070
     0
1070
   282
1070
     0
1070
   281
1070
     0
1070
    71
1070
     0
1070
    74
1070
     0
1070
   279
1070
     0
1070
   173
1070
     1
1070
   340
1005
190
1070
   271
1070
     2
1070
   272
1070
     2
1070
    77
1070
     1
1070
    73
1070
     0
1070
   171
1070
     3
1070
   274
1070
     4
1070
   177
1070
   150
1070
   176
1070
     9
1070
   178
1070
    43
1070
    78
1070
     8
1070
    48
1040
-0.1
1070
    41
1040
3.175
1070
   147
1040
2.25
1070
    42
1040
1.5875
1070
    44
1040
3.175
1070
   140
1040
4.5
1002
}
1001
ACAD_DSTYLE_DIM_LINETYPE
1070
   380
1005
16
1001
ACAD_DSTYLE_DIM_EXT1_LINETYPE
1070
   381
1005
16
1001
ACAD_DSTYLE_DIM_EXT2_LINETYPE
1070
   382
1005
16
0
DIMENSION
5
1BD
100
AcDbEntity
8
SK2
62
256
6
ByLayer
370
18
48
1
60
0
100
AcDbDimension
2
_U1
10
-0.0012
20
-34.279
30
0
11
16.7438
21
-34.279
31
0
70
32
71
1
72
1
41
1
210
0
220
0
230
1
3
Standard
100
AcDbAlignedDimension
13
33.4888
23
-9.779
33
0
14
-0.0012
24
0
34
0
50
0
100
AcDbRotatedDimension
1001
ACAD
1000
DSTYLE
1002
{
1070
   371
1070
    13
1070
   372
1070
    13
1070
   170
1070
     0
1070
   144
1040
1.0
1070
   277
1070
     2
1070
   284
1070
     8
1070
   278
1070
    46
1070
   146
1040
0.777778
1070
   345
1005
16
1070
   347
1005
16
1070
   346
1005
16
1070
   344
1005
196
1070
   343
1005
196
1070
   172
1070
     1
1070
    76
1070
     0
1070
    75
1070
     0
1070
   282
1070
     0
1070
   281
1070
     0
1070
    71
1070
     0
1070
    74
1070
     0
1070
   279
1070
     0
1070
   173
1070
     1
1070
   340
1005
190
1070
   271
1070
     2
1070
   272
1070
     2
1070
    77
1070
     1
1070
    73
1070
     1
1070
   171
1070
     3
1070
   274
1070
     4
1070
   177
1070
   150
1070
   176
1070
     9
1070
   178
1070
    43
1070
    78
1070
     8
1070
    48
1040
-0.1
1070
    41
1040
3.175
1070
   147
1040
2.25
1070
    42
1040
1.5875
1070
    44
1040
3.175
1070
   140
1040
4.5
1002
}
1001
ACAD_DSTYLE_DIM_LINETYPE
1070
   380
1005
16
1001
ACAD_DSTYLE_DIM_EXT1_LINETYPE
1070
   381
1005
16
1001
ACAD_DSTYLE_DIM_EXT2_LINETYPE
1070
   382
1005
16
0
DIMENSION
5
1D9
100
AcDbEntity
8
2
62
256
6
ByLayer
370
18
48
1
60
0
100
AcDbDimension
2
_U2
10
33.4888
20
30.279
30
0
11
-9.0556
21
30.279
31
0
70
32
71
1
72
1
41
1
210
0
220
0
230
1
3
Standard
100
AcDbAlignedDimension
13
-51.6
23
9.52175
33
0
14
33.4888
24
9.779
34
0
50
0
100
AcDbRotatedDimension
1001
ACAD
1000
DSTYLE
1002
{
1070
   371
1070
    13
1070
   372
1070
    13
1070
   170
1070
     0
1070
   144
1040
1.0
1070
   277
1070
     2
1070
   284
1070
     8
1070
   278
1070
    46
1070
   146
1040
0.777778
1070
   345
1005
16
1070
   347
1005
16
1070
   346
1005
16
1070
   344
1005
196
1070
   343
1005
196
1070
   172
1070
     1
1070
    76
1070
     0
1070
    75
1070
     0
1070
   282
1070
     0
1070
   281
1070
     0
1070
    71
1070
     0
1070
    74
1070
     0
1070
   279
1070
     0
1070
   173
1070
     1
1070
   340
1005
190
1070
   271
1070
     2
1070
   272
1070
     2
1070
    77
1070
     1
1070
    73
1070
     1
1070
   171
1070
     3
1070
   274
1070
     4
1070
   177
1070
   150
1070
   176
1070
     9
1070
   178
1070
    43
1070
    78
1070
     8
1070
    48
1040
-0.1
1070
    41
1040
3.175
1070
   147
1040
2.25
1070
    42
1040
1.5875
1070
    44
1040
3.175
1070
   140
1040
4.5
1002
}
1001
ACAD_DSTYLE_DIM_LINETYPE
1070
   380
1005
16
1001
ACAD_DSTYLE_DIM_EXT1_LINETYPE
1070
   381
1005
16
1001
ACAD_DSTYLE_DIM_EXT2_LINETYPE
1070
   382
1005
16
0
DIMENSION
5
1F5
100
AcDbEntity
8
SK2
62
256
6
ByLayer
370
18
48
1
60
0
100
AcDbDimension
2
_U3
10
27.4525
20
20.279
30
0
11
-12.07375
21
20.279
31
0
70
32
71
1
72
1
41
1
210
0
220
0
230
1
3
Standard
100
AcDbAlignedDimension
13
-51.6
23
9.52175
33
0
14
27.4525
24
15.48
34
0
50
0
100
AcDbRotatedDimension
1001
ACAD
1000
DSTYLE
1002
{
1070
   371
1070
    13
1070
   372
1070
    13
1070
   170
1070
     0
1070
   144
1040
1.0
1070
   277
1070
     2
1070
   284
1070
     8
1070
   278
1070
    46
1070
   146
1040
0.777778
1070
   345
1005
16
1070
   347
1005
16
1070
   346
1005
16
1070
   344
1005
196
1070
   343
1005
196
1070
   172
1070
     1
1070
    76
1070
     0
1070
    75
1070
     0
1070
   282
1070
     0
1070
   281
1070
     0
1070
    71
1070
     0
1070
    74
1070
     0
1070
   279
1070
     0
1070
   173
1070
     1
1070
   340
1005
190
1070
   271
1070
     2
1070
   272
1070
     2
1070
    77
1070
     1
1070
    73
1070
     1
1070
   171
1070
     3
1070
   274
1070
     4
1070
   177
1070
   150
1070
   176
1070
     9
1070
   178
1070
    43
1070
    78
1070
     8
1070
    48
1040
-0.1
1070
    41
1040
3.175
1070
   147
1040
2.25
1070
    42
1040
1.5875
1070
    44
1040
3.175
1070
   140
1040
4.5
1002
}
1001
ACAD_DSTYLE_DIM_LINETYPE
1070
   380
1005
16
1001
ACAD_DSTYLE_DIM_EXT1_LINETYPE
1070
   381
1005
16
1001
ACAD_DSTYLE_DIM_EXT2_LINETYPE
1070
   382
1005
16
0
DIMENSION
5
211
100
AcDbEntity
8
SK2
62
256
6
ByLayer
370
18
48
1
60
0
100
AcDbDimension
2
_U4
10
69.2388
20
15.48
30
0
11
69.2388
21
0
31
0
70
32
71
1
72
1
41
1
210
0
220
0
230
1
3
Standard
100
AcDbAlignedDimension
13
27.4525
23
-15.48
33
0
14
27.4525
24
15.48
34
0
50
90
100
AcDbRotatedDimension
1001
ACAD
1000
DSTYLE
1002
{
1070
   371
1070
    13
1070
   372
1070
    13
1070
   170
1070
     0
1070
   144
1040
1.0
1070
   277
1070
     2
1070
   284
1070
     8
1070
   278
1070
    46
1070
   146
1040
0.777778
1070
   345
1005
16
1070
   347
1005
16
1070
   346
1005
16
1070
   344
1005
196
1070
   343
1005
196
1070
   172
1070
     1
1070
    76
1070
     0
1070
    75
1070
     0
1070
   282
1070
     0
1070
   281
1070
     0
1070
    71
1070
     0
1070
    74
1070
     0
1070
   279
1070
     0
1070
   173
1070
     1
1070
   340
1005
190
1070
   271
1070
     2
1070
   272
1070
     2
1070
    77
1070
     1
1070
    73
1070
     0
1070
   171
1070
     3
1070
   274
1070
     4
1070
   177
1070
   150
1070
   176
1070
     9
1070
   178
1070
    43
1070
    78
1070
     8
1070
    48
1040
-0.1
1070
    41
1040
3.175
1070
   147
1040
2.25
1070
    42
1040
1.5875
1070
    44
1040
3.175
1070
   140
1040
4.5
1002
}
1001
ACAD_DSTYLE_DIM_LINETYPE
1070
   380
1005
16
1001
ACAD_DSTYLE_DIM_EXT1_LINETYPE
1070
   381
1005
16
1001
ACAD_DSTYLE_DIM_EXT2_LINETYPE
1070
   382
1005
16
0
DIMENSION
5
22E
100
AcDbEntity
8
SK2
62
256
6
ByLayer
370
18
48
1
60
0
100
AcDbDimension
2
_U5
10
-76.703125
20
-9.52175
30
0
11
-76.703125
21
33.214273
31
0
70
32
71
1
72
1
41
1
210
0
220
0
230
1
3
Standard
100
AcDbAlignedDimension
13
-51.6
23
9.52175
33
0
14
-51.6
24
-9.52175
34
0
50
90
100
AcDbRotatedDimension
1001
ACAD
1000
DSTYLE
1002
{
1070
   371
1070
    13
1070
   372
1070
    13
1070
   170
1070
     0
1070
   144
1040
1.0
1070
   277
1070
     2
1070
   284
1070
     8
1070
   278
1070
    46
1070
   146
1040
0.777778
1070
   345
1005
16
1070
   347
1005
16
1070
   346
1005
16
1070
   344
1005
196
1070
   343
1005
196
1070
   172
1070
     1
1070
    76
1070
     0
1070
    75
1070
     0
1070
   282
1070
     0
1070
   281
1070
     0
1070
    71
1070
     0
1070
    74
1070
     0
1070
   279
1070
     0
1070
   173
1070
     1
1070
   340
1005
190
1070
   271
1070
     2
1070
   272
1070
     2
1070
    77
1070
     1
1070
    73
1070
     0
1070
   171
1070
     3
1070
   274
1070
     4
1070
   177
1070
   150
1070
   176
1070
     9
1070
   178
1070
    43
1070
    78
1070
     8
1070
    48
1040
-0.1
1070
    41
1040
3.175
1070
   147
1040
2.25
1070
    42
1040
1.5875
1070
    44
1040
3.175
1070
   140
1040
4.5
1002
}
1001
ACAD_DSTYLE_DIM_LINETYPE
1070
   380
1005
16
1001
ACAD_DSTYLE_DIM_EXT1_LINETYPE
1070
   381
1005
16
1001
ACAD_DSTYLE_DIM_EXT2_LINETYPE
1070
   382
1005
16
0
ENDSEC
0
SECTION
2
OBJECTS
0
DICTIONARY
5
2bd
330
0
100
AcDbDictionary
280
0
281
1
3
ACAD_GROUP
350
2be
3
ACAD_MLINESTYLE
350
2bf
0
DICTIONARY
5
2be
330
0
100
AcDbDictionary
280
0
281
1
0
DICTIONARY
5
2bf
330
0
100
AcDbDictionary
280
0
281
1
3
Standard
350
18
0
MLINESTYLE
5
18
330
2bf
100
AcDbMlineStyle
2
Standard
70
0
3

62
256
51
90
52
90
71
2
49
-0.5
62
256
6
ByLayer
49
0.5
62
256
6
ByLayer
0
RASTERVARIABLES
5
2ab
330

100
AcDbRasterVariables
90
0
70
1
71
1
72
1
0
ENDSEC
0
EOF
